0
SECTION
2
HEADER
9
$ACADVER
1
AC1015
9
$DWGCODEPAGE
3
ANSI_1252
9
$HANDSEED
5
200
9
$ANGBASE
50
0
9
$ANGDIR
70
0
9
$ATTMODE
70
1
9
$AUNITS
70
0
9
$AUPREC
70
0
9
$CECOLOR
62
256
9
$CELTSCALE
40
1
9
$CELTYPE
6
ByLayer
9
$CELWEIGHT
370
18
9
$CLAYER
8
0
9
$CMLJUST
70
0
9
$CMLSCALE
40
1
9
$CMLSTYLE
2
Standard
9
$DIMSTYLE
2
Standard
9
$TEXTSIZE
40
0.2
9
$TEXTSTYLE
7
Standard
9
$LUNITS
70
2
9
$LUPREC
70
4
9
$EXTNAMES
290
1
9
$INSUNITS
70
4
9
$LTSCALE
40
1
9
$LWDISPLAY
290
1
9
$PDMODE
70
0
9
$PDSIZE
40
0
9
$PLINEGEN
70
0
0
ENDSEC
0
SECTION
2
CLASSES
0
CLASS
1
RASTERVARIABLES
2
AcDbRasterVariables
3
ISM
90
0
280
0
281
0
0
ENDSEC
0
SECTION
2
TABLES
0
TABLE
2
VPORT
5
1f6
100
AcDbSymbolTable
0
VPORT
5
1
100
AcDbSymbolTableRecord
100
AcDbViewportTableRecord
2
*Active
70
0
10
0
20
0
11
1
21
1
12
-1
22
1
13
0
23
0
14
0.5
24
0.5
15
10
25
10
16
0
26
0
36
1
17
0
27
0
37
0
0
ENDTAB
0
TABLE
2
LTYPE
5
1f7
100
AcDbSymbolTable
0
LTYPE
5
14
100
AcDbSymbolTableRecord
100
AcDbLinetypeTableRecord
70
0
2
ByBlock
3

72
65
73
0
40
0
0
LTYPE
5
15
100
AcDbSymbolTableRecord
100
AcDbLinetypeTableRecord
70
0
2
ByLayer
3

72
65
73
0
40
0
0
LTYPE
5
16
100
AcDbSymbolTableRecord
100
AcDbLinetypeTableRecord
70
0
2
Continuous
3
Solid line
72
65
73
0
40
0
0
LTYPE
5
6E
100
AcDbSymbolTableRecord
100
AcDbLinetypeTableRecord
70
0
2
CENTER
3
____ _ ____ _ ____ _ ____
72
65
73
4
40
47.5
49
22
74
0
49
-8.5
74
0
49
8.5
74
0
49
-8.5
74
0
0
LTYPE
5
6F
100
AcDbSymbolTableRecord
100
AcDbLinetypeTableRecord
70
0
2
DASHED
3
__ __ __ __ __ __ __ __ __
72
65
73
2
40
25.72
49
12.86
74
0
49
-12.86
74
0
0
ENDTAB
0
TABLE
2
LAYER
5
1f8
100
AcDbSymbolTable
0
LAYER
5
10
100
AcDbSymbolTableRecord
100
AcDbLayerTableRecord
2
0
70
0
62
7
6
Continuous
290
1
370
-3
390
0
0
LAYER
5
71
100
AcDbSymbolTableRecord
100
AcDbLayerTableRecord
2
80
70
0
62
-6
6
Continuous
290
1
370
-3
390
0
0
LAYER
5
73
100
AcDbSymbolTableRecord
100
AcDbLayerTableRecord
2
81
70
0
62
-3
6
Continuous
290
1
370
-3
390
0
0
LAYER
5
75
100
AcDbSymbolTableRecord
100
AcDbLayerTableRecord
2
1
70
0
62
4
6
Continuous
290
1
370
-3
390
0
0
LAYER
5
DE
100
AcDbSymbolTableRecord
100
AcDbLayerTableRecord
2
4
70
0
62
-2
6
CENTER
290
1
370
-3
390
0
0
LAYER
5
12B
100
AcDbSymbolTableRecord
100
AcDbLayerTableRecord
2
Defpoints
70
0
62
7
6
Continuous
290
0
370
-3
390
0
0
LAYER
5
138
100
AcDbSymbolTableRecord
100
AcDbLayerTableRecord
2
2
70
0
62
7
6
Continuous
290
1
370
-3
390
0
0
LAYER
5
1e1
100
AcDbSymbolTableRecord
100
AcDbLayerTableRecord
2
SK3
70
0
62
1
6
DASHED
290
1
370
-3
390
0
0
LAYER
5
1e2
100
AcDbSymbolTableRecord
100
AcDbLayerTableRecord
2
SK1
70
0
62
4
6
Continuous
290
1
370
-3
390
0
0
LAYER
5
1e3
100
AcDbSymbolTableRecord
100
AcDbLayerTableRecord
2
SK4
70
0
62
2
6
CENTER
290
1
370
-3
390
0
0
LAYER
5
1e4
100
AcDbSymbolTableRecord
100
AcDbLayerTableRecord
2
SK6
70
0
62
5
6
Continuous
290
1
370
-3
390
0
0
LAYER
5
1e5
100
AcDbSymbolTableRecord
100
AcDbLayerTableRecord
2
SK2
70
0
62
7
6
Continuous
290
1
370
-3
390
0
0
ENDTAB
0
TABLE
2
STYLE
5
1f9
100
AcDbSymbolTable
0
STYLE
5
11
100
AcDbSymbolTableRecord
100
AcDbTextStyleTableRecord
2
Standard
3
txt
70
0
71
0
40
0
41
1
42
0
50
0
0
STYLE
5
11D
100
AcDbSymbolTableRecord
100
AcDbTextStyleTableRecord
2
iso_b_vert
3
simplex.shx
70
0
71
0
40
0
41
1
42
0
50
0
0
STYLE
5
11E
100
AcDbSymbolTableRecord
100
AcDbTextStyleTableRecord
2
DWGDirectTextStyle
3
simplex
70
0
71
0
40
0
41
1
42
0
50
0
0
ENDTAB
0
TABLE
2
DIMSTYLE
5
1fa
100
AcDbSymbolTable
100
AcDbDimStyleTable
0
DIMSTYLE
105
27
100
AcDbSymbolTableRecord
100
AcDbDimStyleTableRecord
2
Standard
70
0
3
<>
41
0.18
42
0.0625
44
0.18
140
0.18
147
0.09
73
0
74
0
77
1
271
2
275
0
278
52
280
0
340
11
0
ENDTAB
0
TABLE
2
VIEW
5
1fb
100
AcDbSymbolTable
0
ENDTAB
0
TABLE
2
UCS
5
1fc
100
AcDbSymbolTable
0
ENDTAB
0
TABLE
2
APPID
5
1fd
100
AcDbSymbolTable
0
APPID
5
12
100
AcDbSymbolTableRecord
100
AcDbRegAppTableRecord
2
ACAD
70
0
0
APPID
5
120
100
AcDbSymbolTableRecord
100
AcDbRegAppTableRecord
2
ACAD_DSTYLE_DIMBREAK
70
0
0
APPID
5
1A0
100
AcDbSymbolTableRecord
100
AcDbRegAppTableRecord
2
ACAD_DSTYLE_DIM_LINETYPE
70
0
0
APPID
5
1A1
100
AcDbSymbolTableRecord
100
AcDbRegAppTableRecord
2
ACAD_DSTYLE_DIM_EXT1_LINETYPE
70
0
0
APPID
5
1A2
100
AcDbSymbolTableRecord
100
AcDbRegAppTableRecord
2
ACAD_DSTYLE_DIM_EXT2_LINETYPE
70
0
0
APPID
5
1DD
100
AcDbSymbolTableRecord
100
AcDbRegAppTableRecord
2
ACAD_MLEADERVER
70
0
0
ENDTAB
0
TABLE
2
BLOCK_RECORD
5
1fe
100
AcDbSymbolTable
0
BLOCK_RECORD
5
1F
100
AcDbSymbolTableRecord
100
AcDbBlockTableRecord
2
*Model_Space
340
0
70
0
0
BLOCK_RECORD
5
1B
100
AcDbSymbolTableRecord
100
AcDbBlockTableRecord
2
*Paper_Space
340
0
70
0
0
BLOCK_RECORD
5
23
100
AcDbSymbolTableRecord
100
AcDbBlockTableRecord
2
*Paper_Space0
340
0
70
0
0
BLOCK_RECORD
5
122
100
AcDbSymbolTableRecord
100
AcDbBlockTableRecord
2
_Closed
340
0
70
0
0
BLOCK_RECORD
5
12C
100
AcDbSymbolTableRecord
100
AcDbBlockTableRecord
2
*D2
340
0
70
0
0
BLOCK_RECORD
5
139
100
AcDbSymbolTableRecord
100
AcDbBlockTableRecord
2
_U0
340
0
70
0
0
BLOCK_RECORD
5
149
100
AcDbSymbolTableRecord
100
AcDbBlockTableRecord
2
*D4
340
0
70
0
0
BLOCK_RECORD
5
158
100
AcDbSymbolTableRecord
100
AcDbBlockTableRecord
2
_U1
340
0
70
0
0
BLOCK_RECORD
5
168
100
AcDbSymbolTableRecord
100
AcDbBlockTableRecord
2
*D6
340
0
70
0
0
BLOCK_RECORD
5
174
100
AcDbSymbolTableRecord
100
AcDbBlockTableRecord
2
_U2
340
0
70
0
0
ENDTAB
0
ENDSEC
0
SECTION
2
BLOCKS
0
BLOCK
5
20
100
AcDbEntity
8
0
100
AcDbBlockBegin
2
*Model_Space
70
0
10
0
20
0
30
0
3
*Model_Space
0
ENDBLK
5
21
100
AcDbEntity
8
0
100
AcDbBlockEnd
0
BLOCK
5
1C
100
AcDbEntity
8
0
100
AcDbBlockBegin
2
*Paper_Space
70
0
10
0
20
0
30
0
3
*Paper_Space
0
ENDBLK
5
1D
100
AcDbEntity
8
0
100
AcDbBlockEnd
0
BLOCK
5
24
100
AcDbEntity
8
0
100
AcDbBlockBegin
2
*Paper_Space0
70
0
10
0
20
0
30
0
3
*Paper_Space0
0
ENDBLK
5
25
100
AcDbEntity
8
0
100
AcDbBlockEnd
0
BLOCK
5
123
100
AcDbEntity
8
0
100
AcDbBlockBegin
2
_Closed
70
0
10
0
20
0
30
0
3
_Closed
0
LINE
5
125
100
AcDbEntity
8
0
62
256
6
ByLayer
370
-2
48
1
60
0
100
AcDbLine
10
-1
20
0.166667
30
0
11
0
21
0
31
0
39
0
210
0
220
0
230
1
0
LINE
5
126
100
AcDbEntity
8
0
62
256
6
ByLayer
370
-2
48
1
60
0
100
AcDbLine
10
0
20
0
30
0
11
-1
21
-0.166667
31
0
39
0
210
0
220
0
230
1
0
LINE
5
127
100
AcDbEntity
8
0
62
256
6
ByLayer
370
-2
48
1
60
0
100
AcDbLine
10
-1
20
0.166667
30
0
11
-1
21
-0.166667
31
0
39
0
210
0
220
0
230
1
0
LINE
5
128
100
AcDbEntity
8
0
62
256
6
ByLayer
370
-2
48
1
60
0
100
AcDbLine
10
0
20
0
30
0
11
-1
21
0
31
0
39
0
210
0
220
0
230
1
0
ENDBLK
5
124
100
AcDbEntity
8
0
100
AcDbBlockEnd
0
BLOCK
5
12D
100
AcDbEntity
8
0
100
AcDbBlockBegin
2
*D2
70
1
10
0
20
0
30
0
3
*D2
0
LINE
5
12F
100
AcDbEntity
8
0
62
256
6
ByLayer
370
-2
48
1
60
0
100
AcDbLine
10
0
20
51.2875
30
0
11
0
21
62.310352
31
0
39
0
210
0
220
0
230
1
0
LINE
5
130
100
AcDbEntity
8
0
62
256
6
ByLayer
370
-2
48
1
60
0
100
AcDbLine
10
36
20
50.5875
30
0
11
36
21
62.310352
31
0
39
0
210
0
220
0
230
1
0
LINE
5
131
100
AcDbEntity
8
0
62
256
6
ByLayer
370
-2
48
1
60
0
100
AcDbLine
10
3.175
20
60.310352
30
0
11
32.825
21
60.310352
31
0
39
0
210
0
220
0
230
1
0
SOLID
5
132
100
AcDbEntity
8
0
62
256
6
ByLayer
370
-1
48
1
60
0
100
AcDbTrace
10
3.175
20
60.839519
30
0
11
3.175
21
59.781185
31
0
12
0
22
60.310352
32
0
13
0
23
60.310352
33
0
39
0
210
0
220
0
230
1
0
SOLID
5
133
100
AcDbEntity
8
0
62
256
6
ByLayer
370
-1
48
1
60
0
100
AcDbTrace
10
32.825
20
59.781185
30
0
11
32.825
21
60.839519
31
0
12
36
22
60.310352
32
0
13
36
23
60.310352
33
0
39
0
210
0
220
0
230
1
0
MTEXT
5
134
100
AcDbEntity
8
0
62
256
6
ByLayer
370
18
48
1
60
0
100
AcDbMText
10
18
20
66.310352
30
0
210
0
220
0
230
1
1
\A1;36
40
3
41
0
44
1
50
0
71
5
72
5
7
iso_b_vert
0
POINT
5
135
100
AcDbEntity
8
Defpoints
62
0
6
ByLayer
370
-1
48
1
60
0
100
AcDbPoint
10
0
20
49.7
30
0
39
0
210
0
220
0
230
1
50
360
0
POINT
5
136
100
AcDbEntity
8
Defpoints
62
0
6
ByLayer
370
-1
48
1
60
0
100
AcDbPoint
10
36
20
49
30
0
39
0
210
0
220
0
230
1
50
360
0
POINT
5
137
100
AcDbEntity
8
Defpoints
62
0
6
ByLayer
370
-1
48
1
60
0
100
AcDbPoint
10
36
20
60.310352
30
0
39
0
210
0
220
0
230
1
50
360
0
ENDBLK
5
12E
100
AcDbEntity
8
0
100
AcDbBlockEnd
0
BLOCK
5
144
100
AcDbEntity
8
0
100
AcDbBlockBegin
2
_U0
70
0
10
0
20
0
30
0
3
_U0
0
MTEXT
5
13A
100
AcDbEntity
8
2
62
256
6
ByLayer
370
18
48
1
60
0
100
AcDbMText
10
16.367172
20
61.195466
30
0
210
0
220
0
230
1
1
\W0.6740;36
40
3
41
0
44
1.084337
50
0
71
7
72
5
7
iso_b_vert
0
LINE
5
13B
100
AcDbEntity
8
2
62
256
6
ByLayer
370
13
48
1
60
0
100
AcDbLine
10
0
20
51.2875
30
0
11
0
21
62.310352
31
0
39
0
210
0
220
0
230
1
0
LINE
5
13C
100
AcDbEntity
8
2
62
256
6
ByLayer
370
13
48
1
60
0
100
AcDbLine
10
36
20
50.5875
30
0
11
36
21
62.310352
31
0
39
0
210
0
220
0
230
1
0
LINE
5
13D
100
AcDbEntity
8
2
62
256
6
ByLayer
370
13
48
1
60
0
100
AcDbLine
10
0
20
60.310352
30
0
11
36
21
60.310352
31
0
39
0
210
0
220
0
230
1
0
LINE
5
13E
100
AcDbEntity
8
2
62
256
6
ByLayer
370
13
48
1
60
0
100
AcDbLine
10
0
20
60.310352
30
0
11
3.174998
21
60.728349
31
0
39
0
210
0
220
0
230
1
0
LINE
5
13F
100
AcDbEntity
8
2
62
256
6
ByLayer
370
13
48
1
60
0
100
AcDbLine
10
0
20
60.310352
30
0
11
3.175002
21
59.892355
31
0
39
0
210
0
220
0
230
1
0
LINE
5
140
100
AcDbEntity
8
2
62
256
6
ByLayer
370
13
48
1
60
0
100
AcDbLine
10
3.174998
20
60.728349
30
0
11
3.175002
21
59.892355
31
0
39
0
210
0
220
0
230
1
0
LINE
5
141
100
AcDbEntity
8
2
62
256
6
ByLayer
370
13
48
1
60
0
100
AcDbLine
10
36
20
60.310352
30
0
11
32.825002
21
59.892355
31
0
39
0
210
0
220
0
230
1
0
LINE
5
142
100
AcDbEntity
8
2
62
256
6
ByLayer
370
13
48
1
60
0
100
AcDbLine
10
36
20
60.310352
30
0
11
32.824998
21
60.728349
31
0
39
0
210
0
220
0
230
1
0
LINE
5
143
100
AcDbEntity
8
2
62
256
6
ByLayer
370
13
48
1
60
0
100
AcDbLine
10
32.825002
20
59.892355
30
0
11
32.824998
21
60.728349
31
0
39
0
210
0
220
0
230
1
0
ENDBLK
5
145
100
AcDbEntity
8
0
100
AcDbBlockEnd
0
BLOCK
5
14A
100
AcDbEntity
8
0
100
AcDbBlockBegin
2
*D4
70
1
10
0
20
0
30
0
3
*D4
0
LINE
5
14C
100
AcDbEntity
8
0
62
256
6
ByLayer
370
-2
48
1
60
0
100
AcDbLine
10
36
20
-50.5875
30
0
11
36
21
-59.422342
31
0
39
0
210
0
220
0
230
1
0
LINE
5
14D
100
AcDbEntity
8
0
62
256
6
ByLayer
370
-2
48
1
60
0
100
AcDbLine
10
35
20
-51.5875
30
0
11
35
21
-59.422342
31
0
39
0
210
0
220
0
230
1
0
LINE
5
14E
100
AcDbEntity
8
0
62
256
6
ByLayer
370
-2
48
1
60
0
100
AcDbLine
10
36
20
-57.422342
30
0
11
52.064286
21
-57.422342
31
0
39
0
210
0
220
0
230
1
0
LINE
5
14F
100
AcDbEntity
8
0
62
256
6
ByLayer
370
-2
48
1
60
0
100
AcDbLine
10
39.175
20
-57.422342
30
0
11
42.35
21
-57.422342
31
0
39
0
210
0
220
0
230
1
0
LINE
5
150
100
AcDbEntity
8
0
62
256
6
ByLayer
370
-2
48
1
60
0
100
AcDbLine
10
31.825
20
-57.422342
30
0
11
28.65
21
-57.422342
31
0
39
0
210
0
220
0
230
1
0
SOLID
5
151
100
AcDbEntity
8
0
62
256
6
ByLayer
370
-1
48
1
60
0
100
AcDbTrace
10
39.175
20
-56.893175
30
0
11
39.175
21
-57.951508
31
0
12
36
22
-57.422342
32
0
13
36
23
-57.422342
33
0
39
0
210
0
220
0
230
1
0
SOLID
5
152
100
AcDbEntity
8
0
62
256
6
ByLayer
370
-1
48
1
60
0
100
AcDbTrace
10
31.825
20
-57.951508
30
0
11
31.825
21
-56.893175
31
0
12
35
22
-57.422342
32
0
13
35
23
-57.422342
33
0
39
0
210
0
220
0
230
1
0
MTEXT
5
153
100
AcDbEntity
8
0
62
256
6
ByLayer
370
18
48
1
60
0
100
AcDbMText
10
47.207143
20
-51.422342
30
0
210
0
220
0
230
1
1
\A1;1
40
3
41
0
44
1
50
0
71
5
72
5
7
iso_b_vert
0
POINT
5
154
100
AcDbEntity
8
Defpoints
62
0
6
ByLayer
370
-1
48
1
60
0
100
AcDbPoint
10
36
20
-49
30
0
39
0
210
0
220
0
230
1
50
360
0
POINT
5
155
100
AcDbEntity
8
Defpoints
62
0
6
ByLayer
370
-1
48
1
60
0
100
AcDbPoint
10
35
20
-50
30
0
39
0
210
0
220
0
230
1
50
360
0
POINT
5
156
100
AcDbEntity
8
Defpoints
62
0
6
ByLayer
370
-1
48
1
60
0
100
AcDbPoint
10
35
20
-57.422342
30
0
39
0
210
0
220
0
230
1
50
360
0
ENDBLK
5
14B
100
AcDbEntity
8
0
100
AcDbBlockEnd
0
BLOCK
5
163
100
AcDbEntity
8
0
100
AcDbBlockBegin
2
_U1
70
0
10
0
20
0
30
0
3
_U1
0
MTEXT
5
159
100
AcDbEntity
8
SK2
62
256
6
ByLayer
370
18
48
1
60
0
100
AcDbMText
10
39.085702
20
-56.537227
30
0
210
0
220
0
230
1
1
\W0.3580;1
40
3
41
0
44
1.084337
50
0
71
7
72
5
7
iso_b_vert
0
LINE
5
15A
100
AcDbEntity
8
SK2
62
256
6
ByLayer
370
13
48
1
60
0
100
AcDbLine
10
36
20
-50.5875
30
0
11
36
21
-59.422342
31
0
39
0
210
0
220
0
230
1
0
LINE
5
15B
100
AcDbEntity
8
SK2
62
256
6
ByLayer
370
13
48
1
60
0
100
AcDbLine
10
35
20
-51.5875
30
0
11
35
21
-59.422342
31
0
39
0
210
0
220
0
230
1
0
LINE
5
15C
100
AcDbEntity
8
SK2
62
256
6
ByLayer
370
13
48
1
60
0
100
AcDbLine
10
27.5
20
-57.422342
30
0
11
39.518644
21
-57.422342
31
0
39
0
210
0
220
0
230
1
0
LINE
5
15D
100
AcDbEntity
8
SK2
62
256
6
ByLayer
370
13
48
1
60
0
100
AcDbLine
10
36
20
-57.422342
30
0
11
39.174998
21
-57.004345
31
0
39
0
210
0
220
0
230
1
0
LINE
5
15E
100
AcDbEntity
8
SK2
62
256
6
ByLayer
370
13
48
1
60
0
100
AcDbLine
10
36
20
-57.422342
30
0
11
39.175002
21
-57.840338
31
0
39
0
210
0
220
0
230
1
0
LINE
5
15F
100
AcDbEntity
8
SK2
62
256
6
ByLayer
370
13
48
1
60
0
100
AcDbLine
10
39.174998
20
-57.004345
30
0
11
39.175002
21
-57.840338
31
0
39
0
210
0
220
0
230
1
0
LINE
5
160
100
AcDbEntity
8
SK2
62
256
6
ByLayer
370
13
48
1
60
0
100
AcDbLine
10
35
20
-57.422342
30
0
11
31.825002
21
-57.840338
31
0
39
0
210
0
220
0
230
1
0
LINE
5
161
100
AcDbEntity
8
SK2
62
256
6
ByLayer
370
13
48
1
60
0
100
AcDbLine
10
35
20
-57.422342
30
0
11
31.824998
21
-57.004345
31
0
39
0
210
0
220
0
230
1
0
LINE
5
162
100
AcDbEntity
8
SK2
62
256
6
ByLayer
370
13
48
1
60
0
100
AcDbLine
10
31.825002
20
-57.840338
30
0
11
31.824998
21
-57.004345
31
0
39
0
210
0
220
0
230
1
0
ENDBLK
5
164
100
AcDbEntity
8
0
100
AcDbBlockEnd
0
BLOCK
5
169
100
AcDbEntity
8
0
100
AcDbBlockBegin
2
*D6
70
1
10
0
20
0
30
0
3
*D6
0
LINE
5
16B
100
AcDbEntity
8
0
62
256
6
ByLayer
370
-2
48
1
60
0
100
AcDbLine
10
36.5875
20
50
30
0
11
63.440112
21
50
31
0
39
0
210
0
220
0
230
1
0
LINE
5
16C
100
AcDbEntity
8
0
62
256
6
ByLayer
370
-2
48
1
60
0
100
AcDbLine
10
36.5875
20
-50
30
0
11
63.440112
21
-50
31
0
39
0
210
0
220
0
230
1
0
LINE
5
16D
100
AcDbEntity
8
0
62
256
6
ByLayer
370
-2
48
1
60
0
100
AcDbLine
10
61.440112
20
46.825
30
0
11
61.440112
21
-46.825
31
0
39
0
210
0
220
0
230
1
0
SOLID
5
16E
100
AcDbEntity
8
0
62
256
6
ByLayer
370
-1
48
1
60
0
100
AcDbTrace
10
61.969279
20
46.825
30
0
11
60.910945
21
46.825
31
0
12
61.440112
22
50
32
0
13
61.440112
23
50
33
0
39
0
210
0
220
0
230
1
0
SOLID
5
16F
100
AcDbEntity
8
0
62
256
6
ByLayer
370
-1
48
1
60
0
100
AcDbTrace
10
60.910945
20
-46.825
30
0
11
61.969279
21
-46.825
31
0
12
61.440112
22
-50
32
0
13
61.440112
23
-50
33
0
39
0
210
0
220
0
230
1
0
MTEXT
5
170
100
AcDbEntity
8
0
62
256
6
ByLayer
370
18
48
1
60
0
100
AcDbMText
10
55.440112
20
0
30
0
210
0
220
0
230
1
1
\A1;100
40
3
41
0
44
1
50
90
71
5
72
5
7
iso_b_vert
0
POINT
5
171
100
AcDbEntity
8
Defpoints
62
0
6
ByLayer
370
-1
48
1
60
0
100
AcDbPoint
10
35
20
50
30
0
39
0
210
0
220
0
230
1
50
360
0
POINT
5
172
100
AcDbEntity
8
Defpoints
62
0
6
ByLayer
370
-1
48
1
60
0
100
AcDbPoint
10
35
20
-50
30
0
39
0
210
0
220
0
230
1
50
360
0
POINT
5
173
100
AcDbEntity
8
Defpoints
62
0
6
ByLayer
370
-1
48
1
60
0
100
AcDbPoint
10
61.440112
20
-50
30
0
39
0
210
0
220
0
230
1
50
360
0
ENDBLK
5
16A
100
AcDbEntity
8
0
100
AcDbBlockEnd
0
BLOCK
5
180
100
AcDbEntity
8
0
100
AcDbBlockBegin
2
_U2
70
0
10
0
20
0
30
0
3
_U2
0
MTEXT
5
175
100
AcDbEntity
8
SK2
62
256
6
ByLayer
370
18
48
1
60
0
100
AcDbMText
10
60.098998
20
1.347201
30
0
210
0
220
0
230
1
1
\W0.6217;100
40
3
41
0
44
1.084337
50
90
71
7
72
5
7
iso_b_vert
0
MTEXT
5
176
100
AcDbEntity
8
SK2
62
256
6
ByLayer
370
18
48
1
60
0
100
AcDbMText
10
60.098998
20
-6.152799
30
0
210
0
220
0
230
1
1
%%c
40
3
41
0
44
1.084337
50
90
71
7
72
5
7
iso_b_vert
0
LINE
5
177
100
AcDbEntity
8
SK2
62
256
6
ByLayer
370
13
48
1
60
0
100
AcDbLine
10
36.5875
20
50
30
0
11
63.440112
21
50
31
0
39
0
210
0
220
0
230
1
0
LINE
5
178
100
AcDbEntity
8
SK2
62
256
6
ByLayer
370
13
48
1
60
0
100
AcDbLine
10
36.5875
20
-50
30
0
11
63.440112
21
-50
31
0
39
0
210
0
220
0
230
1
0
LINE
5
179
100
AcDbEntity
8
SK2
62
256
6
ByLayer
370
13
48
1
60
0
100
AcDbLine
10
61.440112
20
50
30
0
11
61.440112
21
-50
31
0
39
0
210
0
220
0
230
1
0
LINE
5
17A
100
AcDbEntity
8
SK2
62
256
6
ByLayer
370
13
48
1
60
0
100
AcDbLine
10
61.440112
20
50
30
0
11
61.858109
21
46.825002
31
0
39
0
210
0
220
0
230
1
0
LINE
5
17B
100
AcDbEntity
8
SK2
62
256
6
ByLayer
370
13
48
1
60
0
100
AcDbLine
10
61.440112
20
50
30
0
11
61.022115
21
46.824998
31
0
39
0
210
0
220
0
230
1
0
LINE
5
17C
100
AcDbEntity
8
SK2
62
256
6
ByLayer
370
13
48
1
60
0
100
AcDbLine
10
61.858109
20
46.825002
30
0
11
61.022115
21
46.824998
31
0
39
0
210
0
220
0
230
1
0
LINE
5
17D
100
AcDbEntity
8
SK2
62
256
6
ByLayer
370
13
48
1
60
0
100
AcDbLine
10
61.440112
20
-50
30
0
11
61.022115
21
-46.825002
31
0
39
0
210
0
220
0
230
1
0
LINE
5
17E
100
AcDbEntity
8
SK2
62
256
6
ByLayer
370
13
48
1
60
0
100
AcDbLine
10
61.440112
20
-50
30
0
11
61.858109
21
-46.824998
31
0
39
0
210
0
220
0
230
1
0
LINE
5
17F
100
AcDbEntity
8
SK2
62
256
6
ByLayer
370
13
48
1
60
0
100
AcDbLine
10
61.022115
20
-46.825002
30
0
11
61.858109
21
-46.824998
31
0
39
0
210
0
220
0
230
1
0
ENDBLK
5
181
100
AcDbEntity
8
0
100
AcDbBlockEnd
0
ENDSEC
0
SECTION
2
ENTITIES
0
ARC
5
E3
100
AcDbEntity
8
SK3
62
256
6
ByLayer
370
18
48
0.05
60
0
100
AcDbCircle
39
0
10
-0.6
20
38.9
30
0
40
1.00000000000001
210
0
220
0
230
1
100
AcDbArc
50
306.869051
51
0
0
ARC
5
E4
100
AcDbEntity
8
SK1
62
256
6
ByLayer
370
18
48
1
60
0
100
AcDbCircle
39
0
10
-0.6
20
38.9
30
0
40
1.00000000000001
210
0
220
0
230
1
100
AcDbArc
50
225
51
306.86908
0
ARC
5
E5
100
AcDbEntity
8
SK1
62
256
6
ByLayer
370
18
48
1
60
0
100
AcDbCircle
39
0
10
-0.6
20
-38.9
30
0
40
1.00000000000001
210
0
220
0
230
1
100
AcDbArc
50
53.129143
51
66.421822
0
ARC
5
E6
100
AcDbEntity
8
SK3
62
256
6
ByLayer
370
18
48
0.05
60
0
100
AcDbCircle
39
0
10
-0.6
20
-38.9
30
0
40
1
210
0
220
0
230
1
100
AcDbArc
50
0
51
53.129173
0
ARC
5
E7
100
AcDbEntity
8
SK3
62
256
6
ByLayer
370
18
48
0.05
60
0
100
AcDbCircle
39
0
10
-44.252875
20
21.55
30
0
40
3.7
210
0
220
0
230
1
100
AcDbArc
50
45
51
90
0
ARC
5
E8
100
AcDbEntity
8
SK3
62
256
6
ByLayer
370
18
48
0.05
60
0
100
AcDbCircle
39
0
10
-44.252875
20
-21.55
30
0
40
3.69999999999999
210
0
220
0
230
1
100
AcDbArc
50
270
51
315
0
ARC
5
E9
100
AcDbEntity
8
SK3
62
256
6
ByLayer
370
18
48
0.05
60
0
100
AcDbCircle
39
0
10
-46.295703
20
21.55
30
0
40
3.69999999999999
210
0
220
0
230
1
100
AcDbArc
50
90
51
175.210845
0
ARC
5
EA
100
AcDbEntity
8
SK3
62
256
6
ByLayer
370
18
48
0.05
60
0
100
AcDbCircle
39
0
10
-46.295703
20
-21.55
30
0
40
3.7
210
0
220
0
230
1
100
AcDbArc
50
184.789155
51
270
0
ARC
5
EB
100
AcDbEntity
8
SK3
62
256
6
ByLayer
370
18
48
0.05
60
0
100
AcDbCircle
39
0
10
-0.6
20
38.9
30
0
40
1
210
0
220
0
230
1
100
AcDbArc
50
0
51
45
0
ARC
5
EC
100
AcDbEntity
8
SK3
62
256
6
ByLayer
370
18
48
0.05
60
0
100
AcDbCircle
39
0
10
-0.6
20
-38.9
30
0
40
1.00000000000001
210
0
220
0
230
1
100
AcDbArc
50
315
51
0
0
ELLIPSE
5
ED
100
AcDbEntity
8
1
62
256
6
ByLayer
370
18
48
1
60
0
100
AcDbEllipse
10
-7.094009
20
-5E-06
30
0
11
-23.418423679203
21
49.3542766827601
31
0
210
0
220
0
230
1
40
0.341996
41
-2.98699018029045
42
-2.04714145328987
0
ELLIPSE
5
EE
100
AcDbEntity
8
1
62
256
6
ByLayer
370
18
48
1
60
0
100
AcDbEllipse
10
39.094011
20
-5E-06
30
0
11
23.4183270408393
21
49.3542715879188
31
0
210
0
220
0
230
1
40
0.341999
41
2.04714687356757
42
2.98699560056797
0
ELLIPSE
5
EF
100
AcDbEntity
8
1
62
256
6
ByLayer
370
18
48
1
60
0
100
AcDbEllipse
10
-7.094009
20
-5E-06
30
0
11
23.4183270408246
21
49.3542715879008
31
0
210
0
220
0
230
1
40
0.341999
41
-1.09444578002253
42
-0.1545970530219
0
ELLIPSE
5
F0
100
AcDbEntity
8
1
62
256
6
ByLayer
370
18
48
1
60
0
100
AcDbEllipse
10
39.094011
20
-5E-06
30
0
11
-23.4184236792215
21
49.3542766827841
31
0
210
0
220
0
230
1
40
0.341996
41
0.154602473299283
42
1.09445120029955
0
POINT
5
70
100
AcDbEntity
8
80
62
256
6
ByLayer
370
18
48
1
60
0
100
AcDbPoint
10
0
20
0
30
0
39
0
210
0
220
0
230
1
50
360
0
POINT
5
72
100
AcDbEntity
8
81
62
256
6
ByLayer
370
18
48
1
60
0
100
AcDbPoint
10
19.5
20
0
30
0
39
0
210
0
220
0
230
1
50
360
0
SPLINE
5
F1
100
AcDbEntity
8
1
62
256
6
ByLayer
370
18
48
1
60
0
100
AcDbSpline
70
4
71
3
72
28
73
24
40
0
40
0
40
0
40
0
40
0.0624999999999978
40
0.0624999999999978
40
0.0937499999999961
40
0.0937499999999961
40
0.124999999999994
40
0.124999999999994
40
0.250000000000006
40
0.250000000000006
40
0.375000000000018
40
0.375000000000018
40
0.437500000000017
40
0.437500000000017
40
0.500000000000015
40
0.500000000000015
40
0.625000000000011
40
0.625000000000011
40
0.750000000000008
40
0.750000000000008
40
0.875000000000004
40
0.875000000000004
40
1
40
1
40
1
40
1
41
1
10
18.2113249538771
20
-14.993154180447
30
-1.1E-15
41
1
10
18.2270596481277
20
-14.993154180447
30
-1.1E-15
41
1
10
18.2425066907057
20
-14.9946808874721
30
-1.1E-15
41
1
10
18.2652841933228
20
-14.9990569281945
30
-1.1E-15
41
1
10
18.2728110018548
20
-15.0008642346867
30
-1.1E-15
41
1
10
18.2877377500947
20
-15.0051520604472
30
-1.1E-15
41
1
10
18.2951725856275
20
-15.0076475541156
30
-1.1E-15
41
1
10
18.3314372891155
20
-15.0215156479725
30
-1.1E-15
41
1
10
18.3578282149989
20
-15.0369690401854
30
-1.1E-15
41
1
10
18.4069582788854
20
-15.0739424567707
30
-1.1E-15
41
1
10
18.4288335376687
20
-15.094823873533
30
-1.1E-15
41
1
10
18.4588810586973
20
-15.1284236495055
30
-1.1E-15
41
1
10
18.4684310041722
20
-15.1400199794804
30
-1.1E-15
41
1
10
18.4867304375703
20
-15.1638928518888
30
-1.1E-15
41
1
10
18.495501175282
20
-15.1762053828475
30
-1.1E-15
41
1
10
18.520489041769
20
-15.2136272172932
30
-1.1E-15
41
1
10
18.5354761430061
20
-15.2392984135208
30
-1.1E-15
41
1
10
18.5629450333599
20
-15.2917198825195
30
-1.1E-15
41
1
10
18.5754178719936
20
-15.3184740719983
30
-1.1E-15
41
1
10
18.5983197549963
20
-15.3728586322013
30
-1.1E-15
41
1
10
18.6087451715344
20
-15.400490591076
30
-1.1E-15
41
1
10
18.6278437081144
20
-15.4565022358787
30
-1.1E-15
41
1
10
18.6364975879447
20
-15.4848372167801
30
-1.1E-15
41
1
10
18.6443376557694
20
-15.5133458480084
30
-1.1E-15
0
SPLINE
5
F2
100
AcDbEntity
8
1
62
256
6
ByLayer
370
18
48
1
60
0
100
AcDbSpline
70
4
71
3
72
32
73
28
40
0
40
0
40
0
40
0
40
0.249999999999976
40
0.249999999999976
40
0.374999999999969
40
0.374999999999969
40
0.437499999999966
40
0.437499999999966
40
0.499999999999963
40
0.499999999999963
40
0.624999999999963
40
0.624999999999963
40
0.687499999999961
40
0.687499999999961
40
0.749999999999959
40
0.749999999999959
40
0.812499999999957
40
0.812499999999957
40
0.843749999999958
40
0.843749999999958
40
0.874999999999959
40
0.874999999999959
40
0.937499999999974
40
0.937499999999974
40
0.968749999999987
40
0.968749999999987
40
1
40
1
40
1
40
1
41
1
10
18.6443376557693
20
-47.5324737242253
30
6E-16
41
1
10
18.6286631320488
20
-47.5510759950975
30
6E-16
41
1
10
18.6099224894879
20
-47.5691969511061
30
6E-16
41
1
10
18.5756373991523
20
-47.5954846553897
30
6E-16
41
1
10
18.563169661873
20
-47.6040970557989
30
6E-16
41
1
10
18.5425189110579
20
-47.6167462796643
30
6E-16
41
1
10
18.5353086333541
20
-47.6209175761456
30
6E-16
41
1
10
18.5201366852599
20
-47.6291587172559
30
6E-16
41
1
10
18.5121626233204
20
-47.6332335743908
30
6E-16
41
1
10
18.4871619583253
20
-47.6451711982893
30
6E-16
41
1
10
18.4690248478278
20
-47.6527860459451
30
6E-16
41
1
10
18.4387715694374
20
-47.6635159666985
30
6E-16
41
1
10
18.428159299183
20
-47.6669773969013
30
6E-16
41
1
10
18.4060584342431
20
-47.6735113758268
30
6E-16
41
1
10
18.3945345787964
20
-47.676597965126
30
7E-16
41
1
10
18.3703589073128
20
-47.6823449338296
30
7E-16
41
1
10
18.3577088995577
20
-47.6850059850706
30
7E-16
41
1
10
18.3376839330548
20
-47.6886036026193
30
7E-16
41
1
10
18.3308010375701
20
-47.689741279275
30
7E-16
41
1
10
18.3168341860009
20
-47.6918380016578
30
7E-16
41
1
10
18.3097487947669
20
-47.6927983894573
30
7E-16
41
1
10
18.2881675324123
20
-47.6953996390528
30
7E-16
41
1
10
18.2733484448648
20
-47.696762220329
30
7E-16
41
1
10
18.2503680242199
20
-47.6981606093636
30
7E-16
41
1
10
18.2425806499195
20
-47.6985174798906
30
7E-16
41
1
10
18.2270027731587
20
-47.6989920540555
30
7E-16
41
1
10
18.2191807680812
20
-47.6991120011935
30
7E-16
41
1
10
18.2113249538771
20
-47.6991120011935
30
7E-16
0
SPLINE
5
F3
100
AcDbEntity
8
1
62
256
6
ByLayer
370
18
48
1
60
0
100
AcDbSpline
70
4
71
3
72
28
73
24
40
0
40
0
40
0
40
0
40
0.0625000000000092
40
0.0625000000000092
40
0.0937500000000104
40
0.0937500000000104
40
0.125000000000011
40
0.125000000000011
40
0.250000000000004
40
0.250000000000004
40
0.374999999999996
40
0.374999999999996
40
0.437499999999997
40
0.437499999999997
40
0.499999999999999
40
0.499999999999999
40
0.624999999999999
40
0.624999999999999
40
0.75
40
0.75
40
0.875
40
0.875
40
1
40
1
40
1
40
1
41
1
10
13.7886752230667
20
-47.6991120011934
30
-8E-16
41
1
10
13.7729405288161
20
-47.6991120011934
30
-8E-16
41
1
10
13.7574934862381
20
-47.6986321860037
30
-8E-16
41
1
10
13.734715983621
20
-47.69725622697
30
-8E-16
41
1
10
13.727189175089
20
-47.6966878854408
30
-8E-16
41
1
10
13.7122624268492
20
-47.6953391294112
30
-8E-16
41
1
10
13.7048275913163
20
-47.6945540006488
30
-8E-16
41
1
10
13.6685628878283
20
-47.6901893567764
30
-8E-16
41
1
10
13.6421719619449
20
-47.6853215977354
30
-8E-16
41
1
10
13.5930418980584
20
-47.673646730536
30
-8E-16
41
1
10
13.5711666392752
20
-47.6670410493002
30
-8E-16
41
1
10
13.5411191182465
20
-47.65638355833
30
-8E-16
41
1
10
13.5315691727716
20
-47.6527009708832
30
-8E-16
41
1
10
13.5132697393736
20
-47.6451095954769
30
-8E-16
41
1
10
13.5044990016618
20
-47.6411893165173
30
-8E-16
41
1
10
13.4795111351748
20
-47.6292577145921
30
-8E-16
41
1
10
13.4645240339377
20
-47.6210510106199
30
-8E-16
41
1
10
13.437055143584
20
-47.6042437026688
30
-8E-16
41
1
10
13.4245823049502
20
-47.5956418829629
30
-8E-16
41
1
10
13.4016804219476
20
-47.5781041193888
30
-8E-16
41
1
10
13.3912550054094
20
-47.5691676846915
30
-8E-16
41
1
10
13.3721564688294
20
-47.5509975002316
30
-8E-16
41
1
10
13.3635025889991
20
-47.5417781897345
30
-8E-16
41
1
10
13.3556625211745
20
-47.5324737242253
30
-8E-16
0
SPLINE
5
F4
100
AcDbEntity
8
1
62
256
6
ByLayer
370
18
48
1
60
0
100
AcDbSpline
70
4
71
3
72
32
73
28
40
0
40
0
40
0
40
0
40
0.249999999999995
40
0.249999999999995
40
0.374999999999989
40
0.374999999999989
40
0.437499999999987
40
0.437499999999987
40
0.499999999999986
40
0.499999999999986
40
0.624999999999986
40
0.624999999999986
40
0.68749999999999
40
0.68749999999999
40
0.749999999999995
40
0.749999999999995
40
0.812499999999999
40
0.812499999999999
40
0.843749999999999
40
0.843749999999999
40
0.874999999999999
40
0.874999999999999
40
0.937499999999999
40
0.937499999999999
40
0.96875
40
0.96875
40
1
40
1
40
1
40
1
41
1
10
13.3556625211745
20
-15.5133458480085
30
-8E-16
41
1
10
13.3713370448949
20
-15.4563489920599
30
-8E-16
41
1
10
13.3900776874559
20
-15.4004779009073
30
-8E-16
41
1
10
13.4243627777915
20
-15.3189625412196
30
-8E-16
41
1
10
13.4368305150708
20
-15.2921765684627
30
-8E-16
41
1
10
13.4574812658859
20
-15.2527250782939
30
-8E-16
41
1
10
13.4646915435897
20
-15.2396965242912
30
-8E-16
41
1
10
13.4798634916839
20
-15.2139206270029
30
-8E-16
41
1
10
13.4878375536234
20
-15.2011574797405
30
-8E-16
41
1
10
13.5128382186185
20
-15.163716752524
30
-8E-16
41
1
10
13.530975329116
20
-15.1397655113895
30
-8E-16
41
1
10
13.5612286075064
20
-15.1059373612914
30
-8E-16
41
1
10
13.5718408777608
20
-15.0950104684013
30
-8E-16
41
1
10
13.5939417427007
20
-15.0743619535362
30
-8E-16
41
1
10
13.6054655981474
20
-15.0645960944317
30
-8E-16
41
1
10
13.6296412696311
20
-15.0463959351157
30
-8E-16
41
1
10
13.6422912773861
20
-15.0379594966111
30
-8E-16
41
1
10
13.662316243889
20
-15.0265451888428
30
-8E-16
41
1
10
13.6691991393737
20
-15.0229340297799
30
-8E-16
41
1
10
13.6831659909429
20
-15.0162764417146
30
-8E-16
41
1
10
13.6902513821769
20
-15.0132257725135
30
-8E-16
41
1
10
13.7118326445315
20
-15.0049606668887
30
-8E-16
41
1
10
13.726651732079
20
-15.0006280313449
30
-8E-16
41
1
10
13.7496321527239
20
-14.9961806763573
30
-8E-16
41
1
10
13.7574195270244
20
-14.9950454759844
30
-8E-16
41
1
10
13.7729974037852
20
-14.993535794939
30
-8E-16
41
1
10
13.7808194088626
20
-14.9931541804469
30
-8E-16
41
1
10
13.7886752230667
20
-14.9931541804469
30
-8E-16
0
SPLINE
5
F5
100
AcDbEntity
8
1
62
256
6
ByLayer
370
18
48
1
60
0
100
AcDbSpline
70
4
71
3
72
28
73
24
40
0
40
0
40
0
40
0
40
0.062499999999994
40
0.062499999999994
40
0.0937499999999917
40
0.0937499999999917
40
0.124999999999989
40
0.124999999999989
40
0.250000000000002
40
0.250000000000002
40
0.375000000000014
40
0.375000000000014
40
0.437500000000009
40
0.437500000000009
40
0.500000000000005
40
0.500000000000005
40
0.625000000000004
40
0.625000000000004
40
0.750000000000003
40
0.750000000000003
40
0.875000000000001
40
0.875000000000001
40
1
40
1
40
1
40
1
41
1
10
18.2113249538771
20
47.6991126714348
30
7E-16
41
1
10
18.2270596481277
20
47.6991126714348
30
7E-16
41
1
10
18.2425066907057
20
47.6986328562451
30
7E-16
41
1
10
18.2652841933228
20
47.6972568972114
30
7E-16
41
1
10
18.2728110018548
20
47.6966885556821
30
7E-16
41
1
10
18.2877377500947
20
47.6953397996526
30
7E-16
41
1
10
18.2951725856275
20
47.6945546708902
30
7E-16
41
1
10
18.3314372891155
20
47.6901900270178
30
7E-16
41
1
10
18.3578282149989
20
47.6853222679767
30
7E-16
41
1
10
18.4069582788854
20
47.6736474007774
30
6E-16
41
1
10
18.4288335376687
20
47.6670417195415
30
6E-16
41
1
10
18.4588810586973
20
47.6563842285714
30
6E-16
41
1
10
18.4684310041722
20
47.6527016411246
30
6E-16
41
1
10
18.4867304375703
20
47.6451102657183
30
6E-16
41
1
10
18.495501175282
20
47.6411899867586
30
6E-16
41
1
10
18.520489041769
20
47.6292583848335
30
6E-16
41
1
10
18.5354761430061
20
47.6210516808612
30
6E-16
41
1
10
18.5629450333599
20
47.6042443729102
30
6E-16
41
1
10
18.5754178719936
20
47.5956425532043
30
6E-16
41
1
10
18.5983197549963
20
47.5781047896302
30
6E-16
41
1
10
18.6087451715344
20
47.5691683549329
30
6E-16
41
1
10
18.6278437081144
20
47.550998170473
30
6E-16
41
1
10
18.6364975879447
20
47.5417788599758
30
6E-16
41
1
10
18.6443376557693
20
47.5324743944666
30
6E-16
0
SPLINE
5
F6
100
AcDbEntity
8
1
62
256
6
ByLayer
370
18
48
1
60
0
100
AcDbSpline
70
4
71
3
72
32
73
28
40
0
40
0
40
0
40
0
40
0.249999999999999
40
0.249999999999999
40
0.374999999999993
40
0.374999999999993
40
0.43749999999999
40
0.43749999999999
40
0.499999999999987
40
0.499999999999987
40
0.624999999999988
40
0.624999999999988
40
0.687499999999986
40
0.687499999999986
40
0.749999999999984
40
0.749999999999984
40
0.812499999999982
40
0.812499999999982
40
0.843749999999984
40
0.843749999999984
40
0.874999999999985
40
0.874999999999985
40
0.9375
40
0.9375
40
0.96875
40
0.96875
40
1
40
1
40
1
40
1
41
1
10
18.6443376557693
20
15.5133465182498
30
-1.1E-15
41
1
10
18.6286631320489
20
15.4563496623013
30
-1.1E-15
41
1
10
18.6099224894879
20
15.4004785711487
30
-1.1E-15
41
1
10
18.5756373991523
20
15.3189632114609
30
-1.1E-15
41
1
10
18.563169661873
20
15.292177238704
30
-1.1E-15
41
1
10
18.5425189110579
20
15.2527257485353
30
-1.1E-15
41
1
10
18.5353086333542
20
15.2396971945325
30
-1.1E-15
41
1
10
18.5201366852599
20
15.2139212972443
30
-1.1E-15
41
1
10
18.5121626233204
20
15.2011581499819
30
-1.1E-15
41
1
10
18.4871619583253
20
15.1637174227653
30
-1.1E-15
41
1
10
18.4690248478278
20
15.1397661816308
30
-1.1E-15
41
1
10
18.4387715694374
20
15.1059380315327
30
-1.1E-15
41
1
10
18.428159299183
20
15.0950111386426
30
-1.1E-15
41
1
10
18.4060584342431
20
15.0743626237775
30
-1.1E-15
41
1
10
18.3945345787964
20
15.064596764673
30
-1.1E-15
41
1
10
18.3703589073128
20
15.046396605357
30
-1.1E-15
41
1
10
18.3577088995577
20
15.0379601668524
30
-1.1E-15
41
1
10
18.3376839330548
20
15.0265458590841
30
-1.1E-15
41
1
10
18.3308010375701
20
15.0229347000213
30
-1.1E-15
41
1
10
18.3168341860009
20
15.0162771119559
30
-1.1E-15
41
1
10
18.3097487947669
20
15.0132264427549
30
-1.1E-15
41
1
10
18.2881675324123
20
15.00496133713
30
-1.1E-15
41
1
10
18.2733484448648
20
15.0006287015862
30
-1.1E-15
41
1
10
18.2503680242199
20
14.9961813465986
30
-1.1E-15
41
1
10
18.2425806499195
20
14.9950461462257
30
-1.1E-15
41
1
10
18.2270027731587
20
14.9935364651803
30
-1.1E-15
41
1
10
18.2191807680812
20
14.9931548506883
30
-1.1E-15
41
1
10
18.2113249538771
20
14.9931548506883
30
-1.1E-15
0
SPLINE
5
F7
100
AcDbEntity
8
1
62
256
6
ByLayer
370
18
48
1
60
0
100
AcDbSpline
70
4
71
3
72
28
73
24
40
0
40
0
40
0
40
0
40
0.0624999999999999
40
0.0624999999999999
40
0.0937500000000033
40
0.0937500000000033
40
0.125000000000007
40
0.125000000000007
40
0.250000000000021
40
0.250000000000021
40
0.375000000000036
40
0.375000000000036
40
0.437500000000035
40
0.437500000000035
40
0.500000000000035
40
0.500000000000035
40
0.625000000000026
40
0.625000000000026
40
0.750000000000017
40
0.750000000000017
40
0.875000000000009
40
0.875000000000009
40
1
40
1
40
1
40
1
41
1
10
13.7886752230667
20
14.9931548506884
30
-8E-16
41
1
10
13.7729405288161
20
14.9931548506884
30
-8E-16
41
1
10
13.7574934862381
20
14.9946815577135
30
-8E-16
41
1
10
13.734715983621
20
14.9990575984358
30
-8E-16
41
1
10
13.727189175089
20
15.0008649049281
30
-8E-16
41
1
10
13.7122624268492
20
15.0051527306886
30
-8E-16
41
1
10
13.7048275913163
20
15.007648224357
30
-8E-16
41
1
10
13.6685628878284
20
15.0215163182139
30
-8E-16
41
1
10
13.6421719619449
20
15.0369697104268
30
-8E-16
41
1
10
13.5930418980584
20
15.0739431270121
30
-8E-16
41
1
10
13.5711666392752
20
15.0948245437744
30
-8E-16
41
1
10
13.5411191182465
20
15.1284243197469
30
-8E-16
41
1
10
13.5315691727716
20
15.1400206497217
30
-8E-16
41
1
10
13.5132697393736
20
15.1638935221301
30
-8E-16
41
1
10
13.5044990016619
20
15.1762060530889
30
-8E-16
41
1
10
13.4795111351748
20
15.2136278875346
30
-8E-16
41
1
10
13.4645240339377
20
15.2392990837621
30
-8E-16
41
1
10
13.437055143584
20
15.2917205527609
30
-8E-16
41
1
10
13.4245823049502
20
15.3184747422397
30
-8E-16
41
1
10
13.4016804219476
20
15.3728593024427
30
-8E-16
41
1
10
13.3912550054094
20
15.4004912613174
30
-8E-16
41
1
10
13.3721564688294
20
15.45650290612
30
-8E-16
41
1
10
13.3635025889991
20
15.4848378870215
30
-8E-16
41
1
10
13.3556625211745
20
15.5133465182498
30
-8E-16
0
SPLINE
5
F8
100
AcDbEntity
8
1
62
256
6
ByLayer
370
18
48
1
60
0
100
AcDbSpline
70
4
71
3
72
32
73
28
40
0
40
0
40
0
40
0
40
0.249999999999991
40
0.249999999999991
40
0.374999999999987
40
0.374999999999987
40
0.43749999999999
40
0.43749999999999
40
0.499999999999993
40
0.499999999999993
40
0.624999999999998
40
0.624999999999998
40
0.687499999999998
40
0.687499999999998
40
0.749999999999998
40
0.749999999999998
40
0.812499999999998
40
0.812499999999998
40
0.843749999999999
40
0.843749999999999
40
0.875
40
0.875
40
0.937499999999998
40
0.937499999999998
40
0.968749999999999
40
0.968749999999999
40
1
40
1
40
1
40
1
41
1
10
13.3556625211745
20
47.5324743944666
30
-8E-16
41
1
10
13.3713370448949
20
47.5510766653388
30
-8E-16
41
1
10
13.3900776874559
20
47.5691976213475
30
-8E-16
41
1
10
13.4243627777915
20
47.595485325631
30
-8E-16
41
1
10
13.4368305150708
20
47.6040977260402
30
-8E-16
41
1
10
13.4574812658859
20
47.6167469499057
30
-8E-16
41
1
10
13.4646915435897
20
47.6209182463869
30
-8E-16
41
1
10
13.4798634916839
20
47.6291593874972
30
-8E-16
41
1
10
13.4878375536234
20
47.6332342446321
30
-8E-16
41
1
10
13.5128382186185
20
47.6451718685307
30
-8E-16
41
1
10
13.530975329116
20
47.6527867161864
30
-8E-16
41
1
10
13.5612286075064
20
47.6635166369398
30
-8E-16
41
1
10
13.5718408777608
20
47.6669780671427
30
-8E-16
41
1
10
13.5939417427007
20
47.6735120460681
30
-8E-16
41
1
10
13.6054655981474
20
47.6765986353673
30
-8E-16
41
1
10
13.6296412696311
20
47.6823456040709
30
-8E-16
41
1
10
13.6422912773861
20
47.685006655312
30
-8E-16
41
1
10
13.662316243889
20
47.6886042728606
30
-8E-16
41
1
10
13.6691991393737
20
47.6897419495163
30
-8E-16
41
1
10
13.6831659909429
20
47.6918386718991
30
-8E-16
41
1
10
13.6902513821769
20
47.6927990596986
30
-8E-16
41
1
10
13.7118326445315
20
47.6954003092942
30
-8E-16
41
1
10
13.726651732079
20
47.6967628905704
30
-8E-16
41
1
10
13.7496321527239
20
47.698161279605
30
-8E-16
41
1
10
13.7574195270244
20
47.698518150132
30
-8E-16
41
1
10
13.7729974037851
20
47.6989927242968
30
-8E-16
41
1
10
13.7808194088626
20
47.6991126714348
30
-8E-16
41
1
10
13.7886752230667
20
47.6991126714348
30
-8E-16
0
SPLINE
5
F9
100
AcDbEntity
8
1
62
256
6
ByLayer
370
18
48
1
60
0
100
AcDbSpline
70
4
71
3
72
74
73
70
40
0
40
0
40
0
40
0
40
6.99126633853E-05
40
6.99126633853E-05
40
0.0625655431219229
40
0.0625655431219229
40
0.0703774969292398
40
0.0703774969292398
40
0.0781894507365569
40
0.0781894507365569
40
0.0938133583511909
40
0.0938133583511909
40
0.125061173580459
40
0.156308988809727
40
0.156308988809727
40
0.171932896424361
40
0.171932896424361
40
0.187556804038995
40
0.187556804038995
40
0.250052434497529
40
0.250052434497529
40
0.281300249726797
40
0.281300249726797
40
0.29692415734143
40
0.29692415734143
40
0.312548064956064
40
0.312548064956064
40
0.375043695414598
40
0.375043695414598
40
0.390667603029231
40
0.390667603029231
40
0.406291510643865
40
0.406291510643865
40
0.437539325873132
40
0.437539325873132
40
0.500034956331668
40
0.500034956331668
40
0.507846910138985
40
0.507846910138985
40
0.515658863946303
40
0.531282771560939
40
0.531282771560939
40
0.562530586790211
40
0.593778402019483
40
0.593778402019483
40
0.609402309634118
40
0.609402309634118
40
0.625026217248753
40
0.625026217248753
40
0.687521847707295
40
0.687521847707295
40
0.718769662936565
40
0.718769662936565
40
0.750017478165836
40
0.750017478165836
40
0.812513108624377
40
0.812513108624377
40
0.828137016239012
40
0.828137016239012
40
0.843760923853647
40
0.843760923853647
40
0.875008739082917
40
0.906256554312188
40
0.906256554312188
40
0.921880461926823
40
0.921880461926823
40
0.937504369541458
40
0.937504369541458
40
1
40
1
40
1
40
1
41
1
10
14.0000103358164
20
-49.9999992546074
30
0
41
1
10
14.0000003428226
20
-49.9999996547034
30
0
41
1
10
13.9999903498139
20
-50.0000000544256
30
0
41
1
10
13.99995378359
20
-50.0000015170745
30
0
41
1
10
14.0125624568642
20
-49.9994922394833
30
0
41
1
10
14.0412802712494
20
-49.9983653697343
30
0
41
1
10
14.0446749128419
20
-49.998232469626
30
0
41
1
10
14.0518761794303
20
-49.9979513611256
30
0
41
1
10
14.0556864591436
20
-49.9978030120822
30
0
41
1
10
14.0676743283614
20
-49.9973377847104
30
0
41
1
10
14.0764252920252
20
-49.9970000745709
30
0
41
1
10
14.1049116132108
20
-49.9959094590178
30
0
41
1
10
14.1488382183964
20
-49.9942489749335
30
0
41
1
10
14.2044576630101
20
-49.9922293319894
30
0
41
1
10
14.2506102115218
20
-49.9906000669893
30
0
41
1
10
14.2667353655152
20
-49.9900378929237
30
0
41
1
10
14.3004929936749
20
-49.9888788262164
30
0
41
1
10
14.3181762573644
20
-49.9882802689344
30
0
41
1
10
14.4095571986376
20
-49.98523918816
30
0
41
1
10
14.4923055834891
20
-49.9826433043879
30
0
41
1
10
14.6304712366193
20
-49.9787300398548
30
0
41
1
10
14.6788839312375
20
-49.9774222173075
30
0
41
1
10
14.7551421778022
20
-49.9754839095419
30
0
41
1
10
14.7812183799059
20
-49.9748406540931
30
0
41
1
10
14.8340332613167
20
-49.9735805020186
30
0
41
1
10
14.8608311327327
20
-49.9729620289033
30
0
41
1
10
14.9967391348621
20
-49.9699377973609
30
0
41
1
10
15.1115505073291
20
-49.9677365077166
30
0
41
1
10
15.2626967176327
20
-49.9654147303944
30
0
41
1
10
15.2933109846604
20
-49.9649718779197
30
0
41
1
10
15.3553243821555
20
-49.9641332561543
30
-1E-16
41
1
10
15.3867283561758
20
-49.9637376501476
30
-1E-16
41
1
10
15.4810682771177
20
-49.9626390586953
30
-1E-16
41
1
10
15.5444794330229
20
-49.9620193805082
30
-1E-16
41
1
10
15.7362273997325
20
-49.9605164358326
30
-1E-16
41
1
10
15.8660640301817
20
-49.9599890313007
30
-1E-16
41
1
10
16.014467584685
20
-49.9599830256849
30
-1E-16
41
1
10
16.0310006931375
20
-49.9599905536977
30
-1E-16
41
1
10
16.0639507883408
20
-49.9600218649495
30
-1E-16
41
1
10
16.1132661561147
20
-49.9600931764703
30
-1E-16
41
1
10
16.1622560528633
20
-49.9602365500773
30
-1E-16
41
1
10
16.25980863299
20
-49.960616885484
30
-1E-16
41
1
10
16.388741348678
20
-49.9613734343593
30
1E-16
41
1
10
16.5154209386621
20
-49.9626028763783
30
1E-16
41
1
10
16.6095692208295
20
-49.9636923805038
30
1E-16
41
1
10
16.640808157283
20
-49.9640834495072
30
1E-16
41
1
10
16.7029923531676
20
-49.964919674627
30
1E-16
41
1
10
16.7337549886433
20
-49.965362436732
30
1E-16
41
1
10
16.8853750491517
20
-49.9676810152297
30
1E-16
41
1
10
17.0003125530918
20
-49.9698787951151
30
1E-16
41
1
10
17.1633271057222
20
-49.9734964263122
30
1E-16
41
1
10
17.2161299463645
20
-49.9747569309488
30
1E-16
41
1
10
17.3183005215007
20
-49.9773476137554
30
0
41
1
10
17.3668956708731
20
-49.9786578270813
30
0
41
1
10
17.505466590976
20
-49.9825756492596
30
0
41
1
10
17.5882955127487
20
-49.985170901437
30
0
41
1
10
17.6796799242649
20
-49.9882081812419
30
0
41
1
10
17.6973805175708
20
-49.9888065331916
30
0
41
1
10
17.7313536263401
20
-49.9899716279583
30
0
41
1
10
17.747573609247
20
-49.9905365116463
30
0
41
1
10
17.7939795528245
20
-49.9921731615603
30
0
41
1
10
17.8498547915105
20
-49.9942004026377
30
0
41
1
10
17.8939455399158
20
-49.9958661573545
30
0
41
1
10
17.9225468834379
20
-49.9969605267049
30
0
41
1
10
17.9313348939971
20
-49.9972994894415
30
0
41
1
10
17.9473948925161
20
-49.9979224431203
30
0
41
1
10
17.954680642474
20
-49.9982069754531
30
0
41
1
10
17.9870308679357
20
-49.9994758877888
30
0
41
1
10
18.0000180756123
20
-50.0000003912279
30
0
41
1
10
17.9999998698777
20
-49.999999656064
30
0
0
SPLINE
5
FA
100
AcDbEntity
8
1
62
256
6
ByLayer
370
18
48
0.05
60
0
100
AcDbSpline
70
4
71
3
72
8
73
4
40
0
40
0
40
0
40
0
40
1
40
1
40
1
40
1
41
1
10
-0.199999911528096
20
-12.7580216650477
30
0
41
1
10
-0.199999911528096
20
-12.7973640041502
30
0
41
1
10
-0.200520524214795
20
-12.8365730747698
30
0
41
1
10
-0.201684783258003
20
-12.8756262410503
30
0
0
SPLINE
5
FB
100
AcDbEntity
8
SK1
62
256
6
ByLayer
370
18
48
1
60
0
100
AcDbSpline
70
4
71
3
72
13
73
9
40
0
40
0
40
0
40
0
40
0.163363356710886
40
0.393372074477769
40
0.612936618832501
40
0.820744169660097
40
0.984008787055752
40
1
40
1
40
1
40
1
41
1
10
-0.318170948594712
20
-29.7777318516991
30
0
41
1
10
-0.315502706706411
20
-29.5620816921849
30
0
41
1
10
-0.309064243655001
20
-29.006476144963
30
0
41
1
10
-0.298966846855393
20
-27.9914534384671
30
0
41
1
10
-0.288106418320695
20
-26.7629957632374
30
0
41
1
10
-0.278317630226297
20
-25.4983499385672
30
0
41
1
10
-0.271898841116808
20
-24.6109076731537
30
0
41
1
10
-0.268911614215313
20
-24.1473970651733
30
0
41
1
10
-0.268645063043209
20
-24.1057792603502
30
0
0
SPLINE
5
FC
100
AcDbEntity
8
SK1
62
256
6
ByLayer
370
18
48
1
60
0
100
AcDbSpline
70
4
71
3
72
321
73
317
40
0
40
0
40
0
40
0
40
0.0009901660049844
40
0.0020149035501045
40
0.0040643786403443
40
0.0050891161854643
40
0.0061138537305844
40
0.0071385912757042
40
0.0081633288208242
40
0.0102128039110641
40
0.0122622790013041
40
0.0132870165464242
40
0.0143117540915442
40
0.015336491636664
40
0.016361229181784
40
0.0184107042720239
40
0.0204601793622639
40
0.022509654452504
40
0.0245591295427439
40
0.0266086046329837
40
0.0276333421781037
40
0.0286580797232238
40
0.0296828172683438
40
0.0307075548134636
40
0.0317322923585836
40
0.0327570299037037
40
0.0337817674488235
40
0.0348065049939435
40
0.0368559800841836
40
0.0389054551744237
40
0.0399301927195435
40
0.0409549302646635
40
0.0430044053549033
40
0.0440291429000234
40
0.0450538804451434
40
0.0471033555353833
40
0.0491528306256233
40
0.0512023057158632
40
0.053251780806103
40
0.0553012558963431
40
0.0573507309865831
40
0.061449681167063
40
0.0655486313475429
40
0.0675981064377828
40
0.0696475815280226
40
0.0737465317085026
40
0.0778454818889827
40
0.0798949569792225
40
0.0819444320694626
40
0.0860433822499423
40
0.0880928573401824
40
0.0901423324304222
40
0.0942412826109021
40
0.0983402327913822
40
0.102439182971862
40
0.106538133152342
40
0.110637083332822
40
0.112686558423062
40
0.114736033513302
40
0.118834983693782
40
0.122933933874262
40
0.127032884054741
40
0.131131834235221
40
0.135230784415701
40
0.139329734596181
40
0.143428684776661
40
0.147527634957141
40
0.151626585137621
40
0.1557255353181
40
0.159824485498581
40
0.163923435679061
40
0.17212133604002
40
0.1762202862205
40
0.17826976131074
40
0.18031923640098
40
0.18441818658146
40
0.18851713676194
40
0.19261608694242
40
0.1967150371229
40
0.204912937483859
40
0.209011887664339
40
0.213110837844819
40
0.217209788025299
40
0.221308738205779
40
0.229506638566739
40
0.233605588747219
40
0.237704538927699
40
0.241803489108179
40
0.245902439288658
40
0.254100339649618
40
0.258199289830098
40
0.262298240010578
40
0.266397190191058
40
0.270496140371538
40
0.278694040732498
40
0.286891941093457
40
0.290990891273937
40
0.295089841454417
40
0.303287741815377
40
0.311485642176337
40
0.319683542537297
40
0.323782492717777
40
0.327881442898256
40
0.331980393078736
40
0.336079343259216
40
0.344277243620176
40
0.352475143981136
40
0.356574094161616
40
0.360673044342096
40
0.364771994522576
40
0.368870944703055
40
0.377068845064015
40
0.385266745424975
40
0.393464645785935
40
0.397563595966415
40
0.401662546146895
40
0.409860446507855
40
0.418058346868814
40
0.422157297049294
40
0.426256247229774
40
0.430355197410254
40
0.434454147590734
40
0.442652047951694
40
0.450849948312653
40
0.454948898493133
40
0.459047848673613
40
0.467245749034573
40
0.471344699215053
40
0.475443649395533
40
0.477493124485773
40
0.479542599576013
40
0.483641549756493
40
0.491839450117452
40
0.495938400297932
40
0.500037350478412
40
0.504136300658892
40
0.508235250839372
40
0.512334201019852
40
0.516433151200332
40
0.520532101380812
40
0.524631051561292
40
0.528730001741772
40
0.532828951922251
40
0.536927902102731
40
0.541026852283211
40
0.545125802463691
40
0.549224752644171
40
0.553323702824651
40
0.557422653005131
40
0.561521603185611
40
0.565620553366091
40
0.569719503546571
40
0.57381845372705
40
0.577917403907531
40
0.58201635408801
40
0.58611530426849
40
0.58816477935873
40
0.59021425444897
40
0.59226372953921
40
0.59431320462945
40
0.59841215480993
40
0.60251110499041
40
0.60661005517089
40
0.61070900535137
40
0.612758480441609
40
0.61480795553185
40
0.618906905712329
40
0.62095638080257
40
0.623005855892809
40
0.625055330983049
40
0.627104806073289
40
0.629154281163529
40
0.631203756253769
40
0.635302706434249
40
0.637352181524489
40
0.639401656614729
40
0.641451131704969
40
0.643500606795209
40
0.647599556975689
40
0.649649032065929
40
0.651698507156169
40
0.652723244701289
40
0.653747982246409
40
0.655797457336648
40
0.657846932426888
40
0.659896407517129
40
0.661945882607368
40
0.662970620152488
40
0.663995357697608
40
0.665020095242728
40
0.666044832787848
40
0.667069570332968
40
0.668094307878088
40
0.670143782968328
40
0.671168520513448
40
0.672193258058568
40
0.674242733148808
40
0.675267470693928
40
0.676292208239048
40
0.677316945784168
40
0.678341683329288
40
0.679366420874408
40
0.680391158419528
40
0.681415895964648
40
0.682440633509768
40
0.684490108600008
40
0.686539583690248
40
0.688589058780488
40
0.689613796325608
40
0.690638533870727
40
0.691663271415848
40
0.692688008960968
40
0.694737484051207
40
0.695762221596328
40
0.696786959141448
40
0.697299327914007
40
0.697811696686567
40
0.698836434231688
40
0.700885909321927
40
0.702935384412168
40
0.703960121957287
40
0.704472490729847
40
0.704984859502407
40
0.706009597047527
40
0.707034334592647
40
0.709083809682887
40
0.710108547228007
40
0.711133284773127
40
0.713182759863367
40
0.715232234953607
40
0.717281710043847
40
0.719331185134087
40
0.721380660224327
40
0.723430135314567
40
0.724454872859687
40
0.725479610404807
40
0.726504347949927
40
0.727529085495047
40
0.728553823040167
40
0.729578560585287
40
0.730603298130407
40
0.731628035675527
40
0.733677510765766
40
0.735726985856006
40
0.737776460946246
40
0.739825936036486
40
0.740850673581607
40
0.741875411126727
40
0.742900148671847
40
0.743924886216966
40
0.745974361307206
40
0.748023836397446
40
0.750073311487686
40
0.752122786577926
40
0.753147524123046
40
0.754172261668166
40
0.756221736758406
40
0.758271211848646
40
0.762370162029126
40
0.764419637119366
40
0.766469112209606
40
0.770568062390086
40
0.774667012570566
40
0.776716487660805
40
0.778765962751046
40
0.782864912931525
40
0.784914388021765
40
0.786963863112005
40
0.791062813292485
40
0.795161763472965
40
0.799260713653445
40
0.803359663833925
40
0.807458614014405
40
0.811557564194885
40
0.815656514375364
40
0.819755464555845
40
0.823854414736324
40
0.827953364916804
40
0.832052315097284
40
0.836151265277764
40
0.840250215458244
40
0.844349165638724
40
0.848448115819204
40
0.852547065999684
40
0.856646016180164
40
0.860744966360644
40
0.864843916541123
40
0.866893391631363
40
0.868942866721603
40
0.873041816902083
40
0.877140767082563
40
0.881239717263043
40
0.885338667443523
40
0.889437617624003
40
0.893536567804483
40
0.897635517984962
40
0.901734468165443
40
0.903783943255683
40
0.905833418345922
40
0.909932368526402
40
0.918130268887362
40
0.926328169248322
40
0.930427119428802
40
0.932476594519042
40
0.934526069609282
40
0.938625019789762
40
0.942723969970242
40
0.950921870331201
40
0.955020820511681
40
0.959119770692161
40
0.967317671053121
40
0.975515571414081
40
0.979614521594561
40
0.983713471775041
40
0.991911372136
40
1
40
1
40
1
40
1
41
1
10
-59.9999999115281
20
36.2635159429851
30
0
41
1
10
-59.9999999115281
20
36.263505941985
30
0
41
1
10
-59.9999999115281
20
36.2632596285774
30
0
41
1
10
-59.9999999115281
20
36.2617919066999
30
0
41
1
10
-59.9999999115281
20
36.2589564314003
30
0
41
1
10
-59.9999999115281
20
36.2545219907804
30
0
41
1
10
-59.9999999115281
20
36.2505158236676
30
0
41
1
10
-59.9999999115281
20
36.2457850841952
30
0
41
1
10
-59.9999999115281
20
36.2384117327903
30
0
41
1
10
-59.9999999115281
20
36.2276342424869
30
0
41
1
10
-59.9999999115281
20
36.2145013907513
30
-1E-16
41
1
10
-59.9999999115281
20
36.2023065162374
30
-1E-16
41
1
10
-59.9999999115281
20
36.1925718492866
30
-1E-16
41
1
10
-59.9999999115281
20
36.1821362754211
30
-1E-16
41
1
10
-59.9999999115281
20
36.1671022867812
30
-1E-16
41
1
10
-59.9999999115281
20
36.1470090603119
30
-1E-16
41
1
10
-59.9999999115281
20
36.1199370743497
30
-1E-16
41
1
10
-59.9999999115281
20
36.0901809805938
30
-1E-16
41
1
10
-59.9999999115281
20
36.057788882808
30
1E-16
41
1
10
-59.9999999115281
20
36.0289033482647
30
1E-16
41
1
10
-59.9999999115281
20
36.0040587043331
30
1E-16
41
1
10
-59.9999999115281
20
35.9849934453869
30
1E-16
41
1
10
-59.9999999115281
20
35.9653076721649
30
1E-16
41
1
10
-59.9999999115281
20
35.9450047583273
30
1E-16
41
1
10
-59.9999999115281
20
35.9240938696268
30
1E-16
41
1
10
-59.9999999115281
20
35.9025847920334
30
1E-16
41
1
10
-59.9999999115281
20
35.8804825344394
30
1E-16
41
1
10
-59.9999999115281
20
35.849931658843
30
1E-16
41
1
10
-59.9999999115281
20
35.8109431653846
30
1E-16
41
1
10
-59.9999999115281
20
35.7700940393189
30
1E-16
41
1
10
-59.9999999115281
20
35.7357596379414
30
1E-16
41
1
10
-59.9999999115281
20
35.7006811703842
30
1E-16
41
1
10
-59.9999999115281
20
35.6654457729282
30
1E-16
41
1
10
-59.9999999115281
20
35.6282343261828
30
1E-16
41
1
10
-59.9999999115281
20
35.5903101458375
30
1E-16
41
1
10
-59.9999999115281
20
35.542313051925
30
1E-16
41
1
10
-59.9999999115281
20
35.4823337550788
30
1E-16
41
1
10
-59.9999999115281
20
35.4203786317767
30
1E-16
41
1
10
-59.9999999115281
20
35.3564960984106
30
1E-16
41
1
10
-59.9999999115281
20
35.2907239990877
30
1E-16
41
1
10
-59.9999999115281
20
35.1999032933972
30
1E-16
41
1
10
-59.9999999115281
20
35.083302836679
30
1E-16
41
1
10
-59.9999999115281
20
34.9610163621937
30
1E-16
41
1
10
-59.9999999115281
20
34.8586826987072
30
1E-16
41
1
10
-59.9999999115281
20
34.7541448283088
30
1E-16
41
1
10
-59.9999999115281
20
34.6209448866006
30
1E-16
41
1
10
-59.9999999115281
20
34.4827008378302
30
1E-16
41
1
10
-59.9999999115281
20
34.3679642561763
30
1E-16
41
1
10
-59.9999999115281
20
34.2512630790597
30
1E-16
41
1
10
-59.9999999115281
20
34.1336912138348
30
1E-16
41
1
10
-59.9999999115281
20
34.0114220273955
30
1E-16
41
1
10
-59.9999999115281
20
33.8873255638179
30
1E-16
41
1
10
-59.9999999115281
20
33.7303432319749
30
1E-16
41
1
10
-59.9999999115281
20
33.5360664288
30
1E-16
41
1
10
-59.9999999115281
20
33.3368086180615
30
1E-16
41
1
10
-59.9999999115281
20
33.1327239851206
30
1E-16
41
1
10
-59.9999999115281
20
32.9594170204945
30
1E-16
41
1
10
-59.9999999115281
20
32.8173185441709
30
1E-16
41
1
10
-59.9999999115281
20
32.6737029565448
30
1E-16
41
1
10
-59.9999999115281
20
32.4928680376008
30
1E-16
41
1
10
-59.9999999115281
20
32.2708066855479
30
1E-16
41
1
10
-59.9999999115281
20
32.0445515542115
30
1E-16
41
1
10
-59.9999999115281
20
31.8142103624016
30
1E-16
41
1
10
-59.9999999115281
20
31.5798841024393
30
1E-16
41
1
10
-59.9999999115281
20
31.3416716662651
30
1E-16
41
1
10
-59.9999999115281
20
31.0996627218355
30
1E-16
41
1
10
-59.9999999115281
20
30.85394806026
30
1E-16
41
1
10
-59.9999999115281
20
30.6046095698157
30
1E-16
41
1
10
-59.9999999115281
20
30.3517276350505
30
1E-16
41
1
10
-59.9999999115281
20
30.0953814329481
30
1E-16
41
1
10
-59.9999999115281
20
29.7477608242438
30
1E-16
41
1
10
-59.9999999115281
20
29.3973476849371
30
1E-16
41
1
10
-59.9999999115281
20
29.08232068191
30
1E-16
41
1
10
-59.9999999115281
20
28.9004557815819
30
1E-16
41
1
10
-59.9999999115281
20
28.7175480036931
30
1E-16
41
1
10
-59.9999999115281
20
28.4884245730934
30
1E-16
41
1
10
-59.9999999115281
20
28.209716876154
30
1E-16
41
1
10
-59.9999999115281
20
27.9280561686123
30
1E-16
41
1
10
-59.9999999115281
20
27.5473545897701
30
1E-16
41
1
10
-59.9999999115281
20
27.1647978903007
30
1E-16
41
1
10
-59.9999999115281
20
26.7729434284304
30
1E-16
41
1
10
-59.9999999115281
20
26.4772965066915
30
1E-16
41
1
10
-59.9999999115281
20
26.1789958655684
30
1E-16
41
1
10
-59.9999999115281
20
25.7764928849598
30
1E-16
41
1
10
-59.9999999115281
20
25.3727062566248
30
1E-16
41
1
10
-59.9999999115281
20
24.9601296696759
30
1E-16
41
1
10
-59.9999999115281
20
24.6492051312918
30
1E-16
41
1
10
-59.9999999115281
20
24.3358764303143
30
1E-16
41
1
10
-59.9999999115281
20
23.9136533219761
30
1E-16
41
1
10
-59.9999999115281
20
23.490644973961
30
1E-16
41
1
10
-59.9999999115281
20
23.0592600606666
30
1E-16
41
1
10
-59.9999999115281
20
22.7344589514174
30
1E-16
41
1
10
-59.9999999115281
20
22.4074669599383
30
1E-16
41
1
10
-59.9999999115281
20
21.9672931194221
30
1E-16
41
1
10
-59.9999999115281
20
21.4146864887416
30
1E-16
41
1
10
-59.9999999115281
20
20.8552369478469
30
1E-16
41
1
10
-59.9999999115281
20
20.4013016051579
30
1E-16
41
1
10
-59.9999999115281
20
19.944718978952
30
1E-16
41
1
10
-59.9999999115281
20
19.3720989560323
30
1E-16
41
1
10
-59.9999999115281
20
18.6758202277058
30
1E-16
41
1
10
-59.9999999115281
20
18.0908192690009
30
1E-16
41
1
10
-59.9999999115281
20
17.6168284670671
30
1E-16
41
1
10
-59.9999999115281
20
17.2605883924234
30
1E-16
41
1
10
-59.9999999115281
20
16.9026176819298
30
1E-16
41
1
10
-59.9999999115281
20
16.4216843027619
30
1E-16
41
1
10
-59.9999999115281
20
15.8193950124376
30
1E-16
41
1
10
-59.9999999115281
20
15.2116835007902
30
1E-16
41
1
10
-59.9999999115281
20
14.7198481667472
30
1E-16
41
1
10
-59.9999999115281
20
14.3504583787478
30
1E-16
41
1
10
-59.9999999115281
20
13.9795339912091
30
1E-16
41
1
10
-59.9999999115281
20
13.4815433446565
30
1E-16
41
1
10
-59.9999999115281
20
12.8585306870235
30
1E-16
41
1
10
-59.9999999115281
20
12.1034426260458
30
1E-16
41
1
10
-59.9999999115281
20
11.4710039322394
30
1E-16
41
1
10
-59.9999999115281
20
10.9597303980976
30
1E-16
41
1
10
-59.9999999115281
20
10.446694459398
30
1E-16
41
1
10
-59.9999999115281
20
9.80549066569532
30
1E-16
41
1
10
-59.9999999115281
20
9.16010365215601
30
1E-16
41
1
10
-59.9999999115281
20
8.63865622677051
30
1E-16
41
1
10
-59.9999999115281
20
8.24753784676662
30
1E-16
41
1
10
-59.9999999115281
20
7.8552623242158
30
1E-16
41
1
10
-59.9999999115281
20
7.32917278150751
30
1E-16
41
1
10
-59.9999999115281
20
6.67231997120871
30
1E-16
41
1
10
-59.9999999115281
20
6.0119192452899
30
1E-16
41
1
10
-59.9999999115281
20
5.4786940481786
30
1E-16
41
1
10
-59.9999999115281
20
4.94417516664822
30
1E-16
41
1
10
-59.9999999115281
20
4.4126700747922
30
1E-16
41
1
10
-59.9999999115281
20
3.87437097516141
30
1E-16
41
1
10
-59.9999999115281
20
3.53910017114862
30
1E-16
41
1
10
-59.9999999115281
20
3.26893866038381
30
1E-16
41
1
10
-59.9999999115281
20
2.99850627833982
30
1E-16
41
1
10
-59.9999999115281
20
2.5251937820932
30
1E-16
41
1
10
-59.9999999115281
20
1.9871511611509
30
-3.4E-15
41
1
10
-59.9999999115281
20
1.4423702402884
30
-3.4E-15
41
1
10
-59.9999999115281
20
1.03444572494101
30
-3.4E-15
41
1
10
-59.9999999115281
20
0.625867323856198
30
-3.4E-15
41
1
10
-59.9999999115281
20
0.216669232500607
30
-3.4E-15
41
1
10
-59.9999999115281
20
-0.193112211411403
30
-3.4E-15
41
1
10
-59.9999999115281
20
-0.603440061806793
30
-3.4E-15
41
1
10
-59.9999999115281
20
-1.01427633794
30
-3.4E-15
41
1
10
-59.9999999115281
20
-1.42558121026758
30
-3.4E-15
41
1
10
-59.9999999115281
20
-1.83731335975358
30
-3.4E-15
41
1
10
-59.9999999115281
20
-2.2494299249787
30
-3.4E-15
41
1
10
-59.9999999115281
20
-2.66188430554678
30
-3.4E-15
41
1
10
-59.9999999115281
20
-3.07463245183348
30
-3.4E-15
41
1
10
-59.9999999115281
20
-3.48762689710998
30
-3.4E-15
41
1
10
-59.9999999115281
20
-3.9008093017633
30
-3.4E-15
41
1
10
-59.9999999115281
20
-4.3141317878455
30
-3.4E-15
41
1
10
-59.9999999115281
20
-4.72753577353839
30
-3.4E-15
41
1
10
-59.9999999115281
20
-5.14095962630208
30
-3.4E-15
41
1
10
-59.9999999115281
20
-5.55434366198358
30
-3.4E-15
41
1
10
-59.9999999115281
20
-5.96761624164088
30
-3.4E-15
41
1
10
-59.9999999115281
20
-6.38070999537319
30
-3.4E-15
41
1
10
-59.9999999115281
20
-6.7935462780506
30
-3.4E-15
41
1
10
-59.9999999115281
20
-7.20604550995589
30
-3.4E-15
41
1
10
-59.9999999115281
20
-7.5482495209597
30
-3.4E-15
41
1
10
-59.9999999115281
20
-7.82398168460119
30
-3.4E-15
41
1
10
-59.9999999115281
20
-8.02968715043789
30
-3.4E-15
41
1
10
-59.9999999115281
20
-8.2352361257561
30
-3.4E-15
41
1
10
-59.9999999115281
20
-8.51034959971929
30
-3.4E-15
41
1
10
-59.9999999115281
20
-8.8508392681434
30
-3.4E-15
41
1
10
-59.9999999115281
20
-9.26021908334209
30
-3.4E-15
41
1
10
-59.9999999115281
20
-9.66862808801278
30
-3.4E-15
41
1
10
-59.9999999115281
20
-10.0066892097657
30
-3.4E-15
41
1
10
-59.9999999115281
20
-10.2790860432935
30
-3.4E-15
41
1
10
-59.9999999115281
20
-10.5510003628294
30
-3.4E-15
41
1
10
-59.9999999115281
20
-10.817763593746
30
-3.4E-15
41
1
10
-59.9999999115281
20
-11.088298565114
30
-3.4E-15
41
1
10
-59.9999999115281
20
-11.289604353008
30
-3.4E-15
41
1
10
-59.9999999115281
20
-11.4904635954377
30
-3.4E-15
41
1
10
-59.9999999115281
20
-11.6908444443342
30
-3.4E-15
41
1
10
-59.9999999115281
20
-11.890725700947
30
-3.4E-15
41
1
10
-59.9999999115281
20
-12.1581418160143
30
-3.4E-15
41
1
10
-59.9999999115281
20
-12.4194040162956
30
-3.4E-15
41
1
10
-59.9999999115281
20
-12.6846252095631
30
-3.4E-15
41
1
10
-59.9999999115281
20
-12.8815241973362
30
-3.4E-15
41
1
10
-59.9999999115281
20
-13.0777222201833
30
-3.4E-15
41
1
10
-59.9999999115281
20
-13.340123165453
30
-3.4E-15
41
1
10
-59.9999999115281
20
-13.5953471487814
30
-3.4E-15
41
1
10
-59.9999999115281
20
-13.8546726192179
30
-3.4E-15
41
1
10
-59.9999999115281
20
-14.0137415234045
30
-3.4E-15
41
1
10
-59.9999999115281
20
-14.1423235341159
30
-3.4E-15
41
1
10
-59.9999999115281
20
-14.2705504623037
30
-3.4E-15
41
1
10
-59.9999999115281
20
-14.4278330768632
30
-3.4E-15
41
1
10
-59.9999999115281
20
-14.6167940120777
30
-3.4E-15
41
1
10
-59.9999999115281
20
-14.8046102225939
30
-3.4E-15
41
1
10
-59.9999999115281
20
-14.959040523765
30
-3.4E-15
41
1
10
-59.9999999115281
20
-15.0839813752606
30
-3.4E-15
41
1
10
-59.9999999115281
20
-15.1764873679468
30
-3.4E-15
41
1
10
-59.9999999115281
20
-15.2686548205378
30
-3.4E-15
41
1
10
-59.9999999115281
20
-15.360481795254
30
-3.4E-15
41
1
10
-59.9999999115281
20
-15.4519708541529
30
-3.4E-15
41
1
10
-59.9999999115281
20
-15.5746513193314
30
-3.4E-15
41
1
10
-59.9999999115281
20
-15.6929528978586
30
-3.4E-15
41
1
10
-59.9999999115281
20
-15.8142298761899
30
-3.4E-15
41
1
10
-59.9999999115281
20
-15.9349443408374
30
-3.4E-15
41
1
10
-59.9999999115281
20
-16.0510453569515
30
-3.4E-15
41
1
10
-59.9999999115281
20
-16.1702362144479
30
-3.4E-15
41
1
10
-59.9999999115281
20
-16.258202815387
30
-3.4E-15
41
1
10
-59.9999999115281
20
-16.3457225897774
30
-3.4E-15
41
1
10
-59.9999999115281
20
-16.4328162739478
30
-3.4E-15
41
1
10
-59.9999999115281
20
-16.519478136401
30
-3.4E-15
41
1
10
-59.9999999115281
20
-16.6056915398815
30
-3.4E-15
41
1
10
-59.9999999115281
20
-16.6914468885866
30
-3.4E-15
41
1
10
-59.9999999115281
20
-16.8065572662638
30
-3.4E-15
41
1
10
-59.9999999115281
20
-16.9461058098701
30
-3.4E-15
41
1
10
-59.9999999115281
20
-17.1134766476586
30
1E-16
41
1
10
-59.9999999115281
20
-17.2499855856683
30
1E-16
41
1
10
-59.9999999115281
20
-17.3609024274849
30
1E-16
41
1
10
-59.9999999115281
20
-17.4425129423462
30
1E-16
41
1
10
-59.9999999115281
20
-17.5236737720814
30
1E-16
41
1
10
-59.9999999115281
20
-17.6327752021432
30
1E-16
41
1
10
-59.9999999115281
20
-17.7365351618495
30
1E-16
41
1
10
-59.9999999115281
20
-17.8439579674179
30
1E-16
41
1
10
-59.9999999115281
20
-17.9090681391863
30
1E-16
41
1
10
-59.9999999115281
20
-17.9623042037579
30
1E-16
41
1
10
-59.9999999115281
20
-18.0154060601129
30
1E-16
41
1
10
-59.9999999115281
20
-18.1074333435406
30
1E-16
41
1
10
-59.9999999115281
20
-18.2354431452511
30
1E-16
41
1
10
-59.9999999115281
20
-18.3622973989819
30
1E-16
41
1
10
-59.9999999115281
20
-18.4522614074033
30
1E-16
41
1
10
-59.9999999115281
20
-18.5038226073653
30
1E-16
41
1
10
-59.9999999115281
20
-18.5552838968416
30
1E-16
41
1
10
-59.9999999115281
20
-18.6178207071168
30
1E-16
41
1
10
-59.9999999115281
20
-18.7200360556992
30
1E-16
41
1
10
-59.9999999115281
20
-18.8175204438576
30
1E-16
41
1
10
-59.9999999115281
20
-18.9185624813712
30
1E-16
41
1
10
-59.9999999115281
20
-19.0192800502042
30
1E-16
41
1
10
-59.9999999115281
20
-19.1416052555605
30
1E-16
41
1
10
-59.9999999115281
20
-19.2889507693317
30
1E-16
41
1
10
-59.9999999115281
20
-19.435366047589
30
1E-16
41
1
10
-59.9999999115281
20
-19.5808687747326
30
1E-16
41
1
10
-59.9999999115281
20
-19.7254683934715
30
1E-16
41
1
10
-59.9999999115281
20
-19.8440780436421
30
1E-16
41
1
10
-59.9999999115281
20
-19.9404664665613
30
1E-16
41
1
10
-59.9999999115281
20
-20.0117564994701
30
1E-16
41
1
10
-59.9999999115281
20
-20.0828133677494
30
1E-16
41
1
10
-59.9999999115281
20
-20.1536301462257
30
1E-16
41
1
10
-59.9999999115281
20
-20.2242190772148
30
1E-16
41
1
10
-59.9999999115281
20
-20.2945873893338
30
1E-16
41
1
10
-59.9999999115281
20
-20.3647193713003
30
1E-16
41
1
10
-59.9999999115281
20
-20.4588483579621
30
1E-16
41
1
10
-59.9999999115281
20
-20.5738743331766
30
1E-16
41
1
10
-59.9999999115281
20
-20.711980437934
30
1E-16
41
1
10
-59.9999999115281
20
-20.8491080238956
30
1E-16
41
1
10
-59.9999999115281
20
-20.9617260060056
30
1E-16
41
1
10
-59.9999999115281
20
-21.0527555640149
30
1E-16
41
1
10
-59.9999999115281
20
-21.1202026474562
30
1E-16
41
1
10
-59.9999999115281
20
-21.187401348924
30
1E-16
41
1
10
-59.9999999115281
20
-21.277417130352
30
1E-16
41
1
10
-59.9999999115281
20
-21.3876461272717
30
1E-16
41
1
10
-59.9999999115281
20
-21.519739509918
30
1E-16
41
1
10
-59.9999999115281
20
-21.6508006213125
30
1E-16
41
1
10
-59.9999999115281
20
-21.7584724184905
30
1E-16
41
1
10
-59.9999999115281
20
-21.8452652658006
30
1E-16
41
1
10
-59.9999999115281
20
-21.9317193979529
30
1E-16
41
1
10
-59.9999999115281
20
-22.0377338106883
30
1E-16
41
1
10
-59.9999999115281
20
-22.2081399990349
30
1E-16
41
1
10
-59.9999999115281
20
-22.3729308473037
30
1E-16
41
1
10
-59.9999999115281
20
-22.5389522725737
30
1E-16
41
1
10
-59.9999999115281
20
-22.703598121404
30
1E-16
41
1
10
-59.9999999115281
20
-22.9044453879429
30
1E-16
41
1
10
-59.9999999115281
20
-23.1017395623871
30
1E-16
41
1
10
-59.9999999115281
20
-23.2591823489206
30
1E-16
41
1
10
-59.9999999115281
20
-23.4152509975465
30
1E-16
41
1
10
-59.9999999115281
20
-23.5665887674898
30
1E-16
41
1
10
-59.9999999115281
20
-23.7183834243287
30
1E-16
41
1
10
-59.9999999115281
20
-23.8688121157654
30
1E-16
41
1
10
-59.9999999115281
20
-24.0524825835064
30
1E-16
41
1
10
-59.9999999115281
20
-24.2696778536364
30
1E-16
41
1
10
-59.9999999115281
20
-24.482795088248
30
1E-16
41
1
10
-59.9999999115281
20
-24.6918634115548
30
1E-16
41
1
10
-59.9999999115281
20
-24.8969119888532
30
1E-16
41
1
10
-59.9999999115281
20
-25.0979700520777
30
1E-16
41
1
10
-59.9999999115281
20
-25.2950668859014
30
1E-16
41
1
10
-59.9999999115281
20
-25.4882316205064
30
1E-16
41
1
10
-59.9999999115281
20
-25.6774937011528
30
1E-16
41
1
10
-59.9999999115281
20
-25.8628807414277
30
1E-16
41
1
10
-59.9999999115281
20
-26.0444220818732
30
1E-16
41
1
10
-59.9999999115281
20
-26.2221437153689
30
1E-16
41
1
10
-59.9999999115281
20
-26.3960738473332
30
1E-16
41
1
10
-59.9999999115281
20
-26.56623789355
30
1E-16
41
1
10
-59.9999999115281
20
-26.7326611331629
30
1E-16
41
1
10
-59.9999999115281
20
-26.8953698898954
30
1E-16
41
1
10
-59.9999999115281
20
-27.0543859411402
30
1E-16
41
1
10
-59.9999999115281
20
-27.2097355746353
30
1E-16
41
1
10
-59.9999999115281
20
-27.3357772695875
30
1E-16
41
1
10
-59.9999999115281
20
-27.4354583214683
30
1E-16
41
1
10
-59.9999999115281
20
-27.5339369656278
30
1E-16
41
1
10
-59.9999999115281
20
-27.6539973811497
30
1E-16
41
1
10
-59.9999999115281
20
-27.794894124392
30
1E-16
41
1
10
-59.9999999115281
20
-27.9322297593846
30
1E-16
41
1
10
-59.9999999115281
20
-28.0660229522078
30
1E-16
41
1
10
-59.9999999115281
20
-28.1962925512022
30
1E-16
41
1
10
-59.9999999115281
20
-28.3230567231806
30
1E-16
41
1
10
-59.9999999115281
20
-28.4463323082262
30
1E-16
41
1
10
-59.9999999115281
20
-28.545900971393
30
1E-16
41
1
10
-59.9999999115281
20
-28.6242979442434
30
1E-16
41
1
10
-59.9999999115281
20
-28.7015438092437
30
1E-16
41
1
10
-59.9999999115281
20
-28.833523711985
30
1E-16
41
1
10
-59.9999999115281
20
-29.0126869699361
30
1E-16
41
1
10
-59.9999999115281
20
-29.1805433735329
30
1E-16
41
1
10
-59.9999999115281
20
-29.2926431537841
30
1E-16
41
1
10
-59.9999999115281
20
-29.3551026887004
30
1E-16
41
1
10
-59.9999999115281
20
-29.4164420924173
30
1E-16
41
1
10
-59.9999999115281
20
-29.4906042619505
30
1E-16
41
1
10
-59.9999999115281
20
-29.6054598312826
30
1E-16
41
1
10
-59.9999999115281
20
-29.7126536124931
30
1E-16
41
1
10
-59.9999999115281
20
-29.8141951709346
30
1E-16
41
1
10
-59.9999999115281
20
-29.9113310453873
30
1E-16
41
1
10
-59.9999999115281
20
-30.0238994803741
30
1E-16
41
1
10
-59.9999999115281
20
-30.1255852329998
30
1E-16
41
1
10
-59.9999999115281
20
-30.2008343450137
30
1E-16
41
1
10
-59.9999999115281
20
-30.2717385546272
30
1E-16
41
1
10
-59.9999999115281
20
-30.3513861653401
30
1E-16
41
1
10
-59.9999999115281
20
-30.4066587521566
30
1E-16
41
1
10
-59.9999999115281
20
-30.4319920951243
30
1E-16
0
SPLINE
5
FD
100
AcDbEntity
8
SK1
62
256
6
ByLayer
370
18
48
1
60
0
100
AcDbSpline
70
4
71
3
72
8
73
4
40
0
40
0
40
0
40
0
40
1
40
1
40
1
40
1
41
1
10
-59.9999999115281
20
-30.4319920937309
30
1E-16
41
1
10
-59.8999062299565
20
-30.4972846348813
30
1E-16
41
1
10
-59.7999017871956
20
-30.5623551461506
30
1E-16
41
1
10
-59.6999999115281
20
-30.6271957317167
30
1E-16
0
SPLINE
5
FE
100
AcDbEntity
8
SK1
62
256
6
ByLayer
370
18
48
1
60
0
100
AcDbSpline
70
4
71
3
72
14
73
10
40
0
40
0
40
0
40
0
40
0.250000000000002
40
0.250000000000002
40
0.500000000000001
40
0.500000000000001
40
0.75
40
0.75
40
1
40
1
40
1
40
1
41
1
10
-57.9999999115287
20
-31.5187423960997
30
0
41
1
10
-58.1458081114868
20
-31.4416127856265
30
0
41
1
10
-58.2907536404655
20
-31.3651101723419
30
0
41
1
10
-58.5787740981269
20
-31.213422802759
30
0
41
1
10
-58.7218115584886
20
-31.1382578676301
30
0
41
1
10
-59.0055771890775
20
-30.9894616450837
30
1E-16
41
1
10
-59.1463452618148
20
-30.9158094244946
30
1E-16
41
1
10
-59.4253444074553
20
-30.7701407296703
30
1E-16
41
1
10
-59.563445376036
20
-30.6981921439418
30
1E-16
41
1
10
-59.6999999115281
20
-30.6271957317167
30
1E-16
0
SPLINE
5
FF
100
AcDbEntity
8
SK1
62
256
6
ByLayer
370
18
48
1
60
0
100
AcDbSpline
70
4
71
3
72
8
73
4
40
0
40
0
40
0
40
0
40
1
40
1
40
1
40
1
41
1
10
-59.6999999115281
20
-30.627195733206
30
1E-16
41
1
10
-59.7999017872098
20
-30.5623551479648
30
1E-16
41
1
10
-59.8999062299719
20
-30.4972846371162
30
1E-16
41
1
10
-59.9999999115281
20
-30.4319920965178
30
1E-16
0
SPLINE
5
100
100
AcDbEntity
8
SK1
62
256
6
ByLayer
370
18
48
1
60
0
100
AcDbSpline
70
4
71
2
72
6
73
3
40
0
40
0
40
0
40
1
40
1
40
1
41
1
10
-57.9999999115281
20
37.4182126908741
30
0
41
1
10
-58.9999999115281
20
36.8408640072098
30
0
41
1
10
-59.9999999115281
20
36.2635153235456
30
0
0
SPLINE
5
101
100
AcDbEntity
8
SK1
62
256
6
ByLayer
370
18
48
1
60
0
100
AcDbSpline
70
4
71
3
72
73
73
69
40
0
40
0
40
0
40
0
40
0.0136177629901982
40
0.0206655977566998
40
0.0277134325232014
40
0.0418091020562046
40
0.0559047715892078
40
0.0629526063557094
40
0.070000441122211
40
0.0840961106552142
40
0.0911439454217158
40
0.0981917801882175
40
0.112287449721221
40
0.126383119254224
40
0.140478788787227
40
0.15457445832023
40
0.168670127853233
40
0.182765797386237
40
0.19686146691924
40
0.210957136452243
40
0.225052805985246
40
0.239148475518249
40
0.253244145051253
40
0.267339814584256
40
0.281435484117259
40
0.295531153650262
40
0.309626823183266
40
0.323722492716269
40
0.337818162249272
40
0.351913831782275
40
0.366009501315278
40
0.37305733608178
40
0.380105170848282
40
0.394200840381285
40
0.408296509914288
40
0.422392179447291
40
0.436487848980294
40
0.450583518513298
40
0.464679188046301
40
0.478774857579304
40
0.492870527112307
40
0.499918361878809
40
0.50696619664531
40
0.521061866178314
40
0.54925320524432
40
0.577444544310326
40
0.59154021384333
40
0.598588048609831
40
0.605635883376333
40
0.619731552909336
40
0.633827222442339
40
0.662018561508346
40
0.676114231041349
40
0.690209900574352
40
0.718401239640359
40
0.746592578706365
40
0.760688248239368
40
0.774783917772371
40
0.802975256838378
40
0.831166595904384
40
0.859357934970391
40
0.873453604503394
40
0.887549274036397
40
0.915740613102403
40
0.94393195216841
40
0.972123291234416
40
0.986218960767419
40
1
40
1
40
1
40
1
41
1
10
-0.394976800403413
20
-24.0280576063406
30
0
41
1
10
-0.394976800403413
20
-24.1179463717342
30
0
41
1
10
-0.394976800403413
20
-24.2528945718515
30
0
41
1
10
-0.394976800403413
20
-24.4312923260706
30
0
41
1
10
-0.394976800403413
20
-24.6108880595861
30
0
41
1
10
-0.394976800403413
20
-24.8317738278946
30
0
41
1
10
-0.394976800403413
20
-25.0481159239947
30
0
41
1
10
-0.394976800403413
20
-25.2186131378443
30
0
41
1
10
-0.394976800403413
20
-25.3873525248217
30
0
41
1
10
-0.394976800403413
20
-25.5533403342488
30
0
41
1
10
-0.394976800403413
20
-25.7169025585444
30
0
41
1
10
-0.394976800403413
20
-25.8787754881
30
0
41
1
10
-0.394976800403413
20
-26.0778825172536
30
0
41
1
10
-0.394976800403413
20
-26.3119268525314
30
0
41
1
10
-0.394976800403413
20
-26.5411249484084
30
0
41
1
10
-0.394976800403413
20
-26.7655571867346
30
0
41
1
10
-0.394976800403413
20
-26.985299783385
30
0
41
1
10
-0.394976800403413
20
-27.2004240377915
30
0
41
1
10
-0.394976800403413
20
-27.4109979972943
30
0
41
1
10
-0.394976800403413
20
-27.6170849802111
30
0
41
1
10
-0.394976800403413
20
-27.8187462413092
30
0
41
1
10
-0.394976800403413
20
-28.0160382884462
30
0
41
1
10
-0.394976800403413
20
-28.209016131442
30
0
41
1
10
-0.394976800403413
20
-28.3977309481796
30
0
41
1
10
-0.394976800403413
20
-28.5822315626147
30
0
41
1
10
-0.394976800403413
20
-28.7625652360135
30
0
41
1
10
-0.394976800403413
20
-28.9387748662958
30
0
41
1
10
-0.394976800403413
20
-29.1109042012114
30
0
41
1
10
-0.394976800403413
20
-29.2789918209916
30
0
41
1
10
-0.394976800403413
20
-29.4430768794059
30
0
41
1
10
-0.394976800403413
20
-29.5764893647721
30
0
41
1
10
-0.394976800403413
20
-29.6812875982346
30
0
41
1
10
-0.394976800403413
20
-29.7847817516537
30
0
41
1
10
-0.394976800403413
20
-29.9116707570941
30
0
41
1
10
-0.394976800403413
20
-30.0600918667128
30
0
41
1
10
-0.394976800403413
20
-30.2046763148994
30
0
41
1
10
-0.394976800403413
20
-30.3454527122613
30
0
41
1
10
-0.394976800403413
20
-30.4824485823472
30
0
41
1
10
-0.394976800403413
20
-30.6156903356414
30
0
41
1
10
-0.394976800403413
20
-30.7452031441191
30
0
41
1
10
-0.394976800403413
20
-30.8500285290871
30
0
41
1
10
-0.394976800403413
20
-30.9320728035981
30
0
41
1
10
-0.394976800403413
20
-31.0128932087887
30
0
41
1
10
-0.394976800403413
20
-31.1511162417095
30
0
41
1
10
-0.394976800403413
20
-31.339436372763
30
0
41
1
10
-0.394976800403413
20
-31.5157576763501
30
0
41
1
10
-0.394976800403413
20
-31.6329711614904
30
0
41
1
10
-0.394976800403413
20
-31.6981806931966
30
0
41
1
10
-0.394976800403413
20
-31.7622099976625
30
0
41
1
10
-0.394976800403413
20
-31.8400167482888
30
0
41
1
10
-0.394976800403413
20
-31.9598520129101
30
0
41
1
10
-0.394976800403413
20
-32.0726282774632
30
0
41
1
10
-0.394976800403413
20
-32.1785028934645
30
0
41
1
10
-0.394976800403413
20
-32.2797583537127
30
0
41
1
10
-0.394976800403413
20
-32.3976631572476
30
0
41
1
10
-0.394976800403413
20
-32.5041331183803
30
0
41
1
10
-0.394976800403413
20
-32.5825071460872
30
0
41
1
10
-0.394976800403413
20
-32.6563429496439
30
0
41
1
10
-0.394976800403413
20
-32.7401260018639
30
0
41
1
10
-0.394976800403413
20
-32.8271554235025
30
0
41
1
10
-0.394976800403413
20
-32.8884460598177
30
0
41
1
10
-0.394976800403413
20
-32.9307751192694
30
0
41
1
10
-0.394976800403413
20
-32.9686327570247
30
0
41
1
10
-0.394976800403413
20
-33.007570343385
30
0
41
1
10
-0.394976800403413
20
-33.0409305047253
30
0
41
1
10
-0.394976800403413
20
-33.0576030488325
30
0
41
1
10
-0.394976800403413
20
-33.0642355487608
30
0
41
1
10
-0.394976800403413
20
-33.0653694841969
30
0
41
1
10
-0.394976800403413
20
-33.0653866063383
30
0
0
SPLINE
5
102
100
AcDbEntity
8
SK1
62
256
6
ByLayer
370
18
48
1
60
0
100
AcDbSpline
70
4
71
3
72
32
73
28
40
0
40
0
40
0
40
0
40
0.124999999999997
40
0.124999999999997
40
0.249999999999995
40
0.249999999999995
40
0.312499999999994
40
0.312499999999994
40
0.343749999999994
40
0.343749999999994
40
0.374999999999993
40
0.437499999999993
40
0.437499999999993
40
0.499999999999993
40
0.499999999999993
40
0.562499999999994
40
0.562499999999994
40
0.624999999999994
40
0.624999999999994
40
0.749999999999994
40
0.749999999999994
40
0.781249999999994
40
0.781249999999994
40
0.812499999999994
40
0.874999999999995
40
0.874999999999995
40
1
40
1
40
1
40
1
41
1
10
-1.30710669271471
20
-14.9687256966225
30
1E-16
41
1
10
-1.37077762096232
20
-15.3462870926515
30
1E-16
41
1
10
-1.42986377564631
20
-15.7210744196404
30
1E-16
41
1
10
-1.53600165667481
20
-16.4644613337842
30
1E-16
41
1
10
-1.5830592279037
20
-16.8330628467541
30
1E-16
41
1
10
-1.6418194350947
20
-17.3806638490697
30
1E-16
41
1
10
-1.65942838671302
20
-17.5623120144364
30
1E-16
41
1
10
-1.68248005826939
20
-17.8333582547523
30
1E-16
41
1
10
-1.6896044213369
20
-17.9235030879955
30
1E-16
41
1
10
-1.7026543637576
20
-18.1031561519088
30
1E-16
41
1
10
-1.72038060031039
20
-18.3710133205057
30
1E-16
41
1
10
-1.73238032278189
20
-18.633915654502
30
1E-16
41
1
10
-1.7430382232362
20
-18.9799264712567
30
1E-16
41
1
10
-1.74569969281521
20
-19.1506709571823
30
1E-16
41
1
10
-1.74562998728859
20
-19.4876191159905
30
1E-16
41
1
10
-1.74289177233879
20
-19.6538189148626
30
1E-16
41
1
10
-1.73216119694601
20
-19.9817619821718
30
1E-16
41
1
10
-1.7241641013058
20
-20.143502637329
30
1E-16
41
1
10
-1.69273151709621
20
-20.6222865039816
30
1E-16
41
1
10
-1.66183565816311
20
-20.9328833828947
30
1E-16
41
1
10
-1.6128756225456
20
-21.3115162956989
30
1E-16
41
1
10
-1.6025583396106
20
-21.3868175269367
30
1E-16
41
1
10
-1.5809954055118
20
-21.536168866498
30
1E-16
41
1
10
-1.5472621951503
20
-21.7583016406325
30
1E-16
41
1
10
-1.50964169590429
20
-21.9750004323387
30
1E-16
41
1
10
-1.4299001318264
20
-22.4017508786077
30
1E-16
41
1
10
-1.370760749818
20
-22.6774101461076
30
1E-16
41
1
10
-1.30710669271471
20
-22.9454821099762
30
1E-16
0
SPLINE
5
103
100
AcDbEntity
8
SK1
62
256
6
ByLayer
370
18
48
1
60
0
100
AcDbSpline
70
4
71
3
72
21
73
17
40
0
40
0
40
0
40
0
40
0.0001903037679118
40
0.125166515796923
40
0.125166515796923
40
0.250142727825933
40
0.250142727825933
40
0.500095151883955
40
0.500095151883955
40
0.562583257898461
40
0.562583257898461
40
0.625071363912966
40
0.625071363912966
40
0.750047575941977
40
0.750047575941977
40
1
40
1
40
1
40
1
41
1
10
-1.74566652957066
20
38.6314547379587
30
0
41
1
10
-1.74566110142808
20
38.6314463382403
30
0
41
1
10
-1.7456314481019
20
38.6314004549939
30
0
41
1
10
-1.7428926154092
20
38.6271699384974
30
0
41
1
10
-1.73216040464001
20
38.610534557486
30
0
41
1
10
-1.7241666422222
20
38.5981270364137
30
0
41
1
10
-1.69272959126911
20
38.5490693857229
30
1E-16
41
1
10
-1.66183524211081
20
38.5005931604598
30
1E-16
41
1
10
-1.61287503199861
20
38.4223164152608
30
1E-16
41
1
10
-1.60255904977629
20
38.4057647461355
30
1E-16
41
1
10
-1.58099620642471
20
38.3710225145823
30
1E-16
41
1
10
-1.56975058781461
20
38.3528345149827
30
1E-16
41
1
10
-1.53472152793552
20
38.2959279934689
30
1E-16
41
1
10
-1.5096410429102
20
38.2548626688327
30
1E-16
41
1
10
-1.42989919417749
20
38.1230143199409
30
1E-16
41
1
10
-1.37076240750551
20
38.0236084494652
30
1E-16
41
1
10
-1.30710669271761
20
37.9142135944326
30
1E-16
0
SPLINE
5
104
100
AcDbEntity
8
SK1
62
256
6
ByLayer
370
18
48
1
60
0
100
AcDbSpline
70
4
71
1
72
4
73
2
40
0
40
0
40
1
40
1
41
1
10
-1.74003298979451
20
38.6315924432849
30
0
41
1
10
-1.99503988946739
20
38.6251857999546
30
0
0
SPLINE
5
105
100
AcDbEntity
8
SK1
62
256
6
ByLayer
370
18
48
1
60
0
100
AcDbSpline
70
4
71
2
72
6
73
3
40
0
40
0
40
0
40
1
40
1
40
1
41
1
10
-1.99503988946739
20
-33.0251846496344
30
0
41
1
10
-1.19500834493542
20
-33.0452842267092
30
0
41
1
10
-0.394976800403413
20
-33.065383803784
30
0
0
SPLINE
5
106
100
AcDbEntity
8
SK1
62
256
6
ByLayer
370
18
48
1
60
0
100
AcDbSpline
70
4
71
3
72
329
73
325
40
0
40
0
40
0
40
0
40
0.0009608886355091
40
0.0019374664569798
40
0.0038906220999211
40
0.0048671999213918
40
0.0058437777428624
40
0.0068203555643331
40
0.0077969333858038
40
0.0097500890287451
40
0.0117032446716864
40
0.0126798224931571
40
0.0136564003146278
40
0.0146329781360984
40
0.0156095559575691
40
0.0175627116005104
40
0.0195158672434518
40
0.0214690228863931
40
0.0234221785293344
40
0.0253753341722758
40
0.0263519119937464
40
0.0273284898152171
40
0.0283050676366878
40
0.0292816454581584
40
0.0302582232796291
40
0.0312348011010998
40
0.0322113789225704
40
0.0331879567440411
40
0.0351411123869824
40
0.0370942680299237
40
0.0380708458513944
40
0.0390474236728651
40
0.0410005793158064
40
0.0419771571372771
40
0.0429537349587477
40
0.0449068906016891
40
0.0468600462446304
40
0.0488132018875717
40
0.0507663575305131
40
0.0527195131734544
40
0.0546726688163957
40
0.0585789801022784
40
0.0624852913881611
40
0.0644384470311024
40
0.0663916026740437
40
0.0702979139599264
40
0.074204225245809
40
0.0761573808887504
40
0.0781105365316917
40
0.0820168478175744
40
0.0839700034605157
40
0.085923159103457
40
0.0898294703893397
40
0.0937357816752224
40
0.097642092961105
40
0.101548404246988
40
0.10545471553287
40
0.107407871175812
40
0.109361026818753
40
0.113267338104636
40
0.117173649390518
40
0.121079960676401
40
0.124986271962284
40
0.128892583248166
40
0.132798894534049
40
0.136705205819932
40
0.140611517105814
40
0.144517828391697
40
0.14842413967758
40
0.152330450963462
40
0.156236762249345
40
0.16404938482111
40
0.167955696106993
40
0.169908851749934
40
0.171862007392876
40
0.175768318678758
40
0.179674629964641
40
0.183580941250524
40
0.187487252536406
40
0.195299875108172
40
0.199206186394054
40
0.203112497679937
40
0.20701880896582
40
0.210925120251702
40
0.218737742823468
40
0.22264405410935
40
0.226550365395233
40
0.230456676681115
40
0.234362987966998
40
0.242175610538763
40
0.246081921824646
40
0.249988233110529
40
0.253894544396412
40
0.257800855682294
40
0.26561347825406
40
0.273426100825825
40
0.277332412111708
40
0.28123872339759
40
0.289051345969355
40
0.296863968541121
40
0.304676591112886
40
0.308582902398769
40
0.312489213684651
40
0.316395524970534
40
0.320301836256417
40
0.328114458828182
40
0.335927081399947
40
0.33983339268583
40
0.343739703971713
40
0.347646015257595
40
0.351552326543478
40
0.359364949115243
40
0.367177571687009
40
0.374990194258774
40
0.378896505544657
40
0.382802816830539
40
0.390615439402305
40
0.39842806197407
40
0.402334373259953
40
0.406240684545835
40
0.410146995831718
40
0.414053307117601
40
0.421865929689366
40
0.429678552261131
40
0.433584863547014
40
0.437491174832897
40
0.445303797404662
40
0.449210108690545
40
0.453116419976427
40
0.455069575619369
40
0.45702273126231
40
0.460929042548193
40
0.468741665119958
40
0.472647976405841
40
0.476554287691723
40
0.480460598977606
40
0.484366910263489
40
0.488273221549371
40
0.492179532835254
40
0.496085844121136
40
0.499992155407019
40
0.503898466692902
40
0.507804777978785
40
0.511711089264667
40
0.51561740055055
40
0.519523711836433
40
0.523430023122315
40
0.527336334408198
40
0.531242645694081
40
0.535148956979963
40
0.539055268265846
40
0.542961579551729
40
0.546867890837611
40
0.550774202123494
40
0.554680513409377
40
0.558586824695259
40
0.560539980338201
40
0.562493135981142
40
0.564446291624083
40
0.566399447267025
40
0.570305758552907
40
0.57421206983879
40
0.578118381124673
40
0.582024692410555
40
0.583977848053497
40
0.585931003696438
40
0.589837314982321
40
0.591790470625262
40
0.593743626268203
40
0.595696781911145
40
0.597649937554086
40
0.599603093197027
40
0.601556248839969
40
0.605462560125851
40
0.607415715768792
40
0.609368871411734
40
0.611322027054675
40
0.613275182697616
40
0.617181493983499
40
0.61913464962644
40
0.621087805269382
40
0.622064383090852
40
0.623040960912323
40
0.624994116555264
40
0.626947272198206
40
0.628900427841147
40
0.630853583484088
40
0.631830161305559
40
0.63280673912703
40
0.6337833169485
40
0.634759894769971
40
0.635736472591442
40
0.636713050412912
40
0.638666206055854
40
0.639642783877324
40
0.640619361698795
40
0.642572517341736
40
0.643549095163207
40
0.644525672984678
40
0.645502250806148
40
0.646478828627619
40
0.64745540644909
40
0.64843198427056
40
0.649408562092031
40
0.650385139913502
40
0.652338295556443
40
0.654291451199384
40
0.656244606842326
40
0.657221184663796
40
0.658197762485267
40
0.659174340306738
40
0.660150918128208
40
0.66210407377115
40
0.66308065159262
40
0.664057229414091
40
0.664545518324826
40
0.665033807235562
40
0.666010385057032
40
0.667963540699974
40
0.669916696342915
40
0.670893274164386
40
0.671381563075121
40
0.671869851985856
40
0.672846429807327
40
0.673823007628798
40
0.675776163271739
40
0.67675274109321
40
0.67772931891468
40
0.679682474557622
40
0.681635630200563
40
0.683588785843504
40
0.685541941486446
40
0.687495097129387
40
0.689448252772328
40
0.690424830593799
40
0.69140140841527
40
0.69237798623674
40
0.693354564058211
40
0.694331141879682
40
0.695307719701152
40
0.696284297522623
40
0.697260875344094
40
0.699214030987035
40
0.701167186629976
40
0.703120342272918
40
0.705073497915859
40
0.70605007573733
40
0.7070266535588
40
0.708003231380271
40
0.708979809201742
40
0.710932964844683
40
0.712886120487624
40
0.714839276130566
40
0.716792431773507
40
0.717769009594978
40
0.718745587416448
40
0.72069874305939
40
0.722651898702331
40
0.726558209988214
40
0.728511365631155
40
0.730464521274096
40
0.734370832559979
40
0.738277143845862
40
0.740230299488803
40
0.742183455131744
40
0.746089766417627
40
0.748042922060568
40
0.74999607770351
40
0.753902388989392
40
0.757808700275275
40
0.761715011561158
40
0.76562132284704
40
0.769527634132923
40
0.773433945418806
40
0.777340256704688
40
0.781246567990571
40
0.785152879276454
40
0.789059190562336
40
0.792965501848219
40
0.796871813134102
40
0.800778124419984
40
0.804684435705867
40
0.80859074699175
40
0.812497058277632
40
0.816403369563515
40
0.820309680849397
40
0.82421599213528
40
0.826169147778221
40
0.828122303421163
40
0.832028614707045
40
0.835934925992928
40
0.839841237278811
40
0.843747548564693
40
0.847653859850576
40
0.851560171136459
40
0.855466482422341
40
0.859372793708224
40
0.861325949351165
40
0.863279104994107
40
0.867185416279989
40
0.874998038851755
40
0.88281066142352
40
0.886716972709403
40
0.888670128352344
40
0.890623283995285
40
0.894529595281168
40
0.898435906567051
40
0.906248529138816
40
0.910154840424699
40
0.914061151710581
40
0.921873774282347
40
0.929686396854112
40
0.933592708139995
40
0.937499019425877
40
0.945311641997643
40
0.953124264569408
40
0.960936887141173
40
0.964843198427056
40
0.968749509712939
40
0.976562132284704
40
0.984374754856469
40
0.992187377428235
40
0.996093688714117
40
1
40
1
40
1
40
1
41
1
10
-1.99503988946739
20
38.6251883535791
30
0
41
1
10
-1.99503988946739
20
38.6251783525791
30
0
41
1
10
-1.99503988946739
20
38.6248835694505
30
0
41
1
10
-1.99503988946739
20
38.6231188510878
30
0
41
1
10
-1.99503988946739
20
38.6195864320329
30
0
41
1
10
-1.99503988946739
20
38.6142868386053
30
0
41
1
10
-1.99503988946739
20
38.6094407044486
30
0
41
1
10
-1.99503988946739
20
38.6037248016033
30
0
41
1
10
-1.99503988946739
20
38.5949437383048
30
0
41
1
10
-1.99503988946739
20
38.5818378245494
30
-1E-16
41
1
10
-1.99503988946739
20
38.5659190414379
30
-1E-16
41
1
10
-1.99503988946739
20
38.5515090449186
30
-1E-16
41
1
10
-1.99503988946739
20
38.5398901336522
30
-1E-16
41
1
10
-1.99503988946739
20
38.527461212083
30
-1E-16
41
1
10
-1.99503988946739
20
38.509808296227
30
-1E-16
41
1
10
-1.99503988946739
20
38.4857941412938
30
-1E-16
41
1
10
-1.99503988946739
20
38.4538767850476
30
1E-16
41
1
10
-1.99503988946739
20
38.4189569606777
30
1E-16
41
1
10
-1.99503988946739
20
38.3811175663678
30
1E-16
41
1
10
-1.99503988946739
20
38.347237986001
30
1E-16
41
1
10
-1.99503988946739
20
38.3187248984372
30
1E-16
41
1
10
-1.99503988946739
20
38.2966745557233
30
1E-16
41
1
10
-1.99503988946739
20
38.273954517498
30
1E-16
41
1
10
-1.99503988946739
20
38.2505746589109
30
1E-16
41
1
10
-1.99503988946739
20
38.2265455221988
30
1E-16
41
1
10
-1.99503988946739
20
38.2018764281765
30
1E-16
41
1
10
-1.99503988946739
20
38.1765761033982
30
1E-16
41
1
10
-1.99503988946739
20
38.1419924222429
30
1E-16
41
1
10
-1.99503988946739
20
38.0972764816784
30
1E-16
41
1
10
-1.99503988946739
20
38.0505776355895
30
1E-16
41
1
10
-1.99503988946739
20
38.0120232360518
30
1E-16
41
1
10
-1.99503988946739
20
37.9727077942608
30
1E-16
41
1
10
-1.99503988946739
20
37.9323308114856
30
1E-16
41
1
10
-1.99503988946739
20
37.8907954935257
30
1E-16
41
1
10
-1.99503988946739
20
37.8485393390883
30
1E-16
41
1
10
-1.99503988946739
20
37.7944365152791
30
1E-16
41
1
10
-1.99503988946739
20
37.7274127107253
30
1E-16
41
1
10
-1.99503988946739
20
37.658368481958
30
1E-16
41
1
10
-1.99503988946739
20
37.5873546913382
30
1E-16
41
1
10
-1.99503988946739
20
37.5144190018034
30
1E-16
41
1
10
-1.99503988946739
20
37.4146275940375
30
1E-16
41
1
10
-1.99503988946739
20
37.2854122920504
30
1E-16
41
1
10
-1.99503988946739
20
37.1503833217767
30
1E-16
41
1
10
-1.99503988946739
20
37.0389373507409
30
1E-16
41
1
10
-1.99503988946739
20
36.925309808808
30
1E-16
41
1
10
-1.99503988946739
20
36.7793741324772
30
1E-16
41
1
10
-1.99503988946739
20
36.6283240871578
30
1E-16
41
1
10
-1.99503988946739
20
36.5044478228489
30
1E-16
41
1
10
-1.99503988946739
20
36.3786372872219
30
1E-16
41
1
10
-1.99503988946739
20
36.2501185734075
30
1E-16
41
1
10
-1.99503988946739
20
36.1187225654634
30
1E-16
41
1
10
-1.99503988946739
20
35.9855279753425
30
1E-16
41
1
10
-1.99503988946739
20
35.8158232675372
30
1E-16
41
1
10
-1.99503988946739
20
35.6070026049838
30
1E-16
41
1
10
-1.99503988946739
20
35.3932237260256
30
1E-16
41
1
10
-1.99503988946739
20
35.1746384897706
30
1E-16
41
1
10
-1.99503988946739
20
34.9886434348317
30
1E-16
41
1
10
-1.99503988946739
20
34.8375014218736
30
1E-16
41
1
10
-1.99503988946739
20
34.6848700702071
30
1E-16
41
1
10
-1.99503988946739
20
34.4914293150348
30
1E-16
41
1
10
-1.99503988946739
20
34.254964649746
30
1E-16
41
1
10
-1.99503988946739
20
34.0143294967084
30
1E-16
41
1
10
-1.99503988946739
20
33.7696296825781
30
1E-16
41
1
10
-1.99503988946739
20
33.5209663984189
30
1E-16
41
1
10
-1.99503988946739
20
33.2684355083165
30
1E-16
41
1
10
-1.99503988946739
20
33.0121272798263
30
1E-16
41
1
10
-1.99503988946739
20
32.752129461773
30
1E-16
41
1
10
-1.99503988946739
20
32.4885230876065
30
1E-16
41
1
10
-1.99503988946739
20
32.2213882031642
30
1E-16
41
1
10
-1.99503988946739
20
31.9507993874668
30
1E-16
41
1
10
-1.99503988946739
20
31.5854149619234
30
1E-16
41
1
10
-1.99503988946739
20
31.2136717862307
30
1E-16
41
1
10
-1.99503988946739
20
30.8826304423958
30
1E-16
41
1
10
-1.99503988946739
20
30.6918830419822
30
1E-16
41
1
10
-1.99503988946739
20
30.5001037882816
30
1E-16
41
1
10
-1.99503988946739
20
30.2585634329774
30
1E-16
41
1
10
-1.99503988946739
20
29.9656553394661
30
1E-16
41
1
10
-1.99503988946739
20
29.6697944268106
30
1E-16
41
1
10
-1.99503988946739
20
29.2713568094569
30
1E-16
41
1
10
-1.99503988946739
20
28.8674842857381
30
1E-16
41
1
10
-1.99503988946739
20
28.4578427525701
30
1E-16
41
1
10
-1.99503988946739
20
28.147968703673
30
1E-16
41
1
10
-1.99503988946739
20
27.8354310112391
30
1E-16
41
1
10
-1.99503988946739
20
27.4151311334395
30
1E-16
41
1
10
-1.99503988946739
20
26.989939119253
30
1E-16
41
1
10
-1.99503988946739
20
26.559485835537
30
1E-16
41
1
10
-1.99503988946739
20
26.2342506425122
30
1E-16
41
1
10
-1.99503988946739
20
25.9065917454494
30
1E-16
41
1
10
-1.99503988946739
20
25.4664406752672
30
1E-16
41
1
10
-1.99503988946739
20
25.0218526258251
30
1E-16
41
1
10
-1.99503988946739
20
24.572430338304
30
1E-16
41
1
10
-1.99503988946739
20
24.2331784195946
30
1E-16
41
1
10
-1.99503988946739
20
23.891706797248
30
1E-16
41
1
10
-1.99503988946739
20
23.4334034650401
30
1E-16
41
1
10
-1.99503988946739
20
22.8553314605855
30
1E-16
41
1
10
-1.99503988946739
20
22.2702666695178
30
1E-16
41
1
10
-1.99503988946739
20
21.797967547184
30
1E-16
41
1
10
-1.99503988946739
20
21.3229814173296
30
1E-16
41
1
10
-1.99503988946739
20
20.7244848392348
30
1E-16
41
1
10
-1.99503988946739
20
19.9984407793375
30
1E-16
41
1
10
-1.99503988946739
20
19.3872166667185
30
1E-16
41
1
10
-1.99503988946739
20
18.8944001554645
30
1E-16
41
1
10
-1.99503988946739
20
18.5230464017941
30
1E-16
41
1
10
-1.99503988946739
20
18.1499052208862
30
1E-16
41
1
10
-1.99503988946739
20
17.6499376726845
30
1E-16
41
1
10
-1.99503988946739
20
17.0208382046318
30
1E-16
41
1
10
-1.99503988946739
20
16.3860879209104
30
1E-16
41
1
10
-1.99503988946739
20
15.874812625058
30
1E-16
41
1
10
-1.99503988946739
20
15.4897986796449
30
1E-16
41
1
10
-1.99503988946739
20
15.1031766661668
30
1E-16
41
1
10
-1.99503988946739
20
14.5854681254481
30
1E-16
41
1
10
-1.99503988946739
20
13.934639205347
30
1E-16
41
1
10
-1.99503988946739
20
13.1474333748117
30
1E-16
41
1
10
-1.99503988946739
20
12.4865888239618
30
1E-16
41
1
10
-1.99503988946739
20
11.9548505072388
30
1E-16
41
1
10
-1.99503988946739
20
11.4212187190401
30
1E-16
41
1
10
-1.99503988946739
20
10.7509095017397
30
1E-16
41
1
10
-1.99503988946739
20
10.0760693284788
30
1E-16
41
1
10
-1.99503988946739
20
9.53337230848422
30
1E-16
41
1
10
-1.99503988946739
20
9.1251306844064
30
1E-16
41
1
10
-1.99503988946739
20
8.71561138451651
30
1E-16
41
1
10
-1.99503988946739
20
8.16780310053022
30
1E-16
41
1
10
-1.99503988946739
20
7.4801946552337
30
1E-16
41
1
10
-1.99503988946739
20
6.78860145752961
30
1E-16
41
1
10
-1.99503988946739
20
6.2328218376575
30
1E-16
41
1
10
-1.99503988946739
20
5.67553454279971
30
1E-16
41
1
10
-1.99503988946739
20
5.11636638903482
30
1E-16
41
1
10
-1.99503988946739
20
4.55472155197452
30
1E-16
41
1
10
-1.99503988946739
20
4.20295417905581
30
1E-16
41
1
10
-1.99503988946739
20
3.92092468121362
30
1E-16
41
1
10
-1.99503988946739
20
3.63855899064791
30
1E-16
41
1
10
-1.99503988946739
20
3.14359094630012
30
1E-16
41
1
10
-1.99503988946739
20
2.57627050681532
30
1E-16
41
1
10
-1.99503988946739
20
2.00673181709902
30
1E-16
41
1
10
-1.99503988946739
20
1.57876912746991
30
1E-16
41
1
10
-1.99503988946739
20
1.149930137609
30
1E-16
41
1
10
-1.99503988946739
20
0.720240817040121
30
1E-16
41
1
10
-1.99503988946739
20
0.289727831708717
30
1E-16
41
1
10
-1.99503988946739
20
-0.14158151064899
30
1E-16
41
1
10
-1.99503988946739
20
-0.573659132708286
30
1E-16
41
1
10
-1.99503988946739
20
-1.0064760983351
30
1E-16
41
1
10
-1.99503988946739
20
-1.4400025791077
30
1E-16
41
1
10
-1.99503988946739
20
-1.87420777177388
30
1E-16
41
1
10
-1.99503988946739
20
-2.30905967330679
30
1E-16
41
1
10
-1.99503988946739
20
-2.7445255196057
30
1E-16
41
1
10
-1.99503988946739
20
-3.18057098146218
30
1E-16
41
1
10
-1.99503988946739
20
-3.61715991731788
30
1E-16
41
1
10
-1.99503988946739
20
-4.05425572919248
30
1E-16
41
1
10
-1.99503988946739
20
-4.49181925543098
30
1E-16
41
1
10
-1.99503988946739
20
-4.92980996092928
30
1E-16
41
1
10
-1.99503988946739
20
-5.3681853862675
30
1E-16
41
1
10
-1.99503988946739
20
-5.80690053787399
30
1E-16
41
1
10
-1.99503988946739
20
-6.2459085773271
30
1E-16
41
1
10
-1.99503988946739
20
-6.68515954612528
30
1E-16
41
1
10
-1.99503988946739
20
-7.1246009761513
30
1E-16
41
1
10
-1.99503988946739
20
-7.4908321662123
30
1E-16
41
1
10
-1.99503988946739
20
-7.7840082622408
30
1E-16
41
1
10
-1.99503988946739
20
-8.00383562508028
30
1E-16
41
1
10
-1.99503988946739
20
-8.22366582035849
30
1E-16
41
1
10
-1.99503988946739
20
-8.51685310385028
30
1E-16
41
1
10
-1.99503988946739
20
-8.88309910154908
30
1E-16
41
1
10
-1.99503988946739
20
-9.32257856275598
30
1E-16
41
1
10
-1.99503988946739
20
-9.76185136612258
30
1E-16
41
1
10
-1.99503988946739
20
-10.1275761370985
30
1E-16
41
1
10
-1.99503988946739
20
-10.4201423700089
30
1E-16
41
1
10
-1.99503988946739
20
-10.7125623316716
30
1E-16
41
1
10
-1.99503988946739
20
-11.004435574993
30
1E-16
41
1
10
-1.99503988946739
20
-11.2963291878246
30
1E-16
41
1
10
-1.99503988946739
20
-11.5150065591943
30
1E-16
41
1
10
-1.99503988946739
20
-11.7335072398451
30
1E-16
41
1
10
-1.99503988946739
20
-11.9518146152939
30
1E-16
41
1
10
-1.99503988946739
20
-12.1699127482422
30
1E-16
41
1
10
-1.99503988946739
20
-12.460518984292
30
1E-16
41
1
10
-1.99503988946739
20
-12.7502882016851
30
1E-16
41
1
10
-1.99503988946739
20
-13.0398471203958
30
1E-16
41
1
10
-1.99503988946739
20
-13.2566165823248
30
1E-16
41
1
10
-1.99503988946739
20
-13.4730568104259
30
1E-16
41
1
10
-1.99503988946739
20
-13.7612965384105
30
1E-16
41
1
10
-1.99503988946739
20
-14.0483930443221
30
1E-16
41
1
10
-1.99503988946739
20
-14.3350264068708
30
1E-16
41
1
10
-1.99503988946739
20
-14.5136310563908
30
1E-16
41
1
10
-1.99503988946739
20
-14.6563920540785
30
1E-16
41
1
10
-1.99503988946739
20
-14.7989807516489
30
1E-16
41
1
10
-1.99503988946739
20
-14.9767232108578
30
1E-16
41
1
10
-1.99503988946739
20
-15.1895383467602
30
1E-16
41
1
10
-1.99503988946739
20
-15.4017500727113
30
1E-16
41
1
10
-1.99503988946739
20
-15.577981509823
30
1E-16
41
1
10
-1.99503988946739
20
-15.7187630375357
30
1E-16
41
1
10
-1.99503988946739
20
-15.8241113825659
30
1E-16
41
1
10
-1.99503988946739
20
-15.9292760241603
30
1E-16
41
1
10
-1.99503988946739
20
-16.0342513102318
30
1E-16
41
1
10
-1.99503988946739
20
-16.1390319659369
30
1E-16
41
1
10
-1.99503988946739
20
-16.2785515475781
30
1E-16
41
1
10
-1.99503988946739
20
-16.4174031718222
30
1E-16
41
1
10
-1.99503988946739
20
-16.5560689436432
30
1E-16
41
1
10
-1.99503988946739
20
-16.6944270729504
30
1E-16
41
1
10
-1.99503988946739
20
-16.8320498936437
30
1E-16
41
1
10
-1.99503988946739
20
-16.969440785028
30
1E-16
41
1
10
-1.99503988946739
20
-17.0721562496772
30
1E-16
41
1
10
-1.99503988946739
20
-17.174603592684
30
1E-16
41
1
10
-1.99503988946739
20
-17.276776626567
30
1E-16
41
1
10
-1.99503988946739
20
-17.3786675315941
30
1E-16
41
1
10
-1.99503988946739
20
-17.4802672003456
30
1E-16
41
1
10
-1.99503988946739
20
-17.581566870245
30
1E-16
41
1
10
-1.99503988946739
20
-17.716317110718
30
1E-16
41
1
10
-1.99503988946739
20
-17.8837432972023
30
1E-16
41
1
10
-1.99503988946739
20
-18.0834404882363
30
1E-16
41
1
10
-1.99503988946739
20
-18.2485859676948
30
1E-16
41
1
10
-1.99503988946739
20
-18.3801469761146
30
1E-16
41
1
10
-1.99503988946739
20
-18.478363807083
30
1E-16
41
1
10
-1.99503988946739
20
-18.5761960465227
30
1E-16
41
1
10
-1.99503988946739
20
-18.706217414345
30
1E-16
41
1
10
-1.99503988946739
20
-18.8351301778698
30
1E-16
41
1
10
-1.99503988946739
20
-18.9635234265302
30
1E-16
41
1
10
-1.99503988946739
20
-19.0433016176103
30
1E-16
41
1
10
-1.99503988946739
20
-19.1070030401151
30
1E-16
41
1
10
-1.99503988946739
20
-19.1705606254883
30
1E-16
41
1
10
-1.99503988946739
20
-19.2813679193355
30
1E-16
41
1
10
-1.99503988946739
20
-19.4383916891171
30
1E-16
41
1
10
-1.99503988946739
20
-19.5939184964282
30
1E-16
41
1
10
-1.99503988946739
20
-19.7021069425215
30
1E-16
41
1
10
-1.99503988946739
20
-19.7637200642971
30
1E-16
41
1
10
-1.99503988946739
20
-19.8251794971493
30
1E-16
41
1
10
-1.99503988946739
20
-19.9016039606339
30
1E-16
41
1
10
-1.99503988946739
20
-20.0234379628233
30
1E-16
41
1
10
-1.99503988946739
20
-20.1440496535033
30
1E-16
41
1
10
-1.99503988946739
20
-20.2640027832444
30
1E-16
41
1
10
-1.99503988946739
20
-20.3833294422534
30
1E-16
41
1
10
-1.99503988946739
20
-20.5311068993201
30
1E-16
41
1
10
-1.99503988946739
20
-20.7066605865987
30
1E-16
41
1
10
-1.99503988946739
20
-20.8803367726856
30
1E-16
41
1
10
-1.99503988946739
20
-21.0521454703236
30
1E-16
41
1
10
-1.99503988946739
20
-21.2221002713427
30
1E-16
41
1
10
-1.99503988946739
20
-21.3621194077227
30
1E-16
41
1
10
-1.99503988946739
20
-21.4733595713188
30
1E-16
41
1
10
-1.99503988946739
20
-21.5562842418248
30
1E-16
41
1
10
-1.99503988946739
20
-21.6387590864985
30
1E-16
41
1
10
-1.99503988946739
20
-21.7207859322662
30
1E-16
41
1
10
-1.99503988946739
20
-21.8023680909695
30
1E-16
41
1
10
-1.99503988946739
20
-21.8835094895543
30
1E-16
41
1
10
-1.99503988946739
20
-21.964212230181
30
1E-16
41
1
10
-1.99503988946739
20
-22.0712987160159
30
1E-16
41
1
10
-1.99503988946739
20
-22.2039321991037
30
1E-16
41
1
10
-1.99503988946739
20
-22.3614554615971
30
1E-16
41
1
10
-1.99503988946739
20
-22.5172903342742
30
1E-16
41
1
10
-1.99503988946739
20
-22.6457098981424
30
1E-16
41
1
10
-1.99503988946739
20
-22.7477235220882
30
1E-16
41
1
10
-1.99503988946739
20
-22.8237865862505
30
1E-16
41
1
10
-1.99503988946739
20
-22.8994454134326
30
1E-16
41
1
10
-1.99503988946739
20
-22.9998402975659
30
1E-16
41
1
10
-1.99503988946739
20
-23.1242220679831
30
1E-16
41
1
10
-1.99503988946739
20
-23.2719629826662
30
1E-16
41
1
10
-1.99503988946739
20
-23.4181511170786
30
1E-16
41
1
10
-1.99503988946739
20
-23.5386494372706
30
1E-16
41
1
10
-1.99503988946739
20
-23.6343728255382
30
1E-16
41
1
10
-1.99503988946739
20
-23.7295959439243
30
1E-16
41
1
10
-1.99503988946739
20
-23.8475949033136
30
1E-16
41
1
10
-1.99503988946739
20
-24.0345770770632
30
1E-16
41
1
10
-1.99503988946739
20
-24.2184055317069
30
1E-16
41
1
10
-1.99503988946739
20
-24.399621055017
30
1E-16
41
1
10
-1.99503988946739
20
-24.5789665788257
30
1E-16
41
1
10
-1.99503988946739
20
-24.79951697146
30
1E-16
41
1
10
-1.99503988946739
20
-25.0155402707939
30
1E-16
41
1
10
-1.99503988946739
20
-25.1858189983808
30
1E-16
41
1
10
-1.99503988946739
20
-25.3543463207306
30
1E-16
41
1
10
-1.99503988946739
20
-25.5200889388294
30
1E-16
41
1
10
-1.99503988946739
20
-25.6834542144751
30
1E-16
41
1
10
-1.99503988946739
20
-25.8451356068032
30
1E-16
41
1
10
-1.99503988946739
20
-26.0439842809535
30
1E-16
41
1
10
-1.99503988946739
20
-26.2777466207684
30
1E-16
41
1
10
-1.99503988946739
20
-26.5066755782762
30
1E-16
41
1
10
-1.99503988946739
20
-26.7308506774503
30
1E-16
41
1
10
-1.99503988946739
20
-26.9503473467004
30
1E-16
41
1
10
-1.99503988946739
20
-27.1652361813932
30
1E-16
41
1
10
-1.99503988946739
20
-27.375584580115
30
1E-16
41
1
10
-1.99503988946739
20
-27.5814552889916
30
1E-16
41
1
10
-1.99503988946739
20
-27.7829090304083
30
1E-16
41
1
10
-1.99503988946739
20
-27.980001828632
30
1E-16
41
1
10
-1.99503988946739
20
-28.1727882638671
30
1E-16
41
1
10
-1.99503988946739
20
-28.3613190924861
30
1E-16
41
1
10
-1.99503988946739
20
-28.5456427933613
30
1E-16
41
1
10
-1.99503988946739
20
-28.7258062621404
30
1E-16
41
1
10
-1.99503988946739
20
-28.9018521018656
30
1E-16
41
1
10
-1.99503988946739
20
-29.0738237686684
30
1E-16
41
1
10
-1.99503988946739
20
-29.2417595615582
30
1E-16
41
1
10
-1.99503988946739
20
-29.4056984189713
30
1E-16
41
1
10
-1.99503988946739
20
-29.5389875426295
30
1E-16
41
1
10
-1.99503988946739
20
-29.6437001320532
30
1E-16
41
1
10
-1.99503988946739
20
-29.7471103430789
30
1E-16
41
1
10
-1.99503988946739
20
-29.8738850613848
30
1E-16
41
1
10
-1.99503988946739
20
-30.0221802389616
30
1E-16
41
1
10
-1.99503988946739
20
-30.1666433669198
30
1E-16
41
1
10
-1.99503988946739
20
-30.3073028894296
30
1E-16
41
1
10
-1.99503988946739
20
-30.4441861848467
30
1E-16
41
1
10
-1.99503988946739
20
-30.5773195256844
30
1E-16
41
1
10
-1.99503988946739
20
-30.7067279444708
30
1E-16
41
1
10
-1.99503988946739
20
-30.8114653499763
30
1E-16
41
1
10
-1.99503988946739
20
-30.8934485811883
30
1E-16
41
1
10
-1.99503988946739
20
-30.9742091608571
30
1E-16
41
1
10
-1.99503988946739
20
-31.112327705228
30
1E-16
41
1
10
-1.99503988946739
20
-31.3004945816857
30
1E-16
41
1
10
-1.99503988946739
20
-31.4766742119294
30
1E-16
41
1
10
-1.99503988946739
20
-31.5938021112189
30
1E-16
41
1
10
-1.99503988946739
20
-31.6589656174269
30
1E-16
41
1
10
-1.99503988946739
20
-31.7229499021958
30
1E-16
41
1
10
-1.99503988946739
20
-31.8006956550562
30
1E-16
41
1
10
-1.99503988946739
20
-31.9204475766868
30
1E-16
41
1
10
-1.99503988946739
20
-32.0331304096483
30
1E-16
41
1
10
-1.99503988946739
20
-32.138932505153
30
1E-16
41
1
10
-1.99503988946739
20
-32.2401190176886
30
1E-16
41
1
10
-1.99503988946739
20
-32.3579345087479
30
1E-16
41
1
10
-1.99503988946739
20
-32.4643243986671
30
1E-16
41
1
10
-1.99503988946739
20
-32.5426461260214
30
1E-16
41
1
10
-1.99503988946739
20
-32.6164328647675
30
1E-16
41
1
10
-1.99503988946739
20
-32.7001538493454
30
1E-16
41
1
10
-1.99503988946739
20
-32.7871221996699
30
1E-16
41
1
10
-1.99503988946739
20
-32.8483678744798
30
1E-16
41
1
10
-1.99503988946739
20
-32.8906693067886
30
1E-16
41
1
10
-1.99503988946739
20
-32.9285022892018
30
1E-16
41
1
10
-1.99503988946739
20
-32.9674115315291
30
1E-16
41
1
10
-1.99503988946739
20
-33.0007486194824
30
-1E-16
41
1
10
-1.99503988946739
20
-33.0174090719871
30
-1E-16
41
1
10
-1.99503988946739
20
-33.024074476037
30
0
41
1
10
-1.99503988946739
20
-33.0252026514344
30
0
41
1
10
-1.99503988946739
20
-33.0251844308625
30
0
0
SPLINE
5
107
100
AcDbEntity
8
SK1
62
256
6
ByLayer
370
18
48
1
60
0
100
AcDbSpline
70
4
71
3
72
13
73
9
40
0
40
0
40
0
40
0
40
0.239457145158939
40
0.368361064499149
40
0.500000444286549
40
0.631639750090658
40
0.760543465501387
40
1
40
1
40
1
40
1
41
1
10
-1.99503988946739
20
38.6251857999546
30
0
41
1
10
-2.02111022848831
20
38.6247841636531
30
0
41
1
10
-2.0588405695483
20
38.6309564399574
30
0
41
1
10
-2.10627705065519
20
38.6540003265323
30
0
41
1
10
-2.1388637091685
20
38.6791677887436
30
0
41
1
10
-2.16563584174881
20
38.7104494545121
30
0
41
1
10
-2.19103275877941
20
38.7566687976679
30
0
41
1
10
-2.19909190415609
20
38.7940415053615
30
0
41
1
10
-2.1999999115281
20
38.8200990644916
30
0
0
SPLINE
5
108
100
AcDbEntity
8
SK1
62
256
6
ByLayer
370
18
48
1
60
0
100
AcDbSpline
70
4
71
3
72
13
73
9
40
0
40
0
40
0
40
0
40
0.239456844392217
40
0.368360660236161
40
0.499999999998347
40
0.631639339760593
40
0.760543155604615
40
1
40
1
40
1
40
1
41
1
10
-2.1999999115281
20
-33.2200984494457
30
0
41
1
10
-2.19909190897951
20
-33.1940408257872
30
0
41
1
10
-2.1910327635847
20
-33.1566680222071
30
0
41
1
10
-2.16563584811232
20
-33.1104485474383
30
0
41
1
10
-2.13886371759909
20
-33.0791667946832
30
0
41
1
10
-2.10627705969151
20
-33.053999260953
30
0
41
1
10
-2.05884058172441
20
-33.0309553090019
30
0
41
1
10
-2.0211102348799
20
-33.0247830161577
30
0
41
1
10
-1.99503988946739
20
-33.0251846496344
30
0
0
SPLINE
5
109
100
AcDbEntity
8
SK1
62
256
6
ByLayer
370
18
48
1
60
0
100
AcDbSpline
70
4
71
3
72
8
73
4
40
0
40
0
40
0
40
0
40
1
40
1
40
1
40
1
41
1
10
-57.9999999115281
20
-31.5187424026752
30
0
41
1
10
-54.9167100302081
20
-31.5897155366982
30
-2E-16
41
1
10
-51.8333752994115
20
-31.6608341637396
30
-4E-16
41
1
10
-48.7499999115281
20
-31.7320983168835
30
3E-16
0
SPLINE
5
10A
100
AcDbEntity
8
SK1
62
256
6
ByLayer
370
18
48
1
60
0
100
AcDbSpline
70
4
71
3
72
321
73
317
40
0
40
0
40
0
40
0
40
0.0010167312767458
40
0.002047825627203
40
0.0041100143281168
40
0.0051411086785737
40
0.0061722030290308
40
0.0072032973794877
40
0.0082343917299446
40
0.0102965804308586
40
0.0123587691317724
40
0.0133898634822293
40
0.0144209578326862
40
0.0154520521831434
40
0.0164831465336003
40
0.0185453352345141
40
0.0206075239354281
40
0.0226697126363419
40
0.0247319013372559
40
0.0267940900381698
40
0.0278251843886269
40
0.0288562787390836
40
0.0298873730895407
40
0.0309184674399976
40
0.0319495617904547
40
0.0329806561409114
40
0.0340117504913685
40
0.0350428448418254
40
0.0371050335427392
40
0.0391672222436533
40
0.0401983165941104
40
0.0412294109445671
40
0.0432915996454811
40
0.044322693995938
40
0.0453537883463949
40
0.0474159770473089
40
0.0494781657482227
40
0.0515403544491368
40
0.0536025431500506
40
0.0556647318509646
40
0.0577269205518784
40
0.0618512979537062
40
0.0659756753555341
40
0.0680378640564481
40
0.0701000527573619
40
0.0742244301591898
40
0.0783488075610176
40
0.0804109962619314
40
0.0824731849628454
40
0.0865975623646733
40
0.0886597510655871
40
0.0907219397665011
40
0.0948463171683289
40
0.0989706945701568
40
0.103095071971985
40
0.107219449373812
40
0.11134382677564
40
0.113406015476554
40
0.115468204177468
40
0.119592581579296
40
0.123716958981124
40
0.127841336382951
40
0.131965713784779
40
0.136090091186607
40
0.140214468588435
40
0.144338845990263
40
0.148463223392091
40
0.152587600793918
40
0.156711978195746
40
0.160836355597574
40
0.164960732999402
40
0.173209487803057
40
0.177333865204885
40
0.179396053905799
40
0.181458242606713
40
0.185582620008541
40
0.189706997410369
40
0.193831374812197
40
0.197955752214024
40
0.20620450701768
40
0.210328884419508
40
0.214453261821336
40
0.218577639223164
40
0.222702016624991
40
0.230950771428647
40
0.235075148830475
40
0.239199526232303
40
0.24332390363413
40
0.247448281035958
40
0.255697035839614
40
0.259821413241442
40
0.26394579064327
40
0.268070168045097
40
0.272194545446925
40
0.280443300250581
40
0.288692055054237
40
0.292816432456064
40
0.296940809857892
40
0.305189564661548
40
0.313438319465204
40
0.321687074268859
40
0.325811451670687
40
0.329935829072515
40
0.334060206474342
40
0.33818458387617
40
0.346433338679826
40
0.354682093483482
40
0.358806470885309
40
0.362930848287137
40
0.367055225688965
40
0.371179603090793
40
0.379428357894449
40
0.387677112698104
40
0.39592586750176
40
0.400050244903588
40
0.404174622305416
40
0.412423377109071
40
0.420672131912727
40
0.424796509314555
40
0.428920886716383
40
0.43304526411821
40
0.437169641520038
40
0.445418396323694
40
0.45366715112735
40
0.457791528529177
40
0.461915905931005
40
0.470164660734661
40
0.474289038136488
40
0.478413415538316
40
0.48047560423923
40
0.482537792940144
40
0.486662170341972
40
0.494910925145628
40
0.499035302547455
40
0.503159679949283
40
0.507284057351111
40
0.511408434752939
40
0.515532812154767
40
0.519657189556594
40
0.523781566958422
40
0.52790594436025
40
0.532030321762078
40
0.536154699163906
40
0.540279076565734
40
0.544403453967562
40
0.548527831369389
40
0.552652208771217
40
0.556776586173045
40
0.560900963574873
40
0.5650253409767
40
0.569149718378528
40
0.573274095780356
40
0.577398473182184
40
0.581522850584012
40
0.58564722798584
40
0.589771605387667
40
0.591833794088582
40
0.593895982789495
40
0.595958171490409
40
0.598020360191323
40
0.602144737593151
40
0.606269114994979
40
0.610393492396807
40
0.614517869798634
40
0.616580058499548
40
0.618642247200462
40
0.62276662460229
40
0.624828813303204
40
0.626891002004118
40
0.628953190705032
40
0.631015379405946
40
0.63307756810686
40
0.635139756807774
40
0.639264134209601
40
0.641326322910515
40
0.643388511611429
40
0.645450700312343
40
0.647512889013257
40
0.651637266415085
40
0.653699455115999
40
0.655761643816913
40
0.656792738167369
40
0.657823832517826
40
0.65988602121874
40
0.661948209919654
40
0.664010398620568
40
0.666072587321482
40
0.667103681671939
40
0.668134776022396
40
0.669165870372853
40
0.67019696472331
40
0.671228059073767
40
0.672259153424224
40
0.674321342125138
40
0.675352436475595
40
0.676383530826052
40
0.678445719526966
40
0.679476813877423
40
0.680507908227879
40
0.681539002578337
40
0.682570096928793
40
0.683601191279251
40
0.684632285629707
40
0.685663379980164
40
0.686694474330621
40
0.688756663031535
40
0.690818851732449
40
0.692881040433363
40
0.69391213478382
40
0.694943229134277
40
0.695974323484734
40
0.697005417835191
40
0.699067606536105
40
0.700098700886562
40
0.701129795237019
40
0.701645342412247
40
0.702160889587476
40
0.703191983937933
40
0.705254172638846
40
0.70731636133976
40
0.708347455690217
40
0.708863002865446
40
0.709378550040674
40
0.710409644391131
40
0.711440738741588
40
0.713502927442502
40
0.714534021792959
40
0.715565116143416
40
0.71762730484433
40
0.719689493545244
40
0.721751682246158
40
0.723813870947072
40
0.725876059647986
40
0.7279382483489
40
0.728969342699357
40
0.730000437049813
40
0.731031531400271
40
0.732062625750727
40
0.733093720101184
40
0.734124814451641
40
0.735155908802098
40
0.736187003152555
40
0.738249191853469
40
0.740311380554383
40
0.742373569255297
40
0.744435757956211
40
0.745466852306668
40
0.746497946657125
40
0.747529041007582
40
0.748560135358039
40
0.750622324058953
40
0.752684512759866
40
0.75474670146078
40
0.756808890161694
40
0.757839984512151
40
0.758871078862608
40
0.760933267563522
40
0.762995456264436
40
0.767119833666264
40
0.769182022367178
40
0.771244211068092
40
0.77536858846992
40
0.779492965871747
40
0.781555154572661
40
0.783617343273575
40
0.787741720675403
40
0.789803909376317
40
0.791866098077231
40
0.795990475479059
40
0.800114852880886
40
0.804239230282714
40
0.808363607684542
40
0.81248798508637
40
0.816612362488198
40
0.820736739890025
40
0.824861117291853
40
0.828985494693681
40
0.833109872095509
40
0.837234249497337
40
0.841358626899165
40
0.845483004300992
40
0.84960738170282
40
0.853731759104648
40
0.857856136506476
40
0.861980513908304
40
0.866104891310132
40
0.870229268711959
40
0.872291457412873
40
0.874353646113787
40
0.878478023515615
40
0.882602400917443
40
0.886726778319271
40
0.890851155721099
40
0.894975533122926
40
0.899099910524754
40
0.903224287926582
40
0.90734866532841
40
0.909410854029324
40
0.911473042730238
40
0.915597420132065
40
0.923846174935721
40
0.932094929739377
40
0.936219307141204
40
0.938281495842119
40
0.940343684543032
40
0.94446806194486
40
0.948592439346688
40
0.956841194150344
40
0.960965571552172
40
0.965089948953999
40
0.973338703757655
40
0.98158745856131
40
0.985711835963138
40
0.989836213364966
40
0.998084968168622
40
1
40
1
40
1
40
1
41
1
10
-57.9999999115283
20
37.4182157683035
30
0
41
1
10
-57.9999999115281
20
37.4182057673034
30
0
41
1
10
-57.9999999115281
20
37.4179384516147
30
0
41
1
10
-57.9999999115281
20
37.4163213100706
30
0
41
1
10
-57.9999999115281
20
37.4131450763428
30
0
41
1
10
-57.9999999115281
20
37.4082876344281
30
0
41
1
10
-57.9999999115281
20
37.4038707801581
30
0
41
1
10
-57.9999999115281
20
37.3986583623294
30
0
41
1
10
-57.9999999115281
20
37.3905967348785
30
0
41
1
10
-57.9999999115281
20
37.3786808027574
30
0
41
1
10
-57.9999999115281
20
37.3641858187271
30
0
41
1
10
-57.9999999115281
20
37.3509078991511
30
0
41
1
10
-57.9999999115281
20
37.3402519639825
30
0
41
1
10
-57.9999999115281
20
37.3288417777109
30
0
41
1
10
-57.9999999115281
20
37.3125273105318
30
0
41
1
10
-57.9999999115281
20
37.2905170148439
30
0
41
1
10
-57.9999999115281
20
37.2610759700454
30
0
41
1
10
-57.9999999115281
20
37.2287951607523
30
0
41
1
10
-57.9999999115281
20
37.1937397028498
30
0
41
1
10
-57.9999999115281
20
37.1624124171722
30
0
41
1
10
-57.9999999115281
20
37.1357741520531
30
0
41
1
10
-57.9999999115281
20
37.1152493887424
30
0
41
1
10
-57.9999999115281
20
37.0940800648532
30
0
41
1
10
-57.9999999115281
20
37.0722727328348
30
0
41
1
10
-57.9999999115281
20
37.0498372314479
30
0
41
1
10
-57.9999999115281
20
37.0267831192327
30
0
41
1
10
-57.9999999115281
20
37.0031172227674
30
0
41
1
10
-57.9999999115281
20
36.9705945776085
30
0
41
1
10
-57.9999999115281
20
36.928805749319
30
0
41
1
10
-57.9999999115281
20
36.8850965052232
30
0
41
1
10
-57.9999999115281
20
36.8486988097434
30
0
41
1
10
-57.9999999115281
20
36.8115487479304
30
0
41
1
10
-57.9999999115281
20
36.7737994624907
30
0
41
1
10
-57.9999999115281
20
36.7344739347344
30
0
41
1
10
-57.9999999115281
20
36.6944317116184
30
0
41
1
10
-57.9999999115281
20
36.6434493281375
30
0
41
1
10
-57.9999999115281
20
36.5800257427737
30
0
41
1
10
-57.9999999115281
20
36.5146045256625
30
0
41
1
10
-57.9999999115281
20
36.4472352891095
30
0
41
1
10
-57.9999999115281
20
36.3779606779667
30
0
41
1
10
-57.9999999115281
20
36.2827539047985
30
0
41
1
10
-57.9999999115281
20
36.1599856406886
30
0
41
1
10
-57.9999999115281
20
36.0314689463284
30
0
41
1
10
-57.9999999115281
20
35.9246799798508
30
0
41
1
10
-57.9999999115281
20
35.8156978739439
30
0
41
1
10
-57.9999999115281
20
35.6762710181142
30
0
41
1
10
-57.9999999115281
20
35.5317657018855
30
0
41
1
10
-57.9999999115281
20
35.4125604326627
30
0
41
1
10
-57.9999999115281
20
35.2914053944358
30
0
41
1
10
-57.9999999115281
20
35.1684812595471
30
0
41
1
10
-57.9999999115281
20
35.0417496737727
30
0
41
1
10
-57.9999999115281
20
34.9132048407583
30
0
41
1
10
-57.9999999115281
20
34.7500021262766
30
0
41
1
10
-57.9999999115281
20
34.5486143580865
30
0
41
1
10
-57.9999999115281
20
34.3422567256702
30
0
41
1
10
-57.9999999115281
20
34.1310822770083
30
0
41
1
10
-57.9999999115281
20
33.9515716931106
30
0
41
1
10
-57.9999999115281
20
33.8050515381289
30
0
41
1
10
-57.9999999115281
20
33.6570278507674
30
0
41
1
10
-57.9999999115281
20
33.4700295292441
30
0
41
1
10
-57.9999999115281
20
33.240925929748
30
0
41
1
10
-57.9999999115281
20
33.0076399389558
30
0
41
1
10
-57.9999999115281
20
32.7702783505421
30
0
41
1
10
-57.9999999115281
20
32.5289422539998
30
0
41
1
10
-57.9999999115281
20
32.2837290608528
30
0
41
1
10
-57.9999999115281
20
32.0347287322211
30
0
41
1
10
-57.9999999115281
20
31.7820305717422
30
0
41
1
10
-57.9999999115281
20
31.5257160497406
30
0
41
1
10
-57.9999999115281
20
31.2658653851576
30
0
41
1
10
-57.9999999115281
20
31.0025555068835
30
0
41
1
10
-57.9999999115281
20
30.6462495914258
30
0
41
1
10
-57.9999999115281
20
30.2854075048524
30
0
41
1
10
-57.9999999115281
20
29.9625505707003
30
0
41
1
10
-57.9999999115281
20
29.7763427277109
30
0
41
1
10
-57.9999999115281
20
29.589097397286
30
0
41
1
10
-57.9999999115281
20
29.353902929084
30
0
41
1
10
-57.9999999115281
20
29.0682521972461
30
0
41
1
10
-57.9999999115281
20
28.7796485484159
30
0
41
1
10
-57.9999999115281
20
28.3902752445465
30
0
41
1
10
-57.9999999115281
20
27.9972965465853
30
0
41
1
10
-57.9999999115281
20
27.596745408102
30
0
41
1
10
-57.9999999115281
20
27.2941423820132
30
0
41
1
10
-57.9999999115281
20
26.9888807842996
30
0
41
1
10
-57.9999999115281
20
26.5776763228797
30
0
41
1
10
-57.9999999115281
20
26.1634239064781
30
0
41
1
10
-57.9999999115281
20
25.7421068221144
30
0
41
1
10
-57.9999999115281
20
25.4241853400824
30
0
41
1
10
-57.9999999115281
20
25.1038501410103
30
0
41
1
10
-57.9999999115281
20
24.672861470097
30
0
41
1
10
-57.9999999115281
20
24.2393021054713
30
0
41
1
10
-57.9999999115281
20
23.7990981343357
30
0
41
1
10
-57.9999999115281
20
23.4672315551972
30
0
41
1
10
-57.9999999115281
20
23.1331600021072
30
0
41
1
10
-57.9999999115281
20
22.6841220645306
30
0
41
1
10
-57.9999999115281
20
22.119064585881
30
0
41
1
10
-57.9999999115281
20
21.54709091758
30
0
41
1
10
-57.9999999115281
20
21.0841769268443
30
0
41
1
10
-57.9999999115281
20
20.6185962302366
30
0
41
1
10
-57.9999999115281
20
20.0333243194118
30
0
41
1
10
-57.9999999115281
20
19.3224923541517
30
0
41
1
10
-57.9999999115281
20
18.7246700441659
30
0
41
1
10
-57.9999999115281
20
18.2414747417705
30
0
41
1
10
-57.9999999115281
20
17.8778450987865
30
0
41
1
10
-57.9999999115281
20
17.5124570527994
30
0
41
1
10
-57.9999999115281
20
17.0222172504484
30
0
41
1
10
-57.9999999115281
20
16.4068195938427
30
0
41
1
10
-57.9999999115281
20
15.7858879487172
30
0
41
1
10
-57.9999999115281
20
15.284547786229
30
0
41
1
10
-57.9999999115281
20
14.9075188404332
30
0
41
1
10
-57.9999999115281
20
14.5289193739508
30
0
41
1
10
-57.9999999115281
20
14.0212880088007
30
0
41
1
10
-57.9999999115281
20
13.3846750773947
30
0
41
1
10
-57.9999999115281
20
12.6138835961799
30
0
41
1
10
-57.9999999115281
20
11.9675563566714
30
0
41
1
10
-57.9999999115281
20
11.4462769259385
30
0
41
1
10
-57.9999999115281
20
10.9231710077764
30
0
41
1
10
-57.9999999115281
20
10.2677366275719
30
0
41
1
10
-57.9999999115281
20
9.60794900805061
30
0
41
1
10
-57.9999999115281
20
9.07611196599461
30
0
41
1
10
-57.9999999115281
20
8.6766214760585
30
0
41
1
10
-57.9999999115281
20
8.2759149109489
30
0
41
1
10
-57.9999999115281
20
7.739206370533
30
0
41
1
10
-57.9999999115281
20
7.067316131805
30
0
41
1
10
-57.9999999115281
20
6.39166439376962
30
0
41
1
10
-57.9999999115281
20
5.8474116071433
30
3.6E-15
41
1
10
-57.9999999115281
20
5.3017605091627
30
3.6E-15
41
1
10
-57.9999999115281
20
4.75673004826072
30
3.6E-15
41
1
10
-57.9999999115281
20
4.2070164596835
30
3.6E-15
41
1
10
-57.9999999115281
20
3.86367994757302
30
3.6E-15
41
1
10
-57.9999999115281
20
3.58771579263302
30
3.6E-15
41
1
10
-57.9999999115281
20
3.3114488286389
30
3.6E-15
41
1
10
-57.9999999115281
20
2.82754823188031
30
3.6E-15
41
1
10
-57.9999999115281
20
2.27519073495091
30
3.6E-15
41
1
10
-57.9999999115281
20
1.71830493713711
30
3.6E-15
41
1
10
-57.9999999115281
20
1.30058310784602
30
3.6E-15
41
1
10
-57.9999999115281
20
0.8820986471504
30
3.6E-15
41
1
10
-57.9999999115281
20
0.462881728586524
30
3.6E-15
41
1
10
-57.9999999115281
20
0.0429639610271124
30
3.6E-15
41
1
10
-57.9999999115281
20
-0.377622421950889
30
3.6E-15
41
1
10
-57.9999999115281
20
-0.798844281705698
30
3.6E-15
41
1
10
-57.9999999115281
20
-1.22066711483529
30
3.6E-15
41
1
10
-57.9999999115281
20
-1.6430552204383
30
3.6E-15
41
1
10
-57.9999999115281
20
-2.0659716327246
30
3.6E-15
41
1
10
-57.9999999115281
20
-2.4893768884258
30
3.6E-15
41
1
10
-57.9999999115281
20
-2.9132324557765
30
3.6E-15
41
1
10
-57.9999999115281
20
-3.33749729140808
30
3.6E-15
41
1
10
-57.9999999115281
20
-3.76212390905709
30
3.6E-15
41
1
10
-57.9999999115281
20
-4.18706994591798
30
3.6E-15
41
1
10
-57.9999999115281
20
-4.61228631532089
30
3.6E-15
41
1
10
-57.9999999115281
20
-5.0377216999471
30
3.6E-15
41
1
10
-57.9999999115281
20
-5.4633248373749
30
3.6E-15
41
1
10
-57.9999999115281
20
-5.88903711644889
30
3.6E-15
41
1
10
-57.9999999115281
20
-6.3148012057749
30
3.6E-15
41
1
10
-57.9999999115281
20
-6.74055248604708
30
3.6E-15
41
1
10
-57.9999999115281
20
-7.1662246332896
30
3.6E-15
41
1
10
-57.9999999115281
20
-7.52017631217458
30
3.6E-15
41
1
10
-57.9999999115281
20
-7.80443738067578
30
3.6E-15
41
1
10
-57.9999999115281
20
-8.01704750042319
30
3.6E-15
41
1
10
-57.9999999115281
20
-8.2295790278184
30
3.6E-15
41
1
10
-57.9999999115281
20
-8.51352937402459
30
3.6E-15
41
1
10
-57.9999999115281
20
-8.8666121480079
30
3.6E-15
41
1
10
-57.9999999115281
20
-9.2907086573222
30
3.6E-15
41
1
10
-57.9999999115281
20
-9.71420797516569
30
3.6E-15
41
1
10
-57.9999999115281
20
-10.0657947531215
30
3.6E-15
41
1
10
-57.9999999115281
20
-10.3480530608052
30
3.6E-15
41
1
10
-57.9999999115281
20
-10.6299932544907
30
3.6E-15
41
1
10
-57.9999999115281
20
-10.9090335856662
30
3.6E-15
41
1
10
-57.9999999115281
20
-11.190011490252
30
3.6E-15
41
1
10
-57.9999999115281
20
-11.3998108092741
30
3.6E-15
41
1
10
-57.9999999115281
20
-11.6092955235778
30
3.6E-15
41
1
10
-57.9999999115281
20
-11.8184412332887
30
3.6E-15
41
1
10
-57.9999999115281
20
-12.0272293121511
30
3.6E-15
41
1
10
-57.9999999115281
20
-12.3059838302319
30
3.6E-15
41
1
10
-57.9999999115281
20
-12.5811840366568
30
3.6E-15
41
1
10
-57.9999999115281
20
-12.8583047340155
30
3.6E-15
41
1
10
-57.9999999115281
20
-13.0649190416965
30
3.6E-15
41
1
10
-57.9999999115281
20
-13.2710141358536
30
3.6E-15
41
1
10
-57.9999999115281
20
-13.5460485008463
30
3.6E-15
41
1
10
-57.9999999115281
20
-13.8168559952041
30
3.6E-15
41
1
10
-57.9999999115281
20
-14.0895331806424
30
3.6E-15
41
1
10
-57.9999999115281
20
-14.2581537449486
30
3.6E-15
41
1
10
-57.9999999115281
20
-14.3936683227123
30
3.6E-15
41
1
10
-57.9999999115281
20
-14.5289171862047
30
3.6E-15
41
1
10
-57.9999999115281
20
-14.6962032830402
30
3.6E-15
41
1
10
-57.9999999115281
20
-14.8968273113955
30
3.6E-15
41
1
10
-57.9999999115281
20
-15.0965712814059
30
3.6E-15
41
1
10
-57.9999999115281
20
-15.2616608657103
30
3.6E-15
41
1
10
-57.9999999115281
20
-15.3943467380745
30
3.6E-15
41
1
10
-57.9999999115281
20
-15.4931317737474
30
3.6E-15
41
1
10
-57.9999999115281
20
-15.5916539739947
30
3.6E-15
41
1
10
-57.9999999115281
20
-15.6899095849913
30
3.6E-15
41
1
10
-57.9999999115281
20
-15.7878973370791
30
3.6E-15
41
1
10
-57.9999999115281
20
-15.9188109929766
30
3.6E-15
41
1
10
-57.9999999115281
20
-16.0471601560101
30
3.6E-15
41
1
10
-57.9999999115281
20
-16.1769390800041
30
3.6E-15
41
1
10
-57.9999999115281
20
-16.3062801051037
30
3.6E-15
41
1
10
-57.9999999115281
20
-16.4329038301799
30
3.6E-15
41
1
10
-57.9999999115281
20
-16.5609932751065
30
3.6E-15
41
1
10
-57.9999999115281
20
-16.656171074334
30
3.6E-15
41
1
10
-57.9999999115281
20
-16.7509894216431
30
3.6E-15
41
1
10
-57.9999999115281
20
-16.8454558894376
30
3.6E-15
41
1
10
-57.9999999115281
20
-16.9395637252147
30
3.6E-15
41
1
10
-57.9999999115281
20
-17.0332999732998
30
3.6E-15
41
1
10
-57.9999999115281
20
-17.1266554452817
30
3.6E-15
41
1
10
-57.9999999115281
20
-17.2513683894861
30
3.6E-15
41
1
10
-57.9999999115281
20
-17.4045472177406
30
3.6E-15
41
1
10
-57.9999999115281
20
-17.5877234591029
30
3.6E-15
41
1
10
-57.9999999115281
20
-17.7382337319095
30
3.6E-15
41
1
10
-57.9999999115281
20
-17.8592441769893
30
3.6E-15
41
1
10
-57.9999999115281
20
-17.9489740589179
30
3.6E-15
41
1
10
-57.9999999115281
20
-18.0382860820934
30
3.6E-15
41
1
10
-57.9999999115281
20
-18.1576159488902
30
3.6E-15
41
1
10
-57.9999999115281
20
-18.2736739309668
30
3.6E-15
41
1
10
-57.9999999115281
20
-18.3913498669663
30
3.6E-15
41
1
10
-57.9999999115281
20
-18.4636317095721
30
3.6E-15
41
1
10
-57.9999999115281
20
-18.5219846273941
30
3.6E-15
41
1
10
-57.9999999115281
20
-18.5801986291103
30
3.6E-15
41
1
10
-57.9999999115281
20
-18.6814080693234
30
3.6E-15
41
1
10
-57.9999999115281
20
-18.8236037419597
30
3.6E-15
41
1
10
-57.9999999115281
20
-18.9644769379877
30
3.6E-15
41
1
10
-57.9999999115281
20
-19.0633514656415
30
3.6E-15
41
1
10
-57.9999999115281
20
-19.119827376513
30
3.6E-15
41
1
10
-57.9999999115281
20
-19.1761770828745
30
3.6E-15
41
1
10
-57.9999999115281
20
-19.2455040176651
30
3.6E-15
41
1
10
-57.9999999115281
20
-19.3573115629138
30
3.6E-15
41
1
10
-57.9999999115281
20
-19.4661036401007
30
0
41
1
10
-57.9999999115281
20
-19.5763919245512
30
0
41
1
10
-57.9999999115281
20
-19.6862080817136
30
0
41
1
10
-57.9999999115281
20
-19.8209777192361
30
0
41
1
10
-57.9999999115281
20
-19.9821151248108
30
0
41
1
10
-57.9999999115281
20
-20.1418591459288
30
0
41
1
10
-57.9999999115281
20
-20.300223716068
30
0
41
1
10
-57.9999999115281
20
-20.4572203065773
30
0
41
1
10
-57.9999999115281
20
-20.5862977496127
30
0
41
1
10
-57.9999999115281
20
-20.6899476707093
30
0
41
1
10
-57.9999999115281
20
-20.7669262556567
30
0
41
1
10
-57.9999999115281
20
-20.8435657432788
30
0
41
1
10
-57.9999999115281
20
-20.9198634875876
30
0
41
1
10
-57.9999999115281
20
-20.9958273645003
30
0
41
1
10
-57.9999999115281
20
-21.0714629883397
30
0
41
1
10
-57.9999999115281
20
-21.1467633573938
30
0
41
1
10
-57.9999999115281
20
-21.2472276860654
30
0
41
1
10
-57.9999999115281
20
-21.3708625435052
30
0
41
1
10
-57.9999999115281
20
-21.518462327056
30
0
41
1
10
-57.9999999115281
20
-21.6647365128231
30
0
41
1
10
-57.9999999115281
20
-21.7850804012516
30
0
41
1
10
-57.9999999115281
20
-21.8814804256939
30
0
41
1
10
-57.9999999115281
20
-21.9531401418267
30
0
41
1
10
-57.9999999115281
20
-22.0244752734134
30
0
41
1
10
-57.9999999115281
20
-22.1195657351107
30
0
41
1
10
-57.9999999115281
20
-22.2367144824618
30
0
41
1
10
-57.9999999115281
20
-22.3764584515165
30
0
41
1
10
-57.9999999115281
20
-22.5149156555619
30
0
41
1
10
-57.9999999115281
20
-22.6288587562533
30
0
41
1
10
-57.9999999115281
20
-22.7200180349667
30
0
41
1
10
-57.9999999115281
20
-22.810759609173
30
0
41
1
10
-57.9999999115281
20
-22.9226336558447
30
0
41
1
10
-57.9999999115281
20
-23.1011443815926
30
0
41
1
10
-57.9999999115281
20
-23.2752433336723
30
0
41
1
10
-57.9999999115281
20
-23.448693646749
30
0
41
1
10
-57.9999999115281
20
-23.6205266438998
30
0
41
1
10
-57.9999999115281
20
-23.831007408447
30
0
41
1
10
-57.9999999115281
20
-24.0374588600891
30
0
41
1
10
-57.9999999115281
20
-24.2011775549212
30
0
41
1
10
-57.9999999115281
20
-24.3633376536004
30
0
41
1
10
-57.9999999115281
20
-24.521718421459
30
0
41
1
10
-57.9999999115281
20
-24.6791703294715
30
0
41
1
10
-57.9999999115281
20
-24.8351008316919
30
0
41
1
10
-57.9999999115281
20
-25.0261924173055
30
0
41
1
10
-57.9999999115281
20
-25.2514878656529
30
0
41
1
10
-57.9999999115281
20
-25.4723359649145
30
0
41
1
10
-57.9999999115281
20
-25.6887904813829
30
0
41
1
10
-57.9999999115281
20
-25.9009031998924
30
0
41
1
10
-57.9999999115281
20
-26.1087235763025
30
0
41
1
10
-57.9999999115281
20
-26.3122995304157
30
0
41
1
10
-57.9999999115281
20
-26.5116766283404
30
0
41
1
10
-57.9999999115281
20
-26.7068996077385
30
0
41
1
10
-57.9999999115281
20
-26.8980099731009
30
0
41
1
10
-57.9999999115281
20
-27.08504940546
30
0
41
1
10
-57.9999999115281
20
-27.268056005371
30
0
41
1
10
-57.9999999115281
20
-27.447067890602
30
0
41
1
10
-57.9999999115281
20
-27.6221209791399
30
0
41
1
10
-57.9999999115281
20
-27.7932490203445
30
0
41
1
10
-57.9999999115281
20
-27.9604867145299
30
0
41
1
10
-57.9999999115281
20
-28.1238639170435
30
0
41
1
10
-57.9999999115281
20
-28.2834131009605
30
0
41
1
10
-57.9999999115281
20
-28.4129982990942
30
0
41
1
10
-57.9999999115281
20
-28.5151394330281
30
0
41
1
10
-57.9999999115281
20
-28.6160292803314
30
0
41
1
10
-57.9999999115281
20
-28.7393725364636
30
0
41
1
10
-57.9999999115281
20
-28.8838866144415
30
0
41
1
10
-57.9999999115281
20
-29.0247071121383
30
0
41
1
10
-57.9999999115281
20
-29.1618574764601
30
0
41
1
10
-57.9999999115281
20
-29.2953607263486
30
0
41
1
10
-57.9999999115281
20
-29.4252389917567
30
0
41
1
10
-57.9999999115281
20
-29.5515131183201
30
0
41
1
10
-57.9999999115281
20
-29.653608947419
30
0
41
1
10
-57.9999999115281
20
-29.73375935841
30
0
41
1
10
-57.9999999115281
20
-29.8127236815166
30
0
41
1
10
-57.9999999115281
20
-29.947704965441
30
0
41
1
10
-57.9999999115281
20
-30.1312703847816
30
0
41
1
10
-57.9999999115281
20
-30.3031962840989
30
0
41
1
10
-57.9999999115281
20
-30.4177544749853
30
0
41
1
10
-57.9999999115281
20
-30.4815360692503
30
0
41
1
10
-57.9999999115281
20
-30.5441686411794
30
0
41
1
10
-57.9999999115281
20
-30.6200829409419
30
0
41
1
10
-57.9999999115281
20
-30.7373324958724
30
0
41
1
10
-57.9999999115281
20
-30.8472100526855
30
0
41
1
10
-57.9999999115281
20
-30.9508347260152
30
0
41
1
10
-57.9999999115281
20
-31.0499510889301
30
0
41
1
10
-57.9999999115281
20
-31.165084979976
30
0
41
1
10
-57.9999999115281
20
-31.2690707380438
30
0
41
1
10
-57.9999999115281
20
-31.3458221514499
30
0
41
1
10
-57.9999999115281
20
-31.4181357231373
30
0
41
1
10
-57.9999999115281
20
-31.4748517782802
30
0
41
1
10
-57.9999999115281
20
-31.5118830418561
30
0
41
1
10
-57.9999999115281
20
-31.5187423993876
30
0
0
SPLINE
5
10B
100
AcDbEntity
8
SK1
62
256
6
ByLayer
370
18
48
1
60
0
100
AcDbSpline
70
4
71
3
72
8
73
4
40
0
40
0
40
0
40
0
40
1
40
1
40
1
40
1
41
1
10
-48.7499999115281
20
-31.7320983105096
30
3E-16
41
1
10
-51.8333752994058
20
-31.6608341571508
30
-4E-16
41
1
10
-54.9167100302024
20
-31.5897155300456
30
-2E-16
41
1
10
-57.9999999115281
20
-31.5187423960999
30
0
0
SPLINE
5
10C
100
AcDbEntity
8
SK1
62
256
6
ByLayer
370
18
48
1
60
0
100
AcDbSpline
70
4
71
3
72
32
73
28
40
0
40
0
40
0
40
0
40
0.0611142351341607
40
0.0611142351341607
40
0.123706619458551
40
0.123706619458551
40
0.186299003782941
40
0.186299003782941
40
0.217595195945136
40
0.217595195945136
40
0.24889138810733
40
0.24889138810733
40
0.311483772431719
40
0.311483772431719
40
0.374076156756109
40
0.374076156756109
40
0.499260925404886
40
0.499260925404886
40
0.561853309729275
40
0.561853309729275
40
0.624445694053664
40
0.624445694053664
40
0.749630462702443
40
0.749630462702443
40
0.874815231351222
40
0.874815231351222
40
1
40
1
40
1
40
1
41
1
10
-45.6207825033623
20
-32.1292172399484
30
0
41
1
10
-45.6208214733977
20
-32.129213267834
30
0
41
1
10
-45.6276762332051
20
-32.128521804989
30
0
41
1
10
-45.6547773710646
20
-32.1257626524902
30
0
41
1
10
-45.6753364632712
20
-32.1236663636279
30
0
41
1
10
-45.7292439864669
20
-32.1181287099575
30
0
41
1
10
-45.7625901459016
20
-32.1146863603326
30
-1E-16
41
1
10
-45.8213859304537
20
-32.1085502462796
30
-1E-16
41
1
10
-45.8424870902511
20
-32.106338442671
30
-1E-16
41
1
10
-45.8870691594447
20
-32.1016393241799
30
-1E-16
41
1
10
-45.9105812732959
20
-32.09914878149
30
-1E-16
41
1
10
-45.9844573287807
20
-32.0912768049675
30
-1E-16
41
1
10
-46.0381517882221
20
-32.0854959584504
30
-1E-16
41
1
10
-46.1529366904234
20
-32.0729667627801
30
2E-16
41
1
10
-46.214028741081
20
-32.0662181837318
30
2E-16
41
1
10
-46.4065745059706
20
-32.0446315162174
30
2E-16
41
1
10
-46.5472117056496
20
-32.0284572728096
30
2E-16
41
1
10
-46.771169759912
20
-32.0018217384659
30
2E-16
41
1
10
-46.8480128749827
20
-31.9925462347031
30
2E-16
41
1
10
-47.0054149269023
20
-31.9732378272865
30
2E-16
41
1
10
-47.0857733738283
20
-31.9632294808891
30
2E-16
41
1
10
-47.3309534196283
20
-31.932195279111
30
2E-16
41
1
10
-47.4998780741687
20
-31.9101600219588
30
2E-16
41
1
10
-47.845643570281
20
-31.863545491989
30
3E-16
41
1
10
-48.0225013761394
20
-31.8389637681574
30
3E-16
41
1
10
-48.3821417990908
20
-31.7873523976475
30
3E-16
41
1
10
-48.5649335928673
20
-31.7603229765572
30
3E-16
41
1
10
-48.7499999115281
20
-31.7320983136965
30
3E-16
0
SPLINE
5
10D
100
AcDbEntity
8
SK1
62
256
6
ByLayer
370
18
48
1
60
0
100
AcDbSpline
70
4
71
3
72
329
73
325
40
0
40
0
40
0
40
0
40
0.0009564314804319
40
0.0019330136588479
40
0.0038861780156799
40
0.0048627601940959
40
0.0058393423725119
40
0.0068159245509279
40
0.0077925067293439
40
0.0097456710861759
40
0.0116988354430079
40
0.0126754176214239
40
0.0136519997998399
40
0.0146285819782559
40
0.0156051641566719
40
0.0175583285135039
40
0.0195114928703359
40
0.0214646572271679
40
0.0234178215839999
40
0.0253709859408319
40
0.0263475681192479
40
0.0273241502976639
40
0.0283007324760799
40
0.0292773146544959
40
0.0302538968329119
40
0.0312304790113279
40
0.0322070611897439
40
0.0331836433681599
40
0.0351368077249919
40
0.0370899720818239
40
0.0380665542602399
40
0.0390431364386559
40
0.0409963007954879
40
0.0419728829739039
40
0.0429494651523199
40
0.0449026295091519
40
0.0468557938659839
40
0.0488089582228159
40
0.0507621225796479
40
0.0527152869364799
40
0.0546684512933119
40
0.0585747800069759
40
0.0624811087206399
40
0.0644342730774719
40
0.0663874374343039
40
0.0702937661479679
40
0.0742000948616319
40
0.0761532592184639
40
0.0781064235752959
40
0.0820127522889599
40
0.0839659166457919
40
0.0859190810026239
40
0.0898254097162879
40
0.0937317384299519
40
0.0976380671436159
40
0.10154439585728
40
0.105450724570944
40
0.107403888927776
40
0.109357053284608
40
0.113263381998272
40
0.117169710711936
40
0.1210760394256
40
0.124982368139264
40
0.128888696852928
40
0.132795025566592
40
0.136701354280256
40
0.14060768299392
40
0.144514011707584
40
0.148420340421248
40
0.152326669134912
40
0.156232997848576
40
0.164045655275904
40
0.167951983989568
40
0.1699051483464
40
0.171858312703232
40
0.175764641416896
40
0.17967097013056
40
0.183577298844224
40
0.187483627557888
40
0.195296284985216
40
0.19920261369888
40
0.203108942412544
40
0.207015271126208
40
0.210921599839872
40
0.2187342572672
40
0.222640585980864
40
0.226546914694528
40
0.230453243408192
40
0.234359572121856
40
0.242172229549184
40
0.246078558262848
40
0.249984886976512
40
0.253891215690176
40
0.25779754440384
40
0.265610201831168
40
0.273422859258496
40
0.27732918797216
40
0.281235516685824
40
0.289048174113152
40
0.29686083154048
40
0.304673488967808
40
0.308579817681472
40
0.312486146395136
40
0.3163924751088
40
0.320298803822464
40
0.328111461249792
40
0.33592411867712
40
0.339830447390784
40
0.343736776104448
40
0.347643104818112
40
0.351549433531776
40
0.359362090959104
40
0.367174748386432
40
0.37498740581376
40
0.378893734527424
40
0.382800063241088
40
0.390612720668416
40
0.398425378095744
40
0.402331706809408
40
0.406238035523072
40
0.410144364236736
40
0.4140506929504
40
0.421863350377728
40
0.429676007805056
40
0.43358233651872
40
0.437488665232384
40
0.445301322659712
40
0.449207651373376
40
0.45311398008704
40
0.455067144443872
40
0.457020308800704
40
0.460926637514368
40
0.468739294941696
40
0.47264562365536
40
0.476551952369024
40
0.480458281082688
40
0.484364609796352
40
0.488270938510016
40
0.49217726722368
40
0.496083595937344
40
0.499989924651008
40
0.503896253364672
40
0.507802582078336
40
0.511708910792
40
0.515615239505664
40
0.519521568219328
40
0.523427896932992
40
0.527334225646656
40
0.53124055436032
40
0.535146883073984
40
0.539053211787648
40
0.542959540501312
40
0.546865869214976
40
0.55077219792864
40
0.554678526642304
40
0.558584855355968
40
0.5605380197128
40
0.562491184069632
40
0.564444348426464
40
0.566397512783296
40
0.57030384149696
40
0.574210170210624
40
0.578116498924288
40
0.582022827637952
40
0.583975991994784
40
0.585929156351616
40
0.58983548506528
40
0.591788649422112
40
0.593741813778944
40
0.595694978135776
40
0.597648142492608
40
0.59960130684944
40
0.601554471206272
40
0.605460799919936
40
0.607413964276768
40
0.6093671286336
40
0.611320292990432
40
0.613273457347264
40
0.617179786060928
40
0.61913295041776
40
0.621086114774592
40
0.622062696953008
40
0.623039279131424
40
0.624992443488256
40
0.626945607845088
40
0.62889877220192
40
0.630851936558752
40
0.631828518737168
40
0.632805100915584
40
0.633781683094
40
0.634758265272416
40
0.635734847450832
40
0.636711429629248
40
0.63866459398608
40
0.639641176164496
40
0.640617758342912
40
0.642570922699744
40
0.64354750487816
40
0.644524087056576
40
0.645500669234992
40
0.646477251413408
40
0.647453833591824
40
0.64843041577024
40
0.649406997948656
40
0.650383580127072
40
0.652336744483904
40
0.654289908840736
40
0.656243073197568
40
0.657219655375984
40
0.6581962375544
40
0.659172819732816
40
0.660149401911232
40
0.662102566268064
40
0.66307914844648
40
0.664055730624896
40
0.664544021714104
40
0.665032312803312
40
0.666008894981728
40
0.66796205933856
40
0.669915223695392
40
0.670891805873808
40
0.671380096963016
40
0.671868388052224
40
0.67284497023064
40
0.673821552409056
40
0.675774716765888
40
0.676751298944304
40
0.67772788112272
40
0.679681045479552
40
0.681634209836384
40
0.683587374193216
40
0.685540538550048
40
0.68749370290688
40
0.689446867263712
40
0.690423449442128
40
0.691400031620544
40
0.69237661379896
40
0.693353195977376
40
0.694329778155792
40
0.695306360334208
40
0.696282942512624
40
0.69725952469104
40
0.699212689047872
40
0.701165853404704
40
0.703119017761536
40
0.705072182118368
40
0.706048764296784
40
0.7070253464752
40
0.708001928653616
40
0.708978510832032
40
0.710931675188864
40
0.712884839545696
40
0.714838003902528
40
0.71679116825936
40
0.717767750437776
40
0.718744332616192
40
0.720697496973024
40
0.722650661329856
40
0.72655699004352
40
0.728510154400352
40
0.730463318757184
40
0.734369647470848
40
0.738275976184512
40
0.740229140541344
40
0.742182304898176
40
0.74608863361184
40
0.748041797968672
40
0.749994962325504
40
0.753901291039168
40
0.757807619752832
40
0.761713948466496
40
0.76562027718016
40
0.769526605893824
40
0.773432934607488
40
0.777339263321152
40
0.781245592034816
40
0.78515192074848
40
0.789058249462144
40
0.792964578175808
40
0.796870906889472
40
0.800777235603136
40
0.8046835643168
40
0.808589893030464
40
0.812496221744128
40
0.816402550457792
40
0.820308879171456
40
0.82421520788512
40
0.826168372241952
40
0.828121536598784
40
0.832027865312448
40
0.835934194026112
40
0.839840522739776
40
0.84374685145344
40
0.847653180167104
40
0.851559508880768
40
0.855465837594432
40
0.859372166308096
40
0.861325330664928
40
0.86327849502176
40
0.867184823735424
40
0.874997481162752
40
0.88281013859008
40
0.886716467303744
40
0.888669631660576
40
0.890622796017408
40
0.894529124731072
40
0.898435453444736
40
0.906248110872064
40
0.910154439585728
40
0.914060768299392
40
0.92187342572672
40
0.929686083154048
40
0.933592411867712
40
0.937498740581376
40
0.945311398008704
40
0.953124055436032
40
0.96093671286336
40
0.964843041577024
40
0.968749370290688
40
0.976562027718016
40
0.984374685145344
40
0.992187342572672
40
0.996093671286336
40
1
40
1
40
1
40
1
41
1
10
-2.1999999115281
20
38.8201008485462
30
0
41
1
10
-2.1999999115281
20
38.8200908475462
30
0
41
1
10
-2.1999999115281
20
38.8197904025003
30
0
41
1
10
-2.1999999115281
20
38.818003763258
30
0
41
1
10
-2.1999999115281
20
38.8144138240773
30
0
41
1
10
-2.1999999115281
20
38.8090428279034
30
0
41
1
10
-2.1999999115281
20
38.8041273696305
30
0
41
1
10
-2.1999999115281
20
38.7983301593331
30
0
41
1
10
-2.1999999115281
20
38.7894329148301
30
0
41
1
10
-2.1999999115281
20
38.7761348317518
30
-1E-16
41
1
10
-2.1999999115281
20
38.7599861202973
30
-1E-16
41
1
10
-2.1999999115281
20
38.7453933054442
30
-1E-16
41
1
10
-2.1999999115281
20
38.7336188838243
30
-1E-16
41
1
10
-2.1999999115281
20
38.7210254473865
30
-1E-16
41
1
10
-2.1999999115281
20
38.703156386366
30
-1E-16
41
1
10
-2.1999999115281
20
38.6788186295695
30
-1E-16
41
1
10
-2.1999999115281
20
38.6465013754758
30
1E-16
41
1
10
-2.1999999115281
20
38.6111553783602
30
1E-16
41
1
10
-2.1999999115281
20
38.5728664080578
30
1E-16
41
1
10
-2.1999999115281
20
38.5385746593617
30
1E-16
41
1
10
-2.1999999115281
20
38.5097588079995
30
1E-16
41
1
10
-2.1999999115281
20
38.4874621005078
30
1E-16
41
1
10
-2.1999999115281
20
38.4644916384815
30
1E-16
41
1
10
-2.1999999115281
20
38.4408578336509
30
1E-16
41
1
10
-2.1999999115281
20
38.4165713418567
30
1E-16
41
1
10
-2.1999999115281
20
38.3916414455233
30
1E-16
41
1
10
-2.1999999115281
20
38.3660771780311
30
1E-16
41
1
10
-2.1999999115281
20
38.3311606615777
30
1E-16
41
1
10
-2.1999999115281
20
38.2859720236475
30
1E-16
41
1
10
-2.1999999115281
20
38.2387903887709
30
1E-16
41
1
10
-2.1999999115281
20
38.1998877045651
30
1E-16
41
1
10
-2.1999999115281
20
38.1602225770379
30
1E-16
41
1
10
-2.1999999115281
20
38.1194212492113
30
1E-16
41
1
10
-2.1999999115281
20
38.077529073738
30
1E-16
41
1
10
-2.1999999115281
20
38.0349153930408
30
1E-16
41
1
10
-2.1999999115281
20
37.9803086514504
30
1E-16
41
1
10
-2.1999999115281
20
37.912703449954
30
1E-16
41
1
10
-2.1999999115281
20
37.8430741435043
30
1E-16
41
1
10
-2.1999999115281
20
37.7714717963329
30
1E-16
41
1
10
-2.1999999115281
20
37.6979448817445
30
1E-16
41
1
10
-2.1999999115281
20
37.597413104463
30
1E-16
41
1
10
-2.1999999115281
20
37.4671566747244
30
1E-16
41
1
10
-2.1999999115281
20
37.3310760414531
30
1E-16
41
1
10
-2.1999999115281
20
37.2188780139261
30
1E-16
41
1
10
-2.1999999115281
20
37.1045002836964
30
1E-16
41
1
10
-2.1999999115281
20
36.9575135023802
30
1E-16
41
1
10
-2.1999999115281
20
36.8054065532218
30
1E-16
41
1
10
-2.1999999115281
20
36.6807759731009
30
1E-16
41
1
10
-2.1999999115281
20
36.5542136243725
30
1E-16
41
1
10
-2.1999999115281
20
36.4247914458215
30
1E-16
41
1
10
-2.1999999115281
20
36.2926421835211
30
1E-16
41
1
10
-2.1999999115281
20
36.1586967072951
30
1E-16
41
1
10
-2.1999999115281
20
35.9879419970207
30
1E-16
41
1
10
-2.1999999115281
20
35.7779210014239
30
1E-16
41
1
10
-2.1999999115281
20
35.5629436704211
30
1E-16
41
1
10
-2.1999999115281
20
35.3431616711299
30
1E-16
41
1
10
-2.1999999115281
20
35.1561194433833
30
1E-16
41
1
10
-2.1999999115281
20
35.0042310497316
30
1E-16
41
1
10
-2.1999999115281
20
34.8508556094976
30
1E-16
41
1
10
-2.1999999115281
20
34.6563744701074
30
1E-16
41
1
10
-2.1999999115281
20
34.4187210713223
30
1E-16
41
1
10
-2.1999999115281
20
34.1768991070839
30
1E-16
41
1
10
-2.1999999115281
20
33.9310142478853
30
1E-16
41
1
10
-2.1999999115281
20
33.6811677011933
30
1E-16
41
1
10
-2.1999999115281
20
33.4274550811983
30
1E-16
41
1
10
-2.1999999115281
20
33.1699667049421
30
1E-16
41
1
10
-2.1999999115281
20
32.9087900701636
30
1E-16
41
1
10
-2.1999999115281
20
32.6440061397621
30
1E-16
41
1
10
-2.1999999115281
20
32.3756949316208
30
1E-16
41
1
10
-2.1999999115281
20
32.1039306452813
30
1E-16
41
1
10
-2.1999999115281
20
31.7370801373333
30
1E-16
41
1
10
-2.1999999115281
20
31.3635765521905
30
1E-16
41
1
10
-2.1999999115281
20
31.0312135136157
30
1E-16
41
1
10
-2.1999999115281
20
30.8397330231685
30
1E-16
41
1
10
-2.1999999115281
20
30.647221589289
30
1E-16
41
1
10
-2.1999999115281
20
30.4046564410029
30
1E-16
41
1
10
-2.1999999115281
20
30.1105763611027
30
1E-16
41
1
10
-2.1999999115281
20
29.8135434778597
30
1E-16
41
1
10
-2.1999999115281
20
29.4136420707009
30
1E-16
41
1
10
-2.1999999115281
20
29.0080103104873
30
1E-16
41
1
10
-2.1999999115281
20
28.5969007756791
30
1E-16
41
1
10
-2.1999999115281
20
28.2858525342657
30
1E-16
41
1
10
-2.1999999115281
20
27.9721398302558
30
1E-16
41
1
10
-2.1999999115281
20
27.5503711398658
30
1E-16
41
1
10
-2.1999999115281
20
27.1234124974911
30
1E-16
41
1
10
-2.1999999115281
20
26.6914838151701
30
1E-16
41
1
10
-2.1999999115281
20
26.3650675359433
30
1E-16
41
1
10
-2.1999999115281
20
26.0362259398849
30
1E-16
41
1
10
-2.1999999115281
20
25.5945952400911
30
1E-16
41
1
10
-2.1999999115281
20
25.1482261758568
30
1E-16
41
1
10
-2.1999999115281
20
24.6973152287071
30
1E-16
41
1
10
-2.1999999115281
20
24.3568706565454
30
1E-16
41
1
10
-2.1999999115281
20
24.0142040020595
30
1E-16
41
1
10
-2.1999999115281
20
23.5544044075891
30
1E-16
41
1
10
-2.1999999115281
20
22.9742306962349
30
1E-16
41
1
10
-2.1999999115281
20
22.3870518286764
30
1E-16
41
1
10
-2.1999999115281
20
21.9132371078392
30
1E-16
41
1
10
-2.1999999115281
20
21.4367321009819
30
1E-16
41
1
10
-2.1999999115281
20
20.8360998803855
30
1E-16
41
1
10
-2.1999999115281
20
20.1075992296961
30
1E-16
41
1
10
-2.1999999115281
20
19.4942108691065
30
1E-16
41
1
10
-2.1999999115281
20
18.999840635393
30
1E-16
41
1
10
-2.1999999115281
20
18.6272395203538
30
1E-16
41
1
10
-2.1999999115281
20
18.2528462909731
30
1E-16
41
1
10
-2.1999999115281
20
17.7513078157259
30
1E-16
41
1
10
-2.1999999115281
20
17.1199956514837
30
1E-16
41
1
10
-2.1999999115281
20
16.4830138052363
30
1E-16
41
1
10
-2.1999999115281
20
15.9701340914701
30
1E-16
41
1
10
-2.1999999115281
20
15.5838306539125
30
1E-16
41
1
10
-2.1999999115281
20
15.1959130847894
30
1E-16
41
1
10
-2.1999999115281
20
14.6765771878582
30
1E-16
41
1
10
-2.1999999115281
20
14.0234525374345
30
1E-16
41
1
10
-2.1999999115281
20
13.2335959648178
30
1E-16
41
1
10
-2.1999999115281
20
12.5704070232565
30
1E-16
41
1
10
-2.1999999115281
20
12.0369797081653
30
1E-16
41
1
10
-2.1999999115281
20
11.5016481043903
30
1E-16
41
1
10
-2.1999999115281
20
10.8289367597882
30
1E-16
41
1
10
-2.1999999115281
20
10.1516657598859
30
1E-16
41
1
10
-2.1999999115281
20
9.6072149694576
30
1E-16
41
1
10
-2.1999999115281
20
9.1975601306934
30
1E-16
41
1
10
-2.1999999115281
20
8.78661766827182
30
1E-16
41
1
10
-2.1999999115281
20
8.2370168942636
30
1E-16
41
1
10
-2.1999999115281
20
7.54687012650422
30
1E-16
41
1
10
-2.1999999115281
20
6.85270255334621
30
1E-16
41
1
10
-2.1999999115281
20
6.29506147303152
30
1E-16
41
1
10
-2.1999999115281
20
5.735895056673
30
1E-16
41
1
10
-2.1999999115281
20
5.17444381652592
30
1E-16
41
1
10
-2.1999999115281
20
4.61087221028222
30
1E-16
41
1
10
-2.1999999115281
20
4.25774334339931
30
1E-16
41
1
10
-2.1999999115281
20
3.9747343574669
30
1E-16
41
1
10
-2.1999999115281
20
3.69138378770481
30
1E-16
41
1
10
-2.1999999115281
20
3.19462846879102
30
1E-16
41
1
10
-2.1999999115281
20
2.62489167391391
30
1E-16
41
1
10
-2.1999999115281
20
2.05330967731032
30
1E-16
41
1
10
-2.1999999115281
20
1.62369319812691
30
1E-16
41
1
10
-2.1999999115281
20
1.1931820624103
30
1E-16
41
1
10
-2.1999999115281
20
0.761801560781009
30
1E-16
41
1
10
-2.1999999115281
20
0.329577560955016
30
1E-16
41
1
10
-2.1999999115281
20
-0.103463424802698
30
1E-16
41
1
10
-2.1999999115281
20
-0.537294136515698
30
1E-16
41
1
10
-2.1999999115281
20
-0.971886537104183
30
1E-16
41
1
10
-2.1999999115281
20
-1.40721174648948
30
1E-16
41
1
10
-2.1999999115281
20
-1.8432399566031
30
1E-16
41
1
10
-2.1999999115281
20
-2.27994036916769
30
1E-16
41
1
10
-2.1999999115281
20
-2.7172811514987
30
1E-16
41
1
10
-2.1999999115281
20
-3.15522905865288
30
1E-16
41
1
10
-2.1999999115281
20
-3.59374978112038
30
1E-16
41
1
10
-2.1999999115281
20
-4.03280765187898
30
1E-16
41
1
10
-2.1999999115281
20
-4.4723651120573
30
1E-16
41
1
10
-2.1999999115281
20
-4.91238336776368
30
1E-16
41
1
10
-2.1999999115281
20
-5.35282138116909
30
1E-16
41
1
10
-2.1999999115281
20
-5.7936363577962
30
1E-16
41
1
10
-2.1999999115281
20
-6.2347831537262
30
1E-16
41
1
10
-2.1999999115281
20
-6.67621417802118
30
1E-16
41
1
10
-2.1999999115281
20
-7.11787920013668
30
1E-16
41
1
10
-2.1999999115281
20
-7.48609340008608
30
1E-16
41
1
10
-2.1999999115281
20
-7.78070917783219
30
1E-16
41
1
10
-2.1999999115281
20
-8.0017020483383
30
1E-16
41
1
10
-2.1999999115281
20
-8.2227109005172
30
1E-16
41
1
10
-2.1999999115281
20
-8.51738985071398
30
1E-16
41
1
10
-2.1999999115281
20
-8.88576156843658
30
1E-16
41
1
10
-2.1999999115281
20
-9.32772521205729
30
1E-16
41
1
10
-2.1999999115281
20
-9.76954526484749
30
1E-16
41
1
10
-2.1999999115281
20
-10.1375531706778
30
1E-16
41
1
10
-2.1999999115281
20
-10.4317840234057
30
1E-16
41
1
10
-2.1999999115281
20
-10.7258963556545
30
1E-16
41
1
10
-2.1999999115281
20
-11.0198419772096
30
1E-16
41
1
10
-2.1999999115281
20
-11.313498360324
30
1E-16
41
1
10
-2.1999999115281
20
-11.5336094423148
30
1E-16
41
1
10
-2.1999999115281
20
-11.7535661052244
30
1E-16
41
1
10
-2.1999999115281
20
-11.9733529918273
30
1E-16
41
1
10
-2.1999999115281
20
-12.1929545990628
30
1E-16
41
1
10
-2.1999999115281
20
-12.4854747609675
30
1E-16
41
1
10
-2.1999999115281
20
-12.7775967180095
30
1E-16
41
1
10
-2.1999999115281
20
-13.0691642766067
30
1E-16
41
1
10
-2.1999999115281
20
-13.2875736874719
30
1E-16
41
1
10
-2.1999999115281
20
-13.5056845442009
30
1E-16
41
1
10
-2.1999999115281
20
-13.7960567972524
30
1E-16
41
1
10
-2.1999999115281
20
-14.0857838045349
30
1E-16
41
1
10
-2.1999999115281
20
-14.3746709406105
30
1E-16
41
1
10
-2.1999999115281
20
-14.5548879132451
30
1E-16
41
1
10
-2.1999999115281
20
-14.6988191303461
30
1E-16
41
1
10
-2.1999999115281
20
-14.8425931327179
30
1E-16
41
1
10
-2.1999999115281
20
-15.0220241827579
30
1E-16
41
1
10
-2.1999999115281
20
-15.2368080523068
30
1E-16
41
1
10
-2.1999999115281
20
-15.4510331876649
30
1E-16
41
1
10
-2.1999999115281
20
-15.6290639149907
30
1E-16
41
1
10
-2.1999999115281
20
-15.7711528045664
30
1E-16
41
1
10
-2.1999999115281
20
-15.8775610539501
30
1E-16
41
1
10
-2.1999999115281
20
-15.9837983788692
30
1E-16
41
1
10
-2.1999999115281
20
-16.0898588206875
30
1E-16
41
1
10
-2.1999999115281
20
-16.1957364577667
30
1E-16
41
1
10
-2.1999999115281
20
-16.3366458044892
30
1E-16
41
1
10
-2.1999999115281
20
-16.4771934640342
30
1E-16
41
1
10
-2.1999999115281
20
-16.6172943668522
30
1E-16
41
1
10
-2.1999999115281
20
-16.7571086621706
30
1E-16
41
1
10
-2.1999999115281
20
-16.8965077193165
30
1E-16
41
1
10
-2.1999999115281
20
-17.035400694948
30
1E-16
41
1
10
-2.1999999115281
20
-17.1393334120474
30
1E-16
41
1
10
-2.1999999115281
20
-17.2430127563685
30
1E-16
41
1
10
-2.1999999115281
20
-17.3464303183551
30
1E-16
41
1
10
-2.1999999115281
20
-17.4495781059293
30
1E-16
41
1
10
-2.1999999115281
20
-17.5524476331233
30
1E-16
41
1
10
-2.1999999115281
20
-17.6550302061286
30
1E-16
41
1
10
-2.1999999115281
20
-17.7914013627331
30
1E-16
41
1
10
-2.1999999115281
20
-17.9611283453849
30
1E-16
41
1
10
-2.1999999115281
20
-18.1634934933183
30
1E-16
41
1
10
-2.1999999115281
20
-18.3310024023215
30
1E-16
41
1
10
-2.1999999115281
20
-18.4642672140223
30
1E-16
41
1
10
-2.1999999115281
20
-18.5638545966052
30
1E-16
41
1
10
-2.1999999115281
20
-18.6630627599607
30
1E-16
41
1
10
-2.1999999115281
20
-18.7948106909948
30
1E-16
41
1
10
-2.1999999115281
20
-18.925799364412
30
1E-16
41
1
10
-2.1999999115281
20
-19.0559233445875
30
1E-16
41
1
10
-2.1999999115281
20
-19.1369121158721
30
1E-16
41
1
10
-2.1999999115281
20
-19.2014772647518
30
1E-16
41
1
10
-2.1999999115281
20
-19.2658977818068
30
1E-16
41
1
10
-2.1999999115281
20
-19.3782550264941
30
1E-16
41
1
10
-2.1999999115281
20
-19.5376733755747
30
1E-16
41
1
10
-2.1999999115281
20
-19.6955665845819
30
1E-16
41
1
10
-2.1999999115281
20
-19.8052591290143
30
1E-16
41
1
10
-2.1999999115281
20
-19.8677018554765
30
1E-16
41
1
10
-2.1999999115281
20
-19.9299864545761
30
1E-16
41
1
10
-2.1999999115281
20
-20.0075570931308
30
1E-16
41
1
10
-2.1999999115281
20
-20.1310102610161
30
1E-16
41
1
10
-2.1999999115281
20
-20.2535306930211
30
1E-16
41
1
10
-2.1999999115281
20
-20.3750445920392
30
1E-16
41
1
10
-2.1999999115281
20
-20.4959070955077
30
1E-16
41
1
10
-2.1999999115281
20
-20.6457851764845
30
1E-16
41
1
10
-2.1999999115281
20
-20.8236669392673
30
1E-16
41
1
10
-2.1999999115281
20
-20.9995930211768
30
1E-16
41
1
10
-2.1999999115281
20
-21.1735728017992
30
1E-16
41
1
10
-2.1999999115281
20
-21.3456202153992
30
1E-16
41
1
10
-2.1999999115281
20
-21.487406318378
30
1E-16
41
1
10
-2.1999999115281
20
-21.5998722250608
30
1E-16
41
1
10
-2.1999999115281
20
-21.6837571248699
30
1E-16
41
1
10
-2.1999999115281
20
-21.7671743173756
30
1E-16
41
1
10
-2.1999999115281
20
-21.8501263518321
30
1E-16
41
1
10
-2.1999999115281
20
-21.9326158030316
30
1E-16
41
1
10
-2.1999999115281
20
-22.0146463254265
30
1E-16
41
1
10
-2.1999999115281
20
-22.0962214913554
30
1E-16
41
1
10
-2.1999999115281
20
-22.204377384836
30
1E-16
41
1
10
-2.1999999115281
20
-22.3384640498449
30
1E-16
41
1
10
-2.1999999115281
20
-22.4975898481875
30
1E-16
41
1
10
-2.1999999115281
20
-22.6549686696757
30
1E-16
41
1
10
-2.1999999115281
20
-22.7846923688651
30
1E-16
41
1
10
-2.1999999115281
20
-22.8876125291676
30
1E-16
41
1
10
-2.1999999115281
20
-22.9643866870013
30
1E-16
41
1
10
-2.1999999115281
20
-23.0407437448374
30
1E-16
41
1
10
-2.1999999115281
20
-23.1419952365337
30
1E-16
41
1
10
-2.1999999115281
20
-23.2675450629147
30
1E-16
41
1
10
-2.1999999115281
20
-23.4165773988955
30
1E-16
41
1
10
-2.1999999115281
20
-23.5640139959823
30
1E-16
41
1
10
-2.1999999115281
20
-23.6855709141025
30
1E-16
41
1
10
-2.1999999115281
20
-23.7820313573104
30
1E-16
41
1
10
-2.1999999115281
20
-23.8779781972108
30
1E-16
41
1
10
-2.1999999115281
20
-23.9969662645793
30
1E-16
41
1
10
-2.1999999115281
20
-24.1853164866913
30
1E-16
41
1
10
-2.1999999115281
20
-24.370716152071
30
1E-16
41
1
10
-2.1999999115281
20
-24.5531856738878
30
1E-16
41
1
10
-2.1999999115281
20
-24.7337443905049
30
1E-16
41
1
10
-2.1999999115281
20
-24.9559209205141
30
1E-16
41
1
10
-2.1999999115281
20
-25.1734899710061
30
1E-16
41
1
10
-2.1999999115281
20
-25.3448280738104
30
1E-16
41
1
10
-2.1999999115281
20
-25.5143836347699
30
1E-16
41
1
10
-2.1999999115281
20
-25.681315113045
30
1E-16
41
1
10
-2.1999999115281
20
-25.8456353343984
30
1E-16
41
1
10
-2.1999999115281
20
-26.0082454340493
30
1E-16
41
1
10
-2.1999999115281
20
-26.2083467951391
30
1E-16
41
1
10
-2.1999999115281
20
-26.4434764474849
30
1E-16
41
1
10
-2.1999999115281
20
-26.6737103772817
30
1E-16
41
1
10
-2.1999999115281
20
-26.8991322680935
30
1E-16
41
1
10
-2.1999999115281
20
-27.1198213665147
30
1E-16
41
1
10
-2.1999999115281
20
-27.3358516817167
30
1E-16
41
1
10
-2.1999999115281
20
-27.5472937579012
30
1E-16
41
1
10
-2.1999999115281
20
-27.7542131155834
30
1E-16
41
1
10
-2.1999999115281
20
-27.9566730585108
30
1E-16
41
1
10
-2.1999999115281
20
-28.1547319557388
30
1E-16
41
1
10
-2.1999999115281
20
-28.3484464705503
30
1E-16
41
1
10
-2.1999999115281
20
-28.5378694030972
30
1E-16
41
1
10
-2.1999999115281
20
-28.7230509054594
30
1E-16
41
1
10
-2.1999999115281
20
-28.9040396460598
30
1E-16
41
1
10
-2.1999999115281
20
-29.0808796577154
30
1E-16
41
1
10
-2.1999999115281
20
-29.2536158105288
30
1E-16
41
1
10
-2.1999999115281
20
-29.4222877670706
30
1E-16
41
1
10
-2.1999999115281
20
-29.586935509864
30
1E-16
41
1
10
-2.1999999115281
20
-29.72082277793
30
1E-16
41
1
10
-2.1999999115281
20
-29.8259506299477
30
1E-16
41
1
10
-2.1999999115281
20
-29.9297678527927
30
1E-16
41
1
10
-2.1999999115281
20
-30.0570967155857
30
1E-16
41
1
10
-2.1999999115281
20
-30.2060025003589
30
1E-16
41
1
10
-2.1999999115281
20
-30.3510538741946
30
1E-16
41
1
10
-2.1999999115281
20
-30.4922800882679
30
1E-16
41
1
10
-2.1999999115281
20
-30.6297092249331
30
1E-16
41
1
10
-2.1999999115281
20
-30.7633682256827
30
1E-16
41
1
10
-2.1999999115281
20
-30.8932827991835
30
1E-16
41
1
10
-2.1999999115281
20
-30.998446791062
30
1E-16
41
1
10
-2.1999999115281
20
-31.080726003162
30
1E-16
41
1
10
-2.1999999115281
20
-31.1617766590784
30
1E-16
41
1
10
-2.1999999115281
20
-31.3004018375
30
1E-16
41
1
10
-2.1999999115281
20
-31.4893118001305
30
1E-16
41
1
10
-2.1999999115281
20
-31.6661783624816
30
1E-16
41
1
10
-2.1999999115281
20
-31.7837212422291
30
1E-16
41
1
10
-2.1999999115281
20
-31.8491079124547
30
1E-16
41
1
10
-2.1999999115281
20
-31.9133104844087
30
1E-16
41
1
10
-2.1999999115281
20
-31.9913519973812
30
1E-16
41
1
10
-2.1999999115281
20
-32.1115080245043
30
1E-16
41
1
10
-2.1999999115281
20
-32.2246438795985
30
1E-16
41
1
10
-2.1999999115281
20
-32.3307976055258
30
1E-16
41
1
10
-2.1999999115281
20
-32.4323184251123
30
1E-16
41
1
10
-2.1999999115281
20
-32.5505669659296
30
1E-16
41
1
10
-2.1999999115281
20
-32.6573450974624
30
1E-16
41
1
10
-2.1999999115281
20
-32.7359204137457
30
1E-16
41
1
10
-2.1999999115281
20
-32.8099450532358
30
1E-16
41
1
10
-2.1999999115281
20
-32.8939669854386
30
1E-16
41
1
10
-2.1999999115281
20
-32.9812314524888
30
1E-16
41
1
10
-2.1999999115281
20
-33.0426951323296
30
1E-16
41
1
10
-2.1999999115281
20
-33.0851305204767
30
1E-16
41
1
10
-2.1999999115281
20
-33.1230830493461
30
1E-16
41
1
10
-2.1999999115281
20
-33.1621297234999
30
1E-16
41
1
10
-2.1999999115281
20
-33.1955786874769
30
-1E-16
41
1
10
-2.1999999115281
20
-33.2122977685832
30
-1E-16
41
1
10
-2.1999999115281
20
-33.2189840932304
30
0
41
1
10
-2.1999999115281
20
-33.2201164512457
30
0
41
1
10
-2.1999999115281
20
-33.2200982306738
30
0
0
SPLINE
5
10E
100
AcDbEntity
8
SK1
62
256
6
ByLayer
370
18
48
1
60
0
100
AcDbSpline
70
4
71
3
72
100
73
96
40
0
40
0
40
0
40
0
40
0.0311330685535819
40
0.0311330685535819
40
0.0623868405357232
40
0.0623868405357232
40
0.0702002835312584
40
0.0702002835312584
40
0.0780137265267936
40
0.0936406125178641
40
0.0936406125178641
40
0.124894384500005
40
0.156148156482146
40
0.156148156482146
40
0.163961599477681
40
0.163961599477681
40
0.171775042473216
40
0.187401928464287
40
0.187401928464287
40
0.218655700446428
40
0.24990947242857
40
0.24990947242857
40
0.257722915424105
40
0.257722915424105
40
0.265536358419641
40
0.265536358419641
40
0.281163244410711
40
0.281163244410711
40
0.312417016392852
40
0.312417016392852
40
0.343670788374993
40
0.343670788374993
40
0.359297674366063
40
0.359297674366063
40
0.367111117361598
40
0.367111117361598
40
0.374924560357134
40
0.374924560357134
40
0.406178332339275
40
0.406178332339275
40
0.437432104321416
40
0.468685876303558
40
0.468685876303558
40
0.476499319299093
40
0.476499319299093
40
0.484312762294629
40
0.484312762294629
40
0.499939648285701
40
0.499939648285701
40
0.531193420267845
40
0.562447192249989
40
0.562447192249989
40
0.593700964232133
40
0.593700964232133
40
0.601514407227669
40
0.601514407227669
40
0.609327850223206
40
0.624954736214278
40
0.624954736214278
40
0.656208508196422
40
0.656208508196422
40
0.687462280178567
40
0.687462280178567
40
0.703089166169639
40
0.703089166169639
40
0.710902609165175
40
0.710902609165175
40
0.718716052160711
40
0.718716052160711
40
0.749969824142856
40
0.781223596125
40
0.781223596125
40
0.812477368107145
40
0.812477368107145
40
0.82029081110268
40
0.82029081110268
40
0.828104254098216
40
0.828104254098216
40
0.843731140089287
40
0.843731140089287
40
0.874984912071429
40
0.874984912071429
40
0.906238684053572
40
0.906238684053572
40
0.921865570044643
40
0.921865570044643
40
0.929679013040179
40
0.929679013040179
40
0.937492456035714
40
0.937492456035714
40
0.968746228017857
40
0.968746228017857
40
0.984373114008929
40
0.984373114008929
40
1
40
1
40
1
40
1
41
1
10
-19.7701323139312
20
-32.7786755276003
30
0
41
1
10
-19.7700565560302
20
-32.7786850378947
30
0
41
1
10
-19.7809838803984
20
-32.7773008636032
30
0
41
1
10
-19.8249358924292
20
-32.7717619920526
30
0
41
1
10
-19.8580419724226
20
-32.7675989018692
30
1E-16
41
1
10
-19.9137168406455
20
-32.7606653358616
30
1E-16
41
1
10
-19.9255432204298
20
-32.7591952230972
30
1E-16
41
1
10
-19.950488267494
20
-32.7561015279179
30
-1E-16
41
1
10
-19.9898787389257
20
-32.7512266314078
30
-1E-16
41
1
10
-20.0351050268968
20
-32.7456687842135
30
-1E-16
41
1
10
-20.1331864395054
20
-32.7336922862967
30
-1E-16
41
1
10
-20.2842668958598
20
-32.7154324059829
30
-1E-16
41
1
10
-20.4752985431548
20
-32.6930738599381
30
-1E-16
41
1
10
-20.6073525975408
20
-32.6779604518417
30
-1E-16
41
1
10
-20.6344371606421
20
-32.6748763551441
30
-1E-16
41
1
10
-20.6896504342995
20
-32.6686242672025
30
-1E-16
41
1
10
-20.7740323766866
20
-32.6591206727909
30
-1E-16
41
1
10
-20.863025241452
20
-32.6492668552639
30
-1E-16
41
1
10
-21.0470150850695
20
-32.629157709167
30
0
41
1
10
-21.3083121812127
20
-32.6012789677587
30
4E-16
41
1
10
-21.6008026647893
20
-32.5719129341813
30
4E-16
41
1
10
-21.793410326102
20
-32.5532876943622
30
-4E-16
41
1
10
-21.8324230515823
20
-32.5495490490655
30
-4E-16
41
1
10
-21.9114368143382
20
-32.5420493519597
30
-4E-16
41
1
10
-21.9514826699938
20
-32.5382841918519
30
-4E-16
41
1
10
-22.0725330860401
20
-32.5270160510289
30
-4E-16
41
1
10
-22.1545800301508
20
-32.5195277866839
30
-4E-16
41
1
10
-22.4046608364812
20
-32.4971900242083
30
-4E-16
41
1
10
-22.5766252045469
20
-32.4824680725361
30
-4E-16
41
1
10
-22.9307559228216
20
-32.4536427794687
30
-4E-16
41
1
10
-23.1129229825575
20
-32.4395390505501
30
-4E-16
41
1
10
-23.3938346097099
20
-32.4190467729418
30
-3E-16
41
1
10
-23.488750897546
20
-32.4123265103262
30
-3E-16
41
1
10
-23.6330655546909
20
-32.4024367397153
30
-3E-16
41
1
10
-23.6814939563793
20
-32.3991719213579
30
-3E-16
41
1
10
-23.7790031833742
20
-32.3927100065589
30
-3E-16
41
1
10
-23.8279711574081
20
-32.3895204746354
30
-3E-16
41
1
10
-24.0733403052948
20
-32.3738207630046
30
-3E-16
41
1
10
-24.2718547844035
20
-32.3620196191924
30
-3E-16
41
1
10
-24.673182422193
20
-32.3400727492404
30
-3E-16
41
1
10
-25.0788101066439
20
-32.3197815969699
30
-2E-16
41
1
10
-25.4929982857443
20
-32.3030619684205
30
-2E-16
41
1
10
-25.7546018828449
20
-32.2938088637196
30
-2E-16
41
1
10
-25.8070596957179
20
-32.2920180781896
30
-2E-16
41
1
10
-25.912252240199
20
-32.288558211751
30
-2E-16
41
1
10
-25.9650115352221
20
-32.2868885669389
30
-2E-16
41
1
10
-26.1229024339357
20
-32.2820887073966
30
-2E-16
41
1
10
-26.2279073396893
20
-32.2791586804084
30
-2E-16
41
1
10
-26.5421685435953
20
-32.271167298645
30
-2E-16
41
1
10
-26.9591775962567
20
-32.2626414626523
30
-1E-16
41
1
10
-27.3722330532584
20
-32.2582602776995
30
-1E-16
41
1
10
-27.7832860278015
20
-32.255893487178
30
-1E-16
41
1
10
-27.987811524762
20
-32.2557173745071
30
-1E-16
41
1
10
-28.2421646363295
20
-32.25671828613
30
0
41
1
10
-28.2928491292066
20
-32.2569791288066
30
0
41
1
10
-28.3936064043673
20
-32.2576173182241
30
0
41
1
10
-28.5439386931393
20
-32.2587498296515
30
0
41
1
10
-28.6918815236077
20
-32.2603907415042
30
0
41
1
10
-28.9846141231866
20
-32.264305806218
30
0
41
1
10
-29.1755723078479
20
-32.2677600351598
30
0
41
1
10
-29.5490942650163
20
-32.2761256793129
30
0
41
1
10
-29.7316586377754
20
-32.2810374413591
30
0
41
1
10
-29.9990306168748
20
-32.2893253053219
30
1E-16
41
1
10
-30.0870736040969
20
-32.2922412631171
30
1E-16
41
1
10
-30.2174753757219
20
-32.2968229095165
30
1E-16
41
1
10
-30.260710020029
20
-32.298386405946
30
1E-16
41
1
10
-30.3464092367321
20
-32.3015710953471
30
1E-16
41
1
10
-30.3887947294108
20
-32.3031892415093
30
1E-16
41
1
10
-30.5984210685735
20
-32.311396506921
30
1E-16
41
1
10
-30.9191275762273
20
-32.325264286419
30
1E-16
41
1
10
-31.2108828524799
20
-32.3399676396092
30
1E-16
41
1
10
-31.4879578894699
20
-32.3547786839868
30
2E-16
41
1
10
-31.6191572739027
20
-32.3622383036675
30
2E-16
41
1
10
-31.7735707712698
20
-32.3714343141245
30
2E-16
41
1
10
-31.803972956792
20
-32.3732670535007
30
2E-16
41
1
10
-31.8638007722568
20
-32.3769144726349
30
2E-16
41
1
10
-31.8931868616014
20
-32.3787267950761
30
2E-16
41
1
10
-31.9793589447152
20
-32.3840973526521
30
2E-16
41
1
10
-32.0343211493891
20
-32.3875989074182
30
2E-16
41
1
10
-32.1918467811814
20
-32.3978159915264
30
2E-16
41
1
10
-32.287067143924
20
-32.4042433088602
30
2E-16
41
1
10
-32.4579860960248
20
-32.4160778319941
30
2E-16
41
1
10
-32.5336859338068
20
-32.421485642336
30
2E-16
41
1
10
-32.6322022959508
20
-32.4286499645401
30
0
41
1
10
-32.6625307912296
20
-32.430880193244
30
0
41
1
10
-32.7041624749403
20
-32.4339653700135
30
0
41
1
10
-32.7174007903127
20
-32.4349507659902
30
0
41
1
10
-32.7425488822932
20
-32.4368293857659
30
0
41
1
10
-32.7544187471114
20
-32.4377196205882
30
0
41
1
10
-32.810270448949
20
-32.4419214660995
30
0
41
1
10
-32.843785889986
20
-32.4444840693263
30
0
41
1
10
-32.8774354557279
20
-32.4470676892118
30
0
41
1
10
-32.8858761431831
20
-32.447719063165
30
0
41
1
10
-32.8971586484491
20
-32.4485893333519
30
0
41
1
10
-32.8999921962362
20
-32.4488071811186
30
2.3E-15
41
1
10
-32.9000021858178
20
-32.4488076594863
30
-1.3E-15
0
SPLINE
5
10F
100
AcDbEntity
8
SK1
62
256
6
ByLayer
370
18
48
1
60
0
100
AcDbSpline
70
4
71
2
72
6
73
3
40
0
40
0
40
0
40
1
40
1
40
1
41
1
10
-2.1999999115281
20
38.8200990644916
30
0
41
1
10
-30.0999999115281
20
38.1191558776828
30
0
41
1
10
-57.9999999115281
20
37.4182126908741
30
0
0
SPLINE
5
110
100
AcDbEntity
8
SK1
62
256
6
ByLayer
370
18
48
1
60
0
100
AcDbSpline
70
4
71
1
72
4
73
2
40
0
40
0
40
1
40
1
41
1
10
-45.643076637383
20
-32.1286571494301
30
0
41
1
10
-32.8999999115281
20
-32.448807591712
30
0
0
SPLINE
5
111
100
AcDbEntity
8
SK1
62
256
6
ByLayer
370
18
48
1
60
0
100
AcDbSpline
70
4
71
1
72
4
73
2
40
0
40
0
40
1
40
1
41
1
10
-19.7860017466551
20
-32.7782768716111
30
0
41
1
10
-2.1999999115281
20
-33.2200984494457
30
0
0
SPLINE
5
112
100
AcDbEntity
8
SK1
62
256
6
ByLayer
370
18
48
1
60
0
100
AcDbSpline
70
4
71
3
72
143
73
139
40
0
40
0
40
0
40
0
40
0.0044583714262017
40
0.0115039941685259
40
0.015026805539688
40
0.0185496169108501
40
0.0255952396531743
40
0.0326408623954985
40
0.0361636737666606
40
0.0396864851378227
40
0.0467321078801469
40
0.050254919251309
40
0.0537777306224711
40
0.0608233533647953
40
0.0678689761071195
40
0.0749145988494438
40
0.081960221591768
40
0.0890058443340922
40
0.0925286557052543
40
0.0960514670764164
40
0.103097089818741
40
0.110142712561065
40
0.117188335303389
40
0.124233958045713
40
0.131279580788037
40
0.138325203530362
40
0.145370826272686
40
0.15241644901501
40
0.159462071757334
40
0.166507694499658
40
0.173553317241983
40
0.180598939984307
40
0.194690185468955
40
0.20173580821128
40
0.205258619582442
40
0.208781430953604
40
0.215827053695928
40
0.222872676438252
40
0.229918299180576
40
0.236963921922901
40
0.251055167407549
40
0.258100790149873
40
0.265146412892197
40
0.272192035634522
40
0.279237658376846
40
0.293328903861494
40
0.300374526603819
40
0.307420149346143
40
0.314465772088467
40
0.321511394830791
40
0.33560264031544
40
0.342648263057764
40
0.349693885800088
40
0.356739508542412
40
0.363785131284736
40
0.377876376769385
40
0.391967622254033
40
0.399013244996357
40
0.406058867738682
40
0.42015011322333
40
0.434241358707978
40
0.448332604192627
40
0.455378226934951
40
0.462423849677275
40
0.4694694724196
40
0.476515095161924
40
0.490606340646572
40
0.504697586131221
40
0.511743208873545
40
0.518788831615869
40
0.525834454358193
40
0.532880077100517
40
0.546971322585166
40
0.561062568069814
40
0.575153813554463
40
0.582199436296787
40
0.589245059039111
40
0.60333630452376
40
0.617427550008408
40
0.624473172750732
40
0.631518795493056
40
0.638564418235381
40
0.645610040977705
40
0.659701286462353
40
0.673792531947002
40
0.680838154689326
40
0.68788377743165
40
0.701975022916298
40
0.709020645658623
40
0.716066268400947
40
0.719589079772109
40
0.723111891143271
40
0.730157513885595
40
0.744248759370244
40
0.751294382112568
40
0.758340004854892
40
0.765385627597216
40
0.772431250339541
40
0.779476873081865
40
0.786522495824189
40
0.793568118566513
40
0.800613741308837
40
0.807659364051162
40
0.814704986793486
40
0.82175060953581
40
0.828796232278134
40
0.835841855020458
40
0.842887477762783
40
0.849933100505107
40
0.856978723247431
40
0.864024345989755
40
0.871069968732079
40
0.878115591474404
40
0.885161214216728
40
0.892206836959052
40
0.899252459701376
40
0.906298082443701
40
0.909820893814863
40
0.913343705186025
40
0.916866516557187
40
0.920389327928349
40
0.927434950670673
40
0.934480573412997
40
0.941526196155322
40
0.948571818897646
40
0.952094630268808
40
0.95561744163997
40
0.962663064382294
40
0.966185875753456
40
0.969708687124619
40
0.973231498495781
40
0.976754309866943
40
0.980277121238105
40
0.983799932609267
40
0.990845555351591
40
0.994368366722753
40
0.997891178093915
40
1
40
1
40
1
40
1
41
1
10
-0.394976800403413
20
37.4208155409289
30
0
41
1
10
-0.394976800403413
20
37.3882597340466
30
0
41
1
10
-0.394976800403413
20
37.3030297064669
30
0
41
1
10
-0.394976800403413
20
37.1876495107228
30
0
41
1
10
-0.394976800403413
20
37.0760484350466
30
0
41
1
10
-0.394976800403413
20
36.9622661737711
30
0
41
1
10
-0.394976800403413
20
36.8161137168358
30
0
41
1
10
-0.394976800403413
20
36.6648456949525
30
0
41
1
10
-0.394976800403413
20
36.5408138600395
30
0
41
1
10
-0.394976800403413
20
36.4148482699689
30
0
41
1
10
-0.394976800403413
20
36.2861432249751
30
0
41
1
10
-0.394976800403413
20
36.1545918653421
30
0
41
1
10
-0.394976800403413
20
36.0212424119621
30
0
41
1
10
-0.394976800403413
20
35.8513211509361
30
0
41
1
10
-0.394976800403413
20
35.6422529308825
30
0
41
1
10
-0.394976800403413
20
35.4282268823625
30
0
41
1
10
-0.394976800403413
20
35.2093948248879
30
0
41
1
10
-0.394976800403413
20
35.0231838003196
30
0
41
1
10
-0.394976800403413
20
34.8718878533015
30
0
41
1
10
-0.394976800403413
20
34.7191030403046
30
0
41
1
10
-0.394976800403413
20
34.5254477155862
30
0
41
1
10
-0.394976800403413
20
34.2887378850957
30
0
41
1
10
-0.394976800403413
20
34.0478579633118
30
0
41
1
10
-0.394976800403413
20
33.8029137446836
30
0
41
1
10
-0.394976800403413
20
33.5540064236579
30
0
41
1
10
-0.394976800403413
20
33.3012318127816
30
0
41
1
10
-0.394976800403413
20
33.0446801898165
30
0
41
1
10
-0.394976800403413
20
32.784439251803
30
0
41
1
10
-0.394976800403413
20
32.5205900176407
30
0
41
1
10
-0.394976800403413
20
32.2532125274016
30
0
41
1
10
-0.394976800403413
20
31.9823812818425
30
0
41
1
10
-0.394976800403413
20
31.6166944904704
30
0
41
1
10
-0.394976800403413
20
31.2445882467399
30
0
41
1
10
-0.394976800403413
20
30.9132743156863
30
0
41
1
10
-0.394976800403413
20
30.7223757222874
30
0
41
1
10
-0.394976800403413
20
30.5304454632505
30
0
41
1
10
-0.394976800403413
20
30.2886937539473
30
0
41
1
10
-0.394976800403413
20
29.9955439491691
30
0
41
1
10
-0.394976800403413
20
29.6994413285054
30
0
41
1
10
-0.394976800403413
20
29.3007018181504
30
0
41
1
10
-0.394976800403413
20
28.8964664683048
30
0
41
1
10
-0.394976800403413
20
28.4865221734839
30
0
41
1
10
-0.394976800403413
20
28.1764059583266
30
0
41
1
10
-0.394976800403413
20
27.863625930709
30
0
41
1
10
-0.394976800403413
20
27.4430231240054
30
0
41
1
10
-0.394976800403413
20
27.0174667592244
30
0
41
1
10
-0.394976800403413
20
26.5867091883003
30
0
41
1
10
-0.394976800403413
20
26.2612304072569
30
0
41
1
10
-0.394976800403413
20
25.9333275895518
30
0
41
1
10
-0.394976800403413
20
25.4928713595559
30
0
41
1
10
-0.394976800403413
20
25.0479159924162
30
0
41
1
10
-0.394976800403413
20
24.5981866827245
30
0
41
1
10
-0.394976800403413
20
24.258688790359
30
0
41
1
10
-0.394976800403413
20
23.9169707037743
30
0
41
1
10
-0.394976800403413
20
23.4583587814234
30
0
41
1
10
-0.394976800403413
20
22.8798533195137
30
0
41
1
10
-0.394976800403413
20
22.294352519878
30
0
41
1
10
-0.394976800403413
20
21.8217408194819
30
0
41
1
10
-0.394976800403413
20
21.3464414354052
30
0
41
1
10
-0.394976800403413
20
20.7475044009537
30
0
41
1
10
-0.394976800403413
20
20.0209536921068
30
0
41
1
10
-0.394976800403413
20
19.4092832235199
30
0
41
1
10
-0.394976800403413
20
18.916146271493
30
0
41
1
10
-0.394976800403413
20
18.5445352611687
30
0
41
1
10
-0.394976800403413
20
18.1711358569353
30
0
41
1
10
-0.394976800403413
20
17.6708443196753
30
0
41
1
10
-0.394976800403413
20
17.0412885036611
30
0
41
1
10
-0.394976800403413
20
16.4060779809722
30
0
41
1
10
-0.394976800403413
20
15.8944717888821
30
0
41
1
10
-0.394976800403413
20
15.5091918977353
30
0
41
1
10
-0.394976800403413
20
15.1223026879831
30
0
41
1
10
-0.394976800403413
20
14.6042585202163
30
0
41
1
10
-0.394976800403413
20
13.9529561271379
30
0
41
1
10
-0.394976800403413
20
13.1652036057596
30
0
41
1
10
-0.394976800403413
20
12.5038755461807
30
0
41
1
10
-0.394976800403413
20
11.9717888892899
30
0
41
1
10
-0.394976800403413
20
11.4378065299749
30
0
41
1
10
-0.394976800403413
20
10.7670018963121
30
0
41
1
10
-0.394976800403413
20
10.0916603877174
30
0
41
1
10
-0.394976800403413
20
9.54860166892021
30
0
41
1
10
-0.394976800403413
20
9.14006858248791
30
0
41
1
10
-0.394976800403413
20
8.73025576859311
30
0
41
1
10
-0.394976800403413
20
8.18207780025011
30
0
41
1
10
-0.394976800403413
20
7.49394584960882
30
0
41
1
10
-0.394976800403413
20
6.80182171096672
30
0
41
1
10
-0.394976800403413
20
6.24565818223152
30
0
41
1
10
-0.394976800403413
20
5.68798333608211
30
0
41
1
10
-0.394976800403413
20
5.12834431703462
30
0
41
1
10
-0.394976800403413
20
4.56630210179242
30
0
41
1
10
-0.394976800403413
20
4.214253933436
30
0
41
1
10
-0.394976800403413
20
3.93202242530632
30
0
41
1
10
-0.394976800403413
20
3.64945361258782
30
0
41
1
10
-0.394976800403413
20
3.15411695952241
30
0
41
1
10
-0.394976800403413
20
2.5862981692641
30
0
41
1
10
-0.394976800403413
20
2.01633806655082
30
0
41
1
10
-0.394976800403413
20
1.5880342982434
30
0
41
1
10
-0.394976800403413
20
1.15885044388821
30
0
41
1
10
-0.394976800403413
20
0.728812332991396
30
0
41
1
10
-0.394976800403413
20
0.297946466871224
30
0
41
1
10
-0.394976800403413
20
-0.133720010794576
30
0
41
1
10
-0.394976800403413
20
-0.566159191252098
30
0
41
1
10
-0.394976800403413
20
-0.999342323788483
30
0
41
1
10
-0.394976800403413
20
-1.43323977556898
30
0
41
1
10
-0.394976800403413
20
-1.86782094858879
30
0
41
1
10
-0.394976800403413
20
-2.30305408828949
30
0
41
1
10
-0.394976800403413
20
-2.73890662266618
30
0
41
1
10
-0.394976800403413
20
-3.17534444613
30
0
41
1
10
-0.394976800403413
20
-3.61233179496549
30
0
41
1
10
-0.394976800403413
20
-4.04983226319379
30
0
41
1
10
-0.394976800403413
20
-4.48780701971918
30
0
41
1
10
-0.394976800403413
20
-4.9262158885463
30
0
41
1
10
-0.394976800403413
20
-5.36501670344518
30
0
41
1
10
-0.394976800403413
20
-5.80416492438678
30
0
41
1
10
-0.394976800403413
20
-6.24361406242488
30
0
41
1
10
-0.394976800403413
20
-6.68331464734598
30
0
41
1
10
-0.394976800403413
20
-7.12321467251118
30
0
41
1
10
-0.394976800403413
20
-7.48985483987528
30
0
41
1
10
-0.394976800403413
20
-7.78332785683688
30
0
41
1
10
-0.394976800403413
20
-8.00339559476728
30
0
41
1
10
-0.394976800403413
20
-8.22346887704339
30
0
41
1
10
-0.394976800403413
20
-8.51696380288718
30
0
41
1
10
-0.394976800403413
20
-8.88364821052409
30
0
41
1
10
-0.394976800403413
20
-9.32364001119529
30
0
41
1
10
-0.394976800403413
20
-9.76343816100908
30
0
41
1
10
-0.394976800403413
20
-10.1296338072645
30
0
41
1
10
-0.394976800403413
20
-10.422543352494
30
0
41
1
10
-0.394976800403413
20
-10.7153123498132
30
0
41
1
10
-0.394976800403413
20
-11.0076130018258
30
0
41
1
10
-0.394976800403413
20
-11.299870169595
30
0
41
1
10
-0.394976800403413
20
-11.5188432304147
30
0
41
1
10
-0.394976800403413
20
-11.7376441938332
30
0
41
1
10
-0.394976800403413
20
-11.9562567046649
30
0
41
1
10
-0.394976800403413
20
-12.1746649151689
30
0
41
1
10
-0.394976800403413
20
-12.4656658805839
30
0
41
1
10
-0.394976800403413
20
-12.7559203285965
30
0
41
1
10
-0.394976800403413
20
-13.0458935105585
30
0
41
1
10
-0.394976800403413
20
-13.2339535650457
30
0
41
1
10
-0.394976800403413
20
-13.3495068551455
30
0
41
1
10
-0.394976800403413
20
-13.3927593736293
30
0
0
SPLINE
5
113
100
AcDbEntity
8
SK1
62
256
6
ByLayer
370
18
48
1
60
0
100
AcDbSpline
70
4
71
3
72
44
73
40
40
0
40
0
40
0
40
0
40
0.0312500000000006
40
0.0312500000000006
40
0.0468750000000005
40
0.0468750000000005
40
0.0625000000000005
40
0.0781250000000004
40
0.0781250000000004
40
0.0859375000000005
40
0.0859375000000005
40
0.0937500000000006
40
0.109375000000001
40
0.109375000000001
40
0.125000000000001
40
0.125000000000001
40
0.156250000000001
40
0.156250000000001
40
0.187500000000001
40
0.187500000000001
40
0.218750000000001
40
0.218750000000001
40
0.25
40
0.25
40
0.312500000000001
40
0.312500000000001
40
0.375000000000002
40
0.375000000000002
40
0.437500000000003
40
0.437500000000003
40
0.500000000000004
40
0.500000000000004
40
0.625000000000003
40
0.625000000000003
40
0.750000000000002
40
0.750000000000002
40
0.875000000000001
40
0.875000000000001
40
1
40
1
40
1
40
1
41
1
10
-0.394976800403413
20
37.4208155409269
30
0
41
1
10
-0.411386739381413
20
37.4149665353128
30
0
41
1
10
-0.428762840598409
20
37.4095276507919
30
0
41
1
10
-0.456925011899017
20
37.4022804809532
30
0
41
1
10
-0.466725404323
20
37.4000079933478
30
0
41
1
10
-0.48676343017101
20
37.3959360243789
30
0
41
1
10
-0.507284237257807
20
37.3923198097628
30
0
41
1
10
-0.528912887644708
20
37.3897544327621
30
0
41
1
10
-0.545620554138907
20
37.3882929207009
30
0
41
1
10
-0.551272120414495
20
37.387884300634
30
0
41
1
10
-0.562487246370608
20
37.3872455118605
30
0
41
1
10
-0.579272629295616
20
37.3865457883035
30
0
41
1
10
-0.595947848737012
20
37.3866096775313
30
0
41
1
10
-0.618086111505193
20
37.3873552728442
30
0
41
1
10
-0.629195738265111
20
37.388070280151
30
0
41
1
10
-0.661278062640605
20
37.3910563290928
30
0
41
1
10
-0.681311946684417
20
37.3941435964806
30
0
41
1
10
-0.719431551619493
20
37.4018777256741
30
0
41
1
10
-0.736925297131705
20
37.4064007625868
30
0
41
1
10
-0.769781083310505
20
37.4162685537931
30
0
41
1
10
-0.785145742284215
20
37.4216234588759
30
0
41
1
10
-0.814334159665492
20
37.4329257044946
30
0
41
1
10
-0.827968693278706
20
37.4388024978534
30
1E-16
41
1
10
-0.866650481999216
20
37.4568252025824
30
1E-16
41
1
10
-0.88960806269381
20
37.4693899970631
30
1E-16
41
1
10
-0.932102904362296
20
37.4950919875124
30
1E-16
41
1
10
-0.951599377851807
20
37.50823851146
30
1E-16
41
1
10
-0.988153137379811
20
37.5348666604903
30
1E-16
41
1
10
-1.0052130840842
20
37.5483674405186
30
1E-16
41
1
10
-1.03720605312719
20
37.5753219169824
30
1E-16
41
1
10
-1.05218083633059
20
37.5888089599545
30
1E-16
41
1
10
-1.09473875043162
20
37.6292092818391
30
1E-16
41
1
10
-1.11999018330681
20
37.6560576101685
30
1E-16
41
1
10
-1.1663068387227
20
37.7093018106647
30
1E-16
41
1
10
-1.18734342232301
20
37.7357010892263
30
1E-16
41
1
10
-1.226267094636
20
37.7878856346821
30
1E-16
41
1
10
-1.244144029897
20
37.8136720676129
30
1E-16
41
1
10
-1.27739565441149
20
37.8645134341736
30
1E-16
41
1
10
-1.29276631408601
20
37.8895690905909
30
1E-16
41
1
10
-1.3071066927146
20
37.914213596144
30
1E-16
0
SPLINE
5
114
100
AcDbEntity
8
SK1
62
256
6
ByLayer
370
18
48
1
60
0
100
AcDbSpline
70
4
71
3
72
38
73
34
40
0
40
0
40
0
40
0
40
0.250000000000004
40
0.250000000000004
40
0.375000000000004
40
0.375000000000004
40
0.500000000000004
40
0.500000000000004
40
0.625000000000003
40
0.625000000000003
40
0.687500000000002
40
0.687500000000002
40
0.75
40
0.75
40
0.812499999999999
40
0.812499999999999
40
0.843749999999998
40
0.843749999999998
40
0.874999999999997
40
0.874999999999997
40
0.906249999999996
40
0.906249999999996
40
0.921874999999997
40
0.921874999999997
40
0.937499999999997
40
0.937499999999997
40
0.953124999999998
40
0.953124999999998
40
0.968749999999999
40
0.968749999999999
40
0.984374999999999
40
0.984374999999999
40
1
40
1
40
1
40
1
41
1
10
-0.199999911528096
20
37.3626116382834
30
0
41
1
10
-0.199999911528096
20
37.3748686630122
30
0
41
1
10
-0.201382484145199
20
37.3863296343541
30
0
41
1
10
-0.206329033838614
20
37.4020243432613
30
0
41
1
10
-0.208462412071299
20
37.4070047561227
30
0
41
1
10
-0.213978776619399
20
37.4163705629963
30
0
41
1
10
-0.21735703239321
20
37.4207595096756
30
0
41
1
10
-0.225863238703994
20
37.4287785488825
30
0
41
1
10
-0.230960111489594
20
37.432403879964
30
0
41
1
10
-0.240671953716998
20
37.4370237116262
30
0
41
1
10
-0.24426653137931
20
37.438428072321
30
0
41
1
10
-0.252395026858693
20
37.4408657037466
30
0
41
1
10
-0.256918339729907
20
37.4419009025599
30
0
41
1
10
-0.267364915487292
20
37.4434558951205
30
0
41
1
10
-0.273258704103114
20
37.4439845136412
30
0
41
1
10
-0.283995891061096
20
37.44413400583
30
0
41
1
10
-0.287895314913811
20
37.4440753081644
30
0
41
1
10
-0.296717261718811
20
37.443625801431
30
0
41
1
10
-0.301598576571507
20
37.4432376660879
30
0
41
1
10
-0.312745058688904
20
37.4419410739398
30
0
41
1
10
-0.318964307598406
20
37.4410399490941
30
0
41
1
10
-0.329721068540095
20
37.4390714228266
30
0
41
1
10
-0.333580134297392
20
37.4383026143866
30
0
41
1
10
-0.341534868496012
20
37.4365755744116
30
0
41
1
10
-0.345743488299291
20
37.4355917270919
30
0
41
1
10
-0.354102293917094
20
37.4334976624235
30
0
41
1
10
-0.358282216516102
20
37.432382273332
30
0
41
1
10
-0.366508364728901
20
37.4300657959964
30
0
41
1
10
-0.370428978077314
20
37.4289013648436
30
0
41
1
10
-0.377983125845617
20
37.4265640622582
30
0
41
1
10
-0.381631061592714
20
37.4253856602008
30
0
41
1
10
-0.388539439582104
20
37.4230769338446
30
0
41
1
10
-0.391822547492296
20
37.4219398134218
30
0
41
1
10
-0.394976800403612
20
37.4208155409299
30
0
0
SPLINE
5
115
100
AcDbEntity
8
SK1
62
256
6
ByLayer
370
18
48
1
60
0
100
AcDbSpline
70
4
71
3
72
40
73
36
40
0
40
0
40
0
40
0
40
0.0156249999999988
40
0.0156249999999988
40
0.0312499999999976
40
0.0312499999999976
40
0.0468749999999964
40
0.0468749999999964
40
0.0624999999999952
40
0.0624999999999952
40
0.078124999999994
40
0.078124999999994
40
0.0937499999999929
40
0.0937499999999929
40
0.109374999999992
40
0.109374999999992
40
0.12499999999999
40
0.12499999999999
40
0.156249999999996
40
0.156249999999996
40
0.187500000000001
40
0.187500000000001
40
0.249999999999999
40
0.249999999999999
40
0.312499999999998
40
0.312499999999998
40
0.374999999999996
40
0.374999999999996
40
0.499999999999998
40
0.499999999999998
40
0.625
40
0.625
40
0.750000000000002
40
0.750000000000002
40
1
40
1
40
1
40
1
41
1
10
-0.394976800403413
20
-13.3927593736293
30
0
41
1
10
-0.391824093516192
20
-13.3957198813402
30
0
41
1
10
-0.388545744325711
20
-13.3985250135874
30
0
41
1
10
-0.38165795696591
20
-13.4037258670171
30
0
41
1
10
-0.378018716794713
20
-13.4061393772532
30
0
41
1
10
-0.370433257909411
20
-13.4103072777476
30
0
41
1
10
-0.366512619781304
20
-13.4120534926365
30
0
41
1
10
-0.358339211613696
20
-13.4146692415249
30
0
41
1
10
-0.354104561204508
20
-13.4155118737475
30
0
41
1
10
-0.345758642318202
20
-13.4160640420345
30
0
41
1
10
-0.341545521001109
20
-13.4157738278489
30
0
41
1
10
-0.333576570435611
20
-13.4141722185826
30
0
41
1
10
-0.329731364556409
20
-13.4128570887765
30
0
41
1
10
-0.322535306431092
20
-13.4094979994023
30
0
41
1
10
-0.319195189589891
20
-13.4074746397686
30
0
41
1
10
-0.312890373151106
20
-13.4029254787492
30
0
41
1
10
-0.309911607266514
20
-13.4003813268946
30
0
41
1
10
-0.301573455629011
20
-13.3923225238411
30
0
41
1
10
-0.296753268041698
20
-13.386380644959
30
0
41
1
10
-0.287965229135807
20
-13.3738327726949
30
0
41
1
10
-0.28399623402791
20
-13.3671871838067
30
0
41
1
10
-0.273149579817414
20
-13.3468830032451
30
0
41
1
10
-0.267231919293493
20
-13.3327911689722
30
0
41
1
10
-0.256759138141916
20
-13.3040113685063
30
0
41
1
10
-0.252236673465205
20
-13.2893101517969
30
0
41
1
10
-0.244118487320094
20
-13.2594903369374
30
0
41
1
10
-0.24052497176811
20
-13.2443424465801
30
0
41
1
10
-0.230811528534304
20
-13.1986216355273
30
0
41
1
10
-0.225742199449314
20
-13.1678471838087
30
0
41
1
10
-0.217291622387705
20
-13.1059085660194
30
0
41
1
10
-0.213932867705807
20
-13.0747406067857
30
0
41
1
10
-0.208441487183393
20
-13.0121002078896
30
0
41
1
10
-0.2063151757269
20
-12.9806266945844
30
0
41
1
10
-0.201382566752699
20
-12.8858252245951
30
0
41
1
10
-0.199999911528408
20
-12.8221203886574
30
0
41
1
10
-0.199999911528494
20
-12.7580215603348
30
0
0
SPLINE
5
116
100
AcDbEntity
8
SK1
62
256
6
ByLayer
370
18
48
1
60
0
100
AcDbSpline
70
4
71
3
72
52
73
48
40
0
40
0
40
0
40
0
40
0.125000000000003
40
0.125000000000003
40
0.250000000000007
40
0.250000000000007
40
0.312500000000007
40
0.312500000000007
40
0.375000000000007
40
0.375000000000007
40
0.500000000000004
40
0.500000000000004
40
0.562500000000003
40
0.562500000000003
40
0.625000000000001
40
0.625000000000001
40
0.687499999999999
40
0.687499999999999
40
0.718749999999999
40
0.718749999999999
40
0.749999999999999
40
0.749999999999999
40
0.781249999999999
40
0.781249999999999
40
0.812499999999999
40
0.812499999999999
40
0.828124999999999
40
0.828124999999999
40
0.843749999999999
40
0.843749999999999
40
0.859374999999999
40
0.859374999999999
40
0.874999999999999
40
0.890624999999999
40
0.890624999999999
40
0.898437499999999
40
0.898437499999999
40
0.906249999999999
40
0.921875
40
0.921875
40
0.9375
40
0.9375
40
0.968750000000001
40
0.968750000000001
40
0.984375
40
0.984375
40
1
40
1
40
1
40
1
41
1
10
-1.30710669271471
20
-14.9687256966225
30
1E-16
41
1
10
-1.29276329302291
20
-14.8836709603328
30
1E-16
41
1
10
-1.27737931333291
20
-14.7987132718002
30
1E-16
41
1
10
-1.24407073974129
20
-14.6290986501269
30
1E-16
41
1
10
-1.2261509764673
20
-14.5444407144293
30
1E-16
41
1
10
-1.19685085235182
20
-14.417794406522
30
1E-16
41
1
10
-1.18667850187239
20
-14.3756361933596
30
1E-16
41
1
10
-1.16539858949039
20
-14.2914615158406
30
1E-16
41
1
10
-1.15428349353351
20
-14.2494166144657
30
1E-16
41
1
10
-1.11936355476331
20
-14.1238013503131
30
1E-16
41
1
10
-1.0940314580227
20
-14.0407403193897
30
1E-16
41
1
10
-1.051532895771
20
-13.9177217353583
30
1E-16
41
1
10
-1.03660876178651
20
-13.8769807071551
30
1E-16
41
1
10
-1.004826297204
20
-13.7961897155451
30
1E-16
41
1
10
-0.987973953409806
20
-13.7561374722079
30
1E-16
41
1
10
-0.951667084584301
20
-13.6769800017638
30
1E-16
41
1
10
-0.932228997356304
20
-13.6378685221602
30
1E-16
41
1
10
-0.900204718068693
20
-13.5802614361084
30
1E-16
41
1
10
-0.889015002924111
20
-13.5611881033511
30
1E-16
41
1
10
-0.865553193880999
20
-13.5237559275899
30
1E-16
41
1
10
-0.853310608712292
20
-13.5054357349705
30
1E-16
41
1
10
-0.827521258328204
20
-13.4698078923357
30
1E-16
41
1
10
-0.813978175974199
20
-13.4524973554962
30
0
41
1
10
-0.785146320705309
20
-13.4192355997961
30
0
41
1
10
-0.769867135472595
20
-13.4032768678231
30
0
41
1
10
-0.745051297850608
20
-13.380819555159
30
0
41
1
10
-0.736459636766597
20
-13.3735901347284
30
0
41
1
10
-0.718777342616391
20
-13.3599746563907
30
0
41
1
10
-0.709657911832295
20
-13.353560409085
30
0
41
1
10
-0.690747018935809
20
-13.3416828164768
30
0
41
1
10
-0.680900426076306
20
-13.3361928259116
30
0
41
1
10
-0.660643211909701
20
-13.3265195017816
30
0
41
1
10
-0.639958411594591
20
-13.31820456479
30
0
41
1
10
-0.618305308384492
20
-13.3129670691715
30
0
41
1
10
-0.601648086458198
20
-13.3103658356593
30
0
41
1
10
-0.59599360724701
20
-13.3097189592721
30
0
41
1
10
-0.584721758320796
20
-13.3089141672623
30
0
41
1
10
-0.567881362715013
20
-13.3084311933613
30
0
41
1
10
-0.551238397831696
20
-13.3100702857589
30
0
41
1
10
-0.529216118683394
20
-13.314065211121
30
0
41
1
10
-0.518192265018513
20
-13.3170075235574
30
0
41
1
10
-0.486293167131294
20
-13.3280911387918
30
0
41
1
10
-0.466466683059394
20
-13.3383902349138
30
0
41
1
10
-0.438258566693207
20
-13.3569333586393
30
0
41
1
10
-0.429160358387691
20
-13.3636117902798
30
0
41
1
10
-0.411634756962115
20
-13.377664230509
30
0
41
1
10
-0.403177924533111
20
-13.3850582164643
30
0
41
1
10
-0.394976800403413
20
-13.3927593736268
30
0
0
SPLINE
5
117
100
AcDbEntity
8
SK1
62
256
6
ByLayer
370
18
48
1
60
0
100
AcDbSpline
70
4
71
3
72
44
73
40
40
0
40
0
40
0
40
0
40
0.0312499999999983
40
0.0312499999999983
40
0.0468749999999986
40
0.0468749999999986
40
0.0624999999999988
40
0.078124999999999
40
0.078124999999999
40
0.0859374999999991
40
0.0859374999999991
40
0.0937499999999991
40
0.109374999999999
40
0.109374999999999
40
0.124999999999999
40
0.124999999999999
40
0.15625
40
0.15625
40
0.1875
40
0.1875
40
0.21875
40
0.21875
40
0.25
40
0.25
40
0.3125
40
0.3125
40
0.375000000000001
40
0.375000000000001
40
0.437500000000001
40
0.437500000000001
40
0.5
40
0.5
40
0.625
40
0.625
40
0.75
40
0.75
40
0.875
40
0.875
40
1
40
1
40
1
40
1
41
1
10
-0.394976800403413
20
-24.0280576058727
30
0
41
1
10
-0.411386632739692
20
-24.0376183439502
30
0
41
1
10
-0.428762593425205
20
-24.0463417285647
30
0
41
1
10
-0.456924543009194
20
-24.0576260938476
30
0
41
1
10
-0.46672485788369
20
-24.0610990149949
30
0
41
1
10
-0.486762737716816
20
-24.0671626369732
30
0
41
1
10
-0.507283119976194
20
-24.0723728706465
30
0
41
1
10
-0.528911956348196
20
-24.0756270877215
30
0
41
1
10
-0.545619563144896
20
-24.0772114053365
30
0
41
1
10
-0.551271108482808
20
-24.077594015926
30
0
41
1
10
-0.562486194383212
20
-24.078045955096
30
0
41
1
10
-0.579271521526891
20
-24.0782645417918
30
0
41
1
10
-0.595946697724713
20
-24.0771269260096
30
0
41
1
10
-0.6180849134239
20
-24.0744358465718
30
0
41
1
10
-0.629194520140089
20
-24.0724762629917
30
0
41
1
10
-0.661276756050597
20
-24.0651650491644
30
0
41
1
10
-0.68131057609051
20
-24.058406480685
30
0
41
1
10
-0.719430065563103
20
-24.0421649439123
30
0
41
1
10
-0.7369236956809
20
-24.0329403358755
30
0
41
1
10
-0.769779398354302
20
-24.0130694829772
30
0
41
1
10
-0.785144057195112
20
-24.0024050013133
30
0
41
1
10
-0.814332583222011
20
-23.9800053706094
30
0
41
1
10
-0.827967215629798
20
-23.968410465001
30
1E-16
41
1
10
-0.8666494881181
20
-23.9328953876981
30
1E-16
41
1
10
-0.889607604717213
20
-23.9081874334489
30
1E-16
41
1
10
-0.932103281723698
20
-23.8574513000984
30
1E-16
41
1
10
-0.951599998779699
20
-23.8314093430586
30
1E-16
41
1
10
-0.988153563698006
20
-23.7783248088758
30
1E-16
41
1
10
-1.0052130582379
20
-23.7512442132878
30
1E-16
41
1
10
-1.03720525273471
20
-23.6967538771507
30
1E-16
41
1
10
-1.0521798068078
20
-23.669278881491
30
1E-16
41
1
10
-1.09473770438731
20
-23.5862568410591
30
1E-16
41
1
10
-1.11999025389702
20
-23.530117799438
30
1E-16
41
1
10
-1.16630740351729
20
-23.4165134651089
30
1E-16
41
1
10
-1.18734357456322
20
-23.3590442228203
30
1E-16
41
1
10
-1.22626685979179
20
-23.2428960997361
30
1E-16
41
1
10
-1.24414396683619
20
-23.1842159122071
30
1E-16
41
1
10
-1.2773962349531
20
-23.0657050414735
30
1E-16
41
1
10
-1.29276670037521
20
-23.005873388761
30
1E-16
41
1
10
-1.30710669271471
20
-22.9454821099762
30
1E-16
0
SPLINE
5
118
100
AcDbEntity
8
SK1
62
256
6
ByLayer
370
18
48
1
60
0
100
AcDbSpline
70
4
71
3
72
38
73
34
40
0
40
0
40
0
40
0
40
0.249999999999994
40
0.249999999999994
40
0.374999999999996
40
0.374999999999996
40
0.499999999999998
40
0.499999999999998
40
0.625
40
0.625
40
0.6875
40
0.6875
40
0.750000000000001
40
0.750000000000001
40
0.812500000000002
40
0.812500000000002
40
0.843750000000003
40
0.843750000000003
40
0.875000000000003
40
0.875000000000003
40
0.906250000000004
40
0.906250000000004
40
0.921875000000003
40
0.921875000000003
40
0.937500000000002
40
0.937500000000002
40
0.953125000000002
40
0.953125000000002
40
0.968750000000001
40
0.968750000000001
40
0.984375000000001
40
0.984375000000001
40
1
40
1
40
1
40
1
41
1
10
-0.199999911528096
20
-24.6045901174755
30
0
41
1
10
-0.199999911528096
20
-24.5527326789459
30
0
41
1
10
-0.201382509158009
20
-24.5004330987333
30
0
41
1
10
-0.206329127919616
20
-24.4211648228077
30
0
41
1
10
-0.2084625360404
20
-24.3946047630478
30
0
41
1
10
-0.213978984262297
20
-24.3411639807226
30
0
41
1
10
-0.217357296993214
20
-24.3142722154528
30
0
41
1
10
-0.225863591604394
20
-24.2601421651321
30
0
41
1
10
-0.23096049335831
20
-24.2329745785895
30
0
41
1
10
-0.240672327147706
20
-24.1920442953901
30
0
41
1
10
-0.244266892883616
20
-24.1783450551232
30
0
41
1
10
-0.2523953424583
20
-24.1510244341458
30
0
41
1
10
-0.256918621691994
20
-24.1374098161408
30
0
41
1
10
-0.267365105902712
20
-24.1103436714727
30
0
41
1
10
-0.273258836865409
20
-24.096887630747
30
0
41
1
10
-0.283995916709017
20
-24.076953713846
30
0
41
1
10
-0.287895301489499
20
-24.0703514162169
30
0
41
1
10
-0.296717160212012
20
-24.0572897621336
30
0
41
1
10
-0.301598445862396
20
-24.0508856627959
30
0
41
1
10
-0.312744853354502
20
-24.0388286980324
30
0
41
1
10
-0.318964081893597
20
-24.0332095931877
30
0
41
1
10
-0.329720820509095
20
-24.0262203807057
30
0
41
1
10
-0.333579882332202
20
-24.0241310361365
30
0
41
1
10
-0.341534625801898
20
-24.0208045912712
30
0
41
1
10
-0.345743258967417
20
-24.0195284545878
30
0
41
1
10
-0.354102100201999
20
-24.0179858926695
30
0
41
1
10
-0.35828205185669
20
-24.0176983210454
30
0
41
1
10
-0.366508246749703
20
-24.0180095243173
30
0
41
1
10
-0.370428883670996
20
-24.0185942808153
30
0
41
1
10
-0.377983077471697
20
-24.0204048766673
30
0
41
1
10
-0.381631032388014
20
-24.0216417940095
30
0
41
1
10
-0.388539429930091
20
-24.0245474204334
30
0
41
1
10
-0.391822544005407
20
-24.0262198650183
30
0
41
1
10
-0.394976800403612
20
-24.0280576058698
30
0
0
SPLINE
5
119
100
AcDbEntity
8
SK1
62
256
6
ByLayer
370
18
48
0.05
60
0
100
AcDbSpline
70
4
71
3
72
12
73
8
40
0
40
0
40
0
40
0
40
0.269675096356504
40
0.269675096356504
40
0.858170677748362
40
0.858170677748362
40
1
40
1
40
1
40
1
41
1
10
-0.291267400918002
20
-24.06537436784
30
0
41
1
10
-0.287304932364094
20
-24.0713612540669
30
0
41
1
10
-0.283694445076293
20
-24.0775093312724
30
0
41
1
10
-0.273149754123608
20
-24.0970991324846
30
0
41
1
10
-0.267232098243511
20
-24.1106524496065
30
0
41
1
10
-0.260733716709609
20
-24.1275344413308
30
0
41
1
10
-0.259513195163294
20
-24.1308160563606
30
0
41
1
10
-0.258330632556607
20
-24.1341004224489
30
0
0
SPLINE
5
11A
100
AcDbEntity
8
SK1
62
256
6
ByLayer
370
18
48
1
60
0
100
AcDbSpline
70
4
71
3
72
14
73
10
40
0
40
0
40
0
40
0
40
0.198757519037793
40
0.198757519037793
40
0.399068139278342
40
0.399068139278342
40
0.59937875951889
40
0.59937875951889
40
1
40
1
40
1
40
1
41
1
10
-0.237136880268594
20
-24.2069485372184
30
0
41
1
10
-0.230733037484015
20
-24.234113787773
30
0
41
1
10
-0.225709475664701
20
-24.2610442663687
30
0
41
1
10
-0.217291611277801
20
-24.3147714500804
30
0
41
1
10
-0.213932838450717
20
-24.3415631539827
30
0
41
1
10
-0.208441435644005
20
-24.3948579880684
30
0
41
1
10
-0.206315123446615
20
-24.421360453922
30
0
41
1
10
-0.201382534005916
20
-24.5004912372478
30
0
41
1
10
-0.199999911528494
20
-24.5527456490793
30
0
41
1
10
-0.199999911528494
20
-24.6045904093029
30
0
0
SPLINE
5
11B
100
AcDbEntity
8
SK3
62
256
6
ByLayer
370
18
48
0.05
60
0
100
AcDbSpline
70
4
71
3
72
99
73
95
40
0
40
0
40
0
40
0
40
0.0310173304901785
40
0.0310173304901785
40
0.0466460832242073
40
0.0466460832242073
40
0.0544604595912215
40
0.0544604595912215
40
0.062274835958236
40
0.062274835958236
40
0.0935323414262934
40
0.0935323414262934
40
0.124789846894351
40
0.124789846894351
40
0.156047352362408
40
0.156047352362408
40
0.163861728729423
40
0.163861728729423
40
0.171676105096437
40
0.187304857830466
40
0.187304857830466
40
0.218562363298525
40
0.218562363298525
40
0.249819868766583
40
0.249819868766583
40
0.265448621500613
40
0.265448621500613
40
0.273262997867627
40
0.273262997867627
40
0.281077374234642
40
0.281077374234642
40
0.312334879702703
40
0.312334879702703
40
0.343592385170763
40
0.343592385170763
40
0.374849890638823
40
0.374849890638823
40
0.382664267005838
40
0.382664267005838
40
0.390478643372853
40
0.406107396106883
40
0.406107396106883
40
0.437364901574941
40
0.437364901574941
40
0.468622407043
40
0.468622407043
40
0.48425115977703
40
0.48425115977703
40
0.499879912511059
40
0.499879912511059
40
0.531137417979117
40
0.562394923447175
40
0.562394923447175
40
0.578023676181205
40
0.578023676181205
40
0.585838052548219
40
0.585838052548219
40
0.593652428915234
40
0.593652428915234
40
0.624909934383291
40
0.624909934383291
40
0.656167439851349
40
0.656167439851349
40
0.687424945319406
40
0.687424945319406
40
0.695239321686421
40
0.695239321686421
40
0.703053698053435
40
0.718682450787465
40
0.718682450787465
40
0.749939956255525
40
0.749939956255525
40
0.781197461723585
40
0.781197461723585
40
0.796826214457614
40
0.796826214457614
40
0.804640590824629
40
0.804640590824629
40
0.812454967191644
40
0.812454967191644
40
0.843712472659703
40
0.843712472659703
40
0.874969978127762
40
0.874969978127762
40
0.906227483595821
40
0.906227483595821
40
0.914041859962836
40
0.914041859962836
40
0.921856236329851
40
0.937484989063881
40
0.937484989063881
40
0.96874249453194
40
0.96874249453194
40
1
40
1
40
1
40
1
41
1
10
-32.49999959343
20
-21.5124995751108
30
0
41
1
10
-32.4999360817866
20
-21.5124817716459
30
0
41
1
10
-32.4904010099488
20
-21.5098166283357
30
0
41
1
10
-32.4617160253424
20
-21.5018514461694
30
0
41
1
10
-32.4496789804871
20
-21.4985145690953
30
0
41
1
10
-32.427930807418
20
-21.492509346388
30
0
41
1
10
-32.4200656925164
20
-21.4903409493311
30
0
41
1
10
-32.4030915092098
20
-21.485671171295
30
0
41
1
10
-32.3939676896234
20
-21.4831657539832
30
0
41
1
10
-32.3454181878928
20
-21.4698663566025
30
0
41
1
10
-32.2972663863931
20
-21.4567684189405
30
0
41
1
10
-32.1830149331378
20
-21.4261819314546
30
0
41
1
10
-32.1169134308958
20
-21.408692383834
30
2E-16
41
1
10
-31.9668789416726
20
-21.3698188681576
30
2E-16
41
1
10
-31.8829467948826
20
-21.3484339515007
30
2E-16
41
1
10
-31.7666244994868
20
-21.3195794653512
30
2E-16
41
1
10
-31.7427656841134
20
-21.3136969091505
30
2E-16
41
1
10
-31.6939953757358
20
-21.3017527512107
30
2E-16
41
1
10
-31.6194092726912
20
-21.283604331452
30
2E-16
41
1
10
-31.5405859655941
20
-21.2648149130126
30
2E-16
41
1
10
-31.3773852166668
20
-21.226524527418
30
1E-16
41
1
10
-31.2611932551978
20
-21.2000491085278
30
1E-16
41
1
10
-31.0141812751404
20
-21.1459441399062
30
1E-16
41
1
10
-30.8833614907227
20
-21.1183132162175
30
1E-16
41
1
10
-30.6759355917445
20
-21.0765626703238
30
1E-16
41
1
10
-30.6049240335122
20
-21.0625953194902
30
1E-16
41
1
10
-30.4955400336003
20
-21.0416421024407
30
1E-16
41
1
10
-30.4586024936468
20
-21.0346580600733
30
1E-16
41
1
10
-30.3841708406713
20
-21.0207775573872
30
1E-16
41
1
10
-30.3466273723228
20
-21.0138715639249
30
1E-16
41
1
10
-30.1572848776627
20
-20.9795420681652
30
1E-16
41
1
10
-30.000622816012
20
-20.9527204626914
30
1E-16
41
1
10
-29.6770526101611
20
-20.9010956160863
30
0
41
1
10
-29.5101442724482
20
-20.876291200025
30
0
41
1
10
-29.1659012881908
20
-20.8294405920119
30
0
41
1
10
-28.9885680163537
20
-20.8073931410428
30
0
41
1
10
-28.7600697607968
20
-20.782047427592
30
0
41
1
10
-28.7140810961793
20
-20.777095521525
30
0
41
1
10
-28.6219371820896
20
-20.7674784380648
30
0
41
1
10
-28.4832951969345
20
-20.7534631628784
30
0
41
1
10
-28.3433857511281
20
-20.7407080918325
30
0
41
1
10
-28.0618929104196
20
-20.7169540690136
30
-1E-16
41
1
10
-27.8720028528464
20
-20.7034596990884
30
-1E-16
41
1
10
-27.4877584540314
20
-20.6815501931979
30
-1E-16
41
1
10
-27.2934043333771
20
-20.6731345759683
30
-1E-16
41
1
10
-26.9984263081674
20
-20.6646173767857
30
-1E-16
41
1
10
-26.8995248441208
20
-20.6624627305949
30
-1E-16
41
1
10
-26.700541758284
20
-20.6595731552155
30
-1E-16
41
1
10
-26.6012949012721
20
-20.6588508948231
30
-1E-16
41
1
10
-26.3045711090108
20
-20.6588168579189
30
-2E-16
41
1
10
-25.9113793747179
20
-20.6644537700779
30
-2E-16
41
1
10
-25.5229549188511
20
-20.6810329309952
30
-2E-16
41
1
10
-25.2334302881391
20
-20.6974045941817
30
-2E-16
41
1
10
-25.1372215248466
20
-20.7035179383715
30
-2E-16
41
1
10
-24.993362928041
20
-20.7136503131816
30
-2E-16
41
1
10
-24.9454858536133
20
-20.7171881558202
30
-2E-16
41
1
10
-24.8498845966083
20
-20.7245808564367
30
-3E-16
41
1
10
-24.8021546769718
20
-20.728436786451
30
-3E-16
41
1
10
-24.5652424351606
20
-20.7483797399948
30
-3E-16
41
1
10
-24.3801643372787
20
-20.7665368724008
30
-3E-16
41
1
10
-24.0185457766472
20
-20.806560633791
30
-3E-16
41
1
10
-23.8420061799218
20
-20.8284282769041
30
-3E-16
41
1
10
-23.4973580066305
20
-20.8752090333624
30
-3E-16
41
1
10
-23.329249058103
20
-20.9001231273549
30
-3E-16
41
1
10
-23.1244704052619
20
-20.932754402797
30
-4E-16
41
1
10
-23.0837384085324
20
-20.9393626421812
30
-4E-16
41
1
10
-23.0032109611224
20
-20.9526512761489
30
-4E-16
41
1
10
-22.8837154261687
20
-20.9727094290883
30
-4E-16
41
1
10
-22.768052285558
20
-20.9930838895841
30
-4E-16
41
1
10
-22.5417357853638
20
-21.0341028041325
30
-4E-16
41
1
10
-22.3975252323783
20
-21.0618080575511
30
-4E-16
41
1
10
-22.1222224953472
20
-21.1171587868393
30
-4E-16
41
1
10
-21.9911301416632
20
-21.1448056412148
30
0
41
1
10
-21.8044741087399
20
-21.18565360914
30
0
41
1
10
-21.7439223589277
20
-21.1991657987139
30
0
41
1
10
-21.6556435662613
20
-21.2192037818654
30
0
41
1
10
-21.6267038498879
20
-21.2258308330811
30
0
41
1
10
-21.5699634143268
20
-21.2389298201471
30
0
41
1
10
-21.5421353423215
20
-21.2454079572357
30
0
41
1
10
-21.405679173129
20
-21.2774172429824
30
0
41
1
10
-21.3050829503413
20
-21.3018033619089
30
0
41
1
10
-21.1206892459214
20
-21.3475208734475
30
0
41
1
10
-21.0368922143036
20
-21.3688534182665
30
0
41
1
10
-20.8862732416216
20
-21.4078555160989
30
-1E-16
41
1
10
-20.8194491456924
20
-21.4255263148165
30
-1E-16
41
1
10
-20.7469723919561
20
-21.4449241652552
30
-1E-16
41
1
10
-20.7330724985575
20
-21.4486580017771
30
-1E-16
41
1
10
-20.706509873511
20
-21.4558151073554
30
-1E-16
41
1
10
-20.6684956506975
20
-21.46609232363
30
-1E-16
41
1
10
-20.6359224561039
20
-21.474978486171
30
-1E-16
41
1
10
-20.57796094296
20
-21.4908540146273
30
0
41
1
10
-20.5488823795372
20
-21.4989090687767
30
0
41
1
10
-20.509902654315
20
-21.5097316675866
30
0
41
1
10
-20.4999825742701
20
-21.5125045109385
30
0
41
1
10
-20.5000001222247
20
-21.5124996059889
30
0
0
LINE
5
74
100
AcDbEntity
8
1
62
256
6
ByLayer
370
18
48
1
60
0
100
AcDbLine
10
18.211325
20
-47.699112
30
0
11
18.211325
21
-14.993154
31
0
39
0
210
0
220
0
230
1
0
LINE
5
76
100
AcDbEntity
8
1
62
256
6
ByLayer
370
18
48
1
60
0
100
AcDbLine
10
18.644338
20
-47.532474
30
0
11
18.644338
21
-15.513346
31
0
39
0
210
0
220
0
230
1
0
LINE
5
77
100
AcDbEntity
8
1
62
256
6
ByLayer
370
18
48
1
60
0
100
AcDbLine
10
13.355663
20
15.513347
30
0
11
13.355663
21
47.532474
31
0
39
0
210
0
220
0
230
1
0
LINE
5
78
100
AcDbEntity
8
1
62
256
6
ByLayer
370
18
48
1
60
0
100
AcDbLine
10
13.788675
20
14.993155
30
0
11
13.788675
21
47.699113
31
0
39
0
210
0
220
0
230
1
0
LINE
5
79
100
AcDbEntity
8
1
62
256
6
ByLayer
370
18
48
1
60
0
100
AcDbLine
10
18.211325
20
14.993155
30
0
11
18.211325
21
47.699113
31
0
39
0
210
0
220
0
230
1
0
LINE
5
7A
100
AcDbEntity
8
1
62
256
6
ByLayer
370
18
48
1
60
0
100
AcDbLine
10
18.644338
20
15.513347
30
0
11
18.644338
21
47.532474
31
0
39
0
210
0
220
0
230
1
0
LINE
5
7B
100
AcDbEntity
8
1
62
256
6
ByLayer
370
18
48
1
60
0
100
AcDbLine
10
13.355663
20
-47.532474
30
0
11
13.355663
21
-15.513346
31
0
39
0
210
0
220
0
230
1
0
LINE
5
7C
100
AcDbEntity
8
1
62
256
6
ByLayer
370
18
48
1
60
0
100
AcDbLine
10
13.788675
20
-47.699112
30
0
11
13.788675
21
-14.993154
31
0
39
0
210
0
220
0
230
1
0
LINE
5
7D
100
AcDbEntity
8
1
62
256
6
ByLayer
370
18
48
1
60
0
100
AcDbLine
10
13.788675
20
-14.993154
30
0
11
18.211325
21
-14.993154
31
0
39
0
210
0
220
0
230
1
0
LINE
5
7E
100
AcDbEntity
8
1
62
256
6
ByLayer
370
18
48
1
60
0
100
AcDbLine
10
18.211325
20
-47.699112
30
0
11
13.788675
21
-47.699112
31
0
39
0
210
0
220
0
230
1
0
LINE
5
7F
100
AcDbEntity
8
1
62
256
6
ByLayer
370
18
48
1
60
0
100
AcDbLine
10
13.788675
20
47.699113
30
0
11
18.211325
21
47.699113
31
0
39
0
210
0
220
0
230
1
0
LINE
5
80
100
AcDbEntity
8
1
62
256
6
ByLayer
370
18
48
1
60
0
100
AcDbLine
10
18.211325
20
14.993155
30
0
11
13.788675
21
14.993155
31
0
39
0
210
0
220
0
230
1
0
LINE
5
81
100
AcDbEntity
8
1
62
256
6
ByLayer
370
18
48
1
60
0
100
AcDbLine
10
35
20
50
30
0
11
0.3
21
50
31
0
39
0
210
0
220
0
230
1
0
LINE
5
82
100
AcDbEntity
8
1
62
256
6
ByLayer
370
18
48
1
60
0
100
AcDbLine
10
0.3
20
-50
30
0
11
14.024498
21
-50
31
0
39
0
210
0
220
0
230
1
0
LINE
5
83
100
AcDbEntity
8
1
62
256
6
ByLayer
370
18
48
1
60
0
100
AcDbLine
10
18
20
-50
30
0
11
35
21
-50
31
0
39
0
210
0
220
0
230
1
0
LINE
5
84
100
AcDbEntity
8
SK3
62
256
6
ByLayer
370
13
48
0.05
60
0
100
AcDbLine
10
10
20
-12
30
0
11
11.732051
21
-11
31
0
39
0
210
0
220
0
230
1
0
LINE
5
86
100
AcDbEntity
8
SK3
62
256
6
ByLayer
370
13
48
0.05
60
0
100
AcDbLine
10
10
20
12
30
0
11
11.732051
21
11
31
0
39
0
210
0
220
0
230
1
0
LINE
5
87
100
AcDbEntity
8
SK3
62
256
6
ByLayer
370
13
48
0.05
60
0
100
AcDbLine
10
-19.616094
20
-12
30
0
11
10
21
-12
31
0
39
0
210
0
220
0
230
1
0
LINE
5
88
100
AcDbEntity
8
SK3
62
256
6
ByLayer
370
18
48
0.05
60
0
100
AcDbLine
10
10
20
11
30
0
11
10
21
-11
31
0
39
0
210
0
220
0
230
1
0
LINE
5
89
100
AcDbEntity
8
SK3
62
256
6
ByLayer
370
18
48
0.05
60
0
100
AcDbLine
10
10
20
-11
30
0
11
10
21
-12
31
0
39
0
210
0
220
0
230
1
0
LINE
5
8A
100
AcDbEntity
8
SK3
62
256
6
ByLayer
370
18
48
0.05
60
0
100
AcDbLine
10
10
20
11
30
0
11
10
21
12
31
0
39
0
210
0
220
0
230
1
0
LINE
5
8B
100
AcDbEntity
8
SK3
62
256
6
ByLayer
370
13
48
0.05
60
0
100
AcDbLine
10
-19.616094
20
12
30
0
11
10
21
12
31
0
39
0
210
0
220
0
230
1
0
LINE
5
8C
100
AcDbEntity
8
SK3
62
256
6
ByLayer
370
18
48
0.05
60
0
100
AcDbLine
10
16
20
-48.671573
30
0
11
14
21
-49.5
31
0
39
0
210
0
220
0
230
1
0
LINE
5
8D
100
AcDbEntity
8
SK3
62
256
6
ByLayer
370
18
48
0.05
60
0
100
AcDbLine
10
18
20
-49.5
30
0
11
16
21
-48.671573
31
0
39
0
210
0
220
0
230
1
0
LINE
5
8E
100
AcDbEntity
8
SK3
62
256
6
ByLayer
370
18
48
0.05
60
0
100
AcDbLine
10
18
20
-49.5
30
0
11
14
21
-49.5
31
0
39
0
210
0
220
0
230
1
0
LINE
5
8F
100
AcDbEntity
8
SK3
62
256
6
ByLayer
370
18
48
0.05
60
0
100
AcDbLine
10
18
20
-50
30
0
11
18
21
-49.5
31
0
39
0
210
0
220
0
230
1
0
LINE
5
90
100
AcDbEntity
8
SK3
62
256
6
ByLayer
370
18
48
0.05
60
0
100
AcDbLine
10
14
20
-49.5
30
0
11
14
21
-50
31
0
39
0
210
0
220
0
230
1
0
LINE
5
91
100
AcDbEntity
8
SK3
62
256
6
ByLayer
370
18
48
0.05
60
0
100
AcDbLine
10
-59.7
20
-29
30
0
11
-60
21
-28.7
31
0
39
0
210
0
220
0
230
1
0
LINE
5
92
100
AcDbEntity
8
SK3
62
256
6
ByLayer
370
18
48
0.05
60
0
100
AcDbLine
10
-20.5
20
-32.048808
30
0
11
-20.5
21
-21.5125
31
0
39
0
210
0
220
0
230
1
0
LINE
5
93
100
AcDbEntity
8
1
62
256
6
ByLayer
370
18
48
1
60
0
100
AcDbLine
10
0
20
49.7
30
0
11
0
21
0
31
0
39
0
210
0
220
0
230
1
0
LINE
5
94
100
AcDbEntity
8
1
62
256
6
ByLayer
370
18
48
1
60
0
100
AcDbLine
10
0
20
0
30
0
11
0
21
-49.7
31
0
39
0
210
0
220
0
230
1
0
LINE
5
95
100
AcDbEntity
8
1
62
256
6
ByLayer
370
18
48
1
60
0
100
AcDbLine
10
0.3
20
50
30
0
11
0.3
21
0
31
0
39
0
210
0
220
0
230
1
0
LINE
5
96
100
AcDbEntity
8
1
62
256
6
ByLayer
370
18
48
1
60
0
100
AcDbLine
10
0.3
20
0
30
0
11
0.3
21
-50
31
0
39
0
210
0
220
0
230
1
0
LINE
5
97
100
AcDbEntity
8
1
62
256
6
ByLayer
370
18
48
1
60
0
100
AcDbLine
10
0
20
-49.7
30
0
11
0.3
21
-50
31
0
39
0
210
0
220
0
230
1
0
LINE
5
98
100
AcDbEntity
8
1
62
256
6
ByLayer
370
18
48
1
60
0
100
AcDbLine
10
0.3
20
50
30
0
11
0
21
49.7
31
0
39
0
210
0
220
0
230
1
0
LINE
5
99
100
AcDbEntity
8
1
62
256
6
ByLayer
370
18
48
1
60
0
100
AcDbLine
10
36
20
-49
30
0
11
36
21
0
31
0
39
0
210
0
220
0
230
1
0
LINE
5
9A
100
AcDbEntity
8
1
62
256
6
ByLayer
370
18
48
1
60
0
100
AcDbLine
10
36
20
0
30
0
11
36
21
49
31
0
39
0
210
0
220
0
230
1
0
LINE
5
9B
100
AcDbEntity
8
1
62
256
6
ByLayer
370
18
48
1
60
0
100
AcDbLine
10
35
20
50
30
0
11
35
21
0
31
0
39
0
210
0
220
0
230
1
0
LINE
5
9C
100
AcDbEntity
8
1
62
256
6
ByLayer
370
18
48
1
60
0
100
AcDbLine
10
35
20
0
30
0
11
35
21
-50
31
0
39
0
210
0
220
0
230
1
0
LINE
5
9D
100
AcDbEntity
8
1
62
256
6
ByLayer
370
18
48
1
60
0
100
AcDbLine
10
36
20
49
30
0
11
35
21
50
31
0
39
0
210
0
220
0
230
1
0
LINE
5
9E
100
AcDbEntity
8
1
62
256
6
ByLayer
370
18
48
1
60
0
100
AcDbLine
10
35
20
-50
30
0
11
36
21
-49
31
0
39
0
210
0
220
0
230
1
0
LINE
5
9F
100
AcDbEntity
8
SK3
62
256
6
ByLayer
370
18
48
0.05
60
0
100
AcDbLine
10
-38.982785
20
21.5125
30
0
11
-41.63658
21
24.166295
31
0
39
0
210
0
220
0
230
1
0
LINE
5
A0
100
AcDbEntity
8
SK3
62
256
6
ByLayer
370
18
48
0.05
60
0
100
AcDbLine
10
-41.63658
20
-24.166295
30
0
11
-38.982785
21
-21.5125
31
0
39
0
210
0
220
0
230
1
0
LINE
5
A1
100
AcDbEntity
8
SK3
62
256
6
ByLayer
370
18
48
0.05
60
0
100
AcDbLine
10
-57.982785
20
23.14699
30
0
11
-60
21
24.31163
31
0
39
0
210
0
220
0
230
1
0
LINE
5
A2
100
AcDbEntity
8
SK3
62
256
6
ByLayer
370
18
48
0.05
60
0
100
AcDbLine
10
-60
20
-24.311629
30
0
11
-57.982785
21
-23.14699
31
0
39
0
210
0
220
0
230
1
0
LINE
5
A3
100
AcDbEntity
8
SK3
62
256
6
ByLayer
370
18
48
0.05
60
0
100
AcDbLine
10
-44.252875
20
25.25
30
0
11
-46.295703
21
25.25
31
0
39
0
210
0
220
0
230
1
0
LINE
5
A4
100
AcDbEntity
8
SK3
62
256
6
ByLayer
370
18
48
0.05
60
0
100
AcDbLine
10
-46.295703
20
-25.25
30
0
11
-44.252875
21
-25.25
31
0
39
0
210
0
220
0
230
1
0
LINE
5
A5
100
AcDbEntity
8
SK3
62
256
6
ByLayer
370
18
48
0.05
60
0
100
AcDbLine
10
-44.252875
20
25.25
30
0
11
-44.252875
21
0
31
0
39
0
210
0
220
0
230
1
0
LINE
5
A6
100
AcDbEntity
8
SK3
62
256
6
ByLayer
370
18
48
0.05
60
0
100
AcDbLine
10
-44.252875
20
0
30
0
11
-44.252875
21
-25.25
31
0
39
0
210
0
220
0
230
1
0
LINE
5
A7
100
AcDbEntity
8
SK3
62
256
6
ByLayer
370
18
48
0.05
60
0
100
AcDbLine
10
-41.63658
20
24.166295
30
0
11
-41.63658
21
0
31
0
39
0
210
0
220
0
230
1
0
LINE
5
A8
100
AcDbEntity
8
SK3
62
256
6
ByLayer
370
18
48
0.05
60
0
100
AcDbLine
10
-41.63658
20
0
30
0
11
-41.63658
21
-24.166295
31
0
39
0
210
0
220
0
230
1
0
LINE
5
A9
100
AcDbEntity
8
SK3
62
256
6
ByLayer
370
18
48
0.05
60
0
100
AcDbLine
10
-49.982785
20
21.85891
30
0
11
-49.982785
21
0
31
0
39
0
210
0
220
0
230
1
0
LINE
5
AA
100
AcDbEntity
8
SK3
62
256
6
ByLayer
370
18
48
0.05
60
0
100
AcDbLine
10
-49.982785
20
0
30
0
11
-49.982785
21
-21.85891
31
0
39
0
210
0
220
0
230
1
0
LINE
5
AB
100
AcDbEntity
8
SK3
62
256
6
ByLayer
370
18
48
0.05
60
0
100
AcDbLine
10
-46.295703
20
25.25
30
0
11
-46.295703
21
0
31
0
39
0
210
0
220
0
230
1
0
LINE
5
AC
100
AcDbEntity
8
SK3
62
256
6
ByLayer
370
18
48
0.05
60
0
100
AcDbLine
10
-46.295703
20
0
30
0
11
-46.295703
21
-25.25
31
0
39
0
210
0
220
0
230
1
0
LINE
5
AD
100
AcDbEntity
8
SK3
62
256
6
ByLayer
370
18
48
0.05
60
0
100
AcDbLine
10
0.4
20
-38.9
30
0
11
0.4
21
38.9
31
0
39
0
210
0
220
0
230
1
0
LINE
5
AE
100
AcDbEntity
8
SK3
62
256
6
ByLayer
370
18
48
0.05
60
0
100
AcDbLine
10
0.107107
20
39.607107
30
0
11
0.107107
21
0
31
0
39
0
210
0
220
0
230
1
0
LINE
5
AF
100
AcDbEntity
8
SK3
62
256
6
ByLayer
370
18
48
0.05
60
0
100
AcDbLine
10
0.107107
20
0
30
0
11
0.107107
21
-39.607106
31
0
39
0
210
0
220
0
230
1
0
LINE
5
B0
100
AcDbEntity
8
SK3
62
256
6
ByLayer
370
18
48
0.05
60
0
100
AcDbLine
10
0.107107
20
39.607107
30
0
11
0
21
39.714214
31
0
39
0
210
0
220
0
230
1
0
LINE
5
B1
100
AcDbEntity
8
SK3
62
256
6
ByLayer
370
18
48
0.05
60
0
100
AcDbLine
10
0
20
-39.714213
30
0
11
0.107107
21
-39.607106
31
0
39
0
210
0
220
0
230
1
0
LINE
5
B2
100
AcDbEntity
8
SK1
62
256
6
ByLayer
370
18
48
1
60
0
100
AcDbLine
10
-1.307107
20
38.192894
30
0
11
-1.738196
21
38.623983
31
0
39
0
210
0
220
0
230
1
0
LINE
5
B4
100
AcDbEntity
8
SK1
62
256
6
ByLayer
370
18
48
1
60
0
100
AcDbLine
10
-0.2
20
-12.758022
30
0
11
-0.2
21
37.362612
31
0
39
0
210
0
220
0
230
1
0
LINE
5
B5
100
AcDbEntity
8
SK1
62
256
6
ByLayer
370
18
48
1
60
0
100
AcDbLine
10
-1.307107
20
-22.945482
30
0
11
-1.307107
21
-14.968726
31
0
39
0
210
0
220
0
230
1
0
LINE
5
B6
100
AcDbEntity
8
SK1
62
256
6
ByLayer
370
18
48
1
60
0
100
AcDbLine
10
-0.2
20
-37.983485
30
0
11
-0.2
21
-24.60459
31
0
39
0
210
0
220
0
230
1
0
LINE
5
B7
100
AcDbEntity
8
SK1
62
256
6
ByLayer
370
18
48
1
60
0
100
AcDbLine
10
-1.307107
20
38.192894
30
0
11
-1.307107
21
37.914214
31
0
39
0
210
0
220
0
230
1
0
LINE
5
B8
100
AcDbEntity
8
SK3
62
256
6
ByLayer
370
18
48
0.05
60
0
100
AcDbLine
10
-32.5
20
-21.51009
30
0
11
-32.5
21
-32.048808
31
0
39
0
210
0
220
0
230
1
0
LINE
5
B9
100
AcDbEntity
8
SK3
62
256
6
ByLayer
370
18
48
0.05
60
0
100
AcDbLine
10
-59.7
20
-29
30
0
11
-59.7
21
-30.627196
31
0
39
0
210
0
220
0
230
1
0
LINE
5
BA
100
AcDbEntity
8
SK3
62
256
6
ByLayer
370
18
48
0.05
60
0
100
AcDbLine
10
-48.75
20
-29
30
0
11
-59.7
21
-29
31
0
39
0
210
0
220
0
230
1
0
LINE
5
BB
100
AcDbEntity
8
SK3
62
256
6
ByLayer
370
18
48
0.05
60
0
100
AcDbLine
10
-48.75
20
-31.732098
30
0
11
-48.75
21
-29
31
0
39
0
210
0
220
0
230
1
0
LINE
5
BC
100
AcDbEntity
8
SK3
62
256
6
ByLayer
370
18
48
0.05
60
0
100
AcDbLine
10
-45.633037
20
-32.116962
30
0
11
-48.75
21
-29
31
0
39
0
210
0
220
0
230
1
0
LINE
5
BD
100
AcDbEntity
8
SK3
62
256
6
ByLayer
370
18
48
0.05
60
0
100
AcDbLine
10
-20.5
20
-32.048808
30
0
11
-32.5
21
-32.048808
31
0
39
0
210
0
220
0
230
1
0
LINE
5
BE
100
AcDbEntity
8
SK3
62
256
6
ByLayer
370
18
48
0.05
60
0
100
AcDbLine
10
-32.5
20
-32.048808
30
0
11
-32.9
21
-32.448808
31
0
39
0
210
0
220
0
230
1
0
LINE
5
BF
100
AcDbEntity
8
SK3
62
256
6
ByLayer
370
18
48
0.05
60
0
100
AcDbLine
10
-19.77904
20
-32.769768
30
0
11
-20.5
21
-32.048808
31
0
39
0
210
0
220
0
230
1
0
LINE
5
C0
100
AcDbEntity
8
SK3
62
256
6
ByLayer
370
18
48
0.05
60
0
100
AcDbLine
10
23.503673
20
0
30
0
11
19.5
21
11
31
0
39
0
210
0
220
0
230
1
0
LINE
5
C1
100
AcDbEntity
8
SK3
62
256
6
ByLayer
370
18
48
0.05
60
0
100
AcDbLine
10
19.5
20
-11
30
0
11
23.503673
21
0
31
0
39
0
210
0
220
0
230
1
0
LINE
5
C2
100
AcDbEntity
8
SK3
62
256
6
ByLayer
370
18
48
0.05
60
0
100
AcDbLine
10
19.5
20
11
30
0
11
19.5
21
0
31
0
39
0
210
0
220
0
230
1
0
LINE
5
C3
100
AcDbEntity
8
SK3
62
256
6
ByLayer
370
18
48
0.05
60
0
100
AcDbLine
10
19.5
20
0
30
0
11
19.5
21
-11
31
0
39
0
210
0
220
0
230
1
0
LINE
5
C4
100
AcDbEntity
8
SK3
62
256
6
ByLayer
370
18
48
0.05
60
0
100
AcDbLine
10
19.5
20
11
30
0
11
-18.849009
21
11
31
0
39
0
210
0
220
0
230
1
0
LINE
5
C5
100
AcDbEntity
8
SK3
62
256
6
ByLayer
370
18
48
0.05
60
0
100
AcDbLine
10
-18.849009
20
-11
30
0
11
19.5
21
-11
31
0
39
0
210
0
220
0
230
1
0
LINE
5
C6
100
AcDbEntity
8
SK3
62
256
6
ByLayer
370
18
48
0.05
60
0
100
AcDbLine
10
-18.849009
20
11
30
0
11
-18.849009
21
0
31
0
39
0
210
0
220
0
230
1
0
LINE
5
C7
100
AcDbEntity
8
SK3
62
256
6
ByLayer
370
18
48
0.05
60
0
100
AcDbLine
10
-18.849009
20
0
30
0
11
-18.849009
21
-11
31
0
39
0
210
0
220
0
230
1
0
LINE
5
C8
100
AcDbEntity
8
SK3
62
256
6
ByLayer
370
18
48
0.05
60
0
100
AcDbLine
10
-18.849009
20
11
30
0
11
-20
21
12.5
31
0
39
0
210
0
220
0
230
1
0
LINE
5
C9
100
AcDbEntity
8
SK3
62
256
6
ByLayer
370
18
48
0.05
60
0
100
AcDbLine
10
-20
20
-12.5
30
0
11
-18.849009
21
-11
31
0
39
0
210
0
220
0
230
1
0
LINE
5
CA
100
AcDbEntity
8
SK3
62
256
6
ByLayer
370
18
48
0.05
60
0
100
AcDbLine
10
-20
20
21.0125
30
0
11
-20
21
0
31
0
39
0
210
0
220
0
230
1
0
LINE
5
CB
100
AcDbEntity
8
SK3
62
256
6
ByLayer
370
18
48
0.05
60
0
100
AcDbLine
10
-20
20
0
30
0
11
-20
21
-21.0125
31
0
39
0
210
0
220
0
230
1
0
LINE
5
CC
100
AcDbEntity
8
SK3
62
256
6
ByLayer
370
18
48
0.05
60
0
100
AcDbLine
10
-20
20
21.0125
30
0
11
-20.5
21
21.5125
31
0
39
0
210
0
220
0
230
1
0
LINE
5
CD
100
AcDbEntity
8
SK3
62
256
6
ByLayer
370
18
48
0.05
60
0
100
AcDbLine
10
-20.5
20
-21.5125
30
0
11
-20
21
-21.0125
31
0
39
0
210
0
220
0
230
1
0
LINE
5
CE
100
AcDbEntity
8
SK3
62
256
6
ByLayer
370
18
48
0.05
60
0
100
AcDbLine
10
-50.582785
20
21.5125
30
0
11
-51.882785
21
21.5125
31
0
39
0
210
0
220
0
230
1
0
LINE
5
CF
100
AcDbEntity
8
SK3
62
256
6
ByLayer
370
18
48
0.05
60
0
100
AcDbLine
10
-51.882785
20
-21.5125
30
0
11
-50.582785
21
-21.5125
31
0
39
0
210
0
220
0
230
1
0
LINE
5
D0
100
AcDbEntity
8
SK3
62
256
6
ByLayer
370
18
48
0.05
60
0
100
AcDbLine
10
-20.5
20
21.5125
30
0
11
-20.5
21
-21.5125
31
0
39
0
210
0
220
0
230
1
0
LINE
5
D1
100
AcDbEntity
8
SK3
62
256
6
ByLayer
370
18
48
0.05
60
0
100
AcDbLine
10
-20.5
20
21.5125
30
0
11
-38.982785
21
21.5125
31
0
39
0
210
0
220
0
230
1
0
LINE
5
D2
100
AcDbEntity
8
SK3
62
256
6
ByLayer
370
18
48
0.05
60
0
100
AcDbLine
10
-38.982785
20
-21.5125
30
0
11
-32.491294
21
-21.5125
31
0
39
0
210
0
220
0
230
1
0
LINE
5
D3
100
AcDbEntity
8
SK3
62
256
6
ByLayer
370
18
48
0.05
60
0
100
AcDbLine
10
-50.582785
20
21.5125
30
0
11
-50.582785
21
0
31
0
39
0
210
0
220
0
230
1
0
LINE
5
D4
100
AcDbEntity
8
SK3
62
256
6
ByLayer
370
18
48
0.05
60
0
100
AcDbLine
10
-50.582785
20
0
30
0
11
-50.582785
21
-21.5125
31
0
39
0
210
0
220
0
230
1
0
LINE
5
D5
100
AcDbEntity
8
SK3
62
256
6
ByLayer
370
18
48
0.05
60
0
100
AcDbLine
10
-50.582785
20
-21.5125
30
0
11
-49.982785
21
-21.85891
31
0
39
0
210
0
220
0
230
1
0
LINE
5
D6
100
AcDbEntity
8
SK3
62
256
6
ByLayer
370
18
48
0.05
60
0
100
AcDbLine
10
-49.982785
20
21.85891
30
0
11
-50.582785
21
21.5125
31
0
39
0
210
0
220
0
230
1
0
LINE
5
D7
100
AcDbEntity
8
SK3
62
256
6
ByLayer
370
18
48
0.05
60
0
100
AcDbLine
10
-51.882785
20
21.5125
30
0
11
-51.882785
21
0
31
0
39
0
210
0
220
0
230
1
0
LINE
5
D8
100
AcDbEntity
8
SK3
62
256
6
ByLayer
370
18
48
0.05
60
0
100
AcDbLine
10
-51.882785
20
0
30
0
11
-51.882785
21
-21.5125
31
0
39
0
210
0
220
0
230
1
0
LINE
5
D9
100
AcDbEntity
8
SK3
62
256
6
ByLayer
370
18
48
0.05
60
0
100
AcDbLine
10
-51.882785
20
21.5125
30
0
11
-57.982785
21
23.14699
31
0
39
0
210
0
220
0
230
1
0
LINE
5
DA
100
AcDbEntity
8
SK3
62
256
6
ByLayer
370
18
48
0.05
60
0
100
AcDbLine
10
-57.982785
20
-23.14699
30
0
11
-51.882785
21
-21.5125
31
0
39
0
210
0
220
0
230
1
0
LINE
5
DB
100
AcDbEntity
8
SK3
62
256
6
ByLayer
370
18
48
0.05
60
0
100
AcDbLine
10
-38.982785
20
21.5125
30
0
11
-38.982785
21
0
31
0
39
0
210
0
220
0
230
1
0
LINE
5
DC
100
AcDbEntity
8
SK3
62
256
6
ByLayer
370
18
48
0.05
60
0
100
AcDbLine
10
-38.982785
20
0
30
0
11
-38.982785
21
-21.5125
31
0
39
0
210
0
220
0
230
1
0
LINE
5
DD
100
AcDbEntity
8
4
62
256
6
ByLayer
370
18
48
0.05
60
0
100
AcDbLine
10
0
20
0
30
0
11
36
21
0
31
0
39
0
210
0
220
0
230
1
0
LINE
5
DF
100
AcDbEntity
8
SK4
62
256
6
ByLayer
370
18
48
0.05
60
0
100
AcDbLine
10
41
20
0
30
0
11
-71.19
21
0
31
0
39
0
210
0
220
0
230
1
0
LINE
5
E1
100
AcDbEntity
8
80
62
256
6
ByLayer
370
18
48
1
60
0
100
AcDbLine
10
0
20
0
30
0
11
-2
21
0
31
0
39
0
210
0
220
0
230
1
0
LINE
5
E2
100
AcDbEntity
8
81
62
256
6
ByLayer
370
18
48
1
60
0
100
AcDbLine
10
19.5
20
0
30
0
11
21.5
21
0
31
0
39
0
210
0
220
0
230
1
0
MTEXT
5
11C
100
AcDbEntity
8
SK6
62
256
6
ByLayer
370
18
48
1
60
0
100
AcDbMText
10
-11.658186
20
-68.503434
30
0
210
0
220
0
230
1
1
\W0.7989;C10_CPA_01
40
3.5
41
0
44
1.084337
50
0
71
7
72
5
7
iso_b_vert
0
DIMENSION
5
121
100
AcDbEntity
8
2
62
256
6
ByLayer
370
18
48
1
60
0
100
AcDbDimension
2
_U0
10
36
20
60.310352
30
0
11
18
21
60.310352
31
0
70
32
71
1
72
1
41
1
210
0
220
0
230
1
3
Standard
100
AcDbAlignedDimension
13
0
23
49.7
33
0
14
36
24
49
34
0
50
0
100
AcDbRotatedDimension
1001
ACAD
1000
DSTYLE
1002
{
1070
   371
1070
    13
1070
   372
1070
    13
1070
   170
1070
     0
1070
   144
1040
1.0
1070
   277
1070
     2
1070
   284
1070
     8
1070
   278
1070
    46
1070
   146
1040
1.166667
1070
   345
1005
16
1070
   347
1005
16
1070
   346
1005
16
1070
   344
1005
122
1070
   343
1005
122
1070
   172
1070
     1
1070
    76
1070
     0
1070
    75
1070
     0
1070
   282
1070
     0
1070
   281
1070
     0
1070
    71
1070
     0
1070
    74
1070
     0
1070
   279
1070
     0
1070
   173
1070
     1
1070
   340
1005
11D
1070
   271
1070
     2
1070
   272
1070
     2
1070
    77
1070
     1
1070
    73
1070
     1
1070
   171
1070
     3
1070
   274
1070
     4
1070
   177
1070
     7
1070
   176
1070
     7
1070
   178
1070
     7
1070
    78
1070
     8
1070
    48
1040
-0.1
1070
    41
1040
3.175
1070
   147
1040
1.5
1070
    42
1040
1.5875
1070
    44
1040
2.0
1070
   140
1040
3.0
1002
}
1001
ACAD_DSTYLE_DIM_LINETYPE
1070
   380
1005
16
1001
ACAD_DSTYLE_DIM_EXT1_LINETYPE
1070
   381
1005
16
1001
ACAD_DSTYLE_DIM_EXT2_LINETYPE
1070
   382
1005
16
0
DIMENSION
5
146
100
AcDbEntity
8
SK2
62
256
6
ByLayer
370
18
48
1
60
0
100
AcDbDimension
2
_U1
10
35
20
-57.422342
30
0
11
47.207143
21
-57.422342
31
0
70
32
71
1
72
1
41
1
210
0
220
0
230
1
3
Standard
100
AcDbAlignedDimension
13
36
23
-49
33
0
14
35
24
-50
34
0
50
0
100
AcDbRotatedDimension
1001
ACAD
1000
DSTYLE
1002
{
1070
   371
1070
    13
1070
   372
1070
    13
1070
   170
1070
     0
1070
   144
1040
1.0
1070
   277
1070
     2
1070
   284
1070
     8
1070
   278
1070
    46
1070
   146
1040
1.166667
1070
   345
1005
16
1070
   347
1005
16
1070
   346
1005
16
1070
   344
1005
122
1070
   343
1005
122
1070
   172
1070
     1
1070
    76
1070
     0
1070
    75
1070
     0
1070
   282
1070
     0
1070
   281
1070
     0
1070
    71
1070
     0
1070
    74
1070
     0
1070
   279
1070
     0
1070
   173
1070
     1
1070
   340
1005
11D
1070
   271
1070
     2
1070
   272
1070
     2
1070
    77
1070
     1
1070
    73
1070
     1
1070
   171
1070
     3
1070
   274
1070
     4
1070
   177
1070
     7
1070
   176
1070
     7
1070
   178
1070
     7
1070
    78
1070
     8
1070
    48
1040
-0.1
1070
    41
1040
3.175
1070
   147
1040
1.5
1070
    42
1040
1.5875
1070
    44
1040
2.0
1070
   140
1040
3.0
1002
}
1001
ACAD_DSTYLE_DIM_LINETYPE
1070
   380
1005
16
1001
ACAD_DSTYLE_DIM_EXT1_LINETYPE
1070
   381
1005
16
1001
ACAD_DSTYLE_DIM_EXT2_LINETYPE
1070
   382
1005
16
0
DIMENSION
5
165
100
AcDbEntity
8
SK2
62
256
6
ByLayer
370
18
48
1
60
0
100
AcDbDimension
2
_U2
10
61.440112
20
-50
30
0
11
61.440112
21
0
31
0
70
32
71
1
72
1
41
1
210
0
220
0
230
1
3
Standard
100
AcDbAlignedDimension
13
35
23
50
33
0
14
35
24
-50
34
0
50
-90
100
AcDbRotatedDimension
1001
ACAD
1000
DSTYLE
1002
{
1070
   371
1070
    13
1070
   372
1070
    13
1070
     3
1000
%%c<>
1070
   170
1070
     0
1070
   144
1040
1.0
1070
   277
1070
     2
1070
   284
1070
     8
1070
   278
1070
    46
1070
   146
1040
1.166667
1070
   345
1005
16
1070
   347
1005
16
1070
   346
1005
16
1070
   344
1005
122
1070
   343
1005
122
1070
   172
1070
     1
1070
    76
1070
     0
1070
    75
1070
     0
1070
   282
1070
     0
1070
   281
1070
     0
1070
    71
1070
     0
1070
    74
1070
     0
1070
   279
1070
     0
1070
   173
1070
     1
1070
   340
1005
11D
1070
   271
1070
     2
1070
   272
1070
     2
1070
    77
1070
     1
1070
    73
1070
     0
1070
   171
1070
     3
1070
   274
1070
     4
1070
   177
1070
     7
1070
   176
1070
     7
1070
   178
1070
     7
1070
    78
1070
     8
1070
    48
1040
-0.1
1070
    41
1040
3.175
1070
   147
1040
1.5
1070
    42
1040
1.5875
1070
    44
1040
2.0
1070
   140
1040
3.0
1002
}
1001
ACAD_DSTYLE_DIM_LINETYPE
1070
   380
1005
16
1001
ACAD_DSTYLE_DIM_EXT1_LINETYPE
1070
   381
1005
16
1001
ACAD_DSTYLE_DIM_EXT2_LINETYPE
1070
   382
1005
16
0
ENDSEC
0
SECTION
2
OBJECTS
0
DICTIONARY
5
1f3
330
0
100
AcDbDictionary
280
0
281
1
3
ACAD_GROUP
350
1f4
3
ACAD_MLINESTYLE
350
1f5
0
DICTIONARY
5
1f4
330
0
100
AcDbDictionary
280
0
281
1
0
DICTIONARY
5
1f5
330
0
100
AcDbDictionary
280
0
281
1
3
Standard
350
18
0
MLINESTYLE
5
18
330
1f5
100
AcDbMlineStyle
2
Standard
70
0
3

62
256
51
90
52
90
71
2
49
-0.5
62
256
6
ByLayer
49
0.5
62
256
6
ByLayer
0
RASTERVARIABLES
5
1e0
330

100
AcDbRasterVariables
90
0
70
1
71
1
72
1
0
ENDSEC
0
EOF
