0
SECTION
2
HEADER
9
$ACADVER
1
AC1015
9
$DWGCODEPAGE
3
ANSI_1252
9
$HANDSEED
5
45b
9
$ANGBASE
50
0
9
$ANGDIR
70
0
9
$ATTMODE
70
1
9
$AUNITS
70
0
9
$AUPREC
70
0
9
$CECOLOR
62
256
9
$CELTSCALE
40
1
9
$CELTYPE
6
ByLayer
9
$CELWEIGHT
370
18
9
$CLAYER
8
0
9
$CMLJUST
70
0
9
$CMLSCALE
40
1
9
$CMLSTYLE
2
Standard
9
$DIMSTYLE
2
Standard
9
$TEXTSIZE
40
0.2
9
$TEXTSTYLE
7
Standard
9
$LUNITS
70
2
9
$LUPREC
70
4
9
$EXTNAMES
290
1
9
$INSUNITS
70
4
9
$LTSCALE
40
1
9
$LWDISPLAY
290
1
9
$PDMODE
70
0
9
$PDSIZE
40
0
9
$PLINEGEN
70
0
0
ENDSEC
0
SECTION
2
CLASSES
0
CLASS
1
RASTERVARIABLES
2
AcDbRasterVariables
3
ISM
90
0
280
0
281
0
0
ENDSEC
0
SECTION
2
TABLES
0
TABLE
2
VPORT
5
451
100
AcDbSymbolTable
0
VPORT
5
1
100
AcDbSymbolTableRecord
100
AcDbViewportTableRecord
2
*Active
70
0
10
0
20
0
11
1
21
1
12
-1
22
1
13
0
23
0
14
0.5
24
0.5
15
10
25
10
16
0
26
0
36
1
17
0
27
0
37
0
0
ENDTAB
0
TABLE
2
LTYPE
5
452
100
AcDbSymbolTable
0
LTYPE
5
14
100
AcDbSymbolTableRecord
100
AcDbLinetypeTableRecord
70
0
2
ByBlock
3

72
65
73
0
40
0
0
LTYPE
5
15
100
AcDbSymbolTableRecord
100
AcDbLinetypeTableRecord
70
0
2
ByLayer
3

72
65
73
0
40
0
0
LTYPE
5
16
100
AcDbSymbolTableRecord
100
AcDbLinetypeTableRecord
70
0
2
Continuous
3
Solid line
72
65
73
0
40
0
0
LTYPE
5
6E
100
AcDbSymbolTableRecord
100
AcDbLinetypeTableRecord
70
0
2
CENTER
3
____ _ ____ _ ____ _ ____
72
65
73
4
40
47.5
49
22
74
0
49
-8.5
74
0
49
8.5
74
0
49
-8.5
74
0
0
LTYPE
5
6F
100
AcDbSymbolTableRecord
100
AcDbLinetypeTableRecord
70
0
2
DASHED
3
__ __ __ __ __ __ __ __ __
72
65
73
2
40
25.72
49
12.86
74
0
49
-12.86
74
0
0
ENDTAB
0
TABLE
2
LAYER
5
453
100
AcDbSymbolTable
0
LAYER
5
10
100
AcDbSymbolTableRecord
100
AcDbLayerTableRecord
2
0
70
0
62
7
6
Continuous
290
1
370
-3
390
0
0
LAYER
5
71
100
AcDbSymbolTableRecord
100
AcDbLayerTableRecord
2
1
70
0
62
4
6
Continuous
290
1
370
-3
390
0
0
LAYER
5
73
100
AcDbSymbolTableRecord
100
AcDbLayerTableRecord
2
80
70
0
62
-6
6
Continuous
290
1
370
-3
390
0
0
LAYER
5
75
100
AcDbSymbolTableRecord
100
AcDbLayerTableRecord
2
81
70
0
62
-3
6
Continuous
290
1
370
-3
390
0
0
LAYER
5
149
100
AcDbSymbolTableRecord
100
AcDbLayerTableRecord
2
4
70
0
62
-2
6
CENTER
290
1
370
-3
390
0
0
LAYER
5
184
100
AcDbSymbolTableRecord
100
AcDbLayerTableRecord
2
2
70
0
62
7
6
Continuous
290
1
370
-3
390
0
0
LAYER
5
366
100
AcDbSymbolTableRecord
100
AcDbLayerTableRecord
2
Defpoints
70
0
62
7
6
Continuous
290
0
370
-3
390
0
0
LAYER
5
43d
100
AcDbSymbolTableRecord
100
AcDbLayerTableRecord
2
SK1
70
0
62
4
6
Continuous
290
1
370
-3
390
0
0
LAYER
5
43e
100
AcDbSymbolTableRecord
100
AcDbLayerTableRecord
2
SK4
70
0
62
2
6
CENTER
290
1
370
-3
390
0
0
LAYER
5
43f
100
AcDbSymbolTableRecord
100
AcDbLayerTableRecord
2
SK2
70
0
62
7
6
Continuous
290
1
370
-3
390
0
0
LAYER
5
440
100
AcDbSymbolTableRecord
100
AcDbLayerTableRecord
2
SK6
70
0
62
5
6
Continuous
290
1
370
-3
390
0
0
ENDTAB
0
TABLE
2
STYLE
5
454
100
AcDbSymbolTable
0
STYLE
5
11
100
AcDbSymbolTableRecord
100
AcDbTextStyleTableRecord
2
Standard
3
txt
70
0
71
0
40
0
41
1
42
0
50
0
0
STYLE
5
341
100
AcDbSymbolTableRecord
100
AcDbTextStyleTableRecord
2
iso_b_vert
3
simplex.shx
70
0
71
0
40
0
41
1
42
0
50
0
0
STYLE
5
342
100
AcDbSymbolTableRecord
100
AcDbTextStyleTableRecord
2
DWGDirectTextStyle
3
simplex
70
0
71
0
40
0
41
1
42
0
50
0
0
ENDTAB
0
TABLE
2
DIMSTYLE
5
455
100
AcDbSymbolTable
100
AcDbDimStyleTable
0
DIMSTYLE
105
27
100
AcDbSymbolTableRecord
100
AcDbDimStyleTableRecord
2
Standard
70
0
3
<>
41
0.18
42
0.0625
44
0.18
140
0.18
147
0.09
73
0
74
0
77
1
271
2
275
0
278
52
280
0
340
11
0
ENDTAB
0
TABLE
2
VIEW
5
456
100
AcDbSymbolTable
0
ENDTAB
0
TABLE
2
UCS
5
457
100
AcDbSymbolTable
0
ENDTAB
0
TABLE
2
APPID
5
458
100
AcDbSymbolTable
0
APPID
5
12
100
AcDbSymbolTableRecord
100
AcDbRegAppTableRecord
2
ACAD
70
0
0
APPID
5
362
100
AcDbSymbolTableRecord
100
AcDbRegAppTableRecord
2
ACAD_DSTYLE_DIMBREAK
70
0
0
APPID
5
3FC
100
AcDbSymbolTableRecord
100
AcDbRegAppTableRecord
2
ACAD_DSTYLE_DIM_LINETYPE
70
0
0
APPID
5
3FD
100
AcDbSymbolTableRecord
100
AcDbRegAppTableRecord
2
ACAD_DSTYLE_DIM_EXT1_LINETYPE
70
0
0
APPID
5
3FE
100
AcDbSymbolTableRecord
100
AcDbRegAppTableRecord
2
ACAD_DSTYLE_DIM_EXT2_LINETYPE
70
0
0
APPID
5
439
100
AcDbSymbolTableRecord
100
AcDbRegAppTableRecord
2
ACAD_MLEADERVER
70
0
0
ENDTAB
0
TABLE
2
BLOCK_RECORD
5
459
100
AcDbSymbolTable
0
BLOCK_RECORD
5
1F
100
AcDbSymbolTableRecord
100
AcDbBlockTableRecord
2
*Model_Space
340
0
70
0
0
BLOCK_RECORD
5
1B
100
AcDbSymbolTableRecord
100
AcDbBlockTableRecord
2
*Paper_Space
340
0
70
0
0
BLOCK_RECORD
5
23
100
AcDbSymbolTableRecord
100
AcDbBlockTableRecord
2
*Paper_Space0
340
0
70
0
0
BLOCK_RECORD
5
367
100
AcDbSymbolTableRecord
100
AcDbBlockTableRecord
2
*D1
340
0
70
0
0
BLOCK_RECORD
5
373
100
AcDbSymbolTableRecord
100
AcDbBlockTableRecord
2
_U0
340
0
70
0
0
BLOCK_RECORD
5
37F
100
AcDbSymbolTableRecord
100
AcDbBlockTableRecord
2
*D3
340
0
70
0
0
BLOCK_RECORD
5
38B
100
AcDbSymbolTableRecord
100
AcDbBlockTableRecord
2
_U1
340
0
70
0
0
BLOCK_RECORD
5
397
100
AcDbSymbolTableRecord
100
AcDbBlockTableRecord
2
*D5
340
0
70
0
0
BLOCK_RECORD
5
3A3
100
AcDbSymbolTableRecord
100
AcDbBlockTableRecord
2
_U2
340
0
70
0
0
BLOCK_RECORD
5
3AF
100
AcDbSymbolTableRecord
100
AcDbBlockTableRecord
2
*D7
340
0
70
0
0
BLOCK_RECORD
5
3BB
100
AcDbSymbolTableRecord
100
AcDbBlockTableRecord
2
_U3
340
0
70
0
0
BLOCK_RECORD
5
3C7
100
AcDbSymbolTableRecord
100
AcDbBlockTableRecord
2
*D9
340
0
70
0
0
BLOCK_RECORD
5
3D5
100
AcDbSymbolTableRecord
100
AcDbBlockTableRecord
2
_U4
340
0
70
0
0
ENDTAB
0
ENDSEC
0
SECTION
2
BLOCKS
0
BLOCK
5
20
100
AcDbEntity
8
0
100
AcDbBlockBegin
2
*Model_Space
70
0
10
0
20
0
30
0
3
*Model_Space
0
ENDBLK
5
21
100
AcDbEntity
8
0
100
AcDbBlockEnd
0
BLOCK
5
1C
100
AcDbEntity
8
0
100
AcDbBlockBegin
2
*Paper_Space
70
0
10
0
20
0
30
0
3
*Paper_Space
0
ENDBLK
5
1D
100
AcDbEntity
8
0
100
AcDbBlockEnd
0
BLOCK
5
24
100
AcDbEntity
8
0
100
AcDbBlockBegin
2
*Paper_Space0
70
0
10
0
20
0
30
0
3
*Paper_Space0
0
ENDBLK
5
25
100
AcDbEntity
8
0
100
AcDbBlockEnd
0
BLOCK
5
368
100
AcDbEntity
8
0
100
AcDbBlockBegin
2
*D1
70
1
10
0
20
0
30
0
3
*D1
0
LINE
5
36A
100
AcDbEntity
8
0
62
256
6
ByLayer
370
-2
48
1
60
0
100
AcDbLine
10
0
20
-26.3375
30
0
11
0
21
-76.785915
31
0
39
0
210
0
220
0
230
1
0
LINE
5
36B
100
AcDbEntity
8
0
62
256
6
ByLayer
370
-2
48
1
60
0
100
AcDbLine
10
271.145
20
-25.4
30
0
11
271.145
21
-76.785915
31
0
39
0
210
0
220
0
230
1
0
LINE
5
36C
100
AcDbEntity
8
0
62
256
6
ByLayer
370
-2
48
1
60
0
100
AcDbLine
10
4.175
20
-73.610915
30
0
11
266.97
21
-73.610915
31
0
39
0
210
0
220
0
230
1
0
SOLID
5
36D
100
AcDbEntity
8
0
62
256
6
ByLayer
370
-1
48
1
60
0
100
AcDbTrace
10
4.175
20
-72.915082
30
0
11
4.175
21
-74.306748
31
0
12
0
22
-73.610915
32
0
13
0
23
-73.610915
33
0
39
0
210
0
220
0
230
1
0
SOLID
5
36E
100
AcDbEntity
8
0
62
256
6
ByLayer
370
-1
48
1
60
0
100
AcDbTrace
10
266.97
20
-74.306748
30
0
11
266.97
21
-72.915082
31
0
12
271.145
22
-73.610915
32
0
13
271.145
23
-73.610915
33
0
39
0
210
0
220
0
230
1
0
MTEXT
5
36F
100
AcDbEntity
8
0
62
256
6
ByLayer
370
18
48
1
60
0
100
AcDbMText
10
135.5725
20
-64.217165
30
0
210
0
220
0
230
1
1
\A1;271.1
40
4.5
41
0
44
1
50
0
71
5
72
5
7
iso_b_vert
0
POINT
5
370
100
AcDbEntity
8
Defpoints
62
0
6
ByLayer
370
-1
48
1
60
0
100
AcDbPoint
10
0
20
-24.75
30
0
39
0
210
0
220
0
230
1
50
360
0
POINT
5
371
100
AcDbEntity
8
Defpoints
62
0
6
ByLayer
370
-1
48
1
60
0
100
AcDbPoint
10
271.145
20
-23.8125
30
0
39
0
210
0
220
0
230
1
50
360
0
POINT
5
372
100
AcDbEntity
8
Defpoints
62
0
6
ByLayer
370
-1
48
1
60
0
100
AcDbPoint
10
271.145
20
-73.610915
30
0
39
0
210
0
220
0
230
1
50
360
0
ENDBLK
5
369
100
AcDbEntity
8
0
100
AcDbBlockEnd
0
BLOCK
5
37A
100
AcDbEntity
8
0
100
AcDbBlockBegin
2
_U0
70
0
10
0
20
0
30
0
3
_U0
0
MTEXT
5
374
100
AcDbEntity
8
2
62
256
6
ByLayer
370
18
48
1
60
0
100
AcDbMText
10
129.973773
20
-72.283243
30
0
210
0
220
0
230
1
1
\W0.6725;271.1
40
4.5
41
0
44
1.084337
50
0
71
7
72
5
7
iso_b_vert
0
LINE
5
375
100
AcDbEntity
8
2
62
256
6
ByLayer
370
13
48
1
60
0
100
AcDbLine
10
0
20
-26.3375
30
0
11
0
21
-76.785915
31
0
39
0
210
0
220
0
230
1
0
LINE
5
376
100
AcDbEntity
8
2
62
256
6
ByLayer
370
13
48
1
60
0
100
AcDbLine
10
271.145
20
-25.4
30
0
11
271.145
21
-76.785915
31
0
39
0
210
0
220
0
230
1
0
LINE
5
377
100
AcDbEntity
8
2
62
256
6
ByLayer
370
13
48
1
60
0
100
AcDbLine
10
0
20
-73.610915
30
0
11
271.145
21
-73.610915
31
0
39
0
210
0
220
0
230
1
0
SOLID
5
378
100
AcDbEntity
8
2
62
256
6
ByLayer
370
18
48
1
60
0
100
AcDbTrace
10
0
20
-73.610915
30
0
11
4.174997
21
-72.68534
31
0
12
4.175003
22
-74.53649
32
0
13
4.175003
23
-74.53649
33
0
39
0
210
0
220
0
230
1
0
SOLID
5
379
100
AcDbEntity
8
2
62
256
6
ByLayer
370
18
48
1
60
0
100
AcDbTrace
10
271.145
20
-73.610915
30
0
11
266.970003
21
-74.53649
31
0
12
266.969997
22
-72.68534
32
0
13
266.969997
23
-72.68534
33
0
39
0
210
0
220
0
230
1
0
ENDBLK
5
37B
100
AcDbEntity
8
0
100
AcDbBlockEnd
0
BLOCK
5
380
100
AcDbEntity
8
0
100
AcDbBlockBegin
2
*D3
70
1
10
0
20
0
30
0
3
*D3
0
LINE
5
382
100
AcDbEntity
8
0
62
256
6
ByLayer
370
-2
48
1
60
0
100
AcDbLine
10
-70
20
-20.6375
30
0
11
-70
21
-76.785915
31
0
39
0
210
0
220
0
230
1
0
LINE
5
383
100
AcDbEntity
8
0
62
256
6
ByLayer
370
-2
48
1
60
0
100
AcDbLine
10
0
20
-26.3375
30
0
11
0
21
-76.785915
31
0
39
0
210
0
220
0
230
1
0
LINE
5
384
100
AcDbEntity
8
0
62
256
6
ByLayer
370
-2
48
1
60
0
100
AcDbLine
10
-65.825
20
-73.610915
30
0
11
-4.175
21
-73.610915
31
0
39
0
210
0
220
0
230
1
0
SOLID
5
385
100
AcDbEntity
8
0
62
256
6
ByLayer
370
-1
48
1
60
0
100
AcDbTrace
10
-65.825
20
-72.915082
30
0
11
-65.825
21
-74.306748
31
0
12
-70
22
-73.610915
32
0
13
-70
23
-73.610915
33
0
39
0
210
0
220
0
230
1
0
SOLID
5
386
100
AcDbEntity
8
0
62
256
6
ByLayer
370
-1
48
1
60
0
100
AcDbTrace
10
-4.175
20
-74.306748
30
0
11
-4.175
21
-72.915082
31
0
12
0
22
-73.610915
32
0
13
0
23
-73.610915
33
0
39
0
210
0
220
0
230
1
0
MTEXT
5
387
100
AcDbEntity
8
0
62
256
6
ByLayer
370
18
48
1
60
0
100
AcDbMText
10
-35
20
-64.217165
30
0
210
0
220
0
230
1
1
\A1;70
40
4.5
41
0
44
1
50
0
71
5
72
5
7
iso_b_vert
0
POINT
5
388
100
AcDbEntity
8
Defpoints
62
0
6
ByLayer
370
-1
48
1
60
0
100
AcDbPoint
10
-70
20
-19.05
30
0
39
0
210
0
220
0
230
1
50
360
0
POINT
5
389
100
AcDbEntity
8
Defpoints
62
0
6
ByLayer
370
-1
48
1
60
0
100
AcDbPoint
10
0
20
-24.75
30
0
39
0
210
0
220
0
230
1
50
360
0
POINT
5
38A
100
AcDbEntity
8
Defpoints
62
0
6
ByLayer
370
-1
48
1
60
0
100
AcDbPoint
10
0
20
-73.610915
30
0
39
0
210
0
220
0
230
1
50
360
0
ENDBLK
5
381
100
AcDbEntity
8
0
100
AcDbBlockEnd
0
BLOCK
5
392
100
AcDbEntity
8
0
100
AcDbBlockBegin
2
_U1
70
0
10
0
20
0
30
0
3
_U1
0
MTEXT
5
38C
100
AcDbEntity
8
SK2
62
256
6
ByLayer
370
18
48
1
60
0
100
AcDbMText
10
-37.449242
20
-72.283243
30
0
210
0
220
0
230
1
1
\W0.6740;70
40
4.5
41
0
44
1.084337
50
0
71
7
72
5
7
iso_b_vert
0
LINE
5
38D
100
AcDbEntity
8
SK2
62
256
6
ByLayer
370
13
48
1
60
0
100
AcDbLine
10
-70
20
-20.6375
30
0
11
-70
21
-76.785915
31
0
39
0
210
0
220
0
230
1
0
LINE
5
38E
100
AcDbEntity
8
SK2
62
256
6
ByLayer
370
13
48
1
60
0
100
AcDbLine
10
0
20
-26.3375
30
0
11
0
21
-76.785915
31
0
39
0
210
0
220
0
230
1
0
LINE
5
38F
100
AcDbEntity
8
SK2
62
256
6
ByLayer
370
13
48
1
60
0
100
AcDbLine
10
-70
20
-73.610915
30
0
11
0
21
-73.610915
31
0
39
0
210
0
220
0
230
1
0
SOLID
5
390
100
AcDbEntity
8
SK2
62
256
6
ByLayer
370
18
48
1
60
0
100
AcDbTrace
10
-70
20
-73.610915
30
0
11
-65.825003
21
-72.68534
31
0
12
-65.824997
22
-74.53649
32
0
13
-65.824997
23
-74.53649
33
0
39
0
210
0
220
0
230
1
0
SOLID
5
391
100
AcDbEntity
8
SK2
62
256
6
ByLayer
370
18
48
1
60
0
100
AcDbTrace
10
0
20
-73.610915
30
0
11
-4.174997
21
-74.53649
31
0
12
-4.175003
22
-72.68534
32
0
13
-4.175003
23
-72.68534
33
0
39
0
210
0
220
0
230
1
0
ENDBLK
5
393
100
AcDbEntity
8
0
100
AcDbBlockEnd
0
BLOCK
5
398
100
AcDbEntity
8
0
100
AcDbBlockBegin
2
*D5
70
1
10
0
20
0
30
0
3
*D5
0
LINE
5
39A
100
AcDbEntity
8
0
62
256
6
ByLayer
370
-2
48
1
60
0
100
AcDbLine
10
271.145
20
-25.4
30
0
11
271.145
21
-66.785915
31
0
39
0
210
0
220
0
230
1
0
LINE
5
39B
100
AcDbEntity
8
0
62
256
6
ByLayer
370
-2
48
1
60
0
100
AcDbLine
10
5.5098
20
-26.3375
30
0
11
5.5098
21
-66.785915
31
0
39
0
210
0
220
0
230
1
0
LINE
5
39C
100
AcDbEntity
8
0
62
256
6
ByLayer
370
-2
48
1
60
0
100
AcDbLine
10
266.97
20
-63.610915
30
0
11
9.6848
21
-63.610915
31
0
39
0
210
0
220
0
230
1
0
SOLID
5
39D
100
AcDbEntity
8
0
62
256
6
ByLayer
370
-1
48
1
60
0
100
AcDbTrace
10
266.97
20
-64.306748
30
0
11
266.97
21
-62.915082
31
0
12
271.145
22
-63.610915
32
0
13
271.145
23
-63.610915
33
0
39
0
210
0
220
0
230
1
0
SOLID
5
39E
100
AcDbEntity
8
0
62
256
6
ByLayer
370
-1
48
1
60
0
100
AcDbTrace
10
9.6848
20
-62.915082
30
0
11
9.6848
21
-64.306748
31
0
12
5.5098
22
-63.610915
32
0
13
5.5098
23
-63.610915
33
0
39
0
210
0
220
0
230
1
0
MTEXT
5
39F
100
AcDbEntity
8
0
62
256
6
ByLayer
370
18
48
1
60
0
100
AcDbMText
10
138.3274
20
-54.217165
30
0
210
0
220
0
230
1
1
\A1;265.6
40
4.5
41
0
44
1
50
0
71
5
72
5
7
iso_b_vert
0
POINT
5
3A0
100
AcDbEntity
8
Defpoints
62
0
6
ByLayer
370
-1
48
1
60
0
100
AcDbPoint
10
271.145
20
-23.8125
30
0
39
0
210
0
220
0
230
1
50
360
0
POINT
5
3A1
100
AcDbEntity
8
Defpoints
62
0
6
ByLayer
370
-1
48
1
60
0
100
AcDbPoint
10
5.5098
20
-24.75
30
0
39
0
210
0
220
0
230
1
50
360
0
POINT
5
3A2
100
AcDbEntity
8
Defpoints
62
0
6
ByLayer
370
-1
48
1
60
0
100
AcDbPoint
10
5.5098
20
-63.610915
30
0
39
0
210
0
220
0
230
1
50
360
0
ENDBLK
5
399
100
AcDbEntity
8
0
100
AcDbBlockEnd
0
BLOCK
5
3AA
100
AcDbEntity
8
0
100
AcDbBlockBegin
2
_U2
70
0
10
0
20
0
30
0
3
_U2
0
MTEXT
5
3A4
100
AcDbEntity
8
SK2
62
256
6
ByLayer
370
18
48
1
60
0
100
AcDbMText
10
131.603844
20
-62.283243
30
0
210
0
220
0
230
1
1
\W0.7468;265.6
40
4.5
41
0
44
1.084337
50
0
71
7
72
5
7
iso_b_vert
0
LINE
5
3A5
100
AcDbEntity
8
SK2
62
256
6
ByLayer
370
13
48
1
60
0
100
AcDbLine
10
271.145
20
-25.4
30
0
11
271.145
21
-66.785915
31
0
39
0
210
0
220
0
230
1
0
LINE
5
3A6
100
AcDbEntity
8
SK2
62
256
6
ByLayer
370
13
48
1
60
0
100
AcDbLine
10
5.5098
20
-26.3375
30
0
11
5.5098
21
-66.785915
31
0
39
0
210
0
220
0
230
1
0
LINE
5
3A7
100
AcDbEntity
8
SK2
62
256
6
ByLayer
370
13
48
1
60
0
100
AcDbLine
10
271.145
20
-63.610915
30
0
11
5.5098
21
-63.610915
31
0
39
0
210
0
220
0
230
1
0
SOLID
5
3A8
100
AcDbEntity
8
SK2
62
256
6
ByLayer
370
18
48
1
60
0
100
AcDbTrace
10
271.145
20
-63.610915
30
0
11
266.970003
21
-64.53649
31
0
12
266.969997
22
-62.68534
32
0
13
266.969997
23
-62.68534
33
0
39
0
210
0
220
0
230
1
0
SOLID
5
3A9
100
AcDbEntity
8
SK2
62
256
6
ByLayer
370
18
48
1
60
0
100
AcDbTrace
10
5.5098
20
-63.610915
30
0
11
9.684797
21
-62.68534
31
0
12
9.684803
22
-64.53649
32
0
13
9.684803
23
-64.53649
33
0
39
0
210
0
220
0
230
1
0
ENDBLK
5
3AB
100
AcDbEntity
8
0
100
AcDbBlockEnd
0
BLOCK
5
3B0
100
AcDbEntity
8
0
100
AcDbBlockBegin
2
*D7
70
1
10
0
20
0
30
0
3
*D7
0
LINE
5
3B2
100
AcDbEntity
8
0
62
256
6
ByLayer
370
-2
48
1
60
0
100
AcDbLine
10
28.8036
20
-25.4
30
0
11
28.8036
21
-56.785915
31
0
39
0
210
0
220
0
230
1
0
LINE
5
3B3
100
AcDbEntity
8
0
62
256
6
ByLayer
370
-2
48
1
60
0
100
AcDbLine
10
271.145
20
-25.4
30
0
11
271.145
21
-56.785915
31
0
39
0
210
0
220
0
230
1
0
LINE
5
3B4
100
AcDbEntity
8
0
62
256
6
ByLayer
370
-2
48
1
60
0
100
AcDbLine
10
32.9786
20
-53.610915
30
0
11
266.97
21
-53.610915
31
0
39
0
210
0
220
0
230
1
0
SOLID
5
3B5
100
AcDbEntity
8
0
62
256
6
ByLayer
370
-1
48
1
60
0
100
AcDbTrace
10
32.9786
20
-52.915082
30
0
11
32.9786
21
-54.306748
31
0
12
28.8036
22
-53.610915
32
0
13
28.8036
23
-53.610915
33
0
39
0
210
0
220
0
230
1
0
SOLID
5
3B6
100
AcDbEntity
8
0
62
256
6
ByLayer
370
-1
48
1
60
0
100
AcDbTrace
10
266.97
20
-54.306748
30
0
11
266.97
21
-52.915082
31
0
12
271.145
22
-53.610915
32
0
13
271.145
23
-53.610915
33
0
39
0
210
0
220
0
230
1
0
MTEXT
5
3B7
100
AcDbEntity
8
0
62
256
6
ByLayer
370
18
48
1
60
0
100
AcDbMText
10
149.9743
20
-44.217165
30
0
210
0
220
0
230
1
1
\A1;242.3
40
4.5
41
0
44
1
50
0
71
5
72
5
7
iso_b_vert
0
POINT
5
3B8
100
AcDbEntity
8
Defpoints
62
0
6
ByLayer
370
-1
48
1
60
0
100
AcDbPoint
10
28.8036
20
-23.8125
30
0
39
0
210
0
220
0
230
1
50
360
0
POINT
5
3B9
100
AcDbEntity
8
Defpoints
62
0
6
ByLayer
370
-1
48
1
60
0
100
AcDbPoint
10
271.145
20
-23.8125
30
0
39
0
210
0
220
0
230
1
50
360
0
POINT
5
3BA
100
AcDbEntity
8
Defpoints
62
0
6
ByLayer
370
-1
48
1
60
0
100
AcDbPoint
10
271.145
20
-53.610915
30
0
39
0
210
0
220
0
230
1
50
360
0
ENDBLK
5
3B1
100
AcDbEntity
8
0
100
AcDbBlockEnd
0
BLOCK
5
3C2
100
AcDbEntity
8
0
100
AcDbBlockBegin
2
_U3
70
0
10
0
20
0
30
0
3
_U3
0
MTEXT
5
3BC
100
AcDbEntity
8
SK2
62
256
6
ByLayer
370
18
48
1
60
0
100
AcDbMText
10
143.01383
20
-52.283243
30
0
210
0
220
0
230
1
1
\W0.7694;242.3
40
4.5
41
0
44
1.084337
50
0
71
7
72
5
7
iso_b_vert
0
LINE
5
3BD
100
AcDbEntity
8
SK2
62
256
6
ByLayer
370
13
48
1
60
0
100
AcDbLine
10
28.8036
20
-25.4
30
0
11
28.8036
21
-56.785915
31
0
39
0
210
0
220
0
230
1
0
LINE
5
3BE
100
AcDbEntity
8
SK2
62
256
6
ByLayer
370
13
48
1
60
0
100
AcDbLine
10
271.145
20
-25.4
30
0
11
271.145
21
-56.785915
31
0
39
0
210
0
220
0
230
1
0
LINE
5
3BF
100
AcDbEntity
8
SK2
62
256
6
ByLayer
370
13
48
1
60
0
100
AcDbLine
10
28.8036
20
-53.610915
30
0
11
271.145
21
-53.610915
31
0
39
0
210
0
220
0
230
1
0
SOLID
5
3C0
100
AcDbEntity
8
SK2
62
256
6
ByLayer
370
18
48
1
60
0
100
AcDbTrace
10
28.8036
20
-53.610915
30
0
11
32.978597
21
-52.68534
31
0
12
32.978603
22
-54.53649
32
0
13
32.978603
23
-54.53649
33
0
39
0
210
0
220
0
230
1
0
SOLID
5
3C1
100
AcDbEntity
8
SK2
62
256
6
ByLayer
370
18
48
1
60
0
100
AcDbTrace
10
271.145
20
-53.610915
30
0
11
266.970003
21
-54.53649
31
0
12
266.969997
22
-52.68534
32
0
13
266.969997
23
-52.68534
33
0
39
0
210
0
220
0
230
1
0
ENDBLK
5
3C3
100
AcDbEntity
8
0
100
AcDbBlockEnd
0
BLOCK
5
3C8
100
AcDbEntity
8
0
100
AcDbBlockBegin
2
*D9
70
1
10
0
20
0
30
0
3
*D9
0
LINE
5
3CA
100
AcDbEntity
8
0
62
256
6
ByLayer
370
-2
48
1
60
0
100
AcDbLine
10
269.8684
20
-13.49375
30
0
11
269.8684
21
-46.785915
31
0
39
0
210
0
220
0
230
1
0
LINE
5
3CB
100
AcDbEntity
8
0
62
256
6
ByLayer
370
-2
48
1
60
0
100
AcDbLine
10
271.145
20
-1.5875
30
0
11
271.145
21
-46.785915
31
0
39
0
210
0
220
0
230
1
0
LINE
5
3CC
100
AcDbEntity
8
0
62
256
6
ByLayer
370
-2
48
1
60
0
100
AcDbLine
10
271.145
20
-43.610915
30
0
11
306.853929
21
-43.610915
31
0
39
0
210
0
220
0
230
1
0
LINE
5
3CD
100
AcDbEntity
8
0
62
256
6
ByLayer
370
-2
48
1
60
0
100
AcDbLine
10
265.6934
20
-43.610915
30
0
11
261.5184
21
-43.610915
31
0
39
0
210
0
220
0
230
1
0
LINE
5
3CE
100
AcDbEntity
8
0
62
256
6
ByLayer
370
-2
48
1
60
0
100
AcDbLine
10
275.32
20
-43.610915
30
0
11
279.495
21
-43.610915
31
0
39
0
210
0
220
0
230
1
0
SOLID
5
3CF
100
AcDbEntity
8
0
62
256
6
ByLayer
370
-1
48
1
60
0
100
AcDbTrace
10
265.6934
20
-44.306748
30
0
11
265.6934
21
-42.915082
31
0
12
269.8684
22
-43.610915
32
0
13
269.8684
23
-43.610915
33
0
39
0
210
0
220
0
230
1
0
SOLID
5
3D0
100
AcDbEntity
8
0
62
256
6
ByLayer
370
-1
48
1
60
0
100
AcDbTrace
10
275.32
20
-42.915082
30
0
11
275.32
21
-44.306748
31
0
12
271.145
22
-43.610915
32
0
13
271.145
23
-43.610915
33
0
39
0
210
0
220
0
230
1
0
MTEXT
5
3D1
100
AcDbEntity
8
0
62
256
6
ByLayer
370
18
48
1
60
0
100
AcDbMText
10
293.174464
20
-34.217165
30
0
210
0
220
0
230
1
1
\A1;1.28
40
4.5
41
0
44
1
50
0
71
5
72
5
7
iso_b_vert
0
POINT
5
3D2
100
AcDbEntity
8
Defpoints
62
0
6
ByLayer
370
-1
48
1
60
0
100
AcDbPoint
10
269.8684
20
-11.90625
30
0
39
0
210
0
220
0
230
1
50
360
0
POINT
5
3D3
100
AcDbEntity
8
Defpoints
62
0
6
ByLayer
370
-1
48
1
60
0
100
AcDbPoint
10
271.145
20
0
30
0
39
0
210
0
220
0
230
1
50
360
0
POINT
5
3D4
100
AcDbEntity
8
Defpoints
62
0
6
ByLayer
370
-1
48
1
60
0
100
AcDbPoint
10
271.145
20
-43.610915
30
0
39
0
210
0
220
0
230
1
50
360
0
ENDBLK
5
3C9
100
AcDbEntity
8
0
100
AcDbBlockEnd
0
BLOCK
5
3DC
100
AcDbEntity
8
0
100
AcDbBlockBegin
2
_U4
70
0
10
0
20
0
30
0
3
_U4
0
MTEXT
5
3D6
100
AcDbEntity
8
2
62
256
6
ByLayer
370
18
48
1
60
0
100
AcDbMText
10
283.496
20
-42.283243
30
0
210
0
220
0
230
1
1
\W0.6563;1.28
40
4.5
41
0
44
1.084337
50
0
71
7
72
5
7
iso_b_vert
0
LINE
5
3D7
100
AcDbEntity
8
2
62
256
6
ByLayer
370
13
48
1
60
0
100
AcDbLine
10
269.8684
20
-13.49375
30
0
11
269.8684
21
-46.785915
31
0
39
0
210
0
220
0
230
1
0
LINE
5
3D8
100
AcDbEntity
8
2
62
256
6
ByLayer
370
13
48
1
60
0
100
AcDbLine
10
271.145
20
-1.5875
30
0
11
271.145
21
-46.785915
31
0
39
0
210
0
220
0
230
1
0
LINE
5
3D9
100
AcDbEntity
8
2
62
256
6
ByLayer
370
13
48
1
60
0
100
AcDbLine
10
292.694041
20
-43.610915
30
0
11
258.6184
21
-43.610915
31
0
39
0
210
0
220
0
230
1
0
SOLID
5
3DA
100
AcDbEntity
8
2
62
256
6
ByLayer
370
18
48
1
60
0
100
AcDbTrace
10
269.8684
20
-43.610915
30
0
11
265.693403
21
-44.53649
31
0
12
265.693397
22
-42.68534
32
0
13
265.693397
23
-42.68534
33
0
39
0
210
0
220
0
230
1
0
SOLID
5
3DB
100
AcDbEntity
8
2
62
256
6
ByLayer
370
18
48
1
60
0
100
AcDbTrace
10
271.145
20
-43.610915
30
0
11
275.319997
21
-42.68534
31
0
12
275.320003
22
-44.53649
32
0
13
275.320003
23
-44.53649
33
0
39
0
210
0
220
0
230
1
0
ENDBLK
5
3DD
100
AcDbEntity
8
0
100
AcDbBlockEnd
0
ENDSEC
0
SECTION
2
ENTITIES
0
ARC
5
18D
100
AcDbEntity
8
SK1
62
256
6
ByLayer
370
13
48
1
60
0
100
AcDbCircle
39
0
10
-67.894505
20
-19.446
30
0
40
0.799999999999993
210
0
220
0
230
1
100
AcDbArc
50
70.982
51
141
0
ARC
5
18E
100
AcDbEntity
8
SK1
62
256
6
ByLayer
370
13
48
1
60
0
100
AcDbCircle
39
0
10
-67.894505
20
19.446
30
0
40
0.799999999999993
210
0
220
0
230
1
100
AcDbArc
50
219
51
289.018
0
ARC
5
18F
100
AcDbEntity
8
SK1
62
256
6
ByLayer
370
13
48
1
60
0
100
AcDbCircle
39
0
10
-0.15
20
19.196
30
0
40
0.399999999999999
210
0
220
0
230
1
100
AcDbArc
50
270
51
292.024313
0
ARC
5
190
100
AcDbEntity
8
SK1
62
256
6
ByLayer
370
13
48
1
60
0
100
AcDbCircle
39
0
10
-0.15
20
-19.196
30
0
40
0.399999999999999
210
0
220
0
230
1
100
AcDbArc
50
67.975687
51
90
0
ARC
5
191
100
AcDbEntity
8
SK1
62
256
6
ByLayer
370
13
48
1
60
0
100
AcDbCircle
39
0
10
-1.375195
20
19.196
30
0
40
0.400000000000004
210
0
220
0
230
1
100
AcDbArc
50
245
51
270
0
ARC
5
192
100
AcDbEntity
8
SK1
62
256
6
ByLayer
370
13
48
1
60
0
100
AcDbCircle
39
0
10
-1.375195
20
-19.196
30
0
40
0.400000000000004
210
0
220
0
230
1
100
AcDbArc
50
90
51
115
0
ARC
5
193
100
AcDbEntity
8
1
62
256
6
ByLayer
370
13
48
1
60
0
100
AcDbCircle
39
0
10
267.691286
20
22.314941
30
0
40
0.2
210
0
220
0
230
1
100
AcDbArc
50
8.974534
51
93
0
ARC
5
194
100
AcDbEntity
8
1
62
256
6
ByLayer
370
13
48
1
60
0
100
AcDbCircle
39
0
10
267.837333
20
9.493842
30
0
40
0.2
210
0
220
0
230
1
100
AcDbArc
50
273
51
352.543899
0
ARC
5
195
100
AcDbEntity
8
1
62
256
6
ByLayer
370
13
48
1
60
0
100
AcDbCircle
39
0
10
255.070347
20
21.418937
30
0
40
0.2
210
0
220
0
230
1
100
AcDbArc
50
76.847115
51
93
0
ARC
5
196
100
AcDbEntity
8
1
62
256
6
ByLayer
370
13
48
1
60
0
100
AcDbCircle
39
0
10
255.216393
20
8.597838
30
0
40
0.2
210
0
220
0
230
1
100
AcDbArc
50
273
51
304.880681
0
ELLIPSE
5
197
100
AcDbEntity
8
1
62
256
6
ByLayer
370
18
48
1
60
0
100
AcDbEllipse
10
262.756687
20
15.524669
30
0
11
-0.0206256003553174
21
0.393559899646808
31
0
210
0
220
0
230
1
40
0.48763
41
-2.94566969474605
42
-0.320422399685834
0
ELLIPSE
5
198
100
AcDbEntity
8
1
62
256
6
ByLayer
370
18
48
1
60
0
100
AcDbEllipse
10
262.086404
20
14.203116
30
0
11
-0.328810806110954
21
-0.21495357752659
31
0
210
0
220
0
230
1
40
0.490768
41
0.673401308867405
42
-2.94809584056064
0
ELLIPSE
5
199
100
AcDbEntity
8
1
62
256
6
ByLayer
370
18
48
1
60
0
100
AcDbEllipse
10
262.520169
20
16.254941
30
0
11
-0.21341648092587
21
0.330813521383358
31
0
210
0
220
0
230
1
40
0.48867
41
1.57317835190404
42
2.855041777775
0
ELLIPSE
5
19A
100
AcDbEntity
8
1
62
256
6
ByLayer
370
18
48
1
60
0
100
AcDbEllipse
10
261.426937
20
15.45498
30
0
11
0.087735997045646
21
-1.67410255206257
31
0
210
0
220
0
230
1
40
0.995725
41
-2.61799387799146
42
-1.5707963267949
0
ELLIPSE
5
19B
100
AcDbEntity
8
1
62
256
6
ByLayer
370
18
48
1
60
0
100
AcDbEllipse
10
261.204023
20
16.928633
30
0
11
-0.391877312290582
21
-0.0205374196870072
31
0
210
0
220
0
230
1
40
0.491826
41
0.288932900935868
42
1.5707963267949
0
ELLIPSE
5
19C
100
AcDbEntity
8
1
62
256
6
ByLayer
370
18
48
1
60
0
100
AcDbEllipse
10
261.951936
20
16.768919
30
0
11
-0.349478313243805
21
0.179405951069328
31
0
210
0
220
0
230
1
40
0.490768
41
2.94809584056026
42
-0.625095735375614
0
ELLIPSE
5
19D
100
AcDbEntity
8
1
62
256
6
ByLayer
370
18
48
1
60
0
100
AcDbEllipse
10
261.353142
20
15.451112
30
0
11
-0.149157475292372
21
2.84609417405054
31
0
210
0
220
0
230
1
40
0.995725
41
9.25163458605584E-05
42
3.14158693516109
0
ELLIPSE
5
19E
100
AcDbEntity
8
1
62
256
6
ByLayer
370
18
48
1
60
0
100
AcDbEllipse
10
261.281653
20
15.447366
30
0
11
-0.0675290843402623
21
1.28853168869383
31
0
210
0
220
0
230
1
40
0.995725
41
-3.03890209425329
42
-2.0943951023932
0
ELLIPSE
5
19F
100
AcDbEntity
8
1
62
256
6
ByLayer
370
18
48
1
60
0
100
AcDbEllipse
10
262.597799
20
14.773674
30
0
11
-0.177667934094886
21
-0.351309387087792
31
0
210
0
220
0
230
1
40
0.48867
41
-2.85504177777483
42
-1.57317835190649
0
ELLIPSE
5
1A0
100
AcDbEntity
8
1
62
256
6
ByLayer
370
18
48
1
60
0
100
AcDbEllipse
10
261.426937
20
15.45498
30
0
11
0.087735997045646
21
-1.67410255206257
31
0
210
0
220
0
230
1
40
0.995725
41
0.523598775598261
42
1.5707963267949
0
ELLIPSE
5
1A1
100
AcDbEntity
8
1
62
256
6
ByLayer
370
18
48
1
60
0
100
AcDbEllipse
10
261.281653
20
15.447366
30
0
11
0.0675290843402512
21
-1.28853168869383
31
0
210
0
220
0
230
1
40
0.995725
41
2.09439510239315
42
3.14159265358975
0
ELLIPSE
5
1A2
100
AcDbEntity
8
1
62
256
6
ByLayer
370
18
48
1
60
0
100
AcDbEllipse
10
261.426937
20
15.45498
30
0
11
0.087735997045646
21
-1.67410255206257
31
0
210
0
220
0
230
1
40
0.995725
41
1.5707963267949
42
2.61799387799155
0
ELLIPSE
5
1A3
100
AcDbEntity
8
1
62
256
6
ByLayer
370
18
48
1
60
0
100
AcDbEllipse
10
261.426937
20
15.45498
30
0
11
0.087735997045646
21
-1.67410255206257
31
0
210
0
220
0
230
1
40
0.995725
41
2.61799387799155
42
-2.61799387799146
0
ELLIPSE
5
1A4
100
AcDbEntity
8
1
62
256
6
ByLayer
370
18
48
1
60
0
100
AcDbEllipse
10
261.426937
20
15.45498
30
0
11
-0.094204721237288
21
1.79753316255823
31
0
210
0
220
0
230
1
40
0.995725
41
0
42
6.28318530717959
0
ELLIPSE
5
1A5
100
AcDbEntity
8
1
62
256
6
ByLayer
370
18
48
1
60
0
100
AcDbEllipse
10
261.426937
20
15.45498
30
0
11
0.087735997045646
21
-1.67410255206257
31
0
210
0
220
0
230
1
40
0.995725
41
-1.5707963267949
42
-0.523598775598307
0
ELLIPSE
5
1A6
100
AcDbEntity
8
1
62
256
6
ByLayer
370
18
48
1
60
0
100
AcDbEllipse
10
261.281653
20
15.447366
30
0
11
0.0675290843402512
21
-1.28853168869383
31
0
210
0
220
0
230
1
40
0.995725
41
-1.89415109854865
42
-1.23150380240864
0
ELLIPSE
5
1A7
100
AcDbEntity
8
1
62
256
6
ByLayer
370
18
48
1
60
0
100
AcDbEllipse
10
260.476902
20
16.691616
30
0
11
-0.328810806110977
21
-0.214953577526572
31
0
210
0
220
0
230
1
40
0.490768
41
2.94329838355325
42
-2.4681910031432
0
ELLIPSE
5
1A8
100
AcDbEntity
8
1
62
256
6
ByLayer
370
18
48
1
60
0
100
AcDbEllipse
10
261.359283
20
13.966099
30
0
11
-0.391877312289902
21
-0.020537419690371
31
0
210
0
220
0
230
1
40
0.491826
41
-1.5707963267949
42
-0.288932900935863
0
ELLIPSE
5
1A9
100
AcDbEntity
8
1
62
256
6
ByLayer
370
18
48
1
60
0
100
AcDbEllipse
10
261.281653
20
15.447366
30
0
11
0.0675290843402512
21
-1.28853168869383
31
0
210
0
220
0
230
1
40
0.995725
41
1.0471975511966
42
2.09439510239319
0
ELLIPSE
5
1AA
100
AcDbEntity
8
1
62
256
6
ByLayer
370
18
48
1
60
0
100
AcDbEllipse
10
262.597799
20
14.773674
30
0
11
-0.177667934101823
21
-0.351309387096515
31
0
210
0
220
0
230
1
40
0.48867
41
-1.57317835189256
42
-0.291314926052053
0
ELLIPSE
5
1AB
100
AcDbEntity
8
1
62
256
6
ByLayer
370
18
48
1
60
0
100
AcDbEllipse
10
262.520169
20
16.254941
30
0
11
-0.213416480928974
21
0.330813521389414
31
0
210
0
220
0
230
1
40
0.48867
41
0.291314926054134
42
1.57317835190775
0
ELLIPSE
5
1AC
100
AcDbEntity
8
1
62
256
6
ByLayer
370
18
48
1
60
0
100
AcDbEllipse
10
261.281653
20
15.447366
30
0
11
0.0675290843402512
21
-1.28853168869383
31
0
210
0
220
0
230
1
40
0.995725
41
3.14159265358979
42
-2.34982975905695
0
ELLIPSE
5
1AD
100
AcDbEntity
8
1
62
256
6
ByLayer
370
18
48
1
60
0
100
AcDbEllipse
10
261.426937
20
15.45498
30
0
11
0.087735997045646
21
-1.67410255206257
31
0
210
0
220
0
230
1
40
0.995725
41
-0.523598775598307
42
0.523598775598261
0
ELLIPSE
5
1AE
100
AcDbEntity
8
1
62
256
6
ByLayer
370
18
48
1
60
0
100
AcDbEllipse
10
261.281653
20
15.447366
30
0
11
0.0675290843402512
21
-1.28853168869383
31
0
210
0
220
0
230
1
40
0.995725
41
-0.773927979467099
42
0
0
ELLIPSE
5
1AF
100
AcDbEntity
8
1
62
256
6
ByLayer
370
18
48
1
60
0
100
AcDbEllipse
10
261.419632
20
15.454597
30
0
11
-0.149157475292372
21
2.84609417405054
31
0
210
0
220
0
230
1
40
0.995725
41
0
42
6.28318530717959
0
ELLIPSE
5
1B0
100
AcDbEntity
8
1
62
256
6
ByLayer
370
18
48
1
60
0
100
AcDbEllipse
10
260.61137
20
14.125813
30
0
11
-0.34947831324382
21
0.179405951069347
31
0
210
0
220
0
230
1
40
0.490768
41
2.51649656480006
42
-2.94329838355305
0
ELLIPSE
5
1B1
100
AcDbEntity
8
1
62
256
6
ByLayer
370
18
48
1
60
0
100
AcDbEllipse
10
262.349527
20
-6.187803
30
0
11
2
21
0
31
0
210
0
220
0
230
1
40
0.994435
41
0.434325410422131
42
3.01033300699299
0
ELLIPSE
5
1B2
100
AcDbEntity
8
1
62
256
6
ByLayer
370
18
48
1
60
0
100
AcDbEllipse
10
262.349527
20
-6.135128
30
0
11
-1.5
21
1.51595858262354E-15
31
0
210
0
220
0
230
1
40
0.994435
41
-3.08180407898452
42
0
0
ELLIPSE
5
1B3
100
AcDbEntity
8
1
62
256
6
ByLayer
370
18
48
1
60
0
100
AcDbEllipse
10
262.349527
20
-6.135128
30
0
11
-1.5
21
1.51595858262354E-15
31
0
210
0
220
0
230
1
40
0.994435
41
0
42
0.298255254443845
0
ELLIPSE
5
1B4
100
AcDbEntity
8
1
62
256
6
ByLayer
370
18
48
1
60
0
100
AcDbEllipse
10
262.349527
20
-6.929642
30
0
11
-2.35
21
2.37500177944355E-15
31
0
210
0
220
0
230
1
40
0.994435
41
-0.634699898548117
42
-0.499611571927691
0
ELLIPSE
5
1B5
100
AcDbEntity
8
1
62
256
6
ByLayer
370
18
48
1
60
0
100
AcDbEllipse
10
262.349527
20
-7.033779
30
0
11
-2.35
21
2.37500177944355E-15
31
0
210
0
220
0
230
1
40
0.994435
41
-0.596509873726993
42
-0.525332981749739
0
ELLIPSE
5
1B6
100
AcDbEntity
8
1
62
256
6
ByLayer
370
13
48
1
60
0
100
AcDbEllipse
10
268.983721
20
14.836958
30
0
11
0.465790010562067
21
-8.88780285931572
31
0
210
0
220
0
230
1
40
0.995725
41
3.06423017113064
42
3.11423538092932
0
ELLIPSE
5
1B7
100
AcDbEntity
8
1
62
256
6
ByLayer
370
13
48
1
60
0
100
AcDbEllipse
10
254.16695
20
7.329237
30
0
11
0.00653729335066879
21
-0.149857478277353
31
0
210
0
220
0
230
1
40
0.092367
41
-1.56998679074977
42
0.000809536047707403
0
ELLIPSE
5
1B8
100
AcDbEntity
8
1
62
256
6
ByLayer
370
13
48
1
60
0
100
AcDbEllipse
10
261.778584
20
9.259893
30
0
11
0.0104671912485858
21
-0.199725906950915
31
0
210
0
220
0
230
1
40
0.092371
41
0
42
1.5707963267949
0
ELLIPSE
5
1B9
100
AcDbEntity
8
1
62
256
6
ByLayer
370
13
48
1
60
0
100
AcDbEllipse
10
256.420556
20
6.856182
30
0
11
-0.099438316861582
21
1.8973961160337
31
0
210
0
220
0
230
1
40
0.995725
41
0.761807904943128
42
1.2619347190989
0
ELLIPSE
5
1BA
100
AcDbEntity
8
1
62
256
6
ByLayer
370
13
48
1
60
0
100
AcDbEllipse
10
261.472288
20
15.457356
30
0
11
0.16459275201709
21
-3.14061679904834
31
0
210
0
220
0
230
1
40
0.995725
41
0
42
6.28318530717959
0
ELLIPSE
5
1BB
100
AcDbEntity
8
1
62
256
6
ByLayer
370
13
48
1
60
0
100
AcDbEllipse
10
266.468675
20
24.055631
30
0
11
0.107288710298005
21
-2.04719054624689
31
0
210
0
220
0
230
1
40
0.995725
41
0.773852857220094
42
1.26193471909893
0
ELLIPSE
5
1BC
100
AcDbEntity
8
1
62
256
6
ByLayer
370
13
48
1
60
0
100
AcDbEllipse
10
267.691286
20
22.314941
30
0
11
-0.197551554484216
21
-0.0311990916673869
31
0
210
0
220
0
230
1
40
0.009655
41
1.66279490126894
42
-3.14146319860699
0
ELLIPSE
5
1BD
100
AcDbEntity
8
1
62
256
6
ByLayer
370
13
48
1
60
0
100
AcDbEllipse
10
265.933659
20
24.027592
30
0
11
0.0942047212372723
21
-1.79753316255824
31
0
210
0
220
0
230
1
40
0.995725
41
0
42
0.400544394527998
0
ELLIPSE
5
1BE
100
AcDbEntity
8
1
62
256
6
ByLayer
370
13
48
1
60
0
100
AcDbEllipse
10
254.740442
20
14.920996
30
0
11
-0.0261679781214703
21
0.499314767377316
31
0
210
0
220
0
230
1
40
0.995725
41
1.38753675533561
42
1.67551608191464
0
ELLIPSE
5
1BF
100
AcDbEntity
8
1
62
256
6
ByLayer
370
13
48
1
60
0
100
AcDbEllipse
10
270.025274
20
9.712452
30
0
11
-0.0435637040458566
21
-0.259139630114355
31
0
210
0
220
0
230
1
40
0.947521
41
0.308152981437775
42
1.60922962164601
0
ELLIPSE
5
1C0
100
AcDbEntity
8
1
62
256
6
ByLayer
370
13
48
1
60
0
100
AcDbEllipse
10
252.879299
20
21.21189
30
0
11
-0.148731686424779
21
0.0194649801757206
31
0
210
0
220
0
230
1
40
0.016833
41
-0.0909620903140982
42
1.47983423647592
0
ELLIPSE
5
1C1
100
AcDbEntity
8
1
62
256
6
ByLayer
370
13
48
1
60
0
100
AcDbEllipse
10
268.807904
20
21.834728
30
0
11
0.0994383168615647
21
-1.89739611603369
31
0
210
0
220
0
230
1
40
0.995725
41
3.11423538092927
42
3.13286600732983
0
ELLIPSE
5
1C2
100
AcDbEntity
8
1
62
256
6
ByLayer
370
13
48
1
60
0
100
AcDbEllipse
10
254.39319
20
7.389154
30
0
11
0.0104671912485859
21
-0.199725906950917
31
0
210
0
220
0
230
1
40
0.995725
41
0.0114035669059886
42
1.26193471909934
0
ELLIPSE
5
1C3
100
AcDbEntity
8
1
62
256
6
ByLayer
370
13
48
1
60
0
100
AcDbEllipse
10
268.677407
20
16.070856
30
0
11
0.197551554484211
21
0.0311990916674175
31
0
210
0
220
0
230
1
40
0.009655
41
-1.47879775232198
42
0.000129454876089171
0
ELLIPSE
5
1C4
100
AcDbEntity
8
1
62
256
6
ByLayer
370
13
48
1
60
0
100
AcDbEllipse
10
270.836784
20
15.947899
30
0
11
0.148731686424786
21
-0.0194649801756665
31
0
210
0
220
0
230
1
40
0.016833
41
-1.66175841710589
42
-0.0909620903084588
0
ELLIPSE
5
1C5
100
AcDbEntity
8
1
62
256
6
ByLayer
370
13
48
1
60
0
100
AcDbEllipse
10
269.172179
20
23.033529
30
0
11
-0.028784775933614
21
0.549246244114983
31
0
210
0
220
0
230
1
40
0.995725
41
-1.46607657167531
42
-0.0773624824593535
0
ELLIPSE
5
1C6
100
AcDbEntity
8
1
62
256
6
ByLayer
370
13
48
1
60
0
100
AcDbEllipse
10
266.487123
20
24.056598
30
0
11
-0.0942047212372881
21
1.79753316255824
31
0
210
0
220
0
230
1
40
0.995725
41
3.14159265358973
42
-1.87965793449092
0
ELLIPSE
5
1C7
100
AcDbEntity
8
1
62
256
6
ByLayer
370
13
48
1
60
0
100
AcDbEllipse
10
266.487123
20
24.056598
30
0
11
-0.099438316861582
21
1.8973961160337
31
0
210
0
220
0
230
1
40
0.995725
41
-2.37978474864671
42
-1.87965793449093
0
ELLIPSE
5
1C8
100
AcDbEntity
8
1
62
256
6
ByLayer
370
13
48
1
60
0
100
AcDbEllipse
10
254.22837
20
14.985402
30
0
11
-0.198308915233039
21
0.0259533069009607
31
0
210
0
220
0
230
1
40
0.016833
41
-1.66175841710477
42
-0.0909620903105779
0
ELLIPSE
5
1C9
100
AcDbEntity
8
1
62
256
6
ByLayer
370
13
48
1
60
0
100
AcDbEllipse
10
270.019155
20
9.700406
30
0
11
0.00785039343643943
21
-0.149794430213188
31
0
210
0
220
0
230
1
40
0.995725
41
0.104719755118172
42
1.3875367553351
0
ELLIPSE
5
1CA
100
AcDbEntity
8
1
62
256
6
ByLayer
370
13
48
1
60
0
100
AcDbEllipse
10
268.172931
20
9.407148
30
0
11
-0.157381426407577
21
-0.0466723701629242
31
0
210
0
220
0
230
1
40
0.019797
41
-1.4886372900145
42
0.0821590367482827
0
ELLIPSE
5
1CB
100
AcDbEntity
8
1
62
256
6
ByLayer
370
13
48
1
60
0
100
AcDbEllipse
10
256.415944
20
6.85594
30
0
11
-0.099438316861582
21
1.8973961160337
31
0
210
0
220
0
230
1
40
0.995725
41
0.761807904943124
42
1.2619347190989
0
ELLIPSE
5
1CC
100
AcDbEntity
8
1
62
256
6
ByLayer
370
13
48
1
60
0
100
AcDbEllipse
10
256.420556
20
6.856182
30
0
11
-0.0942047212372881
21
1.79753316255824
31
0
210
0
220
0
230
1
40
0.995725
41
0
42
1.26193471909891
0
ELLIPSE
5
1CD
100
AcDbEntity
8
1
62
256
6
ByLayer
370
13
48
1
60
0
100
AcDbEllipse
10
261.36896
20
15.451941
30
0
11
0.156043507061149
21
-2.97748748746712
31
0
210
0
220
0
230
1
40
0.995725
41
0
42
6.28318530717959
0
ELLIPSE
5
1CE
100
AcDbEntity
8
1
62
256
6
ByLayer
370
13
48
1
60
0
100
AcDbEllipse
10
254.788186
20
21.565235
30
0
11
0.00523359562429226
21
-0.0998629534754455
31
0
210
0
220
0
230
1
40
0.995725
41
1.38753675533603
42
-3.03687289846978
0
ELLIPSE
5
1CF
100
AcDbEntity
8
1
62
256
6
ByLayer
370
13
48
1
60
0
100
AcDbEllipse
10
267.837333
20
9.493842
30
0
11
-0.198308915233039
21
0.0259533069009607
31
0
210
0
220
0
230
1
40
0.016833
41
-3.1414401810346
42
-1.66175841710774
0
ELLIPSE
5
1D0
100
AcDbEntity
8
1
62
256
6
ByLayer
370
13
48
1
60
0
100
AcDbEllipse
10
255.216393
20
8.597838
30
0
11
0.0104671912485858
21
-0.199725906950915
31
0
210
0
220
0
230
1
40
0.995725
41
-1.46607657167532
42
-1.72590769066478E-05
0
ELLIPSE
5
1D1
100
AcDbEntity
8
1
62
256
6
ByLayer
370
13
48
1
60
0
100
AcDbEllipse
10
270.293799
20
16.019809
30
0
11
0.0366351693700517
21
-0.69904067432823
31
0
210
0
220
0
230
1
40
0.995725
41
1.3875367553354
42
1.67551608191455
0
ELLIPSE
5
1D2
100
AcDbEntity
8
1
62
256
6
ByLayer
370
13
48
1
60
0
100
AcDbEllipse
10
253.698871
20
7.328223
30
0
11
-0.00379960965785775
21
-0.149951868832795
31
0
210
0
220
0
230
1
40
0.092094
41
-1.56362690568454
42
-0.0716854432918384
0
ELLIPSE
5
1D3
100
AcDbEntity
8
1
62
256
6
ByLayer
370
13
48
1
60
0
100
AcDbEllipse
10
254.754646
20
23.441725
30
0
11
-2.21586849124696
21
1.36412190725702
31
0
210
0
220
0
230
1
40
0.479615
41
1.27243175712898
42
1.31166499578741
0
ELLIPSE
5
1D4
100
AcDbEntity
8
1
62
256
6
ByLayer
370
13
48
1
60
0
100
AcDbEllipse
10
255.070347
20
21.418937
30
0
11
0.0104671912485858
21
-0.199725906950915
31
0
210
0
220
0
230
1
40
0.995725
41
-3.1415731367549
42
-1.75405589825431
0
ELLIPSE
5
1D5
100
AcDbEntity
8
1
62
256
6
ByLayer
370
13
48
1
60
0
100
AcDbEllipse
10
270.019155
20
9.700406
30
0
11
-0.0235312926467606
21
0.148142763125211
31
0
210
0
220
0
230
1
40
0.091865
41
1.56109981837499
42
3.13189614513645
0
ELLIPSE
5
1D6
100
AcDbEntity
8
1
62
256
6
ByLayer
370
13
48
1
60
0
100
AcDbEllipse
10
252.783498
20
22.142717
30
0
11
-0.0435637040702506
21
-0.259139630106753
31
0
210
0
220
0
230
1
40
0.947521
41
-2.83343967206119
42
-2.1973944686294
0
ELLIPSE
5
1D7
100
AcDbEntity
8
1
62
256
6
ByLayer
370
13
48
1
60
0
100
AcDbEllipse
10
253.171546
20
7.792126
30
0
11
-0.148163665863162
21
-0.0233993187505402
31
0
210
0
220
0
230
1
40
0.009655
41
-1.47879775232166
42
0.0919985744711225
0
ELLIPSE
5
1D8
100
AcDbEntity
8
1
62
256
6
ByLayer
370
13
48
1
60
0
100
AcDbEllipse
10
268.45592
20
23.537607
30
0
11
0.0127690523125475
21
-0.24364803254854
31
0
210
0
220
0
230
1
40
0.995725
41
-2.96705972839031
42
-1.87965793448994
0
ELLIPSE
5
1D9
100
AcDbEntity
8
1
62
256
6
ByLayer
370
13
48
1
60
0
100
AcDbEllipse
10
267.837333
20
9.493842
30
0
11
0.0104671912485858
21
-0.199725906950915
31
0
210
0
220
0
230
1
40
0.995725
41
-0.280778212086851
42
2.11747652031598E-05
0
ELLIPSE
5
1DA
100
AcDbEntity
8
1
62
256
6
ByLayer
370
13
48
1
60
0
100
AcDbEllipse
10
253.878221
20
15.030922
30
0
11
-0.148731686424779
21
0.0194649801757206
31
0
210
0
220
0
230
1
40
0.016833
41
1.47983423648127
42
3.05063056328133
0
ELLIPSE
5
1DB
100
AcDbEntity
8
1
62
256
6
ByLayer
370
13
48
1
60
0
100
AcDbEllipse
10
261.394051
20
15.453256
30
0
11
0.161488764830021
21
-3.08138919525491
31
0
210
0
220
0
230
1
40
0.995725
41
-0.853733431166156
42
0
0
ELLIPSE
5
1DC
100
AcDbEntity
8
1
62
256
6
ByLayer
370
13
48
1
60
0
100
AcDbEllipse
10
261.394051
20
15.453256
30
0
11
0.161488764830021
21
-3.08138919525491
31
0
210
0
220
0
230
1
40
0.995725
41
0
42
-2.28787053660729
0
ELLIPSE
5
1DD
100
AcDbEntity
8
1
62
256
6
ByLayer
370
13
48
1
60
0
100
AcDbEllipse
10
254.095163
20
9.07781
30
0
11
0.0994383168615647
21
-1.89739611603369
31
0
210
0
220
0
230
1
40
0.995725
41
-0.0273572726605513
42
-0.00872664625994418
0
ELLIPSE
5
1DE
100
AcDbEntity
8
1
62
256
6
ByLayer
370
13
48
1
60
0
100
AcDbEllipse
10
254.441351
20
7.376458
30
0
11
-0.145139532363191
21
0.0378750068698915
31
0
210
0
220
0
230
1
40
0.028078
41
1.48264787473412
42
3.05344420152943
0
ELLIPSE
5
1DF
100
AcDbEntity
8
1
62
256
6
ByLayer
370
13
48
1
60
0
100
AcDbEllipse
10
261.129095
20
21.652886
30
0
11
0.0104671912485858
21
-0.199725906950915
31
0
210
0
220
0
230
1
40
0.092371
41
1.57125603580914
42
3.14159265358672
0
ELLIPSE
5
1E0
100
AcDbEntity
8
1
62
256
6
ByLayer
370
13
48
1
60
0
100
AcDbEllipse
10
267.691286
20
22.314941
30
0
11
0.0104671912485858
21
-0.199725906950915
31
0
210
0
220
0
230
1
40
0.995725
41
3.14157394909671
42
-2.58708947813909
0
ELLIPSE
5
1E1
100
AcDbEntity
8
1
62
256
6
ByLayer
370
13
48
1
60
0
100
AcDbEllipse
10
269.726909
20
23.12017
30
0
11
0.148163665863158
21
0.0233993187505631
31
0
210
0
220
0
230
1
40
0.009655
41
0.0919985744711399
42
1.6627949012694
0
ELLIPSE
5
1E2
100
AcDbEntity
8
1
62
256
6
ByLayer
370
13
48
1
60
0
100
AcDbEllipse
10
267.358517
20
7.429416
30
0
11
-0.0942047212372881
21
1.79753316255824
31
0
210
0
220
0
230
1
40
0.995725
41
-0.400544394528091
42
-6.34305197617679E-14
0
ELLIPSE
5
1E3
100
AcDbEntity
8
1
62
256
6
ByLayer
370
13
48
1
60
0
100
AcDbEllipse
10
269.199584
20
23.584072
30
0
11
0.00379960965785749
21
0.149951868832795
31
0
210
0
220
0
230
1
40
0.092094
41
0.00716942111453307
42
1.57796574790506
0
ELLIPSE
5
1E4
100
AcDbEntity
8
1
62
256
6
ByLayer
370
13
48
1
60
0
100
AcDbEllipse
10
253.717052
20
7.878284
30
0
11
0.0366351693700485
21
-0.699040674328169
31
0
210
0
220
0
230
1
40
0.995725
41
-1.46607657167532
42
-0.0773624824593298
0
ELLIPSE
5
1E5
100
AcDbEntity
8
1
62
256
6
ByLayer
370
13
48
1
60
0
100
AcDbEllipse
10
267.837333
20
9.493842
30
0
11
0.0455100421907231
21
0.194753269702459
31
0
210
0
220
0
230
1
40
0.088753
41
-3.11589220190644
42
-1.54509587511442
0
ELLIPSE
5
1E6
100
AcDbEntity
8
1
62
256
6
ByLayer
370
13
48
1
60
0
100
AcDbEllipse
10
269.020234
20
15.881374
30
0
11
0.148731686424786
21
-0.0194649801756665
31
0
210
0
220
0
230
1
40
0.016833
41
-2.85804977878501
42
-1.66175841710394
0
ELLIPSE
5
1E7
100
AcDbEntity
8
1
62
256
6
ByLayer
370
13
48
1
60
0
100
AcDbEllipse
10
266.728174
20
24.069232
30
0
11
-2.06114179350176
21
-1.58827103939651
31
0
210
0
220
0
230
1
40
0.479615
41
1.82992792458343
42
1.86916114001193
0
ELLIPSE
5
1E8
100
AcDbEntity
8
1
62
256
6
ByLayer
370
13
48
1
60
0
100
AcDbEllipse
10
268.679309
20
15.927377
30
0
11
0.198308915233048
21
-0.0259533069008886
31
0
210
0
220
0
230
1
40
0.016833
41
0.000152472638035989
42
1.47983423648347
0
ELLIPSE
5
1E9
100
AcDbEntity
8
1
62
256
6
ByLayer
370
13
48
1
60
0
100
AcDbEllipse
10
253.881455
20
14.787007
30
0
11
-0.148163665863162
21
-0.0233993187505402
31
0
210
0
220
0
230
1
40
0.009655
41
-3.04959407911497
42
-1.4787977523233
0
ELLIPSE
5
1EA
100
AcDbEntity
8
1
62
256
6
ByLayer
370
13
48
1
60
0
100
AcDbEllipse
10
270.279962
20
16.019084
30
0
11
-0.0287847759336171
21
0.549246244115043
31
0
210
0
220
0
230
1
40
0.995725
41
-1.75405589825431
42
-1.46607657167522
0
ELLIPSE
5
1EB
100
AcDbEntity
8
1
62
256
6
ByLayer
370
13
48
1
60
0
100
AcDbEllipse
10
255.070347
20
21.418937
30
0
11
0.198308915233048
21
-0.0259533069008886
31
0
210
0
220
0
230
1
40
0.016833
41
1.4798342364863
42
3.05063056328134
0
ELLIPSE
5
1EC
100
AcDbEntity
8
1
62
256
6
ByLayer
370
13
48
1
60
0
100
AcDbEllipse
10
269.017
20
16.125288
30
0
11
0.148163665863158
21
0.0233993187505631
31
0
210
0
220
0
230
1
40
0.009655
41
1.66279490127091
42
2.85602956831468
0
ELLIPSE
5
1ED
100
AcDbEntity
8
1
62
256
6
ByLayer
370
13
48
1
60
0
100
AcDbEllipse
10
268.167237
20
15.991783
30
0
11
0.044485562806491
21
-0.848835104541417
31
0
210
0
220
0
230
1
40
0.995725
41
1.38753675533555
42
1.67551608191467
0
ELLIPSE
5
1EE
100
AcDbEntity
8
1
62
256
6
ByLayer
370
13
48
1
60
0
100
AcDbEllipse
10
254.134506
20
7.328126
30
0
11
0.00373239490690381
21
-0.149953556904326
31
0
210
0
220
0
230
1
40
0.092336
41
-1.56825879134033
42
-0.0414707750410314
0
ELLIPSE
5
1EF
100
AcDbEntity
8
1
62
256
6
ByLayer
370
13
48
1
60
0
100
AcDbEllipse
10
266.408888
20
24.052497
30
0
11
-1.59242934825218
21
-1.39349696568423
31
0
210
0
220
0
230
1
40
0.74335
41
1.15768450151464
42
1.97984155689645
0
ELLIPSE
5
1F0
100
AcDbEntity
8
1
62
256
6
ByLayer
370
13
48
1
60
0
100
AcDbEllipse
10
268.242982
20
23.526447
30
0
11
-0.279378559895552
21
-0.215283244297043
31
0
210
0
220
0
230
1
40
0.479615
41
-2.35983386470008
42
-1.27243207078849
0
ELLIPSE
5
1F1
100
AcDbEntity
8
1
62
256
6
ByLayer
370
13
48
1
60
0
100
AcDbEllipse
10
268.812516
20
21.834969
30
0
11
0.0994383168615647
21
-1.89739611603369
31
0
210
0
220
0
230
1
40
0.995725
41
3.11423538092921
42
3.13286600732977
0
ELLIPSE
5
1F2
100
AcDbEntity
8
1
62
256
6
ByLayer
370
13
48
1
60
0
100
AcDbEllipse
10
268.114881
20
9.347303
30
0
11
0.00523359562429226
21
-0.0998629534754455
31
0
210
0
220
0
230
1
40
0.995725
41
-6.34410640751874E-06
42
0.104719755120861
0
ELLIPSE
5
1F3
100
AcDbEntity
8
1
62
256
6
ByLayer
370
13
48
1
60
0
100
AcDbEllipse
10
252.063763
20
14.80657
30
0
11
-0.148163665863162
21
-0.0233993187505402
31
0
210
0
220
0
230
1
40
0.009655
41
-1.47879775232104
42
-0.264819008250052
0
ELLIPSE
5
1F4
100
AcDbEntity
8
1
62
256
6
ByLayer
370
13
48
1
60
0
100
AcDbEllipse
10
252.06167
20
14.964397
30
0
11
-0.148731686424779
21
0.0194649801757206
31
0
210
0
220
0
230
1
40
0.016833
41
0.26318191249181
42
1.47983423648466
0
ELLIPSE
5
1F5
100
AcDbEntity
8
1
62
256
6
ByLayer
370
13
48
1
60
0
100
AcDbEllipse
10
269.570717
20
8.741056
30
0
11
-0.0435637040686218
21
-0.259139630107247
31
0
210
0
220
0
230
1
40
0.947521
41
0.308152981522493
42
1.28542437782861
0
ELLIPSE
5
1F6
100
AcDbEntity
8
1
62
256
6
ByLayer
370
13
48
1
60
0
100
AcDbEllipse
10
254.717381
20
14.919788
30
0
11
-0.0366351693700579
21
0.699040674328231
31
0
210
0
220
0
230
1
40
0.995725
41
1.38753675533553
42
1.67551608191467
0
ELLIPSE
5
1F7
100
AcDbEntity
8
1
62
256
6
ByLayer
370
13
48
1
60
0
100
AcDbEllipse
10
254.703545
20
14.919062
30
0
11
0.044485562806491
21
-0.848835104541417
31
0
210
0
220
0
230
1
40
0.995725
41
-1.75405589825424
42
-1.46607657167516
0
ELLIPSE
5
1F8
100
AcDbEntity
8
1
62
256
6
ByLayer
370
13
48
1
60
0
100
AcDbEllipse
10
253.304874
20
22.743574
30
0
11
-0.300351321605571
21
0.184900888623651
31
0
210
0
220
0
230
1
40
0.479615
41
-1.86916058279919
42
-0.781758788885442
0
ELLIPSE
5
1F9
100
AcDbEntity
8
1
62
256
6
ByLayer
370
13
48
1
60
0
100
AcDbEllipse
10
254.721993
20
14.920029
30
0
11
0.0366351693700517
21
-0.699040674328231
31
0
210
0
220
0
230
1
40
0.995725
41
-1.75405589825422
42
-1.46607657167516
0
ELLIPSE
5
1FA
100
AcDbEntity
8
1
62
256
6
ByLayer
370
13
48
1
60
0
100
AcDbEllipse
10
253.919346
20
16.075579
30
0
11
0.465790010562067
21
-8.88780285931572
31
0
210
0
220
0
230
1
40
0.995725
41
-0.0773624824591685
42
-0.0273572726604747
0
ELLIPSE
5
1FB
100
AcDbEntity
8
1
62
256
6
ByLayer
370
13
48
1
60
0
100
AcDbEllipse
10
267.691286
20
22.314941
30
0
11
-0.11437386031599
21
0.164068949153758
31
0
210
0
220
0
230
1
40
0.07853
41
-1.61960141451337
42
-0.0488050877177041
0
ELLIPSE
5
1FC
100
AcDbEntity
8
1
62
256
6
ByLayer
370
13
48
1
60
0
100
AcDbEllipse
10
267.935539
20
22.683341
30
0
11
0.00523359562429184
21
-0.0998629534754374
31
0
210
0
220
0
230
1
40
0.995725
41
-2.37978474864747
42
-1.4660765716753
0
ELLIPSE
5
1FD
100
AcDbEntity
8
1
62
256
6
ByLayer
370
13
48
1
60
0
100
AcDbEllipse
10
268.172931
20
9.407148
30
0
11
-0.0427993177776401
21
-0.158580925154234
31
0
210
0
220
0
230
1
40
0.080206
41
-1.54458133968611
42
0.0262149871101124
0
ELLIPSE
5
1FE
100
AcDbEntity
8
1
62
256
6
ByLayer
370
13
48
1
60
0
100
AcDbEllipse
10
268.988333
20
14.8372
30
0
11
0.465790010562067
21
-8.88780285931572
31
0
210
0
220
0
230
1
40
0.995725
41
3.06423017113062
42
3.1142353809293
0
ELLIPSE
5
1FF
100
AcDbEntity
8
1
62
256
6
ByLayer
370
13
48
1
60
0
100
AcDbEllipse
10
253.698603
20
7.877317
30
0
11
-0.028784775933614
21
0.549246244114983
31
0
210
0
220
0
230
1
40
0.995725
41
1.67551608191448
42
3.06423017113044
0
ELLIPSE
5
200
100
AcDbEntity
8
1
62
256
6
ByLayer
370
13
48
1
60
0
100
AcDbEllipse
10
270.023768
20
9.700647
30
0
11
0.00785039343643943
21
-0.149794430213188
31
0
210
0
220
0
230
1
40
0.995725
41
0.104719755118906
42
1.3875367553351
0
ELLIPSE
5
201
100
AcDbEntity
8
1
62
256
6
ByLayer
370
13
48
1
60
0
100
AcDbEllipse
10
254.379354
20
7.388429
30
0
11
-0.002616797812147
21
0.0499314767377309
31
0
210
0
220
0
230
1
40
0.995725
41
3.13286600733281
42
-1.87965793448985
0
ELLIPSE
5
202
100
AcDbEntity
8
1
62
256
6
ByLayer
370
13
48
1
60
0
100
AcDbEllipse
10
254.783574
20
21.564993
30
0
11
0.00523359562429226
21
-0.0998629534754455
31
0
210
0
220
0
230
1
40
0.995725
41
1.3875367553369
42
3.14158141713801
0
ELLIPSE
5
203
100
AcDbEntity
8
1
62
256
6
ByLayer
370
13
48
1
60
0
100
AcDbEllipse
10
255.073933
20
23.458458
30
0
11
-1.72936595006236
21
1.21940905087857
31
0
210
0
220
0
230
1
40
0.74335
41
1.1617510966991
42
1.98390815207557
0
ELLIPSE
5
204
100
AcDbEntity
8
1
62
256
6
ByLayer
370
13
48
1
60
0
100
AcDbEllipse
10
254.451759
20
7.375172
30
0
11
0.0127690523125475
21
-0.24364803254854
31
0
210
0
220
0
230
1
40
0.995725
41
0.17453292519952
42
1.26193471909973
0
ELLIPSE
5
205
100
AcDbEntity
8
1
62
256
6
ByLayer
370
13
48
1
60
0
100
AcDbEllipse
10
252.882405
20
21.200327
30
0
11
-0.0435637040732013
21
-0.259139630105926
31
0
210
0
220
0
230
1
40
0.947521
41
-2.83343967205107
42
-1.53236303182763
0
ELLIPSE
5
206
100
AcDbEntity
8
1
62
256
6
ByLayer
370
13
48
1
60
0
100
AcDbEllipse
10
268.457104
20
23.535837
30
0
11
0.145139532363188
21
-0.0378750068699017
31
0
210
0
220
0
230
1
40
0.028078
41
3.05344420153006
42
-1.6589447788559
0
ELLIPSE
5
207
100
AcDbEntity
8
1
62
256
6
ByLayer
370
13
48
1
60
0
100
AcDbEllipse
10
252.883912
20
21.212132
30
0
11
0.00785039343643943
21
-0.149794430213188
31
0
210
0
220
0
230
1
40
0.995725
41
-3.03687289847124
42
-1.7540558982547
0
ELLIPSE
5
208
100
AcDbEntity
8
1
62
256
6
ByLayer
370
13
48
1
60
0
100
AcDbEllipse
10
254.725523
20
21.505148
30
0
11
-0.0427993177770013
21
-0.158580925150879
31
0
210
0
220
0
230
1
40
0.080206
41
-3.11537766648103
42
-1.54458133966117
0
ELLIPSE
5
209
100
AcDbEntity
8
1
62
256
6
ByLayer
370
13
48
1
60
0
100
AcDbEllipse
10
256.402107
20
6.855215
30
0
11
0.107288710298005
21
-2.04719054624689
31
0
210
0
220
0
230
1
40
0.995725
41
-2.36773979636974
42
-1.87965793449088
0
ELLIPSE
5
20A
100
AcDbEntity
8
1
62
256
6
ByLayer
370
13
48
1
60
0
100
AcDbEllipse
10
252.59082
20
14.891761
30
0
11
-0.0287847759336171
21
0.549246244115043
31
0
210
0
220
0
230
1
40
0.995725
41
1.38753675533544
42
1.67551608191452
0
ELLIPSE
5
20B
100
AcDbEntity
8
1
62
256
6
ByLayer
370
13
48
1
60
0
100
AcDbEllipse
10
255.216393
20
8.597838
30
0
11
0.197551554484211
21
0.0311990916674175
31
0
210
0
220
0
230
1
40
0.009655
41
-3.04959407911806
42
-1.47879775232142
0
ELLIPSE
5
20C
100
AcDbEntity
8
1
62
256
6
ByLayer
370
13
48
1
60
0
100
AcDbEllipse
10
270.298411
20
16.020051
30
0
11
0.0366351693700517
21
-0.69904067432823
31
0
210
0
220
0
230
1
40
0.995725
41
1.3875367553354
42
1.67551608191447
0
ELLIPSE
5
20D
100
AcDbEntity
8
1
62
256
6
ByLayer
370
13
48
1
60
0
100
AcDbEllipse
10
269.186015
20
23.034254
30
0
11
0.0366351693700485
21
-0.699040674328169
31
0
210
0
220
0
230
1
40
0.995725
41
1.67551608191448
42
3.06423017113059
0
ELLIPSE
5
20E
100
AcDbEntity
8
1
62
256
6
ByLayer
370
13
48
1
60
0
100
AcDbEllipse
10
269.190628
20
23.034495
30
0
11
0.0366351693700485
21
-0.699040674328169
31
0
210
0
220
0
230
1
40
0.995725
41
1.67551608191448
42
3.06423017113051
0
ELLIPSE
5
20F
100
AcDbEntity
8
1
62
256
6
ByLayer
370
13
48
1
60
0
100
AcDbEllipse
10
266.805053
20
7.40041
30
0
11
0.0942047212372723
21
-1.79753316255824
31
0
210
0
220
0
230
1
40
0.995725
41
2.08010839125071
42
2.74715904466377
0
ELLIPSE
5
210
100
AcDbEntity
8
1
62
256
6
ByLayer
370
13
48
1
60
0
100
AcDbEllipse
10
268.763949
20
23.58417
30
0
11
-0.00373239490690373
21
0.149953556904326
31
0
210
0
220
0
230
1
40
0.092336
41
0.00253753545169881
42
1.57333386224927
0
ELLIPSE
5
211
100
AcDbEntity
8
1
62
256
6
ByLayer
370
13
48
1
60
0
100
AcDbEllipse
10
252.879299
20
21.21189
30
0
11
0.0235312926467403
21
-0.148142763125215
31
0
210
0
220
0
230
1
40
0.091865
41
-3.05123893779637
42
-1.58049283527298
0
ELLIPSE
5
212
100
AcDbEntity
8
1
62
256
6
ByLayer
370
13
48
1
60
0
100
AcDbEllipse
10
268.503082
20
23.573094
30
0
11
-0.0065372933506693
21
0.149857478277353
31
0
210
0
220
0
230
1
40
0.092367
41
0.000809536045784406
42
1.57160586284002
0
ELLIPSE
5
213
100
AcDbEntity
8
1
62
256
6
ByLayer
370
13
48
1
60
0
100
AcDbEllipse
10
268.185686
20
15.99275
30
0
11
0.0366351693700517
21
-0.699040674328231
31
0
210
0
220
0
230
1
40
0.995725
41
1.38753675533557
42
1.67551608191463
0
ELLIPSE
5
214
100
AcDbEntity
8
1
62
256
6
ByLayer
370
13
48
1
60
0
100
AcDbEllipse
10
254.967528
20
8.229196
30
0
11
0.00523359562429184
21
-0.0998629534754374
31
0
210
0
220
0
230
1
40
0.995725
41
0.761807904940755
42
1.67551608191249
0
ELLIPSE
5
215
100
AcDbEntity
8
1
62
256
6
ByLayer
370
13
48
1
60
0
100
AcDbEllipse
10
268.509877
20
23.523384
30
0
11
0.0104671912485859
21
-0.199725906950917
31
0
210
0
220
0
230
1
40
0.995725
41
3.13286600733052
42
-1.87965793449045
0
ELLIPSE
5
216
100
AcDbEntity
8
1
62
256
6
ByLayer
370
13
48
1
60
0
100
AcDbEllipse
10
268.119494
20
9.347544
30
0
11
0.00523359562429226
21
-0.0998629534754455
31
0
210
0
220
0
230
1
40
0.995725
41
-1.75405589825376
42
0.104719755119744
0
ELLIPSE
5
217
100
AcDbEntity
8
1
62
256
6
ByLayer
370
13
48
1
60
0
100
AcDbEllipse
10
268.491428
20
23.522417
30
0
11
-0.002616797812147
21
0.0499314767377309
31
0
210
0
220
0
230
1
40
0.995725
41
-0.00872664625809203
42
1.26193471909935
0
ELLIPSE
5
218
100
AcDbEntity
8
1
62
256
6
ByLayer
370
13
48
1
60
0
100
AcDbEllipse
10
268.204135
20
15.993717
30
0
11
-0.0261679781214703
21
0.499314767377316
31
0
210
0
220
0
230
1
40
0.995725
41
-1.75405589825419
42
-1.4660765716751
0
ELLIPSE
5
219
100
AcDbEntity
8
1
62
256
6
ByLayer
370
13
48
1
60
0
100
AcDbEllipse
10
254.972141
20
8.229438
30
0
11
0.00523359562429184
21
-0.0998629534754374
31
0
210
0
220
0
230
1
40
0.995725
41
0.761807904941638
42
1.67551608191478
0
ELLIPSE
5
21A
100
AcDbEntity
8
1
62
256
6
ByLayer
370
13
48
1
60
0
100
AcDbEllipse
10
254.230272
20
14.841923
30
0
11
-0.197551554484216
21
-0.0311990916673869
31
0
210
0
220
0
230
1
40
0.009655
41
0.0919985744754408
42
1.66279490126951
0
ELLIPSE
5
21B
100
AcDbEntity
8
1
62
256
6
ByLayer
370
13
48
1
60
0
100
AcDbEllipse
10
270.019155
20
9.700406
30
0
11
0.148731686424786
21
-0.0194649801756665
31
0
210
0
220
0
230
1
40
0.016833
41
-1.6617584170979
42
-0.0909620903084588
0
ELLIPSE
5
21C
100
AcDbEntity
8
1
62
256
6
ByLayer
370
13
48
1
60
0
100
AcDbEllipse
10
255.549162
20
23.483363
30
0
11
-0.0942047212372881
21
1.79753316255824
31
0
210
0
220
0
230
1
40
0.995725
41
2.74104825906177
42
-3.14159265358976
0
ELLIPSE
5
21D
100
AcDbEntity
8
1
62
256
6
ByLayer
370
13
48
1
60
0
100
AcDbEllipse
10
255.070347
20
21.418937
30
0
11
-0.0455100421907632
21
-0.194753269702449
31
0
210
0
220
0
230
1
40
0.088753
41
1.59649677847452
42
-3.11589220191114
0
ELLIPSE
5
21E
100
AcDbEntity
8
1
62
256
6
ByLayer
370
13
48
1
60
0
100
AcDbEllipse
10
254.076715
20
9.076843
30
0
11
-0.0915879234251407
21
1.74760168582051
31
0
210
0
220
0
230
1
40
0.995725
41
3.11423538092926
42
3.13286600732981
0
ELLIPSE
5
21F
100
AcDbEntity
8
1
62
256
6
ByLayer
370
13
48
1
60
0
100
AcDbEllipse
10
268.731505
20
23.583059
30
0
11
-0.0065372933506693
21
0.149857478277353
31
0
210
0
220
0
230
1
40
0.092367
41
0.000809536049887126
42
1.57160586284002
0
ELLIPSE
5
220
100
AcDbEntity
8
1
62
256
6
ByLayer
370
13
48
1
60
0
100
AcDbEllipse
10
254.395373
20
7.339202
30
0
11
0.00653729335066879
21
-0.149857478277353
31
0
210
0
220
0
230
1
40
0.092367
41
-1.56998679074977
42
-0.0232440763773828
0
ELLIPSE
5
221
100
AcDbEntity
8
1
62
256
6
ByLayer
370
13
48
1
60
0
100
AcDbEllipse
10
266.883288
20
7.40451
30
0
11
-1.4039410756381
21
-1.50837379631413
31
0
210
0
220
0
230
1
40
0.735668
41
2.56900210138223
42
-2.8920261504153
0
ELLIPSE
5
222
100
AcDbEntity
8
1
62
256
6
ByLayer
370
13
48
1
60
0
100
AcDbEllipse
10
253.900897
20
16.074612
30
0
11
-0.457939617125705
21
8.73800842910253
31
0
210
0
220
0
230
1
40
0.995725
41
3.06423017113061
42
3.1142353809293
0
ELLIPSE
5
223
100
AcDbEntity
8
1
62
256
6
ByLayer
370
13
48
1
60
0
100
AcDbEllipse
10
254.397802
20
7.389396
30
0
11
0.0104671912485859
21
-0.199725906950917
31
0
210
0
220
0
230
1
40
0.995725
41
-0.00872664625898523
42
1.26193471909934
0
ELLIPSE
5
224
100
AcDbEntity
8
1
62
256
6
ByLayer
370
13
48
1
60
0
100
AcDbEllipse
10
268.794067
20
21.834003
30
0
11
-0.0915879234251407
21
1.74760168582051
31
0
210
0
220
0
230
1
40
0.995725
41
-0.0273572726605339
42
-0.00872664625998746
0
ELLIPSE
5
225
100
AcDbEntity
8
1
62
256
6
ByLayer
370
13
48
1
60
0
100
AcDbEllipse
10
255.216393
20
8.597838
30
0
11
0.114373860315986
21
-0.164068949153761
31
0
210
0
220
0
230
1
40
0.07853
41
3.35013672850009E-05
42
1.52199123907684
0
ELLIPSE
5
226
100
AcDbEntity
8
1
62
256
6
ByLayer
370
13
48
1
60
0
100
AcDbEllipse
10
252.609268
20
14.892728
30
0
11
0.0366351693700517
21
-0.69904067432823
31
0
210
0
220
0
230
1
40
0.995725
41
-1.75405589825435
42
-1.46607657167528
0
ELLIPSE
5
227
100
AcDbEntity
8
1
62
256
6
ByLayer
370
13
48
1
60
0
100
AcDbEllipse
10
270.834692
20
16.105726
30
0
11
0.148163665863158
21
0.0233993187505631
31
0
210
0
220
0
230
1
40
0.009655
41
0.0919985744686624
42
1.66279490126826
0
ELLIPSE
5
228
100
AcDbEntity
8
1
62
256
6
ByLayer
370
13
48
1
60
0
100
AcDbEllipse
10
254.725523
20
21.505148
30
0
11
-0.157381426398875
21
-0.0466723701603584
31
0
210
0
220
0
230
1
40
0.019797
41
-3.05943361685067
42
-1.48863729001359
0
ELLIPSE
5
229
100
AcDbEntity
8
1
62
256
6
ByLayer
370
13
48
1
60
0
100
AcDbEllipse
10
268.969885
20
14.836233
30
0
11
-0.457939617125705
21
8.73800842910253
31
0
210
0
220
0
230
1
40
0.995725
41
-0.0773624824591612
42
-0.0273572726604685
0
ELLIPSE
5
22A
100
AcDbEntity
8
1
62
256
6
ByLayer
370
13
48
1
60
0
100
AcDbEllipse
10
251.165675
20
7.488535
30
0
11
-0.293690420649028
21
-0.955900589401951
31
0
210
0
220
0
230
1
40
0.0868
41
-1.53907871771949
42
-0.0766865970346325
0
ELLIPSE
5
22B
100
AcDbEntity
8
1
62
256
6
ByLayer
370
13
48
1
60
0
100
AcDbEllipse
10
254.05323
20
15.187069
30
0
11
0.136073486231615
21
-2.59643679036189
31
0
210
0
220
0
230
1
40
0.995725
41
-2.2042419880975
42
-1.46607657167525
0
ELLIPSE
5
22C
100
AcDbEntity
8
1
62
256
6
ByLayer
370
13
48
1
60
0
100
AcDbEllipse
10
253.531804
20
0
30
0
11
-1.22730830705212
21
23.2169090746428
31
0
210
0
220
0
230
1
40
0.092638
41
-0.120380160133018
42
-0.00489743552329756
0
ELLIPSE
5
22D
100
AcDbEntity
8
1
62
256
6
ByLayer
370
13
48
1
60
0
100
AcDbEllipse
10
1179.881527
20
-0.40418
30
0
11
-1047.14989059389
21
0.472618426424481
31
0
210
0
220
0
230
1
40
0.047765
41
-0.47829485674476
42
-0.472032772716465
0
ELLIPSE
5
22E
100
AcDbEntity
8
1
62
256
6
ByLayer
370
13
48
1
60
0
100
AcDbEllipse
10
247.145
20
6.499527
30
0
11
-3
21
3.03191716524709E-15
31
0
210
0
220
0
230
1
40
0.759716
41
-2.99752950244609
42
-1.69527586250877
0
ELLIPSE
5
22F
100
AcDbEntity
8
1
62
256
6
ByLayer
370
13
48
1
60
0
100
AcDbEllipse
10
247.145
20
5.822694
30
0
11
-4.99966187337477
21
0.0715087101479016
31
0
210
0
220
0
230
1
40
0.813162
41
1.76439363721146
42
1.87830766507674
0
ELLIPSE
5
230
100
AcDbEntity
8
1
62
256
6
ByLayer
370
13
48
1
60
0
100
AcDbEllipse
10
268.672527
20
-14.744708
30
0
11
-0.295491725518443
21
-2.48980215568436
31
0
210
0
220
0
230
1
40
0.117251
41
0
42
6.28318530717959
0
ELLIPSE
5
231
100
AcDbEntity
8
1
62
256
6
ByLayer
370
13
48
1
60
0
100
AcDbEllipse
10
253.691634
20
16.089755
30
0
11
-0.471023606186439
21
8.98766581279117
31
0
210
0
220
0
230
1
40
0.995725
41
-2.91693381338438
42
-2.83440246605358
0
ELLIPSE
5
232
100
AcDbEntity
8
1
62
256
6
ByLayer
370
13
48
1
60
0
100
AcDbEllipse
10
254.399478
20
9.35383
30
0
11
0.136073486231615
21
-2.59643679036189
31
0
210
0
220
0
230
1
40
0.995725
41
-2.08239418575104
42
-0.581932527432439
0
ELLIPSE
5
233
100
AcDbEntity
8
1
62
256
6
ByLayer
370
13
48
1
60
0
100
AcDbEllipse
10
262.147789
20
-6.000315
30
0
11
2
21
0
31
0
210
0
220
0
230
1
40
0.994435
41
0.750055475199147
42
2.95643511063737
0
ELLIPSE
5
234
100
AcDbEntity
8
1
62
256
6
ByLayer
370
13
48
1
60
0
100
AcDbEllipse
10
269.749857
20
0.132978
30
0
11
-0.0213710931407037
21
1.01120890948923
31
0
210
0
220
0
230
1
40
0.102266
41
-0.120241330735475
42
1.06346457213108
0
ELLIPSE
5
235
100
AcDbEntity
8
1
62
256
6
ByLayer
370
13
48
1
60
0
100
AcDbEllipse
10
253.256055
20
7.992121
30
0
11
-3.96879667371463
21
-0.704906652550804
31
0
210
0
220
0
230
1
40
0.015321
41
-3.01817314093016
42
-2.71671453998005
0
ELLIPSE
5
236
100
AcDbEntity
8
1
62
256
6
ByLayer
370
13
48
1
60
0
100
AcDbEllipse
10
251.632208
20
10.728556
30
0
11
-0.026167978121469
21
0.49931476737729
31
0
210
0
220
0
230
1
40
0.995725
41
-2.08239418575102
42
-1.46607657167526
0
ELLIPSE
5
237
100
AcDbEntity
8
1
62
256
6
ByLayer
370
13
48
1
60
0
100
AcDbEllipse
10
1030.390221
20
0
30
0
11
-1265.19037953379
21
17.9592487676778
31
0
210
0
220
0
230
1
40
0.01163
41
0.906522934491314
42
0.923939870574582
0
ELLIPSE
5
238
100
AcDbEntity
8
1
62
256
6
ByLayer
370
13
48
1
60
0
100
AcDbEllipse
10
260.702876
20
-2.632703
30
0
11
0.575695518672216
21
-10.9849248823003
31
0
210
0
220
0
230
1
40
0.995725
41
3.14159265358978
42
-2.83440246605357
0
ELLIPSE
5
239
100
AcDbEntity
8
1
62
256
6
ByLayer
370
13
48
1
60
0
100
AcDbEllipse
10
261.012064
20
8.398596
30
0
11
-3.96879668269246
21
-0.704906654182031
31
0
210
0
220
0
230
1
40
0.015321
41
-3.0181731410812
42
-2.71671454046576
0
ELLIPSE
5
23A
100
AcDbEntity
8
1
62
256
6
ByLayer
370
13
48
1
60
0
100
AcDbEllipse
10
254.399478
20
9.35383
30
0
11
0.136073486231615
21
-2.59643679036189
31
0
210
0
220
0
230
1
40
0.995725
41
0.68706273351714
42
1.13806179252789
0
ELLIPSE
5
23B
100
AcDbEntity
8
1
62
256
6
ByLayer
370
13
48
1
60
0
100
AcDbEllipse
10
273.950158
20
0
30
0
11
-47.0595119820934
21
19.7864274501402
31
0
210
0
220
0
230
1
40
0.248298
41
0.748744422947755
42
0.991436426772742
0
ELLIPSE
5
23C
100
AcDbEntity
8
1
62
256
6
ByLayer
370
13
48
1
60
0
100
AcDbEllipse
10
282.658064
20
1E-05
30
0
11
-248.049579027147
21
0.11252758146735
31
0
210
0
220
0
230
1
40
0.092638
41
-1.42752769348222
42
-1.41178714276272
0
ELLIPSE
5
23D
100
AcDbEntity
8
1
62
256
6
ByLayer
370
13
48
1
60
0
100
AcDbEllipse
10
269.762237
20
7.276786
30
0
11
-0.00953739020488432
21
0.500183279001055
31
0
210
0
220
0
230
1
40
0.104979
41
1.92335867021926
42
-2.78903031016563
0
ELLIPSE
5
23E
100
AcDbEntity
8
1
62
256
6
ByLayer
370
13
48
1
60
0
100
AcDbEllipse
10
253.809116
20
9.32289
30
0
11
-0.109905508110169
21
2.0971220229846
31
0
210
0
220
0
230
1
40
0.995725
41
2.21256348619052
42
2.73234058532499
0
ELLIPSE
5
23F
100
AcDbEntity
8
1
62
256
6
ByLayer
370
13
48
1
60
0
100
AcDbEllipse
10
253.809116
20
9.32289
30
0
11
-0.109905508110169
21
2.0971220229846
31
0
210
0
220
0
230
1
40
0.995725
41
-2.74205116610981
42
-2.08304175459135
0
ELLIPSE
5
240
100
AcDbEntity
8
1
62
256
6
ByLayer
370
13
48
1
60
0
100
AcDbEllipse
10
253.855238
20
9.325307
30
0
11
0.136073486231615
21
-2.59643679036189
31
0
210
0
220
0
230
1
40
0.995725
41
0.0555653949272884
42
1.07574208457343
0
ELLIPSE
5
241
100
AcDbEntity
8
1
62
256
6
ByLayer
370
13
48
1
60
0
100
AcDbEllipse
10
269.462549
20
10.543801
30
0
11
-0.0804454850098949
21
2.5991844766935
31
0
210
0
220
0
230
1
40
0.529767
41
2.96985050990798
42
-3.13024406778031
0
ELLIPSE
5
242
100
AcDbEntity
8
1
62
256
6
ByLayer
370
13
48
1
60
0
100
AcDbEllipse
10
269.235674
20
8.829578
30
0
11
-0.0190747804387009
21
1.00036655862469
31
0
210
0
220
0
230
1
40
0.104979
41
-3.13809616056502
42
-2.59583263026741
0
ELLIPSE
5
243
100
AcDbEntity
8
1
62
256
6
ByLayer
370
13
48
1
60
0
100
AcDbEllipse
10
263.636694
20
11.440127
30
0
11
-1.65564191950943
21
-2.05486645213785
31
0
210
0
220
0
230
1
40
0.966608
41
0.713732917440339
42
1.07490334583857
0
ELLIPSE
5
244
100
AcDbEntity
8
1
62
256
6
ByLayer
370
13
48
1
60
0
100
AcDbEllipse
10
262.147789
20
-6.000315
30
0
11
-2.1
21
2.12234201567296E-15
31
0
210
0
220
0
230
1
40
0.994435
41
-2.75498031966591
42
-0.284117655008512
0
ELLIPSE
5
245
100
AcDbEntity
8
1
62
256
6
ByLayer
370
13
48
1
60
0
100
AcDbEllipse
10
269.78687
20
8.305546
30
0
11
-0.0190690707678603
21
-0.501607026758369
31
0
210
0
220
0
230
1
40
0.195483
41
-0.786740978470701
42
-0.331356153711797
0
ELLIPSE
5
246
100
AcDbEntity
8
1
62
256
6
ByLayer
370
13
48
1
60
0
100
AcDbEllipse
10
264.242669
20
-6.975691
30
0
11
-6.03299188078089
21
-0.0261164285777654
31
0
210
0
220
0
230
1
40
0.988988
41
3.00711898332084
42
-2.98964297954505
0
ELLIPSE
5
247
100
AcDbEntity
8
1
62
256
6
ByLayer
370
13
48
1
60
0
100
AcDbEllipse
10
254.201594
20
9.343459
30
0
11
-1.65564191657582
21
-2.05486645415641
31
0
210
0
220
0
230
1
40
0.966608
41
1.54124460977906
42
1.85179470865346
0
ELLIPSE
5
248
100
AcDbEntity
8
1
62
256
6
ByLayer
370
13
48
1
60
0
100
AcDbEllipse
10
257.265892
20
8.202268
30
0
11
-0.0261679781214689
21
0.499314767377288
31
0
210
0
220
0
230
1
40
0.995725
41
0.927295218001727
42
1.13806179252797
0
ELLIPSE
5
249
100
AcDbEntity
8
1
62
256
6
ByLayer
370
13
48
1
60
0
100
AcDbEllipse
10
213.276871
20
0
30
0
11
-250.620096958335
21
0.113695229322865
31
0
210
0
220
0
230
1
40
0.092638
41
-1.78744408081967
42
-1.73289580839934
0
ELLIPSE
5
24A
100
AcDbEntity
8
1
62
256
6
ByLayer
370
13
48
1
60
0
100
AcDbEllipse
10
275.236475
20
0.692014
30
0
11
-6.03299187661623
21
-0.0261164451924309
31
0
210
0
220
0
230
1
40
0.988988
41
0.0283476843655306
42
0.151949671369925
0
ELLIPSE
5
24B
100
AcDbEntity
8
1
62
256
6
ByLayer
370
13
48
1
60
0
100
AcDbEllipse
10
273.644606
20
2.273851
30
0
11
-5.84167751055711
21
-1.99173158744511
31
0
210
0
220
0
230
1
40
0.849286
41
-0.376036606355899
42
-0.228484536857687
0
ELLIPSE
5
24C
100
AcDbEntity
8
1
62
256
6
ByLayer
370
13
48
1
60
0
100
AcDbEllipse
10
260.219424
20
8.357056
30
0
11
0.0523359562429289
21
-0.998629534754575
31
0
210
0
220
0
230
1
40
0.092371
41
-1.5707963267949
42
0
0
ELLIPSE
5
24D
100
AcDbEntity
8
1
62
256
6
ByLayer
370
13
48
1
60
0
100
AcDbEllipse
10
269.675865
20
-1.992859
30
0
11
-2.22395851593336
21
3.55664912550643
31
0
210
0
220
0
230
1
40
0.378685
41
-1.00621158897407
42
-0.862871899235223
0
ELLIPSE
5
24E
100
AcDbEntity
8
1
62
256
6
ByLayer
370
13
48
1
60
0
100
AcDbEllipse
10
253.54219
20
9.308901
30
0
11
-2.29348548720844
21
1.84790145609257
31
0
210
0
220
0
230
1
40
0.775936
41
3.05283506780857
42
-2.77958348583439
0
ELLIPSE
5
24F
100
AcDbEntity
8
1
62
256
6
ByLayer
370
13
48
1
60
0
100
AcDbEllipse
10
264.780371
20
8.596085
30
0
11
-0.318393324360075
21
-0.395165989958696
31
0
210
0
220
0
230
1
40
0.966608
41
-2.12586050576794
42
-2.06668752383969
0
ELLIPSE
5
250
100
AcDbEntity
8
1
62
256
6
ByLayer
370
13
48
1
60
0
100
AcDbEllipse
10
260.79512
20
-2.627869
30
0
11
-0.523359562429376
21
9.98629534754574
31
0
210
0
220
0
230
1
40
0.995725
41
0
42
0.307190187536216
0
ELLIPSE
5
251
100
AcDbEntity
8
1
62
256
6
ByLayer
370
13
48
1
60
0
100
AcDbEllipse
10
247.145
20
1.622981
30
0
11
-0.494126391741837
21
13.9827987651536
31
0
210
0
220
0
230
1
40
0.355832
41
-0.537142374819576
42
-0.381207713991543
0
ELLIPSE
5
252
100
AcDbEntity
8
1
62
256
6
ByLayer
370
13
48
1
60
0
100
AcDbEllipse
10
262.147789
20
-6.51653
30
0
11
2
21
0
31
0
210
0
220
0
230
1
40
0.994435
41
2.49658435540788
42
2.77029566000902
0
ELLIPSE
5
253
100
AcDbEntity
8
1
62
256
6
ByLayer
370
13
48
1
60
0
100
AcDbEllipse
10
282.658136
20
-4E-05
30
0
11
-250.620321060319
21
0.113700507325291
31
0
210
0
220
0
230
1
40
0.092638
41
-1.45041604760765
42
-1.44108796975695
0
ELLIPSE
5
254
100
AcDbEntity
8
1
62
256
6
ByLayer
370
13
48
1
60
0
100
AcDbEllipse
10
269.645707
20
0.129089
30
0
11
-0.0106855465954604
21
0.50560445574522
31
0
210
0
220
0
230
1
40
0.102266
41
-0.12024133061697
42
0.22536890775017
0
ELLIPSE
5
255
100
AcDbEntity
8
1
62
256
6
ByLayer
370
13
48
1
60
0
100
AcDbEllipse
10
269.413769
20
-14.323939
30
0
11
-0.0640459332398457
21
-0.515984406712516
31
0
210
0
220
0
230
1
40
0.113087
41
-1.64258009661389
42
-0.0717837698220067
0
ELLIPSE
5
256
100
AcDbEntity
8
1
62
256
6
ByLayer
370
13
48
1
60
0
100
AcDbEllipse
10
252.749447
20
19.442996
30
0
11
-0.143594274799892
21
2.73994198497896
31
0
210
0
220
0
230
1
40
0.016833
41
0.326127687933461
42
0.836829632585187
0
ELLIPSE
5
257
100
AcDbEntity
8
1
62
256
6
ByLayer
370
13
48
1
60
0
100
AcDbEllipse
10
271.740618
20
0
30
0
11
-2.82143527758529
21
-23.2148579489029
31
0
210
0
220
0
230
1
40
0.116567
41
-1.29909599936204
42
-0.0879340205297296
0
ELLIPSE
5
258
100
AcDbEntity
8
1
62
256
6
ByLayer
370
13
48
1
60
0
100
AcDbEllipse
10
253.691634
20
16.089755
30
0
11
-0.471023606186439
21
8.98766581279117
31
0
210
0
220
0
230
1
40
0.995725
41
2.79252680319576
42
3.02206401946907
0
ELLIPSE
5
259
100
AcDbEntity
8
1
62
256
6
ByLayer
370
13
48
1
60
0
100
AcDbEllipse
10
269.60365
20
0
30
0
11
-3.94345876854472
21
23.2147379088268
31
0
210
0
220
0
230
1
40
0.085525
41
1.59581326377627
42
1.73599381622539
0
ELLIPSE
5
25A
100
AcDbEntity
8
1
62
256
6
ByLayer
370
13
48
1
60
0
100
AcDbEllipse
10
255.773304
20
8.794403
30
0
11
0.0261679781214645
21
-0.499314767377288
31
0
210
0
220
0
230
1
40
0.092371
41
-1.00594782558685
42
-0.63073077671316
0
ELLIPSE
5
25B
100
AcDbEntity
8
1
62
256
6
ByLayer
370
13
48
1
60
0
100
AcDbEllipse
10
253.783878
20
16.094589
30
0
11
0.523359562429289
21
-9.98629534754575
31
0
210
0
220
0
230
1
40
0.995725
41
-2.73423833868149E-06
42
0.307190187536218
0
ELLIPSE
5
25C
100
AcDbEntity
8
1
62
256
6
ByLayer
370
13
48
1
60
0
100
AcDbEllipse
10
257.024362
20
8.18961
30
0
11
-0.318392676604151
21
-0.395166625625257
31
0
210
0
220
0
230
1
40
0.966608
41
-2.12586228202959
42
-1.28979794421673
0
ELLIPSE
5
25D
100
AcDbEntity
8
1
62
256
6
ByLayer
370
13
48
1
60
0
100
AcDbEllipse
10
269.598762
20
10.550939
30
0
11
0.136073486231615
21
-2.59643679036189
31
0
210
0
220
0
230
1
40
0.995725
41
-0.990362103391498
42
-0.858139698776674
0
ELLIPSE
5
25E
100
AcDbEntity
8
1
62
256
6
ByLayer
370
13
48
1
60
0
100
AcDbEllipse
10
256.938937
20
7.669483
30
0
11
0.353010790461899
21
-0.935619250452589
31
0
210
0
220
0
230
1
40
0.088046
41
-1.59884006173135
42
-0.0280437349364378
0
ELLIPSE
5
25F
100
AcDbEntity
8
1
62
256
6
ByLayer
370
13
48
1
60
0
100
AcDbEllipse
10
267.110057
20
8.718179
30
0
11
-0.0261679781214688
21
0.499314767377286
31
0
210
0
220
0
230
1
40
0.995725
41
-0.990362103391659
42
-0.927295220885115
0
POINT
5
70
100
AcDbEntity
8
1
62
256
6
ByLayer
370
18
48
1
60
0
100
AcDbPoint
10
0
20
0
30
0
39
0
210
0
220
0
230
1
50
360
0
POINT
5
72
100
AcDbEntity
8
80
62
256
6
ByLayer
370
18
48
1
60
0
100
AcDbPoint
10
0
20
0
30
0
39
0
210
0
220
0
230
1
50
360
0
POINT
5
74
100
AcDbEntity
8
81
62
256
6
ByLayer
370
18
48
1
60
0
100
AcDbPoint
10
271.145
20
0
30
0
39
0
210
0
220
0
230
1
50
360
0
POINT
5
76
100
AcDbEntity
8
1
62
256
6
ByLayer
370
18
48
1
60
1
100
AcDbPoint
10
0
20
-24.75
30
0
39
0
210
0
220
0
230
1
50
360
0
POINT
5
77
100
AcDbEntity
8
1
62
256
6
ByLayer
370
18
48
1
60
1
100
AcDbPoint
10
271.145
20
-23.8125
30
0
39
0
210
0
220
0
230
1
50
360
0
POINT
5
78
100
AcDbEntity
8
1
62
256
6
ByLayer
370
18
48
1
60
1
100
AcDbPoint
10
-70
20
-19.05
30
0
39
0
210
0
220
0
230
1
50
360
0
POINT
5
79
100
AcDbEntity
8
1
62
256
6
ByLayer
370
18
48
1
60
1
100
AcDbPoint
10
0
20
-24.75
30
0
39
0
210
0
220
0
230
1
50
360
0
POINT
5
7A
100
AcDbEntity
8
1
62
256
6
ByLayer
370
18
48
1
60
1
100
AcDbPoint
10
271.145
20
-23.8125
30
0
39
0
210
0
220
0
230
1
50
360
0
POINT
5
7B
100
AcDbEntity
8
1
62
256
6
ByLayer
370
18
48
1
60
1
100
AcDbPoint
10
5.5098
20
-24.75
30
0
39
0
210
0
220
0
230
1
50
360
0
POINT
5
7C
100
AcDbEntity
8
1
62
256
6
ByLayer
370
18
48
1
60
1
100
AcDbPoint
10
28.8036
20
-23.8125
30
0
39
0
210
0
220
0
230
1
50
360
0
POINT
5
7D
100
AcDbEntity
8
1
62
256
6
ByLayer
370
18
48
1
60
1
100
AcDbPoint
10
271.145
20
-23.8125
30
0
39
0
210
0
220
0
230
1
50
360
0
POINT
5
7E
100
AcDbEntity
8
1
62
256
6
ByLayer
370
18
48
1
60
1
100
AcDbPoint
10
269.8684
20
-11.90625
30
0
39
0
210
0
220
0
230
1
50
360
0
SPLINE
5
260
100
AcDbEntity
8
SK1
62
256
6
ByLayer
370
13
48
1
60
0
100
AcDbSpline
70
4
71
3
72
12
73
8
40
0
40
0
40
0
40
0
40
0.249999999999998
40
0.249999999999998
40
0.499999999999996
40
0.499999999999996
40
1
40
1
40
1
40
1
41
1
10
-70
20
6.44986821570805
30
0
41
1
10
-69.9262294539371
20
6.65626983969923
30
0
41
1
10
-69.8494937989988
20
6.86229287290607
30
0
41
1
10
-69.6914006706146
20
7.27114448300509
30
0
41
1
10
-69.6099907274895
20
7.47414273982645
30
0
41
1
10
-69.3592184194197
20
8.07918566670864
30
0
41
1
10
-69.1833279901908
20
8.47728719990221
30
0
41
1
10
-69
20
8.87089623431598
30
0
0
SPLINE
5
261
100
AcDbEntity
8
1
62
256
6
ByLayer
370
18
48
1
60
0
100
AcDbSpline
70
4
71
3
72
8
73
4
40
0
40
0
40
0
40
0
40
1
40
1
40
1
40
1
41
1
10
260.31968385455
20
16.4396875564213
30
0
41
1
10
260.316529478079
20
16.4453776656106
30
0
41
1
10
260.313375712779
20
16.4510670299208
30
0
41
1
10
260.310222535483
20
16.4567556772883
30
0
0
SPLINE
5
262
100
AcDbEntity
8
1
62
256
6
ByLayer
370
18
48
1
60
0
100
AcDbSpline
70
4
71
3
72
8
73
4
40
0
40
0
40
0
40
0
40
1
40
1
40
1
40
1
41
1
10
261.878964367534
20
14.0312761472195
30
0
41
1
10
261.874885089837
20
14.0367698188154
30
0
41
1
10
261.870805476292
20
14.042264201863
30
0
41
1
10
261.866725514053
20
14.0477593241105
30
0
0
SPLINE
5
263
100
AcDbEntity
8
1
62
256
6
ByLayer
370
18
48
1
60
0
100
AcDbSpline
70
4
71
3
72
16
73
12
40
0
40
0
40
0
40
0
40
0.249999999999928
40
0.249999999999928
40
0.499999999999855
40
0.499999999999855
40
0.749999999999783
40
0.749999999999783
40
0.874999999999891
40
0.874999999999891
40
1
40
1
40
1
40
1
41
1
10
262.33639152639
20
14.0488448471281
30
0
41
1
10
262.299439588538
20
14.0247502902124
30
0
41
1
10
262.260403044618
20
14.0036167990515
30
0
41
1
10
262.178847917886
20
13.9688485036981
30
0
41
1
10
262.136377322638
20
13.9551263068039
30
0
41
1
10
262.048977237059
20
13.9400481905953
30
0
41
1
10
262.003887127736
20
13.938298421171
30
0
41
1
10
261.941781762244
20
13.9568560905137
30
0
41
1
10
261.922657553873
20
13.9669102353496
30
0
41
1
10
261.893481052846
20
13.9947025577199
30
0
41
1
10
261.883654169569
20
14.0123077476566
30
0
41
1
10
261.878964367534
20
14.0312761472195
30
0
0
SPLINE
5
264
100
AcDbEntity
8
1
62
256
6
ByLayer
370
18
48
1
60
0
100
AcDbSpline
70
4
71
3
72
8
73
4
40
0
40
0
40
0
40
0
40
1
40
1
40
1
40
1
41
1
10
259.959452367485
20
15.7651649522259
30
0
41
1
10
259.965731979922
20
15.7656404936747
30
0
41
1
10
259.972012579724
20
15.766116105575
30
0
41
1
10
259.978294205629
20
15.7665917906861
30
0
0
SPLINE
5
265
100
AcDbEntity
8
1
62
256
6
ByLayer
370
18
48
1
60
0
100
AcDbSpline
70
4
71
3
72
16
73
12
40
0
40
0
40
0
40
0
40
0.25
40
0.25
40
0.5
40
0.5
40
0.75
40
0.75
40
0.875
40
0.875
40
1
40
1
40
1
40
1
41
1
10
263.093882553313
20
15.5423406353438
30
0
41
1
10
263.091566412888
20
15.5865352273931
30
0
41
1
10
263.085596534786
20
15.6305971304674
30
0
41
1
10
263.065459004514
20
15.7169219152637
30
0
41
1
10
263.051392806205
20
15.7592028203038
30
0
41
1
10
263.01164412474
20
15.8380758781928
30
0
41
1
10
262.986194796913
20
15.8750505601456
30
0
41
1
10
262.93382593644
20
15.9128050631417
30
0
41
1
10
262.914114407438
20
15.9217012260909
30
0
41
1
10
262.873733729648
20
15.927403001891
30
0
41
1
10
262.853308055583
20
15.924111245408
30
0
41
1
10
262.834810651724
20
15.915856094546
30
0
0
SPLINE
5
266
100
AcDbEntity
8
1
62
256
6
ByLayer
370
18
48
1
60
0
100
AcDbSpline
70
4
71
3
72
8
73
4
40
0
40
0
40
0
40
0
40
1
40
1
40
1
40
1
41
1
10
260.421054115444
20
14.3419631507525
30
0
41
1
10
260.423595393737
20
14.3479502318917
30
0
41
1
10
260.426137181872
20
14.3539380875091
30
0
41
1
10
260.42867949997
20
14.3599267478101
30
0
0
SPLINE
5
267
100
AcDbEntity
8
1
62
256
6
ByLayer
370
18
48
1
60
0
100
AcDbSpline
70
4
71
3
72
16
73
12
40
0
40
0
40
0
40
0
40
0.125000000000003
40
0.125000000000003
40
0.250000000000006
40
0.250000000000006
40
0.500000000000004
40
0.500000000000004
40
0.750000000000002
40
0.750000000000002
40
1
40
1
40
1
40
1
41
1
10
261.727670567633
20
16.9181338231414
30
0
41
1
10
261.730361945435
20
16.937560745264
30
0
41
1
10
261.738355250091
20
16.9561962631896
30
0
41
1
10
261.764724573861
20
16.9870098201382
30
0
41
1
10
261.782993288717
20
16.9990438474659
30
0
41
1
10
261.842418652211
20
17.0236140976575
30
0
41
1
10
261.887410862011
20
17.026629791711
30
0
41
1
10
261.975710243336
20
17.0207642111201
30
0
41
1
10
262.019414328412
20
17.0115557643655
30
0
41
1
10
262.104061690115
20
16.9855347180249
30
0
41
1
10
262.145187401149
20
16.9685616584486
30
0
41
1
10
262.184428321854
20
16.9484755243812
30
0
0
SPLINE
5
268
100
AcDbEntity
8
1
62
256
6
ByLayer
370
18
48
1
60
0
100
AcDbSpline
70
4
71
3
72
16
73
12
40
0
40
0
40
0
40
0
40
0.250000000000008
40
0.250000000000008
40
0.500000000000016
40
0.500000000000016
40
0.750000000000014
40
0.750000000000014
40
0.875000000000007
40
0.875000000000007
40
1
40
1
40
1
40
1
41
1
10
259.759992036548
20
15.3676188369874
30
0
41
1
10
259.757675896123
20
15.4118134290367
30
0
41
1
10
259.758814370227
20
15.4562478650645
30
0
41
1
10
259.76893806668
20
15.5441585735517
30
0
41
1
10
259.777833133387
20
15.5876428275009
30
0
41
1
10
259.806836441895
20
15.6701190245056
30
0
41
1
10
259.826718556935
20
15.7094694267109
30
0
41
1
10
259.870807485412
20
15.7522790682204
30
0
41
1
10
259.887835786187
20
15.7631006840594
30
0
41
1
10
259.923660069136
20
15.7727961926222
30
0
41
1
10
259.942241188744
20
15.7715486955726
30
0
41
1
10
259.959452367485
20
15.7651649522259
30
0
0
SPLINE
5
269
100
AcDbEntity
8
1
62
256
6
ByLayer
370
18
48
1
60
0
100
AcDbSpline
70
4
71
3
72
18
73
14
40
0
40
0
40
0
40
0
40
0.125000000000021
40
0.125000000000021
40
0.250000000000043
40
0.250000000000043
40
0.500000000000085
40
0.500000000000085
40
0.750000000000128
40
0.750000000000128
40
0.875000000000064
40
0.875000000000064
40
1
40
1
40
1
40
1
41
1
10
261.866725514053
20
14.0477593241105
30
0
41
1
10
261.847180142612
20
14.0740841279095
30
0
41
1
10
261.819154617537
20
14.094011702593
30
0
41
1
10
261.757439777223
20
14.1258570679722
30
0
41
1
10
261.723761234384
20
14.1375401811587
30
0
41
1
10
261.619709034172
20
14.1635818529528
30
0
41
1
10
261.546100325296
20
14.1691607201857
30
0
41
1
10
261.401560950159
20
14.1615724212422
30
0
41
1
10
261.330889233689
20
14.1484828617251
30
0
41
1
10
261.234941163335
20
14.1118893493963
30
0
41
1
10
261.204692463783
20
14.0968054924123
30
0
41
1
10
261.151771949533
20
14.0590167404346
30
0
41
1
10
261.128888032938
20
14.0364534165013
30
0
41
1
10
261.115458718403
20
14.0083870997014
30
0
0
SPLINE
5
26A
100
AcDbEntity
8
1
62
256
6
ByLayer
370
18
48
1
60
0
100
AcDbSpline
70
4
71
3
72
8
73
4
40
0
40
0
40
0
40
0
40
1
40
1
40
1
40
1
41
1
10
262.413671123706
20
16.5669927466331
30
0
41
1
10
262.410447958307
20
16.560969929305
30
0
41
1
10
262.407224566419
20
16.5549463523485
30
0
41
1
10
262.404000939456
20
16.5489219861629
30
0
0
SPLINE
5
26B
100
AcDbEntity
8
1
62
256
6
ByLayer
370
18
48
1
60
0
100
AcDbSpline
70
4
71
3
72
16
73
12
40
0
40
0
40
0
40
0
40
0.124999999999996
40
0.124999999999996
40
0.249999999999993
40
0.249999999999993
40
0.499999999999995
40
0.499999999999995
40
0.749999999999998
40
0.749999999999998
40
1
40
1
40
1
40
1
41
1
10
262.524502703666
20
14.4522002200973
30
0
41
1
10
262.541405463267
20
14.4411131105285
30
0
41
1
10
262.555000714465
20
14.425826358057
30
0
41
1
10
262.571130896
20
14.3892555040776
30
0
41
1
10
262.5735858152
20
14.3681306377634
30
0
41
1
10
262.567992630812
20
14.3060488137828
30
0
41
1
10
262.549253809444
20
14.2661518776122
30
0
41
1
10
262.501735821998
20
14.1933704323483
30
0
41
1
10
262.472451133537
20
14.160288074521
30
0
41
1
10
262.408360629917
20
14.1001058249243
30
0
41
1
10
262.373317908499
20
14.0729227403899
30
0
41
1
10
262.33639152639
20
14.0488448471281
30
0
0
SPLINE
5
26C
100
AcDbEntity
8
1
62
256
6
ByLayer
370
18
48
1
60
0
100
AcDbSpline
70
4
71
3
72
16
73
12
40
0
40
0
40
0
40
0
40
0.25
40
0.25
40
0.5
40
0.5
40
0.75
40
0.75
40
0.875
40
0.875
40
1
40
1
40
1
40
1
41
1
10
262.184428321854
20
16.9484755243812
30
0
41
1
10
262.223696400131
20
16.9283754892477
30
0
41
1
10
262.261305003902
20
16.9050593741082
30
0
41
1
10
262.331416252345
20
16.8518477731759
30
0
41
1
10
262.363980004686
20
16.8220326911772
30
0
41
1
10
262.418952062777
20
16.7544551284647
30
0
41
1
10
262.441815719027
20
16.7167316341336
30
0
41
1
10
262.453762211464
20
16.6550462109656
30
0
41
1
10
262.45339010281
20
16.6340411070399
30
0
41
1
10
262.441133539786
20
16.5962593323447
30
0
41
1
10
262.429264189368
20
16.5797383832462
30
0
41
1
10
262.413671123706
20
16.5669927466331
30
0
0
SPLINE
5
26D
100
AcDbEntity
8
1
62
256
6
ByLayer
370
18
48
1
60
0
100
AcDbSpline
70
4
71
3
72
8
73
4
40
0
40
0
40
0
40
0
40
1
40
1
40
1
40
1
41
1
10
260.018802353241
20
14.9936502891362
30
0
41
1
10
260.012505416107
20
14.9934667596919
30
0
41
1
10
260.006209507106
20
14.9932832646947
30
0
41
1
10
259.999914587426
20
14.9930998028396
30
0
0
SPLINE
5
26E
100
AcDbEntity
8
1
62
256
6
ByLayer
370
18
48
1
60
0
100
AcDbSpline
70
4
71
3
72
16
73
12
40
0
40
0
40
0
40
0
40
0.249999999999932
40
0.249999999999932
40
0.499999999999865
40
0.499999999999865
40
0.749999999999797
40
0.749999999999797
40
0.874999999999899
40
0.874999999999899
40
1
40
1
40
1
40
1
41
1
10
260.517483063472
20
16.861114625203
30
0
41
1
10
260.554435001323
20
16.8852091821188
30
0
41
1
10
260.59327856788
20
16.9063325597646
30
0
41
1
10
260.673953573388
20
16.941054729919
30
0
41
1
10
260.715749651169
20
16.9547415768508
30
0
41
1
10
260.800866590762
20
16.9697000384485
30
0
41
1
10
260.844393808063
20
16.9713679001726
30
0
41
1
10
260.902452543836
20
16.9525981559528
30
0
41
1
10
260.91993140804
20
16.942457782283
30
0
41
1
10
260.945368721666
20
16.9144694974046
30
0
41
1
10
260.953118862219
20
16.8967554699937
30
0
41
1
10
260.955760871616
20
16.8776797501661
30
0
0
SPLINE
5
26F
100
AcDbEntity
8
1
62
256
6
ByLayer
370
18
48
1
60
0
100
AcDbSpline
70
4
71
3
72
16
73
12
40
0
40
0
40
0
40
0
40
0.125
40
0.125
40
0.25
40
0.25
40
0.5
40
0.5
40
0.75
40
0.75
40
1
40
1
40
1
40
1
41
1
10
259.999914587426
20
14.9930998028396
30
0
41
1
10
259.983403599963
20
14.9849215713276
30
0
41
1
10
259.964947411053
20
14.9817369662689
30
0
41
1
10
259.928084703225
20
14.9877896753377
30
0
41
1
10
259.909846040091
20
14.9970107461317
30
0
41
1
10
259.86201308442
20
15.0348367258985
30
0
41
1
10
259.83810964528
20
15.0718411236394
30
0
41
1
10
259.800743223958
20
15.1506671206222
30
0
41
1
10
259.787337108486
20
15.1930110290186
30
0
41
1
10
259.76809916793
20
15.2792834464945
30
0
41
1
10
259.762306575145
20
15.3234548096582
30
0
41
1
10
259.759992036548
20
15.3676188369874
30
0
0
SPLINE
5
270
100
AcDbEntity
8
1
62
256
6
ByLayer
370
18
48
1
60
0
100
AcDbSpline
70
4
71
3
72
16
73
12
40
0
40
0
40
0
40
0
40
0.249999999999998
40
0.249999999999998
40
0.499999999999996
40
0.499999999999996
40
0.749999999999994
40
0.749999999999994
40
0.874999999999997
40
0.874999999999997
40
1
40
1
40
1
40
1
41
1
10
260.669446268007
20
13.9614839479499
30
0
41
1
10
260.63017818973
20
13.9815839830834
30
0
41
1
10
260.592376608596
20
14.0048899847079
30
0
41
1
10
260.521385238929
20
14.0580554604413
30
0
41
1
10
260.488146969121
20
14.0878351924775
30
0
41
1
10
260.430891765043
20
14.1552931005791
30
0
41
1
10
260.406465216772
20
14.1929346872101
30
0
41
1
10
260.390472094617
20
14.2544080355009
30
0
41
1
10
260.389198859104
20
14.2753269105927
30
0
41
1
10
260.397716234726
20
14.3129127227799
30
0
41
1
10
260.40750884242
20
14.329324834404
30
0
41
1
10
260.421054115444
20
14.3419631507525
30
0
0
SPLINE
5
271
100
AcDbEntity
8
1
62
256
6
ByLayer
370
18
48
1
60
0
100
AcDbSpline
70
4
71
3
72
18
73
14
40
0
40
0
40
0
40
0
40
0.125000000000018
40
0.125000000000018
40
0.250000000000036
40
0.250000000000036
40
0.500000000000024
40
0.500000000000024
40
0.750000000000012
40
0.750000000000012
40
0.875000000000006
40
0.875000000000006
40
1
40
1
40
1
40
1
41
1
10
260.42867949997
20
14.3599267478101
30
0
41
1
10
260.440858669442
20
14.3886158834364
30
0
41
1
10
260.443362886116
20
14.4216519031885
30
0
41
1
10
260.438809249384
20
14.4890014145987
30
0
41
1
10
260.431559945026
20
14.5231991950701
30
0
41
1
10
260.40081299604
20
14.62446413268
30
0
41
1
10
260.368403455361
20
14.6905065476978
30
0
41
1
10
260.289534512532
20
14.8124256617014
30
0
41
1
10
260.243269232865
20
14.8681112337587
30
0
41
1
10
260.164841677111
20
14.9355243487386
30
0
41
1
10
260.137171550624
20
14.9552296804851
30
0
41
1
10
260.079235574727
20
14.9846074355216
30
0
41
1
10
260.048983073949
20
14.9945299312195
30
0
41
1
10
260.018802353241
20
14.9936502891362
30
0
0
SPLINE
5
272
100
AcDbEntity
8
1
62
256
6
ByLayer
370
18
48
1
60
0
100
AcDbSpline
70
4
71
3
72
8
73
4
40
0
40
0
40
0
40
0
40
1
40
1
40
1
40
1
41
1
10
260.955760871616
20
16.8776797501662
30
0
41
1
10
260.959158262208
20
16.8721503423814
30
0
41
1
10
260.962556271998
20
16.8666202379946
30
0
41
1
10
260.965954925372
20
16.8610894098625
30
0
0
SPLINE
5
273
100
AcDbEntity
8
1
62
256
6
ByLayer
370
18
48
1
60
0
100
AcDbSpline
70
4
71
3
72
16
73
12
40
0
40
0
40
0
40
0
40
0.124999999999983
40
0.124999999999983
40
0.249999999999966
40
0.249999999999966
40
0.499999999999978
40
0.499999999999978
40
0.749999999999989
40
0.749999999999989
40
1
40
1
40
1
40
1
41
1
10
260.310222535483
20
16.4567556772883
30
0
41
1
10
260.295375209176
20
16.4679505075516
30
0
41
1
10
260.283868202608
20
16.4833467002866
30
0
41
1
10
260.271495886057
20
16.5201144956247
30
0
41
1
10
260.270697614139
20
16.5413261831439
30
0
41
1
10
260.280290280817
20
16.6036176111097
30
0
41
1
10
260.300595735046
20
16.6435966510296
30
0
41
1
10
260.350390370863
20
16.7164974103787
30
0
41
1
10
260.380350580087
20
16.7496151707491
30
0
41
1
10
260.445320362058
20
16.8098435013715
30
0
41
1
10
260.480556681363
20
16.8370367319412
30
0
41
1
10
260.517483063472
20
16.861114625203
30
0
0
SPLINE
5
274
100
AcDbEntity
8
1
62
256
6
ByLayer
370
18
48
1
60
0
100
AcDbSpline
70
4
71
3
72
20
73
16
40
0
40
0
40
0
40
0
40
0.124999999999999
40
0.124999999999999
40
0.249999999999997
40
0.249999999999997
40
0.374999999999996
40
0.374999999999996
40
0.499999999999995
40
0.499999999999995
40
0.749999999999997
40
0.749999999999997
40
0.874999999999999
40
0.874999999999999
40
1
40
1
40
1
40
1
41
1
10
262.512996584876
20
14.4691611775517
30
0
41
1
10
262.494539847223
20
14.4963693109672
30
0
41
1
10
262.485703764333
20
14.5290528139208
30
0
41
1
10
262.478282355909
20
14.596318161264
30
0
41
1
10
262.479865245712
20
14.6307812686537
30
0
41
1
10
262.489872306323
20
14.6998084161486
30
0
41
1
10
262.498441604393
20
14.7344670522734
30
0
41
1
10
262.520736728929
20
14.8017783788236
30
0
41
1
10
262.534538754432
20
14.8348032075788
30
0
41
1
10
262.58375825694
20
14.9320770203273
30
0
41
1
10
262.625823844108
20
14.9927272868557
30
0
41
1
10
262.701850686083
20
15.0683587739138
30
0
41
1
10
262.729416319433
20
15.0909961866917
30
0
41
1
10
262.789004410264
20
15.1265949436355
30
0
41
1
10
262.8209747606
20
15.1398030460274
30
0
41
1
10
262.854386233797
20
15.1422569432869
30
0
0
SPLINE
5
275
100
AcDbEntity
8
1
62
256
6
ByLayer
370
18
48
1
60
0
100
AcDbSpline
70
4
71
3
72
8
73
4
40
0
40
0
40
0
40
0
40
1
40
1
40
1
40
1
41
1
10
262.854386233797
20
15.1422569432869
30
0
41
1
10
262.861349168566
20
15.1427683342827
30
0
41
1
10
262.868311372122
20
15.143279667522
30
0
41
1
10
262.875272871665
20
15.1437909451597
30
0
0
SPLINE
5
276
100
AcDbEntity
8
1
62
256
6
ByLayer
370
18
48
1
60
0
100
AcDbSpline
70
4
71
3
72
16
73
12
40
0
40
0
40
0
40
0
40
0.125
40
0.125
40
0.25
40
0.25
40
0.5
40
0.5
40
0.75
40
0.75
40
1
40
1
40
1
40
1
41
1
10
262.875272871665
20
15.1437909451597
30
0
41
1
10
262.894603701477
20
15.1374911036965
30
0
41
1
10
262.915379911955
20
15.1363625815657
30
0
41
1
10
262.955165866619
20
15.1464322768206
30
0
41
1
10
262.97399739937
20
15.1575961142586
30
0
41
1
10
263.021613911858
20
15.2004243886853
30
0
41
1
10
263.04308502549
20
15.239806765973
30
0
41
1
10
263.074283837687
20
15.3222261145805
30
0
41
1
10
263.083865890144
20
15.3657747818079
30
0
41
1
10
263.09485979838
20
15.4536315833426
30
0
41
1
10
263.09619709191
20
15.4981766080147
30
0
41
1
10
263.093882553313
20
15.5423406353438
30
0
0
SPLINE
5
277
100
AcDbEntity
8
1
62
256
6
ByLayer
370
18
48
1
60
0
100
AcDbSpline
70
4
71
3
72
18
73
14
40
0
40
0
40
0
40
0
40
0.124999999999952
40
0.124999999999952
40
0.249999999999904
40
0.249999999999904
40
0.499999999999932
40
0.499999999999932
40
0.74999999999996
40
0.74999999999996
40
0.87499999999998
40
0.87499999999998
40
1
40
1
40
1
40
1
41
1
10
259.978294205629
20
15.7665917906861
30
0
41
1
10
260.008386815406
20
15.7688705966266
30
0
41
1
10
260.037471722503
20
15.7819033211197
30
0
41
1
10
260.092137616773
20
15.8172766935309
30
0
41
1
10
260.117528552686
20
15.8397369456841
30
0
41
1
10
260.188330933246
20
15.9148290416064
30
0
41
1
10
260.228677285638
20
15.975247895209
30
0
41
1
10
260.294348867431
20
16.1047553683979
30
0
41
1
10
260.319604039931
20
16.1735749803254
30
0
41
1
10
260.339632945671
20
16.2777130668434
30
0
41
1
10
260.343253326502
20
16.3125568544053
30
0
41
1
10
260.340728255809
20
16.379853877279
30
0
41
1
10
260.334802531023
20
16.412415313967
30
0
41
1
10
260.31968385455
20
16.4396875564213
30
0
0
SPLINE
5
278
100
AcDbEntity
8
1
62
256
6
ByLayer
370
18
48
1
60
0
100
AcDbSpline
70
4
71
3
72
16
73
12
40
0
40
0
40
0
40
0
40
0.125000000000001
40
0.125000000000001
40
0.250000000000003
40
0.250000000000003
40
0.500000000000002
40
0.500000000000002
40
0.750000000000001
40
0.750000000000001
40
1
40
1
40
1
40
1
41
1
10
261.107054671517
20
13.9908220742442
30
0
41
1
10
261.106418727008
20
13.971502872816
30
0
41
1
10
261.100513666982
20
13.9529767951541
30
0
41
1
10
261.077902208196
20
13.9223601795641
30
0
41
1
10
261.061290140622
20
13.9104129734415
30
0
41
1
10
261.005864259418
20
13.8860523272351
30
0
41
1
10
260.962438682479
20
13.8831187369307
30
0
41
1
10
260.876415949525
20
13.889103631607
30
0
41
1
10
260.833387385212
20
13.8983474809046
30
0
41
1
10
260.74961930186
20
13.9244146082709
30
0
41
1
10
260.708687188712
20
13.9413978138826
30
0
41
1
10
260.669446268007
20
13.9614839479499
30
0
0
SPLINE
5
279
100
AcDbEntity
8
1
62
256
6
ByLayer
370
18
48
1
60
0
100
AcDbSpline
70
4
71
3
72
8
73
4
40
0
40
0
40
0
40
0
40
1
40
1
40
1
40
1
41
1
10
261.115458718403
20
14.0083870997014
30
0
41
1
10
261.112656812174
20
14.0025313140101
30
0
41
1
10
261.109855470349
20
13.9966763153723
30
0
41
1
10
261.107054671517
20
13.9908220742442
30
0
0
SPLINE
5
27A
100
AcDbEntity
8
1
62
256
6
ByLayer
370
18
48
1
60
0
100
AcDbSpline
70
4
71
3
72
8
73
4
40
0
40
0
40
0
40
0
40
1
40
1
40
1
40
1
41
1
10
262.834810651724
20
15.915856094546
30
0
41
1
10
262.827833844938
20
15.915636896502
30
0
41
1
10
262.820856332184
20
15.9154176801657
30
0
41
1
10
262.813878086185
20
15.9151984448369
30
0
0
SPLINE
5
27B
100
AcDbEntity
8
1
62
256
6
ByLayer
370
18
48
1
60
0
100
AcDbSpline
70
4
71
3
72
8
73
4
40
0
40
0
40
0
40
0
40
1
40
1
40
1
40
1
41
1
10
261.717221721022
20
16.9004616342716
30
0
41
1
10
261.720704936117
20
16.9063531258475
30
0
41
1
10
261.724187881695
20
16.9122438458244
30
0
41
1
10
261.727670567633
20
16.9181338231414
30
0
0
SPLINE
5
27C
100
AcDbEntity
8
1
62
256
6
ByLayer
370
18
48
1
60
0
100
AcDbSpline
70
4
71
3
72
18
73
14
40
0
40
0
40
0
40
0
40
0.125000000000004
40
0.125000000000004
40
0.250000000000008
40
0.250000000000008
40
0.500000000000025
40
0.500000000000025
40
0.750000000000041
40
0.750000000000041
40
0.87500000000002
40
0.87500000000002
40
1
40
1
40
1
40
1
41
1
10
262.813878086185
20
15.9151984448369
30
0
41
1
10
262.780414151084
20
15.9141471094699
30
0
41
1
10
262.747203594125
20
15.9239366791743
30
0
41
1
10
262.684090266042
20
15.9531924005657
30
0
41
1
10
262.654390834018
20
15.9727979510008
30
0
41
1
10
262.571058967271
20
16.0399203078519
30
0
41
1
10
262.522883760267
20
16.0957871089484
30
0
41
1
10
262.444034981342
20
16.2178826623593
30
0
41
1
10
262.413588518887
20
16.283676928984
30
0
41
1
10
262.387953430791
20
16.3847245555519
30
0
41
1
10
262.382757487755
20
16.4192146698599
30
0
41
1
10
262.383130198256
20
16.4863609910601
30
0
41
1
10
262.388460427307
20
16.5198796258089
30
0
41
1
10
262.404000939456
20
16.5489219861629
30
0
0
SPLINE
5
27D
100
AcDbEntity
8
1
62
256
6
ByLayer
370
18
48
1
60
0
100
AcDbSpline
70
4
71
3
72
18
73
14
40
0
40
0
40
0
40
0
40
0.124999999999998
40
0.124999999999998
40
0.249999999999997
40
0.249999999999997
40
0.499999999999996
40
0.499999999999996
40
0.749999999999996
40
0.749999999999996
40
0.874999999999998
40
0.874999999999998
40
1
40
1
40
1
40
1
41
1
10
260.965954925372
20
16.8610894098625
30
0
41
1
10
260.98223643454
20
16.8345935542898
30
0
41
1
10
261.007372290311
20
16.8145145384553
30
0
41
1
10
261.064096512001
20
16.7824076258367
30
0
41
1
10
261.095698449704
20
16.7706156823866
30
0
41
1
10
261.194744908583
20
16.7443116708055
30
0
41
1
10
261.266647985851
20
16.7386434152078
30
0
41
1
10
261.411189659957
20
16.7462318346351
30
0
41
1
10
261.483558847821
20
16.7594103548585
30
0
41
1
10
261.584523700455
20
16.7962667856057
30
0
41
1
10
261.61685601554
20
16.8114598402527
30
0
41
1
10
261.674757311699
20
16.8495096239494
30
0
41
1
10
261.700526947086
20
16.8722241819962
30
0
41
1
10
261.717221721022
20
16.9004616342716
30
0
0
SPLINE
5
27E
100
AcDbEntity
8
1
62
256
6
ByLayer
370
18
48
1
60
0
100
AcDbSpline
70
4
71
3
72
8
73
4
40
0
40
0
40
0
40
0
40
1
40
1
40
1
40
1
41
1
10
262.512996584876
20
14.4691611775517
30
0
41
1
10
262.516832270212
20
14.463506774247
30
0
41
1
10
262.520667639265
20
14.4578531312759
30
0
41
1
10
262.524502703666
20
14.4522002200973
30
0
0
SPLINE
5
27F
100
AcDbEntity
8
1
62
256
6
ByLayer
370
18
48
1
60
0
100
AcDbSpline
70
4
71
1
72
4
73
2
40
0
40
0
40
1
40
1
41
1
10
271.124329004914
20
-7.53421731335828
30
0
41
1
10
271.138165867271
20
-7.42970077678336
30
0
0
SPLINE
5
280
100
AcDbEntity
8
1
62
256
6
ByLayer
370
18
48
1
60
0
100
AcDbSpline
70
4
71
1
72
4
73
2
40
0
40
0
40
1
40
1
41
1
10
269.806952578268
20
-13.8421857363435
30
0
41
1
10
270.196245754528
20
-14.544480513227
30
0
0
SPLINE
5
281
100
AcDbEntity
8
1
62
256
6
ByLayer
370
18
48
1
60
0
100
AcDbSpline
70
4
71
3
72
12
73
8
40
0
40
0
40
0
40
0
40
0.441018898217508
40
0.441018898217508
40
0.720346507540439
40
0.720346507540439
40
1
40
1
40
1
40
1
41
1
10
270.001297980818
20
-0.120751232516938
30
0
41
1
10
270.005257764694
20
-0.134483276313432
30
0
41
1
10
270.008846796414
20
-0.148326447191948
30
0
41
1
10
270.01409121586
20
-0.171071761934854
30
0
41
1
10
270.015974030802
20
-0.179928673798372
30
0
41
1
10
270.019436273102
20
-0.19770907058944
30
0
41
1
10
270.021015848804
20
-0.206635213526027
30
0
41
1
10
270.022441505639
20
-0.21558432438033
30
0
0
SPLINE
5
282
100
AcDbEntity
8
1
62
256
6
ByLayer
370
18
48
1
60
0
100
AcDbSpline
70
4
71
3
72
8
73
4
40
0
40
0
40
0
40
0
40
1
40
1
40
1
40
1
41
1
10
271.144943169458
20
-7.31544747776346
30
0
41
1
10
271.145415193704
20
-7.35130475919445
30
0
41
1
10
271.142984280209
20
-7.38705060553022
30
0
41
1
10
271.139156289474
20
-7.42273248872644
30
0
0
SPLINE
5
283
100
AcDbEntity
8
1
62
256
6
ByLayer
370
18
48
1
60
0
100
AcDbSpline
70
4
71
3
72
12
73
8
40
0
40
0
40
0
40
0
40
0.441018898345595
40
0.441018898345595
40
0.720346507604839
40
0.720346507604839
40
1
40
1
40
1
40
1
41
1
10
269.593710350386
20
-14.9338130463868
30
0
41
1
10
269.579901625259
20
-14.937750956246
30
0
41
1
10
269.565981167567
20
-14.9413201933891
30
0
41
1
10
269.543108969849
20
-14.9465358247789
30
0
41
1
10
269.534202676285
20
-14.9484083422151
30
0
41
1
10
269.516323225985
20
-14.9518517597637
30
0
41
1
10
269.507347396568
20
-14.9534228075906
30
0
41
1
10
269.498348527509
20
-14.9548408495762
30
0
0
SPLINE
5
284
100
AcDbEntity
8
1
62
256
6
ByLayer
370
18
48
1
60
0
100
AcDbSpline
70
4
71
1
72
4
73
2
40
0
40
0
40
1
40
1
41
1
10
271.008960106155
20
-6.40904489438739
30
0
41
1
10
270.022532521832
20
-0.215644098324958
30
0
0
SPLINE
5
285
100
AcDbEntity
8
1
62
256
6
ByLayer
370
18
48
1
60
0
100
AcDbSpline
70
4
71
1
72
4
73
2
40
0
40
0
40
1
40
1
41
1
10
269.609704534142
20
0.478349408835584
30
0
41
1
10
269.206111632982
20
0.531187742484036
30
0
0
SPLINE
5
286
100
AcDbEntity
8
1
62
256
6
ByLayer
370
18
48
1
60
0
100
AcDbSpline
70
4
71
3
72
10
73
6
40
0
40
0
40
0
40
0
40
0.538206409408816
40
0.538206409408816
40
1
40
1
40
1
40
1
41
1
10
269.947775983862
20
-14.8328499716119
30
0
41
1
10
269.884255719136
20
-14.8509620824715
30
0
41
1
10
269.820735919214
20
-14.8690772518441
30
0
41
1
10
269.702713992046
20
-14.9027312844064
30
0
41
1
10
269.648211923305
20
-14.918270533968
30
0
41
1
10
269.593710350991
20
-14.9338130462141
30
0
0
SPLINE
5
287
100
AcDbEntity
8
1
62
256
6
ByLayer
370
18
48
1
60
0
100
AcDbSpline
70
4
71
3
72
10
73
6
40
0
40
0
40
0
40
0
40
0.772178344164382
40
0.772178344164382
40
1
40
1
40
1
40
1
41
1
10
269.900386996128
20
0.229206831655972
30
0
41
1
10
269.926360249845
20
0.139130458947534
30
0
41
1
10
269.952335401758
20
0.0490529330855054
30
0
41
1
10
269.985971403351
20
-0.0675991515173848
30
0
41
1
10
269.993634448478
20
-0.0941750442322871
30
0
41
1
10
270.001297980852
20
-0.120751232634092
30
0
0
SPLINE
5
288
100
AcDbEntity
8
1
62
256
6
ByLayer
370
18
48
1
60
0
100
AcDbSpline
70
4
71
3
72
30
73
26
40
0
40
0
40
0
40
0
40
0.0051026566093648
40
0.0127873978677525
40
0.0281568803845279
40
0.0588958454180786
40
0.12037377548518
40
0.243329635619383
40
0.366285495753586
40
0.485398985258595
40
0.489241355887789
40
0.496926097146177
40
0.504610838404564
40
0.51998032092134
40
0.550719285954891
40
0.612197216021992
40
0.735153076156195
40
0.858108936290398
40
0.9195868663575
40
0.95032583139105
40
0.965695313907826
40
0.981064796424601
40
0.988749537682989
40
0.996434278941376
40
1
40
1
40
1
40
1
41
1
10
269.389149201453
20
-13.9721087269806
30
0
41
1
10
269.417489816107
20
-13.9608473704867
30
0
41
1
10
269.488338704787
20
-13.9260395091628
30
0
41
1
10
269.625386952631
20
-13.7901159084602
30
0
41
1
10
269.668309450736
20
-13.4881197173393
30
0
41
1
10
269.733462061973
20
-12.9836783358112
30
0
41
1
10
269.869904343616
20
-11.9612631325935
30
0
41
1
10
270.059859173728
20
-10.5074546481991
30
0
41
1
10
270.296947525554
20
-8.78019970397415
30
0
41
1
10
270.45049503215
20
-7.61473497241727
30
0
41
1
10
270.529581729113
20
-6.98566829539752
30
0
41
1
10
270.525028996094
20
-6.87536536853128
30
0
41
1
10
270.492441572926
20
-6.72457286742409
30
0
41
1
10
270.457706497591
20
-6.47382040259788
30
0
41
1
10
270.373342488664
20
-5.96513875171615
30
0
41
1
10
270.213980504793
20
-4.95059357966699
30
0
41
1
10
269.982404971425
20
-3.50022286540607
30
0
41
1
10
269.749428430212
20
-2.05099266789762
30
0
41
1
10
269.592119657054
20
-1.03440428384226
30
0
41
1
10
269.504596941708
20
-0.530209086670141
30
0
41
1
10
269.469668124435
20
-0.239864992631141
30
0
41
1
10
269.442125794983
20
-0.0429087980023724
30
0
41
1
10
269.371125568118
20
0.130608747984468
30
0
41
1
10
269.279206948647
20
0.222259329333099
30
0
41
1
10
269.220249830663
20
0.254496533363692
30
0
41
1
10
269.201288435004
20
0.26298755515316
30
0
0
SPLINE
5
289
100
AcDbEntity
8
1
62
256
6
ByLayer
370
18
48
1
60
0
100
AcDbSpline
70
4
71
2
72
12
73
9
40
0
40
0
40
0
40
0.25
40
0.5
40
0.5
40
0.75
40
0.75
40
0.875
40
1
40
1
40
1
41
1
10
269.565025499423
20
0.210809054333851
30
0
41
1
10
269.551122901686
20
0.259023370375758
30
0
41
1
10
269.496710924059
20
0.34427627938976
30
0
41
1
10
269.457275984128
20
0.378351125685043
30
0
41
1
10
269.419561801038
20
0.410939104624106
30
0
41
1
10
269.371950799249
20
0.432385784589542
30
0
41
1
10
269.349839430043
20
0.442345992128139
30
0
41
1
10
269.300223084196
20
0.456549492109019
30
0
41
1
10
269.27426807311
20
0.459947519011109
30
0
0
SPLINE
5
28A
100
AcDbEntity
8
1
62
256
6
ByLayer
370
18
48
1
60
0
100
AcDbSpline
70
4
71
2
72
7
73
4
40
0
40
0
40
0
40
0.5
40
1
40
1
40
1
41
1
10
270.703963327354
20
-7.06662821864563
30
0
41
1
10
270.711455467073
20
-7.01003645145806
30
0
41
1
10
270.710029418044
20
-6.8952924564928
30
0
41
1
10
270.700958110754
20
-6.83833719421923
30
0
0
SPLINE
5
28B
100
AcDbEntity
8
1
62
256
6
ByLayer
370
18
48
1
60
0
100
AcDbSpline
70
4
71
1
72
4
73
2
40
0
40
0
40
1
40
1
41
1
10
270.196245754528
20
-14.5444805132269
30
0
41
1
10
271.031152637056
20
-8.23802363937469
30
0
0
SPLINE
5
28C
100
AcDbEntity
8
1
62
256
6
ByLayer
370
18
48
1
60
0
100
AcDbSpline
70
4
71
2
72
12
73
9
40
0
40
0
40
0
40
0.25
40
0.5
40
0.5
40
0.75
40
0.75
40
0.875
40
1
40
1
40
1
41
1
10
269.556419951306
20
-14.131325157688
30
0
41
1
10
269.604904071457
20
-14.1174999250337
30
0
41
1
10
269.690634050079
20
-14.0633907388114
30
0
41
1
10
269.724899576943
20
-14.0241752461742
30
0
41
1
10
269.757669916045
20
-13.9866709347164
30
0
41
1
10
269.779236610208
20
-13.9393248783089
30
0
41
1
10
269.78925255441
20
-13.9173365542958
30
0
41
1
10
269.803535536233
20
-13.8679963131505
30
0
41
1
10
269.806952578268
20
-13.842185736344
30
0
0
SPLINE
5
28D
100
AcDbEntity
8
1
62
256
6
ByLayer
370
18
48
1
60
0
100
AcDbSpline
70
4
71
3
72
27
73
23
40
0
40
0
40
0
40
0
40
0.003086233827825
40
0.01883228127642
40
0.0503243761736099
40
0.11330856596799
40
0.239276945556749
40
0.365245325145509
40
0.48727719287212
40
0.491213704734269
40
0.499086728458566
40
0.506959752182864
40
0.522705799631459
40
0.554197894528649
40
0.617182084323029
40
0.743150463911788
40
0.869118843500548
40
0.932103033294928
40
0.963595128192118
40
0.979341175640713
40
0.995087223089308
40
1
40
1
40
1
40
1
41
1
10
269.435599068023
20
-13.7602339183239
30
0
41
1
10
269.444247085126
20
-13.750733149537
30
0
41
1
10
269.49184179007
20
-13.6884589153389
30
0
41
1
10
269.524717997619
20
-13.4571469019064
30
0
41
1
10
269.589792430016
20
-12.9533108167905
30
0
41
1
10
269.726248714967
20
-11.9307906813238
30
0
41
1
10
269.916238301756
20
-10.4767161886809
30
0
41
1
10
270.153337074307
20
-8.74938532655693
30
0
41
1
10
270.306778378095
20
-7.58472670139784
30
0
41
1
10
270.384322229869
20
-6.96793203135112
30
0
41
1
10
270.380770288885
20
-6.88187614251498
30
0
41
1
10
270.349647893566
20
-6.73786279704944
30
0
41
1
10
270.314435670453
20
-6.48366580301786
30
0
41
1
10
270.230284583357
20
-5.97626798666866
30
0
41
1
10
270.070855621701
20
-4.96129641438262
30
0
41
1
10
269.83932066563
20
-3.51117983803832
30
0
41
1
10
269.606289455865
20
-2.06160957488942
30
0
41
1
10
269.449117483047
20
-1.0459052460223
30
0
41
1
10
269.361180357965
20
-0.53932274404238
30
0
41
1
10
269.325969511578
20
-0.246634296718696
30
0
41
1
10
269.302977537224
20
-0.0822178560744931
30
0
41
1
10
269.270826078388
20
0.0040545367004086
30
0
41
1
10
269.261524140671
20
0.0233303559085982
30
0
0
SPLINE
5
28E
100
AcDbEntity
8
1
62
256
6
ByLayer
370
18
48
1
60
0
100
AcDbSpline
70
4
71
1
72
4
73
2
40
0
40
0
40
1
40
1
41
1
10
271.080251136584
20
-6.85665395523503
30
0
41
1
10
271.008960106155
20
-6.40904489438739
30
0
0
SPLINE
5
28F
100
AcDbEntity
8
1
62
256
6
ByLayer
370
18
48
1
60
0
100
AcDbSpline
70
4
71
1
72
4
73
2
40
0
40
0
40
1
40
1
41
1
10
271.091471987912
20
-7.78240230866945
30
0
41
1
10
271.124329004914
20
-7.53421731335828
30
0
0
SPLINE
5
290
100
AcDbEntity
8
1
62
256
6
ByLayer
370
18
48
1
60
0
100
AcDbSpline
70
4
71
1
72
4
73
2
40
0
40
0
40
1
40
1
41
1
10
269.498368705913
20
-14.9550111985194
30
0
41
1
10
269.405180841316
20
-14.1682820787498
30
0
0
SPLINE
5
291
100
AcDbEntity
8
1
62
256
6
ByLayer
370
18
48
1
60
0
100
AcDbSpline
70
4
71
1
72
4
73
2
40
0
40
0
40
1
40
1
41
1
10
271.135160650651
20
-7.20140975235412
30
0
41
1
10
271.119066489608
20
-7.10036068255906
30
0
0
SPLINE
5
292
100
AcDbEntity
8
1
62
256
6
ByLayer
370
18
48
1
60
0
100
AcDbSpline
70
4
71
2
72
6
73
3
40
0
40
0
40
0
40
1
40
1
40
1
41
1
10
269.602189228947
20
0.0604115587879335
30
0
41
1
10
269.59453487552
20
0.108470310650432
30
0
41
1
10
269.581047913219
20
0.155243199859598
30
0
0
SPLINE
5
293
100
AcDbEntity
8
1
62
256
6
ByLayer
370
18
48
1
60
0
100
AcDbSpline
70
4
71
3
72
12
73
8
40
0
40
0
40
0
40
0
40
0.115854138635696
40
0.268293180912543
40
0.420732223189391
40
0.496951744327814
40
1
40
1
40
1
40
1
41
1
10
270.241209130328
20
-6.66736335053312
30
0
41
1
10
270.245577924786
20
-6.69484620722039
30
0
41
1
10
270.256291057015
20
-6.75801162210692
30
0
41
1
10
270.277038650356
20
-6.85401741783207
30
0
41
1
10
270.279870955072
20
-6.92263806804039
30
0
41
1
10
270.258289482473
20
-7.09430012720398
30
0
41
1
10
270.240936553341
20
-7.23075382355913
30
0
41
1
10
270.22569340976
20
-7.34958142827531
30
0
0
SPLINE
5
294
100
AcDbEntity
8
1
62
256
6
ByLayer
370
18
48
1
60
0
100
AcDbSpline
70
4
71
3
72
8
73
4
40
0
40
0
40
0
40
0
40
1
40
1
40
1
40
1
41
1
10
271.136122535734
20
-7.20705431592557
30
0
41
1
10
271.140995704894
20
-7.24305378328489
30
0
41
1
10
271.144465411161
20
-7.27915460952843
30
0
41
1
10
271.144943169458
20
-7.31544747776346
30
0
0
SPLINE
5
295
100
AcDbEntity
8
1
62
256
6
ByLayer
370
18
48
1
60
0
100
AcDbSpline
70
4
71
1
72
4
73
2
40
0
40
0
40
1
40
1
41
1
10
271.031152637056
20
-8.23802363937469
30
0
41
1
10
271.091471987912
20
-7.78240230866945
30
0
0
SPLINE
5
296
100
AcDbEntity
8
1
62
256
6
ByLayer
370
18
48
1
60
0
100
AcDbSpline
70
4
71
3
72
12
73
8
40
0
40
0
40
0
40
0
40
0.499999999999871
40
0.499999999999871
40
0.749999999999936
40
0.749999999999936
40
1
40
1
40
1
40
1
41
1
10
270.19625085516
20
-14.5443962607045
30
0
41
1
10
270.187356361305
20
-14.6111379105189
30
0
41
1
10
270.158331276531
20
-14.675017233614
30
0
41
1
10
270.092166936327
20
-14.7515962968524
30
0
41
1
10
270.066302936067
20
-14.7739174102677
30
0
41
1
10
270.009283768548
20
-14.8101077378008
30
0
41
1
10
269.978031534734
20
-14.8234467056327
30
0
41
1
10
269.94571409062
20
-14.8335408306847
30
0
0
SPLINE
5
297
100
AcDbEntity
8
1
62
256
6
ByLayer
370
18
48
1
60
0
100
AcDbSpline
70
4
71
1
72
4
73
2
40
0
40
0
40
1
40
1
41
1
10
269.27426807311
20
0.459947519011166
30
0
41
1
10
269.609704534142
20
0.478349408835612
30
0
0
SPLINE
5
298
100
AcDbEntity
8
1
62
256
6
ByLayer
370
18
48
1
60
0
100
AcDbSpline
70
4
71
1
72
4
73
2
40
0
40
0
40
1
40
1
41
1
10
269.945713127608
20
-14.8336199345779
30
0
41
1
10
269.556419951307
20
-14.1313251576883
30
0
0
SPLINE
5
299
100
AcDbEntity
8
1
62
256
6
ByLayer
370
18
48
1
60
0
100
AcDbSpline
70
4
71
1
72
4
73
2
40
0
40
0
40
1
40
1
41
1
10
269.500543153937
20
-14.1472584100846
30
0
41
1
10
269.593710350991
20
-14.9338130462141
30
0
0
SPLINE
5
29A
100
AcDbEntity
8
1
62
256
6
ByLayer
370
18
48
1
60
0
100
AcDbSpline
70
4
71
1
72
4
73
2
40
0
40
0
40
1
40
1
41
1
10
269.581047913219
20
0.155243199859569
30
0
41
1
10
270.001297980852
20
-0.120751232633836
30
0
0
SPLINE
5
29B
100
AcDbEntity
8
1
62
256
6
ByLayer
370
18
48
1
60
0
100
AcDbSpline
70
4
71
1
72
4
73
2
40
0
40
0
40
1
40
1
41
1
10
271.119066489608
20
-7.10036068255906
30
0
41
1
10
271.080251136584
20
-6.85665395523503
30
0
0
SPLINE
5
29C
100
AcDbEntity
8
1
62
256
6
ByLayer
370
18
48
1
60
0
100
AcDbSpline
70
4
71
1
72
4
73
2
40
0
40
0
40
1
40
1
41
1
10
269.900461960461
20
0.229210944164777
30
0
41
1
10
269.565025499423
20
0.210809054333822
30
0
0
SPLINE
5
29D
100
AcDbEntity
8
1
62
256
6
ByLayer
370
18
48
1
60
0
100
AcDbSpline
70
4
71
3
72
12
73
8
40
0
40
0
40
0
40
0
40
0.5
40
0.5
40
0.75
40
0.75
40
1
40
1
40
1
40
1
41
1
10
269.609705210925
20
0.47843940661221
30
0
41
1
10
269.676820335397
20
0.469594401642695
30
0
41
1
10
269.741055297957
20
0.440729020640816
30
0
41
1
10
269.81806373064
20
0.374933704742972
30
0
41
1
10
269.840509450615
20
0.349213333064455
30
0
41
1
10
269.87690157388
20
0.2925107465108
30
0
41
1
10
269.890314905137
20
0.261432145924516
30
0
41
1
10
269.900465232704
20
0.229294259743966
30
0
0
SPLINE
5
29E
100
AcDbEntity
8
1
62
256
6
ByLayer
370
18
48
1
60
0
100
AcDbSpline
70
4
71
1
72
4
73
2
40
0
40
0
40
1
40
1
41
1
10
271.138165867271
20
-7.42970077678339
30
0
41
1
10
270.703963327354
20
-7.0666282186458
30
0
0
SPLINE
5
29F
100
AcDbEntity
8
1
62
256
6
ByLayer
370
18
48
1
60
0
100
AcDbSpline
70
4
71
1
72
4
73
2
40
0
40
0
40
1
40
1
41
1
10
270.022532521832
20
-0.21564409832493
30
0
41
1
10
269.602189228947
20
0.0604115587879619
30
0
0
SPLINE
5
2A0
100
AcDbEntity
8
1
62
256
6
ByLayer
370
18
48
1
60
0
100
AcDbSpline
70
4
71
1
72
4
73
2
40
0
40
0
40
1
40
1
41
1
10
270.700958110754
20
-6.83833719421906
30
0
41
1
10
271.135160650651
20
-7.20140975235412
30
0
0
SPLINE
5
2A1
100
AcDbEntity
8
1
62
256
6
ByLayer
370
18
48
1
60
0
100
AcDbSpline
70
4
71
2
72
6
73
3
40
0
40
0
40
0
40
1
40
1
40
1
41
1
10
269.405180841316
20
-14.1682820787497
30
0
41
1
10
269.453508526851
20
-14.1606703202168
30
0
41
1
10
269.500543153937
20
-14.1472584100848
30
0
0
SPLINE
5
2A2
100
AcDbEntity
8
1
62
256
6
ByLayer
370
13
48
1
60
0
100
AcDbSpline
70
4
71
3
72
8
73
4
40
0
40
0
40
0
40
0
40
1
40
1
40
1
40
1
41
1
10
268.478818721818
20
23.7967394465133
30
0
41
1
10
268.530217998336
20
23.8075063841827
30
0
41
1
10
268.581658819136
20
23.8182834547272
30
0
41
1
10
268.633013299256
20
23.8290394665014
30
0
0
SPLINE
5
2A3
100
AcDbEntity
8
1
62
256
6
ByLayer
370
13
48
1
60
0
100
AcDbSpline
70
4
71
2
72
6
73
3
40
0
40
0
40
0
40
1
40
1
40
1
41
1
10
271.094929394373
20
16.0303440117743
30
0
41
0.997409491337352
10
271.094164511728
20
16.0880341454638
30
0
41
1
10
271.085164682284
20
16.1450207499359
30
0
0
SPLINE
5
2A4
100
AcDbEntity
8
1
62
256
6
ByLayer
370
13
48
1
60
0
100
AcDbSpline
70
4
71
3
72
14
73
10
40
0
40
0
40
0
40
0
40
0.0288455662537754
40
0.0288455662537754
40
0.190704638544884
40
0.190704638544884
40
0.352563710835992
40
0.352563710835992
40
1
40
1
40
1
40
1
41
1
10
252.587028669474
20
22.7469957002886
30
0
41
1
10
252.590748379305
20
22.7474328538807
30
0
41
1
10
252.594461339978
20
22.7478581917206
30
0
41
1
10
252.618811516059
20
22.7503252106772
30
0
41
1
10
252.638960038658
20
22.7515113371814
30
0
41
1
10
252.67954235064
20
22.7543830068129
30
0
41
1
10
252.69977046536
20
22.7557084752608
30
0
41
1
10
252.80030261701
20
22.7612706530504
30
0
41
1
10
252.87943250404
20
22.7631698759374
30
0
41
1
10
252.957216260919
20
22.7638656252754
30
0
0
SPLINE
5
2A5
100
AcDbEntity
8
1
62
256
6
ByLayer
370
13
48
1
60
0
100
AcDbSpline
70
4
71
1
72
4
73
2
40
0
40
0
40
1
40
1
41
1
10
269.143660558339
20
8.01221217792076
30
0
41
1
10
269.207023229893
20
8.10995160299893
30
0
0
SPLINE
5
2A6
100
AcDbEntity
8
1
62
256
6
ByLayer
370
13
48
1
60
0
100
AcDbSpline
70
4
71
3
72
22
73
18
40
0
40
0
40
0
40
0
40
0.125
40
0.125
40
0.25
40
0.25
40
0.375
40
0.375
40
0.5
40
0.5
40
0.625
40
0.625
40
0.75
40
0.75
40
0.875
40
0.875
40
1
40
1
40
1
40
1
41
1
10
269.977381499117
20
23.1594650228438
30
0
41
1
10
269.968722805412
20
23.2160944298046
30
0
41
1
10
269.954613252836
20
23.2708106665814
30
0
41
1
10
269.914352918803
20
23.3760168483477
30
0
41
1
10
269.888113707508
20
23.4272237602633
30
0
41
1
10
269.825615312498
20
23.5220712493992
30
0
41
1
10
269.789870287779
20
23.5657267078398
30
0
41
1
10
269.708875515224
20
23.6450710115578
30
0
41
1
10
269.663643391064
20
23.6806866527537
30
0
41
1
10
269.568327506443
20
23.7407839404726
30
0
41
1
10
269.517605223137
20
23.7657467568846
30
0
41
1
10
269.410296634571
20
23.8048486631037
30
0
41
1
10
269.355574939983
20
23.8185696451893
30
0
41
1
10
269.244023469467
20
23.8344976037326
30
0
41
1
10
269.18685540394
20
23.8349346625778
30
0
41
1
10
269.072897041924
20
23.8368533774872
30
0
41
1
10
269.015918627442
20
23.8372156995813
30
0
41
1
10
268.958940881607
20
23.8370572214485
30
0
0
SPLINE
5
2A7
100
AcDbEntity
8
1
62
256
6
ByLayer
370
13
48
1
60
0
100
AcDbSpline
70
4
71
3
72
18
73
14
40
0
40
0
40
0
40
0
40
0.500000000000014
40
0.500000000000014
40
0.750000000000021
40
0.750000000000021
40
0.875000000000024
40
0.875000000000024
40
0.906250000000018
40
0.906250000000018
40
0.937500000000012
40
0.937500000000012
40
1
40
1
40
1
40
1
41
1
10
261.78905142892
20
9.06016745765814
30
0
41
1
10
262.790238941346
20
9.11263747183034
30
0
41
1
10
263.791426855324
20
9.16509982372662
30
0
41
1
10
265.29320800311
20
9.2438071512243
30
0
41
1
10
265.793800586876
20
9.27006452769598
30
0
41
1
10
266.544692100645
20
9.30940025864734
30
0
41
1
10
266.794989490183
20
9.322508002359
30
0
41
1
10
267.107859008788
20
9.33893502560076
30
0
41
1
10
267.170432358393
20
9.34213228642972
30
0
41
1
10
267.295586968469
20
9.34880834363136
30
0
41
1
10
267.358077860725
20
9.35040296135304
30
0
41
1
10
267.545004404868
20
9.34416838026871
30
0
41
1
10
267.669205082082
20
9.32781003760942
30
0
41
1
10
267.792281753555
20
9.2990494190073
30
0
0
SPLINE
5
2A8
100
AcDbEntity
8
1
62
256
6
ByLayer
370
13
48
1
60
0
100
AcDbSpline
70
4
71
3
72
8
73
4
40
0
40
0
40
0
40
0
40
1
40
1
40
1
40
1
41
1
10
268.958940881607
20
23.8370572214485
30
0
41
1
10
268.893387093587
20
23.8368748898772
30
0
41
1
10
268.827834259759
20
23.8359493517427
30
0
41
1
10
268.762282313949
20
23.8343321489687
30
0
0
SPLINE
5
2A9
100
AcDbEntity
8
1
62
256
6
ByLayer
370
13
48
1
60
0
100
AcDbSpline
70
4
71
3
72
22
73
18
40
0
40
0
40
0
40
0
40
0.124999999999961
40
0.124999999999961
40
0.249999999999922
40
0.249999999999922
40
0.374999999999882
40
0.374999999999882
40
0.499999999999843
40
0.499999999999843
40
0.624999999999804
40
0.624999999999804
40
0.687499999999837
40
0.687499999999837
40
0.749999999999869
40
0.749999999999869
40
1
40
1
40
1
40
1
41
1
10
252.93029775925
20
7.7533142326788
30
0
41
1
10
252.940201698277
20
7.68854069838113
30
0
41
1
10
252.957318017318
20
7.62629860192274
30
0
41
1
10
253.007159481661
20
7.50729287427441
30
0
41
1
10
253.040182632014
20
7.44990096474373
30
0
41
1
10
253.117634385725
20
7.34641290029134
30
0
41
1
10
253.162721445689
20
7.2994060808131
30
0
41
1
10
253.263923289095
20
7.21721868446573
30
0
41
1
10
253.318454745558
20
7.18288232996377
30
0
41
1
10
253.435396355781
20
7.12775461384032
30
0
41
1
10
253.498008430358
20
7.1071590353653
30
0
41
1
10
253.592682786985
20
7.087916984543
30
0
41
1
10
253.624590878701
20
7.08341446360916
30
0
41
1
10
253.689098935601
20
7.078188324975
30
0
41
1
10
253.721778362978
20
7.07787696741391
30
0
41
1
10
253.884712603733
20
7.07496737105447
30
0
41
1
10
254.015056668703
20
7.0752315398328
30
0
41
1
10
254.145396944418
20
7.07844710655385
30
0
0
SPLINE
5
2AA
100
AcDbEntity
8
1
62
256
6
ByLayer
370
13
48
1
60
0
100
AcDbSpline
70
4
71
2
72
6
73
3
40
0
40
0
40
0
40
1
40
1
40
1
41
1
10
251.812749863994
20
14.8824352437483
30
0
41
0.997409491337352
10
251.813514746639
20
14.8247451100588
30
0
41
1
10
251.822514576083
20
14.7677585055867
30
0
0
SPLINE
5
2AB
100
AcDbEntity
8
1
62
256
6
ByLayer
370
13
48
1
60
0
100
AcDbSpline
70
4
71
1
72
4
73
2
40
0
40
0
40
1
40
1
41
1
10
251.500472024303
20
14.8956073499316
30
0
41
1
10
251.588827408032
20
14.9028164668794
30
0
0
SPLINE
5
2AC
100
AcDbEntity
8
1
62
256
6
ByLayer
370
13
48
1
60
0
100
AcDbSpline
70
4
71
3
72
24
73
20
40
0
40
0
40
0
40
0
40
0.0453611707756963
40
0.0453611707756963
40
0.0907223415513925
40
0.0907223415513925
40
0.136083512327089
40
0.136083512327089
40
0.181444683102785
40
0.181444683102785
40
0.272167024654178
40
0.272167024654178
40
0.36288936620557
40
0.36288936620557
40
0.544334049308354
40
0.544334049308354
40
0.725778732411138
40
0.725778732411138
40
1
40
1
40
1
40
1
41
1
10
252.900266580128
20
7.75247118728319
30
0
41
1
10
252.903432244832
20
7.73522148237586
30
0
41
1
10
252.907097186215
20
7.71657413343598
30
0
41
1
10
252.915104366523
20
7.67985495984493
30
0
41
1
10
252.919390075552
20
7.66212394683069
30
0
41
1
10
252.927326701986
20
7.63147825229822
30
0
41
1
10
252.931036490569
20
7.61821403632896
30
0
41
1
10
252.938044770945
20
7.59437279497359
30
0
41
1
10
252.941309300748
20
7.58391921857739
30
0
41
1
10
252.95067596902
20
7.55517236693922
30
0
41
1
10
252.956271534883
20
7.53970037752154
30
0
41
1
10
252.966759245769
20
7.51251761222977
30
0
41
1
10
252.971648953398
20
7.50088201477755
30
0
41
1
10
252.985551813963
20
7.4698650269132
30
0
41
1
10
252.993862495896
20
7.45416863560442
30
0
41
1
10
253.00943747518
20
7.42794038133721
30
0
41
1
10
253.016682255677
20
7.41755596790739
30
0
41
1
10
253.03389762864
20
7.39620631907889
30
0
41
1
10
253.043399787516
20
7.38757010143215
30
0
41
1
10
253.052305561338
20
7.38176664660554
30
0
0
SPLINE
5
2AD
100
AcDbEntity
8
1
62
256
6
ByLayer
370
13
48
1
60
0
100
AcDbSpline
70
4
71
3
72
8
73
4
40
0
40
0
40
0
40
0
40
1
40
1
40
1
40
1
41
1
10
261.518154973635
20
21.6732756159533
30
0
41
1
10
261.394617920939
20
21.6668013564638
30
0
41
1
10
261.271080870494
20
21.6603270539908
30
0
41
1
10
261.14754382005
20
21.6538527515179
30
0
0
SPLINE
5
2AE
100
AcDbEntity
8
1
62
256
6
ByLayer
370
13
48
1
60
0
100
AcDbSpline
70
4
71
1
72
4
73
2
40
0
40
0
40
1
40
1
41
1
10
251.588155184393
20
14.8686060661175
30
0
41
1
10
251.812749863994
20
14.8824352437483
30
0
0
SPLINE
5
2AF
100
AcDbEntity
8
1
62
256
6
ByLayer
370
13
48
1
60
0
100
AcDbSpline
70
4
71
3
72
24
73
20
40
0
40
0
40
0
40
0
40
0.0312500000000048
40
0.0312500000000048
40
0.0625000000000096
40
0.0625000000000096
40
0.125000000000043
40
0.125000000000043
40
0.156250000000059
40
0.156250000000059
40
0.171875000000068
40
0.171875000000068
40
0.187500000000076
40
0.187500000000076
40
0.250000000000058
40
0.250000000000058
40
0.500000000000039
40
0.500000000000039
40
1
40
1
40
1
40
1
41
1
10
255.330002552891
20
8.43352632415906
30
0
41
1
10
255.385741765448
20
8.47238260344869
30
0
41
1
10
255.444076861929
20
8.50858764507629
30
0
41
1
10
255.564136670879
20
8.57439536663233
30
0
41
1
10
255.625438572576
20
8.60380990754868
30
0
41
1
10
255.813052967106
20
8.68187992023917
30
0
41
1
10
255.943104138342
20
8.72052551878963
30
0
41
1
10
256.145555931853
20
8.7575192411866
30
0
41
1
10
256.213260888868
20
8.76608652818405
30
0
41
1
10
256.315132018081
20
8.77359542026335
30
0
41
1
10
256.349149665078
20
8.77506633134274
30
0
41
1
10
256.417147402947
20
8.77864771450595
30
0
41
1
10
256.45114735906
20
8.7804198920131
30
0
41
1
10
256.621145367689
20
8.7893109546778
30
0
41
1
10
256.757143194633
20
8.7964336812245
30
0
41
1
10
257.437130782983
20
8.83207364779165
30
0
41
1
10
257.981118650566
20
8.86062313862422
30
0
41
1
10
259.613089506716
20
8.94614808952352
30
0
41
1
10
260.701070945627
20
9.00314881662572
30
0
41
1
10
261.789051428919
20
9.06016745765834
30
0
0
SPLINE
5
2B0
100
AcDbEntity
8
1
62
256
6
ByLayer
370
13
48
1
60
0
100
AcDbSpline
70
4
71
3
72
10
73
6
40
0
40
0
40
0
40
0
40
0.437251963448485
40
0.437251963448485
40
1
40
1
40
1
40
1
41
1
10
267.858066168531
20
22.7502532702825
30
0
41
1
10
267.859859036324
20
22.7469395307666
30
0
41
1
10
267.869529750399
20
22.7383317700415
30
0
41
1
10
267.906144948735
20
22.7100137565396
30
0
41
1
10
267.937384550104
20
22.6878266743436
30
0
41
1
10
267.970066322975
20
22.6660955963189
30
0
0
SPLINE
5
2B1
100
AcDbEntity
8
1
62
256
6
ByLayer
370
13
48
1
60
0
100
AcDbSpline
70
4
71
2
72
6
73
3
40
0
40
0
40
0
40
1
40
1
40
1
41
0.998835603708704
10
251.590564656397
20
14.9394772899805
30
0
41
0.998293048640346
10
251.584002421504
20
14.9743598541776
30
0
41
1
10
251.580760323613
20
15.0097084154561
30
0
0
SPLINE
5
2B2
100
AcDbEntity
8
1
62
256
6
ByLayer
370
13
48
1
60
0
100
AcDbSpline
70
4
71
2
72
6
73
3
40
0
40
0
40
0
40
1
40
1
40
1
41
1
10
251.597280732669
20
14.7614356651237
30
0
41
0.997409491337352
10
251.588870000502
20
14.8146921262917
30
0
41
1
10
251.588155184393
20
14.8686060661175
30
0
0
SPLINE
5
2B3
100
AcDbEntity
8
1
62
256
6
ByLayer
370
13
48
1
60
0
100
AcDbSpline
70
4
71
3
72
8
73
4
40
0
40
0
40
0
40
0
40
1
40
1
40
1
40
1
41
1
10
269.402101456475
20
8.11479654183515
30
0
41
1
10
269.335258317072
20
8.1115747828718
30
0
41
1
10
269.270349328788
20
8.11025711169813
30
0
41
1
10
269.207023229893
20
8.10995160299893
30
0
0
SPLINE
5
2B4
100
AcDbEntity
8
1
62
256
6
ByLayer
370
13
48
1
60
0
100
AcDbSpline
70
4
71
3
72
26
73
22
40
0
40
0
40
0
40
0
40
0.249999999999752
40
0.249999999999752
40
0.374999999999628
40
0.374999999999628
40
0.499999999999504
40
0.499999999999504
40
0.62499999999938
40
0.62499999999938
40
0.68749999999942
40
0.68749999999942
40
0.718749999999538
40
0.718749999999538
40
0.749999999999656
40
0.749999999999656
40
0.812499999999692
40
0.812499999999692
40
0.874999999999728
40
0.874999999999728
40
1
40
1
40
1
40
1
41
1
10
270.061158767461
20
8.26133762492856
30
0
41
1
10
270.023953800937
20
8.2402148338885
30
0
41
1
10
269.982316701716
20
8.21919872089174
30
0
41
1
10
269.908538804947
20
8.18925725985278
30
0
41
1
10
269.882464535297
20
8.17973129011637
30
0
41
1
10
269.825918707225
20
8.16202829318891
30
0
41
1
10
269.795540920248
20
8.15388875844832
30
0
41
1
10
269.73295099653
20
8.14073518965034
30
0
41
1
10
269.701160712593
20
8.1359889100284
30
0
41
1
10
269.655600920774
20
8.13203996173232
30
0
41
1
10
269.640729706954
20
8.13115298208217
30
0
41
1
10
269.618778572275
20
8.13003641311028
30
0
41
1
10
269.611466216565
20
8.12966833458299
30
0
41
1
10
269.597137332758
20
8.12919153774118
30
0
41
1
10
269.590117974333
20
8.1290860784078
30
0
41
1
10
269.567825730756
20
8.12762411558293
30
0
41
1
10
269.55137577707
20
8.12516087348072
30
0
41
1
10
269.520679333173
20
8.12229933292275
30
0
41
1
10
269.505840085431
20
8.12134554040759
30
0
41
1
10
269.460917310782
20
8.11810459356124
30
0
41
1
10
269.431243223907
20
8.11620113999243
30
0
41
1
10
269.402101456475
20
8.11479654183515
30
0
0
SPLINE
5
2B5
100
AcDbEntity
8
1
62
256
6
ByLayer
370
13
48
1
60
0
100
AcDbSpline
70
4
71
2
72
6
73
3
40
0
40
0
40
0
40
1
40
1
40
1
41
1
10
251.594436262944
20
14.9759755554154
30
0
41
0.999116442697034
10
251.592054215958
20
14.9577743621846
30
0
41
0.998835603708722
10
251.590564656397
20
14.9394772899799
30
0
0
SPLINE
5
2B6
100
AcDbEntity
8
1
62
256
6
ByLayer
370
13
48
1
60
0
100
AcDbSpline
70
4
71
3
72
12
73
8
40
0
40
0
40
0
40
0
40
0.250000000000119
40
0.250000000000119
40
0.500000000000238
40
0.500000000000238
40
1
40
1
40
1
40
1
41
1
10
269.207023229893
20
8.10995160299893
30
0
41
1
10
269.185256839814
20
8.10936598703248
30
0
41
1
10
269.164823381595
20
8.10967488648649
30
0
41
1
10
269.123475538296
20
8.10996995269358
30
0
41
1
10
269.102728239269
20
8.11006988097441
30
0
41
1
10
269.040562107812
20
8.11041882005512
30
0
41
1
10
268.999170097097
20
8.11068522896963
30
0
41
1
10
268.957751293587
20
8.11093426008421
30
0
0
SPLINE
5
2B7
100
AcDbEntity
8
1
62
256
6
ByLayer
370
13
48
1
60
0
100
AcDbSpline
70
4
71
3
72
10
73
6
40
0
40
0
40
0
40
0
40
0.5
40
0.5
40
1
40
1
40
1
40
1
41
1
10
255.039949215285
20
8.16053353499171
30
0
41
1
10
255.036273613589
20
8.16034090486932
30
0
41
1
10
255.018977397777
20
8.16964810118989
30
0
41
1
10
254.967589639776
20
8.20098653421738
30
0
41
1
10
254.933397109556
20
8.22301885996964
30
0
41
1
10
254.900715336686
20
8.24474993799464
30
0
0
SPLINE
5
2B8
100
AcDbEntity
8
1
62
256
6
ByLayer
370
13
48
1
60
0
100
AcDbSpline
70
4
71
3
72
22
73
18
40
0
40
0
40
0
40
0
40
0.0625000000000099
40
0.0625000000000099
40
0.0937500000000148
40
0.0937500000000148
40
0.12500000000002
40
0.12500000000002
40
0.156250000000025
40
0.156250000000025
40
0.18750000000003
40
0.18750000000003
40
0.25000000000004
40
0.25000000000004
40
0.500000000000026
40
0.500000000000026
40
1
40
1
40
1
40
1
41
1
10
267.709734605263
20
22.3159080225628
30
0
41
1
10
267.600009385239
20
22.2394176381668
30
0
41
1
10
267.484740048866
20
22.1744346778121
30
0
41
1
10
267.303806608039
20
22.093626216521
30
0
41
1
10
267.242147283087
20
22.0694883546885
30
0
41
1
10
267.116078776606
20
22.0269202611827
30
0
41
1
10
267.051686495607
20
22.0085496986158
30
0
41
1
10
266.923183006581
20
21.9783237830955
30
0
41
1
10
266.858694580893
20
21.9663257023826
30
0
41
1
10
266.729253091556
20
21.9484444764188
30
0
41
1
10
266.664277341155
20
21.9428599034974
30
0
41
1
10
266.468833148485
20
21.9329094680605
30
0
41
1
10
266.338564186525
20
21.9259183158981
30
0
41
1
10
265.68715571997
20
21.8918003192438
30
0
41
1
10
265.166034236786
20
21.8644363013059
30
0
41
1
10
263.602658380038
20
21.7824943735675
30
0
41
1
10
262.560405980601
20
21.727897313047
30
0
41
1
10
261.518154973635
20
21.6732756159533
30
0
0
SPLINE
5
2B9
100
AcDbEntity
8
1
62
256
6
ByLayer
370
13
48
1
60
0
100
AcDbSpline
70
4
71
2
72
6
73
3
40
0
40
0
40
0
40
1
40
1
40
1
41
1
10
251.578633523856
20
15.1172456053176
30
0
41
0.997409491337352
10
251.575835682605
20
15.0634017277078
30
0
41
1
10
251.580760323613
20
15.0097084154561
30
0
0
SPLINE
5
2BA
100
AcDbEntity
8
1
62
256
6
ByLayer
370
13
48
1
60
0
100
AcDbSpline
70
4
71
1
72
4
73
2
40
0
40
0
40
1
40
1
41
1
10
251.819470876453
20
14.997325014586
30
0
41
1
10
251.594436262944
20
14.9759755554154
30
0
0
SPLINE
5
2BB
100
AcDbEntity
8
1
62
256
6
ByLayer
370
13
48
1
60
0
100
AcDbSpline
70
4
71
3
72
8
73
4
40
0
40
0
40
0
40
0
40
1
40
1
40
1
40
1
41
1
10
252.540780191143
20
22.975548092177
30
0
41
1
10
252.612509663663
20
22.9830540290415
30
0
41
1
10
252.684326143824
20
22.9897217932051
30
0
41
1
10
252.756235920454
20
22.9954908023844
30
0
0
SPLINE
5
2BC
100
AcDbEntity
8
1
62
256
6
ByLayer
370
13
48
1
60
0
100
AcDbSpline
70
4
71
2
72
6
73
3
40
0
40
0
40
0
40
1
40
1
40
1
41
1
10
251.812749863994
20
14.8824352437483
30
0
41
0.997409491337352
10
251.811984981349
20
14.9401253774364
30
0
41
1
10
251.819470876453
20
14.997325014586
30
0
0
SPLINE
5
2BD
100
AcDbEntity
8
1
62
256
6
ByLayer
370
13
48
1
60
0
100
AcDbSpline
70
4
71
1
72
4
73
2
40
0
40
0
40
1
40
1
41
1
10
252.93029775925
20
7.7533142326788
30
0
41
1
10
252.900266580128
20
7.75247118728319
30
0
0
SPLINE
5
2BE
100
AcDbEntity
8
1
62
256
6
ByLayer
370
13
48
1
60
0
100
AcDbSpline
70
4
71
3
72
10
73
6
40
0
40
0
40
0
40
0
40
0.470344360212351
40
0.470344360212351
40
1
40
1
40
1
40
1
41
1
10
267.831971248823
20
22.6674102075787
30
0
41
1
10
267.831990114179
20
22.6672218712395
30
0
41
1
10
267.844836311943
20
22.6669700476341
30
0
41
1
10
267.89291045542
20
22.6664623839121
30
0
41
1
10
267.930868608966
20
22.6662194310893
30
0
41
1
10
267.970066322975
20
22.6660955963188
30
0
0
SPLINE
5
2BF
100
AcDbEntity
8
1
62
256
6
ByLayer
370
13
48
1
60
0
100
AcDbSpline
70
4
71
2
72
6
73
3
40
0
40
0
40
0
40
1
40
1
40
1
41
1
10
271.094929394373
20
16.0303440117743
30
0
41
0.997409491337352
10
271.095694277018
20
15.9726538780862
30
0
41
1
10
271.088208381914
20
15.9154542409366
30
0
0
SPLINE
5
2C0
100
AcDbEntity
8
1
62
256
6
ByLayer
370
13
48
1
60
0
100
AcDbSpline
70
4
71
1
72
4
73
2
40
0
40
0
40
1
40
1
41
1
10
251.822514576083
20
14.7677585055867
30
0
41
1
10
251.597280732669
20
14.7614356651237
30
0
0
SPLINE
5
2C1
100
AcDbEntity
8
1
62
256
6
ByLayer
370
13
48
1
60
0
100
AcDbSpline
70
4
71
3
72
8
73
4
40
0
40
0
40
0
40
0
40
1
40
1
40
1
40
1
41
1
10
253.042076176785
20
22.9877340503642
30
0
41
1
10
252.989833019433
20
22.993069318235
30
0
41
1
10
252.93754748621
20
22.998410320912
30
0
41
1
10
252.885350021923
20
23.0037394052393
30
0
0
SPLINE
5
2C2
100
AcDbEntity
8
1
62
256
6
ByLayer
370
13
48
1
60
0
100
AcDbSpline
70
4
71
1
72
4
73
2
40
0
40
0
40
1
40
1
41
1
10
251.508485305688
20
15.1147386675836
30
0
41
1
10
251.578633523856
20
15.1172456053176
30
0
0
SPLINE
5
2C3
100
AcDbEntity
8
1
62
256
6
ByLayer
370
13
48
1
60
0
100
AcDbSpline
70
4
71
3
72
12
73
8
40
0
40
0
40
0
40
0
40
0.0651928481684744
40
0.0651928481684744
40
0.595646252747158
40
0.595646252747158
40
1
40
1
40
1
40
1
41
1
10
269.969375736987
20
8.15284153968562
30
0
41
1
10
269.963904515957
20
8.14701082873353
30
0
41
1
10
269.958339795178
20
8.14125790216843
30
0
41
1
10
269.906654647337
20
8.08942727615531
30
0
41
1
10
269.856011046269
20
8.04957893045213
30
0
41
1
10
269.758611113611
20
7.99049899756736
30
0
41
1
10
269.713664042148
20
7.96871913168445
30
0
41
1
10
269.667465724411
20
7.95123509086815
30
0
0
SPLINE
5
2C4
100
AcDbEntity
8
1
62
256
6
ByLayer
370
13
48
1
60
0
100
AcDbSpline
70
4
71
3
72
9
73
5
40
0
40
0
40
0
40
0
40
0.513495271764912
40
1
40
1
40
1
40
1
41
1
10
252.756235920454
20
22.9954908023844
30
0
41
1
10
252.778310610095
20
22.9972568790453
30
0
41
1
10
252.821364855248
20
22.9997934224382
30
0
41
1
10
252.864408567368
20
23.0024517329661
30
0
41
1
10
252.885350021924
20
23.0037394052375
30
0
0
SPLINE
5
2C5
100
AcDbEntity
8
1
62
256
6
ByLayer
370
13
48
1
60
0
100
AcDbSpline
70
4
71
1
72
4
73
2
40
0
40
0
40
1
40
1
41
1
10
253.231464128798
20
22.7641919012994
30
0
41
1
10
253.042076176786
20
22.9877340503642
30
0
0
SPLINE
5
2C6
100
AcDbEntity
8
1
62
256
6
ByLayer
370
13
48
1
60
0
100
AcDbSpline
70
4
71
3
72
20
73
16
40
0
40
0
40
0
40
0
40
0.0624999999999952
40
0.0624999999999952
40
0.12499999999999
40
0.12499999999999
40
0.156249999999988
40
0.156249999999988
40
0.187499999999986
40
0.187499999999986
40
0.249999999999981
40
0.249999999999981
40
0.499999999999988
40
0.499999999999988
40
1
40
1
40
1
40
1
41
1
10
255.23484225181
20
8.59880495416886
30
0
41
1
10
255.351070286511
20
8.67982850599995
30
0
41
1
10
255.473511986004
20
8.74795491225629
30
0
41
1
10
255.730411929184
20
8.85926606393983
30
0
41
1
10
255.866519477227
20
8.9026080213321
30
0
41
1
10
256.071054620728
20
8.94594395786172
30
0
41
1
10
256.139497413375
20
8.95690944428608
30
0
41
1
10
256.276900203113
20
8.97203367280798
30
0
41
1
10
256.345936887843
20
8.97518315608059
30
0
41
1
10
256.55294027053
20
8.98603547173133
30
0
41
1
10
256.690944752714
20
8.9932410392916
30
0
41
1
10
257.380957486633
20
9.02939623266894
30
0
41
1
10
257.932963681007
20
9.05837321256993
30
0
41
1
10
259.588992989964
20
9.14516128136168
30
0
41
1
10
260.693013523838
20
9.2030010142426
30
0
41
1
10
261.797033037024
20
9.2608602252138
30
0
0
SPLINE
5
2C7
100
AcDbEntity
8
1
62
256
6
ByLayer
370
13
48
1
60
0
100
AcDbSpline
70
4
71
3
72
9
73
5
40
0
40
0
40
0
40
0
40
0.513495271765286
40
1
40
1
40
1
40
1
41
1
10
268.762282313949
20
23.8343321489688
30
0
41
1
10
268.740143946488
20
23.8337811174917
30
0
41
1
10
268.697060416011
20
23.8318033713514
30
0
41
1
10
268.653974632736
20
23.8299478262948
30
0
41
1
10
268.633013299255
20
23.8290394664994
30
0
0
SPLINE
5
2C8
100
AcDbEntity
8
1
62
256
6
ByLayer
370
13
48
1
60
0
100
AcDbSpline
70
4
71
3
72
18
73
14
40
0
40
0
40
0
40
0
40
0.499999999999959
40
0.499999999999959
40
0.749999999999938
40
0.749999999999938
40
0.874999999999928
40
0.874999999999928
40
0.906249999999946
40
0.906249999999946
40
0.937499999999964
40
0.937499999999964
40
1
40
1
40
1
40
1
41
1
10
261.118627829447
20
21.8526117978644
30
0
41
1
10
260.117440317021
20
21.8001417836923
30
0
41
1
10
259.116252403043
20
21.747679431796
30
0
41
1
10
257.614471255256
20
21.6689721042983
30
0
41
1
10
257.113878671491
20
21.6427147278266
30
0
41
1
10
256.362987157722
20
21.6033789968753
30
0
41
1
10
256.112689768184
20
21.5902712531636
30
0
41
1
10
255.799820249579
20
21.5738442299218
30
0
41
1
10
255.737246899974
20
21.5706469690929
30
0
41
1
10
255.612092289897
20
21.5639709118912
30
0
41
1
10
255.549601397642
20
21.5623762941696
30
0
41
1
10
255.362674853499
20
21.5686108752539
30
0
41
1
10
255.238474176285
20
21.5849692179132
30
0
41
1
10
255.115397504812
20
21.6137298365153
30
0
0
SPLINE
5
2C9
100
AcDbEntity
8
1
62
256
6
ByLayer
370
13
48
1
60
0
100
AcDbSpline
70
4
71
3
72
12
73
8
40
0
40
0
40
0
40
0
40
0.24999999999987
40
0.24999999999987
40
0.499999999999739
40
0.499999999999739
40
1
40
1
40
1
40
1
41
1
10
252.957216260919
20
22.7638656252754
30
0
41
1
10
252.980750278049
20
22.7645438786502
30
0
41
1
10
253.003371628458
20
22.7643496417672
30
0
41
1
10
253.048943630179
20
22.7642759543224
30
0
41
1
10
253.071780881132
20
22.7642855557808
30
0
41
1
10
253.140239715841
20
22.7642664033031
30
0
41
1
10
253.185842564287
20
22.7642206750431
30
0
41
1
10
253.231464128798
20
22.7641919012994
30
0
0
SPLINE
5
2CA
100
AcDbEntity
8
1
62
256
6
ByLayer
370
13
48
1
60
0
100
AcDbSpline
70
4
71
3
72
9
73
5
40
0
40
0
40
0
40
0
40
0.513495271765497
40
1
40
1
40
1
40
1
41
1
10
254.145396944418
20
7.07844710655382
30
0
41
1
10
254.167535311879
20
7.07899813803093
30
0
41
1
10
254.210618842356
20
7.08097588417124
30
0
41
1
10
254.253704625631
20
7.08283142922775
30
0
41
1
10
254.274665959112
20
7.08373978902316
30
0
0
SPLINE
5
2CB
100
AcDbEntity
8
1
62
256
6
ByLayer
370
13
48
1
60
0
100
AcDbSpline
70
4
71
3
72
18
73
14
40
0
40
0
40
0
40
0
40
0.500000000000014
40
0.500000000000014
40
0.75000000000002
40
0.75000000000002
40
0.87500000000001
40
0.87500000000001
40
0.906250000000008
40
0.906250000000008
40
0.937500000000005
40
0.937500000000005
40
1
40
1
40
1
40
1
41
1
10
261.797033037025
20
9.26086022521361
30
0
41
1
10
262.806378679423
20
9.3137577888607
30
0
41
1
10
263.815724644462
20
9.36664734927356
30
0
41
1
10
265.329743156715
20
9.44599657826544
30
0
41
1
10
265.834415260369
20
9.47246921640561
30
0
41
1
10
266.591425226087
20
9.512121689986
30
0
41
1
10
266.843760955618
20
9.5253680654447
30
0
41
1
10
267.159181635759
20
9.54189426369919
30
0
41
1
10
267.222249875818
20
9.54569549478148
30
0
41
1
10
267.3484564965
20
9.55110940718689
30
0
41
1
10
267.411650398501
20
9.55098969155182
30
0
41
1
10
267.601509662806
20
9.54197007581334
30
0
41
1
10
267.728447624131
20
9.52456444812185
30
0
41
1
10
267.855781382332
20
9.49480903134804
30
0
0
SPLINE
5
2CC
100
AcDbEntity
8
1
62
256
6
ByLayer
370
13
48
1
60
0
100
AcDbSpline
70
4
71
2
72
6
73
3
40
0
40
0
40
0
40
1
40
1
40
1
41
0.998835603708722
10
251.590564656397
20
14.9394772899799
30
0
41
0.998293048640317
10
251.587684590944
20
14.9040998757897
30
0
41
1
10
251.588155184393
20
14.8686060661175
30
0
0
SPLINE
5
2CD
100
AcDbEntity
8
1
62
256
6
ByLayer
370
13
48
1
60
0
100
AcDbSpline
70
4
71
1
72
4
73
2
40
0
40
0
40
1
40
1
41
1
10
252.756235920454
20
22.9954908023844
30
0
41
1
10
252.957216260919
20
22.7638656252754
30
0
0
SPLINE
5
2CE
100
AcDbEntity
8
1
62
256
6
ByLayer
370
13
48
1
60
0
100
AcDbSpline
70
4
71
3
72
10
73
6
40
0
40
0
40
0
40
0
40
0.5
40
0.5
40
1
40
1
40
1
40
1
41
1
10
255.065872678488
20
8.2448175511054
30
0
41
1
10
255.062196037691
20
8.24462486652601
30
0
41
1
10
255.041924840166
20
8.2445333938646
30
0
41
1
10
254.980824240236
20
8.24453791246003
30
0
41
1
10
254.939913050694
20
8.24462610322422
30
0
41
1
10
254.900715336686
20
8.24474993799467
30
0
0
SPLINE
5
2CF
100
AcDbEntity
8
1
62
256
6
ByLayer
370
13
48
1
60
0
100
AcDbSpline
70
4
71
3
72
24
73
20
40
0
40
0
40
0
40
0
40
0.0514081714722828
40
0.0514081714722828
40
0.102816342944566
40
0.102816342944566
40
0.154224514416848
40
0.154224514416848
40
0.205632685889131
40
0.205632685889131
40
0.308449028833711
40
0.308449028833711
40
0.411265371778291
40
0.411265371778291
40
0.616898057667439
40
0.616898057667439
40
0.822530743556587
40
0.822530743556587
40
1
40
1
40
1
40
1
41
1
10
270.212370085223
20
8.65976008670322
30
0
41
1
10
270.211024847507
20
8.64227397541711
30
0
41
1
10
270.209329161785
20
8.62334568791576
30
0
41
1
10
270.205204044437
20
8.58599068754674
30
0
41
1
10
270.202795208512
20
8.56790882829804
30
0
41
1
10
270.198105407104
20
8.53660141072234
30
0
41
1
10
270.195802429243
20
8.52302207901627
30
0
41
1
10
270.191324629281
20
8.49857887769804
30
0
41
1
10
270.189170679191
20
8.48784133080287
30
0
41
1
10
270.182860186732
20
8.45827287398544
30
0
41
1
10
270.178912537243
20
8.44230074584416
30
0
41
1
10
270.171323651817
20
8.41417062628275
30
0
41
1
10
270.167676981639
20
8.40208765622651
30
0
41
1
10
270.157092440476
20
8.36978733801703
30
0
41
1
10
270.150468004991
20
8.35330823037097
30
0
41
1
10
270.137719946185
20
8.32559562857514
30
0
41
1
10
270.131600320131
20
8.3145108162764
30
0
41
1
10
270.120554508393
20
8.29742423787548
30
0
41
1
10
270.115572334401
20
8.29090427536261
30
0
41
1
10
270.110703257892
20
8.28551904669484
30
0
0
SPLINE
5
2D0
100
AcDbEntity
8
1
62
256
6
ByLayer
370
13
48
1
60
0
100
AcDbSpline
70
4
71
3
72
10
73
6
40
0
40
0
40
0
40
0
40
0.196352315077781
40
0.196352315077781
40
1
40
1
40
1
40
1
41
1
10
270.099912744813
20
8.27519356152393
30
0
41
1
10
270.097245174665
20
8.27302646409569
30
0
41
1
10
270.09460865443
20
8.27116039891274
30
0
41
1
10
270.081319302198
20
8.2629490145041
30
0
41
1
10
270.071090674719
20
8.2607100715129
30
0
41
1
10
270.06115876746
20
8.26133762492864
30
0
0
SPLINE
5
2D1
100
AcDbEntity
8
1
62
256
6
ByLayer
370
13
48
1
60
0
100
AcDbSpline
70
4
71
3
72
18
73
14
40
0
40
0
40
0
40
0
40
0.499999999999987
40
0.499999999999987
40
0.749999999999966
40
0.749999999999966
40
0.87499999999997
40
0.87499999999997
40
0.906249999999977
40
0.906249999999977
40
0.937499999999985
40
0.937499999999985
40
1
40
1
40
1
40
1
41
1
10
261.147543820049
20
21.6538527515181
30
0
41
1
10
260.138198177651
20
21.600955187871
30
0
41
1
10
259.128852212612
20
21.5480656274581
30
0
41
1
10
257.614833700359
20
21.4687163984663
30
0
41
1
10
257.110161596705
20
21.4422437603261
30
0
41
1
10
256.353151630987
20
21.4025912867457
30
0
41
1
10
256.100815901456
20
21.389344911287
30
0
41
1
10
255.785395221315
20
21.3728187130325
30
0
41
1
10
255.722326981256
20
21.3690174819502
30
0
41
1
10
255.596120360574
20
21.3636035695448
30
0
41
1
10
255.532926458573
20
21.3637232851798
30
0
41
1
10
255.343067194269
20
21.3727429009183
30
0
41
1
10
255.216129232943
20
21.3901485286098
30
0
41
1
10
255.088795474741
20
21.4199039453836
30
0
0
SPLINE
5
2D2
100
AcDbEntity
8
1
62
256
6
ByLayer
370
13
48
1
60
0
100
AcDbSpline
70
4
71
3
72
24
73
20
40
0
40
0
40
0
40
0
40
0.0312500000000377
40
0.0312500000000377
40
0.0625000000000755
40
0.0625000000000755
40
0.125000000000128
40
0.125000000000128
40
0.156250000000154
40
0.156250000000154
40
0.171875000000167
40
0.171875000000167
40
0.18750000000018
40
0.18750000000018
40
0.250000000000181
40
0.250000000000181
40
0.500000000000112
40
0.500000000000112
40
1
40
1
40
1
40
1
41
1
10
267.577676705478
20
22.4792529313649
30
0
41
1
10
267.521937492921
20
22.4403966520752
30
0
41
1
10
267.46360239644
20
22.4041916104476
30
0
41
1
10
267.343542587491
20
22.3383838888915
30
0
41
1
10
267.282240685794
20
22.3089693479751
30
0
41
1
10
267.094626291264
20
22.2308993352844
30
0
41
1
10
266.964575120028
20
22.1922537367338
30
0
41
1
10
266.762123326517
20
22.1552600143365
30
0
41
1
10
266.694418369502
20
22.1466927273389
30
0
41
1
10
266.59254724029
20
22.1391838352594
30
0
41
1
10
266.558529593293
20
22.1377129241801
30
0
41
1
10
266.490531855424
20
22.1341315410168
30
0
41
1
10
266.456531899311
20
22.1323593635097
30
0
41
1
10
266.286533890682
20
22.123468300845
30
0
41
1
10
266.150536063738
20
22.1163455742983
30
0
41
1
10
265.470548475389
20
22.0807056077312
30
0
41
1
10
264.926560607807
20
22.0521561168987
30
0
41
1
10
263.294589751659
20
21.9666311659995
30
0
41
1
10
262.206608312739
20
21.9096304388968
30
0
41
1
10
261.118627829448
20
21.8526117978642
30
0
0
SPLINE
5
2D3
100
AcDbEntity
8
SK1
62
256
6
ByLayer
370
13
48
1
60
0
100
AcDbSpline
70
4
71
3
72
24
73
20
40
0
40
0
40
0
40
0
40
0.249999999999979
40
0.249999999999979
40
0.374999999999967
40
0.374999999999967
40
0.499999999999954
40
0.499999999999954
40
0.624999999999942
40
0.624999999999942
40
0.687499999999952
40
0.687499999999952
40
0.749999999999961
40
0.749999999999961
40
0.812499999999971
40
0.812499999999971
40
0.874999999999981
40
0.874999999999981
40
1
40
1
40
1
40
1
41
1
10
-68.5162221138922
20
8.64653950086213
30
0
41
1
10
-68.4801597618136
20
8.54897747553599
30
0
41
1
10
-68.437529036499
20
8.45328392947286
30
0
41
1
10
-68.3606328317439
20
8.31846748282459
30
0
41
1
10
-68.3327841948055
20
8.27488782936956
30
0
41
1
10
-68.2709240150669
20
8.19150751116794
30
0
41
1
10
-68.2366211549992
20
8.1513917713655
30
0
41
1
10
-68.1608805969831
20
8.07960326139835
30
0
41
1
10
-68.118647042449
20
8.04728802222283
30
0
41
1
10
-68.0500006695449
20
8.01075696434805
30
0
41
1
10
-68.0262243469756
20
8.00052694473914
30
0
41
1
10
-67.9764623615226
20
7.98487745486457
30
0
41
1
10
-67.9503348341249
20
7.9795185054941
30
0
41
1
10
-67.8979814342781
20
7.97497946209535
30
0
41
1
10
-67.8712746996662
20
7.97577043506206
30
0
41
1
10
-67.8195051112143
20
7.98321207091351
30
0
41
1
10
-67.7941760244754
20
7.9897939279231
30
0
41
1
10
-67.7196976276346
20
8.01730782525888
30
0
41
1
10
-67.675026058619
20
8.04465261111196
30
0
41
1
10
-67.6338131992839
20
8.07752044937291
30
0
0
SPLINE
5
2D4
100
AcDbEntity
8
SK1
62
256
6
ByLayer
370
13
48
1
60
0
100
AcDbSpline
70
4
71
3
72
68
73
64
40
0
40
0
40
0
40
0
40
0.015625
40
0.015625
40
0.0312500000000001
40
0.0312500000000001
40
0.0468750000000001
40
0.0468750000000001
40
0.0625000000000001
40
0.0625000000000001
40
0.0781250000000002
40
0.0781250000000002
40
0.0937500000000002
40
0.0937500000000002
40
0.125
40
0.125
40
0.15625
40
0.15625
40
0.1875
40
0.1875
40
0.250000000000001
40
0.250000000000001
40
0.281250000000001
40
0.281250000000001
40
0.312500000000001
40
0.312500000000001
40
0.375
40
0.375
40
0.4375
40
0.4375
40
0.5
40
0.5
40
0.5625
40
0.5625
40
0.59375
40
0.59375
40
0.625
40
0.625
40
0.6875
40
0.6875
40
0.749999999999999
40
0.749999999999999
40
0.78125
40
0.78125
40
0.8125
40
0.8125
40
0.84375
40
0.84375
40
0.875
40
0.875
40
0.90625
40
0.90625
40
0.921875
40
0.921875
40
0.9375
40
0.9375
40
0.953125
40
0.953125
40
0.96875
40
0.96875
40
0.984375
40
0.984375
40
1
40
1
40
1
40
1
41
1
10
-6.50000000009537
20
8.87089623431589
30
0
41
1
10
-6.38964005784193
20
8.87089623432257
30
0
41
1
10
-6.28158777178416
20
8.85940086480647
30
0
41
1
10
-6.06968685290551
20
8.81540344387071
30
0
41
1
10
-5.96501017976783
20
8.78237878278364
30
0
41
1
10
-5.76743688221792
20
8.69971062398864
30
0
41
1
10
-5.67362162233444
20
8.65004386475434
30
0
41
1
10
-5.49440680002854
20
8.53638191883883
30
0
41
1
10
-5.41084411120518
20
8.47354035148643
30
0
41
1
10
-5.25410321779377
20
8.33890938882163
30
0
41
1
10
-5.18076228366576
20
8.26697977481192
30
0
41
1
10
-5.04236841853764
20
8.11530552801844
30
0
41
1
10
-4.97708142928902
20
8.0351754173324
30
0
41
1
10
-4.79483748696403
20
7.7886883824635
30
0
41
1
10
-4.69031457331725
20
7.61555747347686
30
0
41
1
10
-4.50449292536955
20
7.25613146802451
30
0
41
1
10
-4.42331516342429
20
7.0697011257152
30
0
41
1
10
-4.27866003032617
20
6.68621407711885
30
0
41
1
10
-4.21613483481546
20
6.49167843530805
30
0
41
1
10
-4.050058842756
20
5.9010477327684
30
0
41
1
10
-3.96765133118522
20
5.49799143172808
30
0
41
1
10
-3.86912379467795
20
4.88237914332473
30
0
41
1
10
-3.84059190899215
20
4.67531435241614
30
0
41
1
10
-3.79034359563845
20
4.25775817736212
30
0
41
1
10
-3.76860205743282
20
4.04686198179485
30
0
41
1
10
-3.71189783140515
20
3.41388377187141
30
0
41
1
10
-3.68514759900531
20
2.99065660100223
30
0
41
1
10
-3.64518264030204
20
2.14196585175267
30
0
41
1
10
-3.63202206704267
20
1.71650095141314
30
0
41
1
10
-3.6148752993273
20
0.863453409773285
30
0
41
1
10
-3.61090488997965
20
0.435870434789052
30
0
41
1
10
-3.61081378158445
20
-0.421394939045854
30
0
41
1
10
-3.61468794705834
20
-0.851077090828767
30
0
41
1
10
-3.6275848658499
20
-1.49723621391487
30
0
41
1
10
-3.63310141210927
20
-1.71320956001128
30
0
41
1
10
-3.646955419264
20
-2.14305408206693
30
0
41
1
10
-3.65529329679171
20
-2.35715224442401
30
0
41
1
10
-3.68548793121671
20
-2.99691438981384
30
0
41
1
10
-3.71238572795085
20
-3.42005942268045
30
0
41
1
10
-3.78767314105632
20
-4.25901300764133
30
0
41
1
10
-3.83594141362367
20
-4.67483087955947
30
0
41
1
10
-3.9346982037289
20
-5.2922060405285
30
0
41
1
10
-3.9721522548909
20
-5.49733813204614
30
0
41
1
10
-4.05827073884203
20
-5.90316900106956
30
0
41
1
10
-4.10684136225636
20
-6.10359019941808
30
0
41
1
10
-4.21829935961328
20
-6.49875483311666
30
0
41
1
10
-4.28137467697044
20
-6.69407757191092
30
0
41
1
10
-4.42568828754189
20
-7.07530157739131
30
0
41
1
10
-4.50652538220599
20
-7.26037606946602
30
0
41
1
10
-4.69126678450728
20
-7.61708086864488
30
0
41
1
10
-4.79503486630585
20
-7.78877297154605
30
0
41
1
10
-4.97543514483755
20
-8.03303881488131
30
0
41
1
10
-5.03973358082381
20
-8.11223071981814
30
0
41
1
10
-5.17893362392576
20
-8.2651568613432
30
0
41
1
10
-5.25300494784939
20
-8.33791002118039
30
0
41
1
10
-5.41049164235615
20
-8.47329310847417
30
0
41
1
10
-5.49407608281142
20
-8.53615420612931
30
0
41
1
10
-5.67346592733142
20
-8.64996303558976
30
0
41
1
10
-5.76709683224057
20
-8.69948671737211
30
0
41
1
10
-5.96303851927409
20
-8.78163447161853
30
0
41
1
10
-6.06561702593201
20
-8.81437574885777
30
0
41
1
10
-6.28052082104801
20
-8.85935768582462
30
0
41
1
10
-6.38946945782645
20
-8.87089623432257
30
0
41
1
10
-6.5000000000954
20
-8.87089623431589
30
0
0
SPLINE
5
2D5
100
AcDbEntity
8
SK1
62
256
6
ByLayer
370
13
48
1
60
0
100
AcDbSpline
70
4
71
3
72
8
73
4
40
0
40
0
40
0
40
0
40
1
40
1
40
1
40
1
41
1
10
-69
20
-8.87089623431584
30
0
41
1
10
-69.3685589153682
20
-8.0795925242185
30
0
41
1
10
-69.7053933622917
20
-7.27414418636064
30
0
41
1
10
-70
20
-6.44986821570788
30
0
0
SPLINE
5
2D6
100
AcDbEntity
8
SK1
62
256
6
ByLayer
370
13
48
1
60
0
100
AcDbSpline
70
4
71
3
72
8
73
4
40
0
40
0
40
0
40
0
40
1
40
1
40
1
40
1
41
1
10
-67.6338131992845
20
8.07752044937243
30
0
41
1
10
-67.294061759835
20
8.34847702800076
30
0
41
1
10
-66.9491462783909
20
8.61251804490684
30
0
41
1
10
-66.6000022063887
20
8.87089623431601
30
0
0
SPLINE
5
2D7
100
AcDbEntity
8
SK1
62
256
6
ByLayer
370
13
48
1
60
0
100
AcDbSpline
70
4
71
3
72
8
73
4
40
0
40
0
40
0
40
0
40
1
40
1
40
1
40
1
41
1
10
-68.5999993841625
20
8.87089623431598
30
0
41
1
10
-68.5718356096165
20
8.7962242090465
30
0
41
1
10
-68.5439078219466
20
8.72143960012821
30
0
41
1
10
-68.5162221138915
20
8.64653950086236
30
0
0
SPLINE
5
2D8
100
AcDbEntity
8
SK1
62
256
6
ByLayer
370
13
48
1
60
0
100
AcDbSpline
70
4
71
3
72
24
73
20
40
0
40
0
40
0
40
0
40
0.124999999999998
40
0.124999999999998
40
0.187499999999998
40
0.187499999999998
40
0.249999999999997
40
0.249999999999997
40
0.312499999999996
40
0.312499999999996
40
0.374999999999995
40
0.374999999999995
40
0.499999999999995
40
0.499999999999995
40
0.624999999999996
40
0.624999999999996
40
0.749999999999996
40
0.749999999999996
40
1
40
1
40
1
40
1
41
1
10
-67.6338131992802
20
-8.0775204493757
30
0
41
1
10
-67.6747533059888
20
-8.04487013519184
30
0
41
1
10
-67.7195612014526
20
-8.01749860563658
30
0
41
1
10
-67.7928268759133
20
-7.99022415829779
30
0
41
1
10
-67.8186099136469
20
-7.98341533666706
30
0
41
1
10
-67.8702377710496
20
-7.97584764333209
30
0
41
1
10
-67.8964211377289
20
-7.97495672022018
30
0
41
1
10
-67.9490497374436
20
-7.97930047589773
30
0
41
1
10
-67.9746489816421
20
-7.98443974128386
30
0
41
1
10
-68.0246006163589
20
-7.99989255190098
30
0
41
1
10
-68.0490680787129
20
-8.01031623650994
30
0
41
1
10
-68.1182248719782
20
-8.0469549457695
30
0
41
1
10
-68.1601512019842
20
-8.07899984651726
30
0
41
1
10
-68.2360566690459
20
-8.15077030465307
30
0
41
1
10
-68.2698164349815
20
-8.19015258317449
30
0
41
1
10
-68.3318488230967
20
-8.27349356792351
30
0
41
1
10
-68.3601520983357
20
-8.3176575732663
30
0
41
1
10
-68.4377912107178
20
-8.45367817332618
30
0
41
1
10
-68.4803734932244
20
-8.54955569820223
30
0
41
1
10
-68.5162221138915
20
-8.64653950086213
30
0
0
SPLINE
5
2D9
100
AcDbEntity
8
SK1
62
256
6
ByLayer
370
13
48
1
60
0
100
AcDbSpline
70
4
71
3
72
8
73
4
40
0
40
0
40
0
40
0
40
1
40
1
40
1
40
1
41
1
10
-68.5162221138915
20
-8.64653950086213
30
0
41
1
10
-68.5438902081973
20
-8.72139194840918
30
0
41
1
10
-68.5718178207736
20
-8.79617704459645
30
0
41
1
10
-68.5999993841625
20
-8.87089623431586
30
0
0
SPLINE
5
2DA
100
AcDbEntity
8
SK1
62
256
6
ByLayer
370
13
48
1
60
0
100
AcDbSpline
70
4
71
3
72
8
73
4
40
0
40
0
40
0
40
0
40
1
40
1
40
1
40
1
41
1
10
-66.6000022063888
20
-8.87089623431581
30
0
41
1
10
-66.9493175829836
20
-8.61239127382837
30
0
41
1
10
-67.2942397234117
20
-8.34833509953083
30
0
41
1
10
-67.6338131992802
20
-8.0775204493757
30
0
0
SPLINE
5
2DB
100
AcDbEntity
8
1
62
256
6
ByLayer
370
13
48
1
60
0
100
AcDbSpline
70
4
71
3
72
18
73
14
40
0
40
0
40
0
40
0
40
0.125000000000011
40
0.125000000000011
40
0.250000000000022
40
0.250000000000022
40
0.500000000000024
40
0.500000000000024
40
0.625000000000025
40
0.625000000000025
40
0.750000000000026
40
0.750000000000026
40
1
40
1
40
1
40
1
41
1
10
249.31555496511
20
10.8152697127151
30
0
41
1
10
249.420219057482
20
10.7467228427018
30
0
41
1
10
249.522899139265
20
10.6737825761665
30
0
41
1
10
249.721436358678
20
10.5209767213638
30
0
41
1
10
249.816596624673
20
10.4417174010484
30
0
41
1
10
250.090637214223
20
10.1963605722068
30
0
41
1
10
250.258142445566
20
10.0227568774374
30
0
41
1
10
250.489497913318
20
9.75091835289226
30
0
41
1
10
250.563283075211
20
9.65838296739096
30
0
41
1
10
250.704482934427
20
9.46988250866775
30
0
41
1
10
250.772164809099
20
9.37348674357264
30
0
41
1
10
250.963083312586
20
9.08410682854884
30
0
41
1
10
251.075024949861
20
8.89047938640229
30
0
41
1
10
251.173172470369
20
8.69641375417973
30
0
0
SPLINE
5
2DC
100
AcDbEntity
8
1
62
256
6
ByLayer
370
13
48
1
60
0
100
AcDbSpline
70
4
71
3
72
8
73
4
40
0
40
0
40
0
40
0
40
1
40
1
40
1
40
1
41
1
10
243.783716695002
20
2.81333513645774
30
0
41
1
10
241.335645083803
20
3.95515185627005
30
0
41
1
10
238.907056726294
20
5.15850182771527
30
0
41
1
10
236.495951693733
20
6.41706874857496
30
0
0
SPLINE
5
2DD
100
AcDbEntity
8
1
62
256
6
ByLayer
370
13
48
1
60
0
100
AcDbSpline
70
4
71
3
72
18
73
14
40
0
40
0
40
0
40
0
40
0.125
40
0.125
40
0.25
40
0.25
40
0.375
40
0.375
40
0.5
40
0.5
40
0.75
40
0.75
40
1
40
1
40
1
40
1
41
1
10
125.74016
20
-8.28623398190021
30
0
41
1
10
121.909476660848
20
-8.29897683652749
30
0
41
1
10
118.078781777702
20
-8.30815289199526
30
0
41
1
10
110.417397471255
20
-8.31551112681959
30
0
41
1
10
106.586710373306
20
-8.31366449117962
30
0
41
1
10
98.9253376546852
20
-8.3083314674476
30
0
41
1
10
95.0946516671663
20
-8.30531140392131
30
0
41
1
10
87.4332755714975
20
-8.30193737309659
30
0
41
1
10
83.6025847080855
20
-8.30178975957378
30
0
41
1
10
72.1105098349901
20
-8.30536999985245
30
0
41
1
10
64.4491244726308
20
-8.31077633585534
30
0
41
1
10
49.1263604875042
20
-8.31286398143374
30
0
41
1
10
41.4649818762728
20
-8.31026177424627
30
0
41
1
10
33.8036
20
-8.3107657276615
30
0
0
SPLINE
5
2DE
100
AcDbEntity
8
1
62
256
6
ByLayer
370
13
48
1
60
0
100
AcDbSpline
70
4
71
3
72
48
73
44
40
0
40
0
40
0
40
0
40
0.0821979716262101
40
0.0821979716262101
40
0.123296957439315
40
0.123296957439315
40
0.16439594325242
40
0.16439594325242
40
0.328791886504841
40
0.328791886504841
40
0.369890872317946
40
0.369890872317946
40
0.410989858131051
40
0.410989858131051
40
0.452088843944155
40
0.452088843944155
40
0.49318782975726
40
0.49318782975726
40
0.513737322663813
40
0.513737322663813
40
0.534286815570365
40
0.534286815570365
40
0.57538580138347
40
0.57538580138347
40
0.616484787196575
40
0.616484787196575
40
0.65758377300968
40
0.65758377300968
40
0.698682758822784
40
0.698682758822784
40
0.739781744635889
40
0.739781744635889
40
0.780880730448994
40
0.780880730448994
40
0.821979716262099
40
0.821979716262099
40
0.863078702075203
40
0.863078702075203
40
0.904177687888308
40
0.904177687888308
40
0.986375659514517
40
0.986375659514517
40
1
40
1
40
1
40
1
41
1
10
236.132655082371
20
6.54035845211004
30
0
41
1
10
233.92947956192
20
7.49034596607592
30
0
41
1
10
231.728083060532
20
8.42101886419999
30
0
41
1
10
228.424216860243
20
9.77881494755886
30
0
41
1
10
227.322629424233
20
10.2250386071082
30
0
41
1
10
225.1180880802
20
11.103154104189
30
0
41
1
10
224.01466918277
20
11.5352172674178
30
0
41
1
10
218.503159764915
20
13.6516140973787
30
0
41
1
10
214.10511315098
20
15.2067967729978
30
0
41
1
10
208.591990758581
20
16.9258914039159
30
0
41
1
10
207.489759572086
20
17.2580645346069
30
0
41
1
10
205.286957549721
20
17.8974500589059
30
0
41
1
10
204.186120578564
20
18.2047461456289
30
0
41
1
10
201.984797468457
20
18.793482046758
30
0
41
1
10
200.88446782189
20
19.0751101237408
30
0
41
1
10
198.682670253163
20
19.6106290346592
30
0
41
1
10
197.580792926757
20
19.8639080448637
30
0
41
1
10
195.920816231448
20
20.216794095878
30
0
41
1
10
195.366290216471
20
20.3299348361546
30
0
41
1
10
194.253824295798
20
20.5465996770732
30
0
41
1
10
193.695829724847
20
20.6500461861295
30
0
41
1
10
192.018606547157
20
20.9457503399824
30
0
41
1
10
190.895419110632
20
21.1236914702427
30
0
41
1
10
188.638337845423
20
21.4456242248148
30
0
41
1
10
187.504366408815
20
21.5895423882243
30
0
41
1
10
185.225495414929
20
21.8479860044219
30
0
41
1
10
184.080700475655
20
21.9626258553329
30
0
41
1
10
181.781295975045
20
22.1675537012738
30
0
41
1
10
180.626654430565
20
22.257816774996
30
0
41
1
10
178.308672216273
20
22.418117864592
30
0
41
1
10
177.145712329225
20
22.4881489700453
30
0
41
1
10
174.816352631192
20
22.6114352440981
30
0
41
1
10
173.649695216454
20
22.6648471932308
30
0
41
1
10
171.311657811705
20
22.7568785619092
30
0
41
1
10
170.140124978295
20
22.7953718128709
30
0
41
1
10
167.789959680845
20
22.8589817637723
30
0
41
1
10
166.611204243096
20
22.8840739572119
30
0
41
1
10
164.245347614484
20
22.9236812878655
30
0
41
1
10
163.0576495495
20
22.9382345497954
30
0
41
1
10
159.486066131474
20
22.9704745388172
30
0
41
1
10
157.097078221489
20
22.9770694593432
30
0
41
1
10
154.303732133826
20
22.9789434050708
30
0
41
1
10
153.906370609635
20
22.9790683023342
30
0
41
1
10
153.508812741554
20
22.9790775219389
30
0
0
SPLINE
5
2DF
100
AcDbEntity
8
1
62
256
6
ByLayer
370
13
48
1
60
0
100
AcDbSpline
70
4
71
3
72
46
73
42
40
0
40
0
40
0
40
0
40
0.0427634753740971
40
0.126040614509966
40
0.215450943489816
40
0.311086667780073
40
0.41297783990968
40
0.52108773263687
40
0.530706162743856
40
0.540625894505845
40
0.550847646177004
40
0.561372116310435
40
0.572199981712847
40
0.583331895165473
40
0.59476848292735
40
0.606510342034464
40
0.618558037406193
40
0.630912098769041
40
0.643573017406498
40
0.656541242743056
40
0.669817178769905
40
0.683401180319505
40
0.697293549196131
40
0.711494530169528
40
0.72600430683899
40
0.740822997375545
40
0.755950650150257
40
0.771387239257305
40
0.787132659941011
40
0.803186723936754
40
0.819549154736477
40
0.836219582790321
40
0.853197540656898
40
0.870482458115627
40
0.888073657255694
40
0.905970347557234
40
0.924171620981529
40
0.942676447088249
40
0.961483668198989
40
0.980591994627703
40
1
40
1
40
1
40
1
41
1
10
25.4863340547981
20
-8.47563966019374
30
0
41
1
10
25.5176890842348
20
-8.54338882610799
30
0
41
1
10
25.6126401445507
20
-8.74435183180438
30
0
41
1
10
25.7873136261913
20
-9.09382152928609
30
0
41
1
10
26.026516059708
20
-9.5359904585051
30
0
41
1
10
26.3063052304443
20
-10.0130177611758
30
0
41
1
10
26.6292417920735
20
-10.5214819901907
30
0
41
1
10
26.877959716591
20
-10.8838271761826
30
0
41
1
10
27.0265701083372
20
-11.0921722495355
30
0
41
1
10
27.0613363692636
20
-11.1406918936023
30
0
41
1
10
27.097308326694
20
-11.1906053416906
30
0
41
1
10
27.1345043087341
20
-11.2418994536187
30
0
41
1
10
27.1729465711689
20
-11.2945554366881
30
0
41
1
10
27.2126556199392
20
-11.3485543753902
30
0
41
1
10
27.2536516661344
20
-11.4038756012046
30
0
41
1
10
27.2959540790484
20
-11.460497066179
30
0
41
1
10
27.3395813934946
20
-11.5183951561251
30
0
41
1
10
27.3845511568573
20
-11.5775446604237
30
0
41
1
10
27.4308798154171
20
-11.637918698486
30
0
41
1
10
27.4785825843385
20
-11.6994886589122
30
0
41
1
10
27.5276733168898
20
-11.7622241360038
30
0
41
1
10
27.5781643686566
20
-11.8260928681925
30
0
41
1
10
27.6300664580589
20
-11.8910606774165
30
0
41
1
10
27.6833885229627
20
-11.9570914100269
30
0
41
1
10
27.7381375736358
20
-12.0241468793893
30
0
41
1
10
27.7943185422051
20
-12.0921868104734
30
0
41
1
10
27.8519341288316
20
-12.161168786694
30
0
41
1
10
27.9109846448463
20
-12.2310481993156
30
0
41
1
10
27.9714678531161
20
-12.3017781996173
30
0
41
1
10
28.0333788059705
20
-12.3733096544881
30
0
41
1
10
28.0967096809415
20
-12.4455911043523
30
0
41
1
10
28.1614496150545
20
-12.5185687291531
30
0
41
1
10
28.2275845367154
20
-12.592186301946
30
0
41
1
10
28.2950970009264
20
-12.6663852101152
30
0
41
1
10
28.3639660081082
20
-12.7411042390166
30
0
41
1
10
28.4341668845677
20
-12.8162802892214
30
0
41
1
10
28.5056709283753
20
-12.8918455432101
30
0
41
1
10
28.5784459575687
20
-12.9677382492905
30
0
41
1
10
28.6524534136508
20
-13.0438614363336
30
0
41
1
10
28.7276586481927
20
-13.1202407676789
30
0
41
1
10
28.7781552519756
20
-13.170637047354
30
0
41
1
10
28.8036
20
-13.1960312430353
30
0
0
SPLINE
5
2E0
100
AcDbEntity
8
1
62
256
6
ByLayer
370
13
48
1
60
0
100
AcDbSpline
70
4
71
3
72
14
73
10
40
0
40
0
40
0
40
0
40
0.249999999999999
40
0.249999999999999
40
0.375
40
0.375
40
0.500000000000001
40
0.500000000000001
40
1
40
1
40
1
40
1
41
1
10
24.0141328522231
20
-8.90811066282143
30
0
41
1
10
24.2523255159323
20
-8.81113425784187
30
0
41
1
10
24.496065789236
20
-8.72513971024293
30
0
41
1
10
24.8702192078287
20
-8.61326567900809
30
0
41
1
10
24.9962921717011
20
-8.57887506359941
30
0
41
1
10
25.2486884124718
20
-8.51653894790164
30
0
41
1
10
25.3753330185342
20
-8.4884929481627
30
0
41
1
10
26.0107615674345
20
-8.36370373803524
30
0
41
1
10
26.526097969635
20
-8.3128504832861
30
0
41
1
10
27.0485980574156
20
-8.31227235760048
30
0
0
SPLINE
5
2E1
100
AcDbEntity
8
1
62
256
6
ByLayer
370
13
48
1
60
0
100
AcDbSpline
70
4
71
3
72
16
73
12
40
0
40
0
40
0
40
0
40
0.414099033356616
40
0.414099033356616
40
0.621148550034924
40
0.621148550034924
40
0.724673308374077
40
0.724673308374077
40
0.828198066713231
40
0.828198066713231
40
1
40
1
40
1
40
1
41
1
10
5.96376950490308
20
-18.258569814827
30
0
41
1
10
6.17090203162246
20
-17.3124154698712
30
0
41
1
10
6.4529633128639
20
-16.38033958578
30
0
41
1
10
6.99500989123419
20
-15.0031813336719
30
0
41
1
10
7.19567384819324
20
-14.5476565120615
30
0
41
1
10
7.52883689657027
20
-13.8699363832668
30
0
41
1
10
7.64527569453369
20
-13.6449296213492
30
0
41
1
10
7.88931188550046
20
-13.1969990067578
30
0
41
1
10
8.01711766039959
20
-12.9738105431405
30
0
41
1
10
8.36919888681456
20
-12.3873719779306
30
0
41
1
10
8.60175578639883
20
-12.0279046527885
30
0
41
1
10
8.84690999707438
20
-11.6747041102892
30
0
0
SPLINE
5
2E2
100
AcDbEntity
8
1
62
256
6
ByLayer
370
13
48
1
60
0
100
AcDbSpline
70
4
71
3
72
10
73
6
40
0
40
0
40
0
40
0
40
0.366699974558749
40
0.366699974558749
40
1
40
1
40
1
40
1
41
1
10
226.911775892538
20
10.3878171879569
30
0
41
1
10
228.083857762452
20
9.9217729925974
30
0
41
1
10
229.256111550484
20
9.44746293969686
30
0
41
1
10
232.450851121134
20
8.13554066848934
30
0
41
1
10
234.472886617993
20
7.28417145934372
30
0
41
1
10
236.495951693733
20
6.41706874857496
30
0
0
SPLINE
5
2E3
100
AcDbEntity
8
1
62
256
6
ByLayer
370
13
48
1
60
0
100
AcDbSpline
70
4
71
3
72
12
73
8
40
0
40
0
40
0
40
0
40
0.25
40
0.25
40
0.5
40
0.5
40
1
40
1
40
1
40
1
41
1
10
10.1098
20
3.30389422831098
30
0
41
1
10
9.7005286379282
20
3.48978694338774
30
0
41
1
10
9.28554710201216
20
3.65798556162892
30
0
41
1
10
8.44762737081109
20
3.9697275239983
30
0
41
1
10
8.02464631095219
20
4.11313804381302
30
0
41
1
10
6.74650155243997
20
4.51485670099399
30
0
41
1
10
5.88227613198518
20
4.74508531093673
30
0
41
1
10
5.00980000000017
20
4.94974746830559
30
0
0
SPLINE
5
2E4
100
AcDbEntity
8
1
62
256
6
ByLayer
370
13
48
1
60
0
100
AcDbSpline
70
4
71
3
72
8
73
4
40
0
40
0
40
0
40
0
40
1
40
1
40
1
40
1
41
1
10
248.408846331968
20
-0.352489115635223
30
0
41
1
10
249.023239830997
20
-0.4063652524232
30
0
41
1
10
249.637660180821
20
-0.460095151876828
30
0
41
1
10
250.252106212145
20
-0.513683810240281
30
0
0
SPLINE
5
2E5
100
AcDbEntity
8
1
62
256
6
ByLayer
370
13
48
1
60
0
100
AcDbSpline
70
4
71
3
72
8
73
4
40
0
40
0
40
0
40
0
40
1
40
1
40
1
40
1
41
1
10
247.252106212145
20
-0.168324640641544
30
0
41
1
10
247.635811646213
20
-0.257001919607973
30
0
41
1
10
248.02140037077
20
-0.318513997674614
30
0
41
1
10
248.408846331968
20
-0.352489115634768
30
0
0
SPLINE
5
2E6
100
AcDbEntity
8
1
62
256
6
ByLayer
370
13
48
1
60
0
100
AcDbSpline
70
2053
71
3
72
95
73
91
40
0
40
0
40
0
40
0
40
0.0312499999999913
40
0.0312499999999913
40
0.046874999999981
40
0.046874999999981
40
0.0624999999999706
40
0.0624999999999706
40
0.0937499999999611
40
0.0937499999999611
40
0.109374999999956
40
0.109374999999956
40
0.124999999999952
40
0.124999999999952
40
0.156249999999951
40
0.156249999999951
40
0.18749999999995
40
0.18749999999995
40
0.203124999999949
40
0.203124999999949
40
0.218749999999949
40
0.218749999999949
40
0.249999999999948
40
0.249999999999948
40
0.265624999999947
40
0.265624999999947
40
0.281249999999947
40
0.281249999999947
40
0.312499999999943
40
0.312499999999943
40
0.328124999999942
40
0.328124999999942
40
0.34374999999994
40
0.34374999999994
40
0.374999999999937
40
0.374999999999937
40
0.406249999999933
40
0.406249999999933
40
0.421874999999927
40
0.421874999999927
40
0.43749999999992
40
0.43749999999992
40
0.468749999999907
40
0.468749999999907
40
0.4843749999999
40
0.4843749999999
40
0.499999999999893
40
0.499999999999893
40
0.531249999999893
40
0.531249999999893
40
0.546874999999892
40
0.546874999999892
40
0.562499999999892
40
0.578124999999891
40
0.578124999999891
40
0.593749999999891
40
0.593749999999891
40
0.62499999999989
40
0.62499999999989
40
0.640624999999894
40
0.640624999999894
40
0.656249999999898
40
0.656249999999898
40
0.687499999999905
40
0.687499999999905
40
0.718749999999913
40
0.718749999999913
40
0.734374999999915
40
0.734374999999915
40
0.749999999999918
40
0.749999999999918
40
0.781249999999923
40
0.781249999999923
40
0.796874999999926
40
0.796874999999926
40
0.81249999999993
40
0.81249999999993
40
0.843749999999942
40
0.843749999999942
40
0.874999999999953
40
0.874999999999953
40
0.906249999999965
40
0.906249999999965
40
0.921874999999971
40
0.921874999999971
40
0.937499999999977
40
0.937499999999977
40
0.968749999999988
40
0.968749999999988
40
1
40
1
40
1
40
1
41
1
10
262.147789113497
20
-2.66522916627471
30
0
41
1
10
262.290277105069
20
-2.66522916627471
30
0
41
1
10
262.430252027789
20
-2.67983878730249
30
0
41
1
10
262.636603219958
20
-2.72273269669978
30
0
41
1
10
262.704780280377
20
-2.74055490020009
30
0
41
1
10
262.839890248981
20
-2.78342093720465
30
0
41
1
10
262.906668597118
20
-2.80846943701835
30
0
41
1
10
263.100560766816
20
-2.89268504168163
30
0
41
1
10
263.222851405061
20
-2.96129070068008
30
0
41
1
10
263.395888672941
20
-3.08272508199488
30
0
41
1
10
263.452080622141
20
-3.1265683557294
30
0
41
1
10
263.558709730439
20
-3.21877488365911
30
0
41
1
10
263.609353928689
20
-3.26723818309006
30
0
41
1
10
263.753512208248
20
-3.41947771252776
30
0
41
1
10
263.83962813393
20
-3.53053277601023
30
0
41
1
10
263.98945495742
20
-3.76904921697047
30
0
41
1
10
264.051487617098
20
-3.89361456219638
30
0
41
1
10
264.126269849019
20
-4.08790924839997
30
0
41
1
10
264.148130560316
20
-4.15392468622943
30
0
41
1
10
264.185637772045
20
-4.28847907390909
30
0
41
1
10
264.201184596914
20
-4.35679737840979
30
0
41
1
10
264.237719723309
20
-4.56140370575653
30
0
41
1
10
264.249068995819
20
-4.69862004988462
30
0
41
1
10
264.246979277365
20
-4.90561301718103
30
0
41
1
10
264.243034737714
20
-4.97513748042033
30
0
41
1
10
264.228737088691
20
-5.11284616774898
30
0
41
1
10
264.218438582497
20
-5.18086912246406
30
0
41
1
10
264.178377314166
20
-5.38252621078249
30
0
41
1
10
264.139534487687
20
-5.5137690793662
30
0
41
1
10
264.062627149703
20
-5.70578988657971
30
0
41
1
10
264.03377965382
20
-5.76906357110971
30
0
41
1
10
263.970919734793
20
-5.89141816903006
30
0
41
1
10
263.936790378698
20
-5.95082968631695
30
0
41
1
10
263.82636310071
20
-6.12383647036384
30
0
41
1
10
263.74211348514
20
-6.23225886441159
30
0
41
1
10
263.550710272333
20
-6.4344065213262
30
0
41
1
10
263.445974242774
20
-6.5254165269879
30
0
41
1
10
263.277094437882
20
-6.64534889481666
30
0
41
1
10
263.218733686752
20
-6.68263923776431
30
0
41
1
10
263.097705398789
20
-6.7516493134662
30
0
41
1
10
263.034663097525
20
-6.78352931606153
30
0
41
1
10
262.841405961498
20
-6.86902899988922
30
0
41
1
10
262.708488609562
20
-6.91219687200351
30
0
41
1
10
262.502969173967
20
-6.95623062573066
30
0
41
1
10
262.433431618363
20
-6.96743060533589
30
0
41
1
10
262.292196317696
20
-6.98255450147755
30
0
41
1
10
262.221028316376
20
-6.98637730976142
30
0
41
1
10
262.009570195398
20
-6.98666573073695
30
0
41
1
10
261.869837421298
20
-6.97223520697275
30
0
41
1
10
261.662105260637
20
-6.92851970545146
30
0
41
1
10
261.59321561647
20
-6.9101907437601
30
0
41
1
10
261.459352493968
20
-6.86706320072076
30
0
41
1
10
261.328539925515
20
-6.81731196117997
30
0
41
1
10
261.203636475551
20
-6.75468928046942
30
0
41
1
10
261.081680050288
20
-6.68562234565078
30
0
41
1
10
261.022091402229
20
-6.6477568071185
30
0
41
1
10
260.851435832529
20
-6.52701366620724
30
0
41
1
10
260.747068763468
20
-6.43638499418284
30
0
41
1
10
260.603978235704
20
-6.28577413977658
30
0
41
1
10
260.558347708152
20
-6.23283281838411
30
0
41
1
10
260.473093358352
20
-6.1237633136777
30
0
41
1
10
260.433355502966
20
-6.06756711562107
30
0
41
1
10
260.322494378763
20
-5.89414166950013
30
0
41
1
10
260.259644606721
20
-5.77212041493885
30
0
41
1
10
260.156382574135
20
-5.51492818590557
30
0
41
1
10
260.117371097624
20
-5.38314019791696
30
0
41
1
10
260.077279059672
20
-5.18169121925268
30
0
41
1
10
260.066988737642
20
-5.11386024642889
30
0
41
1
10
260.052675031773
20
-4.97680407998024
30
0
41
1
10
260.048655013478
20
-4.9072218664343
30
0
41
1
10
260.046436492413
20
-4.69919699266276
30
0
41
1
10
260.057835496445
20
-4.56197736163139
30
0
41
1
10
260.094077577317
20
-4.35834794933314
30
0
41
1
10
260.109370011881
20
-4.2908409539078
30
0
41
1
10
260.146616560107
20
-4.15660239011677
30
0
41
1
10
260.168687270968
20
-4.08966023490407
30
0
41
1
10
260.24369371369
20
-3.89437567336824
30
0
41
1
10
260.305624560255
20
-3.77017596488025
30
0
41
1
10
260.453578785479
20
-3.53398133235484
30
0
41
1
10
260.54076217714
20
-3.4210210376809
30
0
41
1
10
260.733218262204
20
-3.21744546019971
30
0
41
1
10
260.838804694211
20
-3.1257963748912
30
0
41
1
10
261.011600790461
20
-3.00402353486803
30
0
41
1
10
261.071973370674
20
-2.96589583461417
30
0
41
1
10
261.195165439102
20
-2.89663492177712
30
0
41
1
10
261.258141268643
20
-2.86534133619867
30
0
41
1
10
261.451131259245
20
-2.78129970978148
30
0
41
1
10
261.585461629926
20
-2.73822513311708
30
0
41
1
10
261.864239648648
20
-2.67985768742932
30
0
41
1
10
262.005301121926
20
-2.66522916627471
30
0
41
1
10
262.147789113497
20
-2.66522916627471
30
0
0
SPLINE
5
2E7
100
AcDbEntity
8
1
62
256
6
ByLayer
370
13
48
1
60
0
100
AcDbSpline
70
4
71
3
72
40
73
36
40
0
40
0
40
0
40
0
40
0.0312500000000002
40
0.0312500000000002
40
0.0625000000000004
40
0.0625000000000004
40
0.125
40
0.125
40
0.1875
40
0.1875
40
0.25
40
0.25
40
0.3125
40
0.3125
40
0.375
40
0.375
40
0.5
40
0.5
40
0.625
40
0.625
40
0.6875
40
0.6875
40
0.75
40
0.75
40
0.8125
40
0.8125
40
0.875
40
0.875
40
0.90625
40
0.90625
40
0.9375
40
0.9375
40
0.96875
40
0.96875
40
1
40
1
40
1
40
1
41
1
10
10.1098
20
3.30389422831098
30
0
41
1
10
10.1793124100124
20
3.27232140933017
30
0
41
1
10
10.2392281681268
20
3.22767451146234
30
0
41
1
10
10.3486430946814
20
3.12417318499084
30
0
41
1
10
10.3968453144784
20
3.06600013255761
30
0
41
1
10
10.5268563795687
20
2.88381984684773
30
0
41
1
10
10.5965123618018
20
2.7493259614686
30
0
41
1
10
10.7146211308533
20
2.47667569406423
30
0
41
1
10
10.7633946582063
20
2.33708087936696
30
0
41
1
10
10.848049498681
20
2.05371379638285
30
0
41
1
10
10.8837717336498
20
1.90989237410653
30
0
41
1
10
10.9453415268229
20
1.6189970175102
30
0
41
1
10
10.9711354678065
20
1.47178128361261
30
0
41
1
10
11.014056479919
20
1.17810311563846
30
0
41
1
10
11.031277448431
20
1.03115969652492
30
0
41
1
10
11.0720484216869
20
0.590057381724847
30
0
41
1
10
11.0848880823598
20
0.295630511565321
30
0
41
1
10
11.0849401385236
20
-0.293872364041192
30
0
41
1
10
11.0721596988426
20
-0.588948202322769
30
0
41
1
10
11.0311854792295
20
-1.03210728523919
30
0
41
1
10
11.0137955367465
20
-1.1802323455191
30
0
41
1
10
10.9706375102741
20
-1.4748385704307
30
0
41
1
10
10.944910034088
20
-1.62130240389408
30
0
41
1
10
10.8832261395656
20
-1.9121991134044
30
0
41
1
10
10.8471891667103
20
-2.05703019179799
30
0
41
1
10
10.7619844369291
20
-2.34135295680284
30
0
41
1
10
10.7129711155894
20
-2.48098840339119
30
0
41
1
10
10.6244276880066
20
-2.68462193373796
30
0
41
1
10
10.5923775780975
20
-2.75151788339795
30
0
41
1
10
10.5212149262348
20
-2.88259646069835
30
0
41
1
10
10.4821416731456
20
-2.94668470763403
30
0
41
1
10
10.395375470992
20
-3.06784525347339
30
0
41
1
10
10.3470447809875
20
-3.1258672591666
30
0
41
1
10
10.2384563644272
20
-3.22821843558174
30
0
41
1
10
10.178963606275
20
-3.27247983740452
30
0
41
1
10
10.1098
20
-3.30389422831101
30
0
0
SPLINE
5
2E8
100
AcDbEntity
8
1
62
256
6
ByLayer
370
13
48
1
60
0
100
AcDbSpline
70
4
71
3
72
18
73
14
40
0
40
0
40
0
40
0
40
0.125000000000023
40
0.125000000000023
40
0.250000000000047
40
0.250000000000047
40
0.375000000000071
40
0.375000000000071
40
0.500000000000095
40
0.500000000000095
40
0.750000000000048
40
0.750000000000048
40
1
40
1
40
1
40
1
41
1
10
255.699549027946
20
7.31052806864375
30
0
41
1
10
255.686587875733
20
7.29774735899963
30
0
41
1
10
255.678233985639
20
7.28870658780338
30
0
41
1
10
255.673353281597
20
7.27977503459883
30
0
41
1
10
255.67672835791
20
7.27971815804233
30
0
41
1
10
255.693059609988
20
7.28727166478345
30
0
41
1
10
255.706099549338
20
7.29489449346679
30
0
41
1
10
255.738059509054
20
7.31559336849301
30
0
41
1
10
255.757263314143
20
7.32884906593534
30
0
41
1
10
255.820328584251
20
7.3750484381153
30
0
41
1
10
255.868358883462
20
7.41335934224861
30
0
41
1
10
255.971162336554
20
7.5048164429291
30
0
41
1
10
256.023228599886
20
7.55556308450397
30
0
41
1
10
256.074956732343
20
7.61185615848805
30
0
0
SPLINE
5
2E9
100
AcDbEntity
8
1
62
256
6
ByLayer
370
13
48
1
60
0
100
AcDbSpline
70
4
71
3
72
14
73
10
40
0
40
0
40
0
40
0
40
0.25
40
0.25
40
0.5
40
0.5
40
0.75
40
0.75
40
1
40
1
40
1
40
1
41
1
10
256.039599543143
20
8.33786755473437
30
0
41
1
10
256.067215734162
20
8.3306147253912
30
0
41
1
10
256.092046305561
20
8.32206906547754
30
0
41
1
10
256.133786643866
20
8.30325546280866
30
0
41
1
10
256.151280972671
20
8.29270349131613
30
0
41
1
10
256.177567483606
20
8.27063877756837
30
0
41
1
10
256.186520024574
20
8.25915982637201
30
0
41
1
10
256.196601406738
20
8.23536817119097
30
0
41
1
10
256.197574349004
20
8.22304390965397
30
0
41
1
10
256.194832509097
20
8.21101853869786
30
0
0
SPLINE
5
2EA
100
AcDbEntity
8
1
62
256
6
ByLayer
370
13
48
1
60
0
100
AcDbSpline
70
4
71
3
72
52
73
48
40
0
40
0
40
0
40
0
40
0.124999999999996
40
0.124999999999996
40
0.249999999999992
40
0.249999999999992
40
0.281249999999993
40
0.281249999999993
40
0.312499999999994
40
0.312499999999994
40
0.374999999999995
40
0.374999999999995
40
0.406249999999996
40
0.406249999999996
40
0.437499999999997
40
0.437499999999997
40
0.499999999999999
40
0.499999999999999
40
0.5625
40
0.5625
40
0.578125000000004
40
0.578125000000004
40
0.593750000000007
40
0.593750000000007
40
0.625000000000008
40
0.625000000000008
40
0.656250000000009
40
0.656250000000009
40
0.671875000000007
40
0.671875000000007
40
0.687500000000006
40
0.687500000000006
40
0.750000000000007
40
0.750000000000007
40
0.781250000000007
40
0.781250000000007
40
0.796875000000008
40
0.796875000000008
40
0.812500000000008
40
0.812500000000008
40
0.875000000000006
40
0.875000000000006
40
0.906250000000004
40
0.906250000000004
40
0.937500000000003
40
0.937500000000003
40
1
40
1
40
1
40
1
41
1
10
248.60291554676
20
1.92623164282929
30
0
41
1
10
249.505751554556
20
1.74014138477807
30
0
41
1
10
250.415483714132
20
1.57397824659176
30
0
41
1
10
252.257667886651
20
1.30730325746518
30
0
41
1
10
253.190012989793
20
1.20648247996772
30
0
41
1
10
254.376960019988
20
1.14262813301045
30
0
41
1
10
254.615621402636
20
1.13301605422612
30
0
41
1
10
255.091090492418
20
1.12086070577467
30
0
41
1
10
255.328388292292
20
1.11828410768365
30
0
41
1
10
256.038872523875
20
1.12185061768605
30
0
41
1
10
256.510656415907
20
1.13923689515096
30
0
41
1
10
257.215038046088
20
1.1917236477085
30
0
41
1
10
257.449281476511
20
1.21363177089827
30
0
41
1
10
257.916561871396
20
1.26711940222808
30
0
41
1
10
258.149550576591
20
1.29874252556658
30
0
41
1
10
258.836438706287
20
1.40776869591343
30
0
41
1
10
259.281614696928
20
1.49959229642442
30
0
41
1
10
260.143674461094
20
1.72571187119522
30
0
41
1
10
260.560604279092
20
1.85993872333248
30
0
41
1
10
261.061101163877
20
2.05874523969092
30
0
41
1
10
261.160428373538
20
2.10019030517824
30
0
41
1
10
261.355265221753
20
2.18564114951079
30
0
41
1
10
261.450788305053
20
2.2296377816659
30
0
41
1
10
261.731635745175
20
2.36546531077084
30
0
41
1
10
261.911247231627
20
2.4611278446751
30
0
41
1
10
262.254839124214
20
2.66293671854075
30
0
41
1
10
262.418821769673
20
2.76908155658148
30
0
41
1
10
262.652547450395
20
2.93651377177281
30
0
41
1
10
262.7284119885
20
2.9936954411113
30
0
41
1
10
262.875928979919
20
3.11088383596729
30
0
41
1
10
262.947780685519
20
3.17107477664129
30
0
41
1
10
263.292882065221
20
3.47639493933843
30
0
41
1
10
263.524899763061
20
3.73492383859346
30
0
41
1
10
263.808081199596
20
4.14372144863128
30
0
41
1
10
263.891610906696
20
4.28350635808215
30
0
41
1
10
264.000241780859
20
4.49858132928847
30
0
41
1
10
264.033753067946
20
4.57138924770194
30
0
41
1
10
264.09455721566
20
4.71745302636919
30
0
41
1
10
264.121892527575
20
4.79074729036387
30
0
41
1
10
264.2436580168
20
5.15849431647371
30
0
41
1
10
264.29366552946
20
5.45674762841972
30
0
41
1
10
264.301606801919
20
5.90986572272016
30
0
41
1
10
264.29287475894
20
6.06256866454669
30
0
41
1
10
264.253756430525
20
6.36507859472229
30
0
41
1
10
264.22349184751
20
6.51513566119161
30
0
41
1
10
264.102645145408
20
6.96194404111594
30
0
41
1
10
263.982157649149
20
7.25534904830855
30
0
41
1
10
263.824882428061
20
7.5446376388023
30
0
0
SPLINE
5
2EB
100
AcDbEntity
8
1
62
256
6
ByLayer
370
13
48
1
60
0
100
AcDbSpline
70
4
71
3
72
8
73
4
40
0
40
0
40
0
40
0
40
1
40
1
40
1
40
1
41
1
10
33.8036
20
-23.1296527399775
30
0
41
1
10
32.1369333264109
20
-23.129652284592
30
0
41
1
10
30.4702666409709
20
-23.1296636904753
30
0
41
1
10
28.8036
20
-23.1296922938085
30
0
0
SPLINE
5
2EC
100
AcDbEntity
8
1
62
256
6
ByLayer
370
13
48
1
60
0
100
AcDbSpline
70
4
71
3
72
16
73
12
40
0
40
0
40
0
40
0
40
0.249999999999979
40
0.249999999999979
40
0.499999999999957
40
0.499999999999957
40
0.749999999999936
40
0.749999999999936
40
0.874999999999968
40
0.874999999999968
40
1
40
1
40
1
40
1
41
1
10
251.173172470369
20
8.6964137541801
30
0
41
1
10
251.160225692298
20
8.5942186278368
30
0
41
1
10
251.139665517352
20
8.49367832986206
30
0
41
1
10
251.081838479994
20
8.2962290565425
30
0
41
1
10
251.044072429125
20
8.19847954588261
30
0
41
1
10
250.952200005892
20
8.01403955612571
30
0
41
1
10
250.898117778068
20
7.92675930587549
30
0
41
1
10
250.803209997302
20
7.80419781500549
30
0
41
1
10
250.769059596488
20
7.76458044886562
30
0
41
1
10
250.697519985275
20
7.69029509960401
30
0
41
1
10
250.659991204324
20
7.65540385377582
30
0
41
1
10
250.620670473852
20
7.62280624257764
30
0
0
SPLINE
5
2ED
100
AcDbEntity
8
1
62
256
6
ByLayer
370
13
48
1
60
0
100
AcDbSpline
70
4
71
3
72
8
73
4
40
0
40
0
40
0
40
0
40
1
40
1
40
1
40
1
41
1
10
256.074956732344
20
7.61185615848885
30
0
41
1
10
256.096391865019
20
7.63518291420604
30
0
41
1
10
256.117435739482
20
7.65893510833834
30
0
41
1
10
256.138058048494
20
7.68308441372793
30
0
0
SPLINE
5
2EE
100
AcDbEntity
8
1
62
256
6
ByLayer
370
13
48
1
60
0
100
AcDbSpline
70
4
71
3
72
10
73
6
40
0
40
0
40
0
40
0
40
0.5
40
0.5
40
1
40
1
40
1
40
1
41
1
10
250.685799707455
20
6.60834026331028
30
0
41
1
10
250.580741812737
20
6.61620341049783
30
0
41
1
10
250.481390803809
20
6.64333549437296
30
0
41
1
10
250.289518174267
20
6.72174542974122
30
0
41
1
10
250.199987974546
20
6.77171625937353
30
0
41
1
10
250.113922517548
20
6.82673375113501
30
0
0
SPLINE
5
2EF
100
AcDbEntity
8
1
62
256
6
ByLayer
370
13
48
1
60
0
100
AcDbSpline
70
4
71
3
72
10
73
6
40
0
40
0
40
0
40
0
40
0.803213148436331
40
0.803213148436331
40
1
40
1
40
1
40
1
41
1
10
247.519197776577
20
8.76686098829435
30
0
41
1
10
243.012207256366
20
8.92337432881507
30
0
41
1
10
238.509877426589
20
8.97354856018549
30
0
41
1
10
232.904309766372
20
8.90537675800684
30
0
41
1
10
231.801196011858
20
8.88569044724139
30
0
41
1
10
230.698006333015
20
8.85983495804786
30
0
0
SPLINE
5
2F0
100
AcDbEntity
8
1
62
256
6
ByLayer
370
13
48
1
60
0
100
AcDbSpline
70
4
71
3
72
14
73
10
40
0
40
0
40
0
40
0
40
0.125
40
0.125
40
0.25
40
0.25
40
0.5
40
0.5
40
1
40
1
40
1
40
1
41
1
10
24.0141328522231
20
-8.90811066282143
30
0
41
1
10
23.6086879222337
20
-8.93021322754717
30
0
41
1
10
23.2034682018314
20
-8.9551147279445
30
0
41
1
10
22.3934783658061
20
-9.01050547866677
30
0
41
1
10
21.9887935037165
20
-9.04205427161122
30
0
41
1
10
20.7744878509472
20
-9.13358036150538
30
0
41
1
10
19.9647370382053
20
-9.19230504427307
30
0
41
1
10
17.5345724078047
20
-9.36166350220179
30
0
41
1
10
15.9133535718839
20
-9.46547533587244
30
0
41
1
10
14.2910362713411
20
-9.56028042330757
30
0
0
SPLINE
5
2F1
100
AcDbEntity
8
1
62
256
6
ByLayer
370
13
48
1
60
0
100
AcDbSpline
70
4
71
3
72
8
73
4
40
0
40
0
40
0
40
0
40
1
40
1
40
1
40
1
41
1
10
269.206638806791
20
0.496792755645202
30
0
41
1
10
269.205054100131
20
0.544808292799274
30
0
41
1
10
269.204782848587
20
0.592641460952137
30
0
41
1
10
269.20577102094
20
0.637556554965357
30
0
0
SPLINE
5
2F2
100
AcDbEntity
8
1
62
256
6
ByLayer
370
13
48
1
60
0
100
AcDbSpline
70
4
71
1
72
4
73
2
40
0
40
0
40
1
40
1
41
1
10
28.8136000005687
20
-22.4940089381254
30
0
41
1
10
28.8135999994312
20
-22.507835711134
30
0
0
SPLINE
5
2F3
100
AcDbEntity
8
1
62
256
6
ByLayer
370
13
48
1
60
0
100
AcDbSpline
70
4
71
3
72
14
73
10
40
0
40
0
40
0
40
0
40
0.25
40
0.25
40
0.5
40
0.5
40
0.75
40
0.75
40
1
40
1
40
1
40
1
41
1
10
245.262250412564
20
2.16902013240221
30
0
41
1
10
245.483220301657
20
2.07852751038865
30
0
41
1
10
245.70832619996
20
2.00316536229437
30
0
41
1
10
246.166791855309
20
1.88232033632093
30
0
41
1
10
246.400466084872
20
1.83679696362648
30
0
41
1
10
246.875201267233
20
1.7771409287553
30
0
41
1
10
247.111508637657
20
1.7635635903558
30
0
41
1
10
247.582164042217
20
1.7677769016515
30
0
41
1
10
247.816511216176
20
1.78557285514725
30
0
41
1
10
248.049824302199
20
1.81935419784031
30
0
0
SPLINE
5
2F4
100
AcDbEntity
8
1
62
256
6
ByLayer
370
13
48
1
60
0
100
AcDbSpline
70
4
71
3
72
8
73
4
40
0
40
0
40
0
40
0
40
1
40
1
40
1
40
1
41
1
10
27.0485980498959
20
-22.5074461007532
30
0
41
1
10
27.0485980504496
20
-22.7223082999042
30
0
41
1
10
27.0485980510111
20
-22.9371704990513
30
0
41
1
10
27.0485980515805
20
-23.1520326981945
30
0
0
SPLINE
5
2F5
100
AcDbEntity
8
1
62
256
6
ByLayer
370
13
48
1
60
0
100
AcDbSpline
70
4
71
3
72
36
73
32
40
0
40
0
40
0
40
0
40
0.0214596147326846
40
0.0214596147326846
40
0.0442163678784357
40
0.0442163678784357
40
0.0897298741699383
40
0.0897298741699383
40
0.135243380461441
40
0.135243380461441
40
0.180756886752943
40
0.180756886752943
40
0.203513639898695
40
0.203513639898695
40
0.226270393044446
40
0.226270393044446
40
0.271783899335949
40
0.271783899335949
40
0.362810911918954
40
0.362810911918954
40
0.45383792450196
40
0.45383792450196
40
0.499351430793464
40
0.499351430793464
40
0.544864937084967
40
0.544864937084967
40
0.635891949667973
40
0.635891949667973
40
0.817945974833987
40
0.817945974833987
40
1
40
1
40
1
40
1
41
1
10
176.353182372094
20
-12.1856388432528
30
0
41
1
10
175.312372685948
20
-12.2587961325418
30
0
41
1
10
174.270492652744
20
-12.3281205670577
30
0
41
1
10
172.121494497653
20
-12.4639431245091
30
0
41
1
10
171.014196718264
20
-12.5297021581993
30
0
41
1
10
167.687809713273
20
-12.7112510972391
30
0
41
1
10
165.463950592448
20
-12.8096088308065
30
0
41
1
10
161.003428192257
20
-12.9668357266088
30
0
41
1
10
158.772504143356
20
-13.0260737208383
30
0
41
1
10
154.310037192727
20
-13.1133338018709
30
0
41
1
10
152.078379276784
20
-13.141127970704
30
0
41
1
10
148.730202688934
20
-13.1676960515087
30
0
41
1
10
147.614028022756
20
-13.1739379087649
30
0
41
1
10
145.381445874795
20
-13.183018468788
30
0
41
1
10
144.265029001377
20
-13.1861653700601
30
0
41
1
10
140.915639613219
20
-13.1925632166715
30
0
41
1
10
138.682547688203
20
-13.1937931342232
30
0
41
1
10
131.983012842812
20
-13.1957879383264
30
0
41
1
10
127.516291111244
20
-13.1929470478581
30
0
41
1
10
118.58307578498
20
-13.1906625783318
30
0
41
1
10
114.116600275957
20
-13.1898811113717
30
0
41
1
10
107.416931773373
20
-13.1895257192177
30
0
41
1
10
105.183715413467
20
-13.1895217160785
30
0
41
1
10
100.717268354807
20
-13.1897912048441
30
0
41
1
10
98.4840382255512
20
-13.1900306251375
30
0
41
1
10
91.7843326344312
20
-13.1905754836379
30
0
41
1
10
87.3178438998478
20
-13.1908398970078
30
0
41
1
10
73.9183965561975
20
-13.1912410160762
30
0
41
1
10
64.9854400573603
20
-13.1910351618486
30
0
41
1
10
47.1195200314322
20
-13.1909526028246
30
0
41
1
10
38.1865600186109
20
-13.1910546864222
30
0
41
1
10
29.2536
20
-13.190889393587
30
0
0
SPLINE
5
2F6
100
AcDbEntity
8
1
62
256
6
ByLayer
370
13
48
1
60
0
100
AcDbSpline
70
4
71
3
72
8
73
4
40
0
40
0
40
0
40
0
40
1
40
1
40
1
40
1
41
1
10
236.132655082371
20
6.54035845211004
30
0
41
1
10
236.25381144699
20
6.49883458584478
30
0
41
1
10
236.374910845192
20
6.45773409575736
30
0
41
1
10
236.495951693733
20
6.41706874857496
30
0
0
SPLINE
5
2F7
100
AcDbEntity
8
1
62
256
6
ByLayer
370
13
48
1
60
0
100
AcDbSpline
70
4
71
3
72
8
73
4
40
0
40
0
40
0
40
0
40
1
40
1
40
1
40
1
41
1
10
247.367663855073
20
8.23560119377501
30
0
41
1
10
247.420166817685
20
8.41028420560912
30
0
41
1
10
247.469785099901
20
8.58548838299635
30
0
41
1
10
247.517474939216
20
8.76104096570899
30
0
0
SPLINE
5
2F8
100
AcDbEntity
8
1
62
256
6
ByLayer
370
13
48
1
60
0
100
AcDbSpline
70
4
71
3
72
28
73
24
40
0
40
0
40
0
40
0
40
0.156531254362047
40
0.156531254362047
40
0.313062508724094
40
0.313062508724094
40
0.469593763086141
40
0.469593763086141
40
0.547859390267165
40
0.547859390267165
40
0.62612501744819
40
0.62612501744819
40
0.704390644629214
40
0.704390644629214
40
0.782656271810238
40
0.782656271810238
40
0.860921898991262
40
0.860921898991262
40
0.939187526172287
40
0.939187526172287
40
0.978320339762799
40
0.978320339762799
40
1
40
1
40
1
40
1
41
1
10
243.286119798554
20
22.5377836123498
30
0
41
1
10
241.193558560785
20
22.6807143339472
30
0
41
1
10
239.101984548971
20
22.7662846103308
30
0
41
1
10
234.916483853997
20
22.8240802722034
30
0
41
1
10
232.826734754263
20
22.7962859969452
30
0
41
1
10
228.648137064699
20
22.6294975012292
30
0
41
1
10
226.559328508027
20
22.4906461455467
30
0
41
1
10
223.423123616939
20
22.1989805929171
30
0
41
1
10
222.376689083708
20
22.0878371261121
30
0
41
1
10
220.284999330491
20
21.8368751845149
30
0
41
1
10
219.239917912605
20
21.6970375955222
30
0
41
1
10
217.15055388308
20
21.3874401345053
30
0
41
1
10
216.106278959797
20
21.2173532512808
30
0
41
1
10
214.017556640325
20
20.8485613823755
30
0
41
1
10
212.973083564682
20
20.6500623365171
30
0
41
1
10
210.883168315568
20
20.2285332703898
30
0
41
1
10
209.837757588518
20
20.0052208207208
30
0
41
1
10
207.747416924177
20
19.545445864993
30
0
41
1
10
206.702940315971
20
19.3109831573109
30
0
41
1
10
205.130668249261
20
18.9350078756428
30
0
41
1
10
204.605423654679
20
18.8052439517743
30
0
41
1
10
203.787983618464
20
18.6006743638299
30
0
41
1
10
203.496359226329
20
18.5272588133116
30
0
41
1
10
203.204526400846
20
18.4533916103508
30
0
0
SPLINE
5
2F9
100
AcDbEntity
8
1
62
256
6
ByLayer
370
13
48
1
60
0
100
AcDbSpline
70
4
71
3
72
12
73
8
40
0
40
0
40
0
40
0
40
0.5
40
0.5
40
0.75
40
0.75
40
1
40
1
40
1
40
1
41
1
10
5.00980000000015
20
-4.94974746830559
30
0
41
1
10
5.88227613198512
20
-4.74508531093679
30
0
41
1
10
6.74650155244014
20
-4.51485670099407
30
0
41
1
10
8.02464631095232
20
-4.11313804381311
30
0
41
1
10
8.44762737081116
20
-3.9697275239983
30
0
41
1
10
9.28554710201217
20
-3.65798556162895
30
0
41
1
10
9.7005286379282
20
-3.48978694338774
30
0
41
1
10
10.1098
20
-3.30389422831101
30
0
0
SPLINE
5
2FA
100
AcDbEntity
8
1
62
256
6
ByLayer
370
13
48
1
60
0
100
AcDbSpline
70
4
71
3
72
8
73
4
40
0
40
0
40
0
40
0
40
1
40
1
40
1
40
1
41
1
10
28.8135999999997
20
-22.5078357111496
30
0
41
1
10
28.2252660165467
20
-22.5077061246131
30
0
41
1
10
27.6369320332644
20
-22.5075759692587
30
0
41
1
10
27.0485980498959
20
-22.5074461007393
30
0
0
SPLINE
5
2FB
100
AcDbEntity
8
1
62
256
6
ByLayer
370
13
48
1
60
0
100
AcDbSpline
70
4
71
1
72
4
73
2
40
0
40
0
40
1
40
1
41
1
10
29.2536
20
-13.1908893936521
30
0
41
1
10
28.8136
20
-13.1908893936521
30
0
0
SPLINE
5
2FC
100
AcDbEntity
8
1
62
256
6
ByLayer
370
13
48
1
60
0
100
AcDbSpline
70
4
71
3
72
14
73
10
40
0
40
0
40
0
40
0
40
0.5
40
0.5
40
0.75
40
0.75
40
0.875
40
0.875
40
1
40
1
40
1
40
1
41
1
10
259.46156661371
20
8.78572213191646
30
0
41
1
10
259.620170997127
20
8.73663059945849
30
0
41
1
10
259.778513164594
20
8.70358604471724
30
0
41
1
10
260.017355969918
20
8.67460110789258
30
0
41
1
10
260.097180872773
20
8.66842260364859
30
0
41
1
10
260.217406325108
20
8.66432179565109
30
0
41
1
10
260.257562798395
20
8.66381818603867
30
0
41
1
10
260.338068354885
20
8.66455382645648
30
0
41
1
10
260.378657432878
20
8.66581268969222
30
0
41
1
10
260.418390009808
20
8.66789498581429
30
0
0
SPLINE
5
2FD
100
AcDbEntity
8
1
62
256
6
ByLayer
370
13
48
1
60
0
100
AcDbSpline
70
4
71
3
72
8
73
4
40
0
40
0
40
0
40
0
40
1
40
1
40
1
40
1
41
1
10
245.261653360061
20
2.16926468127795
30
0
41
1
10
244.760879066166
20
2.37441313065412
30
0
41
1
10
244.267562080202
20
2.58766250984903
30
0
41
1
10
243.783716695002
20
2.81333513645765
30
0
0
SPLINE
5
2FE
100
AcDbEntity
8
1
62
256
6
ByLayer
370
13
48
1
60
0
100
AcDbSpline
70
4
71
3
72
23
73
19
40
0
40
0
40
0
40
0
40
0.125000000000006
40
0.125000000000006
40
0.250000000000012
40
0.250000000000012
40
0.375000000000017
40
0.375000000000017
40
0.500000000000023
40
0.625000000000029
40
0.625000000000029
40
0.750000000000035
40
0.750000000000035
40
0.875000000000041
40
0.875000000000041
40
0.93750000000002
40
0.93750000000002
40
1
40
1
40
1
40
1
41
1
10
256.144476950795
20
7.43243034949484
30
0
41
1
10
256.043530937841
20
7.33997502553967
30
0
41
1
10
255.93601992573
20
7.2556817865281
30
0
41
1
10
255.706841690487
20
7.10383575563475
30
0
41
1
10
255.587509459988
20
7.03787091063043
30
0
41
1
10
255.340284459865
20
6.92579807288561
30
0
41
1
10
255.211759108207
20
6.87943574651305
30
0
41
1
10
254.946510842867
20
6.80751017698299
30
0
41
1
10
254.678451422067
20
6.75771173439423
30
0
41
1
10
254.404741260771
20
6.75050783540914
30
0
41
1
10
254.128221481745
20
6.76542672231375
30
0
41
1
10
253.991428035537
20
6.78386160565987
30
0
41
1
10
253.72352294798
20
6.8415423319621
30
0
41
1
10
253.59194923978
20
6.88080986821257
30
0
41
1
10
253.398410457198
20
6.95595928930416
30
0
41
1
10
253.334749884026
20
6.98368097667012
30
0
41
1
10
253.211104068819
20
7.04354010985887
30
0
41
1
10
253.150837835592
20
7.0757823799992
30
0
41
1
10
253.092151413128
20
7.1102893938035
30
0
0
SPLINE
5
2FF
100
AcDbEntity
8
1
62
256
6
ByLayer
370
13
48
1
60
0
100
AcDbSpline
70
4
71
3
72
8
73
4
40
0
40
0
40
0
40
0
40
1
40
1
40
1
40
1
41
1
10
33.8036
20
-8.31076572766133
30
0
41
1
10
32.136933329009
20
-8.31071585179075
30
0
41
1
10
30.4702666368675
20
-8.31081498543821
30
0
41
1
10
28.8036
20
-8.3111338213501
30
0
0
SPLINE
5
300
100
AcDbEntity
8
1
62
256
6
ByLayer
370
13
48
1
60
0
100
AcDbSpline
70
4
71
3
72
8
73
4
40
0
40
0
40
0
40
0
40
1
40
1
40
1
40
1
41
1
10
29.2536
20
-22.4941011284489
30
0
41
1
10
29.1069333329048
20
-22.4940719397666
30
0
41
1
10
28.960266666212
20
-22.4940412231421
30
0
41
1
10
28.8136
20
-22.4940089381254
30
0
0
SPLINE
5
301
100
AcDbEntity
8
1
62
256
6
ByLayer
370
13
48
1
60
0
100
AcDbSpline
70
4
71
3
72
14
73
10
40
0
40
0
40
0
40
0
40
0.499999999999998
40
0.499999999999998
40
0.749999999999999
40
0.749999999999999
40
0.874999999999999
40
0.874999999999999
40
1
40
1
40
1
40
1
41
1
10
27.0485980515805
20
-23.1520326981945
30
0
41
1
10
26.5242466823875
20
-23.1653745093459
30
0
41
1
10
26.0084370587326
20
-23.1799791344361
30
0
41
1
10
25.2470524476256
20
-23.2018309802239
30
0
41
1
10
24.9953280305807
20
-23.2090674902705
30
0
41
1
10
24.6209254107711
20
-23.2192317382541
30
0
41
1
10
24.4963017363757
20
-23.2225105007746
30
0
41
1
10
24.2501324805755
20
-23.228642865719
30
0
41
1
10
24.1286621851539
20
-23.2314953565965
30
0
41
1
10
24.0087773947626
20
-23.2340643799958
30
0
0
SPLINE
5
302
100
AcDbEntity
8
1
62
256
6
ByLayer
370
13
48
1
60
0
100
AcDbSpline
70
4
71
3
72
8
73
4
40
0
40
0
40
0
40
0
40
1
40
1
40
1
40
1
41
1
10
1.42E-14
20
4.42266887749923
30
0
41
1
10
0.0315947615411005
20
4.59876410270371
30
0
41
1
10
0.0649429983480019
20
4.77445351716128
30
0
41
1
10
0.0999999999999943
20
4.94974746830576
30
0
0
SPLINE
5
303
100
AcDbEntity
8
1
62
256
6
ByLayer
370
13
48
1
60
0
100
AcDbSpline
70
4
71
3
72
14
73
10
40
0
40
0
40
0
40
0
40
0.499999999999999
40
0.499999999999999
40
0.75
40
0.75
40
0.875
40
0.875
40
1
40
1
40
1
40
1
41
1
10
14.2911060794952
20
-23.9980787080534
30
0
41
1
10
15.9125179311416
20
-23.8870261644343
30
0
41
1
10
17.5328327172657
20
-23.7654292216903
30
0
41
1
10
19.9616434011686
20
-23.5670644155401
30
0
41
1
10
20.7709431842391
20
-23.4982831165198
30
0
41
1
10
21.9845733540309
20
-23.3910849610651
30
0
41
1
10
22.3890316307073
20
-23.3541135107009
30
0
41
1
10
23.1985672019881
20
-23.2891797501904
30
0
41
1
10
23.6035597257596
20
-23.2599836917381
30
0
41
1
10
24.0087773947626
20
-23.2340643799958
30
0
0
SPLINE
5
304
100
AcDbEntity
8
1
62
256
6
ByLayer
370
13
48
1
60
0
100
AcDbSpline
70
4
71
3
72
10
73
6
40
0
40
0
40
0
40
0
40
0.5
40
0.5
40
1
40
1
40
1
40
1
41
1
10
268.293736027984
20
-4.15026890554464
30
0
41
1
10
268.348103268946
20
-4.44482379467104
30
0
41
1
10
268.381509750268
20
-4.7390692697951
30
0
41
1
10
268.408769640406
20
-5.3267933605845
30
0
41
1
10
268.402617025266
20
-5.62027242984843
30
0
41
1
10
268.376618135373
20
-5.9133453616468
30
0
0
SPLINE
5
305
100
AcDbEntity
8
1
62
256
6
ByLayer
370
13
48
1
60
0
100
AcDbSpline
70
4
71
3
72
28
73
24
40
0
40
0
40
0
40
0
40
0.124999999999952
40
0.124999999999952
40
0.249999999999905
40
0.249999999999905
40
0.312499999999913
40
0.312499999999913
40
0.374999999999921
40
0.374999999999921
40
0.437499999999929
40
0.437499999999929
40
0.499999999999937
40
0.499999999999937
40
0.562499999999945
40
0.562499999999945
40
0.624999999999952
40
0.624999999999952
40
0.749999999999968
40
0.749999999999968
40
0.874999999999984
40
0.874999999999984
40
1
40
1
40
1
40
1
41
1
10
250.620670473852
20
7.62280624257761
30
0
41
1
10
250.567484029748
20
7.57871369889628
30
0
41
1
10
250.51558606553
20
7.53473378199678
30
0
41
1
10
250.415620625252
20
7.44570038418502
30
0
41
1
10
250.367150628136
20
7.40046475448312
30
0
41
1
10
250.301360968567
20
7.32995805266646
30
0
41
1
10
250.280786707029
20
7.30617698090103
30
0
41
1
10
250.243711738535
20
7.25721347810978
30
0
41
1
10
250.227203752038
20
7.23193547469427
30
0
41
1
10
250.201620907121
20
7.18055378357769
30
0
41
1
10
250.192351237309
20
7.15384067433681
30
0
41
1
10
250.184184738352
20
7.1002849440404
30
0
41
1
10
250.185274282797
20
7.0736258121463
30
0
41
1
10
250.197256807549
20
7.02124931004869
30
0
41
1
10
250.207785149737
20
6.99645561219143
30
0
41
1
10
250.234990396172
20
6.94883597356733
30
0
41
1
10
250.25173272879
20
6.92600800055141
30
0
41
1
10
250.306364840563
20
6.86171878173479
30
0
41
1
10
250.348956013696
20
6.82336717443087
30
0
41
1
10
250.439276414929
20
6.75220100595453
30
0
41
1
10
250.487324429162
20
6.71944122578728
30
0
41
1
10
250.585164575592
20
6.65971716237101
30
0
41
1
10
250.635154434831
20
6.63264801713788
30
0
41
1
10
250.685799707455
20
6.60834026331028
30
0
0
SPLINE
5
306
100
AcDbEntity
8
1
62
256
6
ByLayer
370
13
48
1
60
0
100
AcDbSpline
70
4
71
3
72
8
73
4
40
0
40
0
40
0
40
0
40
1
40
1
40
1
40
1
41
1
10
248.17368724217
20
10.8870393683939
30
0
41
1
10
248.552350958525
20
10.8969826338015
30
0
41
1
10
248.916528338084
20
10.8765125667437
30
0
41
1
10
249.266349742163
20
10.8246241018311
30
0
0
SPLINE
5
307
100
AcDbEntity
8
1
62
256
6
ByLayer
370
13
48
1
60
0
100
AcDbSpline
70
4
71
3
72
20
73
16
40
0
40
0
40
0
40
0
40
0.25
40
0.25
40
0.375
40
0.375
40
0.5
40
0.5
40
0.625
40
0.625
40
0.75
40
0.75
40
0.875
40
0.875
40
1
40
1
40
1
40
1
41
1
10
247.519197776579
20
8.7668609882941
30
0
41
1
10
247.562399433328
20
8.90170691313304
30
0
41
1
10
247.601681316913
20
9.04998222426258
30
0
41
1
10
247.658416825441
20
9.29180228860815
30
0
41
1
10
247.676901183111
20
9.37569666961411
30
0
41
1
10
247.712375025256
20
9.54505472234382
30
0
41
1
10
247.729505898563
20
9.63112384334801
30
0
41
1
10
247.763005784598
20
9.80595515557823
30
0
41
1
10
247.779465327
20
9.8952651283733
30
0
41
1
10
247.811723371773
20
10.0740248064439
30
0
41
1
10
247.827376953987
20
10.1626802605997
30
0
41
1
10
247.858696547313
20
10.3384062505855
30
0
41
1
10
247.874324804855
20
10.4254840156111
30
0
41
1
10
247.907390149527
20
10.5976713412721
30
0
41
1
10
247.924693733115
20
10.6827737924099
30
0
41
1
10
247.944877726617
20
10.7641633667455
30
0
0
SPLINE
5
308
100
AcDbEntity
8
1
62
256
6
ByLayer
370
13
48
1
60
0
100
AcDbSpline
70
4
71
2
72
12
73
9
40
0
40
0
40
0
40
0.310560075396913
40
0.310560075396913
40
0.621120150793826
40
0.621120150793826
40
0.931680226190739
40
0.931680226190739
40
1
40
1
40
1
41
1
10
28.803599999999
20
-13.1960312430353
30
0
41
1
10
25.6712290630356
20
-13.7378034667966
30
0
41
1
10
22.9353151286932
20
-15.0593052549021
30
0
41
1
10
20.1097281114316
20
-16.424120956481
30
0
41
1
10
17.9955561916569
20
-18.4697654475292
30
0
41
1
10
15.9063108371873
20
-20.4912913271625
30
0
41
1
10
14.7335789191535
20
-22.9617917727681
30
0
41
1
10
14.4894022315753
20
-23.4761792522865
30
0
41
1
10
14.2911857126876
20
-23.9978691147736
30
0
0
SPLINE
5
309
100
AcDbEntity
8
1
62
256
6
ByLayer
370
13
48
1
60
0
100
AcDbSpline
70
4
71
3
72
10
73
6
40
0
40
0
40
0
40
0
40
0.5
40
0.5
40
1
40
1
40
1
40
1
41
1
10
244.074408817236
20
1.05484209256244
30
0
41
1
10
244.56441572396
20
0.748274805669354
30
0
41
1
10
245.073734298907
20
0.49171767380443
30
0
41
1
10
246.132025296445
20
0.0814964485579139
30
0
41
1
10
246.680919513684
20
-0.072371034880689
30
0
41
1
10
247.252106212146
20
-0.168324640641714
30
0
0
SPLINE
5
30A
100
AcDbEntity
8
1
62
256
6
ByLayer
370
13
48
1
60
0
100
AcDbSpline
70
4
71
3
72
8
73
4
40
0
40
0
40
0
40
0
40
1
40
1
40
1
40
1
41
1
10
253.734973300189
20
22.8942005503574
30
0
41
1
10
253.643126413383
20
22.8866575040721
30
0
41
1
10
253.549080190859
20
22.8802074907318
30
0
41
1
10
253.452880900595
20
22.8749221904136
30
0
0
SPLINE
5
30B
100
AcDbEntity
8
1
62
256
6
ByLayer
370
13
48
1
60
0
100
AcDbSpline
70
4
71
3
72
14
73
10
40
0
40
0
40
0
40
0
40
0.25
40
0.25
40
0.5
40
0.5
40
0.75
40
0.75
40
1
40
1
40
1
40
1
41
1
10
269.20577102094
20
0.637556554965357
30
0
41
1
10
269.206884142071
20
0.688150907323489
30
0
41
1
10
269.208866982168
20
0.735288974718515
30
0
41
1
10
269.214457341467
20
0.819234256780561
30
0
41
1
10
269.217987138987
20
0.855111172844062
30
0
41
1
10
269.226446442171
20
0.913314309731419
30
0
41
1
10
269.231182937578
20
0.934429250861967
30
0
41
1
10
269.241689811407
20
0.960367648347557
30
0
41
1
10
269.247202583608
20
0.964514493088814
30
0
41
1
10
269.25293806678
20
0.959697836904525
30
0
0
SPLINE
5
30C
100
AcDbEntity
8
1
62
256
6
ByLayer
370
13
48
1
60
0
100
AcDbSpline
70
4
71
3
72
10
73
6
40
0
40
0
40
0
40
0
40
0.5
40
0.5
40
1
40
1
40
1
40
1
41
1
10
264.778042717522
20
9.06434683812864
30
0
41
1
10
264.803906601911
20
9.07607022513264
30
0
41
1
10
264.831819114739
20
9.08572250422191
30
0
41
1
10
264.889210755723
20
9.09963418077089
30
0
41
1
10
264.918817215498
20
9.10401023967236
30
0
41
1
10
264.949342502284
20
9.10562657679731
30
0
0
SPLINE
5
30D
100
AcDbEntity
8
1
62
256
6
ByLayer
370
13
48
1
60
0
100
AcDbSpline
70
4
71
3
72
18
73
14
40
0
40
0
40
0
40
0
40
0.250000000000087
40
0.250000000000087
40
0.375000000000151
40
0.375000000000151
40
0.500000000000216
40
0.500000000000216
40
0.750000000000212
40
0.750000000000212
40
0.875000000000106
40
0.875000000000106
40
1
40
1
40
1
40
1
41
1
10
256.843222874135
20
8.48052841566803
30
0
41
1
10
256.837902324299
20
8.48024957746651
30
0
41
1
10
256.83916626852
20
8.49050802960227
30
0
41
1
10
256.854431364185
20
8.5189263604745
30
0
41
1
10
256.861790018661
20
8.53043086925257
30
0
41
1
10
256.881732277857
20
8.55592922883736
30
0
41
1
10
256.894583358631
20
8.57017401373659
30
0
41
1
10
256.940666620249
20
8.6126410224912
30
0
41
1
10
256.982854314329
20
8.64133376161971
30
0
41
1
10
257.056143279744
20
8.67251903049532
30
0
41
1
10
257.082655393537
20
8.68119701276973
30
0
41
1
10
257.136800116324
20
8.69367855081674
30
0
41
1
10
257.164665439697
20
8.69763337316638
30
0
41
1
10
257.193333784035
20
8.69915138377411
30
0
0
SPLINE
5
30E
100
AcDbEntity
8
1
62
256
6
ByLayer
370
13
48
1
60
0
100
AcDbSpline
70
4
71
3
72
8
73
4
40
0
40
0
40
0
40
0
40
1
40
1
40
1
40
1
41
1
10
255.683118329163
20
8.39040475502858
30
0
41
1
10
255.634934455327
20
8.38879751292569
30
0
41
1
10
255.58679296985
20
8.38792004046365
30
0
41
1
10
255.538731423837
20
8.38819968347045
30
0
0
SPLINE
5
30F
100
AcDbEntity
8
1
62
256
6
ByLayer
370
13
48
1
60
0
100
AcDbSpline
70
4
71
3
72
70
73
66
40
0
40
0
40
0
40
0
40
0.0171618565367846
40
0.0171618565367846
40
0.0360625900649234
40
0.0360625900649234
40
0.0549633235930621
40
0.0549633235930621
40
0.0738640571212009
40
0.0738640571212009
40
0.0927647906493397
40
0.0927647906493397
40
0.130566257705618
40
0.130566257705618
40
0.149466991233757
40
0.149466991233757
40
0.168367724761895
40
0.168367724761895
40
0.187268458290034
40
0.187268458290034
40
0.206169191818173
40
0.206169191818173
40
0.225069925346312
40
0.225069925346312
40
0.24397065887445
40
0.24397065887445
40
0.262871392402589
40
0.262871392402589
40
0.281772125930728
40
0.281772125930728
40
0.300672859458867
40
0.300672859458867
40
0.319573592987005
40
0.319573592987005
40
0.338474326515144
40
0.338474326515144
40
0.347924693279213
40
0.347924693279213
40
0.357375060043282
40
0.357375060043282
40
0.376275793571421
40
0.376275793571421
40
0.39517652709956
40
0.39517652709956
40
0.414077260627699
40
0.414077260627699
40
0.432977994155837
40
0.432977994155837
40
0.451878727683976
40
0.451878727683976
40
0.470779461212115
40
0.470779461212115
40
0.508580928268393
40
0.508580928268393
40
0.54638239532467
40
0.54638239532467
40
0.584183862380948
40
0.584183862380948
40
0.621985329437225
40
0.621985329437225
40
0.69758826354978
40
0.69758826354978
40
0.84879413177489
40
0.84879413177489
40
1
40
1
40
1
40
1
41
1
10
204.7683746954
20
-19.013343683266
30
0
41
1
10
203.835169875137
20
-19.2316465345862
30
0
41
1
10
202.902818836885
20
-19.4427043012272
30
0
41
1
10
200.944461161797
20
-19.8634144290452
30
0
41
1
10
199.918173081068
20
-20.0708814547272
30
0
41
1
10
197.860429906265
20
-20.4567269158429
30
0
41
1
10
196.828819982987
20
-20.6345963635796
30
0
41
1
10
194.755583915389
20
-20.9624201610611
30
0
41
1
10
193.713912767155
20
-21.11294495495
30
0
41
1
10
191.619416425241
20
-21.3856184027077
30
0
41
1
10
190.568333600444
20
-21.5081343599025
30
0
41
1
10
187.404198410025
20
-21.8386635825854
30
0
41
1
10
185.279658932315
20
-22.0073505006512
30
0
41
1
10
182.071292263355
20
-22.2048931847403
30
0
41
1
10
180.998288634125
20
-22.2617557605002
30
0
41
1
10
178.845355748567
20
-22.3604706301377
30
0
41
1
10
177.765251770331
20
-22.4021129076203
30
0
41
1
10
175.598496209411
20
-22.4709766865998
30
0
41
1
10
174.51292114206
20
-22.4981642619026
30
0
41
1
10
172.337188598588
20
-22.5393277305381
30
0
41
1
10
171.247054828905
20
-22.5529477986079
30
0
41
1
10
169.061726881366
20
-22.5718456325518
30
0
41
1
10
167.966514600481
20
-22.5773901804918
30
0
41
1
10
165.770579098977
20
-22.5859808158656
30
0
41
1
10
164.669889241077
20
-22.588597058064
30
0
41
1
10
162.462970701859
20
-22.5903688756257
30
0
41
1
10
161.356350529391
20
-22.5895238588106
30
0
41
1
10
159.139205973045
20
-22.5842305717977
30
0
41
1
10
158.029441539813
20
-22.5797858229989
30
0
41
1
10
155.807462399667
20
-22.5671264722035
30
0
41
1
10
154.695250768528
20
-22.558748314409
30
0
41
1
10
152.46827535435
20
-22.5390005273771
30
0
41
1
10
151.353514380552
20
-22.5279089987792
30
0
41
1
10
149.121487523639
20
-22.5089471494251
30
0
41
1
10
148.004222080171
20
-22.5010703930661
30
0
41
1
10
146.326485590441
20
-22.4959250037235
30
0
41
1
10
145.766931744495
20
-22.4954606461009
30
0
41
1
10
144.647267374612
20
-22.4977087909277
30
0
41
1
10
144.087122047268
20
-22.500055563487
30
0
41
1
10
142.40684019251
20
-22.5055226588497
30
0
41
1
10
141.286615711275
20
-22.5056078933174
30
0
41
1
10
139.046119358751
20
-22.5031048242779
30
0
41
1
10
137.925847218019
20
-22.5007772266094
30
0
41
1
10
135.685269579323
20
-22.4957281260799
30
0
41
1
10
134.564964081451
20
-22.4930050053679
30
0
41
1
10
132.324334218774
20
-22.4889675655111
30
0
41
1
10
131.204010013528
20
-22.4877256085503
30
0
41
1
10
128.963353464277
20
-22.4868611554307
30
0
41
1
10
127.843021230012
20
-22.4872306990459
30
0
41
1
10
125.602358487932
20
-22.4896328974089
30
0
41
1
10
124.482027073921
20
-22.491821627779
30
0
41
1
10
121.12103140833
20
-22.497740816495
30
0
41
1
10
118.880365194569
20
-22.4991481310068
30
0
41
1
10
114.399029120525
20
-22.4981919906202
30
0
41
1
10
112.158359390708
20
-22.4962626356616
30
0
41
1
10
107.677018728963
20
-22.4929822319454
30
0
41
1
10
105.436347811389
20
-22.4915393008962
30
0
41
1
10
100.955007129203
20
-22.4915802758127
30
0
41
1
10
98.7143373533445
20
-22.4928778043351
30
0
41
1
10
91.9923294975922
20
-22.495609201395
30
0
41
1
10
87.5109919053147
20
-22.4969594613223
30
0
41
1
10
74.066978470922
20
-22.4970335446771
30
0
41
1
10
65.104302780945
20
-22.492695556023
30
0
41
1
10
47.1789513059419
20
-22.4912356662851
30
0
41
1
10
38.2162757968106
20
-22.4938526004246
30
0
41
1
10
29.2535999999999
20
-22.4941011467176
30
0
0
SPLINE
5
310
100
AcDbEntity
8
1
62
256
6
ByLayer
370
13
48
1
60
0
100
AcDbSpline
70
4
71
3
72
10
73
6
40
0
40
0
40
0
40
0
40
0.5
40
0.5
40
1
40
1
40
1
40
1
41
1
10
255.76723741031
20
8.38973223154116
30
0
41
1
10
255.817552968059
20
8.38719006341722
30
0
41
1
10
255.865980192398
20
8.37979256569542
30
0
41
1
10
255.958185285845
20
8.36000926106883
30
0
41
1
10
256.000975529441
20
8.34801136420228
30
0
41
1
10
256.039599543143
20
8.33786755473389
30
0
0
SPLINE
5
311
100
AcDbEntity
8
1
62
256
6
ByLayer
370
13
48
1
60
0
100
AcDbSpline
70
4
71
3
72
10
73
6
40
0
40
0
40
0
40
0
40
0.806108221290284
40
0.806108221290284
40
1
40
1
40
1
40
1
41
1
10
252.000661435411
20
16.8242874421404
30
0
41
1
10
251.96425528529
20
16.7751629646856
30
0
41
1
10
251.932621083916
20
16.7273907228312
30
0
41
1
10
251.903382811686
20
16.6773875891099
30
0
41
1
10
251.898194300718
20
16.6681383156574
30
0
41
1
10
251.893673453251
20
16.6596687473534
30
0
0
SPLINE
5
312
100
AcDbEntity
8
1
62
256
6
ByLayer
370
13
48
1
60
0
100
AcDbSpline
70
4
71
3
72
12
73
8
40
0
40
0
40
0
40
0
40
0.5
40
0.5
40
0.75
40
0.75
40
1
40
1
40
1
40
1
41
1
10
251.173172470369
20
8.69641375417999
30
0
41
1
10
251.227079473918
20
9.02776098601763
30
0
41
1
10
251.250152441124
20
9.36041746866488
30
0
41
1
10
251.21999637105
20
9.86215221568517
30
0
41
1
10
251.198656370795
20
10.0308415485472
30
0
41
1
10
251.131004128272
20
10.3590362955178
30
0
41
1
10
251.084772405124
20
10.5195428022166
30
0
41
1
10
251.024322451248
20
10.675933767166
30
0
0
SPLINE
5
313
100
AcDbEntity
8
1
62
256
6
ByLayer
370
13
48
1
60
0
100
AcDbSpline
70
4
71
3
72
8
73
4
40
0
40
0
40
0
40
0
40
1
40
1
40
1
40
1
41
1
10
243.286119798574
20
22.5377836123382
30
0
41
1
10
243.321598633098
20
22.594017626538
30
0
41
1
10
243.356956207556
20
22.6503298652516
30
0
41
1
10
243.392194018814
20
22.7067193628541
30
0
0
SPLINE
5
314
100
AcDbEntity
8
1
62
256
6
ByLayer
370
13
48
1
60
0
100
AcDbSpline
70
4
71
3
72
14
73
10
40
0
40
0
40
0
40
0
40
0.125000000000018
40
0.125000000000018
40
0.250000000000036
40
0.250000000000036
40
0.500000000000072
40
0.500000000000072
40
1
40
1
40
1
40
1
41
1
10
263.907708723845
20
8.85076243082767
30
0
41
1
10
263.944334960747
20
8.8526819305672
30
0
41
1
10
263.981663465276
20
8.85550655479861
30
0
41
1
10
264.055544169299
20
8.86286195544616
30
0
41
1
10
264.092318261127
20
8.86739732513522
30
0
41
1
10
264.202213947035
20
8.88355827095413
30
0
41
1
10
264.274908900444
20
8.89773000216144
30
0
41
1
10
264.491835960251
20
8.95060082548181
30
0
41
1
10
264.634843189205
20
8.99943843287772
30
0
41
1
10
264.778042717522
20
9.06434683812861
30
0
0
SPLINE
5
315
100
AcDbEntity
8
1
62
256
6
ByLayer
370
13
48
1
60
0
100
AcDbSpline
70
4
71
3
72
24
73
20
40
0
40
0
40
0
40
0
40
0.002549033554457
40
0.002549033554457
40
0.113376918715073
40
0.113376918715073
40
0.335032689036305
40
0.335032689036305
40
0.445860574196921
40
0.445860574196921
40
0.501274516777229
40
0.501274516777229
40
0.556688459357537
40
0.556688459357537
40
0.667516344518153
40
0.667516344518153
40
0.778344229678768
40
0.778344229678768
40
1
40
1
40
1
40
1
41
1
10
13.4943715378606
20
-9.66988515488114
30
0
41
1
10
13.4841897683849
20
-9.67735882442366
30
0
41
1
10
13.474017283238
20
-9.68483889112534
30
0
41
1
10
13.0219741260973
20
-10.0178245238176
30
0
41
1
10
12.597595785106
20
-10.3553814454059
30
0
41
1
10
11.3766421281655
20
-11.4037408147406
30
0
41
1
10
10.6326397180492
20
-12.1513737448732
30
0
41
1
10
9.61767548969148
20
-13.344196463133
30
0
41
1
10
9.29628359164916
20
-13.753666359262
30
0
41
1
10
8.84027673354311
20
-14.3859812645507
30
0
41
1
10
8.69231258964301
20
-14.600273447236
30
0
41
1
10
8.4072376785829
20
-15.032102396638
30
0
41
1
10
8.27010930931084
20
-15.2496073611786
30
0
41
1
10
7.87488249826899
20
-15.9068194642311
30
0
41
1
10
7.63312996942092
20
-16.3510776975816
30
0
41
1
10
7.19208437162415
20
-17.2532477290715
30
0
41
1
10
6.99249401484443
20
-17.7109663275841
30
0
41
1
10
6.45266385653071
20
-19.1025912335242
30
0
41
1
10
6.17075486797825
20
-20.0548102398879
30
0
41
1
10
5.9634855016312
20
-21.0295415717694
30
0
0
SPLINE
5
316
100
AcDbEntity
8
1
62
256
6
ByLayer
370
13
48
1
60
0
100
AcDbSpline
70
4
71
3
72
18
73
14
40
0
40
0
40
0
40
0
40
0.179585614289342
40
0.179585614289342
40
0.359171228578684
40
0.359171228578684
40
0.538756842868026
40
0.538756842868026
40
0.718342457157367
40
0.718342457157367
40
0.897928071446709
40
0.897928071446709
40
1
40
1
40
1
40
1
41
1
10
28.8136
20
-13.190889393587
30
0
41
1
10
28.8136
20
-12.9267474854267
30
0
41
1
10
28.8136
20
-12.6521820337128
30
0
41
1
10
28.8136
20
-12.0830730986544
30
0
41
1
10
28.8136
20
-11.78621870201
30
0
41
1
10
28.8136
20
-11.1820105960202
30
0
41
1
10
28.8136
20
-10.8789172783558
30
0
41
1
10
28.8136
20
-10.2708038951438
30
0
41
1
10
28.8136
20
-9.96262818652394
30
0
41
1
10
28.8136
20
-9.36253674286453
30
0
41
1
10
28.8136
20
-9.07081818658682
30
0
41
1
10
28.8136
20
-8.62621660731747
30
0
41
1
10
28.8136
20
-8.46707261553112
30
0
41
1
10
28.8136
20
-8.31223439358618
30
0
0
SPLINE
5
317
100
AcDbEntity
8
1
62
256
6
ByLayer
370
13
48
1
60
0
100
AcDbSpline
70
4
71
3
72
34
73
30
40
0
40
0
40
0
40
0
40
0.109826827525541
40
0.109826827525541
40
0.219653655051082
40
0.219653655051082
40
0.329480482576623
40
0.329480482576623
40
0.384393896339397
40
0.384393896339397
40
0.43930731010217
40
0.43930731010217
40
0.549134137627717
40
0.549134137627717
40
0.658960965153264
40
0.658960965153264
40
0.713874378916037
40
0.713874378916037
40
0.768787792678811
40
0.768787792678811
40
0.878614620204352
40
0.878614620204352
40
0.93352803396712
40
0.93352803396712
40
0.960984740848506
40
0.960984740848506
40
0.988441447729893
40
0.988441447729893
40
1
40
1
40
1
40
1
41
1
10
247.367663855075
20
8.2356011937803
30
0
41
1
10
246.904337921636
20
8.3480395784299
30
0
41
1
10
246.436143500862
20
8.44106839340407
30
0
41
1
10
245.490931976883
20
8.59437000166946
30
0
41
1
10
245.013902161664
20
8.65458606768584
30
0
41
1
10
244.05093996089
20
8.7450140688041
30
0
41
1
10
243.565004094509
20
8.77520186333066
30
0
41
1
10
242.82882428659
20
8.79856864958984
30
0
41
1
10
242.582212974461
20
8.80269160547962
30
0
41
1
10
242.086388364992
20
8.80355821000262
30
0
41
1
10
241.836609009437
20
8.8002794167499
30
0
41
1
10
241.088476195245
20
8.77934946592751
30
0
41
1
10
240.590976118862
20
8.75072295576979
30
0
41
1
10
239.598349850569
20
8.66445400331199
30
0
41
1
10
239.103222936035
20
8.60682406404621
30
0
41
1
10
238.362285051478
20
8.49787097232309
30
0
41
1
10
238.115598654101
20
8.45779068747177
30
0
41
1
10
237.622820401086
20
8.36979434028976
30
0
41
1
10
237.375922030141
20
8.32169925573569
30
0
41
1
10
236.643774370728
20
8.1665969925829
30
0
41
1
10
236.166598237219
20
8.04894393556984
30
0
41
1
10
235.469533346587
20
7.84957031572469
30
0
41
1
10
235.240310407595
20
7.77927308710417
30
0
41
1
10
234.901686357757
20
7.66754562269153
30
0
41
1
10
234.789682060316
20
7.62925324729474
30
0
41
1
10
234.567530341871
20
7.55043632844689
30
0
41
1
10
234.457348071723
20
7.50988977304698
30
0
41
1
10
234.303652364805
20
7.45114471783069
30
0
41
1
10
234.258425561969
20
7.4335889792944
30
0
41
1
10
234.213513670343
20
7.41587582321731
30
0
0
SPLINE
5
318
100
AcDbEntity
8
1
62
256
6
ByLayer
370
13
48
1
60
0
100
AcDbSpline
70
4
71
3
72
14
73
10
40
0
40
0
40
0
40
0
40
0.499999999999996
40
0.499999999999996
40
0.624999999999997
40
0.624999999999997
40
0.749999999999998
40
0.749999999999998
40
1
40
1
40
1
40
1
41
1
10
27.0485980498959
20
-22.5074461007393
30
0
41
1
10
26.5107465010265
20
-22.5073273756848
30
0
41
1
10
25.9867882325613
20
-22.572244543605
30
0
41
1
10
25.3476655596882
20
-22.7274702387876
30
0
41
1
10
25.2206405866342
20
-22.7622582085997
30
0
41
1
10
24.9681824457747
20
-22.8392855544265
30
0
41
1
10
24.8430998130878
20
-22.8814466219983
30
0
41
1
10
24.4752837255307
20
-23.0169729167356
30
0
41
1
10
24.2382990862628
20
-23.1198407610301
30
0
41
1
10
24.0087773947626
20
-23.2340643799958
30
0
0
SPLINE
5
319
100
AcDbEntity
8
1
62
256
6
ByLayer
370
13
48
1
60
0
100
AcDbSpline
70
4
71
3
72
18
73
14
40
0
40
0
40
0
40
0
40
0.250000000000173
40
0.250000000000173
40
0.375000000000146
40
0.375000000000146
40
0.500000000000118
40
0.500000000000118
40
0.750000000000061
40
0.750000000000061
40
0.87500000000003
40
0.87500000000003
40
1
40
1
40
1
40
1
41
1
10
267.037767032724
20
9.21507630502219
30
0
41
1
10
267.095143375314
20
9.21808327172079
30
0
41
1
10
267.152900199969
20
9.21090869215064
30
0
41
1
10
267.234198500554
20
9.1875325343741
30
0
41
1
10
267.260080972485
20
9.17776132722216
30
0
41
1
10
267.308228505424
20
9.15581691092487
30
0
41
1
10
267.330882986987
20
9.14342564016988
30
0
41
1
10
267.39087140547
20
9.10650145068104
30
0
41
1
10
267.421691628692
20
9.08163349351582
30
0
41
1
10
267.453902401287
20
9.05599380070979
30
0
41
1
10
267.462575045892
20
9.04916826788133
30
0
41
1
10
267.475658044538
20
9.04023180506692
30
0
41
1
10
267.480215172146
20
9.03798956025753
30
0
41
1
10
267.482875860782
20
9.03812900104032
30
0
0
SPLINE
5
31A
100
AcDbEntity
8
1
62
256
6
ByLayer
370
13
48
1
60
0
100
AcDbSpline
70
4
71
3
72
8
73
4
40
0
40
0
40
0
40
0
40
1
40
1
40
1
40
1
41
1
10
28.8036
20
-23.1296922938083
30
0
41
1
10
28.2184208022443
20
-23.1297023366538
30
0
41
1
10
27.6334202266871
20
-23.1371522430726
30
0
41
1
10
27.0485980515805
20
-23.1520326981945
30
0
0
SPLINE
5
31B
100
AcDbEntity
8
1
62
256
6
ByLayer
370
13
48
1
60
0
100
AcDbSpline
70
4
71
3
72
12
73
8
40
0
40
0
40
0
40
0
40
0.364271702677188
40
0.364271702677188
40
0.682135851338594
40
0.682135851338594
40
1
40
1
40
1
40
1
41
1
10
226.726984129103
20
10.4259820123833
30
0
41
1
10
229.302677990655
20
10.5794227459634
30
0
41
1
10
231.877823095325
20
10.6934865837089
30
0
41
1
10
236.70131277912
20
10.8297024700021
30
0
41
1
10
238.950057346967
20
10.8617419600163
30
0
41
1
10
243.447612609742
20
10.8613503474051
30
0
41
1
10
245.696006628567
20
10.8289342000429
30
0
41
1
10
247.944877726616
20
10.7641633667456
30
0
0
SPLINE
5
31C
100
AcDbEntity
8
1
62
256
6
ByLayer
370
13
48
1
60
0
100
AcDbSpline
70
4
71
3
72
8
73
4
40
0
40
0
40
0
40
0
40
1
40
1
40
1
40
1
41
1
10
247.517474939216
20
8.76104096570901
30
0
41
1
10
247.51800480962
20
8.76299148849037
30
0
41
1
10
247.518579571785
20
8.76493137717605
30
0
41
1
10
247.519197776579
20
8.76686098829387
30
0
0
SPLINE
5
31D
100
AcDbEntity
8
1
62
256
6
ByLayer
370
13
48
1
60
0
100
AcDbSpline
70
4
71
3
72
8
73
4
40
0
40
0
40
0
40
0
40
1
40
1
40
1
40
1
41
1
10
269.234532531493
20
0.600861919835296
30
0
41
1
10
269.36475763945
20
0.618311348255105
30
0
41
1
10
269.494170568806
20
0.624781518321925
30
0
41
1
10
269.623737105255
20
0.621663367796543
30
0
0
SPLINE
5
31E
100
AcDbEntity
8
1
62
256
6
ByLayer
370
13
48
1
60
0
100
AcDbSpline
70
4
71
3
72
16
73
12
40
0
40
0
40
0
40
0
40
0.249999999999995
40
0.249999999999995
40
0.499999999999991
40
0.499999999999991
40
0.624999999999988
40
0.624999999999988
40
0.749999999999986
40
0.749999999999986
40
1
40
1
40
1
40
1
41
1
10
251.047781908311
20
6.48086472120261
30
0
41
1
10
251.606495701764
20
6.33058347368899
30
0
41
1
10
252.16513389009
20
6.22767686959403
30
0
41
1
10
253.28281510943
20
6.10708680438566
30
0
41
1
10
253.841852361561
20
6.08950201547555
30
0
41
1
10
254.68058955113
20
6.12576495713947
30
0
41
1
10
254.960654731525
20
6.14839958460388
30
0
41
1
10
255.518733845698
20
6.21473698176547
30
0
41
1
10
255.795193785935
20
6.25821824016541
30
0
41
1
10
256.616803720172
20
6.41891900301403
30
0
41
1
10
257.154246197405
20
6.56625398515669
30
0
41
1
10
257.680552434419
20
6.75385418147641
30
0
0
SPLINE
5
31F
100
AcDbEntity
8
1
62
256
6
ByLayer
370
13
48
1
60
0
100
AcDbSpline
70
4
71
3
72
26
73
22
40
0
40
0
40
0
40
0
40
0.174718777077147
40
0.174718777077147
40
0.349437554154294
40
0.349437554154294
40
0.436796942692867
40
0.436796942692867
40
0.524156331231439
40
0.524156331231439
40
0.611515719770012
40
0.611515719770012
40
0.698875108308585
40
0.698875108308585
40
0.786234496847157
40
0.786234496847157
40
0.87359388538573
40
0.87359388538573
40
0.960953273924302
40
0.960953273924302
40
1
40
1
40
1
40
1
41
1
10
243.392194018807
20
22.706719362844
30
0
41
1
10
241.043566155185
20
22.8693895578803
30
0
41
1
10
238.693663939897
20
22.9595762200609
30
0
41
1
10
234.00072220653
20
22.9928721830825
30
0
41
1
10
231.65619906694
20
22.9362056268262
30
0
41
1
10
228.136323627114
20
22.7424206481989
30
0
41
1
10
226.962523430861
20
22.659707114949
30
0
41
1
10
224.6130059829
20
22.4583164958331
30
0
41
1
10
223.437589945264
20
22.3396598993881
30
0
41
1
10
221.087995034666
20
22.0671506691241
30
0
41
1
10
219.913387543967
20
21.9132504111199
30
0
41
1
10
217.56410974438
20
21.5702716108754
30
0
41
1
10
216.389480470351
20
21.3810831827559
30
0
41
1
10
214.04311047925
20
20.9686817027433
30
0
41
1
10
212.870781343623
20
20.7454716625297
30
0
41
1
10
210.525978322333
20
20.2669043685436
30
0
41
1
10
209.353731298728
20
20.0112695595708
30
0
41
1
10
207.005588260381
20
19.472234266916
30
0
41
1
10
205.829559360751
20
19.1889767768613
30
0
41
1
10
204.121881390515
20
18.7645442956707
30
0
41
1
10
203.593394663914
20
18.6314513045017
30
0
41
1
10
203.064136280806
20
18.4966324019572
30
0
0
SPLINE
5
320
100
AcDbEntity
8
1
62
256
6
ByLayer
370
13
48
1
60
0
100
AcDbSpline
70
4
71
3
72
18
73
14
40
0
40
0
40
0
40
0
40
0.249999999999999
40
0.249999999999999
40
0.374999999999999
40
0.374999999999999
40
0.499999999999999
40
0.499999999999999
40
0.749999999999999
40
0.749999999999999
40
0.875
40
0.875
40
1
40
1
40
1
40
1
41
1
10
5.96376950490308
20
-18.258569814827
30
0
41
1
10
5.84645655493254
20
-18.5130354335443
30
0
41
1
10
5.75673096847562
20
-18.7655222834908
30
0
41
1
10
5.66540290477479
20
-19.140395362235
30
0
41
1
10
5.64226826437869
20
-19.2648865625026
30
0
41
1
10
5.61165918202646
20
-19.5080201497068
30
0
41
1
10
5.60401753810578
20
-19.6272284954621
30
0
41
1
10
5.60408161905366
20
-19.9778480183105
30
0
41
1
10
5.63430749108858
20
-20.2022900344551
30
0
41
1
10
5.72429061405907
20
-20.5251943501743
30
0
41
1
10
5.76210833455237
20
-20.6309172137891
30
0
41
1
10
5.85218293138395
20
-20.8353590592158
30
0
41
1
10
5.90434154714369
20
-20.9341072562059
30
0
41
1
10
5.96348550163118
20
-21.0295415717694
30
0
0
SPLINE
5
321
100
AcDbEntity
8
1
62
256
6
ByLayer
370
13
48
1
60
0
100
AcDbSpline
70
4
71
3
72
70
73
66
40
0
40
0
40
0
40
0
40
0.0312500000000003
40
0.0312500000000003
40
0.0625000000000006
40
0.0625000000000006
40
0.0781250000000007
40
0.0781250000000007
40
0.0937500000000009
40
0.0937500000000009
40
0.109375000000001
40
0.109375000000001
40
0.117187500000001
40
0.117187500000001
40
0.125000000000001
40
0.125000000000001
40
0.132812500000001
40
0.132812500000001
40
0.140625000000001
40
0.140625000000001
40
0.156250000000001
40
0.156250000000001
40
0.187500000000002
40
0.187500000000002
40
0.218750000000002
40
0.218750000000002
40
0.250000000000002
40
0.250000000000002
40
0.312500000000003
40
0.312500000000003
40
0.343750000000003
40
0.343750000000003
40
0.375000000000003
40
0.375000000000003
40
0.437500000000003
40
0.437500000000003
40
0.468750000000003
40
0.468750000000003
40
0.500000000000003
40
0.500000000000003
40
0.562500000000002
40
0.562500000000002
40
0.625000000000002
40
0.625000000000002
40
0.656250000000002
40
0.656250000000002
40
0.687500000000002
40
0.687500000000002
40
0.718750000000002
40
0.718750000000002
40
0.750000000000002
40
0.750000000000002
40
0.781250000000002
40
0.781250000000002
40
0.812500000000002
40
0.812500000000002
40
0.843750000000002
40
0.843750000000002
40
0.875000000000002
40
0.875000000000002
40
0.937500000000001
40
0.937500000000001
40
0.968750000000001
40
0.968750000000001
40
1
40
1
40
1
40
1
41
1
10
239.207853007746
20
-22.8594782850006
30
0
41
1
10
237.988385354828
20
-22.8449365132001
30
0
41
1
10
236.766404615742
20
-22.8314726917126
30
0
41
1
10
234.323480370871
20
-22.8017350127502
30
0
41
1
10
233.102418396576
20
-22.785664223036
30
0
41
1
10
231.277490535667
20
-22.751245314409
30
0
41
1
10
230.66970608431
20
-22.7379856724998
30
0
41
1
10
229.463717906022
20
-22.7058045689638
30
0
41
1
10
228.865026859215
20
-22.6868818593781
30
0
41
1
10
227.679072487505
20
-22.6403297241542
30
0
41
1
10
227.09163340521
20
-22.6128301024704
30
0
41
1
10
226.222066668152
20
-22.5612931122892
30
0
41
1
10
225.934204548735
20
-22.5423472774901
30
0
41
1
10
225.362983637817
20
-22.5000573273203
30
0
41
1
10
225.079736389932
20
-22.4766234195813
30
0
41
1
10
224.516386341343
20
-22.4256871962631
30
0
41
1
10
224.235811524738
20
-22.3985059313241
30
0
41
1
10
223.674236939256
20
-22.3424971118023
30
0
41
1
10
223.393539230807
20
-22.3134633472718
30
0
41
1
10
222.551703769911
20
-22.2232353814806
30
0
41
1
10
221.991225516023
20
-22.1588710446073
30
0
41
1
10
220.310043956842
20
-21.9541701984895
30
0
41
1
10
219.188843354259
20
-21.8027624663123
30
0
41
1
10
216.946435179059
20
-21.4697182264827
30
0
41
1
10
215.824993555237
20
-21.287832788621
30
0
41
1
10
213.582917774883
20
-20.8950340999345
30
0
41
1
10
212.462483064852
20
-20.6841809523698
30
0
41
1
10
209.100770085576
20
-20.0109417124763
30
0
41
1
10
206.859105411198
20
-19.5071135832872
30
0
41
1
10
203.477608188568
20
-18.6980509749963
30
0
41
1
10
202.347281942502
20
-18.4196250243066
30
0
41
1
10
200.077530709931
20
-17.8515622789945
30
0
41
1
10
198.938579683364
20
-17.5620780562076
30
0
41
1
10
195.511824034235
20
-16.6888137495731
30
0
41
1
10
193.212337134017
20
-16.0991058636174
30
0
41
1
10
189.73708253453
20
-15.2264695168269
30
0
41
1
10
188.574319650817
20
-14.9375860285616
30
0
41
1
10
186.23943616388
20
-14.3678302188496
30
0
41
1
10
185.066717146865
20
-14.0868542953323
30
0
41
1
10
181.538508013179
20
-13.2631054346925
30
0
41
1
10
179.173608699416
20
-12.7392312285259
30
0
41
1
10
174.416658989855
20
-11.7623503970625
30
0
41
1
10
172.024532384022
20
-11.309600966096
30
0
41
1
10
168.414601856646
20
-10.6979811160862
30
0
41
1
10
167.208368348132
20
-10.5051283482408
30
0
41
1
10
164.793016139563
20
-10.1412780891817
30
0
41
1
10
163.583505598687
20
-9.97014076903042
30
0
41
1
10
161.160974077309
20
-9.64923778708666
30
0
41
1
10
159.947938656812
20
-9.4995650749301
30
0
41
1
10
157.518341055748
20
-9.22239989860893
30
0
41
1
10
156.301843131727
20
-9.0944752450601
30
0
41
1
10
153.86493855232
20
-8.86396588436088
30
0
41
1
10
152.643739111566
20
-8.76207597384908
30
0
41
1
10
150.200633287727
20
-8.59129346123459
30
0
41
1
10
148.978717954358
20
-8.52300759522601
30
0
41
1
10
146.534248769505
20
-8.41689722032208
30
0
41
1
10
145.311710896265
20
-8.37830549115719
30
0
41
1
10
142.86623297322
20
-8.32040651194842
30
0
41
1
10
141.643300148665
20
-8.30074813849194
30
0
41
1
10
137.974123885849
20
-8.25993204407951
30
0
41
1
10
135.527489955847
20
-8.25754614853236
30
0
41
1
10
131.857318375427
20
-8.26459437635879
30
0
41
1
10
130.633887297056
20
-8.26889443492612
30
0
41
1
10
128.187017498883
20
-8.27786076431812
30
0
41
1
10
126.963583948176
20
-8.28227848391859
30
0
41
1
10
125.74016
20
-8.28623398190021
30
0
0
SPLINE
5
322
100
AcDbEntity
8
1
62
256
6
ByLayer
370
13
48
1
60
0
100
AcDbSpline
70
4
71
3
72
12
73
8
40
0
40
0
40
0
40
0
40
0.25
40
0.25
40
0.5
40
0.5
40
1
40
1
40
1
40
1
41
1
10
257.680552434419
20
6.75385418147641
30
0
41
1
10
257.963645917158
20
6.85476195950199
30
0
41
1
10
258.242933596606
20
6.9411123228804
30
0
41
1
10
258.794847385608
20
7.08939420338581
30
0
41
1
10
259.067462017953
20
7.15129354117738
30
0
41
1
10
259.875538867283
20
7.30509499708896
30
0
41
1
10
260.401413735824
20
7.36522124719639
30
0
41
1
10
260.912204167834
20
7.39199063941771
30
0
0
SPLINE
5
323
100
AcDbEntity
8
1
62
256
6
ByLayer
370
13
48
1
60
0
100
AcDbSpline
70
4
71
3
72
8
73
4
40
0
40
0
40
0
40
0
40
1
40
1
40
1
40
1
41
1
10
249.315554965112
20
10.8152697127213
30
0
41
1
10
249.299233438143
20
10.8188911952871
30
0
41
1
10
249.282833668092
20
10.8220216928279
30
0
41
1
10
249.266349742163
20
10.8246241018311
30
0
0
SPLINE
5
324
100
AcDbEntity
8
1
62
256
6
ByLayer
370
13
48
1
60
0
100
AcDbSpline
70
4
71
3
72
40
73
36
40
0
40
0
40
0
40
0
40
0.125000000000001
40
0.125000000000001
40
0.187500000000001
40
0.187500000000001
40
0.250000000000002
40
0.250000000000002
40
0.312500000000003
40
0.312500000000003
40
0.343750000000003
40
0.343750000000003
40
0.375000000000003
40
0.375000000000003
40
0.500000000000003
40
0.500000000000003
40
0.562500000000004
40
0.562500000000004
40
0.593750000000004
40
0.593750000000004
40
0.625000000000004
40
0.625000000000004
40
0.750000000000003
40
0.750000000000003
40
0.781250000000003
40
0.781250000000003
40
0.812500000000003
40
0.812500000000003
40
0.875000000000002
40
0.875000000000002
40
0.937500000000001
40
0.937500000000001
40
0.96875
40
0.96875
40
1
40
1
40
1
40
1
41
1
10
14.2924317822632
20
-9.56019887010856
30
0
41
1
10
13.6518702603612
20
-9.59763588331148
30
0
41
1
10
13.0268677409853
20
-9.70435101104437
30
0
41
1
10
12.1096073742015
20
-9.9542125643172
30
0
41
1
10
11.806840443561
20
-10.0528048352112
30
0
41
1
10
11.2098316038282
20
-10.2791325778113
30
0
41
1
10
10.9198228921289
20
-10.4052303709638
30
0
41
1
10
10.3557335621778
20
-10.6811933523746
30
0
41
1
10
10.0815804338605
20
-10.8309463954086
30
0
41
1
10
9.6820648949265
20
-11.0726523175381
30
0
41
1
10
9.55087497733922
20
-11.156112142946
30
0
41
1
10
9.29245428401005
20
-11.3287313176363
30
0
41
1
10
9.16498543054404
20
-11.418056773044
30
0
41
1
10
8.54033862954921
20
-11.8770137990512
30
0
41
1
10
8.08889398613201
20
-12.2765413587662
30
0
41
1
10
7.48305422605688
20
-12.9190370818688
30
0
41
1
10
7.29312020343903
20
-13.140489529591
30
0
41
1
10
7.02727471683866
20
-13.4836710256654
30
0
41
1
10
6.94180445685424
20
-13.6000166417659
30
0
41
1
10
6.77971424366466
20
-13.8331225794258
30
0
41
1
10
6.70277798135538
20
-13.9502738160313
30
0
41
1
10
6.33853622155718
20
-14.538774404829
30
0
41
1
10
6.11148144462746
20
-15.0181189452649
30
0
41
1
10
5.91622841078362
20
-15.6263473843734
30
0
41
1
10
5.88151144114779
20
-15.7489504731111
30
0
41
1
10
5.82225831767356
20
-15.9923723595731
30
0
41
1
10
5.7976631792537
20
-16.1130032483848
30
0
41
1
10
5.73855909100712
20
-16.471658731201
30
0
41
1
10
5.71859735869135
20
-16.706450172802
30
0
41
1
10
5.71904605346573
20
-17.167326908129
30
0
41
1
10
5.73938611932317
20
-17.3934131497431
30
0
41
1
10
5.80083345851831
20
-17.7258970102471
30
0
41
1
10
5.82651905661848
20
-17.8355496637317
30
0
41
1
10
5.88770766533506
20
-18.0501065512181
30
0
41
1
10
5.92326251798077
20
-18.1553391252921
30
0
41
1
10
5.96376950490308
20
-18.258569814827
30
0
0
SPLINE
5
325
100
AcDbEntity
8
1
62
256
6
ByLayer
370
13
48
1
60
0
100
AcDbSpline
70
4
71
3
72
14
73
10
40
0
40
0
40
0
40
0
40
0.5
40
0.5
40
0.75
40
0.75
40
0.875
40
0.875
40
1
40
1
40
1
40
1
41
1
10
243.28611979858
20
22.5377836123481
30
0
41
1
10
243.9556882309
20
21.096578729798
30
0
41
1
10
244.713592440629
20
19.7103699217836
30
0
41
1
10
246.016765243173
20
17.7346020029173
30
0
41
1
10
246.478889101014
20
17.0932786559199
30
0
41
1
10
247.217690164291
20
16.1596927871692
30
0
41
1
10
247.471800964373
20
15.8529492202401
30
0
41
1
10
247.994727085066
20
15.2505719333313
30
0
41
1
10
248.262975277538
20
14.9555659754141
30
0
41
1
10
248.538070244642
20
14.6667988723522
30
0
0
SPLINE
5
326
100
AcDbEntity
8
1
62
256
6
ByLayer
370
13
48
1
60
0
100
AcDbSpline
70
4
71
3
72
10
73
6
40
0
40
0
40
0
40
0
40
0.5
40
0.5
40
1
40
1
40
1
40
1
41
1
10
259.28175831441
20
8.80860111199542
30
0
41
1
10
259.312337119695
20
8.81020367927354
30
0
41
1
10
259.343275052233
20
8.80893313533372
30
0
41
1
10
259.403456623206
20
8.80111261259162
30
0
41
1
10
259.432865549189
20
8.79460574036509
30
0
41
1
10
259.46156661371
20
8.78572213191646
30
0
0
SPLINE
5
327
100
AcDbEntity
8
1
62
256
6
ByLayer
370
13
48
1
60
0
100
AcDbSpline
70
4
71
3
72
8
73
4
40
0
40
0
40
0
40
0
40
1
40
1
40
1
40
1
41
1
10
250.866490691057
20
6.53739653907874
30
0
41
1
10
250.926151235968
20
6.51615964449593
30
0
41
1
10
250.9865816836
20
6.4973261836285
30
0
41
1
10
251.047781908311
20
6.48086472120264
30
0
0
SPLINE
5
328
100
AcDbEntity
8
1
62
256
6
ByLayer
370
13
48
1
60
0
100
AcDbSpline
70
4
71
3
72
44
73
40
40
0
40
0
40
0
40
0
40
0.0625000000000009
40
0.0625000000000009
40
0.125000000000002
40
0.125000000000002
40
0.156250000000002
40
0.156250000000002
40
0.187500000000003
40
0.187500000000003
40
0.250000000000003
40
0.250000000000003
40
0.281250000000003
40
0.281250000000003
40
0.312500000000003
40
0.312500000000003
40
0.375000000000003
40
0.375000000000003
40
0.437500000000003
40
0.437500000000003
40
0.468750000000003
40
0.468750000000003
40
0.500000000000003
40
0.500000000000003
40
0.625000000000003
40
0.625000000000003
40
0.656250000000002
40
0.656250000000002
40
0.687500000000002
40
0.687500000000002
40
0.750000000000002
40
0.750000000000002
40
0.812500000000002
40
0.812500000000002
40
0.843750000000001
40
0.843750000000001
40
0.875000000000001
40
0.875000000000001
40
1
40
1
40
1
40
1
41
1
10
5.96348550163117
20
-21.0295415717694
30
0
41
1
10
5.88295552354435
20
-21.1952208962626
30
0
41
1
10
5.82242614136754
20
-21.3563730235118
30
0
41
1
10
5.74069468043342
20
-21.6691692850364
30
0
41
1
10
5.71949266884357
20
-21.8208154528868
30
0
41
1
10
5.7185151004357
20
-22.0407727369999
30
0
41
1
10
5.72343063895369
20
-22.1128901406528
30
0
41
1
10
5.74321542143282
20
-22.2525064683652
30
0
41
1
10
5.75805758595452
20
-22.3202863898404
30
0
41
1
10
5.8169100973046
20
-22.5177483988483
30
0
41
1
10
5.87530546661483
20
-22.6415487379848
30
0
41
1
10
5.99126990453965
20
-22.8160257954628
30
0
41
1
10
6.03463019138908
20
-22.8723158753933
30
0
41
1
10
6.13085136817747
20
-22.9812197749368
30
0
41
1
10
6.18382198502187
20
-23.03388935031
30
0
41
1
10
6.3547027575115
20
-23.1845717974018
30
0
41
1
10
6.48499630380057
20
-23.2760203351221
30
0
41
1
10
6.77662534877218
20
-23.442879203414
30
0
41
1
10
6.93798446285646
20
-23.5182796469867
30
0
41
1
10
7.20310380130334
20
-23.6204247395871
30
0
41
1
10
7.29560189512955
20
-23.6527203821318
30
0
41
1
10
7.48650879957327
20
-23.7132335878503
30
0
41
1
10
7.58499826968161
20
-23.7415019630845
30
0
41
1
10
8.09220765645208
20
-23.8736591904454
30
0
41
1
10
8.54450794967352
20
-23.9503396480318
30
0
41
1
10
9.16808800348319
20
-24.0181737851514
30
0
41
1
10
9.29575431997503
20
-24.0303083539102
30
0
41
1
10
9.55419533328127
20
-24.0516939611692
30
0
41
1
10
9.68531053956794
20
-24.06098393395
30
0
41
1
10
10.0843776699505
20
-24.0849636586312
30
0
41
1
10
10.3579151102507
20
-24.0958268934835
30
0
41
1
10
10.9201177198092
20
-24.1087777596387
30
0
41
1
10
11.2088966925436
20
-24.1108213469863
30
0
41
1
10
11.6541442056786
20
-24.10799378062
30
0
41
1
10
11.8050127338637
20
-24.1060566779914
30
0
41
1
10
12.1083781243216
20
-24.1003415910628
30
0
41
1
10
12.2608430081112
20
-24.0965713206879
30
0
41
1
10
13.0271303292484
20
-24.0734709843829
30
0
41
1
10
13.6526601829285
20
-24.0418092114234
30
0
41
1
10
14.2924383321105
20
-23.9979874580002
30
0
0
SPLINE
5
329
100
AcDbEntity
8
1
62
256
6
ByLayer
370
13
48
1
60
0
100
AcDbSpline
70
4
71
3
72
12
73
8
40
0
40
0
40
0
40
0
40
0.282871361109726
40
0.282871361109726
40
0.641435680554863
40
0.641435680554863
40
1
40
1
40
1
40
1
41
1
10
29.2536299251132
20
-8.30182039726424
30
0
41
1
10
29.2536556385615
20
-8.72909324913761
30
0
41
1
10
29.2536763147249
20
-9.18859890223027
30
0
41
1
10
29.2537097080973
20
-10.2612989062782
30
0
41
1
10
29.2537188039475
20
-10.8823579693098
30
0
41
1
10
29.2537166556038
20
-12.0855267239813
30
0
41
1
10
29.253705412052
20
-12.6672768464396
30
0
41
1
10
29.2536847394128
20
-13.190889395155
30
0
0
SPLINE
5
32A
100
AcDbEntity
8
1
62
256
6
ByLayer
370
13
48
1
60
0
100
AcDbSpline
70
4
71
3
72
40
73
36
40
0
40
0
40
0
40
0
40
0.0073769823975263
40
0.0073769823975263
40
0.0524962104703657
40
0.0524962104703657
40
0.0976154385432051
40
0.0976154385432051
40
0.142734666616044
40
0.142734666616044
40
0.187853894688884
40
0.187853894688884
40
0.232973122761723
40
0.232973122761723
40
0.278092350834563
40
0.278092350834563
40
0.323211578907402
40
0.323211578907402
40
0.368330806980241
40
0.368330806980241
40
0.458569263125921
40
0.458569263125921
40
0.548807719271601
40
0.548807719271601
40
0.63904617541728
40
0.63904617541728
40
0.72928463156296
40
0.72928463156296
40
0.7744038596358
40
0.7744038596358
40
0.819523087708641
40
0.819523087708641
40
0.90976154385432
40
0.90976154385432
40
1
40
1
40
1
40
1
41
1
10
205.331908842505
20
-19.1423561364689
30
0
41
1
10
205.147420434367
20
-19.1873141787099
30
0
41
1
10
204.962959150181
20
-19.231933019429
30
0
41
1
10
203.650486369126
20
-19.5470324834088
30
0
41
1
10
202.523843385469
20
-19.8055224213199
30
0
41
1
10
200.269039410721
20
-20.2925569989741
30
0
41
1
10
199.140775857123
20
-20.520934397277
30
0
41
1
10
196.875796299182
20
-20.9419832208537
30
0
41
1
10
195.738865578822
20
-21.1344847111913
30
0
41
1
10
193.451332257298
20
-21.4826944327014
30
0
41
1
10
192.302562474963
20
-21.6380267267763
30
0
41
1
10
189.995577511103
20
-21.9156001640422
30
0
41
1
10
188.837206050338
20
-22.037895604606
30
0
41
1
10
186.51035963902
20
-22.2539536608865
30
0
41
1
10
185.341885689116
20
-22.3477336469042
30
0
41
1
10
182.99533676511
20
-22.5113586596836
30
0
41
1
10
181.817269050172
20
-22.5812025536638
30
0
41
1
10
179.451985694137
20
-22.7008284309864
30
0
41
1
10
178.264286020224
20
-22.750579467202
30
0
41
1
10
174.693437707205
20
-22.8742064656619
30
0
41
1
10
172.300778938279
20
-22.9226478001183
30
0
41
1
10
167.488574967609
20
-22.9766436165425
30
0
41
1
10
165.068698748465
20
-22.9822107243215
30
0
41
1
10
160.200494693007
20
-22.97305074503
30
0
41
1
10
157.759462890299
20
-22.9584313288988
30
0
41
1
10
152.862011506172
20
-22.9282594107269
30
0
41
1
10
150.405349110719
20
-22.9130336507157
30
0
41
1
10
146.709916300529
20
-22.8972787223014
30
0
41
1
10
145.476194930638
20
-22.8931621347839
30
0
41
1
10
143.009585821434
20
-22.8870303825133
30
0
41
1
10
141.776195085047
20
-22.8849885262629
30
0
41
1
10
138.075869155072
20
-22.8808645980238
30
0
41
1
10
135.608788049976
20
-22.8806773754554
30
0
41
1
10
130.674514300157
20
-22.8818211824058
30
0
41
1
10
128.20732151437
20
-22.8831277277529
30
0
41
1
10
125.74016
20
-22.8840137018539
30
0
0
SPLINE
5
32B
100
AcDbEntity
8
1
62
256
6
ByLayer
370
13
48
1
60
0
100
AcDbSpline
70
4
71
3
72
16
73
12
40
0
40
0
40
0
40
0
40
0.250000000000064
40
0.250000000000064
40
0.375000000000054
40
0.375000000000054
40
0.500000000000044
40
0.500000000000044
40
0.750000000000022
40
0.750000000000022
40
1
40
1
40
1
40
1
41
1
10
269.306489133524
20
7.9755706235502
30
0
41
1
10
269.158443764055
20
7.99440078347791
30
0
41
1
10
269.01512074892
20
8.02453561233438
30
0
41
1
10
268.803490761507
20
8.08675820264472
30
0
41
1
10
268.733491243477
20
8.11042257861362
30
0
41
1
10
268.596329715268
20
8.1630790095389
30
0
41
1
10
268.528926167562
20
8.19213352041851
30
0
41
1
10
268.329961812328
20
8.2878435849403
30
0
41
1
10
268.201316704842
20
8.36309031107729
30
0
41
1
10
267.95347280866
20
8.54024278411094
30
0
41
1
10
267.83797747284
20
8.63947282484332
30
0
41
1
10
267.731596423833
20
8.75075218961248
30
0
0
SPLINE
5
32C
100
AcDbEntity
8
1
62
256
6
ByLayer
370
13
48
1
60
0
100
AcDbSpline
70
4
71
3
72
8
73
4
40
0
40
0
40
0
40
0
40
1
40
1
40
1
40
1
41
1
10
250.685799707455
20
6.60834026331028
30
0
41
1
10
250.745093764209
20
6.58280921547021
30
0
41
1
10
250.805325217023
20
6.55916913143642
30
0
41
1
10
250.866490691057
20
6.53739653907863
30
0
0
SPLINE
5
32D
100
AcDbEntity
8
1
62
256
6
ByLayer
370
13
48
1
60
0
100
AcDbSpline
70
4
71
3
72
8
73
4
40
0
40
0
40
0
40
0
40
1
40
1
40
1
40
1
41
1
10
0.0999999999999801
20
-4.94974746830576
30
0
41
1
10
0.0649210758567591
20
-4.77434389911281
30
0
41
1
10
0.0315748582919468
20
-4.59865317079695
30
0
41
1
10
0
20
-4.42266887749926
30
0
0
SPLINE
5
32E
100
AcDbEntity
8
1
62
256
6
ByLayer
370
13
48
1
60
0
100
AcDbSpline
70
4
71
3
72
16
73
12
40
0
40
0
40
0
40
0
40
0.25
40
0.25
40
0.375
40
0.375
40
0.5
40
0.5
40
0.75
40
0.75
40
1
40
1
40
1
40
1
41
1
10
125.74016
20
-22.8840137018542
30
0
41
1
10
118.078854570562
20
-22.9071533006846
30
0
41
1
10
110.417437502897
20
-22.9268801506429
30
0
41
1
10
98.9253566910598
20
-22.9565099758635
30
0
41
1
10
95.0946637517759
20
-22.966487465136
30
0
41
1
10
87.4332800023968
20
-22.9867645297726
30
0
41
1
10
83.6025887483995
20
-22.9970059890832
30
0
41
1
10
72.1105161324593
20
-23.0277846433332
30
0
41
1
10
64.4491358213922
20
-23.0484197518948
30
0
41
1
10
49.1263694774638
20
-23.0891804384611
30
0
41
1
10
41.4649835837227
20
-23.1092938184067
30
0
41
1
10
33.8035999999999
20
-23.1296527399775
30
0
0
SPLINE
5
32F
100
AcDbEntity
8
1
62
256
6
ByLayer
370
13
48
1
60
0
100
AcDbSpline
70
4
71
3
72
10
73
6
40
0
40
0
40
0
40
0
40
0.5
40
0.5
40
1
40
1
40
1
40
1
41
1
10
250.113922517548
20
6.82673375113501
30
0
41
1
10
249.687165431954
20
7.09953895382176
30
0
41
1
10
249.242041454127
20
7.34979907313618
30
0
41
1
10
248.324348375519
20
7.81663083702446
30
0
41
1
10
247.85168159329
20
8.03308257909066
30
0
41
1
10
247.367663855076
20
8.23560119377899
30
0
0
SPLINE
5
330
100
AcDbEntity
8
1
62
256
6
ByLayer
370
13
48
1
60
0
100
AcDbSpline
70
4
71
3
72
10
73
6
40
0
40
0
40
0
40
0
40
0.5
40
0.5
40
1
40
1
40
1
40
1
41
1
10
249.577035419648
20
10.7936442821031
30
0
41
1
10
249.830984164852
20
10.7456090181104
30
0
41
1
10
250.075933740467
20
10.7161109248547
30
0
41
1
10
250.556436965466
20
10.6805635004731
30
0
41
1
10
250.791854887514
20
10.674413948318
30
0
41
1
10
251.024322451248
20
10.675933767166
30
0
0
SPLINE
5
331
100
AcDbEntity
8
1
62
256
6
ByLayer
370
13
48
1
60
0
100
AcDbSpline
70
4
71
3
72
8
73
4
40
0
40
0
40
0
40
0
40
1
40
1
40
1
40
1
41
1
10
249.315554965114
20
10.8152697126968
30
0
41
1
10
249.4022931259
20
10.8157540231885
30
0
41
1
10
249.489626457234
20
10.8111286525344
30
0
41
1
10
249.577035419648
20
10.7936442821036
30
0
0
SPLINE
5
332
100
AcDbEntity
8
1
62
256
6
ByLayer
370
13
48
1
60
0
100
AcDbSpline
70
4
71
3
72
12
73
8
40
0
40
0
40
0
40
0
40
0.249999999999983
40
0.249999999999983
40
0.499999999999966
40
0.499999999999966
40
1
40
1
40
1
40
1
41
1
10
251.024322451248
20
10.675933767166
30
0
41
1
10
251.015253296582
20
10.7436249683296
30
0
41
1
10
251.00295613876
20
10.8109215033752
30
0
41
1
10
250.971186748297
20
10.9446373255865
30
0
41
1
10
250.951572382481
20
11.0113703868759
30
0
41
1
10
250.882250441296
20
11.205937208627
30
0
41
1
10
250.821978558467
20
11.3291515857121
30
0
41
1
10
250.74692296205
20
11.4455333784098
30
0
0
SPLINE
5
333
100
AcDbEntity
8
1
62
256
6
ByLayer
370
13
48
1
60
0
100
AcDbSpline
70
4
71
3
72
8
73
4
40
0
40
0
40
0
40
0
40
1
40
1
40
1
40
1
41
1
10
252.045809752592
20
16.8965914661927
30
0
41
1
10
252.031940997104
20
16.86985122987
30
0
41
1
10
252.01659758655
20
16.845790817113
30
0
41
1
10
252.000661435411
20
16.8242874421404
30
0
0
SPLINE
5
334
100
AcDbEntity
8
1
62
256
6
ByLayer
370
13
48
1
60
0
100
AcDbSpline
70
4
71
3
72
8
73
4
40
0
40
0
40
0
40
0
40
1
40
1
40
1
40
1
41
1
10
28.8036
20
-8.31113382135007
30
0
41
1
10
28.2184200572717
20
-8.31124576718048
30
0
41
1
10
27.6334194843174
20
-8.31162527581753
30
0
41
1
10
27.0485980574156
20
-8.31227235760048
30
0
0
SPLINE
5
335
100
AcDbEntity
8
1
62
256
6
ByLayer
370
13
48
1
60
0
100
AcDbSpline
70
4
71
3
72
12
73
8
40
0
40
0
40
0
40
0
40
0.250000000000002
40
0.250000000000002
40
0.500000000000003
40
0.500000000000003
40
1
40
1
40
1
40
1
41
1
10
247.944877726604
20
10.764163366749
30
0
41
1
10
247.950316867003
20
10.7860960591954
30
0
41
1
10
247.963236539414
20
10.8056214618329
30
0
41
1
10
247.995943996974
20
10.8369089813076
30
0
41
1
10
248.015723176272
20
10.8490928805583
30
0
41
1
10
248.078633223432
20
10.8773263056552
30
0
41
1
10
248.125805568157
20
10.8857818331931
30
0
41
1
10
248.173655046827
20
10.8870385229085
30
0
0
SPLINE
5
336
100
AcDbEntity
8
1
62
256
6
ByLayer
370
13
48
1
60
0
100
AcDbSpline
70
4
71
3
72
8
73
4
40
0
40
0
40
0
40
0
40
1
40
1
40
1
40
1
41
1
10
250.252106212145
20
-23.0962795889591
30
0
41
1
10
249.25210621176
20
-23.0173458257984
30
0
41
1
10
248.252106211756
20
-22.9384120578623
30
0
41
1
10
247.252106212145
20
-22.8594782850006
30
0
0
SPLINE
5
337
100
AcDbEntity
8
1
62
256
6
ByLayer
370
13
48
1
60
0
100
AcDbSpline
70
4
71
3
72
8
73
4
40
0
40
0
40
0
40
0
40
1
40
1
40
1
40
1
41
1
10
248.173655702068
20
10.8870451480391
30
0
41
1
10
248.298417497468
20
12.148509345299
30
0
41
1
10
248.42015485606
20
13.4084278334842
30
0
41
1
10
248.538094891983
20
14.667061903608
30
0
0
SPLINE
5
338
100
AcDbEntity
8
1
62
256
6
ByLayer
370
13
48
1
60
0
100
AcDbSpline
70
4
71
3
72
10
73
6
40
0
40
0
40
0
40
0
40
0.5
40
0.5
40
1
40
1
40
1
40
1
41
1
10
260.912204167834
20
7.39199063941774
30
0
41
1
10
261.434620774238
20
7.41936933361993
30
0
41
1
10
261.93966115909
20
7.44583737863826
30
0
41
1
10
262.911840155692
20
7.49678712091577
30
0
41
1
10
263.378995205316
20
7.52126967964742
30
0
41
1
10
263.824882428061
20
7.54463763880219
30
0
0
SPLINE
5
339
100
AcDbEntity
8
1
62
256
6
ByLayer
370
13
48
1
60
0
100
AcDbSpline
70
4
71
3
72
10
73
6
40
0
40
0
40
0
40
0
40
0.468906196776909
40
0.468906196776909
40
1
40
1
40
1
40
1
41
1
10
29.2536
20
-22.4941011467175
30
0
41
1
10
29.2536
20
-21.0399899307942
30
0
41
1
10
29.2536
20
-19.5858787159336
30
0
41
1
10
29.2536
20
-16.4848081312561
30
0
41
1
10
29.2536
20
-14.8378487617399
30
0
41
1
10
29.2536
20
-13.190889393587
30
0
0
SPLINE
5
33A
100
AcDbEntity
8
1
62
256
6
ByLayer
370
13
48
1
60
0
100
AcDbSpline
70
4
71
3
72
8
73
4
40
0
40
0
40
0
40
0
40
1
40
1
40
1
40
1
41
1
10
255.683118329162
20
8.39040475502514
30
0
41
1
10
255.710910625816
20
8.39133180687389
30
0
41
1
10
255.739332477488
20
8.39114211415321
30
0
41
1
10
255.76723741031
20
8.38973223152647
30
0
0
SPLINE
5
33B
100
AcDbEntity
8
1
62
256
6
ByLayer
370
13
48
1
60
0
100
AcDbSpline
70
4
71
1
72
4
73
2
40
0
40
0
40
1
40
1
41
1
10
226.918448693171
20
10.3851751542598
30
0
41
1
10
226.863003224747
20
10.4073212880607
30
0
0
SPLINE
5
33C
100
AcDbEntity
8
1
62
256
6
ByLayer
370
13
48
1
60
0
100
AcDbSpline
70
4
71
3
72
12
73
8
40
0
40
0
40
0
40
0
40
0.280002922082545
40
0.560019751988399
40
0.706685777959943
40
0.853341605887183
40
1
40
1
40
1
40
1
41
1
10
5.00980000000013
20
-24.7499999999999
30
0
41
1
10
7.23345918589578
20
-24.6456781201139
30
0
41
1
10
11.677730222255
20
-24.3928779339698
30
0
41
1
10
17.2811116278461
20
-23.9810009205147
30
0
41
1
10
21.8183494478913
20
-23.555016022807
30
0
41
1
10
25.3056591037758
20
-23.2686302075757
30
0
41
1
10
27.6367190421793
20
-23.217321975249
30
0
41
1
10
28.8036
20
-23.2171874999998
30
0
0
SPLINE
5
33D
100
AcDbEntity
8
1
62
256
6
ByLayer
370
13
48
1
60
0
100
AcDbSpline
70
4
71
3
72
11
73
7
40
0
40
0
40
0
40
0
40
0.186654094077541
40
0.373309613716675
40
0.559987553265422
40
1
40
1
40
1
40
1
41
1
10
28.8036
20
23.2171874999997
30
0
41
1
10
27.3182705673458
20
23.2239198680776
30
0
41
1
10
24.3513370118624
20
23.3015508500818
30
0
41
1
10
19.9202811586064
20
23.7509958401511
30
0
41
1
10
13.4765772631179
20
24.2752885378423
30
0
41
1
10
8.50458006738738
20
24.5860338925584
30
0
41
1
10
5.00980000000018
20
24.7499999999999
30
0
0
SPLINE
5
33E
100
AcDbEntity
8
1
62
256
6
ByLayer
370
13
48
1
60
0
100
AcDbSpline
70
4
71
2
72
6
73
3
40
0
40
0
40
0
40
1
40
1
40
1
41
1
10
269.966210170497
20
8.14952503206715
30
0
41
1
10
270.034138076597
20
8.22051674967034
30
0
41
1
10
270.103380134285
20
8.27639163994891
30
0
0
SPLINE
5
33F
100
AcDbEntity
8
1
62
256
6
ByLayer
370
13
48
1
60
0
100
AcDbSpline
70
4
71
2
72
6
73
3
40
0
40
0
40
0
40
1
40
1
40
1
41
1
10
253.048732387315
20
7.38259542507575
30
0
41
1
10
253.123435646182
20
7.33426438917596
30
0
41
1
10
253.198412091251
20
7.27076197126769
30
0
0
LINE
5
7F
100
AcDbEntity
8
1
62
256
6
ByLayer
370
18
48
1
60
0
100
AcDbLine
10
261.107055
20
13.990822
30
0
11
260.971345
21
13.98371
31
0
39
0
210
0
220
0
230
1
0
LINE
5
80
100
AcDbEntity
8
1
62
256
6
ByLayer
370
18
48
1
60
0
100
AcDbLine
10
262.413671
20
16.566993
30
0
11
262.277962
21
16.559881
31
0
39
0
210
0
220
0
230
1
0
LINE
5
81
100
AcDbEntity
8
1
62
256
6
ByLayer
370
18
48
1
60
0
100
AcDbLine
10
262.269314
20
16.541863
30
0
11
262.277962
21
16.559881
31
0
39
0
210
0
220
0
230
1
0
LINE
5
82
100
AcDbEntity
8
1
62
256
6
ByLayer
370
18
48
1
60
0
100
AcDbLine
10
262.699101
20
15.908744
30
0
11
262.679191
21
15.90814
31
0
39
0
210
0
220
0
230
1
0
LINE
5
83
100
AcDbEntity
8
1
62
256
6
ByLayer
370
18
48
1
60
0
100
AcDbLine
10
262.404001
20
16.548922
30
0
11
262.269314
21
16.541863
31
0
39
0
210
0
220
0
230
1
0
LINE
5
84
100
AcDbEntity
8
1
62
256
6
ByLayer
370
18
48
1
60
0
100
AcDbLine
10
262.512997
20
14.469161
30
0
11
262.378309
21
14.462103
31
0
39
0
210
0
220
0
230
1
0
LINE
5
85
100
AcDbEntity
8
1
62
256
6
ByLayer
370
18
48
1
60
0
100
AcDbLine
10
260.831268
20
16.854031
30
0
11
260.820051
21
16.870568
31
0
39
0
210
0
220
0
230
1
0
LINE
5
86
100
AcDbEntity
8
1
62
256
6
ByLayer
370
18
48
1
60
0
100
AcDbLine
10
260.955761
20
16.87768
30
0
11
260.820051
21
16.870568
31
0
39
0
210
0
220
0
230
1
0
LINE
5
87
100
AcDbEntity
8
1
62
256
6
ByLayer
370
18
48
1
60
0
100
AcDbLine
10
262.719699
20
15.135198
30
0
11
262.739563
21
15.136679
31
0
39
0
210
0
220
0
230
1
0
LINE
5
88
100
AcDbEntity
8
1
62
256
6
ByLayer
370
18
48
1
60
0
100
AcDbLine
10
260.965955
20
16.861089
30
0
11
260.831268
21
16.854031
31
0
39
0
210
0
220
0
230
1
0
LINE
5
89
100
AcDbEntity
8
1
62
256
6
ByLayer
370
18
48
1
60
0
100
AcDbLine
10
262.813878
20
15.915198
30
0
11
262.679191
21
15.90814
31
0
39
0
210
0
220
0
230
1
0
LINE
5
8A
100
AcDbEntity
8
1
62
256
6
ByLayer
370
18
48
1
60
0
100
AcDbLine
10
260.971345
20
13.98371
30
0
11
260.980771
21
14.001328
31
0
39
0
210
0
220
0
230
1
0
LINE
5
8B
100
AcDbEntity
8
1
62
256
6
ByLayer
370
18
48
1
60
0
100
AcDbLine
10
262.524503
20
14.4522
30
0
11
262.388793
21
14.445088
31
0
39
0
210
0
220
0
230
1
0
LINE
5
8C
100
AcDbEntity
8
1
62
256
6
ByLayer
370
18
48
1
60
0
100
AcDbLine
10
262.854386
20
15.142257
30
0
11
262.719699
21
15.135198
31
0
39
0
210
0
220
0
230
1
0
LINE
5
8D
100
AcDbEntity
8
1
62
256
6
ByLayer
370
18
48
1
60
0
100
AcDbLine
10
259.959452
20
15.765165
30
0
11
259.891727
21
15.761616
31
0
39
0
210
0
220
0
230
1
0
LINE
5
8E
100
AcDbEntity
8
1
62
256
6
ByLayer
370
18
48
1
60
0
100
AcDbLine
10
262.388793
20
14.445088
30
0
11
262.378309
21
14.462103
31
0
39
0
210
0
220
0
230
1
0
LINE
5
8F
100
AcDbEntity
8
1
62
256
6
ByLayer
370
18
48
1
60
0
100
AcDbLine
10
261.115459
20
14.008387
30
0
11
260.980771
21
14.001328
31
0
39
0
210
0
220
0
230
1
0
LINE
5
90
100
AcDbEntity
8
1
62
256
6
ByLayer
370
18
48
1
60
0
100
AcDbLine
10
259.999915
20
14.9931
30
0
11
259.9316
21
14.98952
31
0
39
0
210
0
220
0
230
1
0
LINE
5
91
100
AcDbEntity
8
1
62
256
6
ByLayer
370
18
48
1
60
0
100
AcDbLine
10
270.703963
20
-7.066628
30
0
11
269.806953
21
-13.842186
31
0
39
0
210
0
220
0
230
1
0
LINE
5
92
100
AcDbEntity
8
1
62
256
6
ByLayer
370
18
48
1
60
0
100
AcDbLine
10
269.405181
20
-14.168282
30
0
11
269.37418
21
-14.173165
31
0
39
0
210
0
220
0
230
1
0
LINE
5
93
100
AcDbEntity
8
1
62
256
6
ByLayer
370
18
48
1
60
0
100
AcDbLine
10
269.55642
20
-14.131325
30
0
11
269.500543
21
-14.147258
31
0
39
0
210
0
220
0
230
1
0
LINE
5
94
100
AcDbEntity
8
1
62
256
6
ByLayer
370
18
48
1
60
0
100
AcDbLine
10
269.207624
20
0.468673
30
0
11
269.274268
21
0.459948
31
0
39
0
210
0
220
0
230
1
0
LINE
5
95
100
AcDbEntity
8
1
62
256
6
ByLayer
370
18
48
1
60
0
100
AcDbLine
10
269.565025
20
0.210809
30
0
11
269.581048
21
0.155243
31
0
39
0
210
0
220
0
230
1
0
LINE
5
96
100
AcDbEntity
8
1
62
256
6
ByLayer
370
18
48
1
60
0
100
AcDbLine
10
269.602189
20
0.060412
30
0
11
270.700958
21
-6.838337
31
0
39
0
210
0
220
0
230
1
0
LINE
5
97
100
AcDbEntity
8
1
62
256
6
ByLayer
370
13
48
1
60
0
100
AcDbLine
10
270.820855
20
16.105001
30
0
11
269.713072
21
23.119445
31
0
39
0
210
0
220
0
230
1
0
LINE
5
98
100
AcDbEntity
8
1
62
256
6
ByLayer
370
13
48
1
60
0
100
AcDbLine
10
269.603678
20
8.481604
30
0
11
270.058235
21
9.453
31
0
39
0
210
0
220
0
230
1
0
LINE
5
99
100
AcDbEntity
8
1
62
256
6
ByLayer
370
13
48
1
60
0
100
AcDbLine
10
251.889505
20
12.291049
30
0
11
252.628892
21
9.200849
31
0
39
0
210
0
220
0
230
1
0
LINE
5
9A
100
AcDbEntity
8
1
62
256
6
ByLayer
370
13
48
1
60
0
100
AcDbLine
10
267.264312
20
9.226949
30
0
11
256.326351
21
8.653715
31
0
39
0
210
0
220
0
230
1
0
LINE
5
9B
100
AcDbEntity
8
1
62
256
6
ByLayer
370
13
48
1
60
0
100
AcDbLine
10
270.047166
20
9.552491
30
0
11
268.135092
21
9.248773
31
0
39
0
210
0
220
0
230
1
0
LINE
5
9C
100
AcDbEntity
8
1
62
256
6
ByLayer
370
13
48
1
60
0
100
AcDbLine
10
270.989484
20
15.928529
30
0
11
270.984871
21
15.928287
31
0
39
0
210
0
220
0
230
1
0
LINE
5
9D
100
AcDbEntity
8
1
62
256
6
ByLayer
370
13
48
1
60
0
100
AcDbLine
10
267.855781
20
9.494809
30
0
11
268.697758
21
15.928344
31
0
39
0
210
0
220
0
230
1
0
LINE
5
9E
100
AcDbEntity
8
1
62
256
6
ByLayer
370
13
48
1
60
0
100
AcDbLine
10
254.872897
20
21.445086
30
0
11
254.88691
21
21.55216
31
0
39
0
210
0
220
0
230
1
0
LINE
5
9F
100
AcDbEntity
8
1
62
256
6
ByLayer
370
13
48
1
60
0
100
AcDbLine
10
254.938014
20
21.791532
30
0
11
252.849444
21
21.459779
31
0
39
0
210
0
220
0
230
1
0
LINE
5
A0
100
AcDbEntity
8
1
62
256
6
ByLayer
370
13
48
1
60
0
100
AcDbLine
10
253.028642
20
7.768935
30
0
11
251.920859
21
14.78338
31
0
39
0
210
0
220
0
230
1
0
LINE
5
A1
100
AcDbEntity
8
1
62
256
6
ByLayer
370
13
48
1
60
0
100
AcDbLine
10
253.55444
20
22.763988
30
0
11
253.231464
21
22.764192
31
0
39
0
210
0
220
0
230
1
0
LINE
5
A2
100
AcDbEntity
8
1
62
256
6
ByLayer
370
13
48
1
60
0
100
AcDbLine
10
270.061159
20
8.261338
30
0
11
270.026235
21
8.548724
31
0
39
0
210
0
220
0
230
1
0
LINE
5
A3
100
AcDbEntity
8
1
62
256
6
ByLayer
370
13
48
1
60
0
100
AcDbLine
10
269.715629
20
9.39858
30
0
11
270.058235
21
9.453
31
0
39
0
210
0
220
0
230
1
0
LINE
5
A4
100
AcDbEntity
8
1
62
256
6
ByLayer
370
13
48
1
60
0
100
AcDbLine
10
268.135092
20
9.248773
30
0
11
268.13048
21
9.248531
31
0
39
0
210
0
220
0
230
1
0
LINE
5
A5
100
AcDbEntity
8
1
62
256
6
ByLayer
370
13
48
1
60
0
100
AcDbLine
10
254.590446
20
7.338613
30
0
11
254.585833
21
7.338372
31
0
39
0
210
0
220
0
230
1
0
LINE
5
A6
100
AcDbEntity
8
1
62
256
6
ByLayer
370
13
48
1
60
0
100
AcDbLine
10
268.401217
20
23.775346
30
0
11
268.633013
21
23.829039
31
0
39
0
210
0
220
0
230
1
0
LINE
5
A7
100
AcDbEntity
8
1
62
256
6
ByLayer
370
13
48
1
60
0
100
AcDbLine
10
254.406534
20
7.189586
30
0
11
254.178111
21
7.179622
31
0
39
0
210
0
220
0
230
1
0
LINE
5
A8
100
AcDbEntity
8
1
62
256
6
ByLayer
370
13
48
1
60
0
100
AcDbLine
10
254.88691
20
21.55216
30
0
11
254.882298
21
21.551919
31
0
39
0
210
0
220
0
230
1
0
LINE
5
A9
100
AcDbEntity
8
1
62
256
6
ByLayer
370
13
48
1
60
0
100
AcDbLine
10
270.989484
20
15.928529
30
0
11
270.171855
21
9.681036
31
0
39
0
210
0
220
0
230
1
0
LINE
5
AA
100
AcDbEntity
8
1
62
256
6
ByLayer
370
13
48
1
60
0
100
AcDbLine
10
270.042554
20
9.552249
30
0
11
268.13048
21
9.248531
31
0
39
0
210
0
220
0
230
1
0
LINE
5
AB
100
AcDbEntity
8
1
62
256
6
ByLayer
370
13
48
1
60
0
100
AcDbLine
10
270.005319
20
9.699681
30
0
11
270.822948
21
15.947174
31
0
39
0
210
0
220
0
230
1
0
LINE
5
AC
100
AcDbEntity
8
1
62
256
6
ByLayer
370
13
48
1
60
0
100
AcDbLine
10
254.153114
20
7.328512
30
0
11
254.381536
21
7.338477
31
0
39
0
210
0
220
0
230
1
0
LINE
5
AD
100
AcDbEntity
8
1
62
256
6
ByLayer
370
13
48
1
60
0
100
AcDbLine
10
268.729568
20
23.733157
30
0
11
268.724956
21
23.732916
31
0
39
0
210
0
220
0
230
1
0
LINE
5
AE
100
AcDbEntity
8
1
62
256
6
ByLayer
370
13
48
1
60
0
100
AcDbLine
10
268.764794
20
23.734364
30
0
11
268.760182
21
23.734122
31
0
39
0
210
0
220
0
230
1
0
LINE
5
AF
100
AcDbEntity
8
1
62
256
6
ByLayer
370
13
48
1
60
0
100
AcDbLine
10
251.596899
20
15.468764
30
0
11
251.578634
21
15.117246
31
0
39
0
210
0
220
0
230
1
0
LINE
5
B0
100
AcDbEntity
8
1
62
256
6
ByLayer
370
13
48
1
60
0
100
AcDbLine
10
252.049926
20
14.805845
30
0
11
253.15771
21
7.7914
31
0
39
0
210
0
220
0
230
1
0
LINE
5
B1
100
AcDbEntity
8
1
62
256
6
ByLayer
370
13
48
1
60
0
100
AcDbLine
10
269.879037
20
23.143844
30
0
11
269.874425
21
23.143602
31
0
39
0
210
0
220
0
230
1
0
LINE
5
B2
100
AcDbEntity
8
1
62
256
6
ByLayer
370
13
48
1
60
0
100
AcDbLine
10
254.882298
20
21.551919
30
0
11
254.026308
21
15.01131
31
0
39
0
210
0
220
0
230
1
0
LINE
5
B3
100
AcDbEntity
8
1
62
256
6
ByLayer
370
13
48
1
60
0
100
AcDbLine
10
255.044561
20
8.160775
30
0
11
255.039949
21
8.160534
31
0
39
0
210
0
220
0
230
1
0
LINE
5
B4
100
AcDbEntity
8
1
62
256
6
ByLayer
370
13
48
1
60
0
100
AcDbLine
10
268.032464
20
9.449982
30
0
11
268.020769
21
9.360619
31
0
39
0
210
0
220
0
230
1
0
LINE
5
B5
100
AcDbEntity
8
1
62
256
6
ByLayer
370
13
48
1
60
0
100
AcDbLine
10
270.330862
20
10.128605
30
0
11
270.21237
21
8.65976
31
0
39
0
210
0
220
0
230
1
0
LINE
5
B6
100
AcDbEntity
8
1
62
256
6
ByLayer
370
13
48
1
60
0
100
AcDbLine
10
254.900715
20
8.24475
30
0
11
253.867619
21
14.786282
31
0
39
0
210
0
220
0
230
1
0
LINE
5
B7
100
AcDbEntity
8
1
62
256
6
ByLayer
370
13
48
1
60
0
100
AcDbLine
10
254.506463
20
7.137434
30
0
11
254.274666
21
7.08374
31
0
39
0
210
0
220
0
230
1
0
LINE
5
B8
100
AcDbEntity
8
1
62
256
6
ByLayer
370
13
48
1
60
0
100
AcDbLine
10
268.062165
20
23.591237
30
0
11
268.220912
21
23.599557
31
0
39
0
210
0
220
0
230
1
0
LINE
5
B9
100
AcDbEntity
8
1
62
256
6
ByLayer
370
13
48
1
60
0
100
AcDbLine
10
269.006397
20
15.880649
30
0
11
268.159095
21
9.406423
31
0
39
0
210
0
220
0
230
1
0
LINE
5
BA
100
AcDbEntity
8
1
62
256
6
ByLayer
370
13
48
1
60
0
100
AcDbLine
10
252.635372
20
21.231617
30
0
11
252.612982
21
21.44495
31
0
39
0
210
0
220
0
230
1
0
LINE
5
BB
100
AcDbEntity
8
1
62
256
6
ByLayer
370
13
48
1
60
0
100
AcDbLine
10
268.497147
20
23.722978
30
0
11
268.724956
21
23.732916
31
0
39
0
210
0
220
0
230
1
0
LINE
5
BC
100
AcDbEntity
8
1
62
256
6
ByLayer
370
13
48
1
60
0
100
AcDbLine
10
268.501146
20
23.723193
30
0
11
268.729568
21
23.733157
31
0
39
0
210
0
220
0
230
1
0
LINE
5
BD
100
AcDbEntity
8
1
62
256
6
ByLayer
370
13
48
1
60
0
100
AcDbLine
10
267.837194
20
22.66772
30
0
11
267.885135
21
22.364159
31
0
39
0
210
0
220
0
230
1
0
LINE
5
BE
100
AcDbEntity
8
1
62
256
6
ByLayer
370
13
48
1
60
0
100
AcDbLine
10
268.478819
20
23.796739
30
0
11
268.368505
21
23.773631
31
0
39
0
210
0
220
0
230
1
0
LINE
5
BF
100
AcDbEntity
8
1
62
256
6
ByLayer
370
13
48
1
60
0
100
AcDbLine
10
252.860513
20
21.360289
30
0
11
254.772587
21
21.664006
31
0
39
0
210
0
220
0
230
1
0
LINE
5
C0
100
AcDbEntity
8
1
62
256
6
ByLayer
370
13
48
1
60
0
100
AcDbLine
10
254.248721
20
14.84289
30
0
11
255.234842
21
8.598805
31
0
39
0
210
0
220
0
230
1
0
LINE
5
C1
100
AcDbEntity
8
1
62
256
6
ByLayer
370
13
48
1
60
0
100
AcDbLine
10
254.033584
20
14.810681
30
0
11
254.028972
21
14.810439
31
0
39
0
210
0
220
0
230
1
0
LINE
5
C2
100
AcDbEntity
8
1
62
256
6
ByLayer
370
13
48
1
60
0
100
AcDbLine
10
252.865463
20
21.211165
30
0
11
252.047834
21
14.963672
31
0
39
0
210
0
220
0
230
1
0
LINE
5
C3
100
AcDbEntity
8
1
62
256
6
ByLayer
370
13
48
1
60
0
100
AcDbLine
10
270.984871
20
15.928287
30
0
11
270.167243
21
9.680794
31
0
39
0
210
0
220
0
230
1
0
LINE
5
C4
100
AcDbEntity
8
1
62
256
6
ByLayer
370
13
48
1
60
0
100
AcDbLine
10
270.105626
20
9.29436
30
0
11
270.026235
21
8.548724
31
0
39
0
210
0
220
0
230
1
0
LINE
5
C5
100
AcDbEntity
8
1
62
256
6
ByLayer
370
13
48
1
60
0
100
AcDbLine
10
268.501146
20
23.723193
30
0
11
268.496533
21
23.722951
31
0
39
0
210
0
220
0
230
1
0
LINE
5
C6
100
AcDbEntity
8
1
62
256
6
ByLayer
370
13
48
1
60
0
100
AcDbLine
10
253.864385
20
15.030197
30
0
11
254.711687
21
21.504423
31
0
39
0
210
0
220
0
230
1
0
LINE
5
C7
100
AcDbEntity
8
1
62
256
6
ByLayer
370
13
48
1
60
0
100
AcDbLine
10
267.970066
20
22.666096
30
0
11
269.003163
21
16.124563
31
0
39
0
210
0
220
0
230
1
0
LINE
5
C8
100
AcDbEntity
8
1
62
256
6
ByLayer
370
13
48
1
60
0
100
AcDbLine
10
270.98682
20
16.1294
30
0
11
270.982208
21
16.129158
31
0
39
0
210
0
220
0
230
1
0
LINE
5
C9
100
AcDbEntity
8
1
62
256
6
ByLayer
370
13
48
1
60
0
100
AcDbLine
10
268.368505
20
23.773631
30
0
11
268.401217
21
23.775346
31
0
39
0
210
0
220
0
230
1
0
LINE
5
CA
100
AcDbEntity
8
1
62
256
6
ByLayer
370
13
48
1
60
0
100
AcDbLine
10
251.918196
20
14.98425
30
0
11
252.735825
21
21.231744
31
0
39
0
210
0
220
0
230
1
0
LINE
5
CB
100
AcDbEntity
8
1
62
256
6
ByLayer
370
13
48
1
60
0
100
AcDbLine
10
254.030921
20
15.011552
30
0
11
254.872897
21
21.445086
31
0
39
0
210
0
220
0
230
1
0
LINE
5
CC
100
AcDbEntity
8
1
62
256
6
ByLayer
370
13
48
1
60
0
100
AcDbLine
10
255.643367
20
21.68583
30
0
11
266.581328
21
22.259064
31
0
39
0
210
0
220
0
230
1
0
LINE
5
CD
100
AcDbEntity
8
1
62
256
6
ByLayer
370
13
48
1
60
0
100
AcDbLine
10
255.070485
20
8.245059
30
0
11
255.065873
21
8.244818
31
0
39
0
210
0
220
0
230
1
0
LINE
5
CE
100
AcDbEntity
8
1
62
256
6
ByLayer
370
13
48
1
60
0
100
AcDbLine
10
268.695856
20
16.071823
30
0
11
267.709735
21
22.315908
31
0
39
0
210
0
220
0
230
1
0
LINE
5
CF
100
AcDbEntity
8
1
62
256
6
ByLayer
370
13
48
1
60
0
100
AcDbLine
10
251.786625
20
16.444486
30
0
11
251.594436
21
14.975976
31
0
39
0
210
0
220
0
230
1
0
LINE
5
D0
100
AcDbEntity
8
1
62
256
6
ByLayer
370
13
48
1
60
0
100
AcDbLine
10
268.7513
20
8.112176
30
0
11
268.957751
21
8.110934
31
0
39
0
210
0
220
0
230
1
0
LINE
5
D1
100
AcDbEntity
8
1
62
256
6
ByLayer
370
13
48
1
60
0
100
AcDbLine
10
255.088795
20
21.419904
30
0
11
254.246819
21
14.986369
31
0
39
0
210
0
220
0
230
1
0
LINE
5
D2
100
AcDbEntity
8
1
62
256
6
ByLayer
370
13
48
1
60
0
100
AcDbLine
10
254.030921
20
15.011552
30
0
11
254.026308
21
15.01131
31
0
39
0
210
0
220
0
230
1
0
LINE
5
D3
100
AcDbEntity
8
1
62
256
6
ByLayer
370
13
48
1
60
0
100
AcDbLine
10
268.159095
20
9.406423
30
0
11
270.005319
21
9.699681
31
0
39
0
210
0
220
0
230
1
0
LINE
5
D4
100
AcDbEntity
8
1
62
256
6
ByLayer
370
13
48
1
60
0
100
AcDbLine
10
251.65219
20
14.413752
30
0
11
251.597281
21
14.761436
31
0
39
0
210
0
220
0
230
1
0
LINE
5
D5
100
AcDbEntity
8
1
62
256
6
ByLayer
370
13
48
1
60
0
100
AcDbLine
10
251.819471
20
14.997325
30
0
11
252.635372
21
21.231617
31
0
39
0
210
0
220
0
230
1
0
LINE
5
D6
100
AcDbEntity
8
1
62
256
6
ByLayer
370
13
48
1
60
0
100
AcDbLine
10
269.874425
20
23.143602
30
0
11
270.982208
21
16.129158
31
0
39
0
210
0
220
0
230
1
0
LINE
5
D7
100
AcDbEntity
8
1
62
256
6
ByLayer
370
13
48
1
60
0
100
AcDbLine
10
255.070485
20
8.245059
30
0
11
255.019705
21
8.566596
31
0
39
0
210
0
220
0
230
1
0
LINE
5
D8
100
AcDbEntity
8
1
62
256
6
ByLayer
370
13
48
1
60
0
100
AcDbLine
10
270.047166
20
9.552491
30
0
11
270.042554
21
9.552249
31
0
39
0
210
0
220
0
230
1
0
LINE
5
D9
100
AcDbEntity
8
1
62
256
6
ByLayer
370
13
48
1
60
0
100
AcDbLine
10
251.596899
20
15.468764
30
0
11
251.602301
21
16.02568
31
0
39
0
210
0
220
0
230
1
0
LINE
5
DA
100
AcDbEntity
8
1
62
256
6
ByLayer
370
13
48
1
60
0
100
AcDbLine
10
269.879037
20
23.143844
30
0
11
270.98682
21
16.1294
31
0
39
0
210
0
220
0
230
1
0
LINE
5
DB
100
AcDbEntity
8
1
62
256
6
ByLayer
370
13
48
1
60
0
100
AcDbLine
10
271.085165
20
16.145021
30
0
11
269.977381
21
23.159465
31
0
39
0
210
0
220
0
230
1
0
LINE
5
DC
100
AcDbEntity
8
1
62
256
6
ByLayer
370
13
48
1
60
0
100
AcDbLine
10
270.171855
20
9.681036
30
0
11
270.167243
21
9.680794
31
0
39
0
210
0
220
0
230
1
0
LINE
5
DD
100
AcDbEntity
8
1
62
256
6
ByLayer
370
13
48
1
60
0
100
AcDbLine
10
252.750537
20
22.402169
30
0
11
252.849444
21
21.459779
31
0
39
0
210
0
220
0
230
1
0
LINE
5
DE
100
AcDbEntity
8
1
62
256
6
ByLayer
370
13
48
1
60
0
100
AcDbLine
10
251.822515
20
14.767759
30
0
11
252.930298
21
7.753314
31
0
39
0
210
0
220
0
230
1
0
LINE
5
DF
100
AcDbEntity
8
1
62
256
6
ByLayer
370
13
48
1
60
0
100
AcDbLine
10
251.65219
20
14.413752
30
0
11
252.900267
21
7.752471
31
0
39
0
210
0
220
0
230
1
0
LINE
5
E0
100
AcDbEntity
8
1
62
256
6
ByLayer
370
13
48
1
60
0
100
AcDbLine
10
269.715629
20
9.39858
30
0
11
269.402101
21
8.114797
31
0
39
0
210
0
220
0
230
1
0
LINE
5
E1
100
AcDbEntity
8
1
62
256
6
ByLayer
370
13
48
1
60
0
100
AcDbLine
10
254.028972
20
14.810439
30
0
11
255.065873
21
8.244818
31
0
39
0
210
0
220
0
230
1
0
LINE
5
E2
100
AcDbEntity
8
1
62
256
6
ByLayer
370
13
48
1
60
0
100
AcDbLine
10
269.207897
20
23.734265
30
0
11
269.203284
21
23.734023
31
0
39
0
210
0
220
0
230
1
0
LINE
5
E3
100
AcDbEntity
8
1
62
256
6
ByLayer
370
13
48
1
60
0
100
AcDbLine
10
251.596899
20
15.468764
30
0
11
251.676873
21
16.219871
31
0
39
0
210
0
220
0
230
1
0
LINE
5
E4
100
AcDbEntity
8
1
62
256
6
ByLayer
370
13
48
1
60
0
100
AcDbLine
10
253.042076
20
22.987734
30
0
11
253.154201
21
22.976283
31
0
39
0
210
0
220
0
230
1
0
LINE
5
E5
100
AcDbEntity
8
1
62
256
6
ByLayer
370
13
48
1
60
0
100
AcDbLine
10
267.969666
20
9.121247
30
0
11
269.715629
21
9.39858
31
0
39
0
210
0
220
0
230
1
0
LINE
5
E6
100
AcDbEntity
8
1
62
256
6
ByLayer
370
13
48
1
60
0
100
AcDbLine
10
255.019705
20
8.566596
30
0
11
254.033584
21
14.810681
31
0
39
0
210
0
220
0
230
1
0
LINE
5
E7
100
AcDbEntity
8
1
62
256
6
ByLayer
370
13
48
1
60
0
100
AcDbLine
10
252.750537
20
22.402169
30
0
11
252.607462
21
22.379443
31
0
39
0
210
0
220
0
230
1
0
LINE
5
E8
100
AcDbEntity
8
1
62
256
6
ByLayer
370
13
48
1
60
0
100
AcDbLine
10
268.717668
20
23.582334
30
0
11
268.489245
21
23.572369
31
0
39
0
210
0
220
0
230
1
0
LINE
5
E9
100
AcDbEntity
8
1
62
256
6
ByLayer
370
13
48
1
60
0
100
AcDbLine
10
269.603678
20
8.481604
30
0
11
270.026235
21
8.548724
31
0
39
0
210
0
220
0
230
1
0
LINE
5
EA
100
AcDbEntity
8
1
62
256
6
ByLayer
370
13
48
1
60
0
100
AcDbLine
10
271.088208
20
15.915454
30
0
11
270.272307
21
9.681162
31
0
39
0
210
0
220
0
230
1
0
LINE
5
EB
100
AcDbEntity
8
1
62
256
6
ByLayer
370
13
48
1
60
0
100
AcDbLine
10
254.711687
20
21.504423
30
0
11
252.865463
21
21.211165
31
0
39
0
210
0
220
0
230
1
0
LINE
5
EC
100
AcDbEntity
8
SK1
62
256
6
ByLayer
370
13
48
1
60
0
100
AcDbLine
10
-69
20
-19.046
30
0
11
-69
21
-8.870896
31
0
39
0
210
0
220
0
230
1
0
LINE
5
EE
100
AcDbEntity
8
SK1
62
256
6
ByLayer
370
13
48
1
60
0
100
AcDbLine
10
-69
20
8.870896
30
0
11
-69
21
19.046
31
0
39
0
210
0
220
0
230
1
0
LINE
5
EF
100
AcDbEntity
8
SK1
62
256
6
ByLayer
370
13
48
1
60
0
100
AcDbLine
10
-66.600002
20
19.046
30
0
11
-66.600002
21
8.870896
31
0
39
0
210
0
220
0
230
1
0
LINE
5
F0
100
AcDbEntity
8
SK1
62
256
6
ByLayer
370
13
48
1
60
0
100
AcDbLine
10
-66.600002
20
-8.870896
30
0
11
-66.600002
21
-19.046
31
0
39
0
210
0
220
0
230
1
0
LINE
5
F1
100
AcDbEntity
8
SK1
62
256
6
ByLayer
370
13
48
1
60
0
100
AcDbLine
10
-66.600002
20
8.870896
30
0
11
-6.5
21
8.870896
31
0
39
0
210
0
220
0
230
1
0
LINE
5
F2
100
AcDbEntity
8
SK1
62
256
6
ByLayer
370
13
48
1
60
0
100
AcDbLine
10
-68.599999
20
-8.870896
30
0
11
-69
21
-8.870896
31
0
39
0
210
0
220
0
230
1
0
LINE
5
F3
100
AcDbEntity
8
SK1
62
256
6
ByLayer
370
13
48
1
60
0
100
AcDbLine
10
-6.5
20
-8.870896
30
0
11
-66.600002
21
-8.870896
31
0
39
0
210
0
220
0
230
1
0
LINE
5
F4
100
AcDbEntity
8
SK1
62
256
6
ByLayer
370
13
48
1
60
0
100
AcDbLine
10
-2
20
-19.046
30
0
11
-2
21
19.046
31
0
39
0
210
0
220
0
230
1
0
LINE
5
F5
100
AcDbEntity
8
SK1
62
256
6
ByLayer
370
13
48
1
60
0
100
AcDbLine
10
-1.544243
20
-18.833477
30
0
11
-1.544243
21
18.833477
31
0
39
0
210
0
220
0
230
1
0
LINE
5
F6
100
AcDbEntity
8
SK1
62
256
6
ByLayer
370
13
48
1
60
0
100
AcDbLine
10
-6.5
20
-8.870896
30
0
11
-6.5
21
8.870896
31
0
39
0
210
0
220
0
230
1
0
LINE
5
F7
100
AcDbEntity
8
SK1
62
256
6
ByLayer
370
13
48
1
60
0
100
AcDbLine
10
-70
20
-18.046
30
0
11
-70
21
-6.449868
31
0
39
0
210
0
220
0
230
1
0
LINE
5
F8
100
AcDbEntity
8
SK1
62
256
6
ByLayer
370
13
48
1
60
0
100
AcDbLine
10
-70
20
6.449868
30
0
11
-70
21
18.046
31
0
39
0
210
0
220
0
230
1
0
LINE
5
F9
100
AcDbEntity
8
SK1
62
256
6
ByLayer
370
13
48
1
60
0
100
AcDbLine
10
-69
20
8.870896
30
0
11
-68.599999
21
8.870896
31
0
39
0
210
0
220
0
230
1
0
LINE
5
FA
100
AcDbEntity
8
SK1
62
256
6
ByLayer
370
13
48
1
60
0
100
AcDbLine
10
-68.516222
20
18.942544
30
0
11
-68.516222
21
8.64654
31
0
39
0
210
0
220
0
230
1
0
LINE
5
FB
100
AcDbEntity
8
SK1
62
256
6
ByLayer
370
13
48
1
60
0
100
AcDbLine
10
-68.516222
20
-8.64654
30
0
11
-68.516222
21
-18.942544
31
0
39
0
210
0
220
0
230
1
0
LINE
5
FC
100
AcDbEntity
8
SK1
62
256
6
ByLayer
370
13
48
1
60
0
100
AcDbLine
10
-70
20
6.449868
30
0
11
-70
21
-6.449868
31
0
39
0
210
0
220
0
230
1
0
LINE
5
FD
100
AcDbEntity
8
SK1
62
256
6
ByLayer
370
13
48
1
60
0
100
AcDbLine
10
-67.633813
20
18.689667
30
0
11
-67.633813
21
8.07752
31
0
39
0
210
0
220
0
230
1
0
LINE
5
FE
100
AcDbEntity
8
SK1
62
256
6
ByLayer
370
13
48
1
60
0
100
AcDbLine
10
-67.633813
20
-8.07752
30
0
11
-67.633813
21
-18.689667
31
0
39
0
210
0
220
0
230
1
0
LINE
5
FF
100
AcDbEntity
8
SK1
62
256
6
ByLayer
370
13
48
1
60
0
100
AcDbLine
10
-1.375195
20
-18.796
30
0
11
-1.375195
21
18.796
31
0
39
0
210
0
220
0
230
1
0
LINE
5
100
100
AcDbEntity
8
SK1
62
256
6
ByLayer
370
13
48
1
60
0
100
AcDbLine
10
-68.599999
20
-19.046
30
0
11
-68.599999
21
-8.870896
31
0
39
0
210
0
220
0
230
1
0
LINE
5
101
100
AcDbEntity
8
SK1
62
256
6
ByLayer
370
13
48
1
60
0
100
AcDbLine
10
-68.599999
20
8.870896
30
0
11
-68.599999
21
19.046
31
0
39
0
210
0
220
0
230
1
0
LINE
5
102
100
AcDbEntity
8
SK1
62
256
6
ByLayer
370
13
48
1
60
0
100
AcDbLine
10
-0.15
20
-18.796
30
0
11
-0.15
21
18.796
31
0
39
0
210
0
220
0
230
1
0
LINE
5
103
100
AcDbEntity
8
1
62
256
6
ByLayer
370
13
48
1
60
0
100
AcDbLine
10
247.252106
20
-22.859478
30
0
11
247.252106
21
-0.168325
31
0
39
0
210
0
220
0
230
1
0
LINE
5
104
100
AcDbEntity
8
1
62
256
6
ByLayer
370
13
48
1
60
0
100
AcDbLine
10
267.4921
20
9.038612
30
0
11
256.852447
21
8.481012
31
0
39
0
210
0
220
0
230
1
0
LINE
5
105
100
AcDbEntity
8
1
62
256
6
ByLayer
370
13
48
1
60
0
100
AcDbLine
10
256.564656
20
8.365385
30
0
11
256.0396
21
8.337868
31
0
39
0
210
0
220
0
230
1
0
LINE
5
106
100
AcDbEntity
8
1
62
256
6
ByLayer
370
13
48
1
60
0
100
AcDbLine
10
33.8036
20
23.217187
30
0
11
33.8036
21
-8.310766
31
0
39
0
210
0
220
0
230
1
0
LINE
5
107
100
AcDbEntity
8
1
62
256
6
ByLayer
370
13
48
1
60
0
100
AcDbLine
10
0
20
-24.65
30
0
11
0
21
-4.422669
31
0
39
0
210
0
220
0
230
1
0
LINE
5
108
100
AcDbEntity
8
1
62
256
6
ByLayer
370
13
48
1
60
0
100
AcDbLine
10
267.589902
20
2.243242
30
0
11
269.205771
21
0.637557
31
0
39
0
210
0
220
0
230
1
0
LINE
5
109
100
AcDbEntity
8
1
62
256
6
ByLayer
370
13
48
1
60
0
100
AcDbLine
10
269.951297
20
7.41939
30
0
11
269.789319
21
6.807714
31
0
39
0
210
0
220
0
230
1
0
LINE
5
10A
100
AcDbEntity
8
1
62
256
6
ByLayer
370
13
48
1
60
0
100
AcDbLine
10
263.824882
20
7.544638
30
0
11
268.181475
21
7.772957
31
0
39
0
210
0
220
0
230
1
0
LINE
5
10B
100
AcDbEntity
8
1
62
256
6
ByLayer
370
13
48
1
60
0
100
AcDbLine
10
269.716251
20
7.103131
30
0
11
269.667301
21
7.950963
31
0
39
0
210
0
220
0
230
1
0
LINE
5
10C
100
AcDbEntity
8
1
62
256
6
ByLayer
370
13
48
1
60
0
100
AcDbLine
10
252.619018
20
21.27647
30
0
11
252.04581
21
16.896591
31
0
39
0
210
0
220
0
230
1
0
LINE
5
10D
100
AcDbEntity
8
1
62
256
6
ByLayer
370
13
48
1
60
0
100
AcDbLine
10
269.741044
20
1.137147
30
0
11
269.955353
21
0.894535
31
0
39
0
210
0
220
0
230
1
0
LINE
5
10E
100
AcDbEntity
8
1
62
256
6
ByLayer
370
13
48
1
60
0
100
AcDbLine
10
269.736938
20
7.832438
30
0
11
269.951297
21
7.41939
31
0
39
0
210
0
220
0
230
1
0
LINE
5
10F
100
AcDbEntity
8
1
62
256
6
ByLayer
370
13
48
1
60
0
100
AcDbLine
10
0.1
20
-24.75
30
0
11
0.1
21
-4.949747
31
0
39
0
210
0
220
0
230
1
0
LINE
5
110
100
AcDbEntity
8
1
62
256
6
ByLayer
370
13
48
1
60
0
100
AcDbLine
10
269.276906
20
-0.236933
30
0
11
270.202238
21
-6.046744
31
0
39
0
210
0
220
0
230
1
0
LINE
5
111
100
AcDbEntity
8
1
62
256
6
ByLayer
370
13
48
1
60
0
100
AcDbLine
10
267.57161
20
1.457615
30
0
11
267.71748
21
-0.917859
31
0
39
0
210
0
220
0
230
1
0
LINE
5
112
100
AcDbEntity
8
1
62
256
6
ByLayer
370
13
48
1
60
0
100
AcDbLine
10
28.8136
20
-13.190889
30
0
11
28.8136
21
-22.494009
31
0
39
0
210
0
220
0
230
1
0
LINE
5
113
100
AcDbEntity
8
1
62
256
6
ByLayer
370
13
48
1
60
0
100
AcDbLine
10
5.0098
20
-4.949747
30
0
11
5.0098
21
-24.75
31
0
39
0
210
0
220
0
230
1
0
LINE
5
114
100
AcDbEntity
8
1
62
256
6
ByLayer
370
13
48
1
60
0
100
AcDbLine
10
260.12718
20
8.352222
30
0
11
267.731596
21
8.750752
31
0
39
0
210
0
220
0
230
1
0
LINE
5
115
100
AcDbEntity
8
1
62
256
6
ByLayer
370
13
48
1
60
0
100
AcDbLine
10
28.8036
20
23.217187
30
0
11
28.8036
21
-8.311134
31
0
39
0
210
0
220
0
230
1
0
LINE
5
116
100
AcDbEntity
8
1
62
256
6
ByLayer
370
13
48
1
60
0
100
AcDbLine
10
269.741044
20
1.137147
30
0
11
269.719265
21
1.139999
31
0
39
0
210
0
220
0
230
1
0
LINE
5
117
100
AcDbEntity
8
1
62
256
6
ByLayer
370
13
48
1
60
0
100
AcDbLine
10
270.224658
20
-7.749739
30
0
11
269.360161
21
-14.279708
31
0
39
0
210
0
220
0
230
1
0
LINE
5
118
100
AcDbEntity
8
1
62
256
6
ByLayer
370
13
48
1
60
0
100
AcDbLine
10
250.746923
20
11.445533
30
0
11
249.26635
21
13.726611
31
0
39
0
210
0
220
0
230
1
0
LINE
5
119
100
AcDbEntity
8
1
62
256
6
ByLayer
370
13
48
1
60
0
100
AcDbLine
10
10.1098
20
-3.303894
30
0
11
10.1098
21
3.303894
31
0
39
0
210
0
220
0
230
1
0
LINE
5
11A
100
AcDbEntity
8
1
62
256
6
ByLayer
370
13
48
1
60
0
100
AcDbLine
10
269.641301
20
0.631174
30
0
11
269.649087
21
0.62236
31
0
39
0
210
0
220
0
230
1
0
LINE
5
11B
100
AcDbEntity
8
1
62
256
6
ByLayer
370
13
48
1
60
0
100
AcDbLine
10
0.1
20
4.949747
30
0
11
5.0098
21
4.949747
31
0
39
0
210
0
220
0
230
1
0
LINE
5
11C
100
AcDbEntity
8
1
62
256
6
ByLayer
370
13
48
1
60
0
100
AcDbLine
10
269.955353
20
0.894535
30
0
11
269.656632
21
0.777441
31
0
39
0
210
0
220
0
230
1
0
LINE
5
11D
100
AcDbEntity
8
1
62
256
6
ByLayer
370
13
48
1
60
0
100
AcDbLine
10
269.667301
20
7.950963
30
0
11
269.558615
21
7.945267
31
0
39
0
210
0
220
0
230
1
0
LINE
5
11E
100
AcDbEntity
8
1
62
256
6
ByLayer
370
13
48
1
60
0
100
AcDbLine
10
253.695462
20
22.592294
30
0
11
253.734973
21
22.894201
31
0
39
0
210
0
220
0
230
1
0
LINE
5
11F
100
AcDbEntity
8
1
62
256
6
ByLayer
370
13
48
1
60
0
100
AcDbLine
10
243.783717
20
2.813335
30
0
11
244.074409
21
1.054842
31
0
39
0
210
0
220
0
230
1
0
LINE
5
120
100
AcDbEntity
8
1
62
256
6
ByLayer
370
13
48
1
60
0
100
AcDbLine
10
269.649087
20
0.62236
30
0
11
269.625432
21
0.625457
31
0
39
0
210
0
220
0
230
1
0
LINE
5
121
100
AcDbEntity
8
1
62
256
6
ByLayer
370
13
48
1
60
0
100
AcDbLine
10
250.252106
20
-23.09628
30
0
11
250.252106
21
-0.513684
31
0
39
0
210
0
220
0
230
1
0
LINE
5
122
100
AcDbEntity
8
1
62
256
6
ByLayer
370
13
48
1
60
0
100
AcDbLine
10
268.692434
20
-23.09628
30
0
11
250.252106
21
-23.09628
31
0
39
0
210
0
220
0
230
1
0
LINE
5
123
100
AcDbEntity
8
1
62
256
6
ByLayer
370
13
48
1
60
0
100
AcDbLine
10
0
20
24.65
30
0
11
0
21
4.422669
31
0
39
0
210
0
220
0
230
1
0
LINE
5
124
100
AcDbEntity
8
1
62
256
6
ByLayer
370
13
48
1
60
0
100
AcDbLine
10
250.62067
20
7.622806
30
0
11
251.073431
21
7.4837
31
0
39
0
210
0
220
0
230
1
0
LINE
5
125
100
AcDbEntity
8
1
62
256
6
ByLayer
370
13
48
1
60
0
100
AcDbLine
10
249.26635
20
10.824624
30
0
11
249.26635
21
13.726611
31
0
39
0
210
0
220
0
230
1
0
LINE
5
126
100
AcDbEntity
8
1
62
256
6
ByLayer
370
13
48
1
60
0
100
AcDbLine
10
5.0098
20
24.75
30
0
11
5.0098
21
4.949747
31
0
39
0
210
0
220
0
230
1
0
LINE
5
127
100
AcDbEntity
8
1
62
256
6
ByLayer
370
13
48
1
60
0
100
AcDbLine
10
269.789319
20
6.807714
30
0
11
269.753421
21
6.805833
31
0
39
0
210
0
220
0
230
1
0
LINE
5
128
100
AcDbEntity
8
1
62
256
6
ByLayer
370
13
48
1
60
0
100
AcDbLine
10
264.778043
20
9.064347
30
0
11
264.595907
21
9.054802
31
0
39
0
210
0
220
0
230
1
0
LINE
5
129
100
AcDbEntity
8
1
62
256
6
ByLayer
370
13
48
1
60
0
100
AcDbLine
10
268.692434
20
-23.09628
30
0
11
269.742398
21
-15.165389
31
0
39
0
210
0
220
0
230
1
0
LINE
5
12A
100
AcDbEntity
8
1
62
256
6
ByLayer
370
13
48
1
60
0
100
AcDbLine
10
257.193334
20
8.699151
30
0
11
259.281758
21
8.808601
31
0
39
0
210
0
220
0
230
1
0
LINE
5
12B
100
AcDbEntity
8
1
62
256
6
ByLayer
370
13
48
1
60
0
100
AcDbLine
10
248.049824
20
1.819354
30
0
11
248.408846
21
-0.352489
31
0
39
0
210
0
220
0
230
1
0
LINE
5
12C
100
AcDbEntity
8
1
62
256
6
ByLayer
370
13
48
1
60
0
100
AcDbLine
10
264.949343
20
9.105627
30
0
11
267.037767
21
9.215076
31
0
39
0
210
0
220
0
230
1
0
LINE
5
12D
100
AcDbEntity
8
1
62
256
6
ByLayer
370
13
48
1
60
0
100
AcDbLine
10
28.8036
20
-23.129692
30
0
11
28.8036
21
-23.217187
31
0
39
0
210
0
220
0
230
1
0
LINE
5
12E
100
AcDbEntity
8
1
62
256
6
ByLayer
370
13
48
1
60
0
100
AcDbLine
10
268.181475
20
7.772957
30
0
11
267.589902
21
2.243242
31
0
39
0
210
0
220
0
230
1
0
LINE
5
12F
100
AcDbEntity
8
1
62
256
6
ByLayer
370
13
48
1
60
0
100
AcDbLine
10
260.27176
20
7.358426
30
0
11
260.912204
21
7.391991
31
0
39
0
210
0
220
0
230
1
0
LINE
5
130
100
AcDbEntity
8
1
62
256
6
ByLayer
370
13
48
1
60
0
100
AcDbLine
10
125.74016
20
-22.884014
30
0
11
125.74016
21
-22.979063
31
0
39
0
210
0
220
0
230
1
0
LINE
5
131
100
AcDbEntity
8
1
62
256
6
ByLayer
370
13
48
1
60
0
100
AcDbLine
10
247.252106
20
22.979062
30
0
11
247.252106
21
22.759427
31
0
39
0
210
0
220
0
230
1
0
LINE
5
132
100
AcDbEntity
8
1
62
256
6
ByLayer
370
13
48
1
60
0
100
AcDbLine
10
269.736938
20
7.832438
30
0
11
269.674329
21
7.829157
31
0
39
0
210
0
220
0
230
1
0
LINE
5
133
100
AcDbEntity
8
1
62
256
6
ByLayer
370
13
48
1
60
0
100
AcDbLine
10
269.641301
20
0.631174
30
0
11
269.630454
21
0.632594
31
0
39
0
210
0
220
0
230
1
0
LINE
5
134
100
AcDbEntity
8
1
62
256
6
ByLayer
370
13
48
1
60
0
100
AcDbLine
10
270.224658
20
-7.749739
30
0
11
268.376618
21
-5.913345
31
0
39
0
210
0
220
0
230
1
0
LINE
5
135
100
AcDbEntity
8
1
62
256
6
ByLayer
370
13
48
1
60
0
100
AcDbLine
10
257.289499
20
6.73336
30
0
11
257.680552
21
6.753854
31
0
39
0
210
0
220
0
230
1
0
LINE
5
136
100
AcDbEntity
8
1
62
256
6
ByLayer
370
13
48
1
60
0
100
AcDbLine
10
249.577035
20
10.793644
30
0
11
250.746923
21
11.445533
31
0
39
0
210
0
220
0
230
1
0
LINE
5
137
100
AcDbEntity
8
1
62
256
6
ByLayer
370
13
48
1
60
0
100
AcDbLine
10
0
20
-4.422669
30
0
11
0
21
4.422669
31
0
39
0
210
0
220
0
230
1
0
LINE
5
138
100
AcDbEntity
8
1
62
256
6
ByLayer
370
13
48
1
60
0
100
AcDbLine
10
252.123929
20
10.806662
30
0
11
251.49628
21
14.780918
31
0
39
0
210
0
220
0
230
1
0
LINE
5
139
100
AcDbEntity
8
1
62
256
6
ByLayer
370
13
48
1
60
0
100
AcDbLine
10
269.276906
20
-0.236933
30
0
11
267.57161
21
1.457615
31
0
39
0
210
0
220
0
230
1
0
LINE
5
13A
100
AcDbEntity
8
1
62
256
6
ByLayer
370
13
48
1
60
0
100
AcDbLine
10
268.181475
20
7.772957
30
0
11
269.255116
21
7.829224
31
0
39
0
210
0
220
0
230
1
0
LINE
5
13B
100
AcDbEntity
8
1
62
256
6
ByLayer
370
13
48
1
60
0
100
AcDbLine
10
268.293736
20
-4.150269
30
0
11
270.202238
21
-6.046744
31
0
39
0
210
0
220
0
230
1
0
LINE
5
13C
100
AcDbEntity
8
1
62
256
6
ByLayer
370
13
48
1
60
0
100
AcDbLine
10
250.252106
20
23.217187
30
0
11
250.252106
21
23.036585
31
0
39
0
210
0
220
0
230
1
0
LINE
5
13D
100
AcDbEntity
8
1
62
256
6
ByLayer
370
13
48
1
60
0
100
AcDbLine
10
0.1
20
24.75
30
0
11
0.1
21
4.949747
31
0
39
0
210
0
220
0
230
1
0
LINE
5
13E
100
AcDbEntity
8
1
62
256
6
ByLayer
370
13
48
1
60
0
100
AcDbLine
10
256.803567
20
8.388004
30
0
11
256.569077
21
8.375715
31
0
39
0
210
0
220
0
230
1
0
LINE
5
13F
100
AcDbEntity
8
1
62
256
6
ByLayer
370
13
48
1
60
0
100
AcDbLine
10
247.252106
20
-22.859478
30
0
11
239.207853
21
-22.859478
31
0
39
0
210
0
220
0
230
1
0
LINE
5
140
100
AcDbEntity
8
1
62
256
6
ByLayer
370
13
48
1
60
0
100
AcDbLine
10
5.0098
20
-4.949747
30
0
11
0.1
21
-4.949747
31
0
39
0
210
0
220
0
230
1
0
LINE
5
141
100
AcDbEntity
8
1
62
256
6
ByLayer
370
13
48
1
60
0
100
AcDbLine
10
125.74016
20
22.979062
30
0
11
125.74016
21
-8.286234
31
0
39
0
210
0
220
0
230
1
0
LINE
5
142
100
AcDbEntity
8
1
62
256
6
ByLayer
370
13
48
1
60
0
100
AcDbLine
10
269.951297
20
7.41939
30
0
11
269.955353
21
0.894535
31
0
39
0
210
0
220
0
230
1
0
LINE
5
143
100
AcDbEntity
8
1
62
256
6
ByLayer
370
13
48
1
60
0
100
AcDbLine
10
252.617728
20
22.18356
30
0
11
252.571663
21
23.062543
31
0
39
0
210
0
220
0
230
1
0
LINE
5
144
100
AcDbEntity
8
1
62
256
6
ByLayer
370
13
48
1
60
0
100
AcDbLine
10
269.742398
20
-15.165389
30
0
11
269.345702
21
-14.838075
31
0
39
0
210
0
220
0
230
1
0
LINE
5
145
100
AcDbEntity
8
1
62
256
6
ByLayer
370
13
48
1
60
0
100
AcDbLine
10
256.843223
20
8.480528
30
0
11
256.852447
21
8.481012
31
0
39
0
210
0
220
0
230
1
0
LINE
5
146
100
AcDbEntity
8
1
62
256
6
ByLayer
370
13
48
1
60
0
100
AcDbLine
10
251.888922
20
16.61476
30
0
11
252.617728
21
22.18356
31
0
39
0
210
0
220
0
230
1
0
LINE
5
147
100
AcDbEntity
8
1
62
256
6
ByLayer
370
13
48
1
60
0
100
AcDbLine
10
33.8036
20
-23.129653
30
0
11
33.8036
21
-23.217188
31
0
39
0
210
0
220
0
230
1
0
LINE
5
148
100
AcDbEntity
8
4
62
256
6
ByLayer
370
18
48
0.05
60
0
100
AcDbLine
10
271.145
20
0
30
0
11
0
21
0
31
0
39
0
210
0
220
0
230
1
0
LINE
5
14A
100
AcDbEntity
8
SK4
62
256
6
ByLayer
370
13
48
0.05
60
0
100
AcDbLine
10
271.145
20
0
30
0
11
-70
21
0
31
0
39
0
210
0
220
0
230
1
0
LINE
5
14C
100
AcDbEntity
8
SK1
62
256
6
ByLayer
370
13
48
1
60
0
100
AcDbLine
10
-68.599999
20
19.046
30
0
11
-69
21
19.046
31
0
39
0
210
0
220
0
230
1
0
LINE
5
14D
100
AcDbEntity
8
SK1
62
256
6
ByLayer
370
13
48
1
60
0
100
AcDbLine
10
-69
20
-19.046
30
0
11
-68.599999
21
-19.046
31
0
39
0
210
0
220
0
230
1
0
LINE
5
14E
100
AcDbEntity
8
SK1
62
256
6
ByLayer
370
13
48
1
60
0
100
AcDbLine
10
-70
20
-18.046
30
0
11
-69
21
-19.046
31
0
39
0
210
0
220
0
230
1
0
LINE
5
14F
100
AcDbEntity
8
SK1
62
256
6
ByLayer
370
13
48
1
60
0
100
AcDbLine
10
-69
20
19.046
30
0
11
-70
21
18.046
31
0
39
0
210
0
220
0
230
1
0
LINE
5
150
100
AcDbEntity
8
SK1
62
256
6
ByLayer
370
13
48
1
60
0
100
AcDbLine
10
-68.516222
20
18.942544
30
0
11
-68.599999
21
19.046
31
0
39
0
210
0
220
0
230
1
0
LINE
5
151
100
AcDbEntity
8
SK1
62
256
6
ByLayer
370
13
48
1
60
0
100
AcDbLine
10
-68.599999
20
-19.046
30
0
11
-68.516222
21
-18.942544
31
0
39
0
210
0
220
0
230
1
0
LINE
5
152
100
AcDbEntity
8
SK1
62
256
6
ByLayer
370
13
48
1
60
0
100
AcDbLine
10
-67.633813
20
-18.689667
30
0
11
-66.600002
21
-19.046
31
0
39
0
210
0
220
0
230
1
0
LINE
5
153
100
AcDbEntity
8
SK1
62
256
6
ByLayer
370
13
48
1
60
0
100
AcDbLine
10
-66.600002
20
19.046
30
0
11
-67.633813
21
18.689667
31
0
39
0
210
0
220
0
230
1
0
LINE
5
154
100
AcDbEntity
8
SK1
62
256
6
ByLayer
370
13
48
1
60
0
100
AcDbLine
10
-0.15
20
18.796
30
0
11
-1.375195
21
18.796
31
0
39
0
210
0
220
0
230
1
0
LINE
5
155
100
AcDbEntity
8
SK1
62
256
6
ByLayer
370
13
48
1
60
0
100
AcDbLine
10
-1.375195
20
-18.796
30
0
11
-0.15
21
-18.796
31
0
39
0
210
0
220
0
230
1
0
LINE
5
156
100
AcDbEntity
8
SK1
62
256
6
ByLayer
370
13
48
1
60
0
100
AcDbLine
10
-1.544243
20
18.833477
30
0
11
-2
21
19.046
31
0
39
0
210
0
220
0
230
1
0
LINE
5
157
100
AcDbEntity
8
SK1
62
256
6
ByLayer
370
13
48
1
60
0
100
AcDbLine
10
-2
20
-19.046
30
0
11
-1.544243
21
-18.833477
31
0
39
0
210
0
220
0
230
1
0
LINE
5
158
100
AcDbEntity
8
SK1
62
256
6
ByLayer
370
13
48
1
60
0
100
AcDbLine
10
-2
20
19.046
30
0
11
-66.600002
21
19.046
31
0
39
0
210
0
220
0
230
1
0
LINE
5
159
100
AcDbEntity
8
SK1
62
256
6
ByLayer
370
13
48
1
60
0
100
AcDbLine
10
-66.600002
20
-19.046
30
0
11
-2
21
-19.046
31
0
39
0
210
0
220
0
230
1
0
LINE
5
15A
100
AcDbEntity
8
1
62
256
6
ByLayer
370
13
48
1
60
0
100
AcDbLine
10
28.8036
20
-23.217188
30
0
11
33.8036
21
-23.217188
31
0
39
0
210
0
220
0
230
1
0
LINE
5
15B
100
AcDbEntity
8
1
62
256
6
ByLayer
370
13
48
1
60
0
100
AcDbLine
10
33.8036
20
-23.217188
30
0
11
125.74016
21
-22.979063
31
0
39
0
210
0
220
0
230
1
0
LINE
5
15C
100
AcDbEntity
8
1
62
256
6
ByLayer
370
13
48
1
60
0
100
AcDbLine
10
252.315043
20
23.217187
30
0
11
250.252106
21
23.217187
31
0
39
0
210
0
220
0
230
1
0
LINE
5
15D
100
AcDbEntity
8
1
62
256
6
ByLayer
370
13
48
1
60
0
100
AcDbLine
10
250.252106
20
23.217187
30
0
11
247.252106
21
22.979062
31
0
39
0
210
0
220
0
230
1
0
LINE
5
15E
100
AcDbEntity
8
1
62
256
6
ByLayer
370
13
48
1
60
0
100
AcDbLine
10
125.74016
20
-22.979063
30
0
11
164.035401
21
-22.979063
31
0
39
0
210
0
220
0
230
1
0
LINE
5
15F
100
AcDbEntity
8
1
62
256
6
ByLayer
370
13
48
1
60
0
100
AcDbLine
10
247.252106
20
22.979062
30
0
11
235.547077
21
22.979062
31
0
39
0
210
0
220
0
230
1
0
LINE
5
160
100
AcDbEntity
8
1
62
256
6
ByLayer
370
13
48
1
60
0
100
AcDbLine
10
153.499098
20
22.979062
30
0
11
125.74016
21
22.979062
31
0
39
0
210
0
220
0
230
1
0
LINE
5
161
100
AcDbEntity
8
1
62
256
6
ByLayer
370
13
48
1
60
0
100
AcDbLine
10
125.74016
20
22.979062
30
0
11
33.8036
21
23.217187
31
0
39
0
210
0
220
0
230
1
0
LINE
5
162
100
AcDbEntity
8
1
62
256
6
ByLayer
370
13
48
1
60
0
100
AcDbLine
10
33.8036
20
23.217187
30
0
11
28.8036
21
23.217187
31
0
39
0
210
0
220
0
230
1
0
LINE
5
163
100
AcDbEntity
8
1
62
256
6
ByLayer
370
13
48
1
60
0
100
AcDbLine
10
0.1
20
24.75
30
0
11
0
21
24.65
31
0
39
0
210
0
220
0
230
1
0
LINE
5
164
100
AcDbEntity
8
1
62
256
6
ByLayer
370
13
48
1
60
0
100
AcDbLine
10
5.0098
20
24.75
30
0
11
0.1
21
24.75
31
0
39
0
210
0
220
0
230
1
0
LINE
5
165
100
AcDbEntity
8
1
62
256
6
ByLayer
370
13
48
1
60
0
100
AcDbLine
10
0
20
-24.65
30
0
11
0.1
21
-24.75
31
0
39
0
210
0
220
0
230
1
0
LINE
5
166
100
AcDbEntity
8
1
62
256
6
ByLayer
370
13
48
1
60
0
100
AcDbLine
10
0.1
20
-24.75
30
0
11
5.0098
21
-24.75
31
0
39
0
210
0
220
0
230
1
0
LINE
5
167
100
AcDbEntity
8
1
62
256
6
ByLayer
370
18
48
1
60
0
100
AcDbLine
10
261.473904
20
14.16537
30
0
11
261.349182
21
14.158834
31
0
39
0
210
0
220
0
230
1
0
LINE
5
168
100
AcDbEntity
8
1
62
256
6
ByLayer
370
18
48
1
60
0
100
AcDbLine
10
261.214124
20
16.735897
30
0
11
261.338846
21
16.742434
31
0
39
0
210
0
220
0
230
1
0
LINE
5
169
100
AcDbEntity
8
1
62
256
6
ByLayer
370
18
48
1
60
0
100
AcDbLine
10
261.5023
20
12.605018
30
0
11
261.568789
21
12.608503
31
0
39
0
210
0
220
0
230
1
0
LINE
5
16A
100
AcDbEntity
8
1
62
256
6
ByLayer
370
18
48
1
60
0
100
AcDbLine
10
261.270474
20
18.300691
30
0
11
261.203985
21
18.297206
31
0
39
0
210
0
220
0
230
1
0
LINE
5
16B
100
AcDbEntity
8
1
62
256
6
ByLayer
370
13
48
1
60
0
100
AcDbLine
10
269.794065
20
8.6285
30
0
11
270.248622
21
9.599897
31
0
39
0
210
0
220
0
230
1
0
LINE
5
16C
100
AcDbEntity
8
1
62
256
6
ByLayer
370
13
48
1
60
0
100
AcDbLine
10
268.874959
20
16.102055
30
0
11
267.888837
21
22.34614
31
0
39
0
210
0
220
0
230
1
0
LINE
5
16D
100
AcDbEntity
8
1
62
256
6
ByLayer
370
13
48
1
60
0
100
AcDbLine
10
268.035641
20
9.467889
30
0
11
268.877618
21
15.901424
31
0
39
0
210
0
220
0
230
1
0
LINE
5
16E
100
AcDbEntity
8
81
62
256
6
ByLayer
370
18
48
1
60
0
100
AcDbLine
10
271.145
20
0
30
0
11
278.145
21
0
31
0
39
0
210
0
220
0
230
1
0
LINE
5
16F
100
AcDbEntity
8
80
62
256
6
ByLayer
370
18
48
1
60
0
100
AcDbLine
10
0
20
0
30
0
11
-7
21
0
31
0
39
0
210
0
220
0
230
1
0
LINE
5
170
100
AcDbEntity
8
SK2
62
256
6
ByLayer
370
13
48
1
60
0
100
AcDbLine
10
-90.725
20
19.05
30
0
11
-90.725
21
-19.05
31
0
39
0
210
0
220
0
230
1
0
LINE
5
172
100
AcDbEntity
8
SK2
62
256
6
ByLayer
370
13
48
1
60
0
100
AcDbLine
10
-71.5875
20
-19.05
30
0
11
-93.9
21
-19.05
31
0
39
0
210
0
220
0
230
1
0
LINE
5
173
100
AcDbEntity
8
SK2
62
256
6
ByLayer
370
13
48
1
60
0
100
AcDbLine
10
-71.5875
20
19.05
30
0
11
-93.9
21
19.05
31
0
39
0
210
0
220
0
230
1
0
LINE
5
174
100
AcDbEntity
8
1
62
256
6
ByLayer
370
18
48
1
60
1
100
AcDbLine
10
-90.725
20
-19.05
30
0
11
-91.650575
21
-14.875003
31
0
39
0
210
0
220
0
230
1
0
LINE
5
175
100
AcDbEntity
8
1
62
256
6
ByLayer
370
18
48
1
60
1
100
AcDbLine
10
-91.650575
20
-14.875003
30
0
11
-89.799425
21
-14.874997
31
0
39
0
210
0
220
0
230
1
0
LINE
5
176
100
AcDbEntity
8
1
62
256
6
ByLayer
370
18
48
1
60
1
100
AcDbLine
10
-89.799425
20
-14.874997
30
0
11
-90.725
21
-19.05
31
0
39
0
210
0
220
0
230
1
0
LINE
5
177
100
AcDbEntity
8
1
62
256
6
ByLayer
370
18
48
1
60
1
100
AcDbLine
10
-90.725
20
19.05
30
0
11
-89.799425
21
14.875003
31
0
39
0
210
0
220
0
230
1
0
LINE
5
178
100
AcDbEntity
8
1
62
256
6
ByLayer
370
18
48
1
60
1
100
AcDbLine
10
-89.799425
20
14.875003
30
0
11
-91.650575
21
14.874997
31
0
39
0
210
0
220
0
230
1
0
LINE
5
179
100
AcDbEntity
8
1
62
256
6
ByLayer
370
18
48
1
60
1
100
AcDbLine
10
-91.650575
20
14.874997
30
0
11
-90.725
21
19.05
31
0
39
0
210
0
220
0
230
1
0
LINE
5
17A
100
AcDbEntity
8
SK2
62
256
6
ByLayer
370
13
48
1
60
0
100
AcDbLine
10
-100.725
20
-24.75
30
0
11
-100.725
21
24.75
31
0
39
0
210
0
220
0
230
1
0
LINE
5
17B
100
AcDbEntity
8
SK2
62
256
6
ByLayer
370
13
48
1
60
0
100
AcDbLine
10
-1.5875
20
24.75
30
0
11
-103.9
21
24.75
31
0
39
0
210
0
220
0
230
1
0
LINE
5
17C
100
AcDbEntity
8
SK2
62
256
6
ByLayer
370
13
48
1
60
0
100
AcDbLine
10
-1.5875
20
-24.75
30
0
11
-103.9
21
-24.75
31
0
39
0
210
0
220
0
230
1
0
LINE
5
17D
100
AcDbEntity
8
1
62
256
6
ByLayer
370
18
48
1
60
1
100
AcDbLine
10
-100.725
20
24.75
30
0
11
-99.799425
21
20.575003
31
0
39
0
210
0
220
0
230
1
0
LINE
5
17E
100
AcDbEntity
8
1
62
256
6
ByLayer
370
18
48
1
60
1
100
AcDbLine
10
-99.799425
20
20.575003
30
0
11
-101.650575
21
20.574997
31
0
39
0
210
0
220
0
230
1
0
LINE
5
17F
100
AcDbEntity
8
1
62
256
6
ByLayer
370
18
48
1
60
1
100
AcDbLine
10
-101.650575
20
20.574997
30
0
11
-100.725
21
24.75
31
0
39
0
210
0
220
0
230
1
0
LINE
5
180
100
AcDbEntity
8
1
62
256
6
ByLayer
370
18
48
1
60
1
100
AcDbLine
10
-100.725
20
-24.75
30
0
11
-101.650575
21
-20.575003
31
0
39
0
210
0
220
0
230
1
0
LINE
5
181
100
AcDbEntity
8
1
62
256
6
ByLayer
370
18
48
1
60
1
100
AcDbLine
10
-101.650575
20
-20.575003
30
0
11
-99.799425
21
-20.574997
31
0
39
0
210
0
220
0
230
1
0
LINE
5
182
100
AcDbEntity
8
1
62
256
6
ByLayer
370
18
48
1
60
1
100
AcDbLine
10
-99.799425
20
-20.574997
30
0
11
-100.725
21
-24.75
31
0
39
0
210
0
220
0
230
1
0
LINE
5
183
100
AcDbEntity
8
2
62
256
6
ByLayer
370
13
48
1
60
0
100
AcDbLine
10
298.12
20
23.8125
30
0
11
298.12
21
-23.8125
31
0
39
0
210
0
220
0
230
1
0
LINE
5
185
100
AcDbEntity
8
2
62
256
6
ByLayer
370
13
48
1
60
0
100
AcDbLine
10
272.7325
20
-23.8125
30
0
11
301.295
21
-23.8125
31
0
39
0
210
0
220
0
230
1
0
LINE
5
186
100
AcDbEntity
8
2
62
256
6
ByLayer
370
13
48
1
60
0
100
AcDbLine
10
272.7325
20
23.8125
30
0
11
301.295
21
23.8125
31
0
39
0
210
0
220
0
230
1
0
LINE
5
187
100
AcDbEntity
8
1
62
256
6
ByLayer
370
18
48
1
60
1
100
AcDbLine
10
298.12
20
-23.8125
30
0
11
297.194425
21
-19.637503
31
0
39
0
210
0
220
0
230
1
0
LINE
5
188
100
AcDbEntity
8
1
62
256
6
ByLayer
370
18
48
1
60
1
100
AcDbLine
10
297.194425
20
-19.637503
30
0
11
299.045575
21
-19.637497
31
0
39
0
210
0
220
0
230
1
0
LINE
5
189
100
AcDbEntity
8
1
62
256
6
ByLayer
370
18
48
1
60
1
100
AcDbLine
10
299.045575
20
-19.637497
30
0
11
298.12
21
-23.8125
31
0
39
0
210
0
220
0
230
1
0
LINE
5
18A
100
AcDbEntity
8
1
62
256
6
ByLayer
370
18
48
1
60
1
100
AcDbLine
10
298.12
20
23.8125
30
0
11
299.045575
21
19.637503
31
0
39
0
210
0
220
0
230
1
0
LINE
5
18B
100
AcDbEntity
8
1
62
256
6
ByLayer
370
18
48
1
60
1
100
AcDbLine
10
299.045575
20
19.637503
30
0
11
297.194425
21
19.637497
31
0
39
0
210
0
220
0
230
1
0
LINE
5
18C
100
AcDbEntity
8
1
62
256
6
ByLayer
370
18
48
1
60
1
100
AcDbLine
10
297.194425
20
19.637497
30
0
11
298.12
21
23.8125
31
0
39
0
210
0
220
0
230
1
0
LINE
5
344
100
AcDbEntity
8
1
62
256
6
ByLayer
370
18
48
1
60
1
100
AcDbLine
10
-90.725
20
-19.05
30
0
11
-91.650575
21
-14.875003
31
0
39
0
210
0
220
0
230
1
0
LINE
5
345
100
AcDbEntity
8
1
62
256
6
ByLayer
370
18
48
1
60
1
100
AcDbLine
10
-91.650575
20
-14.875003
30
0
11
-89.799425
21
-14.874997
31
0
39
0
210
0
220
0
230
1
0
LINE
5
346
100
AcDbEntity
8
1
62
256
6
ByLayer
370
18
48
1
60
1
100
AcDbLine
10
-89.799425
20
-14.874997
30
0
11
-90.725
21
-19.05
31
0
39
0
210
0
220
0
230
1
0
LINE
5
348
100
AcDbEntity
8
1
62
256
6
ByLayer
370
18
48
1
60
1
100
AcDbLine
10
-90.725
20
19.05
30
0
11
-89.799425
21
14.875003
31
0
39
0
210
0
220
0
230
1
0
LINE
5
349
100
AcDbEntity
8
1
62
256
6
ByLayer
370
18
48
1
60
1
100
AcDbLine
10
-89.799425
20
14.875003
30
0
11
-91.650575
21
14.874997
31
0
39
0
210
0
220
0
230
1
0
LINE
5
34A
100
AcDbEntity
8
1
62
256
6
ByLayer
370
18
48
1
60
1
100
AcDbLine
10
-91.650575
20
14.874997
30
0
11
-90.725
21
19.05
31
0
39
0
210
0
220
0
230
1
0
LINE
5
34E
100
AcDbEntity
8
1
62
256
6
ByLayer
370
18
48
1
60
1
100
AcDbLine
10
-100.725
20
24.75
30
0
11
-99.799425
21
20.575003
31
0
39
0
210
0
220
0
230
1
0
LINE
5
34F
100
AcDbEntity
8
1
62
256
6
ByLayer
370
18
48
1
60
1
100
AcDbLine
10
-99.799425
20
20.575003
30
0
11
-101.650575
21
20.574997
31
0
39
0
210
0
220
0
230
1
0
LINE
5
350
100
AcDbEntity
8
1
62
256
6
ByLayer
370
18
48
1
60
1
100
AcDbLine
10
-101.650575
20
20.574997
30
0
11
-100.725
21
24.75
31
0
39
0
210
0
220
0
230
1
0
LINE
5
352
100
AcDbEntity
8
1
62
256
6
ByLayer
370
18
48
1
60
1
100
AcDbLine
10
-100.725
20
-24.75
30
0
11
-101.650575
21
-20.575003
31
0
39
0
210
0
220
0
230
1
0
LINE
5
353
100
AcDbEntity
8
1
62
256
6
ByLayer
370
18
48
1
60
1
100
AcDbLine
10
-101.650575
20
-20.575003
30
0
11
-99.799425
21
-20.574997
31
0
39
0
210
0
220
0
230
1
0
LINE
5
354
100
AcDbEntity
8
1
62
256
6
ByLayer
370
18
48
1
60
1
100
AcDbLine
10
-99.799425
20
-20.574997
30
0
11
-100.725
21
-24.75
31
0
39
0
210
0
220
0
230
1
0
LINE
5
358
100
AcDbEntity
8
1
62
256
6
ByLayer
370
18
48
1
60
1
100
AcDbLine
10
298.12
20
-23.8125
30
0
11
297.194425
21
-19.637503
31
0
39
0
210
0
220
0
230
1
0
LINE
5
359
100
AcDbEntity
8
1
62
256
6
ByLayer
370
18
48
1
60
1
100
AcDbLine
10
297.194425
20
-19.637503
30
0
11
299.045575
21
-19.637497
31
0
39
0
210
0
220
0
230
1
0
LINE
5
35A
100
AcDbEntity
8
1
62
256
6
ByLayer
370
18
48
1
60
1
100
AcDbLine
10
299.045575
20
-19.637497
30
0
11
298.12
21
-23.8125
31
0
39
0
210
0
220
0
230
1
0
LINE
5
35C
100
AcDbEntity
8
1
62
256
6
ByLayer
370
18
48
1
60
1
100
AcDbLine
10
298.12
20
23.8125
30
0
11
299.045575
21
19.637503
31
0
39
0
210
0
220
0
230
1
0
LINE
5
35D
100
AcDbEntity
8
1
62
256
6
ByLayer
370
18
48
1
60
1
100
AcDbLine
10
299.045575
20
19.637503
30
0
11
297.194425
21
19.637497
31
0
39
0
210
0
220
0
230
1
0
LINE
5
35E
100
AcDbEntity
8
1
62
256
6
ByLayer
370
18
48
1
60
1
100
AcDbLine
10
297.194425
20
19.637497
30
0
11
298.12
21
23.8125
31
0
39
0
210
0
220
0
230
1
0
MTEXT
5
340
100
AcDbEntity
8
SK2
62
256
6
ByLayer
370
18
48
1
60
0
100
AcDbMText
10
-92.736672
20
-8.979241
30
0
210
0
220
0
230
1
1
%%c
40
4.5
41
0
44
1.084337
50
90
71
7
72
5
7
iso_b_vert
0
MTEXT
5
343
100
AcDbEntity
8
SK2
62
256
6
ByLayer
370
18
48
1
60
0
100
AcDbMText
10
-92.736672
20
2.235603
30
0
210
0
220
0
230
1
1
\W0.7208;38.1
40
4.5
41
0
44
1.084337
50
90
71
7
72
5
7
iso_b_vert
0
MTEXT
5
34C
100
AcDbEntity
8
SK2
62
256
6
ByLayer
370
18
48
1
60
0
100
AcDbMText
10
-102.736672
20
-9.778569
30
0
210
0
220
0
230
1
1
%%c
40
4.5
41
0
44
1.084337
50
90
71
7
72
5
7
iso_b_vert
0
MTEXT
5
34D
100
AcDbEntity
8
SK2
62
256
6
ByLayer
370
18
48
1
60
0
100
AcDbMText
10
-102.736672
20
1.436275
30
0
210
0
220
0
230
1
1
\W0.7640;49.5
40
4.5
41
0
44
1.084337
50
90
71
7
72
5
7
iso_b_vert
0
MTEXT
5
356
100
AcDbEntity
8
2
62
256
6
ByLayer
370
18
48
1
60
0
100
AcDbMText
10
296.108328
20
-11.459597
30
0
210
0
220
0
230
1
1
%%c
40
4.5
41
0
44
1.084337
50
90
71
7
72
5
7
iso_b_vert
0
MTEXT
5
357
100
AcDbEntity
8
2
62
256
6
ByLayer
370
18
48
1
60
0
100
AcDbMText
10
296.108328
20
-0.244753
30
0
210
0
220
0
230
1
1
\W0.7694;47.62
40
4.5
41
0
44
1.084337
50
90
71
7
72
5
7
iso_b_vert
0
MTEXT
5
360
100
AcDbEntity
8
SK6
62
256
6
ByLayer
370
18
48
1
60
0
100
AcDbMText
10
9.308916
20
-94.592562
30
0
210
0
220
0
230
1
1
\W0.7873;DS20-D4763LX38-05
40
3.5
41
0
44
1.084337
50
0
71
7
72
5
7
iso_b_vert
0
HATCH
5
347
100
AcDbEntity
8
SK2
62
256
6
ByLayer
370
13
48
1
60
0
100
AcDbHatch
10
0
20
0
30
0
210
0
220
0
230
1
2
ANSI31
70
0
71
0
91
1
92
5
93
3
72
1
10
-90.725
20
-19.0499999999999
11
-91.650575216528
21
-14.8750033998275
72
1
10
-91.650575216528
20
-14.8750033998275
11
-89.799424783472
21
-14.8749966001723
72
1
10
-89.799424783472
20
-14.8749966001723
11
-90.725
21
-19.0499999999999
97
0
75
0
76
1
52
0
41
0.0062
77
0
78
1
53
45
43
0
44
0
45
-0.0139193969876572
46
0.0139193969876572
79
0
47
0
98
1
10
0
20
0
0
HATCH
5
34B
100
AcDbEntity
8
SK2
62
256
6
ByLayer
370
13
48
1
60
0
100
AcDbHatch
10
0
20
0
30
0
210
0
220
0
230
1
2
ANSI31
70
0
71
0
91
1
92
5
93
3
72
1
10
-90.725
20
19.0500000000001
11
-89.799424783472
21
14.8750033998277
72
1
10
-89.799424783472
20
14.8750033998277
11
-91.650575216528
21
14.8749966001725
72
1
10
-91.650575216528
20
14.8749966001725
11
-90.725
21
19.0500000000001
97
0
75
0
76
1
52
0
41
0.0062
77
0
78
1
53
45
43
0
44
0
45
-0.0139193969876572
46
0.0139193969876572
79
0
47
0
98
1
10
0
20
0
0
HATCH
5
351
100
AcDbEntity
8
SK2
62
256
6
ByLayer
370
13
48
1
60
0
100
AcDbHatch
10
0
20
0
30
0
210
0
220
0
230
1
2
ANSI31
70
0
71
0
91
1
92
5
93
3
72
1
10
-100.725
20
24.75
11
-99.799424783472
21
20.5750033998276
72
1
10
-99.799424783472
20
20.5750033998276
11
-101.650575216528
21
20.5749966001724
72
1
10
-101.650575216528
20
20.5749966001724
11
-100.725
21
24.75
97
0
75
0
76
1
52
0
41
0.0062
77
0
78
1
53
45
43
0
44
0
45
-0.0139193969876572
46
0.0139193969876572
79
0
47
0
98
1
10
0
20
0
0
HATCH
5
355
100
AcDbEntity
8
SK2
62
256
6
ByLayer
370
13
48
1
60
0
100
AcDbHatch
10
0
20
0
30
0
210
0
220
0
230
1
2
ANSI31
70
0
71
0
91
1
92
5
93
3
72
1
10
-100.725
20
-24.75
11
-101.650575216528
21
-20.5750033998276
72
1
10
-101.650575216528
20
-20.5750033998276
11
-99.799424783472
21
-20.5749966001724
72
1
10
-99.799424783472
20
-20.5749966001724
11
-100.725
21
-24.75
97
0
75
0
76
1
52
0
41
0.0062
77
0
78
1
53
45
43
0
44
0
45
-0.0139193969876572
46
0.0139193969876572
79
0
47
0
98
1
10
0
20
0
0
HATCH
5
35B
100
AcDbEntity
8
2
62
256
6
ByLayer
370
13
48
1
60
0
100
AcDbHatch
10
0
20
0
30
0
210
0
220
0
230
1
2
ANSI31
70
0
71
0
91
1
92
5
93
3
72
1
10
298.12
20
-23.8125000000003
11
297.194424783472
21
-19.6375033998279
72
1
10
297.194424783472
20
-19.6375033998279
11
299.045575216528
21
-19.6374966001727
72
1
10
299.045575216528
20
-19.6374966001727
11
298.12
21
-23.8125000000003
97
0
75
0
76
1
52
0
41
0.0062
77
0
78
1
53
45
43
0
44
0
45
-0.0139193969876572
46
0.0139193969876572
79
0
47
0
98
1
10
0
20
0
0
HATCH
5
35F
100
AcDbEntity
8
2
62
256
6
ByLayer
370
13
48
1
60
0
100
AcDbHatch
10
0
20
0
30
0
210
0
220
0
230
1
2
ANSI31
70
0
71
0
91
1
92
5
93
3
72
1
10
298.12
20
23.8124999999997
11
299.045575216528
21
19.6375033998273
72
1
10
299.045575216528
20
19.6375033998273
11
297.194424783472
21
19.6374966001721
72
1
10
297.194424783472
20
19.6374966001721
11
298.12
21
23.8124999999997
97
0
75
0
76
1
52
0
41
0.0062
77
0
78
1
53
45
43
0
44
0
45
-0.0139193969876572
46
0.0139193969876572
79
0
47
0
98
1
10
0
20
0
0
DIMENSION
5
363
100
AcDbEntity
8
2
62
256
6
ByLayer
370
18
48
1
60
0
100
AcDbDimension
2
_U0
10
271.145
20
-73.610915
30
0
11
135.5725
21
-73.610915
31
0
70
32
71
1
72
1
41
1
210
0
220
0
230
1
3
Standard
100
AcDbAlignedDimension
13
0
23
-24.75
33
0
14
271.145
24
-23.8125
34
0
50
0
100
AcDbRotatedDimension
1001
ACAD
1000
DSTYLE
1002
{
1070
   371
1070
    13
1070
   372
1070
    13
1070
   170
1070
     0
1070
   144
1040
1.0
1070
   277
1070
     2
1070
   284
1070
     8
1070
   278
1070
    46
1070
   146
1040
0.777778
1070
   345
1005
16
1070
   347
1005
16
1070
   346
1005
16
1070
   344
1005
0
1070
   343
1005
0
1070
   172
1070
     1
1070
    76
1070
     0
1070
    75
1070
     0
1070
   282
1070
     0
1070
   281
1070
     0
1070
    71
1070
     0
1070
    74
1070
     0
1070
   279
1070
     0
1070
   173
1070
     1
1070
   340
1005
341
1070
   271
1070
     1
1070
   272
1070
     2
1070
    77
1070
     1
1070
    73
1070
     1
1070
   171
1070
     3
1070
   274
1070
     4
1070
   177
1070
   150
1070
   176
1070
     9
1070
   178
1070
    43
1070
    78
1070
     8
1070
    48
1040
-0.1
1070
    41
1040
4.175
1070
   147
1040
2.25
1070
    42
1040
1.5875
1070
    44
1040
3.175
1070
   140
1040
4.5
1002
}
1001
ACAD_DSTYLE_DIM_LINETYPE
1070
   380
1005
16
1001
ACAD_DSTYLE_DIM_EXT1_LINETYPE
1070
   381
1005
16
1001
ACAD_DSTYLE_DIM_EXT2_LINETYPE
1070
   382
1005
16
0
DIMENSION
5
37C
100
AcDbEntity
8
SK2
62
256
6
ByLayer
370
18
48
1
60
0
100
AcDbDimension
2
_U1
10
0
20
-73.610915
30
0
11
-35
21
-73.610915
31
0
70
32
71
1
72
1
41
1
210
0
220
0
230
1
3
Standard
100
AcDbAlignedDimension
13
-70
23
-19.05
33
0
14
0
24
-24.75
34
0
50
0
100
AcDbRotatedDimension
1001
ACAD
1000
DSTYLE
1002
{
1070
   371
1070
    13
1070
   372
1070
    13
1070
   170
1070
     0
1070
   144
1040
1.0
1070
   277
1070
     2
1070
   284
1070
     8
1070
   278
1070
    46
1070
   146
1040
0.777778
1070
   345
1005
16
1070
   347
1005
16
1070
   346
1005
16
1070
   344
1005
0
1070
   343
1005
0
1070
   172
1070
     1
1070
    76
1070
     0
1070
    75
1070
     0
1070
   282
1070
     0
1070
   281
1070
     0
1070
    71
1070
     0
1070
    74
1070
     0
1070
   279
1070
     0
1070
   173
1070
     1
1070
   340
1005
341
1070
   271
1070
     1
1070
   272
1070
     2
1070
    77
1070
     1
1070
    73
1070
     1
1070
   171
1070
     3
1070
   274
1070
     4
1070
   177
1070
   150
1070
   176
1070
     9
1070
   178
1070
    43
1070
    78
1070
     8
1070
    48
1040
-0.1
1070
    41
1040
4.175
1070
   147
1040
2.25
1070
    42
1040
1.5875
1070
    44
1040
3.175
1070
   140
1040
4.5
1002
}
1001
ACAD_DSTYLE_DIM_LINETYPE
1070
   380
1005
16
1001
ACAD_DSTYLE_DIM_EXT1_LINETYPE
1070
   381
1005
16
1001
ACAD_DSTYLE_DIM_EXT2_LINETYPE
1070
   382
1005
16
0
DIMENSION
5
394
100
AcDbEntity
8
SK2
62
256
6
ByLayer
370
18
48
1
60
0
100
AcDbDimension
2
_U2
10
5.5098
20
-63.610915
30
0
11
138.3274
21
-63.610915
31
0
70
32
71
1
72
1
41
1
210
0
220
0
230
1
3
Standard
100
AcDbAlignedDimension
13
271.145
23
-23.8125
33
0
14
5.5098
24
-24.75
34
0
50
0
100
AcDbRotatedDimension
1001
ACAD
1000
DSTYLE
1002
{
1070
   371
1070
    13
1070
   372
1070
    13
1070
   170
1070
     0
1070
   144
1040
1.0
1070
   277
1070
     2
1070
   284
1070
     8
1070
   278
1070
    46
1070
   146
1040
0.777778
1070
   345
1005
16
1070
   347
1005
16
1070
   346
1005
16
1070
   344
1005
0
1070
   343
1005
0
1070
   172
1070
     1
1070
    76
1070
     0
1070
    75
1070
     0
1070
   282
1070
     0
1070
   281
1070
     0
1070
    71
1070
     0
1070
    74
1070
     0
1070
   279
1070
     0
1070
   173
1070
     1
1070
   340
1005
341
1070
   271
1070
     1
1070
   272
1070
     2
1070
    77
1070
     1
1070
    73
1070
     1
1070
   171
1070
     3
1070
   274
1070
     4
1070
   177
1070
   150
1070
   176
1070
     9
1070
   178
1070
    43
1070
    78
1070
     8
1070
    48
1040
-0.1
1070
    41
1040
4.175
1070
   147
1040
2.25
1070
    42
1040
1.5875
1070
    44
1040
3.175
1070
   140
1040
4.5
1002
}
1001
ACAD_DSTYLE_DIM_LINETYPE
1070
   380
1005
16
1001
ACAD_DSTYLE_DIM_EXT1_LINETYPE
1070
   381
1005
16
1001
ACAD_DSTYLE_DIM_EXT2_LINETYPE
1070
   382
1005
16
0
DIMENSION
5
3AC
100
AcDbEntity
8
SK2
62
256
6
ByLayer
370
18
48
1
60
0
100
AcDbDimension
2
_U3
10
271.145
20
-53.610915
30
0
11
149.9743
21
-53.610915
31
0
70
32
71
1
72
1
41
1
210
0
220
0
230
1
3
Standard
100
AcDbAlignedDimension
13
28.8036
23
-23.8125
33
0
14
271.145
24
-23.8125
34
0
50
0
100
AcDbRotatedDimension
1001
ACAD
1000
DSTYLE
1002
{
1070
   371
1070
    13
1070
   372
1070
    13
1070
   170
1070
     0
1070
   144
1040
1.0
1070
   277
1070
     2
1070
   284
1070
     8
1070
   278
1070
    46
1070
   146
1040
0.777778
1070
   345
1005
16
1070
   347
1005
16
1070
   346
1005
16
1070
   344
1005
0
1070
   343
1005
0
1070
   172
1070
     1
1070
    76
1070
     0
1070
    75
1070
     0
1070
   282
1070
     0
1070
   281
1070
     0
1070
    71
1070
     0
1070
    74
1070
     0
1070
   279
1070
     0
1070
   173
1070
     1
1070
   340
1005
341
1070
   271
1070
     1
1070
   272
1070
     2
1070
    77
1070
     1
1070
    73
1070
     1
1070
   171
1070
     3
1070
   274
1070
     4
1070
   177
1070
   150
1070
   176
1070
     9
1070
   178
1070
    43
1070
    78
1070
     8
1070
    48
1040
-0.1
1070
    41
1040
4.175
1070
   147
1040
2.25
1070
    42
1040
1.5875
1070
    44
1040
3.175
1070
   140
1040
4.5
1002
}
1001
ACAD_DSTYLE_DIM_LINETYPE
1070
   380
1005
16
1001
ACAD_DSTYLE_DIM_EXT1_LINETYPE
1070
   381
1005
16
1001
ACAD_DSTYLE_DIM_EXT2_LINETYPE
1070
   382
1005
16
0
DIMENSION
5
3C4
100
AcDbEntity
8
2
62
256
6
ByLayer
370
18
48
1
60
0
100
AcDbDimension
2
_U4
10
271.145
20
-43.610915
30
0
11
293.174464
21
-43.610915
31
0
70
32
71
1
72
1
41
1
210
0
220
0
230
1
3
Standard
100
AcDbAlignedDimension
13
269.8684
23
-11.90625
33
0
14
271.145
24
0
34
0
50
0
100
AcDbRotatedDimension
1001
ACAD
1000
DSTYLE
1002
{
1070
   371
1070
    13
1070
   372
1070
    13
1070
   170
1070
     0
1070
   144
1040
1.0
1070
   277
1070
     2
1070
   284
1070
     8
1070
   278
1070
    46
1070
   146
1040
0.777778
1070
   345
1005
16
1070
   347
1005
16
1070
   346
1005
16
1070
   344
1005
0
1070
   343
1005
0
1070
   172
1070
     1
1070
    76
1070
     0
1070
    75
1070
     0
1070
   282
1070
     0
1070
   281
1070
     0
1070
    71
1070
     0
1070
    74
1070
     0
1070
   279
1070
     0
1070
   173
1070
     1
1070
   340
1005
341
1070
   271
1070
     2
1070
   272
1070
     2
1070
    77
1070
     1
1070
    73
1070
     1
1070
   171
1070
     3
1070
   274
1070
     4
1070
   177
1070
   150
1070
   176
1070
     9
1070
   178
1070
    43
1070
    78
1070
     8
1070
    48
1040
-0.1
1070
    41
1040
4.175
1070
   147
1040
2.25
1070
    42
1040
1.5875
1070
    44
1040
3.175
1070
   140
1040
4.5
1002
}
1001
ACAD_DSTYLE_DIM_LINETYPE
1070
   380
1005
16
1001
ACAD_DSTYLE_DIM_EXT1_LINETYPE
1070
   381
1005
16
1001
ACAD_DSTYLE_DIM_EXT2_LINETYPE
1070
   382
1005
16
0
ENDSEC
0
SECTION
2
OBJECTS
0
DICTIONARY
5
44e
330
0
100
AcDbDictionary
280
0
281
1
3
ACAD_GROUP
350
44f
3
ACAD_MLINESTYLE
350
450
0
DICTIONARY
5
44f
330
0
100
AcDbDictionary
280
0
281
1
0
DICTIONARY
5
450
330
0
100
AcDbDictionary
280
0
281
1
3
Standard
350
18
0
MLINESTYLE
5
18
330
450
100
AcDbMlineStyle
2
Standard
70
0
3

62
256
51
90
52
90
71
2
49
-0.5
62
256
6
ByLayer
49
0.5
62
256
6
ByLayer
0
RASTERVARIABLES
5
43c
330

100
AcDbRasterVariables
90
0
70
1
71
1
72
1
0
ENDSEC
0
EOF
