0
SECTION
2
HEADER
9
$ACADVER
1
AC1015
9
$DWGCODEPAGE
3
ANSI_1252
9
$HANDSEED
5
45b
9
$ANGBASE
50
0
9
$ANGDIR
70
0
9
$ATTMODE
70
1
9
$AUNITS
70
0
9
$AUPREC
70
0
9
$CECOLOR
62
256
9
$CELTSCALE
40
1
9
$CELTYPE
6
ByLayer
9
$CELWEIGHT
370
18
9
$CLAYER
8
0
9
$CMLJUST
70
0
9
$CMLSCALE
40
1
9
$CMLSTYLE
2
Standard
9
$DIMSTYLE
2
Standard
9
$TEXTSIZE
40
0.2
9
$TEXTSTYLE
7
Standard
9
$LUNITS
70
2
9
$LUPREC
70
4
9
$EXTNAMES
290
1
9
$INSUNITS
70
4
9
$LTSCALE
40
1
9
$LWDISPLAY
290
1
9
$PDMODE
70
0
9
$PDSIZE
40
0
9
$PLINEGEN
70
0
0
ENDSEC
0
SECTION
2
CLASSES
0
CLASS
1
RASTERVARIABLES
2
AcDbRasterVariables
3
ISM
90
0
280
0
281
0
0
ENDSEC
0
SECTION
2
TABLES
0
TABLE
2
VPORT
5
451
100
AcDbSymbolTable
0
VPORT
5
1
100
AcDbSymbolTableRecord
100
AcDbViewportTableRecord
2
*Active
70
0
10
0
20
0
11
1
21
1
12
-1
22
1
13
0
23
0
14
0.5
24
0.5
15
10
25
10
16
0
26
0
36
1
17
0
27
0
37
0
0
ENDTAB
0
TABLE
2
LTYPE
5
452
100
AcDbSymbolTable
0
LTYPE
5
14
100
AcDbSymbolTableRecord
100
AcDbLinetypeTableRecord
70
0
2
ByBlock
3

72
65
73
0
40
0
0
LTYPE
5
15
100
AcDbSymbolTableRecord
100
AcDbLinetypeTableRecord
70
0
2
ByLayer
3

72
65
73
0
40
0
0
LTYPE
5
16
100
AcDbSymbolTableRecord
100
AcDbLinetypeTableRecord
70
0
2
Continuous
3
Solid line
72
65
73
0
40
0
0
LTYPE
5
6E
100
AcDbSymbolTableRecord
100
AcDbLinetypeTableRecord
70
0
2
CENTER
3
____ _ ____ _ ____ _ ____
72
65
73
4
40
47.5
49
22
74
0
49
-8.5
74
0
49
8.5
74
0
49
-8.5
74
0
0
LTYPE
5
6F
100
AcDbSymbolTableRecord
100
AcDbLinetypeTableRecord
70
0
2
DASHED
3
__ __ __ __ __ __ __ __ __
72
65
73
2
40
25.72
49
12.86
74
0
49
-12.86
74
0
0
ENDTAB
0
TABLE
2
LAYER
5
453
100
AcDbSymbolTable
0
LAYER
5
10
100
AcDbSymbolTableRecord
100
AcDbLayerTableRecord
2
0
70
0
62
7
6
Continuous
290
1
370
-3
390
0
0
LAYER
5
71
100
AcDbSymbolTableRecord
100
AcDbLayerTableRecord
2
1
70
0
62
4
6
Continuous
290
1
370
-3
390
0
0
LAYER
5
73
100
AcDbSymbolTableRecord
100
AcDbLayerTableRecord
2
80
70
0
62
-6
6
Continuous
290
1
370
-3
390
0
0
LAYER
5
75
100
AcDbSymbolTableRecord
100
AcDbLayerTableRecord
2
81
70
0
62
-3
6
Continuous
290
1
370
-3
390
0
0
LAYER
5
14E
100
AcDbSymbolTableRecord
100
AcDbLayerTableRecord
2
4
70
0
62
-2
6
CENTER
290
1
370
-3
390
0
0
LAYER
5
189
100
AcDbSymbolTableRecord
100
AcDbLayerTableRecord
2
2
70
0
62
7
6
Continuous
290
1
370
-3
390
0
0
LAYER
5
366
100
AcDbSymbolTableRecord
100
AcDbLayerTableRecord
2
Defpoints
70
0
62
7
6
Continuous
290
0
370
-3
390
0
0
LAYER
5
43d
100
AcDbSymbolTableRecord
100
AcDbLayerTableRecord
2
SK1
70
0
62
4
6
Continuous
290
1
370
-3
390
0
0
LAYER
5
43e
100
AcDbSymbolTableRecord
100
AcDbLayerTableRecord
2
SK4
70
0
62
2
6
CENTER
290
1
370
-3
390
0
0
LAYER
5
43f
100
AcDbSymbolTableRecord
100
AcDbLayerTableRecord
2
SK2
70
0
62
7
6
Continuous
290
1
370
-3
390
0
0
LAYER
5
440
100
AcDbSymbolTableRecord
100
AcDbLayerTableRecord
2
SK6
70
0
62
5
6
Continuous
290
1
370
-3
390
0
0
ENDTAB
0
TABLE
2
STYLE
5
454
100
AcDbSymbolTable
0
STYLE
5
11
100
AcDbSymbolTableRecord
100
AcDbTextStyleTableRecord
2
Standard
3
txt
70
0
71
0
40
0
41
1
42
0
50
0
0
STYLE
5
341
100
AcDbSymbolTableRecord
100
AcDbTextStyleTableRecord
2
iso_b_vert
3
simplex.shx
70
0
71
0
40
0
41
1
42
0
50
0
0
STYLE
5
342
100
AcDbSymbolTableRecord
100
AcDbTextStyleTableRecord
2
DWGDirectTextStyle
3
simplex
70
0
71
0
40
0
41
1
42
0
50
0
0
ENDTAB
0
TABLE
2
DIMSTYLE
5
455
100
AcDbSymbolTable
100
AcDbDimStyleTable
0
DIMSTYLE
105
27
100
AcDbSymbolTableRecord
100
AcDbDimStyleTableRecord
2
Standard
70
0
3
<>
41
0.18
42
0.0625
44
0.18
140
0.18
147
0.09
73
0
74
0
77
1
271
2
275
0
278
52
280
0
340
11
0
ENDTAB
0
TABLE
2
VIEW
5
456
100
AcDbSymbolTable
0
ENDTAB
0
TABLE
2
UCS
5
457
100
AcDbSymbolTable
0
ENDTAB
0
TABLE
2
APPID
5
458
100
AcDbSymbolTable
0
APPID
5
12
100
AcDbSymbolTableRecord
100
AcDbRegAppTableRecord
2
ACAD
70
0
0
APPID
5
362
100
AcDbSymbolTableRecord
100
AcDbRegAppTableRecord
2
ACAD_DSTYLE_DIMBREAK
70
0
0
APPID
5
3FC
100
AcDbSymbolTableRecord
100
AcDbRegAppTableRecord
2
ACAD_DSTYLE_DIM_LINETYPE
70
0
0
APPID
5
3FD
100
AcDbSymbolTableRecord
100
AcDbRegAppTableRecord
2
ACAD_DSTYLE_DIM_EXT1_LINETYPE
70
0
0
APPID
5
3FE
100
AcDbSymbolTableRecord
100
AcDbRegAppTableRecord
2
ACAD_DSTYLE_DIM_EXT2_LINETYPE
70
0
0
APPID
5
439
100
AcDbSymbolTableRecord
100
AcDbRegAppTableRecord
2
ACAD_MLEADERVER
70
0
0
ENDTAB
0
TABLE
2
BLOCK_RECORD
5
459
100
AcDbSymbolTable
0
BLOCK_RECORD
5
1F
100
AcDbSymbolTableRecord
100
AcDbBlockTableRecord
2
*Model_Space
340
0
70
0
0
BLOCK_RECORD
5
1B
100
AcDbSymbolTableRecord
100
AcDbBlockTableRecord
2
*Paper_Space
340
0
70
0
0
BLOCK_RECORD
5
23
100
AcDbSymbolTableRecord
100
AcDbBlockTableRecord
2
*Paper_Space0
340
0
70
0
0
BLOCK_RECORD
5
367
100
AcDbSymbolTableRecord
100
AcDbBlockTableRecord
2
*D1
340
0
70
0
0
BLOCK_RECORD
5
373
100
AcDbSymbolTableRecord
100
AcDbBlockTableRecord
2
_U0
340
0
70
0
0
BLOCK_RECORD
5
37F
100
AcDbSymbolTableRecord
100
AcDbBlockTableRecord
2
*D3
340
0
70
0
0
BLOCK_RECORD
5
38B
100
AcDbSymbolTableRecord
100
AcDbBlockTableRecord
2
_U1
340
0
70
0
0
BLOCK_RECORD
5
397
100
AcDbSymbolTableRecord
100
AcDbBlockTableRecord
2
*D5
340
0
70
0
0
BLOCK_RECORD
5
3A3
100
AcDbSymbolTableRecord
100
AcDbBlockTableRecord
2
_U2
340
0
70
0
0
BLOCK_RECORD
5
3AF
100
AcDbSymbolTableRecord
100
AcDbBlockTableRecord
2
*D7
340
0
70
0
0
BLOCK_RECORD
5
3BB
100
AcDbSymbolTableRecord
100
AcDbBlockTableRecord
2
_U3
340
0
70
0
0
BLOCK_RECORD
5
3C7
100
AcDbSymbolTableRecord
100
AcDbBlockTableRecord
2
*D9
340
0
70
0
0
BLOCK_RECORD
5
3D5
100
AcDbSymbolTableRecord
100
AcDbBlockTableRecord
2
_U4
340
0
70
0
0
ENDTAB
0
ENDSEC
0
SECTION
2
BLOCKS
0
BLOCK
5
20
100
AcDbEntity
8
0
100
AcDbBlockBegin
2
*Model_Space
70
0
10
0
20
0
30
0
3
*Model_Space
0
ENDBLK
5
21
100
AcDbEntity
8
0
100
AcDbBlockEnd
0
BLOCK
5
1C
100
AcDbEntity
8
0
100
AcDbBlockBegin
2
*Paper_Space
70
0
10
0
20
0
30
0
3
*Paper_Space
0
ENDBLK
5
1D
100
AcDbEntity
8
0
100
AcDbBlockEnd
0
BLOCK
5
24
100
AcDbEntity
8
0
100
AcDbBlockBegin
2
*Paper_Space0
70
0
10
0
20
0
30
0
3
*Paper_Space0
0
ENDBLK
5
25
100
AcDbEntity
8
0
100
AcDbBlockEnd
0
BLOCK
5
368
100
AcDbEntity
8
0
100
AcDbBlockBegin
2
*D1
70
1
10
0
20
0
30
0
3
*D1
0
LINE
5
36A
100
AcDbEntity
8
0
62
256
6
ByLayer
370
-2
48
1
60
0
100
AcDbLine
10
0
20
-32.8375
30
0
11
0
21
-83.275
31
0
39
0
210
0
220
0
230
1
0
LINE
5
36B
100
AcDbEntity
8
0
62
256
6
ByLayer
370
-2
48
1
60
0
100
AcDbLine
10
280.7208
20
-31.75
30
0
11
280.7208
21
-83.275
31
0
39
0
210
0
220
0
230
1
0
LINE
5
36C
100
AcDbEntity
8
0
62
256
6
ByLayer
370
-2
48
1
60
0
100
AcDbLine
10
4.175
20
-80.1
30
0
11
276.5458
21
-80.1
31
0
39
0
210
0
220
0
230
1
0
SOLID
5
36D
100
AcDbEntity
8
0
62
256
6
ByLayer
370
-1
48
1
60
0
100
AcDbTrace
10
4.175
20
-79.404167
30
0
11
4.175
21
-80.795833
31
0
12
0
22
-80.1
32
0
13
0
23
-80.1
33
0
39
0
210
0
220
0
230
1
0
SOLID
5
36E
100
AcDbEntity
8
0
62
256
6
ByLayer
370
-1
48
1
60
0
100
AcDbTrace
10
276.5458
20
-80.795833
30
0
11
276.5458
21
-79.404167
31
0
12
280.7208
22
-80.1
32
0
13
280.7208
23
-80.1
33
0
39
0
210
0
220
0
230
1
0
MTEXT
5
36F
100
AcDbEntity
8
0
62
256
6
ByLayer
370
18
48
1
60
0
100
AcDbMText
10
140.3604
20
-70.70625
30
0
210
0
220
0
230
1
1
\A1;280.7
40
4.5
41
0
44
1
50
0
71
5
72
5
7
iso_b_vert
0
POINT
5
370
100
AcDbEntity
8
Defpoints
62
0
6
ByLayer
370
-1
48
1
60
0
100
AcDbPoint
10
0
20
-31.25
30
0
39
0
210
0
220
0
230
1
50
360
0
POINT
5
371
100
AcDbEntity
8
Defpoints
62
0
6
ByLayer
370
-1
48
1
60
0
100
AcDbPoint
10
280.7208
20
-30.1625
30
0
39
0
210
0
220
0
230
1
50
360
0
POINT
5
372
100
AcDbEntity
8
Defpoints
62
0
6
ByLayer
370
-1
48
1
60
0
100
AcDbPoint
10
280.7208
20
-80.1
30
0
39
0
210
0
220
0
230
1
50
360
0
ENDBLK
5
369
100
AcDbEntity
8
0
100
AcDbBlockEnd
0
BLOCK
5
37A
100
AcDbEntity
8
0
100
AcDbBlockBegin
2
_U0
70
0
10
0
20
0
30
0
3
_U0
0
MTEXT
5
374
100
AcDbEntity
8
2
62
256
6
ByLayer
370
18
48
1
60
0
100
AcDbMText
10
133.636844
20
-78.772328
30
0
210
0
220
0
230
1
1
\W0.7468;280.7
40
4.5
41
0
44
1.084337
50
0
71
7
72
5
7
iso_b_vert
0
LINE
5
375
100
AcDbEntity
8
2
62
256
6
ByLayer
370
13
48
1
60
0
100
AcDbLine
10
0
20
-32.8375
30
0
11
0
21
-83.275
31
0
39
0
210
0
220
0
230
1
0
LINE
5
376
100
AcDbEntity
8
2
62
256
6
ByLayer
370
13
48
1
60
0
100
AcDbLine
10
280.7208
20
-31.75
30
0
11
280.7208
21
-83.275
31
0
39
0
210
0
220
0
230
1
0
LINE
5
377
100
AcDbEntity
8
2
62
256
6
ByLayer
370
13
48
1
60
0
100
AcDbLine
10
0
20
-80.1
30
0
11
280.7208
21
-80.1
31
0
39
0
210
0
220
0
230
1
0
SOLID
5
378
100
AcDbEntity
8
2
62
256
6
ByLayer
370
18
48
1
60
0
100
AcDbTrace
10
0
20
-80.1
30
0
11
4.174997
21
-79.174425
31
0
12
4.175003
22
-81.025575
32
0
13
4.175003
23
-81.025575
33
0
39
0
210
0
220
0
230
1
0
SOLID
5
379
100
AcDbEntity
8
2
62
256
6
ByLayer
370
18
48
1
60
0
100
AcDbTrace
10
280.7208
20
-80.1
30
0
11
276.545803
21
-81.025575
31
0
12
276.545797
22
-79.174425
32
0
13
276.545797
23
-79.174425
33
0
39
0
210
0
220
0
230
1
0
ENDBLK
5
37B
100
AcDbEntity
8
0
100
AcDbBlockEnd
0
BLOCK
5
380
100
AcDbEntity
8
0
100
AcDbBlockBegin
2
*D3
70
1
10
0
20
0
30
0
3
*D3
0
LINE
5
382
100
AcDbEntity
8
0
62
256
6
ByLayer
370
-2
48
1
60
0
100
AcDbLine
10
-70
20
-20.6375
30
0
11
-70
21
-83.275
31
0
39
0
210
0
220
0
230
1
0
LINE
5
383
100
AcDbEntity
8
0
62
256
6
ByLayer
370
-2
48
1
60
0
100
AcDbLine
10
0
20
-32.8375
30
0
11
0
21
-83.275
31
0
39
0
210
0
220
0
230
1
0
LINE
5
384
100
AcDbEntity
8
0
62
256
6
ByLayer
370
-2
48
1
60
0
100
AcDbLine
10
-65.825
20
-80.1
30
0
11
-4.175
21
-80.1
31
0
39
0
210
0
220
0
230
1
0
SOLID
5
385
100
AcDbEntity
8
0
62
256
6
ByLayer
370
-1
48
1
60
0
100
AcDbTrace
10
-65.825
20
-79.404167
30
0
11
-65.825
21
-80.795833
31
0
12
-70
22
-80.1
32
0
13
-70
23
-80.1
33
0
39
0
210
0
220
0
230
1
0
SOLID
5
386
100
AcDbEntity
8
0
62
256
6
ByLayer
370
-1
48
1
60
0
100
AcDbTrace
10
-4.175
20
-80.795833
30
0
11
-4.175
21
-79.404167
31
0
12
0
22
-80.1
32
0
13
0
23
-80.1
33
0
39
0
210
0
220
0
230
1
0
MTEXT
5
387
100
AcDbEntity
8
0
62
256
6
ByLayer
370
18
48
1
60
0
100
AcDbMText
10
-35
20
-70.70625
30
0
210
0
220
0
230
1
1
\A1;70
40
4.5
41
0
44
1
50
0
71
5
72
5
7
iso_b_vert
0
POINT
5
388
100
AcDbEntity
8
Defpoints
62
0
6
ByLayer
370
-1
48
1
60
0
100
AcDbPoint
10
-70
20
-19.05
30
0
39
0
210
0
220
0
230
1
50
360
0
POINT
5
389
100
AcDbEntity
8
Defpoints
62
0
6
ByLayer
370
-1
48
1
60
0
100
AcDbPoint
10
0
20
-31.25
30
0
39
0
210
0
220
0
230
1
50
360
0
POINT
5
38A
100
AcDbEntity
8
Defpoints
62
0
6
ByLayer
370
-1
48
1
60
0
100
AcDbPoint
10
0
20
-80.1
30
0
39
0
210
0
220
0
230
1
50
360
0
ENDBLK
5
381
100
AcDbEntity
8
0
100
AcDbBlockEnd
0
BLOCK
5
392
100
AcDbEntity
8
0
100
AcDbBlockBegin
2
_U1
70
0
10
0
20
0
30
0
3
_U1
0
MTEXT
5
38C
100
AcDbEntity
8
SK2
62
256
6
ByLayer
370
18
48
1
60
0
100
AcDbMText
10
-37.449242
20
-78.772328
30
0
210
0
220
0
230
1
1
\W0.6740;70
40
4.5
41
0
44
1.084337
50
0
71
7
72
5
7
iso_b_vert
0
LINE
5
38D
100
AcDbEntity
8
SK2
62
256
6
ByLayer
370
13
48
1
60
0
100
AcDbLine
10
-70
20
-20.6375
30
0
11
-70
21
-83.275
31
0
39
0
210
0
220
0
230
1
0
LINE
5
38E
100
AcDbEntity
8
SK2
62
256
6
ByLayer
370
13
48
1
60
0
100
AcDbLine
10
0
20
-32.8375
30
0
11
0
21
-83.275
31
0
39
0
210
0
220
0
230
1
0
LINE
5
38F
100
AcDbEntity
8
SK2
62
256
6
ByLayer
370
13
48
1
60
0
100
AcDbLine
10
-70
20
-80.1
30
0
11
0
21
-80.1
31
0
39
0
210
0
220
0
230
1
0
SOLID
5
390
100
AcDbEntity
8
SK2
62
256
6
ByLayer
370
18
48
1
60
0
100
AcDbTrace
10
-70
20
-80.1
30
0
11
-65.825003
21
-79.174425
31
0
12
-65.824997
22
-81.025575
32
0
13
-65.824997
23
-81.025575
33
0
39
0
210
0
220
0
230
1
0
SOLID
5
391
100
AcDbEntity
8
SK2
62
256
6
ByLayer
370
18
48
1
60
0
100
AcDbTrace
10
0
20
-80.1
30
0
11
-4.174997
21
-81.025575
31
0
12
-4.175003
22
-79.174425
32
0
13
-4.175003
23
-79.174425
33
0
39
0
210
0
220
0
230
1
0
ENDBLK
5
393
100
AcDbEntity
8
0
100
AcDbBlockEnd
0
BLOCK
5
398
100
AcDbEntity
8
0
100
AcDbBlockBegin
2
*D5
70
1
10
0
20
0
30
0
3
*D5
0
LINE
5
39A
100
AcDbEntity
8
0
62
256
6
ByLayer
370
-2
48
1
60
0
100
AcDbLine
10
280.7208
20
-31.75
30
0
11
280.7208
21
-73.275
31
0
39
0
210
0
220
0
230
1
0
LINE
5
39B
100
AcDbEntity
8
0
62
256
6
ByLayer
370
-2
48
1
60
0
100
AcDbLine
10
5.5033
20
-32.8375
30
0
11
5.5033
21
-73.275
31
0
39
0
210
0
220
0
230
1
0
LINE
5
39C
100
AcDbEntity
8
0
62
256
6
ByLayer
370
-2
48
1
60
0
100
AcDbLine
10
276.5458
20
-70.1
30
0
11
9.6783
21
-70.1
31
0
39
0
210
0
220
0
230
1
0
SOLID
5
39D
100
AcDbEntity
8
0
62
256
6
ByLayer
370
-1
48
1
60
0
100
AcDbTrace
10
276.5458
20
-70.795833
30
0
11
276.5458
21
-69.404167
31
0
12
280.7208
22
-70.1
32
0
13
280.7208
23
-70.1
33
0
39
0
210
0
220
0
230
1
0
SOLID
5
39E
100
AcDbEntity
8
0
62
256
6
ByLayer
370
-1
48
1
60
0
100
AcDbTrace
10
9.6783
20
-69.404167
30
0
11
9.6783
21
-70.795833
31
0
12
5.5033
22
-70.1
32
0
13
5.5033
23
-70.1
33
0
39
0
210
0
220
0
230
1
0
MTEXT
5
39F
100
AcDbEntity
8
0
62
256
6
ByLayer
370
18
48
1
60
0
100
AcDbMText
10
143.11205
20
-60.70625
30
0
210
0
220
0
230
1
1
\A1;275.2
40
4.5
41
0
44
1
50
0
71
5
72
5
7
iso_b_vert
0
POINT
5
3A0
100
AcDbEntity
8
Defpoints
62
0
6
ByLayer
370
-1
48
1
60
0
100
AcDbPoint
10
280.7208
20
-30.1625
30
0
39
0
210
0
220
0
230
1
50
360
0
POINT
5
3A1
100
AcDbEntity
8
Defpoints
62
0
6
ByLayer
370
-1
48
1
60
0
100
AcDbPoint
10
5.5033
20
-31.25
30
0
39
0
210
0
220
0
230
1
50
360
0
POINT
5
3A2
100
AcDbEntity
8
Defpoints
62
0
6
ByLayer
370
-1
48
1
60
0
100
AcDbPoint
10
5.5033
20
-70.1
30
0
39
0
210
0
220
0
230
1
50
360
0
ENDBLK
5
399
100
AcDbEntity
8
0
100
AcDbBlockEnd
0
BLOCK
5
3AA
100
AcDbEntity
8
0
100
AcDbBlockBegin
2
_U2
70
0
10
0
20
0
30
0
3
_U2
0
MTEXT
5
3A4
100
AcDbEntity
8
SK2
62
256
6
ByLayer
370
18
48
1
60
0
100
AcDbMText
10
136.388494
20
-68.772328
30
0
210
0
220
0
230
1
1
\W0.7468;275.2
40
4.5
41
0
44
1.084337
50
0
71
7
72
5
7
iso_b_vert
0
LINE
5
3A5
100
AcDbEntity
8
SK2
62
256
6
ByLayer
370
13
48
1
60
0
100
AcDbLine
10
280.7208
20
-31.75
30
0
11
280.7208
21
-73.275
31
0
39
0
210
0
220
0
230
1
0
LINE
5
3A6
100
AcDbEntity
8
SK2
62
256
6
ByLayer
370
13
48
1
60
0
100
AcDbLine
10
5.5033
20
-32.8375
30
0
11
5.5033
21
-73.275
31
0
39
0
210
0
220
0
230
1
0
LINE
5
3A7
100
AcDbEntity
8
SK2
62
256
6
ByLayer
370
13
48
1
60
0
100
AcDbLine
10
280.7208
20
-70.1
30
0
11
5.5033
21
-70.1
31
0
39
0
210
0
220
0
230
1
0
SOLID
5
3A8
100
AcDbEntity
8
SK2
62
256
6
ByLayer
370
18
48
1
60
0
100
AcDbTrace
10
280.7208
20
-70.1
30
0
11
276.545803
21
-71.025575
31
0
12
276.545797
22
-69.174425
32
0
13
276.545797
23
-69.174425
33
0
39
0
210
0
220
0
230
1
0
SOLID
5
3A9
100
AcDbEntity
8
SK2
62
256
6
ByLayer
370
18
48
1
60
0
100
AcDbTrace
10
5.5033
20
-70.1
30
0
11
9.678297
21
-69.174425
31
0
12
9.678303
22
-71.025575
32
0
13
9.678303
23
-71.025575
33
0
39
0
210
0
220
0
230
1
0
ENDBLK
5
3AB
100
AcDbEntity
8
0
100
AcDbBlockEnd
0
BLOCK
5
3B0
100
AcDbEntity
8
0
100
AcDbBlockBegin
2
*D7
70
1
10
0
20
0
30
0
3
*D7
0
LINE
5
3B2
100
AcDbEntity
8
0
62
256
6
ByLayer
370
-2
48
1
60
0
100
AcDbLine
10
34.8996
20
-31.75
30
0
11
34.8996
21
-63.275
31
0
39
0
210
0
220
0
230
1
0
LINE
5
3B3
100
AcDbEntity
8
0
62
256
6
ByLayer
370
-2
48
1
60
0
100
AcDbLine
10
280.7208
20
-31.75
30
0
11
280.7208
21
-63.275
31
0
39
0
210
0
220
0
230
1
0
LINE
5
3B4
100
AcDbEntity
8
0
62
256
6
ByLayer
370
-2
48
1
60
0
100
AcDbLine
10
39.0746
20
-60.1
30
0
11
276.5458
21
-60.1
31
0
39
0
210
0
220
0
230
1
0
SOLID
5
3B5
100
AcDbEntity
8
0
62
256
6
ByLayer
370
-1
48
1
60
0
100
AcDbTrace
10
39.0746
20
-59.404167
30
0
11
39.0746
21
-60.795833
31
0
12
34.8996
22
-60.1
32
0
13
34.8996
23
-60.1
33
0
39
0
210
0
220
0
230
1
0
SOLID
5
3B6
100
AcDbEntity
8
0
62
256
6
ByLayer
370
-1
48
1
60
0
100
AcDbTrace
10
276.5458
20
-60.795833
30
0
11
276.5458
21
-59.404167
31
0
12
280.7208
22
-60.1
32
0
13
280.7208
23
-60.1
33
0
39
0
210
0
220
0
230
1
0
MTEXT
5
3B7
100
AcDbEntity
8
0
62
256
6
ByLayer
370
18
48
1
60
0
100
AcDbMText
10
157.8102
20
-50.70625
30
0
210
0
220
0
230
1
1
\A1;245.8
40
4.5
41
0
44
1
50
0
71
5
72
5
7
iso_b_vert
0
POINT
5
3B8
100
AcDbEntity
8
Defpoints
62
0
6
ByLayer
370
-1
48
1
60
0
100
AcDbPoint
10
34.8996
20
-30.1625
30
0
39
0
210
0
220
0
230
1
50
360
0
POINT
5
3B9
100
AcDbEntity
8
Defpoints
62
0
6
ByLayer
370
-1
48
1
60
0
100
AcDbPoint
10
280.7208
20
-30.1625
30
0
39
0
210
0
220
0
230
1
50
360
0
POINT
5
3BA
100
AcDbEntity
8
Defpoints
62
0
6
ByLayer
370
-1
48
1
60
0
100
AcDbPoint
10
280.7208
20
-60.1
30
0
39
0
210
0
220
0
230
1
50
360
0
ENDBLK
5
3B1
100
AcDbEntity
8
0
100
AcDbBlockEnd
0
BLOCK
5
3C2
100
AcDbEntity
8
0
100
AcDbBlockBegin
2
_U3
70
0
10
0
20
0
30
0
3
_U3
0
MTEXT
5
3BC
100
AcDbEntity
8
SK2
62
256
6
ByLayer
370
18
48
1
60
0
100
AcDbMText
10
150.84973
20
-58.772328
30
0
210
0
220
0
230
1
1
\W0.7694;245.8
40
4.5
41
0
44
1.084337
50
0
71
7
72
5
7
iso_b_vert
0
LINE
5
3BD
100
AcDbEntity
8
SK2
62
256
6
ByLayer
370
13
48
1
60
0
100
AcDbLine
10
34.8996
20
-31.75
30
0
11
34.8996
21
-63.275
31
0
39
0
210
0
220
0
230
1
0
LINE
5
3BE
100
AcDbEntity
8
SK2
62
256
6
ByLayer
370
13
48
1
60
0
100
AcDbLine
10
280.7208
20
-31.75
30
0
11
280.7208
21
-63.275
31
0
39
0
210
0
220
0
230
1
0
LINE
5
3BF
100
AcDbEntity
8
SK2
62
256
6
ByLayer
370
13
48
1
60
0
100
AcDbLine
10
34.8996
20
-60.1
30
0
11
280.7208
21
-60.1
31
0
39
0
210
0
220
0
230
1
0
SOLID
5
3C0
100
AcDbEntity
8
SK2
62
256
6
ByLayer
370
18
48
1
60
0
100
AcDbTrace
10
34.8996
20
-60.1
30
0
11
39.074597
21
-59.174425
31
0
12
39.074603
22
-61.025575
32
0
13
39.074603
23
-61.025575
33
0
39
0
210
0
220
0
230
1
0
SOLID
5
3C1
100
AcDbEntity
8
SK2
62
256
6
ByLayer
370
18
48
1
60
0
100
AcDbTrace
10
280.7208
20
-60.1
30
0
11
276.545803
21
-61.025575
31
0
12
276.545797
22
-59.174425
32
0
13
276.545797
23
-59.174425
33
0
39
0
210
0
220
0
230
1
0
ENDBLK
5
3C3
100
AcDbEntity
8
0
100
AcDbBlockEnd
0
BLOCK
5
3C8
100
AcDbEntity
8
0
100
AcDbBlockBegin
2
*D9
70
1
10
0
20
0
30
0
3
*D9
0
LINE
5
3CA
100
AcDbEntity
8
0
62
256
6
ByLayer
370
-2
48
1
60
0
100
AcDbLine
10
279.1317
20
-16.66875
30
0
11
279.1317
21
-53.275
31
0
39
0
210
0
220
0
230
1
0
LINE
5
3CB
100
AcDbEntity
8
0
62
256
6
ByLayer
370
-2
48
1
60
0
100
AcDbLine
10
280.7208
20
-1.5875
30
0
11
280.7208
21
-53.275
31
0
39
0
210
0
220
0
230
1
0
LINE
5
3CC
100
AcDbEntity
8
0
62
256
6
ByLayer
370
-2
48
1
60
0
100
AcDbLine
10
280.7208
20
-50.1
30
0
11
316.215443
21
-50.1
31
0
39
0
210
0
220
0
230
1
0
LINE
5
3CD
100
AcDbEntity
8
0
62
256
6
ByLayer
370
-2
48
1
60
0
100
AcDbLine
10
274.9567
20
-50.1
30
0
11
270.7817
21
-50.1
31
0
39
0
210
0
220
0
230
1
0
LINE
5
3CE
100
AcDbEntity
8
0
62
256
6
ByLayer
370
-2
48
1
60
0
100
AcDbLine
10
284.8958
20
-50.1
30
0
11
289.0708
21
-50.1
31
0
39
0
210
0
220
0
230
1
0
SOLID
5
3CF
100
AcDbEntity
8
0
62
256
6
ByLayer
370
-1
48
1
60
0
100
AcDbTrace
10
274.9567
20
-50.795833
30
0
11
274.9567
21
-49.404167
31
0
12
279.1317
22
-50.1
32
0
13
279.1317
23
-50.1
33
0
39
0
210
0
220
0
230
1
0
SOLID
5
3D0
100
AcDbEntity
8
0
62
256
6
ByLayer
370
-1
48
1
60
0
100
AcDbTrace
10
284.8958
20
-49.404167
30
0
11
284.8958
21
-50.795833
31
0
12
280.7208
22
-50.1
32
0
13
280.7208
23
-50.1
33
0
39
0
210
0
220
0
230
1
0
MTEXT
5
3D1
100
AcDbEntity
8
0
62
256
6
ByLayer
370
18
48
1
60
0
100
AcDbMText
10
302.643121
20
-40.70625
30
0
210
0
220
0
230
1
1
\A1;1.59
40
4.5
41
0
44
1
50
0
71
5
72
5
7
iso_b_vert
0
POINT
5
3D2
100
AcDbEntity
8
Defpoints
62
0
6
ByLayer
370
-1
48
1
60
0
100
AcDbPoint
10
279.1317
20
-15.08125
30
0
39
0
210
0
220
0
230
1
50
360
0
POINT
5
3D3
100
AcDbEntity
8
Defpoints
62
0
6
ByLayer
370
-1
48
1
60
0
100
AcDbPoint
10
280.7208
20
0
30
0
39
0
210
0
220
0
230
1
50
360
0
POINT
5
3D4
100
AcDbEntity
8
Defpoints
62
0
6
ByLayer
370
-1
48
1
60
0
100
AcDbPoint
10
280.7208
20
-50.1
30
0
39
0
210
0
220
0
230
1
50
360
0
ENDBLK
5
3C9
100
AcDbEntity
8
0
100
AcDbBlockEnd
0
BLOCK
5
3DC
100
AcDbEntity
8
0
100
AcDbBlockBegin
2
_U4
70
0
10
0
20
0
30
0
3
_U4
0
MTEXT
5
3D6
100
AcDbEntity
8
2
62
256
6
ByLayer
370
18
48
1
60
0
100
AcDbMText
10
293.0718
20
-48.772328
30
0
210
0
220
0
230
1
1
\W0.6662;1.59
40
4.5
41
0
44
1.084337
50
0
71
7
72
5
7
iso_b_vert
0
LINE
5
3D7
100
AcDbEntity
8
2
62
256
6
ByLayer
370
13
48
1
60
0
100
AcDbLine
10
279.1317
20
-16.66875
30
0
11
279.1317
21
-53.275
31
0
39
0
210
0
220
0
230
1
0
LINE
5
3D8
100
AcDbEntity
8
2
62
256
6
ByLayer
370
13
48
1
60
0
100
AcDbLine
10
280.7208
20
-1.5875
30
0
11
280.7208
21
-53.275
31
0
39
0
210
0
220
0
230
1
0
LINE
5
3D9
100
AcDbEntity
8
2
62
256
6
ByLayer
370
13
48
1
60
0
100
AcDbLine
10
302.269841
20
-50.1
30
0
11
267.8817
21
-50.1
31
0
39
0
210
0
220
0
230
1
0
SOLID
5
3DA
100
AcDbEntity
8
2
62
256
6
ByLayer
370
18
48
1
60
0
100
AcDbTrace
10
279.1317
20
-50.1
30
0
11
274.956703
21
-51.025575
31
0
12
274.956697
22
-49.174425
32
0
13
274.956697
23
-49.174425
33
0
39
0
210
0
220
0
230
1
0
SOLID
5
3DB
100
AcDbEntity
8
2
62
256
6
ByLayer
370
18
48
1
60
0
100
AcDbTrace
10
280.7208
20
-50.1
30
0
11
284.895797
21
-49.174425
31
0
12
284.895803
22
-51.025575
32
0
13
284.895803
23
-51.025575
33
0
39
0
210
0
220
0
230
1
0
ENDBLK
5
3DD
100
AcDbEntity
8
0
100
AcDbBlockEnd
0
ENDSEC
0
SECTION
2
ENTITIES
0
ARC
5
192
100
AcDbEntity
8
SK1
62
256
6
ByLayer
370
13
48
1
60
0
100
AcDbCircle
39
0
10
-67.894505
20
-19.446
30
0
40
0.799999999999993
210
0
220
0
230
1
100
AcDbArc
50
70.982
51
141
0
ARC
5
193
100
AcDbEntity
8
SK1
62
256
6
ByLayer
370
13
48
1
60
0
100
AcDbCircle
39
0
10
-67.894505
20
19.446
30
0
40
0.799999999999993
210
0
220
0
230
1
100
AcDbArc
50
219
51
289.018
0
ARC
5
194
100
AcDbEntity
8
SK1
62
256
6
ByLayer
370
13
48
1
60
0
100
AcDbCircle
39
0
10
-0.15
20
19.196
30
0
40
0.399999999999999
210
0
220
0
230
1
100
AcDbArc
50
270
51
292.024313
0
ARC
5
195
100
AcDbEntity
8
SK1
62
256
6
ByLayer
370
13
48
1
60
0
100
AcDbCircle
39
0
10
-0.15
20
-19.196
30
0
40
0.399999999999999
210
0
220
0
230
1
100
AcDbArc
50
67.975687
51
90
0
ARC
5
196
100
AcDbEntity
8
SK1
62
256
6
ByLayer
370
13
48
1
60
0
100
AcDbCircle
39
0
10
-1.375195
20
19.196
30
0
40
0.400000000000004
210
0
220
0
230
1
100
AcDbArc
50
245
51
270
0
ARC
5
197
100
AcDbEntity
8
SK1
62
256
6
ByLayer
370
13
48
1
60
0
100
AcDbCircle
39
0
10
-1.375195
20
-19.196
30
0
40
0.400000000000004
210
0
220
0
230
1
100
AcDbArc
50
90
51
115
0
ARC
5
198
100
AcDbEntity
8
1
62
256
6
ByLayer
370
13
48
1
60
0
100
AcDbCircle
39
0
10
276.796068
20
28.35481
30
0
40
0.2
210
0
220
0
230
1
100
AcDbArc
50
8.973565
51
93
0
ARC
5
199
100
AcDbEntity
8
1
62
256
6
ByLayer
370
13
48
1
60
0
100
AcDbCircle
39
0
10
276.987138
20
12.099061
30
0
40
0.2
210
0
220
0
230
1
100
AcDbArc
50
273
51
352.54557
0
ARC
5
19A
100
AcDbEntity
8
1
62
256
6
ByLayer
370
13
48
1
60
0
100
AcDbCircle
39
0
10
262.5898
20
27.344572
30
0
40
0.2
210
0
220
0
230
1
100
AcDbArc
50
79.98854
51
93
0
ARC
5
19B
100
AcDbEntity
8
1
62
256
6
ByLayer
370
13
48
1
60
0
100
AcDbCircle
39
0
10
262.780869
20
11.088823
30
0
40
0.2
210
0
220
0
230
1
100
AcDbArc
50
273
51
303.773583
0
ELLIPSE
5
19C
100
AcDbEntity
8
1
62
256
6
ByLayer
370
18
48
1
60
0
100
AcDbEllipse
10
269.753617
20
19.71999
30
0
11
-0.149157475292373
21
2.84609417405054
31
0
210
0
220
0
230
1
40
0.995562
41
0
42
6.28318530717959
0
ELLIPSE
5
19D
100
AcDbEntity
8
1
62
256
6
ByLayer
370
18
48
1
60
0
100
AcDbEllipse
10
269.76106
20
19.72038
30
0
11
0.087735997045646
21
-1.67410255206257
31
0
210
0
220
0
230
1
40
0.995562
41
1.5707963267949
42
2.61799387799153
0
ELLIPSE
5
19E
100
AcDbEntity
8
1
62
256
6
ByLayer
370
18
48
1
60
0
100
AcDbEllipse
10
269.613043
20
19.712623
30
0
11
-0.0675290843402629
21
1.28853168869383
31
0
210
0
220
0
230
1
40
0.995562
41
-3.03775684415657
42
-2.0943951023932
0
ELLIPSE
5
19F
100
AcDbEntity
8
1
62
256
6
ByLayer
370
18
48
1
60
0
100
AcDbEllipse
10
269.76106
20
19.72038
30
0
11
0.087735997045646
21
-1.67410255206257
31
0
210
0
220
0
230
1
40
0.995562
41
-2.61799387799143
42
-1.5707963267949
0
ELLIPSE
5
1A0
100
AcDbEntity
8
1
62
256
6
ByLayer
370
18
48
1
60
0
100
AcDbEllipse
10
269.690673
20
18.231356
30
0
11
-0.391813266882842
21
-0.0205340632101465
31
0
210
0
220
0
230
1
40
0.491907
41
-1.5707963267949
42
-0.288932900934541
0
ELLIPSE
5
1A1
100
AcDbEntity
8
1
62
256
6
ByLayer
370
18
48
1
60
0
100
AcDbEllipse
10
268.808413
20
20.956879
30
0
11
-0.328745690776171
21
-0.21496549179143
31
0
210
0
220
0
230
1
40
0.490808
41
2.94320654539741
42
-2.46828145615019
0
ELLIPSE
5
1A2
100
AcDbEntity
8
1
62
256
6
ByLayer
370
18
48
1
60
0
100
AcDbEllipse
10
269.613043
20
19.712623
30
0
11
0.0675290843402512
21
-1.28853168869383
31
0
210
0
220
0
230
1
40
0.995562
41
2.09439510239315
42
3.14159265358975
0
ELLIPSE
5
1A3
100
AcDbEntity
8
1
62
256
6
ByLayer
370
18
48
1
60
0
100
AcDbEllipse
10
269.613043
20
19.712623
30
0
11
0.0675290843402512
21
-1.28853168869383
31
0
210
0
220
0
230
1
40
0.995562
41
1.0471975511966
42
2.0943951023932
0
ELLIPSE
5
1A4
100
AcDbEntity
8
1
62
256
6
ByLayer
370
18
48
1
60
0
100
AcDbEllipse
10
269.76106
20
19.72038
30
0
11
0.087735997045646
21
-1.67410255206257
31
0
210
0
220
0
230
1
40
0.995562
41
-0.52359877559832
42
0.523598775598305
0
ELLIPSE
5
1A5
100
AcDbEntity
8
1
62
256
6
ByLayer
370
18
48
1
60
0
100
AcDbEllipse
10
269.76106
20
19.72038
30
0
11
0.087735997045646
21
-1.67410255206257
31
0
210
0
220
0
230
1
40
0.995562
41
-1.5707963267949
42
-0.52359877559832
0
ELLIPSE
5
1A6
100
AcDbEntity
8
1
62
256
6
ByLayer
370
18
48
1
60
0
100
AcDbEllipse
10
270.417673
20
18.468367
30
0
11
-0.328745690776187
21
-0.214965491791414
31
0
210
0
220
0
230
1
40
0.490808
41
0.67331226488118
42
-2.94818767871628
0
ELLIPSE
5
1A7
100
AcDbEntity
8
1
62
256
6
ByLayer
370
18
48
1
60
0
100
AcDbEllipse
10
269.535413
20
21.19389
30
0
11
-0.391813266883197
21
-0.0205340632120348
31
0
210
0
220
0
230
1
40
0.491907
41
0.288932900934175
42
1.5707963267949
0
ELLIPSE
5
1A8
100
AcDbEntity
8
1
62
256
6
ByLayer
370
18
48
1
60
0
100
AcDbEllipse
10
270.92898
20
19.03892
30
0
11
-0.177620434612454
21
-0.351315571660472
31
0
210
0
220
0
230
1
40
0.48863
41
-1.573268891391
42
-0.291405465520162
0
ELLIPSE
5
1A9
100
AcDbEntity
8
1
62
256
6
ByLayer
370
18
48
1
60
0
100
AcDbEllipse
10
269.613043
20
19.712623
30
0
11
0.0675290843402512
21
-1.28853168869383
31
0
210
0
220
0
230
1
40
0.995562
41
-1.89285840703661
42
-1.23277995487282
0
ELLIPSE
5
1AA
100
AcDbEntity
8
1
62
256
6
ByLayer
370
18
48
1
60
0
100
AcDbEllipse
10
269.76106
20
19.72038
30
0
11
-0.0942047212372888
21
1.79753316255823
31
0
210
0
220
0
230
1
40
0.995562
41
0
42
6.28318530717959
0
ELLIPSE
5
1AB
100
AcDbEntity
8
1
62
256
6
ByLayer
370
18
48
1
60
0
100
AcDbEllipse
10
270.92898
20
19.03892
30
0
11
-0.177620434615963
21
-0.351315571665624
31
0
210
0
220
0
230
1
40
0.48863
41
-2.85513231724201
42
-1.57326889138764
0
ELLIPSE
5
1AC
100
AcDbEntity
8
1
62
256
6
ByLayer
370
18
48
1
60
0
100
AcDbEllipse
10
269.76106
20
19.72038
30
0
11
0.087735997045646
21
-1.67410255206257
31
0
210
0
220
0
230
1
40
0.995562
41
0.523598775598305
42
1.5707963267949
0
ELLIPSE
5
1AD
100
AcDbEntity
8
1
62
256
6
ByLayer
370
18
48
1
60
0
100
AcDbEllipse
10
269.685877
20
19.71644
30
0
11
-0.149157475292373
21
2.84609417405054
31
0
210
0
220
0
230
1
40
0.995562
41
0
42
3.1414943057158
0
ELLIPSE
5
1AE
100
AcDbEntity
8
1
62
256
6
ByLayer
370
18
48
1
60
0
100
AcDbEllipse
10
269.613043
20
19.712623
30
0
11
0.0675290843402512
21
-1.28853168869383
31
0
210
0
220
0
230
1
40
0.995562
41
-3.14159265358975
42
-2.35315137984981
0
ELLIPSE
5
1AF
100
AcDbEntity
8
1
62
256
6
ByLayer
370
18
48
1
60
0
100
AcDbEllipse
10
270.85135
20
20.520188
30
0
11
-0.213369888117677
21
0.330824637118811
31
0
210
0
220
0
230
1
40
0.48863
41
1.57326889135752
42
2.85513231723661
0
ELLIPSE
5
1B0
100
AcDbEntity
8
1
62
256
6
ByLayer
370
18
48
1
60
0
100
AcDbEllipse
10
271.087836
20
19.789913
30
0
11
-0.0206256003553408
21
0.393559899646807
31
0
210
0
220
0
230
1
40
0.48755
41
-2.94566518558253
42
-0.32041837479266
0
ELLIPSE
5
1B1
100
AcDbEntity
8
1
62
256
6
ByLayer
370
18
48
1
60
0
100
AcDbEllipse
10
268.942881
20
18.391076
30
0
11
-0.34941479999742
21
0.179424606472472
31
0
210
0
220
0
230
1
40
0.490808
41
2.51659138569071
42
-2.94320654539751
0
ELLIPSE
5
1B2
100
AcDbEntity
8
1
62
256
6
ByLayer
370
18
48
1
60
0
100
AcDbEllipse
10
270.283205
20
21.03417
30
0
11
-0.349414799997414
21
0.179424606472482
31
0
210
0
220
0
230
1
40
0.490808
41
2.9481876787163
42
-0.625002372328984
0
ELLIPSE
5
1B3
100
AcDbEntity
8
1
62
256
6
ByLayer
370
18
48
1
60
0
100
AcDbEllipse
10
269.613043
20
19.712623
30
0
11
0.0675290843402512
21
-1.28853168869383
31
0
210
0
220
0
230
1
40
0.995562
41
-0.771408608870108
42
0
0
ELLIPSE
5
1B4
100
AcDbEntity
8
1
62
256
6
ByLayer
370
18
48
1
60
0
100
AcDbEllipse
10
269.76106
20
19.72038
30
0
11
0.087735997045646
21
-1.67410255206257
31
0
210
0
220
0
230
1
40
0.995562
41
2.61799387799153
42
-2.61799387799143
0
ELLIPSE
5
1B5
100
AcDbEntity
8
1
62
256
6
ByLayer
370
18
48
1
60
0
100
AcDbEllipse
10
270.85135
20
20.520188
30
0
11
-0.213369888114825
21
0.330824637125363
31
0
210
0
220
0
230
1
40
0.48863
41
0.291405465521765
42
1.57326889139071
0
ELLIPSE
5
1B6
100
AcDbEntity
8
1
62
256
6
ByLayer
370
18
48
1
60
0
100
AcDbEllipse
10
269.7209
20
-8.087003
30
0
11
-1.5
21
1.51595858262354E-15
31
0
210
0
220
0
230
1
40
0.994449
41
-2.76528867800856
42
-0.156883066013359
0
ELLIPSE
5
1B7
100
AcDbEntity
8
1
62
256
6
ByLayer
370
18
48
1
60
0
100
AcDbEllipse
10
269.7209
20
-8.139613
30
0
11
2
21
0
31
0
210
0
220
0
230
1
40
0.994449
41
0.556258152084201
42
2.79238498021292
0
ELLIPSE
5
1B8
100
AcDbEntity
8
1
62
256
6
ByLayer
370
13
48
1
60
0
100
AcDbEllipse
10
278.015212
20
28.144133
30
0
11
-0.0915879234251411
21
1.74760168582051
31
0
210
0
220
0
230
1
40
0.995562
41
-0.0245785262960204
42
-0.00872664626006811
0
ELLIPSE
5
1B9
100
AcDbEntity
8
1
62
256
6
ByLayer
370
13
48
1
60
0
100
AcDbEllipse
10
278.435287
20
29.343558
30
0
11
-0.0287847759336168
21
0.549246244115033
31
0
210
0
220
0
230
1
40
0.995562
41
-1.46607657167512
42
-0.0801412288237532
0
ELLIPSE
5
1BA
100
AcDbEntity
8
1
62
256
6
ByLayer
370
13
48
1
60
0
100
AcDbEllipse
10
269.727555
20
19.718624
30
0
11
0.161488764830023
21
-3.08138919525494
31
0
210
0
220
0
230
1
40
0.995562
41
-0.832617303636131
42
0
0
ELLIPSE
5
1BB
100
AcDbEntity
8
1
62
256
6
ByLayer
370
13
48
1
60
0
100
AcDbEllipse
10
269.727555
20
19.718624
30
0
11
0.161488764830023
21
-3.08138919525494
31
0
210
0
220
0
230
1
40
0.995562
41
0
42
-2.30896949140974
0
ELLIPSE
5
1BC
100
AcDbEntity
8
1
62
256
6
ByLayer
370
13
48
1
60
0
100
AcDbEllipse
10
279.382003
20
12.402265
30
0
11
-0.0248313114069028
21
0.147930409226141
31
0
210
0
220
0
230
1
40
0.093503
41
1.56009588092096
42
3.1308922077277
0
ELLIPSE
5
1BD
100
AcDbEntity
8
1
62
256
6
ByLayer
370
13
48
1
60
0
100
AcDbEllipse
10
277.707491
20
29.844388
30
0
11
0.147123305935861
21
-0.029235814517526
31
0
210
0
220
0
230
1
40
0.023245
41
3.05024863021846
42
-1.66214035016899
0
ELLIPSE
5
1BE
100
AcDbEntity
8
1
62
256
6
ByLayer
370
13
48
1
60
0
100
AcDbEllipse
10
261.797136
20
9.607822
30
0
11
-0.00261679781214698
21
0.0499314767377304
31
0
210
0
220
0
230
1
40
0.995562
41
3.13286600733222
42
-1.82037975281813
0
ELLIPSE
5
1BF
100
AcDbEntity
8
1
62
256
6
ByLayer
370
13
48
1
60
0
100
AcDbEllipse
10
278.853733
20
11.210277
30
0
11
-0.0433887818158271
21
-0.261709360245845
31
0
210
0
220
0
230
1
40
0.938419
41
0.505433140592155
42
1.30197962201106
0
ELLIPSE
5
1C0
100
AcDbEntity
8
1
62
256
6
ByLayer
370
13
48
1
60
0
100
AcDbEllipse
10
260.577352
20
10.012932
30
0
11
-0.148164061728345
21
-0.0233968120084623
31
0
210
0
220
0
230
1
40
0.009837
41
-1.4770618192687
42
-0.26760497811437
0
ELLIPSE
5
1C1
100
AcDbEntity
8
1
62
256
6
ByLayer
370
13
48
1
60
0
100
AcDbEllipse
10
276.588357
20
9.814117
30
0
11
-0.104671912485876
21
1.99725906950915
31
0
210
0
220
0
230
1
40
0.995562
41
-0.28983374967277
42
-2.16967895189923E-12
0
ELLIPSE
5
1C2
100
AcDbEntity
8
1
62
256
6
ByLayer
370
13
48
1
60
0
100
AcDbEllipse
10
277.270391
20
11.997117
30
0
11
0.00523359562429416
21
-0.0998629534754818
31
0
210
0
220
0
230
1
40
0.995562
41
-4.94053481383819E-06
42
0.113446401384597
0
ELLIPSE
5
1C3
100
AcDbEntity
8
1
62
256
6
ByLayer
370
13
48
1
60
0
100
AcDbEllipse
10
279.855545
20
20.349547
30
0
11
-0.028784775933618
21
0.549246244115055
31
0
210
0
220
0
230
1
40
0.995562
41
-1.75405589825451
42
-1.46607657167543
0
ELLIPSE
5
1C4
100
AcDbEntity
8
1
62
256
6
ByLayer
370
13
48
1
60
0
100
AcDbEllipse
10
261.175669
20
18.989963
30
0
11
-0.148164061728345
21
-0.0233968120084623
31
0
210
0
220
0
230
1
40
0.009837
41
-3.04785814605994
42
-1.47706181926859
0
ELLIPSE
5
1C5
100
AcDbEntity
8
1
62
256
6
ByLayer
370
13
48
1
60
0
100
AcDbEllipse
10
277.754124
20
29.884532
30
0
11
-0.00653707867981071
21
0.149857487641873
31
0
210
0
220
0
230
1
40
0.094105
41
0.000824900290362992
42
1.57162122708202
0
ELLIPSE
5
1C6
100
AcDbEntity
8
1
62
256
6
ByLayer
370
13
48
1
60
0
100
AcDbEllipse
10
279.388511
20
12.416628
30
0
11
-0.0433887818675889
21
-0.261709360228369
31
0
210
0
220
0
230
1
40
0.938419
41
0.311574391778936
42
1.60722929343273
0
ELLIPSE
5
1C7
100
AcDbEntity
8
1
62
256
6
ByLayer
370
13
48
1
60
0
100
AcDbEllipse
10
262.239029
20
27.385571
30
0
11
-0.042020430482492
21
-0.159048282702869
31
0
210
0
220
0
230
1
40
0.081731
41
-3.11535881188965
42
-1.54456248512769
0
ELLIPSE
5
1C8
100
AcDbEntity
8
1
62
256
6
ByLayer
370
13
48
1
60
0
100
AcDbEllipse
10
278.052422
20
20.398752
30
0
11
0.197552082304458
21
0.0311957493446263
31
0
210
0
220
0
230
1
40
0.009837
41
-1.47706181926757
42
8.34923018706769E-05
0
ELLIPSE
5
1C9
100
AcDbEntity
8
1
62
256
6
ByLayer
370
13
48
1
60
0
100
AcDbEllipse
10
276.987138
20
12.099061
30
0
11
0.0347690313628471
21
0.196954599992205
31
0
210
0
220
0
230
1
40
0.091713
41
-3.1204029627785
42
-1.54960663601835
0
ELLIPSE
5
1CA
100
AcDbEntity
8
1
62
256
6
ByLayer
370
13
48
1
60
0
100
AcDbEllipse
10
261.122855
20
10.09909
30
0
11
0.0366351693700511
21
-0.699040674328219
31
0
210
0
220
0
230
1
40
0.995562
41
-1.46607657167304
42
-0.0801412288214811
0
ELLIPSE
5
1CB
100
AcDbEntity
8
1
62
256
6
ByLayer
370
13
48
1
60
0
100
AcDbEllipse
10
262.301848
20
27.446269
30
0
11
0.00523359562429416
21
-0.0998629534754818
31
0
210
0
220
0
230
1
40
0.995562
41
1.38753675533899
42
-3.02814625220921
0
ELLIPSE
5
1CC
100
AcDbEntity
8
1
62
256
6
ByLayer
370
13
48
1
60
0
100
AcDbEllipse
10
262.534306
20
10.735326
30
0
11
0.00523359562429386
21
-0.0998629534754761
31
0
210
0
220
0
230
1
40
0.995562
41
0.718961233330288
42
1.67551608191731
0
ELLIPSE
5
1CD
100
AcDbEntity
8
1
62
256
6
ByLayer
370
13
48
1
60
0
100
AcDbEllipse
10
276.071672
20
9.787039
30
0
11
-1.5260779122426
21
-1.67412290958731
31
0
210
0
220
0
230
1
40
0.751206
41
2.58246533524023
42
-2.78125477169986
0
ELLIPSE
5
1CE
100
AcDbEntity
8
1
62
256
6
ByLayer
370
13
48
1
60
0
100
AcDbEllipse
10
278.990188
20
29.430208
30
0
11
0.148164061728343
21
0.0233968120084697
31
0
210
0
220
0
230
1
40
0.009837
41
0.0937345075250187
42
1.66453083432234
0
ELLIPSE
5
1CF
100
AcDbEntity
8
1
62
256
6
ByLayer
370
13
48
1
60
0
100
AcDbEllipse
10
261.614633
20
9.549937
30
0
11
0.0065370786798103
21
-0.149857487641873
31
0
210
0
220
0
230
1
40
0.094105
41
-1.56997142650778
42
0.000824900290362992
0
ELLIPSE
5
1D0
100
AcDbEntity
8
1
62
256
6
ByLayer
370
13
48
1
60
0
100
AcDbEllipse
10
277.042631
20
28.708307
30
0
11
0.00523359562429386
21
-0.0998629534754761
31
0
210
0
220
0
230
1
40
0.995562
41
-2.42263142026312
42
-1.46607657167706
0
ELLIPSE
5
1D1
100
AcDbEntity
8
1
62
256
6
ByLayer
370
13
48
1
60
0
100
AcDbEllipse
10
277.704364
20
29.846207
30
0
11
0.0126644888425772
21
-0.241652842685494
31
0
210
0
220
0
230
1
40
0.995562
41
-2.96705972839308
42
-1.82037975282061
0
ELLIPSE
5
1D2
100
AcDbEntity
8
1
62
256
6
ByLayer
370
13
48
1
60
0
100
AcDbEllipse
10
260.437619
20
28.941295
30
0
11
-0.300422843315537
21
0.18368819460502
31
0
210
0
220
0
230
1
40
0.473311
41
-1.92529218177429
42
-0.778612206221474
0
ELLIPSE
5
1D3
100
AcDbEntity
8
1
62
256
6
ByLayer
370
13
48
1
60
0
100
AcDbEllipse
10
262.988581
20
29.629516
30
0
11
-0.104671912485876
21
1.99725906950915
31
0
210
0
220
0
230
1
40
0.995562
41
2.85175890392129
42
-3.14159265358765
0
ELLIPSE
5
1D4
100
AcDbEntity
8
1
62
256
6
ByLayer
370
13
48
1
60
0
100
AcDbEllipse
10
278.229214
20
21.147859
30
0
11
0.465790010562067
21
-8.88780285931572
31
0
210
0
220
0
230
1
40
0.995562
41
3.061451424764
42
3.11701412729161
0
ELLIPSE
5
1D5
100
AcDbEntity
8
1
62
256
6
ByLayer
370
13
48
1
60
0
100
AcDbEllipse
10
259.155
20
19.16477
30
0
11
-0.148732254109673
21
0.0194606420103665
31
0
210
0
220
0
230
1
40
0.01715
41
0.265941268332416
42
1.4781176373135
0
ELLIPSE
5
1D6
100
AcDbEntity
8
1
62
256
6
ByLayer
370
13
48
1
60
0
100
AcDbEllipse
10
260.185537
20
27.040875
30
0
11
-0.148732254109673
21
0.0194606420103665
31
0
210
0
220
0
230
1
40
0.01715
41
0.265915951162892
42
1.47811763731727
0
ELLIPSE
5
1D7
100
AcDbEntity
8
1
62
256
6
ByLayer
370
13
48
1
60
0
100
AcDbEllipse
10
277.761005
20
29.834826
30
0
11
0.0104671912485859
21
-0.199725906950917
31
0
210
0
220
0
230
1
40
0.995562
41
3.13286600732824
42
-1.82037975282019
0
ELLIPSE
5
1D8
100
AcDbEntity
8
1
62
256
6
ByLayer
370
13
48
1
60
0
100
AcDbEllipse
10
261.524134
20
11.29753
30
0
11
-0.0915879234251411
21
1.74760168582051
31
0
210
0
220
0
230
1
40
0.995562
41
3.11701412729374
42
3.13286600732972
0
ELLIPSE
5
1D9
100
AcDbEntity
8
1
62
256
6
ByLayer
370
13
48
1
60
0
100
AcDbEllipse
10
262.297149
20
27.446023
30
0
11
0.00523359562429416
21
-0.0998629534754818
31
0
210
0
220
0
230
1
40
0.995562
41
1.38753675533668
42
3.14158945216273
0
ELLIPSE
5
1DA
100
AcDbEntity
8
1
62
256
6
ByLayer
370
13
48
1
60
0
100
AcDbEllipse
10
274.876411
20
30.252531
30
0
11
0.104671912485858
21
-1.99725906950915
31
0
210
0
220
0
230
1
40
0.995562
41
0
42
0.289833749668476
0
ELLIPSE
5
1DB
100
AcDbEntity
8
1
62
256
6
ByLayer
370
13
48
1
60
0
100
AcDbEllipse
10
269.373445
20
27.640949
30
0
11
0.0104671912485858
21
-0.199725906950915
31
0
210
0
220
0
230
1
40
0.094108
41
1.5707963267949
42
3.14159265358979
0
ELLIPSE
5
1DC
100
AcDbEntity
8
1
62
256
6
ByLayer
370
13
48
1
60
0
100
AcDbEllipse
10
278.054325
20
20.255273
30
0
11
0.19830967214623
21
-0.0259475226804906
31
0
210
0
220
0
230
1
40
0.01715
41
0.000128612732869053
42
1.47811763731306
0
ELLIPSE
5
1DD
100
AcDbEntity
8
1
62
256
6
ByLayer
370
13
48
1
60
0
100
AcDbEllipse
10
261.587033
20
9.548954
30
0
11
0.00415024464891698
21
-0.149942573905326
31
0
210
0
220
0
230
1
40
0.09408
41
-1.56847321010714
42
-0.0396676110914644
0
ELLIPSE
5
1DE
100
AcDbEntity
8
1
62
256
6
ByLayer
370
13
48
1
60
0
100
AcDbEllipse
10
277.328511
20
12.05757
30
0
11
-0.157457627800304
21
-0.0472734989187698
31
0
210
0
220
0
230
1
40
0.020424
41
-1.4872815013124
42
-0.275077962956651
0
ELLIPSE
5
1DF
100
AcDbEntity
8
1
62
256
6
ByLayer
370
13
48
1
60
0
100
AcDbEllipse
10
277.560781
20
20.32065
30
0
11
0.0366351693700503
21
-0.699040674328205
31
0
210
0
220
0
230
1
40
0.995562
41
1.38753675533556
42
1.67551608191464
0
ELLIPSE
5
1E0
100
AcDbEntity
8
1
62
256
6
ByLayer
370
13
48
1
60
0
100
AcDbEllipse
10
264.056769
20
9.157364
30
0
11
-0.10990550811017
21
2.09712202298461
31
0
210
0
220
0
230
1
40
0.995562
41
0.718961233329295
42
1.32121290077157
0
ELLIPSE
5
1E1
100
AcDbEntity
8
1
62
256
6
ByLayer
370
13
48
1
60
0
100
AcDbEllipse
10
262.5898
20
27.344572
30
0
11
0.0104671912485858
21
-0.199725906950915
31
0
210
0
220
0
230
1
40
0.995562
41
-3.1415754847878
42
-1.75405589825229
0
ELLIPSE
5
1E2
100
AcDbEntity
8
1
62
256
6
ByLayer
370
13
48
1
60
0
100
AcDbEllipse
10
270.203493
20
11.802684
30
0
11
0.0104671912485858
21
-0.199725906950915
31
0
210
0
220
0
230
1
40
0.094108
41
0
42
1.5707963267949
0
ELLIPSE
5
1E3
100
AcDbEntity
8
1
62
256
6
ByLayer
370
13
48
1
60
0
100
AcDbEllipse
10
277.980507
20
29.894187
30
0
11
-0.0041502446489173
21
0.149942573905326
31
0
210
0
220
0
230
1
40
0.09408
41
0.0023231166844657
42
1.57311944348265
0
ELLIPSE
5
1E4
100
AcDbEntity
8
1
62
256
6
ByLayer
370
13
48
1
60
0
100
AcDbEllipse
10
276.987138
20
12.099061
30
0
11
0.0104671912485858
21
-0.199725906950915
31
0
210
0
220
0
230
1
40
0.995562
41
-0.226119054283956
42
1.75822325072981E-05
0
ELLIPSE
5
1E5
100
AcDbEntity
8
1
62
256
6
ByLayer
370
13
48
1
60
0
100
AcDbEllipse
10
261.997361
20
19.121998
30
0
11
0.0444855628064897
21
-0.848835104541391
31
0
210
0
220
0
230
1
40
0.995562
41
-1.75405589825425
42
-1.46607657167519
0
ELLIPSE
5
1E6
100
AcDbEntity
8
1
62
256
6
ByLayer
370
13
48
1
60
0
100
AcDbEllipse
10
261.522613
20
19.18836
30
0
11
-0.198309672146231
21
0.0259475226804886
31
0
210
0
220
0
230
1
40
0.01715
41
-1.66347501627504
42
-0.0926786894815822
0
ELLIPSE
5
1E7
100
AcDbEntity
8
1
62
256
6
ByLayer
370
13
48
1
60
0
100
AcDbEllipse
10
262.159242
20
29.58606
30
0
11
-2.48301722704634
21
1.51818707870296
31
0
210
0
220
0
230
1
40
0.473313
41
1.21629697091235
42
1.24195463716164
0
ELLIPSE
5
1E8
100
AcDbEntity
8
1
62
256
6
ByLayer
370
13
48
1
60
0
100
AcDbEllipse
10
262.780869
20
11.088823
30
0
11
0.0104671912485858
21
-0.199725906950915
31
0
210
0
220
0
230
1
40
0.995562
41
-1.46607657167303
42
-2.46857384070276E-05
0
ELLIPSE
5
1E9
100
AcDbEntity
8
1
62
256
6
ByLayer
370
13
48
1
60
0
100
AcDbEllipse
10
275.705737
20
30.296006
30
0
11
-2.31073356518661
21
-1.76942033372907
31
0
210
0
220
0
230
1
40
0.473315
41
1.89963996959125
42
1.92529753878792
0
ELLIPSE
5
1EA
100
AcDbEntity
8
1
62
256
6
ByLayer
370
13
48
1
60
0
100
AcDbEllipse
10
275.51547
20
30.286022
30
0
11
-0.10990550811017
21
2.09712202298461
31
0
210
0
220
0
230
1
40
0.995562
41
-2.42263142026264
42
-1.82037975282034
0
ELLIPSE
5
1EB
100
AcDbEntity
8
1
62
256
6
ByLayer
370
13
48
1
60
0
100
AcDbEllipse
10
276.796068
20
28.35481
30
0
11
0.0104671912485858
21
-0.199725906950915
31
0
210
0
220
0
230
1
40
0.995562
41
3.14156912556999
42
-2.60644555906914
0
ELLIPSE
5
1EC
100
AcDbEntity
8
1
62
256
6
ByLayer
370
13
48
1
60
0
100
AcDbEllipse
10
279.386702
20
12.402511
30
0
11
0.00785039343643911
21
-0.149794430213182
31
0
210
0
220
0
230
1
40
0.995562
41
0.113446401374284
42
1.38753675533355
0
ELLIPSE
5
1ED
100
AcDbEntity
8
1
62
256
6
ByLayer
370
13
48
1
60
0
100
AcDbEllipse
10
277.579577
20
20.321635
30
0
11
-0.0261679781214691
21
0.49931476737729
31
0
210
0
220
0
230
1
40
0.995562
41
-1.7540558982542
42
-1.46607657167521
0
ELLIPSE
5
1EE
100
AcDbEntity
8
1
62
256
6
ByLayer
370
13
48
1
60
0
100
AcDbEllipse
10
264.061468
20
9.157611
30
0
11
-0.10990550811017
21
2.09712202298461
31
0
210
0
220
0
230
1
40
0.995562
41
0.718961233331434
42
1.32121290077372
0
ELLIPSE
5
1EF
100
AcDbEntity
8
1
62
256
6
ByLayer
370
13
48
1
60
0
100
AcDbEllipse
10
277.485336
20
29.834728
30
0
11
-0.279576450843751
21
-0.214084669596568
31
0
210
0
220
0
230
1
40
0.473311
41
-2.36298044736227
42
-1.21630047180942
0
ELLIPSE
5
1F0
100
AcDbEntity
8
1
62
256
6
ByLayer
370
13
48
1
60
0
100
AcDbEllipse
10
275.496674
20
30.285037
30
0
11
0.11775590154659
21
-2.24691645319779
31
0
210
0
220
0
230
1
40
0.995562
41
0.730529197227874
42
1.3212129007716
0
ELLIPSE
5
1F1
100
AcDbEntity
8
1
62
256
6
ByLayer
370
13
48
1
60
0
100
AcDbEllipse
10
259.702597
20
19.093101
30
0
11
0.0366351693700522
21
-0.699040674328241
31
0
210
0
220
0
230
1
40
0.995562
41
-1.7540558982524
42
-1.4660765716732
0
ELLIPSE
5
1F2
100
AcDbEntity
8
1
62
256
6
ByLayer
370
13
48
1
60
0
100
AcDbEllipse
10
278.464466
20
29.894074
30
0
11
0.00422000339726432
21
0.149940626820509
31
0
210
0
220
0
230
1
40
0.093806
41
0.00756732553151094
42
1.57836365232731
0
ELLIPSE
5
1F3
100
AcDbEntity
8
1
62
256
6
ByLayer
370
13
48
1
60
0
100
AcDbEllipse
10
277.952907
20
29.893203
30
0
11
-0.00653707867981071
21
0.149857487641873
31
0
210
0
220
0
230
1
40
0.094105
41
0.000824900282309094
42
1.57162122708202
0
ELLIPSE
5
1F4
100
AcDbEntity
8
1
62
256
6
ByLayer
370
13
48
1
60
0
100
AcDbEllipse
10
280.410446
20
20.436198
30
0
11
0.148164061728343
21
0.0233968120084697
31
0
210
0
220
0
230
1
40
0.009837
41
0.0937345075274513
42
1.66453083432121
0
ELLIPSE
5
1F5
100
AcDbEntity
8
1
62
256
6
ByLayer
370
13
48
1
60
0
100
AcDbEllipse
10
279.874341
20
20.350532
30
0
11
0.0366351693700522
21
-0.699040674328241
31
0
210
0
220
0
230
1
40
0.995562
41
1.38753675533309
42
1.67551608191234
0
ELLIPSE
5
1F6
100
AcDbEntity
8
1
62
256
6
ByLayer
370
13
48
1
60
0
100
AcDbEllipse
10
278.853733
20
11.210277
30
0
11
-0.0433887962723793
21
-0.261709352896959
31
0
210
0
220
0
230
1
40
0.938419
41
0.311574448963522
42
0.505433199903663
0
ELLIPSE
5
1F7
100
AcDbEntity
8
1
62
256
6
ByLayer
370
13
48
1
60
0
100
AcDbEllipse
10
261.328927
20
18.294788
30
0
11
-0.457939617125708
21
8.73800842910253
31
0
210
0
220
0
230
1
40
0.995562
41
3.06145142476612
42
3.11701412729374
0
ELLIPSE
5
1F8
100
AcDbEntity
8
1
62
256
6
ByLayer
370
13
48
1
60
0
100
AcDbEllipse
10
260.190236
20
27.041122
30
0
11
0.00785039343643911
21
-0.149794430213182
31
0
210
0
220
0
230
1
40
0.995562
41
-3.02814625221131
42
-1.75405589825201
0
ELLIPSE
5
1F9
100
AcDbEntity
8
1
62
256
6
ByLayer
370
13
48
1
60
0
100
AcDbEllipse
10
260.185537
20
27.040875
30
0
11
0.0248313114068838
21
-0.147930409226144
31
0
210
0
220
0
230
1
40
0.093503
41
-3.04696247436638
42
-1.58149677264534
0
ELLIPSE
5
1FA
100
AcDbEntity
8
1
62
256
6
ByLayer
370
13
48
1
60
0
100
AcDbEllipse
10
260.188427
20
27.027005
30
0
11
-0.0433887818285885
21
-0.261709360241076
31
0
210
0
220
0
230
1
40
0.938419
41
-2.8300182619531
42
-1.53436336032301
0
ELLIPSE
5
1FB
100
AcDbEntity
8
1
62
256
6
ByLayer
370
13
48
1
60
0
100
AcDbEllipse
10
279.382003
20
12.402265
30
0
11
0.148732254109673
21
-0.019460642010368
31
0
210
0
220
0
230
1
40
0.01715
41
-1.66347501627931
42
-0.0926786894822609
0
ELLIPSE
5
1FC
100
AcDbEntity
8
1
62
256
6
ByLayer
370
13
48
1
60
0
100
AcDbEllipse
10
278.224515
20
21.147613
30
0
11
0.465790010562067
21
-8.88780285931572
31
0
210
0
220
0
230
1
40
0.995562
41
3.06145142476613
42
3.11701412729375
0
ELLIPSE
5
1FD
100
AcDbEntity
8
1
62
256
6
ByLayer
370
13
48
1
60
0
100
AcDbEllipse
10
269.701992
20
19.717284
30
0
11
0.156043507061151
21
-2.97748748746715
31
0
210
0
220
0
230
1
40
0.995562
41
0
42
6.28318530717959
0
ELLIPSE
5
1FE
100
AcDbEntity
8
1
62
256
6
ByLayer
370
13
48
1
60
0
100
AcDbEllipse
10
278.034007
20
28.145118
30
0
11
0.0994383168615647
21
-1.89739611603369
31
0
210
0
220
0
230
1
40
0.995562
41
3.11701412729157
42
3.13286600732761
0
ELLIPSE
5
1FF
100
AcDbEntity
8
1
62
256
6
ByLayer
370
13
48
1
60
0
100
AcDbEllipse
10
262.529607
20
10.73508
30
0
11
0.00523359562429386
21
-0.0998629534754761
31
0
210
0
220
0
230
1
40
0.995562
41
0.718961233328452
42
1.67551608191331
0
ELLIPSE
5
200
100
AcDbEntity
8
1
62
256
6
ByLayer
370
13
48
1
60
0
100
AcDbEllipse
10
261.872574
20
9.597426
30
0
11
0.0126644888425772
21
-0.241652842685494
31
0
210
0
220
0
230
1
40
0.995562
41
0.174532925200782
42
1.3212129007733
0
ELLIPSE
5
201
100
AcDbEntity
8
1
62
256
6
ByLayer
370
13
48
1
60
0
100
AcDbEllipse
10
279.869642
20
20.350286
30
0
11
0.0366351693700522
21
-0.699040674328241
31
0
210
0
220
0
230
1
40
0.995562
41
1.38753675533524
42
1.67551608191447
0
ELLIPSE
5
202
100
AcDbEntity
8
1
62
256
6
ByLayer
370
13
48
1
60
0
100
AcDbEllipse
10
262.034952
20
19.123968
30
0
11
-0.0261679781214691
21
0.49931476737729
31
0
210
0
220
0
230
1
40
0.995562
41
1.3875367553356
42
1.67551608191459
0
ELLIPSE
5
203
100
AcDbEntity
8
1
62
256
6
ByLayer
370
13
48
1
60
0
100
AcDbEllipse
10
261.103073
20
9.549066
30
0
11
-0.0042200033972645
21
-0.149940626820509
31
0
210
0
220
0
230
1
40
0.093806
41
-1.56322900126248
42
-0.0737502296752991
0
ELLIPSE
5
204
100
AcDbEntity
8
1
62
256
6
ByLayer
370
13
48
1
60
0
100
AcDbEllipse
10
275.949298
20
9.780625
30
0
11
0.104671912485858
21
-1.99725906950915
31
0
210
0
220
0
230
1
40
0.995562
41
2.04145572654249
42
2.70662470115242
0
ELLIPSE
5
205
100
AcDbEntity
8
1
62
256
6
ByLayer
370
13
48
1
60
0
100
AcDbEllipse
10
262.5898
20
27.344572
30
0
11
-0.0347690313628518
21
-0.196954599992204
31
0
210
0
220
0
230
1
40
0.091713
41
1.59198601757173
42
-3.12040296284505
0
ELLIPSE
5
206
100
AcDbEntity
8
1
62
256
6
ByLayer
370
13
48
1
60
0
100
AcDbEllipse
10
278.029308
20
28.144872
30
0
11
0.0994383168615647
21
-1.89739611603369
31
0
210
0
220
0
230
1
40
0.995562
41
3.11701412729371
42
3.13286600732977
0
ELLIPSE
5
207
100
AcDbEntity
8
1
62
256
6
ByLayer
370
13
48
1
60
0
100
AcDbEllipse
10
261.524516
20
19.044881
30
0
11
-0.197552082304459
21
-0.0311957493446165
31
0
210
0
220
0
230
1
40
0.009837
41
0.093734507531673
42
1.66453083432194
0
ELLIPSE
5
208
100
AcDbEntity
8
1
62
256
6
ByLayer
370
13
48
1
60
0
100
AcDbEllipse
10
276.796068
20
28.35481
30
0
11
-0.11118248343956
21
0.166248174053768
31
0
210
0
220
0
230
1
40
0.080951
41
-1.6189651666202
42
-0.0481688398011827
0
ELLIPSE
5
209
100
AcDbEntity
8
1
62
256
6
ByLayer
370
13
48
1
60
0
100
AcDbEllipse
10
278.454083
20
29.344543
30
0
11
0.0366351693700511
21
-0.699040674328219
31
0
210
0
220
0
230
1
40
0.995562
41
1.67551608191251
42
3.06145142476406
0
ELLIPSE
5
20A
100
AcDbEntity
8
1
62
256
6
ByLayer
370
13
48
1
60
0
100
AcDbEllipse
10
279.382003
20
12.402265
30
0
11
0.00785039343643911
21
-0.149794430213182
31
0
210
0
220
0
230
1
40
0.995562
41
0.113446401376152
42
1.38753675533547
0
ELLIPSE
5
20B
100
AcDbEntity
8
1
62
256
6
ByLayer
370
13
48
1
60
0
100
AcDbEllipse
10
264.042672
20
9.156625
30
0
11
0.11775590154659
21
-2.24691645319779
31
0
210
0
220
0
230
1
40
0.995562
41
-2.41106345636197
42
-1.82037975281819
0
ELLIPSE
5
20C
100
AcDbEntity
8
1
62
256
6
ByLayer
370
13
48
1
60
0
100
AcDbEllipse
10
277.74221
20
29.833841
30
0
11
-0.00261679781214698
21
0.0499314767377304
31
0
210
0
220
0
230
1
40
0.995562
41
-0.00872664625753618
42
1.32121290077166
0
ELLIPSE
5
20D
100
AcDbEntity
8
1
62
256
6
ByLayer
370
13
48
1
60
0
100
AcDbEllipse
10
277.328511
20
12.05757
30
0
11
-0.0420204304795949
21
-0.159048282692496
31
0
210
0
220
0
230
1
40
0.081731
41
-1.54456248513773
42
0.0262338416985661
0
ELLIPSE
5
20E
100
AcDbEntity
8
1
62
256
6
ByLayer
370
13
48
1
60
0
100
AcDbEllipse
10
261.347723
20
18.295773
30
0
11
0.465790010562067
21
-8.88780285931572
31
0
210
0
220
0
230
1
40
0.995562
41
-0.0801412288215439
42
-0.0245785262939167
0
ELLIPSE
5
20F
100
AcDbEntity
8
1
62
256
6
ByLayer
370
13
48
1
60
0
100
AcDbEllipse
10
261.172433
20
19.233878
30
0
11
-0.148732254109673
21
0.0194606420103665
31
0
210
0
220
0
230
1
40
0.01715
41
1.47811763731237
42
3.0489139641096
0
ELLIPSE
5
210
100
AcDbEntity
8
1
62
256
6
ByLayer
370
13
48
1
60
0
100
AcDbEllipse
10
262.239029
20
27.385571
30
0
11
-0.157457627808412
21
-0.0472734989209227
31
0
210
0
220
0
230
1
40
0.020424
41
-3.05807782805035
42
-1.48728150122397
0
ELLIPSE
5
211
100
AcDbEntity
8
1
62
256
6
ByLayer
370
13
48
1
60
0
100
AcDbEllipse
10
264.061468
20
9.157611
30
0
11
-0.104671912485876
21
1.99725906950915
31
0
210
0
220
0
230
1
40
0.995562
41
0
42
1.32121290077371
0
ELLIPSE
5
212
100
AcDbEntity
8
1
62
256
6
ByLayer
370
13
48
1
60
0
100
AcDbEllipse
10
262.780869
20
11.088823
30
0
11
0.111182483439554
21
-0.166248174053772
31
0
210
0
220
0
230
1
40
0.080951
41
-1.97154840660439E-05
42
1.52262748697101
0
ELLIPSE
5
213
100
AcDbEntity
8
1
62
256
6
ByLayer
370
13
48
1
60
0
100
AcDbEllipse
10
261.104059
20
10.098105
30
0
11
-0.0287847759336168
21
0.549246244115033
31
0
210
0
220
0
230
1
40
0.995562
41
1.67551608191457
42
3.06145142476593
0
ELLIPSE
5
214
100
AcDbEntity
8
1
62
256
6
ByLayer
370
13
48
1
60
0
100
AcDbEllipse
10
278.395106
20
20.209263
30
0
11
0.148732254109673
21
-0.019460642010368
31
0
210
0
220
0
230
1
40
0.01715
41
-2.85472889772736
42
-1.66347501627441
0
ELLIPSE
5
215
100
AcDbEntity
8
1
62
256
6
ByLayer
370
13
48
1
60
0
100
AcDbEllipse
10
277.27509
20
11.997364
30
0
11
0.00523359562429416
21
-0.0998629534754818
31
0
210
0
220
0
230
1
40
0.995562
41
-1.75405589825543
42
0.113446401377076
0
ELLIPSE
5
216
100
AcDbEntity
8
1
62
256
6
ByLayer
370
13
48
1
60
0
100
AcDbEllipse
10
278.449384
20
29.344297
30
0
11
0.0366351693700511
21
-0.699040674328219
31
0
210
0
220
0
230
1
40
0.995562
41
1.67551608191463
42
3.06145142476587
0
ELLIPSE
5
217
100
AcDbEntity
8
1
62
256
6
ByLayer
370
13
48
1
60
0
100
AcDbEllipse
10
278.210418
20
21.146874
30
0
11
-0.457939617125708
21
8.73800842910253
31
0
210
0
220
0
230
1
40
0.995562
41
-0.0801412288236784
42
-0.0245785262960461
0
ELLIPSE
5
218
100
AcDbEntity
8
1
62
256
6
ByLayer
370
13
48
1
60
0
100
AcDbEllipse
10
262.011457
20
19.122736
30
0
11
-0.0366351693700568
21
0.699040674328205
31
0
210
0
220
0
230
1
40
0.995562
41
1.38753675533556
42
1.67551608191464
0
ELLIPSE
5
219
100
AcDbEntity
8
1
62
256
6
ByLayer
370
13
48
1
60
0
100
AcDbEllipse
10
261.813416
20
9.558609
30
0
11
0.0065370786798103
21
-0.149857487641873
31
0
210
0
220
0
230
1
40
0.094105
41
-1.56997142650778
42
-0.0234595020637355
0
ELLIPSE
5
21A
100
AcDbEntity
8
1
62
256
6
ByLayer
370
13
48
1
60
0
100
AcDbEllipse
10
269.807265
20
19.722802
30
0
11
0.164592752017091
21
-3.14061679904836
31
0
210
0
220
0
230
1
40
0.995562
41
0
42
6.28318530717959
0
ELLIPSE
5
21B
100
AcDbEntity
8
1
62
256
6
ByLayer
370
13
48
1
60
0
100
AcDbEllipse
10
277.541985
20
20.319665
30
0
11
0.0444855628064897
21
-0.848835104541391
31
0
210
0
220
0
230
1
40
0.995562
41
1.38753675533555
42
1.67551608191461
0
ELLIPSE
5
21C
100
AcDbEntity
8
1
62
256
6
ByLayer
370
13
48
1
60
0
100
AcDbEllipse
10
261.860049
20
9.598752
30
0
11
-0.14712330593586
21
0.0292358145175281
31
0
210
0
220
0
230
1
40
0.023245
41
1.47945230342123
42
3.05024863021436
0
ELLIPSE
5
21D
100
AcDbEntity
8
1
62
256
6
ByLayer
370
13
48
1
60
0
100
AcDbEllipse
10
278.98457
20
11.50542
30
0
11
-0.223427013192955
21
-1.09873084071592
31
0
210
0
220
0
230
1
40
0.060635
41
1.06536318645151
42
1.25922193544737
0
ELLIPSE
5
21E
100
AcDbEntity
8
1
62
256
6
ByLayer
370
13
48
1
60
0
100
AcDbEllipse
10
278.391871
20
20.453177
30
0
11
0.148164061728343
21
0.0233968120084697
31
0
210
0
220
0
230
1
40
0.009837
41
1.66453083432272
42
2.85269002801232
0
ELLIPSE
5
21F
100
AcDbEntity
8
1
62
256
6
ByLayer
370
13
48
1
60
0
100
AcDbEllipse
10
262.5898
20
27.344572
30
0
11
0.19830967214623
21
-0.0259475226804906
31
0
210
0
220
0
230
1
40
0.01715
41
1.47811763731363
42
3.04891396409364
0
ELLIPSE
5
220
100
AcDbEntity
8
1
62
256
6
ByLayer
370
13
48
1
60
0
100
AcDbEllipse
10
275.51547
20
30.286022
30
0
11
-0.104671912485876
21
1.99725906950915
31
0
210
0
220
0
230
1
40
0.995562
41
3.14159265358759
42
-1.82037975282037
0
ELLIPSE
5
221
100
AcDbEntity
8
1
62
256
6
ByLayer
370
13
48
1
60
0
100
AcDbEllipse
10
259.157094
20
19.006943
30
0
11
-0.148164061728345
21
-0.0233968120084623
31
0
210
0
220
0
230
1
40
0.009837
41
-1.47706181926783
42
0.0937345075250187
0
ELLIPSE
5
222
100
AcDbEntity
8
1
62
256
6
ByLayer
370
13
48
1
60
0
100
AcDbEllipse
10
259.683801
20
19.092116
30
0
11
-0.028784775933618
21
0.549246244115055
31
0
210
0
220
0
230
1
40
0.995562
41
1.38753675533528
42
1.67551608191436
0
ELLIPSE
5
223
100
AcDbEntity
8
1
62
256
6
ByLayer
370
13
48
1
60
0
100
AcDbEllipse
10
261.815932
20
9.608807
30
0
11
0.0104671912485859
21
-0.199725906950917
31
0
210
0
220
0
230
1
40
0.995562
41
-0.0087266462566976
42
1.32121290077401
0
ELLIPSE
5
224
100
AcDbEntity
8
1
62
256
6
ByLayer
370
13
48
1
60
0
100
AcDbEllipse
10
260.084146
20
28.199864
30
0
11
-0.043388781848234
21
-0.261709360234651
31
0
210
0
220
0
230
1
40
0.938419
41
-2.83001826187989
42
-2.21164798398532
0
ELLIPSE
5
225
100
AcDbEntity
8
1
62
256
6
ByLayer
370
13
48
1
60
0
100
AcDbEllipse
10
262.471895
20
29.602438
30
0
11
-1.90001443048187
21
1.34408422197084
31
0
210
0
220
0
230
1
40
0.758703
41
1.08025569956369
42
2.08597699581289
0
ELLIPSE
5
226
100
AcDbEntity
8
1
62
256
6
ByLayer
370
13
48
1
60
0
100
AcDbEllipse
10
276.796068
20
28.35481
30
0
11
-0.197552082304459
21
-0.0311957493446165
31
0
210
0
220
0
230
1
40
0.009837
41
1.66453083432166
42
-3.14150916133668
0
ELLIPSE
5
227
100
AcDbEntity
8
1
62
256
6
ByLayer
370
13
48
1
60
0
100
AcDbEllipse
10
261.811233
20
9.608561
30
0
11
0.0104671912485859
21
-0.199725906950917
31
0
210
0
220
0
230
1
40
0.995562
41
0.0115983514804364
42
1.32121290077166
0
ELLIPSE
5
228
100
AcDbEntity
8
1
62
256
6
ByLayer
370
13
48
1
60
0
100
AcDbEllipse
10
261.54293
20
11.298515
30
0
11
0.0994383168615647
21
-1.89739611603369
31
0
210
0
220
0
230
1
40
0.995562
41
-0.0245785262939818
42
-0.00872664625788775
0
ELLIPSE
5
229
100
AcDbEntity
8
1
62
256
6
ByLayer
370
13
48
1
60
0
100
AcDbEllipse
10
275.393096
20
30.279609
30
0
11
-1.74911089440901
21
-1.53532677658352
31
0
210
0
220
0
230
1
40
0.758703
41
1.05561565777649
42
2.06133695402134
0
ELLIPSE
5
22A
100
AcDbEntity
8
1
62
256
6
ByLayer
370
13
48
1
60
0
100
AcDbEllipse
10
276.987138
20
12.099061
30
0
11
-0.198309672146231
21
0.0259475226804886
31
0
210
0
220
0
230
1
40
0.01715
41
-3.14146404079271
42
-1.66347501627565
0
ELLIPSE
5
22B
100
AcDbEntity
8
1
62
256
6
ByLayer
370
13
48
1
60
0
100
AcDbEllipse
10
262.016156
20
19.122983
30
0
11
0.0366351693700503
21
-0.699040674328205
31
0
210
0
220
0
230
1
40
0.995562
41
-1.75405589825423
42
-1.46607657167516
0
ELLIPSE
5
22C
100
AcDbEntity
8
1
62
256
6
ByLayer
370
13
48
1
60
0
100
AcDbEllipse
10
262.780869
20
11.088823
30
0
11
0.197552082304458
21
0.0311957493446263
31
0
210
0
220
0
230
1
40
0.009837
41
-3.04785814606447
42
-1.47706181926805
0
ELLIPSE
5
22D
100
AcDbEntity
8
1
62
256
6
ByLayer
370
13
48
1
60
0
100
AcDbEllipse
10
280.41254
20
20.278371
30
0
11
0.148732254109673
21
-0.019460642010368
31
0
210
0
220
0
230
1
40
0.01715
41
-1.66347501627667
42
-0.0926786894787881
0
ELLIPSE
5
22E
100
AcDbEntity
8
1
62
256
6
ByLayer
370
13
48
1
60
0
100
AcDbEllipse
10
278.850308
20
0
30
0
11
-4.99472577657939
21
29.4053334355604
31
0
210
0
220
0
230
1
40
0.085547
41
1.58621644359234
42
1.7447326055505
0
ELLIPSE
5
22F
100
AcDbEntity
8
1
62
256
6
ByLayer
370
13
48
1
60
0
100
AcDbEllipse
10
279.000029
20
0.129706
30
0
11
-0.0213576036885978
21
1.01120742944354
31
0
210
0
220
0
230
1
40
0.102269
41
-0.12011088907832
42
1.06302519736436
0
ELLIPSE
5
230
100
AcDbEntity
8
1
62
256
6
ByLayer
370
13
48
1
60
0
100
AcDbEllipse
10
1194.034658
20
0
30
0
11
-1500.92501138308
21
22.7268685001111
31
0
210
0
220
0
230
1
40
0.012435
41
0.896965079892923
42
0.913192252956307
0
ELLIPSE
5
231
100
AcDbEntity
8
1
62
256
6
ByLayer
370
13
48
1
60
0
100
AcDbEllipse
10
268.354949
20
-0.330689
30
0
11
0.575695518672216
21
-10.9849248823003
31
0
210
0
220
0
230
1
40
0.995562
41
3.14159265358979
42
-2.8236680712887
0
ELLIPSE
5
232
100
AcDbEntity
8
1
62
256
6
ByLayer
370
13
48
1
60
0
100
AcDbEllipse
10
261.131688
20
0
30
0
11
-1.55510703076387
21
29.4080710732164
31
0
210
0
220
0
230
1
40
0.094396
41
-0.10189740178073
42
-0.00499337583316299
0
ELLIPSE
5
233
100
AcDbEntity
8
1
62
256
6
ByLayer
370
13
48
1
60
0
100
AcDbEllipse
10
268.448929
20
-0.325764
30
0
11
-0.523359562429381
21
9.98629534754575
31
0
210
0
220
0
230
1
40
0.995562
41
0
42
0.317924582301088
0
ELLIPSE
5
234
100
AcDbEntity
8
1
62
256
6
ByLayer
370
13
48
1
60
0
100
AcDbEllipse
10
278.97029
20
-2.542904
30
0
11
-2.65123443519823
21
4.23763454492994
31
0
210
0
220
0
230
1
40
0.379111
41
-0.993956617903867
42
-0.857609981566086
0
ELLIPSE
5
235
100
AcDbEntity
8
1
62
256
6
ByLayer
370
13
48
1
60
0
100
AcDbEllipse
10
282.306322
20
2.849871
30
0
11
-5.84326309822915
21
-1.98852120852655
31
0
210
0
220
0
230
1
40
0.849652
41
-0.375434990396308
42
-0.227882921029639
0
ELLIPSE
5
236
100
AcDbEntity
8
1
62
256
6
ByLayer
370
13
48
1
60
0
100
AcDbEllipse
10
261.145045
20
18.315252
30
0
11
-0.471023606186443
21
8.98766581279117
31
0
210
0
220
0
230
1
40
0.995562
41
2.79252680319579
42
2.96271820098506
0
ELLIPSE
5
237
100
AcDbEntity
8
1
62
256
6
ByLayer
370
13
48
1
60
0
100
AcDbEllipse
10
260.900024
20
12.026085
30
0
11
-0.136073486231638
21
2.59643679036189
31
0
210
0
220
0
230
1
40
0.995562
41
2.40144888609819
42
2.97998013990121
0
ELLIPSE
5
238
100
AcDbEntity
8
1
62
256
6
ByLayer
370
13
48
1
60
0
100
AcDbEllipse
10
260.900024
20
12.026085
30
0
11
-0.136073486231638
21
2.59643679036189
31
0
210
0
220
0
230
1
40
0.995562
41
-2.68543658663365
42
-2.07675099364108
0
ELLIPSE
5
239
100
AcDbEntity
8
1
62
256
6
ByLayer
370
13
48
1
60
0
100
AcDbEllipse
10
269.519162
20
-8.415078
30
0
11
2
21
0
31
0
210
0
220
0
230
1
40
0.994449
41
2.42629112544409
42
2.59632986090525
0
ELLIPSE
5
23A
100
AcDbEntity
8
1
62
256
6
ByLayer
370
13
48
1
60
0
100
AcDbEllipse
10
260.947014
20
12.028547
30
0
11
0.162241464353079
21
-3.09575155773918
31
0
210
0
220
0
230
1
40
0.995562
41
0.0839997461782091
42
1.07850402440023
0
ELLIPSE
5
23B
100
AcDbEntity
8
1
62
256
6
ByLayer
370
13
48
1
60
0
100
AcDbEllipse
10
276.32981
20
11.302626
30
0
11
-0.0261679781214691
21
0.499314767377289
31
0
210
0
220
0
230
1
40
0.995562
41
-0.998377754702127
42
-0.927295218001445
0
ELLIPSE
5
23C
100
AcDbEntity
8
1
62
256
6
ByLayer
370
13
48
1
60
0
100
AcDbEllipse
10
278.437706
20
11.212821
30
0
11
-0.0190545397597369
21
1.00036760663631
31
0
210
0
220
0
230
1
40
0.105018
41
-3.13809273019753
42
-2.51175793868561
0
ELLIPSE
5
23D
100
AcDbEntity
8
1
62
256
6
ByLayer
370
13
48
1
60
0
100
AcDbEllipse
10
291.543697
20
-0.000263
30
0
11
-311.540947568309
21
0.146824358927431
31
0
210
0
220
0
230
1
40
0.094396
41
-1.46889843106007
42
-1.46048285499018
0
ELLIPSE
5
23E
100
AcDbEntity
8
1
62
256
6
ByLayer
370
13
48
1
60
0
100
AcDbEllipse
10
269.519162
20
-7.8995
30
0
11
2
21
0
31
0
210
0
220
0
230
1
40
0.994449
41
0.390244703517717
42
2.75772938877673
0
ELLIPSE
5
23F
100
AcDbEntity
8
1
62
256
6
ByLayer
370
13
48
1
60
0
100
AcDbEllipse
10
264.483481
20
9.929503
30
0
11
0.363113722374463
21
-0.931744828063651
31
0
210
0
220
0
230
1
40
0.089392
41
-1.60033673645362
42
-0.029540409658915
0
ELLIPSE
5
240
100
AcDbEntity
8
1
62
256
6
ByLayer
370
13
48
1
60
0
100
AcDbEllipse
10
269.519162
20
-7.8995
30
0
11
-2.1
21
2.12234201567296E-15
31
0
210
0
220
0
230
1
40
0.994449
41
-2.72690265090716
42
-0.426176784179044
0
ELLIPSE
5
241
100
AcDbEntity
8
1
62
256
6
ByLayer
370
13
48
1
60
0
100
AcDbEllipse
10
267.873233
20
10.659161
30
0
11
0.0523359562429289
21
-0.998629534754575
31
0
210
0
220
0
230
1
40
0.094108
41
-1.5707963267949
42
0
0
ELLIPSE
5
242
100
AcDbEntity
8
1
62
256
6
ByLayer
370
13
48
1
60
0
100
AcDbEllipse
10
261.307753
20
12.047453
30
0
11
-1.97200940362293
21
-2.45265018736781
31
0
210
0
220
0
230
1
40
0.965978
41
1.55736417704343
42
1.84422629300802
0
ELLIPSE
5
243
100
AcDbEntity
8
1
62
256
6
ByLayer
370
13
48
1
60
0
100
AcDbEllipse
10
261.145045
20
18.315252
30
0
11
-0.471023606186443
21
8.98766581279117
31
0
210
0
220
0
230
1
40
0.995562
41
-2.92946901796111
42
-2.82366807128867
0
ELLIPSE
5
244
100
AcDbEntity
8
1
62
256
6
ByLayer
370
13
48
1
60
0
100
AcDbEllipse
10
279.161578
20
10.662868
30
0
11
-0.0190934195946117
21
-0.501606840107853
31
0
210
0
220
0
230
1
40
0.197189
41
-0.688891549972834
42
-0.331191944131852
0
ELLIPSE
5
245
100
AcDbEntity
8
1
62
256
6
ByLayer
370
13
48
1
60
0
100
AcDbEllipse
10
295.671481
20
15.760516
30
0
11
-25.370480003645
21
-4.45084705731255
31
0
210
0
220
0
230
1
40
0.014713
41
0.448811215752747
42
0.452928951853704
0
ELLIPSE
5
246
100
AcDbEntity
8
1
62
256
6
ByLayer
370
13
48
1
60
0
100
AcDbEllipse
10
264.57528
20
10.686597
30
0
11
-0.318066032272787
21
-0.395588740122339
31
0
210
0
220
0
230
1
40
0.965978
41
-2.06962855859096
42
-1.29736636167658
0
ELLIPSE
5
247
100
AcDbEntity
8
1
62
256
6
ByLayer
370
13
48
1
60
0
100
AcDbEllipse
10
260.811265
20
10.489333
30
0
11
-4.04277876315673
21
-0.708917706563129
31
0
210
0
220
0
230
1
40
0.014774
41
-3.0203630328595
42
-2.66133983570828
0
ELLIPSE
5
248
100
AcDbEntity
8
1
62
256
6
ByLayer
370
13
48
1
60
0
100
AcDbEllipse
10
261.576676
20
12.061546
30
0
11
0.162241464353079
21
-3.09575155773918
31
0
210
0
220
0
230
1
40
0.995562
41
0.615809199294386
42
1.13183444118516
0
ELLIPSE
5
249
100
AcDbEntity
8
1
62
256
6
ByLayer
370
13
48
1
60
0
100
AcDbEllipse
10
277.631555
20
-19.248604
30
0
11
-0.297148820996995
21
-2.5050448378503
31
0
210
0
220
0
230
1
40
0.115917
41
0
42
6.28318530717959
0
ELLIPSE
5
24A
100
AcDbEntity
8
1
62
256
6
ByLayer
370
13
48
1
60
0
100
AcDbEllipse
10
278.888982
20
13.389422
30
0
11
-0.0956813437107471
21
3.09904200672999
31
0
210
0
220
0
230
1
40
0.52515
41
2.85139928221135
42
3.12886011283743
0
ELLIPSE
5
24B
100
AcDbEntity
8
1
62
256
6
ByLayer
370
13
48
1
60
0
100
AcDbEllipse
10
279.236332
20
13.407626
30
0
11
0.162241464353079
21
-3.09575155773918
31
0
210
0
220
0
230
1
40
0.995562
41
-0.998377754702095
42
-0.804393367027687
0
ELLIPSE
5
24C
100
AcDbEntity
8
1
62
256
6
ByLayer
370
13
48
1
60
0
100
AcDbEllipse
10
273.753472
20
-8.895941
30
0
11
-6.0329917349812
21
-0.0261491230763128
31
0
210
0
220
0
230
1
40
0.989002
41
3.00711356429704
42
-2.98964839843249
0
ELLIPSE
5
24D
100
AcDbEntity
8
1
62
256
6
ByLayer
370
13
48
1
60
0
100
AcDbEllipse
10
261.239024
20
18.320177
30
0
11
0.523359562429289
21
-9.98629534754575
31
0
210
0
220
0
230
1
40
0.995562
41
-5.96902186782908E-07
42
0.317924582301123
0
ELLIPSE
5
24E
100
AcDbEntity
8
1
62
256
6
ByLayer
370
13
48
1
60
0
100
AcDbEllipse
10
252.7208
20
1.658601
30
0
11
-0.604578892195119
21
16.6881183493378
31
0
210
0
220
0
230
1
40
0.357707
41
-0.538953442448614
42
-0.36401072089264
0
ELLIPSE
5
24F
100
AcDbEntity
8
1
62
256
6
ByLayer
370
13
48
1
60
0
100
AcDbEllipse
10
258.621321
20
9.714149
30
0
11
-0.293740802135514
21
-0.955885108766104
31
0
210
0
220
0
230
1
40
0.088433
41
-1.53847716189229
42
-7.17550753052318E-06
0
ELLIPSE
5
250
100
AcDbEntity
8
1
62
256
6
ByLayer
370
13
48
1
60
0
100
AcDbEllipse
10
291.543397
20
4E-06
30
0
11
-308.344233348566
21
0.145289642935032
31
0
210
0
220
0
230
1
40
0.094396
41
-1.44954030444118
42
-1.42498908574039
0
ELLIPSE
5
251
100
AcDbEntity
8
1
62
256
6
ByLayer
370
13
48
1
60
0
100
AcDbEllipse
10
263.237614
20
10.302625
30
0
11
1.49975373857881
21
0.0271794707662497
31
0
210
0
220
0
230
1
40
0.340502
41
-1.53279213818711
42
-1.51222596037002
0
ELLIPSE
5
252
100
AcDbEntity
8
1
62
256
6
ByLayer
370
13
48
1
60
0
100
AcDbEllipse
10
264.896537
20
10.703433
30
0
11
-0.0261679781214689
21
0.499314767377287
31
0
210
0
220
0
230
1
40
0.995562
41
0.927295216956236
42
1.13183444118531
0
ELLIPSE
5
253
100
AcDbEntity
8
1
62
256
6
ByLayer
370
13
48
1
60
0
100
AcDbEllipse
10
279.05807
20
9.629975
30
0
11
-0.00952726988268748
21
0.500183803374868
31
0
210
0
220
0
230
1
40
0.105018
41
1.92336210058438
42
-2.78902687979793
0
ELLIPSE
5
254
100
AcDbEntity
8
1
62
256
6
ByLayer
370
13
48
1
60
0
100
AcDbEllipse
10
281.56144
20
0
30
0
11
-3.57426570930564
21
-29.40548679985
31
0
210
0
220
0
230
1
40
0.116551
41
-1.30673276864234
42
-0.0875087001304071
0
ELLIPSE
5
255
100
AcDbEntity
8
1
62
256
6
ByLayer
370
13
48
1
60
0
100
AcDbEllipse
10
284.434116
20
0.73812
30
0
11
-6.03299180486719
21
-0.0261494271776407
31
0
210
0
220
0
230
1
40
0.989002
41
0.0310401215567115
42
0.151944204457972
0
ELLIPSE
5
256
100
AcDbEntity
8
1
62
256
6
ByLayer
370
13
48
1
60
0
100
AcDbEllipse
10
271.787966
20
14.469264
30
0
11
-1.97200940085665
21
-2.45265018807592
31
0
210
0
220
0
230
1
40
0.965978
41
0.712391851041592
42
1.04314259883488
0
ELLIPSE
5
257
100
AcDbEntity
8
1
62
256
6
ByLayer
370
13
48
1
60
0
100
AcDbEllipse
10
260.568689
20
12.00872
30
0
11
-2.74310165139795
21
2.20554168959226
31
0
210
0
220
0
230
1
40
0.772244
41
3.13694524740804
42
-2.77548047982425
0
ELLIPSE
5
258
100
AcDbEntity
8
1
62
256
6
ByLayer
370
13
48
1
60
0
100
AcDbEllipse
10
214.93082
20
0
30
0
11
-311.539533956731
21
0.146795786156121
31
0
210
0
220
0
230
1
40
0.094396
41
-1.76927065509072
42
-1.71769943109378
0
ELLIPSE
5
259
100
AcDbEntity
8
1
62
256
6
ByLayer
370
13
48
1
60
0
100
AcDbEllipse
10
269.261945
20
10.932214
30
0
11
-4.04277875420752
21
-0.708917704955655
31
0
210
0
220
0
230
1
40
0.014774
41
-3.0203630327558
42
-2.68601592103219
0
ELLIPSE
5
25A
100
AcDbEntity
8
1
62
256
6
ByLayer
370
13
48
1
60
0
100
AcDbEllipse
10
278.895875
20
0.126215
30
0
11
-0.0106788018203397
21
0.505603713874777
31
0
210
0
220
0
230
1
40
0.102269
41
-0.120110889178126
42
0.288011353869025
0
ELLIPSE
5
25B
100
AcDbEntity
8
1
62
256
6
ByLayer
370
13
48
1
60
0
100
AcDbEllipse
10
278.676818
20
-18.115648
30
0
11
-0.0640533162440855
21
-0.515985922549411
31
0
210
0
220
0
230
1
40
0.113071
41
-1.64245356107966
42
-0.0716572342730376
0
ELLIPSE
5
25C
100
AcDbEntity
8
1
62
256
6
ByLayer
370
13
48
1
60
0
100
AcDbEllipse
10
252.7208
20
7.178715
30
0
11
-5.80814537535819
21
1.97240326327527
31
0
210
0
220
0
230
1
40
0.7631
41
1.41355239580654
42
1.70625562760703
0
ELLIPSE
5
25D
100
AcDbEntity
8
1
62
256
6
ByLayer
370
13
48
1
60
0
100
AcDbEllipse
10
252.7208
20
8.311412
30
0
11
-4
21
4.04255622032945E-15
31
0
210
0
220
0
230
1
40
0.761055
41
-3.08611855053784
42
-1.69791476622583
0
ELLIPSE
5
25E
100
AcDbEntity
8
1
62
256
6
ByLayer
370
13
48
1
60
0
100
AcDbEllipse
10
289.775304
20
0
30
0
11
-59.4269704540945
21
25.0641792395731
31
0
210
0
220
0
230
1
40
0.249019
41
0.869764948233041
42
0.996120032275814
0
ELLIPSE
5
25F
100
AcDbEntity
8
1
62
256
6
ByLayer
370
13
48
1
60
0
100
AcDbEllipse
10
261.604094
20
19.682235
30
0
11
0.162241464353079
21
-3.09575155773918
31
0
210
0
220
0
230
1
40
0.995562
41
-2.23430559079023
42
-1.46607657167527
0
ELLIPSE
5
260
100
AcDbEntity
8
1
62
256
6
ByLayer
370
13
48
1
60
0
100
AcDbEllipse
10
261.576676
20
12.061546
30
0
11
0.162241464353079
21
-3.09575155773918
31
0
210
0
220
0
230
1
40
0.995562
41
-2.31498441521961
42
-0.582560016270411
0
ELLIPSE
5
261
100
AcDbEntity
8
1
62
256
6
ByLayer
370
13
48
1
60
0
100
AcDbEllipse
10
258.816121
20
14.358767
30
0
11
-0.0261679781214691
21
0.499314767377288
31
0
210
0
220
0
230
1
40
0.995562
41
-2.31498441521979
42
-1.46607657167521
0
POINT
5
70
100
AcDbEntity
8
1
62
256
6
ByLayer
370
18
48
1
60
0
100
AcDbPoint
10
0
20
0
30
0
39
0
210
0
220
0
230
1
50
360
0
POINT
5
72
100
AcDbEntity
8
80
62
256
6
ByLayer
370
18
48
1
60
0
100
AcDbPoint
10
0
20
0
30
0
39
0
210
0
220
0
230
1
50
360
0
POINT
5
74
100
AcDbEntity
8
81
62
256
6
ByLayer
370
18
48
1
60
0
100
AcDbPoint
10
280.7208
20
0
30
0
39
0
210
0
220
0
230
1
50
360
0
POINT
5
76
100
AcDbEntity
8
1
62
256
6
ByLayer
370
18
48
1
60
1
100
AcDbPoint
10
0
20
-31.25
30
0
39
0
210
0
220
0
230
1
50
360
0
POINT
5
77
100
AcDbEntity
8
1
62
256
6
ByLayer
370
18
48
1
60
1
100
AcDbPoint
10
280.7208
20
-30.1625
30
0
39
0
210
0
220
0
230
1
50
360
0
POINT
5
78
100
AcDbEntity
8
1
62
256
6
ByLayer
370
18
48
1
60
1
100
AcDbPoint
10
-70
20
-19.05
30
0
39
0
210
0
220
0
230
1
50
360
0
POINT
5
79
100
AcDbEntity
8
1
62
256
6
ByLayer
370
18
48
1
60
1
100
AcDbPoint
10
0
20
-31.25
30
0
39
0
210
0
220
0
230
1
50
360
0
POINT
5
7A
100
AcDbEntity
8
1
62
256
6
ByLayer
370
18
48
1
60
1
100
AcDbPoint
10
280.7208
20
-30.1625
30
0
39
0
210
0
220
0
230
1
50
360
0
POINT
5
7B
100
AcDbEntity
8
1
62
256
6
ByLayer
370
18
48
1
60
1
100
AcDbPoint
10
5.5033
20
-31.25
30
0
39
0
210
0
220
0
230
1
50
360
0
POINT
5
7C
100
AcDbEntity
8
1
62
256
6
ByLayer
370
18
48
1
60
1
100
AcDbPoint
10
34.8996
20
-30.1625
30
0
39
0
210
0
220
0
230
1
50
360
0
POINT
5
7D
100
AcDbEntity
8
1
62
256
6
ByLayer
370
18
48
1
60
1
100
AcDbPoint
10
280.7208
20
-30.1625
30
0
39
0
210
0
220
0
230
1
50
360
0
POINT
5
7E
100
AcDbEntity
8
1
62
256
6
ByLayer
370
18
48
1
60
1
100
AcDbPoint
10
279.1317
20
-15.08125
30
0
39
0
210
0
220
0
230
1
50
360
0
SPLINE
5
262
100
AcDbEntity
8
SK1
62
256
6
ByLayer
370
13
48
1
60
0
100
AcDbSpline
70
4
71
3
72
12
73
8
40
0
40
0
40
0
40
0
40
0.249999999999998
40
0.249999999999998
40
0.499999999999996
40
0.499999999999996
40
1
40
1
40
1
40
1
41
1
10
-70
20
6.44986821570805
30
0
41
1
10
-69.9262294539371
20
6.65626983969923
30
0
41
1
10
-69.8494937989988
20
6.86229287290607
30
0
41
1
10
-69.6914006706146
20
7.27114448300509
30
0
41
1
10
-69.6099907274895
20
7.47414273982645
30
0
41
1
10
-69.3592184194197
20
8.07918566670864
30
0
41
1
10
-69.1833279901908
20
8.47728719990221
30
0
41
1
10
-69
20
8.87089623431598
30
0
0
SPLINE
5
263
100
AcDbEntity
8
SK1
62
256
6
ByLayer
370
13
48
1
60
0
100
AcDbSpline
70
4
71
3
72
24
73
20
40
0
40
0
40
0
40
0
40
0.249999999999979
40
0.249999999999979
40
0.374999999999967
40
0.374999999999967
40
0.499999999999954
40
0.499999999999954
40
0.624999999999942
40
0.624999999999942
40
0.687499999999952
40
0.687499999999952
40
0.749999999999961
40
0.749999999999961
40
0.812499999999971
40
0.812499999999971
40
0.874999999999981
40
0.874999999999981
40
1
40
1
40
1
40
1
41
1
10
-68.5162221138922
20
8.64653950086213
30
0
41
1
10
-68.4801597618136
20
8.54897747553599
30
0
41
1
10
-68.437529036499
20
8.45328392947286
30
0
41
1
10
-68.3606328317439
20
8.31846748282459
30
0
41
1
10
-68.3327841948055
20
8.27488782936956
30
0
41
1
10
-68.2709240150669
20
8.19150751116794
30
0
41
1
10
-68.2366211549992
20
8.1513917713655
30
0
41
1
10
-68.1608805969831
20
8.07960326139835
30
0
41
1
10
-68.118647042449
20
8.04728802222283
30
0
41
1
10
-68.0500006695449
20
8.01075696434805
30
0
41
1
10
-68.0262243469756
20
8.00052694473914
30
0
41
1
10
-67.9764623615226
20
7.98487745486457
30
0
41
1
10
-67.9503348341249
20
7.9795185054941
30
0
41
1
10
-67.8979814342781
20
7.97497946209535
30
0
41
1
10
-67.8712746996662
20
7.97577043506206
30
0
41
1
10
-67.8195051112143
20
7.98321207091351
30
0
41
1
10
-67.7941760244754
20
7.9897939279231
30
0
41
1
10
-67.7196976276346
20
8.01730782525888
30
0
41
1
10
-67.675026058619
20
8.04465261111196
30
0
41
1
10
-67.6338131992839
20
8.07752044937291
30
0
0
SPLINE
5
264
100
AcDbEntity
8
SK1
62
256
6
ByLayer
370
13
48
1
60
0
100
AcDbSpline
70
4
71
3
72
8
73
4
40
0
40
0
40
0
40
0
40
1
40
1
40
1
40
1
41
1
10
-68.5999993841625
20
8.87089623431598
30
0
41
1
10
-68.5718356096165
20
8.7962242090465
30
0
41
1
10
-68.5439078219466
20
8.72143960012821
30
0
41
1
10
-68.5162221138915
20
8.64653950086236
30
0
0
SPLINE
5
265
100
AcDbEntity
8
SK1
62
256
6
ByLayer
370
13
48
1
60
0
100
AcDbSpline
70
4
71
3
72
8
73
4
40
0
40
0
40
0
40
0
40
1
40
1
40
1
40
1
41
1
10
-68.5162221138915
20
-8.64653950086213
30
0
41
1
10
-68.5438902081973
20
-8.72139194840918
30
0
41
1
10
-68.5718178207736
20
-8.79617704459645
30
0
41
1
10
-68.5999993841625
20
-8.87089623431586
30
0
0
SPLINE
5
266
100
AcDbEntity
8
SK1
62
256
6
ByLayer
370
13
48
1
60
0
100
AcDbSpline
70
4
71
3
72
8
73
4
40
0
40
0
40
0
40
0
40
1
40
1
40
1
40
1
41
1
10
-69
20
-8.87089623431584
30
0
41
1
10
-69.3685589153682
20
-8.0795925242185
30
0
41
1
10
-69.7053933622917
20
-7.27414418636064
30
0
41
1
10
-70
20
-6.44986821570788
30
0
0
SPLINE
5
267
100
AcDbEntity
8
SK1
62
256
6
ByLayer
370
13
48
1
60
0
100
AcDbSpline
70
4
71
3
72
8
73
4
40
0
40
0
40
0
40
0
40
1
40
1
40
1
40
1
41
1
10
-67.6338131992845
20
8.07752044937243
30
0
41
1
10
-67.294061759835
20
8.34847702800076
30
0
41
1
10
-66.9491462783909
20
8.61251804490684
30
0
41
1
10
-66.6000022063887
20
8.87089623431601
30
0
0
SPLINE
5
268
100
AcDbEntity
8
1
62
256
6
ByLayer
370
18
48
1
60
0
100
AcDbSpline
70
4
71
3
72
16
73
12
40
0
40
0
40
0
40
0
40
0.12500000000001
40
0.12500000000001
40
0.250000000000019
40
0.250000000000019
40
0.500000000000013
40
0.500000000000013
40
0.750000000000006
40
0.750000000000006
40
1
40
1
40
1
40
1
41
1
10
270.858273788336
20
18.7175821029733
30
0
41
1
10
270.875193389677
20
18.7064958760426
30
0
41
1
10
270.888806368874
20
18.6912100526562
30
0
41
1
10
270.904969888393
20
18.6546409458465
30
0
41
1
10
270.907440306171
20
18.6335168917785
30
0
41
1
10
270.901886510712
20
18.5714371320841
30
0
41
1
10
270.883165948466
20
18.5315411528334
30
0
41
1
10
270.835677928212
20
18.4587612780836
30
0
41
1
10
270.806404704618
20
18.4256795211045
30
0
41
1
10
270.742333503406
20
18.3654982831042
30
0
41
1
10
270.707298562457
20
18.3383156063269
30
0
41
1
10
270.670378404447
20
18.3142380392563
30
0
0
SPLINE
5
269
100
AcDbEntity
8
1
62
256
6
ByLayer
370
18
48
1
60
0
100
AcDbSpline
70
4
71
3
72
18
73
14
40
0
40
0
40
0
40
0
40
0.125
40
0.125
40
0.25
40
0.25
40
0.5
40
0.5
40
0.75
40
0.75
40
0.875
40
0.875
40
1
40
1
40
1
40
1
41
1
10
268.312449655082
20
20.0319938172668
30
0
41
1
10
268.342506373272
20
20.0342707422089
30
0
41
1
10
268.371559011504
20
20.0473017755624
30
0
41
1
10
268.426168342991
20
20.0826721836438
30
0
41
1
10
268.451535245917
20
20.1051311762815
30
0
41
1
10
268.522277950946
20
20.1802201447417
30
0
41
1
10
268.56260102841
20
20.240637778557
30
0
41
1
10
268.628260822346
20
20.3701446339706
30
0
41
1
10
268.653527396396
20
20.438964843428
30
0
41
1
10
268.673599747394
20
20.5431052068154
30
0
41
1
10
268.677239009856
20
20.5779499839217
30
0
41
1
10
268.674761033485
20
20.6452494749042
30
0
41
1
10
268.668863376041
20
20.6778123825392
30
0
41
1
10
268.653777913372
20
20.7050863656553
30
0
0
SPLINE
5
26A
100
AcDbEntity
8
1
62
256
6
ByLayer
370
18
48
1
60
0
100
AcDbSpline
70
4
71
3
72
8
73
4
40
0
40
0
40
0
40
0
40
1
40
1
40
1
40
1
41
1
10
268.352957802694
20
19.2590523157169
30
0
41
1
10
268.346668357683
20
19.2588691789181
30
0
41
1
10
268.340379943435
20
19.2586860767042
30
0
41
1
10
268.334092521034
20
19.258503007765
30
0
0
SPLINE
5
26B
100
AcDbEntity
8
1
62
256
6
ByLayer
370
18
48
1
60
0
100
AcDbSpline
70
4
71
3
72
16
73
12
40
0
40
0
40
0
40
0
40
0.250000000000064
40
0.250000000000064
40
0.500000000000128
40
0.500000000000128
40
0.750000000000191
40
0.750000000000191
40
0.875000000000096
40
0.875000000000096
40
1
40
1
40
1
40
1
41
1
10
271.427733215018
20
19.8077266886754
30
0
41
1
10
271.425417074592
20
19.8519212807247
30
0
41
1
10
271.41944596216
20
19.8959831191105
30
0
41
1
10
271.399302626059
20
19.9823075996362
30
0
41
1
10
271.385231959361
20
20.024588270498
30
0
41
1
10
271.34546742015
20
20.1034604973178
30
0
41
1
10
271.320007095646
20
20.1404346029591
30
0
41
1
10
271.26760805363
20
20.1781875242075
30
0
41
1
10
271.24788405031
20
20.1870830334054
30
0
41
1
10
271.207474427879
20
20.1927832922812
30
0
41
1
10
271.18703240689
20
20.1894906790922
30
0
41
1
10
271.168518658904
20
20.1812346716707
30
0
0
SPLINE
5
26C
100
AcDbEntity
8
1
62
256
6
ByLayer
370
18
48
1
60
0
100
AcDbSpline
70
4
71
3
72
16
73
12
40
0
40
0
40
0
40
0
40
0.25
40
0.25
40
0.5
40
0.5
40
0.75
40
0.75
40
0.875
40
0.875
40
1
40
1
40
1
40
1
41
1
10
269.003705578768
20
18.2268914176711
30
0
41
1
10
268.964443728897
20
18.2469917792216
30
0
41
1
10
268.926646278802
20
18.2702979973446
30
0
41
1
10
268.855657674937
20
18.3234636180275
30
0
41
1
10
268.822418168275
20
18.3532432852429
30
0
41
1
10
268.765150057249
20
18.4207005169201
30
0
41
1
10
268.740712339907
20
18.4583415182048
30
0
41
1
10
268.724682904923
20
18.5198129634209
30
0
41
1
10
268.723394087239
20
18.5407310218857
30
0
41
1
10
268.731874276246
20
18.578314885205
30
0
41
1
10
268.741645443596
20
18.5947258731884
30
0
41
1
10
268.755168971562
20
18.6073630499267
30
0
0
SPLINE
5
26D
100
AcDbEntity
8
1
62
256
6
ByLayer
370
18
48
1
60
0
100
AcDbSpline
70
4
71
3
72
18
73
14
40
0
40
0
40
0
40
0
40
0.125
40
0.125
40
0.25
40
0.25
40
0.5
40
0.5
40
0.75
40
0.75
40
0.875
40
0.875
40
1
40
1
40
1
40
1
41
1
10
268.762773558791
20
18.6253255570441
30
0
41
1
10
268.774919530704
20
18.6540129528601
30
0
41
1
10
268.777395639897
20
18.6870474995615
30
0
41
1
10
268.772794819127
20
18.754394538161
30
0
41
1
10
268.765526701381
20
18.7885913326646
30
0
41
1
10
268.734736404288
20
18.8898539984964
30
0
41
1
10
268.70231539874
20
18.955895812666
30
0
41
1
10
268.623458290759
20
19.0778155469076
30
0
41
1
10
268.577216181565
20
19.1335023332779
30
0
41
1
10
268.498848431653
20
19.2009185825493
30
0
41
1
10
268.471202415977
20
19.2206251778898
30
0
41
1
10
268.413322889423
20
19.250005891311
30
0
41
1
10
268.383102614252
20
19.2599300758814
30
0
41
1
10
268.352957802694
20
19.2590523157169
30
0
0
SPLINE
5
26E
100
AcDbEntity
8
1
62
256
6
ByLayer
370
18
48
1
60
0
100
AcDbSpline
70
4
71
3
72
16
73
12
40
0
40
0
40
0
40
0
40
0.250000000000003
40
0.250000000000003
40
0.500000000000006
40
0.500000000000006
40
0.750000000000009
40
0.750000000000009
40
0.875000000000005
40
0.875000000000005
40
1
40
1
40
1
40
1
41
1
10
268.094387563661
20
19.633033445505
30
0
41
1
10
268.092071423236
20
19.6772280375544
30
0
41
1
10
268.093207501275
20
19.7216623480097
30
0
41
1
10
268.103320446237
20
19.8095724930352
30
0
41
1
10
268.112207291943
20
19.8530563161399
30
0
41
1
10
268.141183506408
20
19.9355310932061
30
0
41
1
10
268.16104721615
20
19.9748805308305
30
0
41
1
10
268.205090198764
20
20.0176877644194
30
0
41
1
10
268.222100020746
20
20.0285084118258
30
0
41
1
10
268.257882904702
20
20.0382017507594
30
0
41
1
10
268.276441302417
20
20.0369530629058
30
0
41
1
10
268.293630301093
20
20.0305681571512
30
0
0
SPLINE
5
26F
100
AcDbEntity
8
1
62
256
6
ByLayer
370
18
48
1
60
0
100
AcDbSpline
70
4
71
3
72
8
73
4
40
0
40
0
40
0
40
0
40
1
40
1
40
1
40
1
41
1
10
268.755168971562
20
18.6073630499267
30
0
41
1
10
268.757703314789
20
18.6133497676144
30
0
41
1
10
268.760238170456
20
18.6193372599166
30
0
41
1
10
268.762773558791
20
18.6253255570441
30
0
0
SPLINE
5
270
100
AcDbEntity
8
1
62
256
6
ByLayer
370
18
48
1
60
0
100
AcDbSpline
70
4
71
3
72
16
73
12
40
0
40
0
40
0
40
0
40
0.249999999999926
40
0.249999999999926
40
0.499999999999853
40
0.499999999999853
40
0.749999999999779
40
0.749999999999779
40
0.874999999999889
40
0.874999999999889
40
1
40
1
40
1
40
1
41
1
10
270.670378404447
20
18.3142380392563
30
0
41
1
10
270.633432695001
20
18.2901438087574
30
0
41
1
10
270.594400862987
20
18.2690105645371
30
0
41
1
10
270.512850974888
20
18.2342425437289
30
0
41
1
10
270.470381019091
20
18.2205203803469
30
0
41
1
10
270.382973644713
20
18.2054418821485
30
0
41
1
10
270.33787607063
20
18.2036917215127
30
0
41
1
10
270.275742274469
20
18.2222479008672
30
0
41
1
10
270.256605486164
20
18.2323013864166
30
0
41
1
10
270.227398025698
20
18.2600920862715
30
0
41
1
10
270.217552889563
20
18.2776963196164
30
0
41
1
10
270.212844260438
20
18.2966637324934
30
0
0
SPLINE
5
271
100
AcDbEntity
8
1
62
256
6
ByLayer
370
18
48
1
60
0
100
AcDbSpline
70
4
71
3
72
16
73
12
40
0
40
0
40
0
40
0
40
0.124999999999996
40
0.124999999999996
40
0.249999999999992
40
0.249999999999992
40
0.499999999999994
40
0.499999999999994
40
0.749999999999997
40
0.749999999999997
40
1
40
1
40
1
40
1
41
1
10
268.334092521034
20
19.258503007765
30
0
41
1
10
268.317603796393
20
19.250325942998
30
0
41
1
10
268.299170456003
20
19.2471425353794
30
0
41
1
10
268.262349359111
20
19.253197425185
30
0
41
1
10
268.244129308087
20
19.2624194713984
30
0
41
1
10
268.1963417724
20
19.3002478315257
30
0
41
1
10
268.172456777269
20
19.3372531958762
30
0
41
1
10
268.13511737361
20
19.4160806087946
30
0
41
1
10
268.121719490776
20
19.4584249486453
30
0
41
1
10
268.102492291382
20
19.5446979290417
30
0
41
1
10
268.096702102258
20
19.5888694181759
30
0
41
1
10
268.094387563661
20
19.633033445505
30
0
0
SPLINE
5
272
100
AcDbEntity
8
1
62
256
6
ByLayer
370
18
48
1
60
0
100
AcDbSpline
70
4
71
3
72
16
73
12
40
0
40
0
40
0
40
0
40
0.12500000000008
40
0.12500000000008
40
0.25000000000016
40
0.25000000000016
40
0.500000000000106
40
0.500000000000106
40
0.750000000000053
40
0.750000000000053
40
1
40
1
40
1
40
1
41
1
10
271.208980878845
20
19.4091695222845
30
0
41
1
10
271.228328113767
20
19.4028705405767
30
0
41
1
10
271.249120760924
20
19.4017428798557
30
0
41
1
10
271.288935799656
20
19.4118140993421
30
0
41
1
10
271.307779886049
20
19.4229785946886
30
0
41
1
10
271.355426218995
20
19.4658084319393
30
0
41
1
10
271.376908360969
20
19.5051913871979
30
0
41
1
10
271.408122985055
20
19.5876115644713
30
0
41
1
10
271.41770951314
20
19.6311604662565
30
0
41
1
10
271.428709221677
20
19.7190175717721
30
0
41
1
10
271.430047753615
20
19.7635626613463
30
0
41
1
10
271.427733215018
20
19.8077266886754
30
0
0
SPLINE
5
273
100
AcDbEntity
8
1
62
256
6
ByLayer
370
18
48
1
60
0
100
AcDbSpline
70
4
71
3
72
8
73
4
40
0
40
0
40
0
40
0
40
1
40
1
40
1
40
1
41
1
10
270.747442208376
20
20.832374629509
30
0
41
1
10
270.744213150011
20
20.8263515033437
30
0
41
1
10
270.740983867889
20
20.8203276176931
30
0
41
1
10
270.737754353535
20
20.8143029429624
30
0
0
SPLINE
5
274
100
AcDbEntity
8
1
62
256
6
ByLayer
370
18
48
1
60
0
100
AcDbSpline
70
4
71
3
72
18
73
14
40
0
40
0
40
0
40
0
40
0.124999999999978
40
0.124999999999978
40
0.249999999999956
40
0.249999999999956
40
0.499999999999911
40
0.499999999999911
40
0.749999999999867
40
0.749999999999867
40
0.874999999999934
40
0.874999999999934
40
1
40
1
40
1
40
1
41
1
10
269.299940052454
20
21.126482510226
30
0
41
1
10
269.316188166816
20
21.0999849045056
30
0
41
1
10
269.341292680186
20
21.0799042460855
30
0
41
1
10
269.39796058001
20
21.047794381763
30
0
41
1
10
269.429537764999
20
21.0360011410781
30
0
41
1
10
269.528520811087
20
21.0096938061735
30
0
41
1
10
269.600396034659
20
21.0040240908255
30
0
41
1
10
269.744914107685
20
21.0116112733726
30
0
41
1
10
269.817287493506
20
21.0247900136015
30
0
41
1
10
269.918283174777
20
21.0616480600091
30
0
41
1
10
269.950629859739
20
21.0768418677494
30
0
41
1
10
270.008568651469
20
21.1148936165057
30
0
41
1
10
270.034361272449
20
21.1376093791764
30
0
41
1
10
270.051084066841
20
21.1658482999417
30
0
0
SPLINE
5
275
100
AcDbEntity
8
1
62
256
6
ByLayer
370
18
48
1
60
0
100
AcDbSpline
70
4
71
3
72
18
73
14
40
0
40
0
40
0
40
0
40
0.125000000000001
40
0.125000000000001
40
0.250000000000002
40
0.250000000000002
40
0.500000000000002
40
0.500000000000002
40
0.750000000000001
40
0.750000000000001
40
0.875
40
0.875
40
1
40
1
40
1
40
1
41
1
10
270.200587859872
20
18.3131459897806
30
0
41
1
10
270.181014481679
20
18.339469325808
30
0
41
1
10
270.15296593697
20
18.3593956940836
30
0
41
1
10
270.091213532282
20
18.3912390907973
30
0
41
1
10
270.057520675928
20
18.4029214538444
30
0
41
1
10
269.953437717771
20
18.4289615136829
30
0
41
1
10
269.879824775319
20
18.4345401590433
30
0
41
1
10
269.735309044511
20
18.4269530992467
30
0
41
1
10
269.664665063843
20
18.4138649933013
30
0
41
1
10
269.568780543296
20
18.3772748114768
30
0
41
1
10
269.53855667198
20
18.3621922556855
30
0
41
1
10
269.485692363344
20
18.3244064493192
30
0
41
1
10
269.462839748872
20
18.3018447658607
30
0
41
1
10
269.449443845485
20
18.2737802000648
30
0
0
SPLINE
5
276
100
AcDbEntity
8
1
62
256
6
ByLayer
370
18
48
1
60
0
100
AcDbSpline
70
4
71
3
72
8
73
4
40
0
40
0
40
0
40
0
40
1
40
1
40
1
40
1
41
1
10
270.846749998954
20
18.7345421343512
30
0
41
1
10
270.850591571682
20
18.7288880395916
30
0
41
1
10
270.854432830969
20
18.7232347053146
30
0
41
1
10
270.858273788336
20
18.7175821029733
30
0
0
SPLINE
5
277
100
AcDbEntity
8
1
62
256
6
ByLayer
370
18
48
1
60
0
100
AcDbSpline
70
4
71
3
72
16
73
12
40
0
40
0
40
0
40
0
40
0.25
40
0.25
40
0.5
40
0.5
40
0.75
40
0.75
40
0.875
40
0.875
40
1
40
1
40
1
40
1
41
1
10
270.518415199911
20
21.2138687165094
30
0
41
1
10
270.557677049782
20
21.1937683549589
30
0
41
1
10
270.595277892118
20
21.1704518330599
30
0
41
1
10
270.665369817439
20
21.1172392194457
30
0
41
1
10
270.697922117244
20
21.087423537245
30
0
41
1
10
270.752864130495
20
21.0198443999491
30
0
41
1
10
270.775709553839
20
20.9821199500719
30
0
41
1
10
270.787616231699
20
20.9204324403104
30
0
41
1
10
270.787228752104
20
20.8994265308278
30
0
41
1
10
270.774939032063
20
20.8616430184469
30
0
41
1
10
270.763052053172
20
20.8451211454793
30
0
41
1
10
270.747442208376
20
20.832374629509
30
0
0
SPLINE
5
278
100
AcDbEntity
8
1
62
256
6
ByLayer
370
18
48
1
60
0
100
AcDbSpline
70
4
71
3
72
16
73
12
40
0
40
0
40
0
40
0
40
0.125000000000017
40
0.125000000000017
40
0.250000000000034
40
0.250000000000034
40
0.500000000000023
40
0.500000000000023
40
0.750000000000011
40
0.750000000000011
40
1
40
1
40
1
40
1
41
1
10
268.644337391602
20
20.7221555764624
30
0
41
1
10
268.629511891487
20
20.733351550588
30
0
41
1
10
268.618026442117
20
20.7487488730879
30
0
41
1
10
268.605691482587
20
20.7855186262245
30
0
41
1
10
268.604908877842
20
20.8067311348255
30
0
41
1
10
268.614537396034
20
20.8690244416895
30
0
41
1
10
268.634854063493
20
20.9090040692699
30
0
41
1
10
268.684661561669
20
20.9819055027067
30
0
41
1
10
268.714623014291
20
21.0150233282408
30
0
41
1
10
268.779590035318
20
21.0752515141683
30
0
41
1
10
268.814822216223
20
21.1024445278536
30
0
41
1
10
268.851742374233
20
21.1265220949242
30
0
0
SPLINE
5
279
100
AcDbEntity
8
1
62
256
6
ByLayer
370
18
48
1
60
0
100
AcDbSpline
70
4
71
3
72
16
73
12
40
0
40
0
40
0
40
0
40
0.124999999999997
40
0.124999999999997
40
0.249999999999995
40
0.249999999999995
40
0.499999999999996
40
0.499999999999996
40
0.749999999999998
40
0.749999999999998
40
1
40
1
40
1
40
1
41
1
10
269.441060719401
20
18.2562162710204
30
0
41
1
10
269.440444545488
20
18.2368981057253
30
0
41
1
10
269.434560419381
20
18.2183731251636
30
0
41
1
10
269.411988562014
20
18.187758584996
30
0
41
1
10
269.395395022252
20
18.1758123498749
30
0
41
1
10
269.34001632974
20
18.151454176723
30
0
41
1
10
269.296612719756
20
18.148521737658
30
0
41
1
10
269.210625556881
20
18.1545084964831
30
0
41
1
10
269.167610335939
20
18.1637530450772
30
0
41
1
10
269.083864025426
20
18.1898213135096
30
0
41
1
10
269.042940275375
20
18.2068049574125
30
0
41
1
10
269.003705578768
20
18.2268914176711
30
0
0
SPLINE
5
27A
100
AcDbEntity
8
1
62
256
6
ByLayer
370
18
48
1
60
0
100
AcDbSpline
70
4
71
3
72
16
73
12
40
0
40
0
40
0
40
0
40
0.124999999999997
40
0.124999999999997
40
0.249999999999994
40
0.249999999999994
40
0.499999999999996
40
0.499999999999996
40
0.749999999999998
40
0.749999999999998
40
1
40
1
40
1
40
1
41
1
10
270.061550460537
20
21.1835214084153
30
0
41
1
10
270.064260735676
20
21.2029493209053
30
0
41
1
10
270.072272391609
20
21.2215858005806
30
0
41
1
10
270.098672808966
20
21.252400987075
30
0
41
1
10
270.116954161762
20
21.2644356767291
30
0
41
1
10
270.176407577006
20
21.2890073970506
30
0
41
1
10
270.221407292203
20
21.2920234844453
30
0
41
1
10
270.309713933
20
21.2861582843072
30
0
41
1
10
270.35341738297
20
21.2769498042681
30
0
41
1
10
270.438059513298
20
21.2509284837629
30
0
41
1
10
270.479180503305
20
21.2339551767679
30
0
41
1
10
270.518415199911
20
21.2138687165094
30
0
0
SPLINE
5
27B
100
AcDbEntity
8
1
62
256
6
ByLayer
370
18
48
1
60
0
100
AcDbSpline
70
4
71
3
72
8
73
4
40
0
40
0
40
0
40
0
40
1
40
1
40
1
40
1
41
1
10
269.2897669195
20
21.1430739469424
30
0
41
1
10
269.293157333862
20
21.1375441735489
30
0
41
1
10
269.296548370017
20
21.1320137036894
30
0
41
1
10
269.299940052454
20
21.126482510226
30
0
0
SPLINE
5
27C
100
AcDbEntity
8
1
62
256
6
ByLayer
370
18
48
1
60
0
100
AcDbSpline
70
4
71
3
72
8
73
4
40
0
40
0
40
0
40
0
40
1
40
1
40
1
40
1
41
1
10
268.293630301093
20
20.0305681571512
30
0
41
1
10
268.299902416251
20
20.0310433056842
30
0
41
1
10
268.306175521301
20
20.0315185248012
30
0
41
1
10
268.312449655082
20
20.0319938172668
30
0
0
SPLINE
5
27D
100
AcDbEntity
8
1
62
256
6
ByLayer
370
18
48
1
60
0
100
AcDbSpline
70
4
71
3
72
8
73
4
40
0
40
0
40
0
40
0
40
1
40
1
40
1
40
1
41
1
10
268.653777913372
20
20.7050863656553
30
0
41
1
10
268.650630466663
20
20.7107768380181
30
0
41
1
10
268.647483633831
20
20.7164665656435
30
0
41
1
10
268.644337391602
20
20.7221555764624
30
0
0
SPLINE
5
27E
100
AcDbEntity
8
1
62
256
6
ByLayer
370
18
48
1
60
0
100
AcDbSpline
70
4
71
3
72
16
73
12
40
0
40
0
40
0
40
0
40
0.249999999999931
40
0.249999999999931
40
0.499999999999862
40
0.499999999999862
40
0.749999999999794
40
0.749999999999794
40
0.874999999999897
40
0.874999999999897
40
1
40
1
40
1
40
1
41
1
10
268.851742374233
20
21.1265220949242
30
0
41
1
10
268.888688083678
20
21.150616325423
30
0
41
1
10
268.927523307933
20
21.1717392658674
30
0
41
1
10
269.008176517488
20
21.2064602937443
30
0
41
1
10
269.049959266427
20
21.220146442141
30
0
41
1
10
269.135040543031
20
21.2351030347207
30
0
41
1
10
269.178545823115
20
21.236769746764
30
0
41
1
10
269.236556862152
20
21.2179975028641
30
0
41
1
10
269.254017353179
20
21.2078561662969
30
0
41
1
10
269.279415282611
20
21.1798658173804
30
0
41
1
10
269.287144607205
20
21.1621506990513
30
0
41
1
10
269.2897669195
20
21.1430739469424
30
0
0
SPLINE
5
27F
100
AcDbEntity
8
1
62
256
6
ByLayer
370
18
48
1
60
0
100
AcDbSpline
70
4
71
3
72
8
73
4
40
0
40
0
40
0
40
0
40
1
40
1
40
1
40
1
41
1
10
270.212844260438
20
18.2966637324934
30
0
41
1
10
270.208759130938
20
18.3021570974093
30
0
41
1
10
270.204673668328
20
18.3076511739203
30
0
41
1
10
270.200587859872
20
18.3131459897806
30
0
0
SPLINE
5
280
100
AcDbEntity
8
1
62
256
6
ByLayer
370
18
48
1
60
0
100
AcDbSpline
70
4
71
3
72
18
73
14
40
0
40
0
40
0
40
0
40
0.124999999999996
40
0.124999999999996
40
0.249999999999992
40
0.249999999999992
40
0.499999999999991
40
0.499999999999991
40
0.74999999999999
40
0.74999999999999
40
0.874999999999995
40
0.874999999999995
40
1
40
1
40
1
40
1
41
1
10
271.147570109632
20
20.1805761842897
30
0
41
1
10
271.114080638529
20
20.1795235106377
30
0
41
1
10
271.080847969452
20
20.189311921495
30
0
41
1
10
271.017697293633
20
20.2185656855745
30
0
41
1
10
270.987982824586
20
20.2381704479526
30
0
41
1
10
270.904616470686
20
20.3052909974086
30
0
41
1
10
270.856432487232
20
20.3611573385509
30
0
41
1
10
270.777595670404
20
20.4832535188687
30
0
41
1
10
270.747169829482
20
20.5490488662221
30
0
41
1
10
270.721585310678
20
20.6500991430143
30
0
41
1
10
270.716409726893
20
20.6845903243055
30
0
41
1
10
270.716828779963
20
20.7517390742168
30
0
41
1
10
270.722185459357
20
20.7852590951693
30
0
41
1
10
270.737754353535
20
20.8143029429624
30
0
0
SPLINE
5
281
100
AcDbEntity
8
1
62
256
6
ByLayer
370
18
48
1
60
0
100
AcDbSpline
70
4
71
3
72
8
73
4
40
0
40
0
40
0
40
0
40
1
40
1
40
1
40
1
41
1
10
270.051084066841
20
21.1658482999417
30
0
41
1
10
270.054573128153
20
21.1717400979049
30
0
41
1
10
270.058061922796
20
21.1776311244183
30
0
41
1
10
270.061550460537
20
21.1835214084153
30
0
0
SPLINE
5
282
100
AcDbEntity
8
1
62
256
6
ByLayer
370
18
48
1
60
0
100
AcDbSpline
70
4
71
3
72
8
73
4
40
0
40
0
40
0
40
0
40
1
40
1
40
1
40
1
41
1
10
271.188078257244
20
19.4076346827397
30
0
41
1
10
271.195046517044
20
19.4081463528086
30
0
41
1
10
271.202014048549
20
19.4086579652739
30
0
41
1
10
271.208980878845
20
19.4091695222845
30
0
0
SPLINE
5
283
100
AcDbEntity
8
1
62
256
6
ByLayer
370
18
48
1
60
0
100
AcDbSpline
70
4
71
3
72
8
73
4
40
0
40
0
40
0
40
0
40
1
40
1
40
1
40
1
41
1
10
269.449443845485
20
18.2737802000648
30
0
41
1
10
269.446648910192
20
18.2679247797049
30
0
41
1
10
269.443854542004
20
18.2620701465398
30
0
41
1
10
269.441060719401
20
18.2562162710204
30
0
0
SPLINE
5
284
100
AcDbEntity
8
1
62
256
6
ByLayer
370
18
48
1
60
0
100
AcDbSpline
70
4
71
3
72
8
73
4
40
0
40
0
40
0
40
0
40
1
40
1
40
1
40
1
41
1
10
271.168518658904
20
20.1812346716707
30
0
41
1
10
271.161536521365
20
20.1810151942539
30
0
41
1
10
271.154553680662
20
20.1807956986916
30
0
41
1
10
271.147570109632
20
20.1805761842897
30
0
0
SPLINE
5
285
100
AcDbEntity
8
1
62
256
6
ByLayer
370
18
48
1
60
0
100
AcDbSpline
70
4
71
3
72
20
73
16
40
0
40
0
40
0
40
0
40
0.124999999999978
40
0.124999999999978
40
0.249999999999957
40
0.249999999999957
40
0.374999999999935
40
0.374999999999935
40
0.499999999999914
40
0.499999999999914
40
0.749999999999957
40
0.749999999999957
40
0.874999999999978
40
0.874999999999978
40
1
40
1
40
1
40
1
41
1
10
270.846749998954
20
18.7345421343512
30
0
41
1
10
270.828264932066
20
18.7617487830944
30
0
41
1
10
270.81940243763
20
18.7944309018776
30
0
41
1
10
270.811934339819
20
18.8616938023337
30
0
41
1
10
270.813497118066
20
18.8961558557214
30
0
41
1
10
270.823470361392
20
18.9651812309275
30
0
41
1
10
270.832026002271
20
18.9998391513092
30
0
41
1
10
270.854301051587
20
19.0671494257617
30
0
41
1
10
270.868096483195
20
19.1001739089455
30
0
41
1
10
270.917306972891
20
19.1974472493526
30
0
41
1
10
270.959381297132
20
19.2580979737716
30
0
41
1
10
271.035442702759
20
19.3337312722339
30
0
41
1
10
271.063023428129
20
19.3563694759511
30
0
41
1
10
271.122648798
20
19.3919701866065
30
0
41
1
10
271.154641232013
20
19.4051794463549
30
0
41
1
10
271.188078257244
20
19.4076346827397
30
0
0
SPLINE
5
286
100
AcDbEntity
8
1
62
256
6
ByLayer
370
18
48
1
60
0
100
AcDbSpline
70
4
71
1
72
4
73
2
40
0
40
0
40
1
40
1
41
1
10
279.523378065245
20
-18.3783203377244
30
0
41
1
10
280.575391959394
20
-10.4318388187483
30
0
0
SPLINE
5
287
100
AcDbEntity
8
1
62
256
6
ByLayer
370
18
48
1
60
0
100
AcDbSpline
70
4
71
3
72
12
73
8
40
0
40
0
40
0
40
0
40
0.500000000000134
40
0.500000000000134
40
0.750000000000067
40
0.750000000000067
40
1
40
1
40
1
40
1
41
1
10
279.523378065245
20
-18.3783607082196
30
0
41
1
10
279.514478272145
20
-18.4451135653645
30
0
41
1
10
279.485443241102
20
-18.5090089479039
30
0
41
1
10
279.419262089765
20
-18.5855531388939
30
0
41
1
10
279.393387931304
20
-18.6078411034014
30
0
41
1
10
279.336375711402
20
-18.6440210122127
30
0
41
1
10
279.305150504054
20
-18.657407275564
30
0
41
1
10
279.272845438298
20
-18.6675049989569
30
0
0
SPLINE
5
288
100
AcDbEntity
8
1
62
256
6
ByLayer
370
18
48
1
60
0
100
AcDbSpline
70
4
71
1
72
4
73
2
40
0
40
0
40
1
40
1
41
1
10
278.874924004961
20
0.47295462032298
30
0
41
1
10
278.40458777509
20
0.534531835025547
30
0
0
SPLINE
5
289
100
AcDbEntity
8
1
62
256
6
ByLayer
370
18
48
1
60
0
100
AcDbSpline
70
4
71
1
72
4
73
2
40
0
40
0
40
1
40
1
41
1
10
278.82550101667
20
-18.7888567070145
30
0
41
1
10
278.719000600056
20
-17.8902512855676
30
0
0
SPLINE
5
28A
100
AcDbEntity
8
1
62
256
6
ByLayer
370
18
48
1
60
0
100
AcDbSpline
70
4
71
2
72
6
73
3
40
0
40
0
40
0
40
1
40
1
40
1
41
1
10
278.719000600056
20
-17.8902512855676
30
0
41
1
10
278.767328285508
20
-17.8826394216582
30
0
41
1
10
278.814362912676
20
-17.8692273258071
30
0
0
SPLINE
5
28B
100
AcDbEntity
8
1
62
256
6
ByLayer
370
18
48
1
60
0
100
AcDbSpline
70
4
71
3
72
12
73
8
40
0
40
0
40
0
40
0
40
0.250320940065786
40
0.250320940065786
40
0.500642180893726
40
0.500642180893726
40
1
40
1
40
1
40
1
41
1
10
278.82550101667
20
-18.7888987714482
30
0
41
1
10
278.833556568464
20
-18.7876296808365
30
0
41
1
10
278.841593615922
20
-18.7862383715265
30
0
41
1
10
278.857619285076
20
-18.783212233604
30
0
41
1
10
278.865609777562
20
-18.781577050883
30
0
41
1
10
278.889450849063
20
-18.7763183263801
30
0
41
1
10
278.90522897135
20
-18.7723310921834
30
0
41
1
10
278.920863329291
20
-18.76787274414
30
0
0
SPLINE
5
28C
100
AcDbEntity
8
1
62
256
6
ByLayer
370
18
48
1
60
0
100
AcDbSpline
70
4
71
3
72
8
73
4
40
0
40
0
40
0
40
0
40
1
40
1
40
1
40
1
41
1
10
279.266610676903
20
-0.126215541525653
30
0
41
1
10
279.275601985098
20
-0.157397899344744
30
0
41
1
10
279.282649090338
20
-0.189008884033115
30
0
41
1
10
279.287751992622
20
-0.221048495590821
30
0
0
SPLINE
5
28D
100
AcDbEntity
8
1
62
256
6
ByLayer
370
18
48
1
60
0
100
AcDbSpline
70
4
71
3
72
29
73
25
40
0
40
0
40
0
40
0
40
0.0028991049176391
40
0.0106094429802965
40
0.0260301191056113
40
0.0568714713562409
40
0.1185541758575
40
0.241919584860019
40
0.365284993862537
40
0.426967698363796
40
0.484795233833727
40
0.488650402865056
40
0.496360740927713
40
0.50407107899037
40
0.519491755115685
40
0.550333107366315
40
0.612015811867574
40
0.735381220870093
40
0.858746629872611
40
0.978256869843801
40
0.982112038875129
40
0.989822376937787
40
0.997532715000444
40
1
40
1
40
1
40
1
41
1
10
278.669910350585
20
-17.6948682673773
30
0
41
1
10
278.690748849021
20
-17.6857528234854
30
0
41
1
10
278.766626883673
20
-17.6467737627024
30
0
41
1
10
278.924712298436
20
-17.4957667277576
30
0
41
1
10
278.942236994431
20
-17.1114431733055
30
0
41
1
10
279.044100052748
20
-16.4847225304996
30
0
41
1
10
279.203726719381
20
-15.1830688890447
30
0
41
1
10
279.454968104075
20
-13.3448281249544
30
0
41
1
10
279.69319915112
20
-11.4994573734564
30
0
41
1
10
279.894013606233
20
-10.0484582022206
30
0
41
1
10
279.990790981292
20
-9.31013188788143
30
0
41
1
10
280.044538627898
20
-8.88423037965956
30
0
41
1
10
280.037225230225
20
-8.74874775779875
30
0
41
1
10
279.993251801711
20
-8.56046675612512
30
0
41
1
10
279.951251521238
20
-8.24276505710176
30
0
41
1
10
279.843095761827
20
-7.5984260538078
30
0
41
1
10
279.642068209833
20
-6.3131296769867
30
0
41
1
10
279.347733134507
20
-4.47609334522593
30
0
41
1
10
279.000292452616
20
-2.29490665514661
30
0
41
1
10
278.766602387021
20
-0.825617018953324
30
0
41
1
10
278.643105911494
20
-0.0342449496458528
30
0
41
1
10
278.5905900438
20
0.112226722076713
30
0
41
1
10
278.486238499221
20
0.220260202786619
30
0
41
1
10
278.420924152445
20
0.256127932332191
30
0
41
1
10
278.404824990265
20
0.263572295628592
30
0
0
SPLINE
5
28E
100
AcDbEntity
8
1
62
256
6
ByLayer
370
18
48
1
60
0
100
AcDbSpline
70
4
71
2
72
6
73
3
40
0
40
0
40
0
40
1
40
1
40
1
41
1
10
278.807359657893
20
0.0939220307665494
30
0
41
1
10
278.799705304485
20
0.141981448036916
30
0
41
1
10
278.78621834217
20
0.188754984831178
30
0
0
SPLINE
5
28F
100
AcDbEntity
8
1
62
256
6
ByLayer
370
18
48
1
60
0
100
AcDbSpline
70
4
71
1
72
4
73
2
40
0
40
0
40
1
40
1
41
1
10
280.575391959394
20
-10.4318388187483
30
0
41
1
10
280.651182905473
20
-9.85934509440267
30
0
0
SPLINE
5
290
100
AcDbEntity
8
1
62
256
6
ByLayer
370
18
48
1
60
0
100
AcDbSpline
70
4
71
3
72
10
73
6
40
0
40
0
40
0
40
0
40
0.508113577185435
40
0.508113577185435
40
1
40
1
40
1
40
1
41
1
10
278.920863329291
20
-18.76787274414
30
0
41
1
10
278.980847061025
20
-18.7507675739902
30
0
41
1
10
279.040830793175
20
-18.7336640428443
30
0
41
1
10
279.15888261188
20
-18.700001783919
30
0
41
1
10
279.216950699014
20
-18.6834430346245
30
0
41
1
10
279.275018785655
20
-18.666885280894
30
0
0
SPLINE
5
291
100
AcDbEntity
8
1
62
256
6
ByLayer
370
18
48
1
60
0
100
AcDbSpline
70
4
71
1
72
4
73
2
40
0
40
0
40
1
40
1
41
1
10
280.685500644908
20
-8.99709816373752
30
0
41
1
10
280.635956809874
20
-8.68602710220875
30
0
0
SPLINE
5
292
100
AcDbEntity
8
1
62
256
6
ByLayer
370
18
48
1
60
0
100
AcDbSpline
70
4
71
2
72
12
73
9
40
0
40
0
40
0
40
0.25
40
0.5
40
0.5
40
0.75
40
0.75
40
0.875
40
1
40
1
40
1
41
1
10
278.827938951171
20
-17.8653560688095
30
0
41
1
10
278.876423071319
20
-17.851530644739
30
0
41
1
10
278.962153049934
20
-17.7974207093495
30
0
41
1
10
278.996418576798
20
-17.7582046737479
30
0
41
1
10
279.029188915896
20
-17.7206998430222
30
0
41
1
10
279.050755610051
20
-17.6733531310809
30
0
41
1
10
279.060771554246
20
-17.6513645026327
30
0
41
1
10
279.075054536062
20
-17.6020235783493
30
0
41
1
10
279.078471578094
20
-17.5762126441714
30
0
0
SPLINE
5
293
100
AcDbEntity
8
1
62
256
6
ByLayer
370
18
48
1
60
0
100
AcDbSpline
70
4
71
2
72
12
73
9
40
0
40
0
40
0
40
0.25
40
0.5
40
0.5
40
0.75
40
0.75
40
0.875
40
1
40
1
40
1
41
1
10
278.782325475778
20
0.202255662392076
30
0
41
1
10
278.768422878046
20
0.250470645996188
30
0
41
1
10
278.714010900424
20
0.335724735392262
30
0
41
1
10
278.674575960507
20
0.369800053464843
30
0
41
1
10
278.636861777416
20
0.40238848360687
30
0
41
1
10
278.589250775633
20
0.423835460513203
30
0
41
1
10
278.567139406426
20
0.433795805958226
30
0
41
1
10
278.517523060578
20
0.447999502594286
30
0
41
1
10
278.491568049496
20
0.4513975765434
30
0
0
SPLINE
5
294
100
AcDbEntity
8
1
62
256
6
ByLayer
370
18
48
1
60
0
100
AcDbSpline
70
4
71
1
72
4
73
2
40
0
40
0
40
1
40
1
41
1
10
280.713955758087
20
-9.38518470929353
30
0
41
1
10
280.217724283879
20
-8.97076491927851
30
0
0
SPLINE
5
295
100
AcDbEntity
8
1
62
256
6
ByLayer
370
18
48
1
60
0
100
AcDbSpline
70
4
71
1
72
4
73
2
40
0
40
0
40
1
40
1
41
1
10
280.545353115106
20
-8.11715334647241
30
0
41
1
10
279.287751992621
20
-0.221048495590821
30
0
0
SPLINE
5
296
100
AcDbEntity
8
1
62
256
6
ByLayer
370
18
48
1
60
0
100
AcDbSpline
70
4
71
3
72
8
73
4
40
0
40
0
40
0
40
0
40
1
40
1
40
1
40
1
41
1
10
280.720733060269
20
-9.27092982836231
30
0
41
1
10
280.721236224146
20
-9.30915315847989
30
0
41
1
10
280.71886374624
20
-9.34725471073108
30
0
41
1
10
280.714932053524
20
-9.38528453399368
30
0
0
SPLINE
5
297
100
AcDbEntity
8
1
62
256
6
ByLayer
370
18
48
1
60
0
100
AcDbSpline
70
4
71
1
72
4
73
2
40
0
40
0
40
1
40
1
41
1
10
279.272845438298
20
-18.6674637623611
30
0
41
1
10
278.82793895117
20
-17.8653560688091
30
0
0
SPLINE
5
298
100
AcDbEntity
8
1
62
256
6
ByLayer
370
18
48
1
60
0
100
AcDbSpline
70
4
71
1
72
4
73
2
40
0
40
0
40
1
40
1
41
1
10
280.692627802729
20
-9.54628733734802
30
0
41
1
10
280.713955758087
20
-9.38518470929347
30
0
0
SPLINE
5
299
100
AcDbEntity
8
1
62
256
6
ByLayer
370
18
48
1
60
0
100
AcDbSpline
70
4
71
1
72
4
73
2
40
0
40
0
40
1
40
1
41
1
10
279.16568143125
20
0.223812706176005
30
0
41
1
10
278.782325475778
20
0.202255662391963
30
0
0
SPLINE
5
29A
100
AcDbEntity
8
1
62
256
6
ByLayer
370
18
48
1
60
0
100
AcDbSpline
70
4
71
1
72
4
73
2
40
0
40
0
40
1
40
1
41
1
10
280.635956809874
20
-8.68602710220875
30
0
41
1
10
280.545353115106
20
-8.11715334647241
30
0
0
SPLINE
5
29B
100
AcDbEntity
8
1
62
256
6
ByLayer
370
18
48
1
60
0
100
AcDbSpline
70
4
71
1
72
4
73
2
40
0
40
0
40
1
40
1
41
1
10
278.814362912676
20
-17.8692273258071
30
0
41
1
10
278.920863329291
20
-18.76783274725
30
0
0
SPLINE
5
29C
100
AcDbEntity
8
1
62
256
6
ByLayer
370
18
48
1
60
0
100
AcDbSpline
70
4
71
1
72
4
73
2
40
0
40
0
40
1
40
1
41
1
10
280.71095054147
20
-9.15689052405236
30
0
41
1
10
280.685500644908
20
-8.99709816373752
30
0
0
SPLINE
5
29D
100
AcDbEntity
8
1
62
256
6
ByLayer
370
18
48
1
60
0
100
AcDbSpline
70
4
71
3
72
9
73
5
40
0
40
0
40
0
40
0
40
0.790322560680451
40
1
40
1
40
1
40
1
41
1
10
279.791890772743
20
-8.79894532860209
30
0
41
1
10
279.792184394362
20
-8.81435310753872
30
0
41
1
10
279.791631462311
20
-8.83418263558872
30
0
41
1
10
279.789826207857
20
-8.85534572714727
30
0
41
1
10
279.789403973722
20
-8.85982993330398
30
0
0
SPLINE
5
29E
100
AcDbEntity
8
1
62
256
6
ByLayer
370
18
48
1
60
0
100
AcDbSpline
70
4
71
1
72
4
73
2
40
0
40
0
40
1
40
1
41
1
10
279.078471578094
20
-17.5762126441711
30
0
41
1
10
279.523378065245
20
-18.3783203377244
30
0
0
SPLINE
5
29F
100
AcDbEntity
8
1
62
256
6
ByLayer
370
18
48
1
60
0
100
AcDbSpline
70
4
71
3
72
26
73
22
40
0
40
0
40
0
40
0
40
0.0032085846322376
40
0.0189368011013579
40
0.0503932340395984
40
0.11330609991608
40
0.239131831669042
40
0.364957563422004
40
0.427870429298485
40
0.486851241057687
40
0.490783295174966
40
0.498647403409527
40
0.506511511644087
40
0.522239728113207
40
0.553696161051448
40
0.616609026927929
40
0.742434758680891
40
0.868260490433853
40
0.990154168069536
40
0.994086222186816
40
1
40
1
40
1
40
1
41
1
10
278.711771621219
20
-17.4836626913811
30
0
41
1
10
278.72335042501
20
-17.471277565
30
0
41
1
10
278.783886644919
20
-17.3916955053346
30
0
41
1
10
278.797874434102
20
-17.0849377242539
30
0
41
1
10
278.900617856292
20
-16.4528005720561
30
0
41
1
10
279.060023859707
20
-15.152946298387
30
0
41
1
10
279.311326984383
20
-13.3142538055605
30
0
41
1
10
279.549573542462
20
-11.4687629034412
30
0
41
1
10
279.750407127535
20
-10.0176255073127
30
0
41
1
10
279.847072831557
20
-9.28015114484268
30
0
41
1
10
279.899163153968
20
-8.86738243253805
30
0
41
1
10
279.893224334606
20
-8.75736423662181
30
0
41
1
10
279.850520348684
20
-8.57451860651176
30
0
41
1
10
279.807926261423
20
-8.2523251892564
30
0
41
1
10
279.700051845854
20
-7.60966229467644
30
0
41
1
10
279.49894197451
20
-6.3238395981482
30
0
41
1
10
279.204638807005
20
-4.48700241297203
30
0
41
1
10
278.857185227814
20
-2.30573475535078
30
0
41
1
10
278.623459614205
20
-0.836221616594656
30
0
41
1
10
278.503803067062
20
-0.0694560152732038
30
0
41
1
10
278.486660903366
20
-0.0162940493871133
30
0
41
1
10
278.47253097788
20
0.0128862032145491
30
0
0
SPLINE
5
2A0
100
AcDbEntity
8
1
62
256
6
ByLayer
370
18
48
1
60
0
100
AcDbSpline
70
4
71
3
72
8
73
4
40
0
40
0
40
0
40
0
40
1
40
1
40
1
40
1
41
1
10
280.71191458023
20
-9.15676639978449
30
0
41
1
10
280.716850494165
20
-9.19468042471911
30
0
41
1
10
280.720229899271
20
-9.23270671696056
30
0
41
1
10
280.720733060269
20
-9.27092982836231
30
0
0
SPLINE
5
2A1
100
AcDbEntity
8
1
62
256
6
ByLayer
370
18
48
1
60
0
100
AcDbSpline
70
4
71
1
72
4
73
2
40
0
40
0
40
1
40
1
41
1
10
279.287751992621
20
-0.22104849559085
30
0
41
1
10
278.807359657893
20
0.0939220307665494
30
0
0
SPLINE
5
2A2
100
AcDbEntity
8
1
62
256
6
ByLayer
370
18
48
1
60
0
100
AcDbSpline
70
4
71
1
72
4
73
2
40
0
40
0
40
1
40
1
41
1
10
280.214719067321
20
-8.7424707340308
30
0
41
1
10
280.71095054147
20
-9.15689052405233
30
0
0
SPLINE
5
2A3
100
AcDbEntity
8
1
62
256
6
ByLayer
370
18
48
1
60
0
100
AcDbSpline
70
4
71
1
72
4
73
2
40
0
40
0
40
1
40
1
41
1
10
278.78621834217
20
0.188754984831178
30
0
41
1
10
279.266610676903
20
-0.126215541525625
30
0
0
SPLINE
5
2A4
100
AcDbEntity
8
1
62
256
6
ByLayer
370
18
48
1
60
0
100
AcDbSpline
70
4
71
1
72
4
73
2
40
0
40
0
40
1
40
1
41
1
10
278.491568049495
20
0.451397576543428
30
0
41
1
10
278.874924004961
20
0.47295462032298
30
0
0
SPLINE
5
2A5
100
AcDbEntity
8
1
62
256
6
ByLayer
370
18
48
1
60
0
100
AcDbSpline
70
4
71
3
72
12
73
8
40
0
40
0
40
0
40
0
40
0.499999999999845
40
0.499999999999845
40
0.749999999999922
40
0.749999999999922
40
1
40
1
40
1
40
1
41
1
10
278.874924004961
20
0.472914249827852
30
0
41
1
10
278.942049435563
20
0.464063818228993
30
0
41
1
10
279.006300339793
20
0.435188824694052
30
0
41
1
10
279.083272678905
20
0.369375919328832
30
0
41
1
10
279.105684951036
20
0.343645285508984
30
0
41
1
10
279.142066529655
20
0.286949256617106
30
0
41
1
10
279.155527430509
20
0.255897296877805
30
0
41
1
10
279.16568143125
20
0.22377146958047
30
0
0
SPLINE
5
2A6
100
AcDbEntity
8
1
62
256
6
ByLayer
370
18
48
1
60
0
100
AcDbSpline
70
4
71
2
72
7
73
4
40
0
40
0
40
0
40
0.5
40
1
40
1
40
1
41
1
10
280.217724283879
20
-8.97076491927805
30
0
41
1
10
280.225216423567
20
-8.91417236848343
30
0
41
1
10
280.223790374577
20
-8.79942678482266
30
0
41
1
10
280.214719067322
20
-8.74247073403126
30
0
0
SPLINE
5
2A7
100
AcDbEntity
8
1
62
256
6
ByLayer
370
18
48
1
60
0
100
AcDbSpline
70
4
71
1
72
4
73
2
40
0
40
0
40
1
40
1
41
1
10
280.651182905473
20
-9.85934509440267
30
0
41
1
10
280.692627802729
20
-9.54628733734802
30
0
0
SPLINE
5
2A8
100
AcDbEntity
8
1
62
256
6
ByLayer
370
18
48
1
60
0
100
AcDbSpline
70
4
71
3
72
8
73
4
40
0
40
0
40
0
40
0
40
1
40
1
40
1
40
1
41
1
10
278.920863329291
20
-18.7678327472499
30
0
41
1
10
278.889506911172
20
-18.7767741444938
30
0
41
1
10
278.857719473632
20
-18.783782131082
30
0
41
1
10
278.82550101667
20
-18.7888567070146
30
0
0
SPLINE
5
2A9
100
AcDbEntity
8
1
62
256
6
ByLayer
370
13
48
1
60
0
100
AcDbSpline
70
4
71
3
72
24
73
20
40
0
40
0
40
0
40
0
40
0.125000000000015
40
0.125000000000015
40
0.25000000000003
40
0.25000000000003
40
0.375000000000046
40
0.375000000000046
40
0.500000000000061
40
0.500000000000061
40
0.625000000000076
40
0.625000000000076
40
0.750000000000092
40
0.750000000000092
40
0.8125000000001
40
0.8125000000001
40
0.875000000000108
40
0.875000000000108
40
1
40
1
40
1
40
1
41
1
10
279.240707282623
20
29.4695056104982
30
0
41
1
10
279.232521551861
20
29.5252290856905
30
0
41
1
10
279.218454013587
20
29.5788991563038
30
0
41
1
10
279.179223222151
20
29.6823656597578
30
0
41
1
10
279.153979888664
20
29.7326752710605
30
0
41
1
10
279.093016245982
20
29.826785415652
30
0
41
1
10
279.05743251293
20
29.8707962352789
30
0
41
1
10
278.978978011295
20
29.9493316202234
30
0
41
1
10
278.935932113955
20
29.9841423901964
30
0
41
1
10
278.84236326366
20
30.0450371058108
30
0
41
1
10
278.792391174821
20
30.070449242904
30
0
41
1
10
278.68925647226
20
30.1102419319138
30
0
41
1
10
278.635101168589
20
30.1249300082027
30
0
41
1
10
278.552709322844
20
30.1385119908294
30
0
41
1
10
278.525207767
20
30.1415419740532
30
0
41
1
10
278.470137181477
20
30.1449154497144
30
0
41
1
10
278.442565925021
20
30.1451702823479
30
0
41
1
10
278.359874223895
20
30.1468134338698
30
0
41
1
10
278.304737737627
20
30.1475630517379
30
0
41
1
10
278.249586202938
20
30.1477135122457
30
0
0
SPLINE
5
2AA
100
AcDbEntity
8
1
62
256
6
ByLayer
370
13
48
1
60
0
100
AcDbSpline
70
4
71
3
72
18
73
14
40
0
40
0
40
0
40
0
40
0.500000000000012
40
0.500000000000012
40
0.750000000000031
40
0.750000000000031
40
0.87500000000004
40
0.87500000000004
40
0.90625000000003
40
0.90625000000003
40
0.93750000000002
40
0.93750000000002
40
1
40
1
40
1
40
1
41
1
10
270.222288826214
20
11.8036693214455
30
0
41
1
10
271.352501020454
20
11.8629012326643
30
0
41
1
10
272.482713443815
20
11.9221281110139
30
0
41
1
10
274.178031781616
20
12.0109760351805
30
0
41
1
10
274.743137390054
20
12.0406045561497
30
0
41
1
10
275.590796628216
20
12.0850267946462
30
0
41
1
10
275.873350680093
20
12.0998100067403
30
0
41
1
10
276.226541377347
20
12.1183354975167
30
0
41
1
10
276.297179002362
20
12.1220533975665
30
0
41
1
10
276.438456118226
20
12.1294427658042
30
0
41
1
10
276.50905454976
20
12.134136008235
30
0
41
1
10
276.721323485942
20
12.1364290124434
30
0
41
1
10
276.863348097759
20
12.1252167033347
30
0
41
1
10
277.005933633641
20
12.1000456183777
30
0
0
SPLINE
5
2AB
100
AcDbEntity
8
1
62
256
6
ByLayer
370
13
48
1
60
0
100
AcDbSpline
70
4
71
1
72
4
73
2
40
0
40
0
40
1
40
1
41
1
10
258.63833433748
20
19.2084821331548
30
0
41
1
10
258.582336318056
20
19.2052020940397
30
0
0
SPLINE
5
2AC
100
AcDbEntity
8
1
62
256
6
ByLayer
370
13
48
1
60
0
100
AcDbSpline
70
4
71
3
72
9
73
5
40
0
40
0
40
0
40
0
40
0.806009473584779
40
1
40
1
40
1
40
1
41
1
10
277.978234069998
20
30.1443352338197
30
0
41
1
10
277.959030098619
20
30.1438036891264
30
0
41
1
10
277.935218890825
20
30.1427141406637
30
0
41
1
10
277.911406729466
20
30.1416648625093
30
0
41
1
10
277.906787370755
20
30.1414623680604
30
0
0
SPLINE
5
2AD
100
AcDbEntity
8
1
62
256
6
ByLayer
370
13
48
1
60
0
100
AcDbSpline
70
4
71
3
72
24
73
20
40
0
40
0
40
0
40
0
40
0.0436863032256121
40
0.0436863032256121
40
0.0873726064512244
40
0.0873726064512244
40
0.131058909676837
40
0.131058909676837
40
0.174745212902449
40
0.174745212902449
40
0.262117819353674
40
0.262117819353674
40
0.349490425804899
40
0.349490425804899
40
0.52423563870735
40
0.52423563870735
40
0.6989808516098
40
0.6989808516098
40
1
40
1
40
1
40
1
41
1
10
260.305503922022
20
9.9732478714206
30
0
41
1
10
260.308557145577
20
9.95615377622823
30
0
41
1
10
260.312259246258
20
9.93743443426575
30
0
41
1
10
260.320167122979
20
9.9006610378726
30
0
41
1
10
260.324214184373
20
9.88347926117254
30
0
41
1
10
260.331717662981
20
9.85377863337851
30
0
41
1
10
260.3352554486
20
9.84081493230744
30
0
41
1
10
260.341856989216
20
9.81773618145547
30
0
41
1
10
260.344968761083
20
9.8074574656714
30
0
41
1
10
260.353813083563
20
9.7793600923919
30
0
41
1
10
260.359109663915
20
9.76409939524797
30
0
41
1
10
260.36906481955
20
9.73720367153194
30
0
41
1
10
260.373677193456
20
9.72573424527681
30
0
41
1
10
260.386837778122
20
9.69499100115263
30
0
41
1
10
260.394678971834
20
9.67941283939538
30
0
41
1
10
260.409370704782
20
9.65332969823808
30
0
41
1
10
260.416186763898
20
9.6429817457055
30
0
41
1
10
260.43377194765
20
9.61975173609864
30
0
41
1
10
260.443831338217
20
9.61036817152993
30
0
41
1
10
260.453213692025
20
9.60433539994733
30
0
0
SPLINE
5
2AE
100
AcDbEntity
8
1
62
256
6
ByLayer
370
13
48
1
60
0
100
AcDbSpline
70
4
71
3
72
8
73
4
40
0
40
0
40
0
40
0
40
1
40
1
40
1
40
1
41
1
10
260.169619731773
20
29.1836473219461
30
0
41
1
10
260.108542251337
20
29.1898645664249
30
0
41
1
10
260.047531781405
20
29.196072736922
30
0
41
1
10
259.986414185608
20
29.2022954055033
30
0
0
SPLINE
5
2AF
100
AcDbEntity
8
1
62
256
6
ByLayer
370
13
48
1
60
0
100
AcDbSpline
70
4
71
3
72
28
73
24
40
0
40
0
40
0
40
0
40
0.125000000000184
40
0.125000000000184
40
0.250000000000369
40
0.250000000000369
40
0.375000000000553
40
0.375000000000553
40
0.500000000000738
40
0.500000000000738
40
0.625000000000922
40
0.625000000000922
40
0.687500000000905
40
0.687500000000905
40
0.750000000000887
40
0.750000000000887
40
0.781250000000776
40
0.781250000000776
40
0.812500000000665
40
0.812500000000665
40
0.875000000000443
40
0.875000000000443
40
1
40
1
40
1
40
1
41
1
10
279.458104815314
20
10.5897841170727
30
0
41
1
10
279.439407248922
20
10.579036399384
30
0
41
1
10
279.41957898587
20
10.56842797763
30
0
41
1
10
279.37704834621
20
10.5475652099295
30
0
41
1
10
279.354149298498
20
10.5372463215774
30
0
41
1
10
279.30564889395
20
10.5176859807272
30
0
41
1
10
279.280017785602
20
10.508387138596
30
0
41
1
10
279.224992918084
20
10.4911009630165
30
0
41
1
10
279.195964664653
20
10.4833084280841
30
0
41
1
10
279.136590725435
20
10.4705849334237
30
0
41
1
10
279.106341022066
20
10.465683706908
30
0
41
1
10
279.06285105046
20
10.461082584203
30
0
41
1
10
279.048491665569
20
10.4599701395229
30
0
41
1
10
279.020302478501
20
10.4581901927068
30
0
41
1
10
279.006346434422
20
10.4574382451276
30
0
41
1
10
278.985821582165
20
10.4567179910646
30
0
41
1
10
278.978947997222
20
10.4564460596693
30
0
41
1
10
278.964614828186
20
10.4553184124157
30
0
41
1
10
278.95719851622
20
10.4545040811542
30
0
41
1
10
278.934687857705
20
10.4517909964348
30
0
41
1
10
278.919878594612
20
10.4501833887195
30
0
41
1
10
278.87673917476
20
10.44667024802
30
0
41
1
10
278.848196658903
20
10.4445488429644
30
0
41
1
10
278.81995170074
20
10.4427299179933
30
0
0
SPLINE
5
2B0
100
AcDbEntity
8
1
62
256
6
ByLayer
370
13
48
1
60
0
100
AcDbSpline
70
4
71
2
72
6
73
3
40
0
40
0
40
0
40
1
40
1
40
1
41
1
10
258.906208335083
20
19.0828150969297
30
0
41
0.997409491337352
10
258.905443084332
20
19.1405052113262
30
0
41
1
10
258.91292727077
20
19.1977047589284
30
0
0
SPLINE
5
2B1
100
AcDbEntity
8
1
62
256
6
ByLayer
370
13
48
1
60
0
100
AcDbSpline
70
4
71
1
72
4
73
2
40
0
40
0
40
1
40
1
41
1
10
258.645757890198
20
19.0668323090348
30
0
41
1
10
258.906208335083
20
19.0828150969297
30
0
0
SPLINE
5
2B2
100
AcDbEntity
8
1
62
256
6
ByLayer
370
13
48
1
60
0
100
AcDbSpline
70
4
71
3
72
9
73
5
40
0
40
0
40
0
40
0
40
0.806009473584236
40
1
40
1
40
1
40
1
41
1
10
259.915058582616
20
29.197684319726
30
0
41
1
10
259.934212914181
20
29.1991630485071
30
0
41
1
10
259.958007570514
20
29.2005684176641
30
0
41
1
10
259.981798965794
20
29.2020139361991
30
0
41
1
10
259.986414185609
20
29.2022954055033
30
0
0
SPLINE
5
2B3
100
AcDbEntity
8
1
62
256
6
ByLayer
370
13
48
1
60
0
100
AcDbSpline
70
4
71
3
72
8
73
4
40
0
40
0
40
0
40
0
40
1
40
1
40
1
40
1
41
1
10
278.249586202938
20
30.1477135122457
30
0
41
1
10
278.159169970163
20
30.1479601794032
30
0
41
1
10
278.068718919547
20
30.1468205638891
30
0
41
1
10
277.978234069998
20
30.1443352338197
30
0
0
SPLINE
5
2B4
100
AcDbEntity
8
1
62
256
6
ByLayer
370
13
48
1
60
0
100
AcDbSpline
70
4
71
1
72
4
73
2
40
0
40
0
40
1
40
1
41
1
10
258.91292727077
20
19.1977047589284
30
0
41
1
10
258.651978388186
20
19.1731989933618
30
0
0
SPLINE
5
2B5
100
AcDbEntity
8
1
62
256
6
ByLayer
370
13
48
1
60
0
100
AcDbSpline
70
4
71
3
72
9
73
5
40
0
40
0
40
0
40
0
40
0.806009473584748
40
1
40
1
40
1
40
1
41
1
10
261.598703579957
20
9.29929773085161
30
0
41
1
10
261.617907551336
20
9.29982927554488
30
0
41
1
10
261.641718759131
20
9.30091882400765
30
0
41
1
10
261.665530920489
20
9.30196810216205
30
0
41
1
10
261.6701502792
20
9.30217059661095
30
0
0
SPLINE
5
2B6
100
AcDbEntity
8
1
62
256
6
ByLayer
370
13
48
1
60
0
100
AcDbSpline
70
4
71
3
72
20
73
16
40
0
40
0
40
0
40
0
40
0.0624999999999541
40
0.0624999999999541
40
0.124999999999908
40
0.124999999999908
40
0.140624999999902
40
0.140624999999902
40
0.156249999999896
40
0.156249999999896
40
0.187499999999907
40
0.187499999999907
40
0.249999999999905
40
0.499999999999944
40
1
40
1
40
1
40
1
41
1
10
276.685662827613
20
28.5212989215926
30
0
41
1
10
276.555263352087
20
28.434091121502
30
0
41
1
10
276.4176661205
20
28.3629047287433
30
0
41
1
10
276.128625414937
20
28.2513521443429
30
0
41
1
10
275.975497804409
20
28.2110407849987
30
0
41
1
10
275.784424159536
20
28.1828679855687
30
0
41
1
10
275.746139894994
20
28.178285196726
30
0
41
1
10
275.66942892123
20
28.1712741881938
30
0
41
1
10
275.63098393155
20
28.1691224723888
30
0
41
1
10
275.515616340437
20
28.1631607552966
30
0
41
1
10
275.438710958493
20
28.1590902979277
30
0
41
1
10
275.207986903135
20
28.1469985625592
30
0
41
1
10
274.438906718608
20
28.1066927779976
30
0
41
1
10
272.439298238841
20
28.0018977381375
30
0
41
1
10
270.593505795966
20
27.905163855189
30
0
41
1
10
269.362977500723
20
27.8406745998903
30
0
0
SPLINE
5
2B7
100
AcDbEntity
8
1
62
256
6
ByLayer
370
13
48
1
60
0
100
AcDbSpline
70
4
71
3
72
22
73
18
40
0
40
0
40
0
40
0
40
0.0624999999999779
40
0.0624999999999779
40
0.0937499999999566
40
0.0937499999999566
40
0.124999999999935
40
0.124999999999935
40
0.156249999999914
40
0.156249999999914
40
0.171874999999903
40
0.171874999999903
40
0.187499999999893
40
0.187499999999893
40
0.249999999999894
40
0.499999999999922
40
1
40
1
40
1
40
1
41
1
10
262.799665173501
20
11.0898078065087
30
0
41
1
10
262.932723485958
20
11.1787937680412
30
0
41
1
10
263.072890061535
20
11.2526857022291
30
0
41
1
10
263.293501324787
20
11.3415217092981
30
0
41
1
10
263.369147691613
20
11.3675540938924
30
0
41
1
10
263.522280822443
20
11.4114910204952
30
0
41
1
10
263.599171817327
20
11.4292463312963
30
0
41
1
10
263.753573034724
20
11.4567154502012
30
0
41
1
10
263.831076154019
20
11.4665215031543
30
0
41
1
10
263.947803657231
20
11.4750903242098
30
0
41
1
10
263.986794495995
20
11.4768859898879
30
0
41
1
10
264.064738854902
20
11.4809619536833
30
0
41
1
10
264.103710396916
20
11.4830082135969
30
0
41
1
10
264.298569582563
20
11.4932203507896
30
0
41
1
10
265.078006325148
20
11.5340688995601
30
0
41
1
10
267.104541855871
20
11.6402751263634
30
0
41
1
10
268.975190038076
20
11.7383116434127
30
0
41
1
10
270.222288826213
20
11.8036693214455
30
0
0
SPLINE
5
2B8
100
AcDbEntity
8
1
62
256
6
ByLayer
370
13
48
1
60
0
100
AcDbSpline
70
4
71
1
72
4
73
2
40
0
40
0
40
1
40
1
41
1
10
259.915058582616
20
29.197684319726
30
0
41
1
10
260.1223222825
20
28.9621718108373
30
0
0
SPLINE
5
2B9
100
AcDbEntity
8
1
62
256
6
ByLayer
370
13
48
1
60
0
100
AcDbSpline
70
4
71
2
72
6
73
3
40
0
40
0
40
0
40
1
40
1
40
1
41
1
10
258.651978388186
20
19.1731989933619
30
0
41
0.999139328225398
10
258.649680286603
20
19.1556352445209
30
0
41
0.998850556413361
10
258.648220910473
20
19.1379808284736
30
0
0
SPLINE
5
2BA
100
AcDbEntity
8
1
62
256
6
ByLayer
370
13
48
1
60
0
100
AcDbSpline
70
4
71
3
72
24
73
20
40
0
40
0
40
0
40
0
40
0.0612470952989576
40
0.0612470952989576
40
0.122494190597915
40
0.122494190597915
40
0.183741285896873
40
0.183741285896873
40
0.244988381195831
40
0.244988381195831
40
0.367482571793748
40
0.367482571793748
40
0.489976762391666
40
0.489976762391666
40
0.734965143587502
40
0.734965143587502
40
0.979953524783338
40
0.979953524783338
40
1
40
1
40
1
40
1
41
1
10
279.599428430143
20
10.984399608546
30
0
41
1
10
279.598178751968
20
10.9670800078298
30
0
41
1
10
279.59645363583
20
10.9480762374859
30
0
41
1
10
279.592432945899
20
10.9106776914043
30
0
41
1
10
279.590204039446
20
10.8931670051664
30
0
41
1
10
279.585846226659
20
10.8628447534306
30
0
41
1
10
279.583682897152
20
10.8495822695766
30
0
41
1
10
279.579529906826
20
10.825939897641
30
0
41
1
10
279.577509599937
20
10.815392221006
30
0
41
1
10
279.571650702832
20
10.7865242846398
30
0
41
1
10
279.567978314922
20
10.7707935437867
30
0
41
1
10
279.560889063339
20
10.7430045605393
30
0
41
1
10
279.557500838002
20
10.7311158406449
30
0
41
1
10
279.54762589246
20
10.699165355538
30
0
41
1
10
279.541456014936
20
10.682852904652
30
0
41
1
10
279.529571195501
20
10.6553769454031
30
0
41
1
10
279.523874131045
20
10.6443732078521
30
0
41
1
10
279.517889812659
20
10.6344629922605
30
0
41
1
10
279.517438316676
20
10.6337255887034
30
0
41
1
10
279.516987941808
20
10.6330001481767
30
0
0
SPLINE
5
2BB
100
AcDbEntity
8
1
62
256
6
ByLayer
370
13
48
1
60
0
100
AcDbSpline
70
4
71
1
72
4
73
2
40
0
40
0
40
1
40
1
41
1
10
258.915972435203
20
18.9681383266962
30
0
41
1
10
258.654797650062
20
18.9606627233045
30
0
0
SPLINE
5
2BC
100
AcDbEntity
8
1
62
256
6
ByLayer
370
13
48
1
60
0
100
AcDbSpline
70
4
71
3
72
10
73
6
40
0
40
0
40
0
40
0
40
0.5
40
0.5
40
1
40
1
40
1
40
1
41
1
10
262.627935535841
20
10.7506999628592
30
0
41
1
10
262.624186919158
20
10.7505035061835
30
0
41
1
10
262.603800894354
20
10.7505551080107
30
0
41
1
10
262.542490327672
20
10.7510479662403
30
0
41
1
10
262.501556841819
20
10.7514816629657
30
0
41
1
10
262.462332311568
20
10.7519513669696
30
0
0
SPLINE
5
2BD
100
AcDbEntity
8
1
62
256
6
ByLayer
370
13
48
1
60
0
100
AcDbSpline
70
4
71
3
72
10
73
6
40
0
40
0
40
0
40
0
40
0.381050048122161
40
0.381050048122161
40
1
40
1
40
1
40
1
41
1
10
276.942480114193
20
28.692116794037
30
0
41
1
10
276.947725883219
20
28.6918968683466
30
0
41
1
10
276.958701481099
20
28.6916091142959
30
0
41
1
10
276.999855682205
20
28.6907721273927
30
0
41
1
10
277.037789071679
20
28.6901812022785
30
0
41
1
10
277.077013601929
20
28.6897114982745
30
0
0
SPLINE
5
2BE
100
AcDbEntity
8
1
62
256
6
ByLayer
370
13
48
1
60
0
100
AcDbSpline
70
4
71
3
72
20
73
16
40
0
40
0
40
0
40
0
40
0.5
40
0.5
40
0.749999999999988
40
0.749999999999988
40
0.874999999999994
40
0.874999999999994
40
0.906250000000002
40
0.906250000000002
40
0.921875000000005
40
0.921875000000005
40
0.937500000000009
40
0.937500000000009
40
1
40
1
40
1
40
1
41
1
10
270.213960149233
20
11.6029583647811
30
0
41
1
10
271.336699162107
20
11.6617986231602
30
0
41
1
10
272.459438428837
20
11.7206340375626
30
0
41
1
10
274.143546959895
20
11.8088942009692
30
0
41
1
10
274.704915855183
20
11.8383259909986
30
0
41
1
10
275.546970123185
20
11.8824560256044
30
0
41
1
10
275.827656028709
20
11.8971441042769
30
0
41
1
10
276.178511465771
20
11.9155413101746
30
0
41
1
10
276.248682140549
20
11.9192286243822
30
0
41
1
10
276.353938727712
20
11.9247486248151
30
0
41
1
10
276.389024927355
20
11.9265749039518
30
0
41
1
10
276.459196521056
20
11.9302454215777
30
0
41
1
10
276.494271082844
20
11.932336897916
30
0
41
1
10
276.669893813227
20
11.937094778114
30
0
41
1
10
276.810996802317
20
11.9271084050325
30
0
41
1
10
276.952759265144
20
11.9020826198189
30
0
0
SPLINE
5
2BF
100
AcDbEntity
8
1
62
256
6
ByLayer
370
13
48
1
60
0
100
AcDbSpline
70
4
71
3
72
12
73
8
40
0
40
0
40
0
40
0
40
0.249999999999847
40
0.249999999999847
40
0.499999999999693
40
0.499999999999693
40
1
40
1
40
1
40
1
41
1
10
260.1223222825
20
28.9621718108373
30
0
41
1
10
260.142521186659
20
28.9627082624971
30
0
41
1
10
260.162168851602
20
28.9626369828022
30
0
41
1
10
260.201663054127
20
28.9627136706159
30
0
41
1
10
260.221444262184
20
28.9627880428117
30
0
41
1
10
260.280752954152
20
28.9629742592019
30
0
41
1
10
260.320267877657
20
28.963072838514
30
0
41
1
10
260.359795237126
20
28.9631845496224
30
0
0
SPLINE
5
2C0
100
AcDbEntity
8
1
62
256
6
ByLayer
370
13
48
1
60
0
100
AcDbSpline
70
4
71
1
72
4
73
2
40
0
40
0
40
1
40
1
41
1
10
260.336230367333
20
9.97412735417316
30
0
41
1
10
260.305503922022
20
9.9732478714206
30
0
0
SPLINE
5
2C1
100
AcDbEntity
8
1
62
256
6
ByLayer
370
13
48
1
60
0
100
AcDbSpline
70
4
71
2
72
6
73
3
40
0
40
0
40
0
40
1
40
1
40
1
41
0.998850556413351
10
258.648220910473
20
19.1379808284748
30
0
41
0.998270163111969
10
258.64158906694
20
19.1729933590239
30
0
41
1
10
258.63833433748
20
19.2084821331548
30
0
0
SPLINE
5
2C2
100
AcDbEntity
8
1
62
256
6
ByLayer
370
13
48
1
60
0
100
AcDbSpline
70
4
71
3
72
20
73
16
40
0
40
0
40
0
40
0
40
0.0624999999999141
40
0.0624999999999141
40
0.124999999999828
40
0.124999999999828
40
0.140624999999818
40
0.140624999999818
40
0.156249999999807
40
0.156249999999807
40
0.187499999999809
40
0.187499999999809
40
0.249999999999834
40
0.499999999999889
40
1
40
1
40
1
40
1
41
1
10
262.891274822341
20
10.9223340430778
30
0
41
1
10
263.021674297867
20
11.0095418431686
30
0
41
1
10
263.159271529454
20
11.0807282359273
30
0
41
1
10
263.448312235017
20
11.1922808203279
30
0
41
1
10
263.601439845545
20
11.2325921796722
30
0
41
1
10
263.792513490418
20
11.2607649791023
30
0
41
1
10
263.83079775496
20
11.2653477679451
30
0
41
1
10
263.907508728724
20
11.2723587764774
30
0
41
1
10
263.945953718403
20
11.2745104922825
30
0
41
1
10
264.061321309516
20
11.2804722093745
30
0
41
1
10
264.138226691461
20
11.2845426667435
30
0
41
1
10
264.368950746819
20
11.296634402112
30
0
41
1
10
265.138030931346
20
11.3369401866736
30
0
41
1
10
267.137639411109
20
11.4417352265335
30
0
41
1
10
268.98343185399
20
11.5384691094824
30
0
41
1
10
270.213960149233
20
11.602958364781
30
0
0
SPLINE
5
2C3
100
AcDbEntity
8
1
62
256
6
ByLayer
370
13
48
1
60
0
100
AcDbSpline
70
4
71
2
72
6
73
3
40
0
40
0
40
0
40
1
40
1
40
1
41
0.998850556413361
10
258.648220910473
20
19.1379808284736
30
0
41
0.998270163111954
10
258.645285202886
20
19.1024668838168
30
0
41
1
10
258.645757890198
20
19.0668323090348
30
0
0
SPLINE
5
2C4
100
AcDbEntity
8
1
62
256
6
ByLayer
370
13
48
1
60
0
100
AcDbSpline
70
4
71
1
72
4
73
2
40
0
40
0
40
1
40
1
41
1
10
258.558231349627
20
19.3122074088907
30
0
41
1
10
258.636226832951
20
19.3150150229926
30
0
0
SPLINE
5
2C5
100
AcDbEntity
8
1
62
256
6
ByLayer
370
13
48
1
60
0
100
AcDbSpline
70
4
71
3
72
14
73
10
40
0
40
0
40
0
40
0
40
0.074988044286644
40
0.074988044286644
40
0.479022343537188
40
0.479022343537188
40
0.883056642787733
40
0.883056642787733
40
1
40
1
40
1
40
1
41
1
10
279.350649285379
20
10.4718945356511
30
0
41
1
10
279.3420882604
20
10.462933172148
30
0
41
1
10
279.333319004892
20
10.4541759964017
30
0
41
1
10
279.276008317601
20
10.3995703951409
30
0
41
1
10
279.221048778495
20
10.3590287725835
30
0
41
1
10
279.104729202621
20
10.293942148521
30
0
41
1
10
279.042076416191
20
10.2685312585604
30
0
41
1
10
278.958617371667
20
10.2460539842666
30
0
41
1
10
278.939769245705
20
10.2418828399202
30
0
41
1
10
278.920843564836
20
10.2383056907655
30
0
0
SPLINE
5
2C6
100
AcDbEntity
8
1
62
256
6
ByLayer
370
13
48
1
60
0
100
AcDbSpline
70
4
71
3
72
20
73
16
40
0
40
0
40
0
40
0
40
0.499999999999976
40
0.499999999999976
40
0.749999999999976
40
0.749999999999976
40
0.874999999999988
40
0.874999999999988
40
0.906249999999997
40
0.906249999999997
40
0.921875000000001
40
0.921875000000001
40
0.937500000000006
40
0.937500000000006
40
1
40
1
40
1
40
1
41
1
10
269.362977500723
20
27.8406745998903
30
0
41
1
10
268.24023848785
20
27.7818343415112
30
0
41
1
10
267.117499221119
20
27.7229989271088
30
0
41
1
10
265.433390690061
20
27.6347387637021
30
0
41
1
10
264.872021794775
20
27.6053069736728
30
0
41
1
10
264.029967526772
20
27.561176939067
30
0
41
1
10
263.749281621248
20
27.5464888603945
30
0
41
1
10
263.398426184187
20
27.5280916544967
30
0
41
1
10
263.328255509407
20
27.5244043402892
30
0
41
1
10
263.222998922244
20
27.5188843398562
30
0
41
1
10
263.187912722602
20
27.5170580607195
30
0
41
1
10
263.117741128901
20
27.5133875430936
30
0
41
1
10
263.082666567112
20
27.5112960667554
30
0
41
1
10
262.907043836729
20
27.5065381865574
30
0
41
1
10
262.765940847638
20
27.5165245596388
30
0
41
1
10
262.624178384811
20
27.5415503448524
30
0
0
SPLINE
5
2C7
100
AcDbEntity
8
1
62
256
6
ByLayer
370
13
48
1
60
0
100
AcDbSpline
70
4
71
1
72
4
73
2
40
0
40
0
40
1
40
1
41
1
10
258.571938158451
20
19.0965571757875
30
0
41
1
10
258.64645030073
20
19.1026028107356
30
0
0
SPLINE
5
2C8
100
AcDbEntity
8
1
62
256
6
ByLayer
370
13
48
1
60
0
100
AcDbSpline
70
4
71
3
72
12
73
8
40
0
40
0
40
0
40
0
40
0.476460631365101
40
0.476460631365101
40
0.952921262730202
40
0.952921262730202
40
1
40
1
40
1
40
1
41
1
10
278.553243851761
20
10.4342222743875
30
0
41
1
10
278.534577200487
20
10.4337661246987
30
0
41
1
10
278.516738379865
20
10.4339322019076
30
0
41
1
10
278.480762082444
20
10.434039879688
30
0
41
1
10
278.462723558346
20
10.4340568376884
30
0
41
1
10
278.442921557974
20
10.4340893065628
30
0
41
1
10
278.441140970787
20
10.4340922901688
30
0
41
1
10
278.439360464329
20
10.4340953328741
30
0
0
SPLINE
5
2C9
100
AcDbEntity
8
1
62
256
6
ByLayer
370
13
48
1
60
0
100
AcDbSpline
70
4
71
2
72
6
73
3
40
0
40
0
40
0
40
1
40
1
40
1
41
1
10
280.670729314873
20
20.3608178677416
30
0
41
0.997409491337352
10
280.671494565624
20
20.3031277533451
30
0
41
1
10
280.664010379186
20
20.2459282057429
30
0
0
SPLINE
5
2CA
100
AcDbEntity
8
1
62
256
6
ByLayer
370
13
48
1
60
0
100
AcDbSpline
70
4
71
3
72
22
73
18
40
0
40
0
40
0
40
0
40
0.0625000000000552
40
0.0625000000000552
40
0.0937500000000725
40
0.0937500000000725
40
0.12500000000009
40
0.12500000000009
40
0.156250000000107
40
0.156250000000107
40
0.171875000000116
40
0.171875000000116
40
0.187500000000124
40
0.187500000000124
40
0.250000000000115
40
0.500000000000076
40
1
40
1
40
1
40
1
41
1
10
276.814864212913
20
28.3557952575898
30
0
41
1
10
276.681805900456
20
28.2668092960573
30
0
41
1
10
276.541639324879
20
28.1929173618693
30
0
41
1
10
276.321028061627
20
28.1040813548004
30
0
41
1
10
276.245381694801
20
28.078048970206
30
0
41
1
10
276.092248563971
20
28.0341120436033
30
0
41
1
10
276.015357569087
20
28.0163567328021
30
0
41
1
10
275.86095635169
20
27.9888876138973
30
0
41
1
10
275.783453232395
20
27.9790815609442
30
0
41
1
10
275.666725729183
20
27.9705127398887
30
0
41
1
10
275.627734890418
20
27.9687170742106
30
0
41
1
10
275.549790531511
20
27.9646411104152
30
0
41
1
10
275.510818989498
20
27.9625948505016
30
0
41
1
10
275.315959803851
20
27.9523827133089
30
0
41
1
10
274.536523061266
20
27.9115341645383
30
0
41
1
10
272.509987530543
20
27.8053279377351
30
0
41
1
10
270.639339348338
20
27.7072914206858
30
0
41
1
10
269.3922405602
20
27.641933742653
30
0
0
SPLINE
5
2CB
100
AcDbEntity
8
1
62
256
6
ByLayer
370
13
48
1
60
0
100
AcDbSpline
70
4
71
3
72
20
73
16
40
0
40
0
40
0
40
0
40
0.124999999999987
40
0.124999999999987
40
0.249999999999974
40
0.249999999999974
40
0.374999999999961
40
0.374999999999961
40
0.499999999999948
40
0.499999999999948
40
0.624999999999935
40
0.624999999999935
40
0.749999999999922
40
0.749999999999922
40
1
40
1
40
1
40
1
41
1
10
260.336230367333
20
9.97412735417316
30
0
41
1
10
260.346093573939
20
9.9069846439304
30
0
41
1
10
260.364546437041
20
9.84284067853616
30
0
41
1
10
260.417118786878
20
9.72002214072489
30
0
41
1
10
260.451861374142
20
9.66112580133077
30
0
41
1
10
260.534826867592
20
9.55433419740839
30
0
41
1
10
260.582506500047
20
9.50693364444138
30
0
41
1
10
260.688283604299
20
9.42542902099211
30
0
41
1
10
260.747179822803
20
9.39085432584949
30
0
41
1
10
260.869665592662
20
9.33828295963792
30
0
41
1
10
260.934631321851
20
9.31956027267628
30
0
41
1
10
261.067016568484
20
9.29841884010594
30
0
41
1
10
261.133473453022
20
9.29836976292196
30
0
41
1
10
261.332758725924
20
9.29482307293745
30
0
41
1
10
261.465695589321
20
9.2956444257928
30
0
41
1
10
261.598703579957
20
9.29929773085161
30
0
0
SPLINE
5
2CC
100
AcDbEntity
8
1
62
256
6
ByLayer
370
13
48
1
60
0
100
AcDbSpline
70
4
71
3
72
8
73
4
40
0
40
0
40
0
40
0
40
1
40
1
40
1
40
1
41
1
10
278.81995170074
20
10.4427299179933
30
0
41
1
10
278.727959633022
20
10.4368057927693
30
0
41
1
10
278.639438184616
20
10.4346159664103
30
0
41
1
10
278.553243851761
20
10.4342222743875
30
0
0
SPLINE
5
2CD
100
AcDbEntity
8
1
62
256
6
ByLayer
370
13
48
1
60
0
100
AcDbSpline
70
4
71
2
72
6
73
3
40
0
40
0
40
0
40
1
40
1
40
1
41
1
10
258.654797650062
20
18.9606627233045
30
0
41
0.997409491337352
10
258.646466371567
20
19.0134218795849
30
0
41
1
10
258.645757890198
20
19.0668323090348
30
0
0
SPLINE
5
2CE
100
AcDbEntity
8
1
62
256
6
ByLayer
370
13
48
1
60
0
100
AcDbSpline
70
4
71
3
72
18
73
14
40
0
40
0
40
0
40
0
40
0.500000000000012
40
0.500000000000012
40
0.750000000000018
40
0.750000000000018
40
0.875000000000034
40
0.875000000000034
40
0.906250000000025
40
0.906250000000025
40
0.937500000000017
40
0.937500000000017
40
1
40
1
40
1
40
1
41
1
10
269.3922405602
20
27.6419337426529
30
0
41
1
10
268.26202836596
20
27.5827018314342
30
0
41
1
10
267.131815942599
20
27.5234749530846
30
0
41
1
10
265.436497604798
20
27.4346270289179
30
0
41
1
10
264.87139199636
20
27.4049985079488
30
0
41
1
10
264.023732758198
20
27.3605762694523
30
0
41
1
10
263.741178706321
20
27.3457930573582
30
0
41
1
10
263.387988009067
20
27.3272675665818
30
0
41
1
10
263.317350384052
20
27.323549666532
30
0
41
1
10
263.176073268188
20
27.3161602982943
30
0
41
1
10
263.105474836654
20
27.3114670558636
30
0
41
1
10
262.893205900472
20
27.309174051655
30
0
41
1
10
262.751181288655
20
27.3203863607638
30
0
41
1
10
262.608595752773
20
27.3455574457208
30
0
0
SPLINE
5
2CF
100
AcDbEntity
8
1
62
256
6
ByLayer
370
13
48
1
60
0
100
AcDbSpline
70
4
71
3
72
8
73
4
40
0
40
0
40
0
40
0
40
1
40
1
40
1
40
1
41
1
10
259.884026817679
20
28.9554014065853
30
0
41
1
10
259.964509353
20
28.9595522548957
30
0
41
1
10
260.043977855136
20
28.9614936331363
30
0
41
1
10
260.1223222825
20
28.9621718108373
30
0
0
SPLINE
5
2D0
100
AcDbEntity
8
1
62
256
6
ByLayer
370
13
48
1
60
0
100
AcDbSpline
70
4
71
2
72
6
73
3
40
0
40
0
40
0
40
1
40
1
40
1
41
1
10
280.670729314873
20
20.3608178677416
30
0
41
0.997409491337352
10
280.669964064123
20
20.4185079821395
30
0
41
1
10
280.660965214752
20
20.4754946379751
30
0
0
SPLINE
5
2D1
100
AcDbEntity
8
1
62
256
6
ByLayer
370
13
48
1
60
0
100
AcDbSpline
70
4
71
2
72
6
73
3
40
0
40
0
40
0
40
1
40
1
40
1
41
1
10
258.906208335083
20
19.0828150969297
30
0
41
0.997409491337352
10
258.906973585833
20
19.0251249825319
30
0
41
1
10
258.915972435203
20
18.9681383266962
30
0
0
SPLINE
5
2D2
100
AcDbEntity
8
1
62
256
6
ByLayer
370
13
48
1
60
0
100
AcDbSpline
70
4
71
2
72
6
73
3
40
0
40
0
40
0
40
1
40
1
40
1
41
1
10
258.636226832951
20
19.3150150229926
30
0
41
0.997409491337352
10
258.633456027601
20
19.2616740311524
30
0
41
1
10
258.63833433748
20
19.2084821331548
30
0
0
SPLINE
5
2D3
100
AcDbEntity
8
1
62
256
6
ByLayer
370
13
48
1
60
0
100
AcDbSpline
70
4
71
3
72
10
73
6
40
0
40
0
40
0
40
0
40
0.5
40
0.5
40
1
40
1
40
1
40
1
41
1
10
262.599023886348
20
10.6633652815418
30
0
41
1
10
262.59527634121
20
10.6631688810233
30
0
41
1
10
262.578199510896
20
10.6729599125258
30
0
41
1
10
262.527716880651
20
10.7059319193537
30
0
41
1
10
262.49427154053
20
10.7290789020668
30
0
41
1
10
262.462332311568
20
10.7519513669696
30
0
0
SPLINE
5
2D4
100
AcDbEntity
8
1
62
256
6
ByLayer
370
13
48
1
60
0
100
AcDbSpline
70
4
71
3
72
8
73
4
40
0
40
0
40
0
40
0
40
1
40
1
40
1
40
1
41
1
10
259.837046396311
20
29.1913149902625
30
0
41
1
10
259.8630361205
20
29.1935479145574
30
0
41
1
10
259.889040297843
20
29.1956701417433
30
0
41
1
10
259.915058582616
20
29.197684319726
30
0
0
SPLINE
5
2D5
100
AcDbEntity
8
1
62
256
6
ByLayer
370
13
48
1
60
0
100
AcDbSpline
70
4
71
3
72
10
73
6
40
0
40
0
40
0
40
0
40
0.5
40
0.5
40
1
40
1
40
1
40
1
41
1
10
276.968515829493
20
28.7797751582728
30
0
41
1
10
276.964768284355
20
28.7795787577543
30
0
41
1
10
276.974514624294
20
28.7694035515302
30
0
41
1
10
277.014629011785
20
28.7358881681245
30
0
41
1
10
277.045074372967
20
28.7125839631774
30
0
41
1
10
277.077013601929
20
28.6897114982745
30
0
0
SPLINE
5
2D6
100
AcDbEntity
8
1
62
256
6
ByLayer
370
13
48
1
60
0
100
AcDbSpline
70
4
71
1
72
4
73
2
40
0
40
0
40
1
40
1
41
1
10
260.359795237126
20
28.9631845496224
30
0
41
1
10
260.169619731773
20
29.1836473219461
30
0
0
SPLINE
5
2D7
100
AcDbEntity
8
1
62
256
6
ByLayer
370
13
48
1
60
0
100
AcDbSpline
70
4
71
3
72
8
73
4
40
0
40
0
40
0
40
0
40
1
40
1
40
1
40
1
41
1
10
277.726534699259
20
30.1037662464534
30
0
41
1
10
277.786627711855
20
30.1163337673866
30
0
41
1
10
277.846655029527
20
30.1288852595414
30
0
41
1
10
277.906787370755
20
30.1414623680604
30
0
0
SPLINE
5
2D8
100
AcDbEntity
8
SK1
62
256
6
ByLayer
370
13
48
1
60
0
100
AcDbSpline
70
4
71
3
72
24
73
20
40
0
40
0
40
0
40
0
40
0.124999999999998
40
0.124999999999998
40
0.187499999999998
40
0.187499999999998
40
0.249999999999997
40
0.249999999999997
40
0.312499999999996
40
0.312499999999996
40
0.374999999999995
40
0.374999999999995
40
0.499999999999995
40
0.499999999999995
40
0.624999999999996
40
0.624999999999996
40
0.749999999999996
40
0.749999999999996
40
1
40
1
40
1
40
1
41
1
10
-67.6338131992802
20
-8.0775204493757
30
0
41
1
10
-67.6747533059888
20
-8.04487013519184
30
0
41
1
10
-67.7195612014526
20
-8.01749860563658
30
0
41
1
10
-67.7928268759133
20
-7.99022415829779
30
0
41
1
10
-67.8186099136469
20
-7.98341533666706
30
0
41
1
10
-67.8702377710496
20
-7.97584764333209
30
0
41
1
10
-67.8964211377289
20
-7.97495672022018
30
0
41
1
10
-67.9490497374436
20
-7.97930047589773
30
0
41
1
10
-67.9746489816421
20
-7.98443974128386
30
0
41
1
10
-68.0246006163589
20
-7.99989255190098
30
0
41
1
10
-68.0490680787129
20
-8.01031623650994
30
0
41
1
10
-68.1182248719782
20
-8.0469549457695
30
0
41
1
10
-68.1601512019842
20
-8.07899984651726
30
0
41
1
10
-68.2360566690459
20
-8.15077030465307
30
0
41
1
10
-68.2698164349815
20
-8.19015258317449
30
0
41
1
10
-68.3318488230967
20
-8.27349356792351
30
0
41
1
10
-68.3601520983357
20
-8.3176575732663
30
0
41
1
10
-68.4377912107178
20
-8.45367817332618
30
0
41
1
10
-68.4803734932244
20
-8.54955569820223
30
0
41
1
10
-68.5162221138915
20
-8.64653950086213
30
0
0
SPLINE
5
2D9
100
AcDbEntity
8
SK1
62
256
6
ByLayer
370
13
48
1
60
0
100
AcDbSpline
70
4
71
3
72
8
73
4
40
0
40
0
40
0
40
0
40
1
40
1
40
1
40
1
41
1
10
-66.6000022063888
20
-8.87089623431581
30
0
41
1
10
-66.9493175829836
20
-8.61239127382837
30
0
41
1
10
-67.2942397234117
20
-8.34833509953083
30
0
41
1
10
-67.6338131992802
20
-8.0775204493757
30
0
0
SPLINE
5
2DA
100
AcDbEntity
8
SK1
62
256
6
ByLayer
370
13
48
1
60
0
100
AcDbSpline
70
4
71
3
72
68
73
64
40
0
40
0
40
0
40
0
40
0.015625
40
0.015625
40
0.0312500000000001
40
0.0312500000000001
40
0.0468750000000001
40
0.0468750000000001
40
0.0625000000000001
40
0.0625000000000001
40
0.0781250000000002
40
0.0781250000000002
40
0.0937500000000002
40
0.0937500000000002
40
0.125
40
0.125
40
0.15625
40
0.15625
40
0.1875
40
0.1875
40
0.250000000000001
40
0.250000000000001
40
0.281250000000001
40
0.281250000000001
40
0.312500000000001
40
0.312500000000001
40
0.375
40
0.375
40
0.4375
40
0.4375
40
0.5
40
0.5
40
0.5625
40
0.5625
40
0.59375
40
0.59375
40
0.625
40
0.625
40
0.6875
40
0.6875
40
0.749999999999999
40
0.749999999999999
40
0.78125
40
0.78125
40
0.8125
40
0.8125
40
0.84375
40
0.84375
40
0.875
40
0.875
40
0.90625
40
0.90625
40
0.921875
40
0.921875
40
0.9375
40
0.9375
40
0.953125
40
0.953125
40
0.96875
40
0.96875
40
0.984375
40
0.984375
40
1
40
1
40
1
40
1
41
1
10
-6.50000000009537
20
8.87089623431592
30
0
41
1
10
-6.38964005784193
20
8.87089623432257
30
0
41
1
10
-6.28158777178416
20
8.85940086480647
30
0
41
1
10
-6.06968685290551
20
8.81540344387071
30
0
41
1
10
-5.96501017976783
20
8.78237878278361
30
0
41
1
10
-5.76743688221792
20
8.69971062398861
30
0
41
1
10
-5.67362162233444
20
8.65004386475434
30
0
41
1
10
-5.49440680002854
20
8.53638191883883
30
0
41
1
10
-5.41084411120518
20
8.47354035148646
30
0
41
1
10
-5.25410321779377
20
8.33890938882163
30
0
41
1
10
-5.18076228366576
20
8.26697977481194
30
0
41
1
10
-5.04236841853764
20
8.11530552801844
30
0
41
1
10
-4.97708142928902
20
8.03517541733243
30
0
41
1
10
-4.79483748696403
20
7.7886883824635
30
0
41
1
10
-4.69031457331725
20
7.61555747347686
30
0
41
1
10
-4.50449292536955
20
7.25613146802451
30
0
41
1
10
-4.42331516342429
20
7.0697011257152
30
0
41
1
10
-4.27866003032617
20
6.68621407711885
30
0
41
1
10
-4.21613483481546
20
6.49167843530805
30
0
41
1
10
-4.050058842756
20
5.9010477327684
30
0
41
1
10
-3.96765133118522
20
5.49799143172808
30
0
41
1
10
-3.86912379467795
20
4.88237914332473
30
0
41
1
10
-3.84059190899215
20
4.67531435241614
30
0
41
1
10
-3.79034359563845
20
4.25775817736212
30
0
41
1
10
-3.76860205743282
20
4.04686198179485
30
0
41
1
10
-3.71189783140515
20
3.41388377187141
30
0
41
1
10
-3.68514759900531
20
2.99065660100223
30
0
41
1
10
-3.64518264030204
20
2.14196585175267
30
0
41
1
10
-3.63202206704267
20
1.71650095141314
30
0
41
1
10
-3.6148752993273
20
0.863453409773285
30
0
41
1
10
-3.61090488997965
20
0.435870434789052
30
0
41
1
10
-3.61081378158445
20
-0.421394939045854
30
0
41
1
10
-3.61468794705834
20
-0.851077090828767
30
0
41
1
10
-3.6275848658499
20
-1.49723621391487
30
0
41
1
10
-3.63310141210927
20
-1.71320956001128
30
0
41
1
10
-3.646955419264
20
-2.14305408206693
30
0
41
1
10
-3.65529329679171
20
-2.35715224442401
30
0
41
1
10
-3.68548793121671
20
-2.99691438981384
30
0
41
1
10
-3.71238572795085
20
-3.42005942268045
30
0
41
1
10
-3.78767314105632
20
-4.25901300764133
30
0
41
1
10
-3.83594141362367
20
-4.67483087955947
30
0
41
1
10
-3.9346982037289
20
-5.2922060405285
30
0
41
1
10
-3.9721522548909
20
-5.49733813204614
30
0
41
1
10
-4.05827073884203
20
-5.90316900106956
30
0
41
1
10
-4.10684136225636
20
-6.10359019941808
30
0
41
1
10
-4.21829935961328
20
-6.49875483311666
30
0
41
1
10
-4.28137467697044
20
-6.69407757191092
30
0
41
1
10
-4.42568828754189
20
-7.07530157739131
30
0
41
1
10
-4.50652538220599
20
-7.26037606946602
30
0
41
1
10
-4.69126678450728
20
-7.61708086864488
30
0
41
1
10
-4.79503486630585
20
-7.78877297154605
30
0
41
1
10
-4.97543514483755
20
-8.03303881488131
30
0
41
1
10
-5.03973358082381
20
-8.11223071981814
30
0
41
1
10
-5.17893362392576
20
-8.2651568613432
30
0
41
1
10
-5.25300494784939
20
-8.33791002118039
30
0
41
1
10
-5.41049164235615
20
-8.47329310847419
30
0
41
1
10
-5.49407608281142
20
-8.53615420612931
30
0
41
1
10
-5.67346592733142
20
-8.64996303558974
30
0
41
1
10
-5.76709683224057
20
-8.69948671737211
30
0
41
1
10
-5.96303851927409
20
-8.78163447161853
30
0
41
1
10
-6.06561702593201
20
-8.81437574885777
30
0
41
1
10
-6.28052082104801
20
-8.85935768582462
30
0
41
1
10
-6.38946945782645
20
-8.87089623432257
30
0
41
1
10
-6.5000000000954
20
-8.87089623431589
30
0
0
SPLINE
5
2DB
100
AcDbEntity
8
1
62
256
6
ByLayer
370
13
48
1
60
0
100
AcDbSpline
70
4
71
3
72
18
73
14
40
0
40
0
40
0
40
0
40
0.249999999999914
40
0.249999999999914
40
0.374999999999986
40
0.374999999999986
40
0.500000000000057
40
0.500000000000057
40
0.750000000000029
40
0.750000000000029
40
0.875000000000015
40
0.875000000000015
40
1
40
1
40
1
40
1
41
1
10
276.256651908976
20
11.7994777392813
30
0
41
1
10
276.314018874437
20
11.8024842145454
30
0
41
1
10
276.371778754446
20
11.7953097950921
30
0
41
1
10
276.453106124869
20
11.7719351607857
30
0
41
1
10
276.47900243134
20
11.7621646786642
30
0
41
1
10
276.527186965567
20
11.7402222015102
30
0
41
1
10
276.549865104019
20
11.7278321705543
30
0
41
1
10
276.609937596936
20
11.6909123872067
30
0
41
1
10
276.640833886236
20
11.6660484164946
30
0
41
1
10
276.673175108359
20
11.6404155602714
30
0
41
1
10
276.681894706919
20
11.6335924882029
30
0
41
1
10
276.695073120033
20
11.6246610258724
30
0
41
1
10
276.699679126339
20
11.6224213427056
30
0
41
1
10
276.702389869296
20
11.6225634067242
30
0
0
SPLINE
5
2DC
100
AcDbEntity
8
1
62
256
6
ByLayer
370
13
48
1
60
0
100
AcDbSpline
70
4
71
3
72
46
73
42
40
0
40
0
40
0
40
0
40
0.0625000000000001
40
0.0625000000000001
40
0.125
40
0.125
40
0.15625
40
0.15625
40
0.1875
40
0.1875
40
0.25
40
0.25
40
0.312500000000001
40
0.312500000000001
40
0.343750000000001
40
0.343750000000001
40
0.375000000000001
40
0.375000000000001
40
0.4375
40
0.4375
40
0.5
40
0.5
40
0.5625
40
0.5625
40
0.59375
40
0.59375
40
0.625
40
0.625
40
0.75
40
0.75
40
0.78125
40
0.78125
40
0.8125
40
0.8125
40
0.875
40
0.875
40
0.9375
40
0.9375
40
0.96875
40
0.96875
40
1
40
1
40
1
40
1
41
1
10
16.4502834899151
20
-12.1529281113029
30
0
41
1
10
16.049200700895
20
-12.176223316336
30
0
41
1
10
15.6530397544776
20
-12.2214232444081
30
0
41
1
10
14.8695525591645
20
-12.3510764798011
30
0
41
1
10
14.4822652322383
20
-12.4357037745237
30
0
41
1
10
13.9077168932089
20
-12.5909182632779
30
0
41
1
10
13.717265789284
20
-12.6473737599929
30
0
41
1
10
13.3384926756104
20
-12.7696966847633
30
0
41
1
10
13.1498285970161
20
-12.8356944343311
30
0
41
1
10
12.5893285520851
20
-13.0468845049586
30
0
41
1
10
12.2263645102677
20
-13.2037969423399
30
0
41
1
10
11.5205155757042
20
-13.5472652900949
30
0
41
1
10
11.177535899168
20
-13.7336741723922
30
0
41
1
10
10.6779246092563
20
-14.0347337941957
30
0
41
1
10
10.5139061694424
20
-14.1387260977195
30
0
41
1
10
10.1908806469075
20
-14.3538548834365
30
0
41
1
10
10.031480684112
20
-14.465287134105
30
0
41
1
10
9.563893876503
20
-14.8081919150703
30
0
41
1
10
9.2676783550677
20
-15.0471152020344
30
0
41
1
10
8.70503659180481
20
-15.5438319174677
30
0
41
1
10
8.43875437396125
20
-15.8017394737545
30
0
41
1
10
7.93669984339989
20
-16.3360380400327
30
0
41
1
10
7.70090748790454
20
-16.6124172836774
30
0
41
1
10
7.37142952738512
20
-17.0410087202488
30
0
41
1
10
7.26596921625764
20
-17.1858600056007
30
0
41
1
10
7.06606108504982
20
-17.4762819911719
30
0
41
1
10
6.97126648106877
20
-17.6222961795082
30
0
41
1
10
6.52298798025572
20
-18.3561097726594
30
0
41
1
10
6.2453108191479
20
-18.9548485241992
30
0
41
1
10
6.00987080412906
20
-19.7164184077072
30
0
41
1
10
5.96833992523706
20
-19.8699246272652
30
0
41
1
10
5.89821808247181
20
-20.1737015117561
30
0
41
1
10
5.86939167877476
20
-20.3243786813057
30
0
41
1
10
5.80122042017966
20
-20.7727752254153
30
0
41
1
10
5.78022719349362
20
-21.0668639138514
30
0
41
1
10
5.78808933507047
20
-21.6452861905375
30
0
41
1
10
5.81681710142132
20
-21.9296194020398
30
0
41
1
10
5.89933032931077
20
-22.3486636012661
30
0
41
1
10
5.93328133362714
20
-22.4864928487655
30
0
41
1
10
6.01363905680969
20
-22.756683591096
30
0
41
1
10
6.0601505046706
20
-22.8893239961359
30
0
41
1
10
6.11286105507897
20
-23.0195806970946
30
0
0
SPLINE
5
2DD
100
AcDbEntity
8
1
62
256
6
ByLayer
370
13
48
1
60
0
100
AcDbSpline
70
4
71
3
72
58
73
54
40
0
40
0
40
0
40
0
40
0.0315626677808548
40
0.0315626677808548
40
0.0631253355617095
40
0.0631253355617095
40
0.126250671123419
40
0.126250671123419
40
0.157813338904274
40
0.157813338904274
40
0.189376006685128
40
0.189376006685128
40
0.252501342246838
40
0.252501342246838
40
0.315626677808547
40
0.315626677808547
40
0.378752013370257
40
0.378752013370257
40
0.410314681151112
40
0.410314681151112
40
0.441877348931967
40
0.441877348931967
40
0.473440016712821
40
0.473440016712821
40
0.505002684493676
40
0.505002684493676
40
0.536565352274531
40
0.536565352274531
40
0.568128020055385
40
0.568128020055385
40
0.59969068783624
40
0.59969068783624
40
0.631253355617095
40
0.631253355617095
40
0.694378691178804
40
0.694378691178804
40
0.72594135895966
40
0.72594135895966
40
0.757504026740515
40
0.757504026740515
40
0.78906669452137
40
0.78906669452137
40
0.820629362302225
40
0.820629362302225
40
0.85219203008308
40
0.85219203008308
40
0.883754697863935
40
0.883754697863935
40
0.91531736564479
40
0.91531736564479
40
0.946880033425645
40
0.946880033425645
40
1
40
1
40
1
40
1
41
1
10
246.674966094762
20
4.8579276503531
30
0
41
1
10
245.522891130213
20
5.36951740974342
30
0
41
1
10
244.37045518653
20
5.87869595192353
30
0
41
1
10
242.066903587018
20
6.89008433151139
30
0
41
1
10
240.915493301018
20
7.39242526449297
30
0
41
1
10
237.46160873952
20
8.88779863387262
30
0
41
1
10
235.159485947221
20
9.86919054986834
30
0
41
1
10
231.703880668653
20
11.3113954721742
30
0
41
1
10
230.55121522229
20
11.7873061048977
30
0
41
1
10
228.246721201513
20
12.7271577232453
30
0
41
1
10
227.094997137247
20
13.1910601000536
30
0
41
1
10
223.640597869572
20
14.5631400622577
30
0
41
1
10
221.338713579472
20
15.4517195630713
30
0
41
1
10
216.732687692832
20
17.1681912110067
30
0
41
1
10
214.427252027013
20
17.9964727048832
30
0
41
1
10
209.821067508816
20
19.5794604965163
30
0
41
1
10
207.519206537146
20
20.3346074106233
30
0
41
1
10
204.065465220298
20
21.4082543502113
30
0
41
1
10
202.914059502559
20
21.7562893600811
30
0
41
1
10
200.610463310682
20
22.4318880693728
30
0
41
1
10
199.458200027895
20
22.7594924106035
30
0
41
1
10
197.155498620067
20
23.3924906442948
30
0
41
1
10
196.004629126674
20
23.6979353884632
30
0
41
1
10
193.702732388452
20
24.2853122313588
30
0
41
1
10
192.551916755254
20
24.5674861333691
30
0
41
1
10
190.247760430563
20
25.1057322126248
30
0
41
1
10
189.094162979486
20
25.3614589426653
30
0
41
1
10
186.778471874922
20
25.8415244249296
30
0
41
1
10
185.615529242348
20
26.0657015356248
30
0
41
1
10
183.280439710231
20
26.4809559669258
30
0
41
1
10
182.108625826459
20
26.6722180117313
30
0
41
1
10
179.754421573796
20
27.0234748506636
30
0
41
1
10
178.571805937046
20
27.1832819508977
30
0
41
1
10
175.0082929169
20
27.6218127250752
30
0
41
1
10
172.612050822537
20
27.8603145011846
30
0
41
1
10
168.993227804122
20
28.1597515573702
30
0
41
1
10
167.783878186369
20
28.249670632094
30
0
41
1
10
165.360458786914
20
28.4126414746655
30
0
41
1
10
164.146270317355
20
28.4856746700458
30
0
41
1
10
161.71323219862
20
28.6169361907868
30
0
41
1
10
160.494415184854
20
28.675182627166
30
0
41
1
10
158.05229999934
20
28.778619343936
30
0
41
1
10
156.828897241255
20
28.8237209212516
30
0
41
1
10
154.376083371198
20
28.9017982905755
30
0
41
1
10
153.146569573543
20
28.9347693410498
30
0
41
1
10
150.682660405823
20
28.9901001737686
30
0
41
1
10
149.448012002996
20
29.0124843846409
30
0
41
1
10
146.972447737037
20
29.048627830841
30
0
41
1
10
145.731458093322
20
29.062376379913
30
0
41
1
10
143.242773094716
20
29.0834287760173
30
0
41
1
10
141.995562668822
20
29.0907510158076
30
0
41
1
10
138.644487551562
20
29.1044801830125
30
0
41
1
10
136.536492733076
20
29.1069756923262
30
0
41
1
10
134.422951158169
20
29.1068208549528
30
0
0
SPLINE
5
2DE
100
AcDbEntity
8
1
62
256
6
ByLayer
370
13
48
1
60
0
100
AcDbSpline
70
4
71
3
72
8
73
4
40
0
40
0
40
0
40
0
40
1
40
1
40
1
40
1
41
1
10
39.8996
20
-29.292011468905
30
0
41
1
10
38.2329333031238
20
-29.2919906704269
30
0
41
1
10
36.5662666164095
20
-29.291956844552
30
0
41
1
10
34.8996
20
-29.2919063032973
30
0
0
SPLINE
5
2DF
100
AcDbEntity
8
1
62
256
6
ByLayer
370
13
48
1
60
0
100
AcDbSpline
70
4
71
3
72
12
73
8
40
0
40
0
40
0
40
0
40
0.481058635309756
40
0.481058635309756
40
0.740529317654878
40
0.740529317654878
40
1
40
1
40
1
40
1
41
1
10
227.678309371286
20
12.9479421977278
30
0
41
1
10
231.841715624647
20
13.1821634593888
30
0
41
1
10
236.004126962566
20
13.3367772462931
30
0
41
1
10
242.415129428131
20
13.4449911697209
30
0
41
1
10
244.662361161527
20
13.4583928334146
30
0
41
1
10
249.155709240703
20
13.4351949386612
30
0
41
1
10
251.40222370135
20
13.3986081007004
30
0
41
1
10
253.649077514996
20
13.3367745196195
30
0
0
SPLINE
5
2E0
100
AcDbEntity
8
1
62
256
6
ByLayer
370
13
48
1
60
0
100
AcDbSpline
70
4
71
3
72
8
73
4
40
0
40
0
40
0
40
0
40
1
40
1
40
1
40
1
41
1
10
254.895078221687
20
2.57854347765235
30
0
41
1
10
255.037545708085
20
2.53585284529646
30
0
41
1
10
255.180770075116
20
2.49529736764703
30
0
41
1
10
255.324778722234
20
2.45694362069346
30
0
0
SPLINE
5
2E1
100
AcDbEntity
8
1
62
256
6
ByLayer
370
13
48
1
60
0
100
AcDbSpline
70
4
71
3
72
10
73
6
40
0
40
0
40
0
40
0
40
0.5
40
0.5
40
1
40
1
40
1
40
1
41
1
10
254.259969144042
20
0.254985265663493
30
0
41
1
10
254.637030368796
20
0.103895137865038
30
0
41
1
10
255.019658413814
20
-0.0211088352428419
30
0
41
1
10
255.796120420774
20
-0.217620256594216
30
0
41
1
10
256.189947696946
20
-0.28916001133274
30
0
41
1
10
256.589738298163
20
-0.331925074405717
30
0
0
SPLINE
5
2E2
100
AcDbEntity
8
1
62
256
6
ByLayer
370
13
48
1
60
0
100
AcDbSpline
70
4
71
3
72
20
73
16
40
0
40
0
40
0
40
0
40
0.178695069739501
40
0.178695069739501
40
0.357390139479003
40
0.357390139479003
40
0.536085209218505
40
0.536085209218505
40
0.625432744088255
40
0.625432744088255
40
0.714780278958006
40
0.714780278958006
40
0.893475348697508
40
0.893475348697508
40
1
40
1
40
1
40
1
41
1
10
34.9095999999999
20
-16.4700392768441
30
0
41
1
10
34.9095999999999
20
-16.153068222687
30
0
41
1
10
34.9096
20
-15.8235892254154
30
0
41
1
10
34.9096
20
-15.1406581857302
30
0
41
1
10
34.9096
20
-14.7844331090763
30
0
41
1
10
34.9096
20
-14.0593840755483
30
0
41
1
10
34.9096
20
-13.695672712753
30
0
41
1
10
34.9096
20
-13.1483719930627
30
0
41
1
10
34.9096
20
-12.9656476538888
30
0
41
1
10
34.9096
20
-12.5996030191532
30
0
41
1
10
34.9096
20
-12.4161019166123
30
0
41
1
10
34.9096
20
-11.8760214123187
30
0
41
1
10
34.9096
20
-11.5259605532292
30
0
41
1
10
34.9096
20
-10.9830011821918
30
0
41
1
10
34.9096
20
-10.7828268334111
30
0
41
1
10
34.9096
20
-10.5884862768614
30
0
0
SPLINE
5
2E3
100
AcDbEntity
8
1
62
256
6
ByLayer
370
13
48
1
60
0
100
AcDbSpline
70
4
71
3
72
8
73
4
40
0
40
0
40
0
40
0
40
1
40
1
40
1
40
1
41
1
10
278.404832732121
20
0.526807474157692
30
0
41
1
10
278.40291800724
20
0.580389206653564
30
0
41
1
10
278.402652174183
20
0.633840807511547
30
0
41
1
10
278.403934311814
20
0.683145727321715
30
0
0
SPLINE
5
2E4
100
AcDbEntity
8
1
62
256
6
ByLayer
370
13
48
1
60
0
100
AcDbSpline
70
4
71
3
72
8
73
4
40
0
40
0
40
0
40
0
40
1
40
1
40
1
40
1
41
1
10
39.8996
20
-10.5878982017131
30
0
41
1
10
38.2329333390696
20
-10.5877600396356
30
0
41
1
10
36.5662666423518
20
-10.5877764134007
30
0
41
1
10
34.8996
20
-10.5880465794099
30
0
0
SPLINE
5
2E5
100
AcDbEntity
8
1
62
256
6
ByLayer
370
13
48
1
60
0
100
AcDbSpline
70
4
71
3
72
48
73
44
40
0
40
0
40
0
40
0
40
0.0528256157997924
40
0.135554856102731
40
0.224184911000555
40
0.318813490393597
40
0.419476045991956
40
0.526140003582182
40
0.53511952919093
40
0.544362969856387
40
0.553870952927125
40
0.563644090430878
40
0.573682977408771
40
0.583988190087638
40
0.594560283900418
40
0.605399791362953
40
0.616507219814426
40
0.627883049027697
40
0.639527728695124
40
0.651441675794955
40
0.663625271843027
40
0.676078860034279
40
0.688802742278505
40
0.701797176134743
40
0.715062371648805
40
0.728598488098569
40
0.742405630651908
40
0.756483846942394
40
0.770833123568274
40
0.785453382520535
40
0.80034447754645
40
0.815506190455278
40
0.830938227373504
40
0.84664021495745
40
0.86261169657169
40
0.878852128442413
40
0.895360875795439
40
0.912137208989396
40
0.929180299655206
40
0.946489216853871
40
0.964062923265291
40
0.981900271421679
40
1
40
1
40
1
40
1
41
1
10
30.5110814875902
20
-10.6910959471106
30
0
41
1
10
30.5616652580215
20
-10.7943087719866
30
0
41
1
10
30.6960662300706
20
-11.0611758356748
30
0
41
1
10
30.9371585436558
20
-11.5102380486218
30
0
41
1
10
31.2517956999409
20
-12.0507072571159
30
0
41
1
10
31.6191777377133
20
-12.6317396119726
30
0
41
1
10
32.0425762937487
20
-13.2489709151092
30
0
41
1
10
32.3677339270674
20
-13.6866047375599
30
0
41
1
10
32.5607948929417
20
-13.9363005200184
30
0
41
1
10
32.6038109451376
20
-13.9916795702366
30
0
41
1
10
32.648234204595
20
-14.0485458377531
30
0
41
1
10
32.6940845385634
20
-14.1068854804033
30
0
41
1
10
32.7413858556898
20
-14.1666784864451
30
0
41
1
10
32.7901603104334
20
-14.2279049096092
30
0
41
1
10
32.8404297946362
20
-14.2905430542323
30
0
41
1
10
32.8922153895105
20
-14.3545699077944
30
0
41
1
10
32.9455373815848
20
-14.4199609465496
30
0
41
1
10
33.0004151165529
20
-14.4866901160119
30
0
41
1
10
33.0568668933228
20
-14.5547297631308
30
0
41
1
10
33.1149098419846
20
-14.6240505824921
30
0
41
1
10
33.1745598014036
20
-14.6946215594366
30
0
41
1
10
33.2358311921418
20
-14.7664099150874
30
0
41
1
10
33.2987368859974
20
-14.8393810521479
30
0
41
1
10
33.3632880719199
20
-14.9134985020422
30
0
41
1
10
33.4294941185121
20
-14.9887238735071
30
0
41
1
10
33.4973624332291
20
-15.0650168028804
30
0
41
1
10
33.5668983184419
20
-15.1423349063033
30
0
41
1
10
33.6381048245478
20
-15.2206337340724
30
0
41
1
10
33.7109826003361
20
-15.2998667273718
30
0
41
1
10
33.7855297408454
20
-15.3799851776594
30
0
41
1
10
33.8617416329685
20
-15.4609381888501
30
0
41
1
10
33.9396107991219
20
-15.5426726429681
30
0
41
1
10
34.0191267392024
20
-15.6251331679335
30
0
41
1
10
34.1002757715567
20
-15.7082621138748
30
0
41
1
10
34.1830408719143
20
-15.7919995147648
30
0
41
1
10
34.2674015161937
20
-15.8762831255382
30
0
41
1
10
34.3533335066038
20
-15.9610481909555
30
0
41
1
10
34.4408088619698
20
-16.046228262453
30
0
41
1
10
34.5297954652293
20
-16.1317520315899
30
0
41
1
10
34.620257644143
20
-16.2175554104739
30
0
41
1
10
34.7121531953536
20
-16.3035353986145
30
0
41
1
10
34.8054439987838
20
-16.3897262391022
30
0
41
1
10
34.8680622720355
20
-16.4465799483652
30
0
41
1
10
34.8996
20
-16.4752143504878
30
0
0
SPLINE
5
2E6
100
AcDbEntity
8
1
62
256
6
ByLayer
370
13
48
1
60
0
100
AcDbSpline
70
4
71
3
72
8
73
4
40
0
40
0
40
0
40
0
40
1
40
1
40
1
40
1
41
1
10
1.42E-14
20
4.97594212184995
30
0
41
1
10
0.031571657597965
20
5.1735845200318
30
0
41
1
10
0.0649171506606621
20
5.37085605809409
30
0
41
1
10
0.0999999999999801
20
5.56776436282993
30
0
0
SPLINE
5
2E7
100
AcDbEntity
8
1
62
256
6
ByLayer
370
13
48
1
60
0
100
AcDbSpline
70
4
71
3
72
25
73
21
40
0
40
0
40
0
40
0
40
0.125000000000018
40
0.125000000000018
40
0.250000000000035
40
0.250000000000035
40
0.375000000000053
40
0.375000000000053
40
0.437500000000022
40
0.437500000000022
40
0.499999999999992
40
0.562499999999961
40
0.562499999999961
40
0.624999999999931
40
0.624999999999931
40
0.749999999999954
40
0.749999999999954
40
0.874999999999977
40
0.874999999999977
40
1
40
1
40
1
40
1
41
1
10
258.173602303693
20
8.83664886651573
30
0
41
1
10
258.133089948476
20
8.77269674955448
30
0
41
1
10
258.088930173589
20
8.71197619227107
30
0
41
1
10
257.992196210732
20
8.59805141377026
30
0
41
1
10
257.939220185845
20
8.54447252005963
30
0
41
1
10
257.824558497637
20
8.44851981308616
30
0
41
1
10
257.763799279151
20
8.40681080865804
30
0
41
1
10
257.666674896595
20
8.35536717726228
30
0
41
1
10
257.633030953289
20
8.34000031681308
30
0
41
1
10
257.565264115038
20
8.31408228274495
30
0
41
1
10
257.496904122313
20
8.2928352658933
30
0
41
1
10
257.427384762103
20
8.28090962178243
30
0
41
1
10
257.357288199241
20
8.27368004204783
30
0
41
1
10
257.321725908379
20
8.27244147205397
30
0
41
1
10
257.216914586582
20
8.27565656482551
30
0
41
1
10
257.148912333727
20
8.28681698580769
30
0
41
1
10
257.015859579248
20
8.32361658037817
30
0
41
1
10
256.952303297526
20
8.34883477874592
30
0
41
1
10
256.830339666737
20
8.40829475128291
30
0
41
1
10
256.771706085482
20
8.44263631656773
30
0
41
1
10
256.71464682599
20
8.4802011473775
30
0
0
SPLINE
5
2E8
100
AcDbEntity
8
1
62
256
6
ByLayer
370
13
48
1
60
0
100
AcDbSpline
70
4
71
3
72
8
73
4
40
0
40
0
40
0
40
0
40
1
40
1
40
1
40
1
41
1
10
259.21934280623
20
21.7133637754394
30
0
41
1
10
259.207559801547
20
21.6927396728315
30
0
41
1
10
259.194999875524
20
21.6739390075707
30
0
41
1
10
259.182158086286
20
21.656874427218
30
0
0
SPLINE
5
2E9
100
AcDbEntity
8
1
62
256
6
ByLayer
370
13
48
1
60
0
100
AcDbSpline
70
4
71
3
72
8
73
4
40
0
40
0
40
0
40
0
40
1
40
1
40
1
40
1
41
1
10
246.674966094762
20
4.85792765035308
30
0
41
1
10
246.741056119296
20
4.83919160290779
30
0
41
1
10
246.807106061703
20
4.82060794097384
30
0
41
1
10
246.873115289947
20
4.80217906743869
30
0
0
SPLINE
5
2EA
100
AcDbEntity
8
1
62
256
6
ByLayer
370
13
48
1
60
0
100
AcDbSpline
70
4
71
3
72
8
73
4
40
0
40
0
40
0
40
0
40
1
40
1
40
1
40
1
41
1
10
256.589738298163
20
-0.331925074406342
30
0
41
1
10
256.813143413236
20
-0.355822419186012
30
0
41
1
10
257.036553722419
20
-0.379697053706508
30
0
41
1
10
257.259969144042
20
-0.403549259004194
30
0
0
SPLINE
5
2EB
100
AcDbEntity
8
1
62
256
6
ByLayer
370
13
48
1
60
0
100
AcDbSpline
70
4
71
3
72
26
73
22
40
0
40
0
40
0
40
0
40
0.0625
40
0.0625
40
0.125
40
0.125
40
0.15625
40
0.15625
40
0.187500000000001
40
0.187500000000001
40
0.250000000000001
40
0.250000000000001
40
0.312500000000001
40
0.312500000000001
40
0.375000000000001
40
0.375000000000001
40
0.500000000000001
40
0.500000000000001
40
0.75
40
0.75
40
1
40
1
40
1
40
1
41
1
10
133.22808
20
-29.0572208140974
30
0
41
1
10
131.293185114589
20
-29.0513152197746
30
0
41
1
10
129.355385796555
20
-29.0453131896147
30
0
41
1
10
125.474263430245
20
-29.0365712948767
30
0
41
1
10
123.530714322612
20
-29.0338094926075
30
0
41
1
10
120.615512351653
20
-29.0333272605442
30
0
41
1
10
119.643633235127
20
-29.0337637639766
30
0
41
1
10
117.699599100471
20
-29.0359048787932
30
0
41
1
10
116.727438053156
20
-29.0376385510102
30
0
41
1
10
113.810627805966
20
-29.0444233763143
30
0
41
1
10
111.865670569551
20
-29.0509679929212
30
0
41
1
10
107.975673603543
20
-29.0644692366181
30
0
41
1
10
106.03063436114
20
-29.0715517745355
30
0
41
1
10
102.140587057734
20
-29.0853218813679
30
0
41
1
10
100.195559636183
20
-29.0919821617559
30
0
41
1
10
94.3604709183786
20
-29.1115823066872
30
0
41
1
10
90.4704041162616
20
-29.1241971964979
30
0
41
1
10
78.8002129776913
20
-29.162587258089
30
0
41
1
10
71.0200898840569
20
-29.1884276654085
30
0
41
1
10
55.4598456540572
20
-29.2402778329075
30
0
41
1
10
47.6797247648978
20
-29.2662896213929
30
0
41
1
10
39.8995999999999
20
-29.2920114689049
30
0
0
SPLINE
5
2EC
100
AcDbEntity
8
1
62
256
6
ByLayer
370
13
48
1
60
0
100
AcDbSpline
70
4
71
3
72
32
73
28
40
0
40
0
40
0
40
0
40
0.125179945362085
40
0.125179945362085
40
0.250359890724169
40
0.250359890724169
40
0.375539836086254
40
0.375539836086254
40
0.500719781448339
40
0.500719781448339
40
0.625899726810424
40
0.625899726810424
40
0.688489699491467
40
0.688489699491467
40
0.75107967217251
40
0.75107967217251
40
0.876259617534598
40
0.876259617534598
40
0.90755460387512
40
0.90755460387512
40
0.92320209704538
40
0.92320209704538
40
0.938849590215641
40
0.938849590215641
40
0.970144576556161
40
0.970144576556161
40
1
40
1
40
1
40
1
41
1
10
246.691621093182
20
28.7184931620105
30
0
41
1
10
244.613466535298
20
28.8494956884834
30
0
41
1
10
242.535988447358
20
28.936235572447
30
0
41
1
10
238.379648211011
20
29.0206040928528
30
0
41
1
10
236.303521592761
20
29.0181792655907
30
0
41
1
10
232.152098779874
20
28.9230196616251
30
0
41
1
10
230.07680945731
20
28.8301738656146
30
0
41
1
10
225.92352692136
20
28.5523799136942
30
0
41
1
10
223.845303869056
20
28.3677719873326
30
0
41
1
10
219.690401991906
20
27.9134231550923
30
0
41
1
10
217.612213526284
20
27.6436947010415
30
0
41
1
10
214.495648889728
20
27.1794969892052
30
0
41
1
10
213.456857433319
20
27.0145253210484
30
0
41
1
10
211.379065840384
20
26.6614637693383
30
0
41
1
10
210.339850770912
20
26.473287171603
30
0
41
1
10
207.22429597903
20
25.8714127153893
30
0
41
1
10
205.148746895713
20
25.4227274321868
30
0
41
1
10
202.552815962489
20
24.8361464099295
30
0
41
1
10
202.033573609299
20
24.7174992520254
30
0
41
1
10
201.25461521162
20
24.5380275560683
30
0
41
1
10
200.994949282608
20
24.4779606177831
30
0
41
1
10
200.47557619113
20
24.3573729614352
30
0
41
1
10
200.215836455733
20
24.2967428254173
30
0
41
1
10
199.435414405825
20
24.111081788472
30
0
41
1
10
198.913656708549
20
23.9827491606664
30
0
41
1
10
197.892446925035
20
23.7280861354259
30
0
41
1
10
197.39312955756
20
23.6020516275399
30
0
41
1
10
196.893154494335
20
23.4749578346657
30
0
0
SPLINE
5
2ED
100
AcDbEntity
8
1
62
256
6
ByLayer
370
13
48
1
60
0
100
AcDbSpline
70
4
71
3
72
14
73
10
40
0
40
0
40
0
40
0
40
0.499999999999999
40
0.499999999999999
40
0.75
40
0.75
40
0.875
40
0.875
40
1
40
1
40
1
40
1
41
1
10
252.013811105253
20
2.52075843046376
30
0
41
1
10
252.495524327737
20
2.41114469763224
30
0
41
1
10
252.979873271469
20
2.36129586433842
30
0
41
1
10
253.705065300699
20
2.37522002196872
30
0
41
1
10
253.946559149039
20
2.39474473383908
30
0
41
1
10
254.307549137936
20
2.44712961811925
30
0
41
1
10
254.427163643046
20
2.46839207475313
30
0
41
1
10
254.663182181399
20
2.51808141861699
30
0
41
1
10
254.779839589083
20
2.54654369171038
30
0
41
1
10
254.895078221687
20
2.57854347765237
30
0
0
SPLINE
5
2EE
100
AcDbEntity
8
1
62
256
6
ByLayer
370
13
48
1
60
0
100
AcDbSpline
70
4
71
3
72
14
73
10
40
0
40
0
40
0
40
0
40
0.0145581563179551
40
0.0145581563179551
40
0.343038770878637
40
0.343038770878637
40
0.671519385439318
40
0.671519385439318
40
1
40
1
40
1
40
1
41
1
10
259.912690710356
20
27.8596485779908
30
0
41
1
10
259.912699997023
20
27.8564755486367
30
0
41
1
10
259.91271178338
20
27.8532937118724
30
0
41
1
10
259.913040074466
20
27.7781744829674
30
0
41
1
10
259.914504453329
20
27.7014956965296
30
0
41
1
10
259.918143052513
20
27.5469124383801
30
0
41
1
10
259.920389420293
20
27.4685041732691
30
0
41
1
10
259.925343214699
20
27.3107971541119
30
0
41
1
10
259.928058979334
20
27.2314918916703
30
0
41
1
10
259.930937023227
20
27.15187972209
30
0
0
SPLINE
5
2EF
100
AcDbEntity
8
1
62
256
6
ByLayer
370
13
48
1
60
0
100
AcDbSpline
70
4
71
3
72
10
73
6
40
0
40
0
40
0
40
0
40
0.5
40
0.5
40
1
40
1
40
1
40
1
41
1
10
5.00330000000001
20
-5.56776436283138
30
0
41
1
10
5.86598081189872
20
-5.48324800333134
30
0
41
1
10
6.72301510583797
20
-5.36763634991465
30
0
41
1
10
8.42397728668577
20
-5.0642362463895
30
0
41
1
10
9.26797837335776
20
-4.87685090633343
30
0
41
1
10
10.1033
20
-4.64166790361355
30
0
0
SPLINE
5
2F0
100
AcDbEntity
8
1
62
256
6
ByLayer
370
13
48
1
60
0
100
AcDbSpline
70
4
71
3
72
8
73
4
40
0
40
0
40
0
40
0
40
1
40
1
40
1
40
1
41
1
10
253.925870242132
20
13.4717412302449
30
0
41
1
10
254.339811719765
20
13.4786909797759
30
0
41
1
10
254.73959060357
20
13.454220106067
30
0
41
1
10
255.125395181488
20
13.3975621595137
30
0
0
SPLINE
5
2F1
100
AcDbEntity
8
1
62
256
6
ByLayer
370
13
48
1
60
0
100
AcDbSpline
70
4
71
3
72
18
73
14
40
0
40
0
40
0
40
0
40
0.249999999999981
40
0.249999999999981
40
0.374999999999973
40
0.374999999999973
40
0.499999999999966
40
0.499999999999966
40
0.749999999999946
40
0.749999999999946
40
0.874999999999973
40
0.874999999999973
40
1
40
1
40
1
40
1
41
1
10
257.320690183879
20
11.3471073067058
30
0
41
1
10
257.319623686061
20
11.2423770834874
30
0
41
1
10
257.310515425764
20
11.1388932236164
30
0
41
1
10
257.283556862932
20
10.9857281589265
30
0
41
1
10
257.272342971895
20
10.9350184009676
30
0
41
1
10
257.245059507802
20
10.8343514494424
30
0
41
1
10
257.228880939981
20
10.7841437078966
30
0
41
1
10
257.1733304215
20
10.6376048469486
30
0
41
1
10
257.126999142816
20
10.5447877834017
30
0
41
1
10
257.041693685096
20
10.4138519297878
30
0
41
1
10
257.010344428946
20
10.3713206514298
30
0
41
1
10
256.943431789733
20
10.291300620085
30
0
41
1
10
256.907844382375
20
10.2536849616532
30
0
41
1
10
256.870103931058
20
10.2184883290886
30
0
0
SPLINE
5
2F2
100
AcDbEntity
8
1
62
256
6
ByLayer
370
13
48
1
60
0
100
AcDbSpline
70
4
71
3
72
8
73
4
40
0
40
0
40
0
40
0
40
1
40
1
40
1
40
1
41
1
10
32.0410286468248
20
-28.6245835534936
30
0
41
1
10
32.0410286490958
20
-28.8620279646759
30
0
41
1
10
32.0410286513941
20
-29.0994723758372
30
0
41
1
10
32.0410286537196
20
-29.3369167869774
30
0
0
SPLINE
5
2F3
100
AcDbEntity
8
1
62
256
6
ByLayer
370
13
48
1
60
0
100
AcDbSpline
70
4
71
3
72
26
73
22
40
0
40
0
40
0
40
0
40
0.011284762005668
40
0.011284762005668
40
0.121142010671705
40
0.121142010671705
40
0.230999259337742
40
0.230999259337742
40
0.340856508003779
40
0.340856508003779
40
0.450713756669816
40
0.450713756669816
40
0.505642381002835
40
0.505642381002835
40
0.560571005335853
40
0.560571005335853
40
0.67042825400189
40
0.67042825400189
40
0.780285502667927
40
0.780285502667927
40
1
40
1
40
1
40
1
41
1
10
15.6717815294263
20
-12.2634425842133
30
0
41
1
10
15.6144639277155
20
-12.305528857052
30
0
41
1
10
15.5573849144927
20
-12.3477703505168
30
0
41
1
10
14.9474516352773
20
-12.8027174557287
30
0
41
1
10
14.4167837573617
20
-13.2298847741664
30
0
41
1
10
13.3997716809384
20
-14.1128104224951
30
0
41
1
10
12.9136214046678
20
-14.5687658994494
30
0
41
1
10
11.9847118619507
20
-15.5098674472552
30
0
41
1
10
11.5418674518216
20
-15.9947946148053
30
0
41
1
10
10.6988492623734
20
-16.9928363281762
30
0
41
1
10
10.2986712877263
20
-17.5059489102329
30
0
41
1
10
9.73104787183033
20
-18.2969735494971
30
0
41
1
10
9.54729197977314
20
-18.5642145361452
30
0
41
1
10
9.19094169233806
20
-19.1059544784893
30
0
41
1
10
9.0188737645335
20
-19.3796934934686
30
0
41
1
10
8.52354798697553
20
-20.2054135125413
30
0
41
1
10
8.22032595656061
20
-20.7633221906113
30
0
41
1
10
7.66653257267552
20
-21.8958318778437
30
0
41
1
10
7.41558666563843
20
-22.4701869849684
30
0
41
1
10
6.73553486378067
20
-24.215682068707
30
0
41
1
10
6.37848451712932
20
-25.4090636918349
30
0
41
1
10
6.11271852644305
20
-26.6294767759451
30
0
0
SPLINE
5
2F4
100
AcDbEntity
8
1
62
256
6
ByLayer
370
13
48
1
60
0
100
AcDbSpline
70
4
71
3
72
14
73
10
40
0
40
0
40
0
40
0
40
0.500000000000003
40
0.500000000000003
40
0.625000000000003
40
0.625000000000003
40
0.750000000000003
40
0.750000000000003
40
1
40
1
40
1
40
1
41
1
10
28.4082253887689
20
-11.271780827965
30
0
41
1
10
28.9812608109889
20
-11.0497671962511
30
0
41
1
10
29.573122690404
20
-10.8801515076314
30
0
41
1
10
30.3370212456809
20
-10.7360971404475
30
0
41
1
10
30.4912002307643
20
-10.7106981070476
30
0
41
1
10
30.7996006320994
20
-10.6672140281874
30
0
41
1
10
30.9540912692334
20
-10.649069197716
30
0
41
1
10
31.4184310117922
20
-10.6053732447547
30
0
41
1
10
31.7291461929265
20
-10.590537523561
30
0
41
1
10
32.0410284888761
20
-10.5901327307611
30
0
0
SPLINE
5
2F5
100
AcDbEntity
8
1
62
256
6
ByLayer
370
13
48
1
60
0
100
AcDbSpline
70
4
71
3
72
8
73
4
40
0
40
0
40
0
40
0
40
1
40
1
40
1
40
1
41
1
10
0.0999999999999659
20
-5.56776436282993
30
0
41
1
10
0.0648944344305846
20
-5.37072855948901
30
0
41
1
10
0.03155109950454
20
-5.17345582387856
30
0
41
1
10
0
20
-4.97594212184998
30
0
0
SPLINE
5
2F6
100
AcDbEntity
8
1
62
256
6
ByLayer
370
13
48
1
60
0
100
AcDbSpline
70
4
71
3
72
24
73
20
40
0
40
0
40
0
40
0
40
0.125
40
0.125
40
0.25
40
0.25
40
0.375
40
0.375
40
0.5
40
0.5
40
0.625000000000001
40
0.625000000000001
40
0.687500000000001
40
0.687500000000001
40
0.750000000000001
40
0.750000000000001
40
0.875
40
0.875
40
1
40
1
40
1
40
1
41
1
10
263.48934414633
20
9.62776267301416
30
0
41
1
10
263.368674541019
20
9.53210904947935
30
0
41
1
10
263.241089913449
20
9.44528751607922
30
0
41
1
10
262.972914252458
20
9.29103580526936
30
0
41
1
10
262.834775934332
20
9.22494493270207
30
0
41
1
10
262.549933499698
20
9.11401132507808
30
0
41
1
10
262.402846219437
20
9.06908561264768
30
0
41
1
10
262.10084818898
20
9.00164793655273
30
0
41
1
10
261.948925409137
20
8.97974594222276
30
0
41
1
10
261.643189134893
20
8.95866769903003
30
0
41
1
10
261.48937568002
20
8.95949264325142
30
0
41
1
10
261.25728474418
20
8.97827205779478
30
0
41
1
10
261.179573169932
20
8.98751406591776
30
0
41
1
10
261.026344477614
20
9.01158832825186
30
0
41
1
10
260.950502311493
20
9.02643486620667
30
0
41
1
10
260.725279409823
20
9.07925203833975
30
0
41
1
10
260.578185677806
20
9.12544850846925
30
0
41
1
10
260.290429179865
20
9.24025020561862
30
0
41
1
10
260.149469404933
20
9.30927050555258
30
0
41
1
10
260.016545705764
20
9.3875542173619
30
0
0
SPLINE
5
2F7
100
AcDbEntity
8
1
62
256
6
ByLayer
370
13
48
1
60
0
100
AcDbSpline
70
4
71
3
72
8
73
4
40
0
40
0
40
0
40
0
40
1
40
1
40
1
40
1
41
1
10
258.173602303693
20
8.83664886651599
30
0
41
1
10
258.259068953026
20
8.8120862956934
30
0
41
1
10
258.344399202701
20
8.78757607967177
30
0
41
1
10
258.429591856816
20
8.76311867747842
30
0
0
SPLINE
5
2F8
100
AcDbEntity
8
1
62
256
6
ByLayer
370
13
48
1
60
0
100
AcDbSpline
70
4
71
3
72
18
73
14
40
0
40
0
40
0
40
0
40
0.124999999999988
40
0.124999999999988
40
0.249999999999976
40
0.249999999999976
40
0.499999999999984
40
0.499999999999984
40
0.749999999999992
40
0.749999999999992
40
0.874999999999996
40
0.874999999999996
40
1
40
1
40
1
40
1
41
1
10
257.320690183974
20
11.3471073068093
30
0
41
1
10
257.255321191042
20
11.4458233982778
30
0
41
1
10
257.186458503389
20
11.5441587692522
30
0
41
1
10
257.041146202225
20
11.7397378281132
30
0
41
1
10
256.964982426596
20
11.836551069854
30
0
41
1
10
256.728145187738
20
12.1204944577527
30
0
41
1
10
256.558238518308
20
12.3024252213401
30
0
41
1
10
256.192900556958
20
12.6492387471847
30
0
41
1
10
255.997454511983
20
12.8140869045882
30
0
41
1
10
255.683334189027
20
13.0463606231683
30
0
41
1
10
255.574590908533
20
13.1216219170684
30
0
41
1
10
255.352957947915
20
13.2649109431257
30
0
41
1
10
255.240138789933
20
13.3329579772758
30
0
41
1
10
255.125395181488
20
13.3975621595137
30
0
0
SPLINE
5
2F9
100
AcDbEntity
8
1
62
256
6
ByLayer
370
13
48
1
60
0
100
AcDbSpline
70
4
71
3
72
10
73
6
40
0
40
0
40
0
40
0
40
0.5
40
0.5
40
1
40
1
40
1
40
1
41
1
10
255.718305574407
20
13.4153094743134
30
0
41
1
10
255.927522635575
20
13.3949889455801
30
0
41
1
10
256.130923405709
20
13.382373631263
30
0
41
1
10
256.529978900891
20
13.3685568048525
30
0
41
1
10
256.725611645239
20
13.3673251470397
30
0
41
1
10
256.918498707933
20
13.3702991182499
30
0
0
SPLINE
5
2FA
100
AcDbEntity
8
1
62
256
6
ByLayer
370
13
48
1
60
0
100
AcDbSpline
70
4
71
3
72
8
73
4
40
0
40
0
40
0
40
0
40
1
40
1
40
1
40
1
41
1
10
252.982319022452
20
10.4057637392956
30
0
41
1
10
253.069935099983
20
10.7132504527991
30
0
41
1
10
253.150843461495
20
11.0218435732303
30
0
41
1
10
253.227905450872
20
11.3310711350666
30
0
0
SPLINE
5
2FB
100
AcDbEntity
8
1
62
256
6
ByLayer
370
13
48
1
60
0
100
AcDbSpline
70
4
71
3
72
10
73
6
40
0
40
0
40
0
40
0
40
0.831982487582155
40
0.831982487582155
40
1
40
1
40
1
40
1
41
1
10
259.182158086286
20
21.656874427218
30
0
41
1
10
259.146687053883
20
21.609739384633
30
0
41
1
10
259.115854038124
20
21.5645630853527
30
0
41
1
10
259.088473478873
20
21.5194665983162
30
0
41
1
10
259.084234019059
20
21.5122494466414
30
0
41
1
10
259.080450573211
20
21.5055493924126
30
0
0
SPLINE
5
2FC
100
AcDbEntity
8
1
62
256
6
ByLayer
370
13
48
1
60
0
100
AcDbSpline
70
4
71
3
72
10
73
6
40
0
40
0
40
0
40
0
40
0.5
40
0.5
40
1
40
1
40
1
40
1
41
1
10
273.114238565164
20
11.6069749358428
30
0
41
1
10
273.138695995681
20
11.617251048492
30
0
41
1
10
273.164760152765
20
11.6256438890331
30
0
41
1
10
273.218095542528
20
11.6377955776778
30
0
41
1
10
273.245544011754
20
11.6416565957239
30
0
41
1
10
273.273785779291
20
11.6431523117506
30
0
0
SPLINE
5
2FD
100
AcDbEntity
8
1
62
256
6
ByLayer
370
13
48
1
60
0
100
AcDbSpline
70
4
71
3
72
8
73
4
40
0
40
0
40
0
40
0
40
1
40
1
40
1
40
1
41
1
10
246.691621093198
20
28.7184931620002
30
0
41
1
10
246.713541193252
20
28.7518752497078
30
0
41
1
10
246.735426439259
20
28.7852805840785
30
0
41
1
10
246.75727702472
20
28.8187090360527
30
0
0
SPLINE
5
2FE
100
AcDbEntity
8
1
62
256
6
ByLayer
370
13
48
1
60
0
100
AcDbSpline
70
4
71
3
72
10
73
6
40
0
40
0
40
0
40
0
40
0.5
40
0.5
40
1
40
1
40
1
40
1
41
1
10
256.714646825991
20
8.48020114737733
30
0
41
1
10
256.138352581833
20
8.85960312299289
30
0
41
1
10
255.534308120158
20
9.20354450565077
30
0
41
1
10
254.286456009764
20
9.84061591464294
30
0
41
1
10
253.642449424526
20
10.1334917301057
30
0
41
1
10
252.982319022452
20
10.4057637392955
30
0
0
SPLINE
5
2FF
100
AcDbEntity
8
1
62
256
6
ByLayer
370
13
48
1
60
0
100
AcDbSpline
70
4
71
3
72
14
73
10
40
0
40
0
40
0
40
0
40
0.25
40
0.25
40
0.5
40
0.5
40
0.75
40
0.75
40
1
40
1
40
1
40
1
41
1
10
253.649077514993
20
13.3367745196116
30
0
41
1
10
253.655721460418
20
13.3626254466754
30
0
41
1
10
253.672452781163
20
13.3849590993177
30
0
41
1
10
253.713214755396
20
13.4195672828243
30
0
41
1
10
253.737484562818
20
13.4326191613906
30
0
41
1
10
253.788134357875
20
13.452492771125
30
0
41
1
10
253.815171615076
20
13.459513364861
30
0
41
1
10
253.869832184996
20
13.4688670304256
30
0
41
1
10
253.897663152064
20
13.4712678273424
30
0
41
1
10
253.925919755122
20
13.4717420613781
30
0
0
SPLINE
5
300
100
AcDbEntity
8
1
62
256
6
ByLayer
370
13
48
1
60
0
100
AcDbSpline
70
4
71
3
72
18
73
14
40
0
40
0
40
0
40
0
40
0.249999999999999
40
0.249999999999999
40
0.374999999999998
40
0.374999999999998
40
0.499999999999997
40
0.499999999999997
40
0.749999999999998
40
0.749999999999998
40
0.874999999999999
40
0.874999999999999
40
1
40
1
40
1
40
1
41
1
10
264.473759616462
20
10.9816880514998
30
0
41
1
10
264.468339013916
20
10.981403969763
30
0
41
1
10
264.46950306217
20
10.9916570109067
30
0
41
1
10
264.484628497669
20
11.0200676723037
30
0
41
1
10
264.491942838907
20
11.0315696921417
30
0
41
1
10
264.511802901155
20
11.057063469559
30
0
41
1
10
264.524615423086
20
11.0713060962441
30
0
41
1
10
264.570596732581
20
11.1137674556653
30
0
41
1
10
264.612732277459
20
11.142457434995
30
0
41
1
10
264.685966391343
20
11.173640142631
30
0
41
1
10
264.712463651509
20
11.1823175071962
30
0
41
1
10
264.766585704975
20
11.194798270407
30
0
41
1
10
264.794442941836
20
11.1987529228481
30
0
41
1
10
264.823106336352
20
11.2002709687134
30
0
0
SPLINE
5
301
100
AcDbEntity
8
1
62
256
6
ByLayer
370
13
48
1
60
0
100
AcDbSpline
70
4
71
1
72
4
73
2
40
0
40
0
40
1
40
1
41
1
10
35.3495999999999
20
-16.4700392770853
30
0
41
1
10
34.9096
20
-16.4700392770853
30
0
0
SPLINE
5
302
100
AcDbEntity
8
1
62
256
6
ByLayer
370
13
48
1
60
0
100
AcDbSpline
70
4
71
3
72
62
73
58
40
0
40
0
40
0
40
0
40
0.0312500000000001
40
0.0312500000000001
40
0.0625000000000002
40
0.0625000000000002
40
0.0937500000000004
40
0.0937500000000004
40
0.125000000000001
40
0.125000000000001
40
0.140625
40
0.140625
40
0.15625
40
0.15625
40
0.1640625
40
0.1640625
40
0.171875
40
0.171875
40
0.179687499999999
40
0.179687499999999
40
0.187499999999999
40
0.187499999999999
40
0.203124999999999
40
0.203124999999999
40
0.218749999999999
40
0.218749999999999
40
0.249999999999999
40
0.249999999999999
40
0.281249999999999
40
0.281249999999999
40
0.312499999999999
40
0.312499999999999
40
0.343749999999999
40
0.343749999999999
40
0.374999999999999
40
0.374999999999999
40
0.437499999999999
40
0.437499999999999
40
0.499999999999999
40
0.499999999999999
40
0.562499999999999
40
0.562499999999999
40
0.624999999999999
40
0.624999999999999
40
0.687499999999999
40
0.687499999999999
40
0.749999999999999
40
0.749999999999999
40
0.781249999999999
40
0.781249999999999
40
0.8125
40
0.8125
40
0.875
40
0.875
40
0.9375
40
0.9375
40
1
40
1
40
1
40
1
41
1
10
239.60947846137
20
-28.9566073552122
30
0
41
1
10
238.449555982683
20
-28.9430516263098
30
0
41
1
10
237.2880271504
20
-28.9301834065502
30
0
41
1
10
234.964520265696
20
-28.9036606188185
30
0
41
1
10
233.802443989415
20
-28.8901279576309
30
0
41
1
10
231.481417413491
20
-28.8578083566699
30
0
41
1
10
230.321951142259
20
-28.8389950642668
30
0
41
1
10
228.024848965551
20
-28.7889245407281
30
0
41
1
10
226.886123812797
20
-28.757763449629
30
0
41
1
10
225.201282811215
20
-28.6931195660461
30
0
41
1
10
224.643509086674
20
-28.668566650683
30
0
41
1
10
223.537100121015
20
-28.6113299695449
30
0
41
1
10
222.988514823993
20
-28.5786277779419
30
0
41
1
10
222.174090733297
20
-28.5210591718555
30
0
41
1
10
221.904025706469
20
-28.5004434289738
30
0
41
1
10
221.366978885808
20
-28.455863525274
30
0
41
1
10
221.100261874626
20
-28.4316952207707
30
0
41
1
10
220.568095118845
20
-28.3810207797794
30
0
41
1
10
220.302235795321
20
-28.3548305202436
30
0
41
1
10
219.770325458468
20
-28.3012175024471
30
0
41
1
10
219.504466326736
20
-28.273648125779
30
0
41
1
10
218.707169529925
20
-28.1886202889407
30
0
41
1
10
218.175860449285
20
-28.1289532486559
30
0
41
1
10
217.112581824316
20
-28.0046186261736
30
0
41
1
10
216.58074703403
20
-27.9398640408483
30
0
41
1
10
214.985227551957
20
-27.7378391151806
30
0
41
1
10
213.921423512895
20
-27.5927881477832
30
0
41
1
10
211.794411875642
20
-27.2815160459843
30
0
41
1
10
210.73118936989
20
-27.1153042360491
30
0
41
1
10
208.606046374575
20
-26.7609216199324
30
0
41
1
10
207.544353181189
20
-26.5725198659435
30
0
41
1
10
205.421362759799
20
-26.1741339509115
30
0
41
1
10
204.359915162273
20
-25.9642772143197
30
0
41
1
10
202.234753871538
20
-25.5257414675417
30
0
41
1
10
201.170940898819
20
-25.2970912888033
30
0
41
1
10
197.976996857582
20
-24.5880878319995
30
0
41
1
10
195.843050298998
20
-24.0843280861736
30
0
41
1
10
191.554183849306
20
-23.0390783715
30
0
41
1
10
189.399513423631
20
-22.4973820467113
30
0
41
1
10
185.06294333355
20
-21.3975816471383
30
0
41
1
10
182.884628729679
20
-20.8400174641363
30
0
41
1
10
178.506363851325
20
-19.7294922319531
30
0
41
1
10
176.305932178776
20
-19.1765394998479
30
0
41
1
10
171.878554240786
20
-18.0947297996951
30
0
41
1
10
169.651135522832
20
-17.5653904964851
30
0
41
1
10
165.178930619087
20
-16.5471918826273
30
0
41
1
10
162.932859703838
20
-16.0581547912017
30
0
41
1
10
159.547567463014
20
-15.3648305764897
30
0
41
1
10
158.416486460501
20
-15.1402714379611
30
0
41
1
10
156.14915329424
20
-14.7047389318317
30
0
41
1
10
155.012577648681
20
-14.4937088553101
30
0
41
1
10
151.598688549567
20
-13.8822897075345
30
0
41
1
10
149.316696708428
20
-13.5034219580729
30
0
41
1
10
144.740832635207
20
-12.8063432112552
30
0
41
1
10
142.446943840315
20
-12.4882146911981
30
0
41
1
10
137.847003506778
20
-11.9179476446975
30
0
41
1
10
135.540901981212
20
-11.6660897537742
30
0
41
1
10
133.22808
20
-11.4524941254083
30
0
0
SPLINE
5
303
100
AcDbEntity
8
1
62
256
6
ByLayer
370
13
48
1
60
0
100
AcDbSpline
70
4
71
3
72
46
73
42
40
0
40
0
40
0
40
0
40
0.124999999999999
40
0.124999999999999
40
0.156249999999999
40
0.156249999999999
40
0.187499999999998
40
0.187499999999998
40
0.249999999999998
40
0.249999999999998
40
0.281249999999998
40
0.281249999999998
40
0.312499999999998
40
0.312499999999998
40
0.374999999999999
40
0.374999999999999
40
0.437499999999999
40
0.437499999999999
40
0.46875
40
0.46875
40
0.5
40
0.5
40
0.5625
40
0.5625
40
0.624999999999999
40
0.624999999999999
40
0.65625
40
0.65625
40
0.6875
40
0.6875
40
0.749999999999999
40
0.749999999999999
40
0.812499999999999
40
0.812499999999999
40
0.843749999999999
40
0.843749999999999
40
0.874999999999999
40
0.874999999999999
40
0.937499999999999
40
0.937499999999999
40
1
40
1
40
1
40
1
41
1
10
6.11271852644303
20
-26.6294767759451
30
0
41
1
10
5.9028702576241
20
-27.0372219680069
30
0
41
1
10
5.79309140861609
20
-27.4257486582857
30
0
41
1
10
5.78206544874642
20
-27.8842090521809
30
0
41
1
10
5.78624143546611
20
-27.9740221868705
30
0
41
1
10
5.80716654460693
20
-28.1486311909883
30
0
41
1
10
5.82383793645316
20
-28.2336472152332
30
0
41
1
10
5.8918274189224
20
-28.4820308381734
30
0
41
1
10
5.96110997263925
20
-28.6387394362872
30
0
41
1
10
6.10096173043888
20
-28.8609520774476
30
0
41
1
10
6.1535130190388
20
-28.9328842301477
30
0
41
1
10
6.27066021308344
20
-29.0725195043254
30
0
41
1
10
6.33511255407592
20
-29.1399926288007
30
0
41
1
10
6.54369065844901
20
-29.3338029126833
30
0
41
1
10
6.7035298545691
20
-29.452387127569
30
0
41
1
10
7.06273817297722
20
-29.6704492739559
30
0
41
1
10
7.26215349403061
20
-29.769913359197
30
0
41
1
10
7.59084441827423
20
-29.9059000768982
30
0
41
1
10
7.70552344542064
20
-29.9490608901107
30
0
41
1
10
7.94209239916145
20
-30.0302459740636
30
0
41
1
10
8.06426982022121
20
-30.0684015273433
30
0
41
1
10
8.442180381992
20
-30.1760684738885
30
0
41
1
10
8.70926259729188
20
-30.238797992812
30
0
41
1
10
9.27306439072598
20
-30.3483209759131
30
0
41
1
10
9.56971126053757
20
-30.3951262929934
30
0
41
1
10
10.0376222772731
20
-30.4544841590454
30
0
41
1
10
10.1967146977863
20
-30.4723633849932
30
0
41
1
10
10.5192875363411
20
-30.5044270448962
30
0
41
1
10
10.6830226256663
20
-30.5186493653276
30
0
41
1
10
11.181710893413
20
-30.5562191009354
30
0
41
1
10
11.5239370814062
20
-30.5745606054316
30
0
41
1
10
12.227999896219
20
-30.5995351054231
30
0
41
1
10
12.5899902056821
20
-30.6061120275468
30
0
41
1
10
13.1487055373905
20
-30.6078975568349
30
0
41
1
10
13.3378192402341
20
-30.607129235536
30
0
41
1
10
13.7170607882122
20
-30.6030275746736
30
0
41
1
10
13.9077027634723
20
-30.5996998875471
30
0
41
1
10
14.4827135024693
20
-30.5861190727346
30
0
41
1
10
14.870163924026
20
-30.5722869798923
30
0
41
1
10
15.6536219768644
20
-30.5357342847561
30
0
41
1
10
16.0496128947633
20
-30.5130279478689
30
0
41
1
10
16.4502943739413
20
-30.485753738349
30
0
0
SPLINE
5
304
100
AcDbEntity
8
1
62
256
6
ByLayer
370
13
48
1
60
0
100
AcDbSpline
70
4
71
3
72
8
73
4
40
0
40
0
40
0
40
0
40
1
40
1
40
1
40
1
41
1
10
34.9095999999995
20
-28.6234877951042
30
0
41
1
10
33.9534095486708
20
-28.6238525273989
30
0
41
1
10
32.9972190978749
20
-28.6242182851693
30
0
41
1
10
32.0410286468248
20
-28.6245835534936
30
0
0
SPLINE
5
305
100
AcDbEntity
8
1
62
256
6
ByLayer
370
13
48
1
60
0
100
AcDbSpline
70
4
71
3
72
14
73
10
40
0
40
0
40
0
40
0
40
0.499999999999927
40
0.499999999999927
40
0.749999999999963
40
0.749999999999963
40
0.874999999999982
40
0.874999999999982
40
1
40
1
40
1
40
1
41
1
10
267.972915878551
20
11.3375296312599
30
0
41
1
10
268.148894872949
20
11.2878308921596
30
0
41
1
10
268.32425890345
20
11.2545122682271
30
0
41
1
10
268.588170356775
20
11.22573730742
30
0
41
1
10
268.676273112969
20
11.2197279482978
30
0
41
1
10
268.808796003557
20
11.2160134497764
30
0
41
1
10
268.853031659223
20
11.2156605257888
30
0
41
1
10
268.941654336184
20
11.2167362463167
30
0
41
1
10
268.986479991535
20
11.2181897048827
30
0
41
1
10
269.030381836172
20
11.2204905030665
30
0
0
SPLINE
5
306
100
AcDbEntity
8
1
62
256
6
ByLayer
370
13
48
1
60
0
100
AcDbSpline
70
4
71
3
72
16
73
12
40
0
40
0
40
0
40
0
40
0.25
40
0.25
40
0.375
40
0.375
40
0.5
40
0.5
40
0.75
40
0.75
40
1
40
1
40
1
40
1
41
1
10
278.403934311814
20
0.683145727321602
30
0
41
1
10
278.405192332103
20
0.731523208771904
30
0
41
1
10
278.407303761613
20
0.777177491414676
30
0
41
1
10
278.41154433473
20
0.8368285868724
30
0
41
1
10
278.413132451356
20
0.855291315791703
30
0
41
1
10
278.416662019591
20
0.889341054680557
30
0
41
1
10
278.418620548572
20
0.905009047153698
30
0
41
1
10
278.42485151315
20
0.946062937786365
30
0
41
1
10
278.429571628883
20
0.96629881012575
30
0
41
1
10
278.439787110406
20
0.990504489551086
30
0
41
1
10
278.445131726271
20
0.99436136258285
30
0
41
1
10
278.45072095721
20
0.989702829376711
30
0
0
SPLINE
5
307
100
AcDbEntity
8
1
62
256
6
ByLayer
370
13
48
1
60
0
100
AcDbSpline
70
4
71
3
72
8
73
4
40
0
40
0
40
0
40
0
40
1
40
1
40
1
40
1
41
1
10
253.925905564517
20
13.4715912471222
30
0
41
1
10
254.047027593491
20
14.7588453602057
30
0
41
1
10
254.165838648778
20
16.0448754039644
30
0
41
1
10
254.281825596892
20
17.3298424969033
30
0
0
SPLINE
5
308
100
AcDbEntity
8
1
62
256
6
ByLayer
370
13
48
1
60
0
100
AcDbSpline
70
4
71
3
72
18
73
14
40
0
40
0
40
0
40
0
40
0.249999999999993
40
0.249999999999993
40
0.499999999999986
40
0.499999999999986
40
0.62499999999999
40
0.62499999999999
40
0.749999999999993
40
0.749999999999993
40
0.874999999999996
40
0.874999999999996
40
1
40
1
40
1
40
1
41
1
10
253.229946410315
20
11.3384020321468
30
0
41
1
10
253.27132820286
20
11.4729311534604
30
0
41
1
10
253.309526530173
20
11.621379578826
30
0
41
1
10
253.383501136436
20
11.9462276629464
30
0
41
1
10
253.417641887939
20
12.115990941417
30
0
41
1
10
253.466954155198
20
12.3793816069123
30
0
41
1
10
253.483184027585
20
12.4693111331096
30
0
41
1
10
253.514773813212
20
12.6472766790366
30
0
41
1
10
253.53021296613
20
12.7357729155287
30
0
41
1
10
253.561401846569
20
12.9116168864632
30
0
41
1
10
253.577114968982
20
12.9990013518555
30
0
41
1
10
253.610818192015
20
13.172091058475
30
0
41
1
10
253.628328476128
20
13.2560420849186
30
0
41
1
10
253.649077514996
20
13.3367745196194
30
0
0
SPLINE
5
309
100
AcDbEntity
8
1
62
256
6
ByLayer
370
13
48
1
60
0
100
AcDbSpline
70
4
71
3
72
8
73
4
40
0
40
0
40
0
40
0
40
1
40
1
40
1
40
1
41
1
10
255.265677894958
20
13.4057557737759
30
0
41
1
10
255.219695909576
20
13.4000721786663
30
0
41
1
10
255.172907683189
20
13.3975472223316
30
0
41
1
10
255.125395181488
20
13.3975621595138
30
0
0
SPLINE
5
30A
100
AcDbEntity
8
1
62
256
6
ByLayer
370
13
48
1
60
0
100
AcDbSpline
70
2053
71
3
72
96
73
92
40
0
40
0
40
0
40
0
40
0.0312499999999696
40
0.0312499999999696
40
0.0468749999999544
40
0.0468749999999544
40
0.0624999999999392
40
0.0624999999999392
40
0.0937499999999199
40
0.0937499999999199
40
0.109374999999915
40
0.109374999999915
40
0.124999999999911
40
0.140624999999906
40
0.140624999999906
40
0.156249999999902
40
0.156249999999902
40
0.187499999999899
40
0.187499999999899
40
0.203124999999898
40
0.203124999999898
40
0.218749999999897
40
0.218749999999897
40
0.249999999999895
40
0.249999999999895
40
0.265624999999893
40
0.265624999999893
40
0.281249999999892
40
0.281249999999892
40
0.31249999999989
40
0.31249999999989
40
0.328124999999892
40
0.328124999999892
40
0.343749999999893
40
0.343749999999893
40
0.374999999999902
40
0.374999999999902
40
0.406249999999912
40
0.406249999999912
40
0.421874999999911
40
0.421874999999911
40
0.437499999999911
40
0.437499999999911
40
0.468749999999921
40
0.468749999999921
40
0.484374999999926
40
0.484374999999926
40
0.499999999999931
40
0.499999999999931
40
0.531249999999941
40
0.531249999999941
40
0.546874999999946
40
0.546874999999946
40
0.562499999999951
40
0.578124999999956
40
0.578124999999956
40
0.593749999999961
40
0.593749999999961
40
0.624999999999962
40
0.624999999999962
40
0.640624999999966
40
0.640624999999966
40
0.65624999999997
40
0.65624999999997
40
0.687499999999979
40
0.687499999999979
40
0.718749999999988
40
0.718749999999988
40
0.734374999999992
40
0.734374999999992
40
0.749999999999996
40
0.749999999999996
40
0.781250000000005
40
0.781250000000005
40
0.79687500000001
40
0.79687500000001
40
0.812500000000015
40
0.812500000000015
40
0.843750000000021
40
0.843750000000021
40
0.875000000000028
40
0.875000000000028
40
0.906250000000034
40
0.906250000000034
40
0.921875000000032
40
0.921875000000032
40
0.93750000000003
40
0.93750000000003
40
0.968750000000015
40
0.968750000000015
40
1
40
1
40
1
40
1
41
1
10
269.51916185594
20
-3.99465947511638
30
0
41
1
10
269.66165419845
20
-3.99465947511638
30
0
41
1
10
269.801617437273
20
-4.00930352577004
30
0
41
1
10
270.007931017431
20
-4.05228233969808
30
0
41
1
10
270.076092170551
20
-4.07013842318094
30
0
41
1
10
270.211164064806
20
-4.11308026722855
30
0
41
1
10
270.277889422931
20
-4.13815959461164
30
0
41
1
10
270.471625969853
20
-4.22246134013301
30
0
41
1
10
270.593800812649
20
-4.2911150616477
30
0
41
1
10
270.766665099721
20
-4.41258012469183
30
0
41
1
10
270.822781340267
20
-4.45641417243931
30
0
41
1
10
270.929232244035
20
-4.54854300652033
30
0
41
1
10
271.030365981888
20
-4.64537575824738
30
0
41
1
10
271.121181510279
20
-4.75131216931749
30
0
41
1
10
271.20684692755
20
-4.86178022256806
30
0
41
1
10
271.247253419859
20
-4.91952187604846
30
0
41
1
10
271.35949949266
20
-5.09801756027207
30
0
41
1
10
271.42154968832
20
-5.22232835076755
30
0
41
1
10
271.496472344682
20
-5.41627579151768
30
0
41
1
10
271.518399030064
20
-5.48218122268716
30
0
41
1
10
271.556071385696
20
-5.61653139682306
30
0
41
1
10
271.571709876237
20
-5.68472377266403
30
0
41
1
10
271.608571738204
20
-5.88903489397671
30
0
41
1
10
271.620195304272
20
-6.02612247491234
30
0
41
1
10
271.618538185152
20
-6.23303208700406
30
0
41
1
10
271.614743070892
20
-6.30254322436264
30
0
41
1
10
271.600730131968
20
-6.44031176303434
30
0
41
1
10
271.590568507814
20
-6.50837936251509
30
0
41
1
10
271.550890254443
20
-6.7102087323654
30
0
41
1
10
271.512265954112
20
-6.84161761236251
30
0
41
1
10
271.435590201848
20
-7.03394230219482
30
0
41
1
10
271.406784537287
20
-7.09737031271049
30
0
41
1
10
271.343962993727
20
-7.22002837343209
30
0
41
1
10
271.309835482931
20
-7.27958372160245
30
0
41
1
10
271.199366448209
20
-7.45299410446268
30
0
41
1
10
271.115025278404
20
-7.56164843058934
30
0
41
1
10
270.923346430836
20
-7.76416133520317
30
0
41
1
10
270.818322346261
20
-7.85538983773208
30
0
41
1
10
270.649101812448
20
-7.9754521176701
30
0
41
1
10
270.590629323687
20
-8.01276735921687
30
0
41
1
10
270.469392143198
20
-8.08179609193513
30
0
41
1
10
270.40625060733
20
-8.11367006190991
30
0
41
1
10
270.212773843932
20
-8.19910403329118
30
0
41
1
10
270.079732009772
20
-8.24220505530243
30
0
41
1
10
269.874079462535
20
-8.28614396249574
30
0
41
1
10
269.804506469429
20
-8.29731320387688
30
0
41
1
10
269.663221937121
20
-8.31238460615842
30
0
41
1
10
269.59210146555
20
-8.31618330154157
30
0
41
1
10
269.380679415547
20
-8.31644095342457
30
0
41
1
10
269.240939064758
20
-8.30202944454504
30
0
41
1
10
269.03315162693
20
-8.25836784907602
30
0
41
1
10
268.964235873954
20
-8.24006129238754
30
0
41
1
10
268.830294618689
20
-8.19697380893447
30
0
41
1
10
268.699382597974
20
-8.14725885635141
30
0
41
1
10
268.574350326839
20
-8.08464982288413
30
0
41
1
10
268.452256582613
20
-8.01557827870806
30
0
41
1
10
268.392557010741
20
-7.97767799173488
30
0
41
1
10
268.221579079392
20
-7.85678009085049
30
0
41
1
10
268.117038992993
20
-7.76600872641978
30
0
41
1
10
267.973776179592
20
-7.61513855803182
30
0
41
1
10
267.928092207561
20
-7.56209337022389
30
0
41
1
10
267.842712738294
20
-7.45272643411721
30
0
41
1
10
267.802940634776
20
-7.39638324125175
30
0
41
1
10
267.69205272278
20
-7.22253305477244
30
0
41
1
10
267.629286613077
20
-7.10024980201072
30
0
41
1
10
267.526349179029
20
-6.842640178632
30
0
41
1
10
267.487531154873
20
-6.71055480992337
30
0
41
1
10
267.447843034662
20
-6.50890117428438
30
0
41
1
10
267.437698867799
20
-6.44102335992537
30
0
41
1
10
267.423688344994
20
-6.30392076959538
30
0
41
1
10
267.419826158674
20
-6.23434197262051
30
0
41
1
10
267.418070831369
20
-6.02638272669711
30
0
41
1
10
267.429764630153
20
-5.88927269991402
30
0
41
1
10
267.466375202173
20
-5.68589390755051
30
0
41
1
10
267.481778206139
20
-5.61848485819235
30
0
41
1
10
267.51921178765
20
-5.48446916971292
30
0
41
1
10
267.541354845011
20
-5.41766426585261
30
0
41
1
10
267.616519275347
20
-5.22278402808931
30
0
41
1
10
267.678484088441
20
-5.09884230250142
30
0
41
1
10
267.826361076441
20
-4.86312267624442
30
0
41
1
10
267.91343579614
20
-4.75036672516657
30
0
41
1
10
268.105639308916
20
-4.5470506585774
30
0
41
1
10
268.211057299291
20
-4.45549079277851
30
0
41
1
10
268.38355333211
20
-4.33379860079012
30
0
41
1
10
268.443836278011
20
-4.29567400660216
30
0
41
1
10
268.566950710591
20
-4.22635657549878
30
0
41
1
10
268.629881701865
20
-4.19503675889072
30
0
41
1
10
268.822719609703
20
-4.11092163486475
30
0
41
1
10
268.956758236541
20
-4.06783913783684
30
0
41
1
10
269.235601374263
20
-4.00932087816281
30
0
41
1
10
269.376669513429
20
-3.99465947511638
30
0
41
1
10
269.51916185594
20
-3.99465947511638
30
0
0
SPLINE
5
30B
100
AcDbEntity
8
1
62
256
6
ByLayer
370
13
48
1
60
0
100
AcDbSpline
70
4
71
3
72
30
73
26
40
0
40
0
40
0
40
0
40
0.112589660359612
40
0.112589660359612
40
0.225179320719223
40
0.225179320719223
40
0.337768981078835
40
0.337768981078835
40
0.394063811258643
40
0.394063811258643
40
0.450358641438452
40
0.450358641438452
40
0.562948301798068
40
0.562948301798068
40
0.675537962157685
40
0.675537962157685
40
0.731832792337493
40
0.731832792337493
40
0.788127622517301
40
0.788127622517301
40
0.900717282876918
40
0.900717282876918
40
0.957012113056726
40
0.957012113056726
40
1
40
1
40
1
40
1
41
1
10
252.982319022452
20
10.4057637392961
30
0
41
1
10
252.383001327647
20
10.5486989214054
30
0
41
1
10
251.777495278637
20
10.666138305916
30
0
41
1
10
250.555305226725
20
10.8582233628709
30
0
41
1
10
249.938604125085
20
10.9327900589556
30
0
41
1
10
248.693917345447
20
11.0428168759124
30
0
41
1
10
248.065927069752
20
11.0782438146934
30
0
41
1
10
247.114695779382
20
11.1028338332658
30
0
41
1
10
246.796070701608
20
11.1062539970166
30
0
41
1
10
246.155507935423
20
11.1034762081555
30
0
41
1
10
245.832887867611
20
11.097242588534
30
0
41
1
10
244.867476974496
20
11.0641640844582
30
0
41
1
10
244.225705838387
20
11.0230696838262
30
0
41
1
10
242.945704682992
20
10.9031807065355
30
0
41
1
10
242.307473169249
20
10.824404860791
30
0
41
1
10
241.352804616429
20
10.6768992111925
30
0
41
1
10
241.035029578577
20
10.6228249256415
30
0
41
1
10
240.400401825217
20
10.5044263913795
30
0
41
1
10
240.082741334239
20
10.4399001254024
30
0
41
1
10
239.143104371784
20
10.2326826719113
30
0
41
1
10
238.531313931148
20
10.0760532171643
30
0
41
1
10
237.638945719419
20
9.81102492473238
30
0
41
1
10
237.345731758646
20
9.71763446429975
30
0
41
1
10
236.836981346424
20
9.54310816428989
30
0
41
1
10
236.618945374575
20
9.46405671003458
30
0
41
1
10
236.406137387288
20
9.3822550686929
30
0
0
SPLINE
5
30C
100
AcDbEntity
8
1
62
256
6
ByLayer
370
13
48
1
60
0
100
AcDbSpline
70
4
71
3
72
36
73
32
40
0
40
0
40
0
40
0
40
0.0407417776965918
40
0.0407417776965918
40
0.0940339011578931
40
0.0940339011578931
40
0.120679962888544
40
0.120679962888544
40
0.147326024619194
40
0.147326024619194
40
0.253910271541794
40
0.253910271541794
40
0.307202395003094
40
0.307202395003094
40
0.333848456733745
40
0.333848456733745
40
0.360494518464395
40
0.360494518464395
40
0.387140580195045
40
0.387140580195045
40
0.413786641925695
40
0.413786641925695
40
0.467078765386996
40
0.467078765386996
40
0.573663012309596
40
0.573663012309596
40
0.680247259232198
40
0.680247259232198
40
0.786831506154799
40
0.786831506154799
40
1
40
1
40
1
40
1
41
1
10
158.894472798984
20
-15.2476352179447
30
0
41
1
10
157.233397378453
20
-15.3627433716192
30
0
41
1
10
155.57025081289
20
-15.4705473370449
30
0
41
1
10
151.726251014284
20
-15.7002746631688
30
0
41
1
10
149.543686166685
20
-15.8159935952136
30
0
41
1
10
146.262767063068
20
-15.9651819231461
30
0
41
1
10
145.167940239023
20
-16.0108065714059
30
0
41
1
10
142.975793439366
20
-16.0937340868179
30
0
41
1
10
141.87831530503
20
-16.1311150027197
30
0
41
1
10
136.392325046908
20
-16.2986797984042
30
0
41
1
10
132.00225102623
20
-16.3714450272925
30
0
41
1
10
125.415358449752
20
-16.4358744266533
30
0
41
1
10
123.219435560127
20
-16.4501543264323
30
0
41
1
10
119.925091179956
20
-16.4639412680963
30
0
41
1
10
118.826898568802
20
-16.4671920292363
30
0
41
1
10
116.630351506194
20
-16.4709060399141
30
0
41
1
10
115.532002908566
20
-16.4713963854393
30
0
41
1
10
113.335276403242
20
-16.4708763303848
30
0
41
1
10
112.236894483984
20
-16.4699127373345
30
0
41
1
10
110.040124451223
20
-16.4689232668499
30
0
41
1
10
108.94173625427
20
-16.4688891017335
30
0
41
1
10
105.646564055204
20
-16.4693940014667
30
0
41
1
10
103.449770356696
20
-16.4703364018614
30
0
41
1
10
96.8593918027717
20
-16.4710991105931
30
0
41
1
10
92.4658174366112
20
-16.4699787633094
30
0
41
1
10
83.6787047552767
20
-16.4692514457046
30
0
41
1
10
79.2851628970448
20
-16.4693038324146
30
0
41
1
10
70.498066857267
20
-16.469768549037
30
0
41
1
10
66.1045127624279
20
-16.4701984684473
30
0
41
1
10
52.9238327960501
20
-16.4705024605135
30
0
41
1
10
44.1366912089723
20
-16.46958376896
30
0
41
1
10
35.3496
20
-16.4700392768441
30
0
0
SPLINE
5
30D
100
AcDbEntity
8
1
62
256
6
ByLayer
370
13
48
1
60
0
100
AcDbSpline
70
4
71
3
72
14
73
10
40
0
40
0
40
0
40
0
40
0.125
40
0.125
40
0.25
40
0.25
40
0.5
40
0.5
40
1
40
1
40
1
40
1
41
1
10
272.145767649591
20
11.3837609551576
30
0
41
1
10
272.186458114947
20
11.385893452085
30
0
41
1
10
272.227914571247
20
11.3889618473825
30
0
41
1
10
272.309716168714
20
11.3968176846133
30
0
41
1
10
272.350467993413
20
11.4016246137138
30
0
41
1
10
272.47234932817
20
11.4186718727257
30
0
41
1
10
272.55310421287
20
11.433530685822
30
0
41
1
10
272.794441151445
20
11.488784592835
30
0
41
1
10
272.954019567449
20
11.5396568065764
30
0
41
1
10
273.114238565166
20
11.6069749358428
30
0
0
SPLINE
5
30E
100
AcDbEntity
8
1
62
256
6
ByLayer
370
13
48
1
60
0
100
AcDbSpline
70
4
71
3
72
15
73
11
40
0
40
0
40
0
40
0
40
0.250000000000002
40
0.250000000000002
40
0.312500000000002
40
0.312500000000002
40
0.375000000000003
40
0.375000000000003
40
0.500000000000003
40
1
40
1
40
1
40
1
41
1
10
28.4082253887688
20
-11.2717808279649
30
0
41
1
10
27.4107648601379
20
-11.3279126976912
30
0
41
1
10
26.4143275545414
20
-11.3969447741368
30
0
41
1
10
25.1700560458941
20
-11.4993108904944
30
0
41
1
10
24.9212594519453
20
-11.5205886483093
30
0
41
1
10
24.4239118789786
20
-11.5647402201281
30
0
41
1
10
24.1752895675264
20
-11.5871948062243
30
0
41
1
10
23.4291459712233
20
-11.6525226337981
30
0
41
1
10
20.9410050579424
20
-11.8629555838742
30
0
41
1
10
18.4479070918509
20
-12.0369100222039
30
0
41
1
10
16.4502834899152
20
-12.1529281113028
30
0
0
SPLINE
5
30F
100
AcDbEntity
8
1
62
256
6
ByLayer
370
13
48
1
60
0
100
AcDbSpline
70
4
71
3
72
16
73
12
40
0
40
0
40
0
40
0
40
0.249999999999999
40
0.249999999999999
40
0.499999999999998
40
0.499999999999998
40
0.624999999999999
40
0.624999999999999
40
0.749999999999999
40
0.749999999999999
40
1
40
1
40
1
40
1
41
1
10
263.438501577094
20
9.8836902603752
30
0
41
1
10
263.410907789465
20
9.85785435696852
30
0
41
1
10
263.385194051735
20
9.83520144946183
30
0
41
1
10
263.339409168727
20
9.79717650789178
30
0
41
1
10
263.32001629408
20
9.78238266373799
30
0
41
1
10
263.299450480834
20
9.76866299420078
30
0
41
1
10
263.294097702035
20
9.76555499917342
30
0
41
1
10
263.286716922275
20
9.76249673435407
30
0
41
1
10
263.28475140094
20
9.76260199096015
30
0
41
1
10
263.284302567875
20
9.76781090294679
30
0
41
1
10
263.291402023584
20
9.77807052175498
30
0
41
1
10
263.303845292632
20
9.79335730258424
30
0
0
SPLINE
5
310
100
AcDbEntity
8
1
62
256
6
ByLayer
370
13
48
1
60
0
100
AcDbSpline
70
4
71
3
72
12
73
8
40
0
40
0
40
0
40
0
40
0.0552668774396057
40
0.0552668774396057
40
0.370177918293071
40
0.370177918293071
40
1
40
1
40
1
40
1
41
1
10
227.029069292758
20
13.2154040213732
30
0
41
1
10
227.394519004892
20
13.0695809946323
30
0
41
1
10
227.759976462833
20
12.9231248508869
30
0
41
1
10
230.207923593238
20
11.9380303121566
30
0
41
1
10
232.291349689184
20
11.0798168124044
30
0
41
1
10
238.545484851418
20
8.45577650487698
30
0
41
1
10
242.707307037663
20
6.64634601991466
30
0
41
1
10
246.873115289947
20
4.80217906743871
30
0
0
SPLINE
5
311
100
AcDbEntity
8
1
62
256
6
ByLayer
370
13
48
1
60
0
100
AcDbSpline
70
4
71
3
72
16
73
12
40
0
40
0
40
0
40
0
40
0.403488972571286
40
0.403488972571286
40
0.605233458856929
40
0.605233458856929
40
0.70610570199975
40
0.70610570199975
40
0.806977945142571
40
0.806977945142571
40
1
40
1
40
1
40
1
41
1
10
6.11286105507897
20
-23.0195806970946
30
0
41
1
10
6.37870884900713
20
-21.8343727037418
30
0
41
1
10
6.73633829305643
20
-20.6659898946566
30
0
41
1
10
7.41978026565519
20
-18.9385976874752
30
0
41
1
10
7.67228141712927
20
-18.3670377174473
30
0
41
1
10
8.09090986857741
20
-17.5163858245173
30
0
41
1
10
8.2371298707415
20
-17.2339124102833
30
0
41
1
10
8.54341124688717
20
-16.6714901290118
30
0
41
1
10
8.70304250296988
20
-16.3924319182889
30
0
41
1
10
9.18462100309021
20
-15.5887257838656
30
0
41
1
10
9.52209534320106
20
-15.0711646725951
30
0
41
1
10
9.88032052893732
20
-14.5635531470563
30
0
0
SPLINE
5
312
100
AcDbEntity
8
1
62
256
6
ByLayer
370
13
48
1
60
0
100
AcDbSpline
70
4
71
3
72
10
73
6
40
0
40
0
40
0
40
0
40
0.5
40
0.5
40
1
40
1
40
1
40
1
41
1
10
10.1033
20
4.64166790361352
30
0
41
1
10
9.26797837335778
20
4.87685090633343
30
0
41
1
10
8.42397728668578
20
5.06423624638947
30
0
41
1
10
6.72301510583799
20
5.36763634991465
30
0
41
1
10
5.86598081189874
20
5.48324800333131
30
0
41
1
10
5.00330000000002
20
5.56776436283135
30
0
0
SPLINE
5
313
100
AcDbEntity
8
1
62
256
6
ByLayer
370
13
48
1
60
0
100
AcDbSpline
70
4
71
3
72
46
73
42
40
0
40
0
40
0
40
0
40
0.0156249999999999
40
0.0156249999999999
40
0.0312499999999999
40
0.0312499999999999
40
0.0468749999999998
40
0.0468749999999998
40
0.0624999999999997
40
0.0624999999999997
40
0.0937499999999996
40
0.0937499999999996
40
0.125
40
0.125
40
0.15625
40
0.15625
40
0.1875
40
0.1875
40
0.25
40
0.25
40
0.374999999999999
40
0.374999999999999
40
0.499999999999999
40
0.499999999999999
40
0.624999999999999
40
0.624999999999999
40
0.749999999999999
40
0.749999999999999
40
0.812499999999999
40
0.812499999999999
40
0.874999999999999
40
0.874999999999999
40
0.906249999999999
40
0.906249999999999
40
0.937499999999999
40
0.937499999999999
40
0.968749999999999
40
0.968749999999999
40
0.984375
40
0.984375
40
1
40
1
40
1
40
1
41
1
10
10.1033
20
4.64166790361364
30
0
41
1
10
10.1549840071014
20
4.62711638286402
30
0
41
1
10
10.2026984187792
20
4.60482223345278
30
0
41
1
10
10.2926706814949
20
4.54958572700474
30
0
41
1
10
10.3349211104163
20
4.51641179074008
30
0
41
1
10
10.4123153616975
20
4.4450743318061
30
0
41
1
10
10.4480109807334
20
4.40655700688873
30
0
41
1
10
10.5151363770159
20
4.32546510023329
30
0
41
1
10
10.5466440222683
20
4.28270061538839
30
0
41
1
10
10.6347239435006
20
4.15202193870232
30
0
41
1
10
10.6856176315323
20
4.06115170538615
30
0
41
1
10
10.7779918026675
20
3.87485411118246
30
0
41
1
10
10.8193476826804
20
3.77936780075575
30
0
41
1
10
10.8952362140325
20
3.58505768259587
30
0
41
1
10
10.9298204986363
20
3.48592724973784
30
0
41
1
10
10.9931467415804
20
3.28674248910181
30
0
41
1
10
11.0219072153271
20
3.18667616125961
30
0
41
1
10
11.101363708188
20
2.8853426409818
30
0
41
1
10
11.1453305922691
20
2.68295555740056
30
0
41
1
10
11.2582367554931
20
2.07252096171277
30
0
41
1
10
11.3085217262885
20
1.66125225347974
30
0
41
1
10
11.3749826617964
20
0.832486991747032
30
0
41
1
10
11.390712676174
20
0.413830507745814
30
0
41
1
10
11.3906031281802
20
-0.418108455035394
30
0
41
1
10
11.3749335518484
20
-0.832625529834331
30
0
41
1
10
11.3087808981382
20
-1.65849275030618
30
0
41
1
10
11.258707739562
20
-2.06987384223177
30
0
41
1
10
11.1452122348203
20
-2.68364574338898
30
0
41
1
10
11.100718202519
20
-2.88824554709913
30
0
41
1
10
10.9940719535945
20
-3.29177609508591
30
0
41
1
10
10.9318950471907
20
-3.49168955957677
30
0
41
1
10
10.8179792563696
20
-3.78261717348488
30
0
41
1
10
10.7765938805114
20
-3.87792382716782
30
0
41
1
10
10.6841480128046
20
-4.06385727058995
30
0
41
1
10
10.6332131372797
20
-4.15454347331459
30
0
41
1
10
10.5156503045266
20
-4.32839641782874
30
0
41
1
10
10.4501820771781
20
-4.41039085259035
30
0
41
1
10
10.3336531556171
20
-4.51746820412646
30
0
41
1
10
10.2923150921919
20
-4.5498082045456
30
0
41
1
10
10.2029749258296
20
-4.60464830304059
30
0
41
1
10
10.1544480166036
20
-4.62726728983282
30
0
41
1
10
10.1033
20
-4.64166790361361
30
0
0
SPLINE
5
314
100
AcDbEntity
8
1
62
256
6
ByLayer
370
13
48
1
60
0
100
AcDbSpline
70
4
71
3
72
8
73
4
40
0
40
0
40
0
40
0
40
1
40
1
40
1
40
1
41
1
10
34.8996
20
-29.2919063032955
30
0
41
1
10
33.9463730856301
20
-29.2918773969241
30
0
41
1
10
32.9935161479213
20
-29.3068880113661
30
0
41
1
10
32.0410286537196
20
-29.3369167869777
30
0
0
SPLINE
5
315
100
AcDbEntity
8
1
62
256
6
ByLayer
370
13
48
1
60
0
100
AcDbSpline
70
4
71
3
72
14
73
10
40
0
40
0
40
0
40
0
40
0.49999999999999
40
0.49999999999999
40
0.624999999999993
40
0.624999999999993
40
0.749999999999995
40
0.749999999999995
40
1
40
1
40
1
40
1
41
1
10
257.320690183879
20
11.3471073067059
30
0
41
1
10
257.334927147451
20
11.6956167808772
30
0
41
1
10
257.31610730365
20
12.0417331608853
30
0
41
1
10
257.236475563354
20
12.4703168649434
30
0
41
1
10
257.21761509468
20
12.5561303152462
30
0
41
1
10
257.174010850096
20
12.7257187033458
30
0
41
1
10
257.149336691333
20
12.8093168003896
30
0
41
1
10
257.066333362913
20
13.0563708986487
30
0
41
1
10
256.999062581225
20
13.2161030490408
30
0
41
1
10
256.918498707933
20
13.3702991182502
30
0
0
SPLINE
5
316
100
AcDbEntity
8
1
62
256
6
ByLayer
370
13
48
1
60
0
100
AcDbSpline
70
4
71
3
72
10
73
6
40
0
40
0
40
0
40
0
40
0.5
40
0.5
40
1
40
1
40
1
40
1
41
1
10
255.26567789496
20
13.4057557737702
30
0
41
1
10
255.339879455776
20
13.4140411561892
30
0
41
1
10
255.414503928063
20
13.4200371331173
30
0
41
1
10
255.565109934705
20
13.4246827141362
30
0
41
1
10
255.641056421488
20
13.4235220461133
30
0
41
1
10
255.718305574407
20
13.4153094743133
30
0
0
SPLINE
5
317
100
AcDbEntity
8
1
62
256
6
ByLayer
370
13
48
1
60
0
100
AcDbSpline
70
4
71
3
72
19
73
15
40
0
40
0
40
0
40
0
40
0.25
40
0.25
40
0.375
40
0.375
40
0.5
40
0.5
40
0.625
40
0.625
40
0.75
40
0.875
40
0.875
40
1
40
1
40
1
40
1
41
1
10
34.9046000320512
20
-16.4742942022417
30
0
41
1
10
32.8291221306474
20
-16.8562412239775
30
0
41
1
10
30.7643466886571
20
-17.4638860455854
30
0
41
1
10
27.8322299187528
20
-18.7100506563018
30
0
41
1
10
26.882536610714
20
-19.1819752491095
30
0
41
1
10
25.0618765259657
20
-20.2310065270984
30
0
41
1
10
24.1907546274504
20
-20.8073671141092
30
0
41
1
10
22.549090860553
20
-22.0500922668671
30
0
41
1
10
21.7785739963146
20
-22.7164727378784
30
0
41
1
10
20.3601806407114
20
-24.1254859694983
30
0
41
1
10
19.0636882748824
20
-25.6102811650775
30
0
41
1
10
18.0287183982909
20
-27.202343606008
30
0
41
1
10
17.1333700212973
20
-28.825891328814
30
0
41
1
10
16.7565848955574
20
-29.6532986641007
30
0
41
1
10
16.4502943739413
20
-30.4857537383489
30
0
0
SPLINE
5
318
100
AcDbEntity
8
1
62
256
6
ByLayer
370
13
48
1
60
0
100
AcDbSpline
70
4
71
3
72
8
73
4
40
0
40
0
40
0
40
0
40
1
40
1
40
1
40
1
41
1
10
253.227905450872
20
11.3310711350666
30
0
41
1
10
253.22851638604
20
11.333522641885
30
0
41
1
10
253.22919714236
20
11.3359662179069
30
0
41
1
10
253.229946410315
20
11.3384020321469
30
0
0
SPLINE
5
319
100
AcDbEntity
8
1
62
256
6
ByLayer
370
13
48
1
60
0
100
AcDbSpline
70
4
71
3
72
8
73
4
40
0
40
0
40
0
40
0
40
1
40
1
40
1
40
1
41
1
10
34.8996
20
-10.5880465794099
30
0
41
1
10
33.9463689446121
20
-10.5882010977902
30
0
41
1
10
32.9935119575821
20
-10.5888965001217
30
0
41
1
10
32.0410284888761
20
-10.5901327307611
30
0
0
SPLINE
5
31A
100
AcDbEntity
8
1
62
256
6
ByLayer
370
13
48
1
60
0
100
AcDbSpline
70
4
71
3
72
14
73
10
40
0
40
0
40
0
40
0
40
0.25
40
0.25
40
0.5
40
0.5
40
0.75
40
0.75
40
1
40
1
40
1
40
1
41
1
10
263.583819877619
20
10.8345035393138
30
0
41
1
10
263.558989913335
20
10.8410122671179
30
0
41
1
10
263.532263401323
20
10.8483281840774
30
0
41
1
10
263.476544850538
20
10.8622277744881
30
0
41
1
10
263.447363757483
20
10.8688620797813
30
0
41
1
10
263.38588514717
20
10.8796702207067
30
0
41
1
10
263.354582163179
20
10.8836294024977
30
0
41
1
10
263.291207159337
20
10.8877557385387
30
0
41
1
10
263.258688888429
20
10.8878965536169
30
0
41
1
10
263.227026946961
20
10.8862372215768
30
0
0
SPLINE
5
31B
100
AcDbEntity
8
1
62
256
6
ByLayer
370
13
48
1
60
0
100
AcDbSpline
70
4
71
3
72
14
73
10
40
0
40
0
40
0
40
0
40
0.500000000000001
40
0.500000000000001
40
0.625000000000001
40
0.625000000000001
40
0.750000000000001
40
0.750000000000001
40
1
40
1
40
1
40
1
41
1
10
32.0410286468248
20
-28.6245835534936
30
0
41
1
10
31.4017852980342
20
-28.6248277468409
30
0
41
1
10
30.7780617125437
20
-28.6986345104182
30
0
41
1
10
30.0161535546985
20
-28.8750092739901
30
0
41
1
10
29.8646676796726
20
-28.9145300487792
30
0
41
1
10
29.5634778768644
20
-29.0020179010952
30
0
41
1
10
29.4135958629218
20
-29.0500795859371
30
0
41
1
10
28.9724606865234
20
-29.2047097042859
30
0
41
1
10
28.6876955441375
20
-29.3222113228253
30
0
41
1
10
28.4114061878579
20
-29.452815108103
30
0
0
SPLINE
5
31C
100
AcDbEntity
8
1
62
256
6
ByLayer
370
13
48
1
60
0
100
AcDbSpline
70
4
71
1
72
4
73
2
40
0
40
0
40
1
40
1
41
1
10
34.9095999988545
20
-28.6099469904932
30
0
41
1
10
34.9096000011454
20
-28.6234877950756
30
0
0
SPLINE
5
31D
100
AcDbEntity
8
1
62
256
6
ByLayer
370
13
48
1
60
0
100
AcDbSpline
70
4
71
3
72
10
73
6
40
0
40
0
40
0
40
0
40
0.5
40
0.5
40
1
40
1
40
1
40
1
41
1
10
256.918498707933
20
13.3702991182503
30
0
41
1
10
256.891292443676
20
13.4706973543973
30
0
41
1
10
256.856967628754
20
13.568682651804
30
0
41
1
10
256.772915308593
20
13.7594322753944
30
0
41
1
10
256.722804473137
20
13.8527326230412
30
0
41
1
10
256.66532025765
20
13.9416214842678
30
0
0
SPLINE
5
31E
100
AcDbEntity
8
1
62
256
6
ByLayer
370
13
48
1
60
0
100
AcDbSpline
70
4
71
3
72
8
73
4
40
0
40
0
40
0
40
0
40
1
40
1
40
1
40
1
41
1
10
278.405102822634
20
0.577523194651434
30
0
41
1
10
278.561479323738
20
0.601413724401255
30
0
41
1
10
278.716328004346
20
0.611860562438608
30
0
41
1
10
278.870948748286
20
0.610683411526651
30
0
0
SPLINE
5
31F
100
AcDbEntity
8
1
62
256
6
ByLayer
370
13
48
1
60
0
100
AcDbSpline
70
4
71
3
72
8
73
4
40
0
40
0
40
0
40
0
40
1
40
1
40
1
40
1
41
1
10
267.805972465964
20
11.3565963962402
30
0
41
1
10
267.862560801968
20
11.3595620652634
30
0
41
1
10
267.919083604011
20
11.3527325603182
30
0
41
1
10
267.972915878551
20
11.3375296312599
30
0
0
SPLINE
5
320
100
AcDbEntity
8
1
62
256
6
ByLayer
370
13
48
1
60
0
100
AcDbSpline
70
4
71
3
72
12
73
8
40
0
40
0
40
0
40
0
40
0.5
40
0.5
40
0.75
40
0.75
40
1
40
1
40
1
40
1
41
1
10
246.691621093204
20
28.7184931620092
30
0
41
1
10
247.612696709985
20
26.6098281019438
30
0
41
1
10
248.676741285167
20
24.5857216415614
30
0
41
1
10
250.557621641297
20
21.71801411318
30
0
41
1
10
251.23213217288
20
20.7902351654481
30
0
41
1
10
252.68781123932
20
18.9977598545034
30
0
41
1
10
253.461780014859
20
18.1421965452564
30
0
41
1
10
254.281800832392
20
17.3295681426428
30
0
0
SPLINE
5
321
100
AcDbEntity
8
1
62
256
6
ByLayer
370
13
48
1
60
0
100
AcDbSpline
70
4
71
3
72
8
73
4
40
0
40
0
40
0
40
0
40
1
40
1
40
1
40
1
41
1
10
257.259969144042
20
-29.2565601474135
30
0
41
1
10
256.259969143316
20
-29.1565758905219
30
0
41
1
10
255.259969143309
20
-29.0565916265292
30
0
41
1
10
254.259969144042
20
-28.9566073552122
30
0
0
SPLINE
5
322
100
AcDbEntity
8
1
62
256
6
ByLayer
370
13
48
1
60
0
100
AcDbSpline
70
4
71
3
72
30
73
26
40
0
40
0
40
0
40
0
40
0.125
40
0.125
40
0.1875
40
0.1875
40
0.249999999999999
40
0.249999999999999
40
0.312499999999999
40
0.312499999999999
40
0.374999999999999
40
0.374999999999999
40
0.437499999999999
40
0.437499999999999
40
0.499999999999999
40
0.499999999999999
40
0.562499999999998
40
0.562499999999998
40
0.624999999999998
40
0.624999999999998
40
0.749999999999999
40
0.749999999999999
40
0.874999999999999
40
0.874999999999999
40
1
40
1
40
1
40
1
41
1
10
256.870103931058
20
10.2184883290886
30
0
41
1
10
256.808329094318
20
10.1608773002177
30
0
41
1
10
256.747973189374
20
10.1018538512569
30
0
41
1
10
256.664158225719
20
10.0100523982457
30
0
41
1
10
256.637693060777
20
9.97923464022711
30
0
41
1
10
256.58905589256
20
9.9162892923087
30
0
41
1
10
256.566729191235
20
9.883902335638
30
0
41
1
10
256.530334115537
20
9.81841661102177
30
0
41
1
10
256.515998688445
20
9.78479816597871
30
0
41
1
10
256.500008528638
20
9.71661934154693
30
0
41
1
10
256.498628614232
20
9.68264709771029
30
0
41
1
10
256.510308042703
20
9.61607048021847
30
0
41
1
10
256.523014204617
20
9.58456241559691
30
0
41
1
10
256.558245464762
20
9.52453053010515
30
0
41
1
10
256.580107027051
20
9.49689137301374
30
0
41
1
10
256.62885975289
20
9.44458874909824
30
0
41
1
10
256.655919111634
20
9.41985046375271
30
0
41
1
10
256.712637530952
20
9.37311282007909
30
0
41
1
10
256.742224058522
20
9.35115991166364
30
0
41
1
10
256.833286872702
20
9.28850694290583
30
0
41
1
10
256.896995798457
20
9.25095102358711
30
0
41
1
10
257.0273123781
20
9.18252308351646
30
0
41
1
10
257.093990456034
20
9.15170731567335
30
0
41
1
10
257.229392894169
20
9.09710154916826
30
0
41
1
10
257.298054308081
20
9.07340018055183
30
0
41
1
10
257.366412469548
20
9.05417443776398
30
0
0
SPLINE
5
323
100
AcDbEntity
8
1
62
256
6
ByLayer
370
13
48
1
60
0
100
AcDbSpline
70
4
71
3
72
8
73
4
40
0
40
0
40
0
40
0
40
1
40
1
40
1
40
1
41
1
10
252.234120195129
20
1.20263237850705
30
0
41
1
10
252.870764822885
20
0.804364545799928
30
0
41
1
10
253.544500256794
20
0.485107246764414
30
0
41
1
10
254.259969144042
20
0.254985265663493
30
0
0
SPLINE
5
324
100
AcDbEntity
8
1
62
256
6
ByLayer
370
13
48
1
60
0
100
AcDbSpline
70
4
71
3
72
10
73
6
40
0
40
0
40
0
40
0
40
0.5
40
0.5
40
1
40
1
40
1
40
1
41
1
10
265.356256312558
20
9.02405379298577
30
0
41
1
10
265.927698792941
20
9.23454364656598
30
0
41
1
10
266.48979601844
20
9.38781990196557
30
0
41
1
10
267.5983989058
20
9.60679204642108
30
0
41
1
10
268.14479442704
20
9.67202031459601
30
0
41
1
10
268.681860141393
20
9.70016673601432
30
0
0
SPLINE
5
325
100
AcDbEntity
8
1
62
256
6
ByLayer
370
13
48
1
60
0
100
AcDbSpline
70
4
71
3
72
28
73
24
40
0
40
0
40
0
40
0
40
0.0625000000000004
40
0.0625000000000004
40
0.125000000000001
40
0.125000000000001
40
0.187500000000001
40
0.187500000000001
40
0.250000000000001
40
0.250000000000001
40
0.312500000000001
40
0.312500000000001
40
0.375000000000001
40
0.375000000000001
40
0.437500000000001
40
0.437500000000001
40
0.500000000000001
40
0.500000000000001
40
0.625
40
0.625
40
0.75
40
0.75
40
1
40
1
40
1
40
1
41
1
10
133.22808
20
-11.4524941254083
30
0
41
1
10
131.292236213891
20
-11.2741523550373
30
0
41
1
10
129.35400754378
20
-11.1224613445682
30
0
41
1
10
125.472791718223
20
-10.8735448075598
30
0
41
1
10
123.529583389484
20
-10.7763817487639
30
0
41
1
10
119.643034157295
20
-10.6363990476722
30
0
41
1
10
117.699100724664
20
-10.5952258175604
30
0
41
1
10
113.81034819138
20
-10.5519183669697
30
0
41
1
10
111.865544585015
20
-10.5490858578777
30
0
41
1
10
107.975618438889
20
-10.557492827372
30
0
41
1
10
106.030561183953
20
-10.5681639722506
30
0
41
1
10
102.140522893969
20
-10.5825066263617
30
0
41
1
10
100.195502173583
20
-10.5876321371418
30
0
41
1
10
96.3054552720259
20
-10.5907656166649
30
0
41
1
10
94.3604293034336
20
-10.5890523766425
30
0
41
1
10
90.4703770879583
20
-10.5852737999268
30
0
41
1
10
88.525350704268
20
-10.583510266969
30
0
41
1
10
82.6902691558342
20
-10.579541285418
30
0
41
1
10
78.8002113279947
20
-10.5785908745318
30
0
41
1
10
71.0200876771651
20
-10.581743116991
30
0
41
1
10
67.1300243701743
20
-10.5852169625919
30
0
41
1
10
55.4598383179306
20
-10.5906736924463
30
0
41
1
10
47.6797209610036
20
-10.5876141034391
30
0
41
1
10
39.8996
20
-10.5878982017132
30
0
0
SPLINE
5
326
100
AcDbEntity
8
1
62
256
6
ByLayer
370
13
48
1
60
0
100
AcDbSpline
70
4
71
3
72
8
73
4
40
0
40
0
40
0
40
0
40
1
40
1
40
1
40
1
41
1
10
255.325770500349
20
2.45667951908587
30
0
41
1
10
255.600471686926
20
2.38846685382632
30
0
41
1
10
255.876437908461
20
2.32897898783958
30
0
41
1
10
256.153525300479
20
2.2779704900112
30
0
0
SPLINE
5
327
100
AcDbEntity
8
1
62
256
6
ByLayer
370
13
48
1
60
0
100
AcDbSpline
70
4
71
3
72
12
73
8
40
0
40
0
40
0
40
0
40
0.499999999999995
40
0.499999999999995
40
0.749999999999998
40
0.749999999999998
40
1
40
1
40
1
40
1
41
1
10
263.739725842043
20
10.7076897936339
30
0
41
1
10
263.745044869615
20
10.7318875245072
30
0
41
1
10
263.735261052575
20
10.7563613799842
30
0
41
1
10
263.695480658669
20
10.7895194877763
30
0
41
1
10
263.678038452054
20
10.7999779263471
30
0
41
1
10
263.636236284573
20
10.8187526803215
30
0
41
1
10
263.611247553605
20
10.8273138681874
30
0
41
1
10
263.583819877619
20
10.8345035393141
30
0
0
SPLINE
5
328
100
AcDbEntity
8
1
62
256
6
ByLayer
370
13
48
1
60
0
100
AcDbSpline
70
4
71
3
72
12
73
8
40
0
40
0
40
0
40
0
40
0.5
40
0.5
40
0.75
40
0.75
40
1
40
1
40
1
40
1
41
1
10
278.514984238923
20
10.4055780157038
30
0
41
1
10
278.263595132428
20
10.4668940653004
30
0
41
1
10
278.021343724748
20
10.5561799621083
30
0
41
1
10
277.666293160453
20
10.7419928267744
30
0
41
1
10
277.552229988902
20
10.8113352621164
30
0
41
1
10
277.333392456492
20
10.965474791087
30
0
41
1
10
277.22850574525
20
11.0502864971339
30
0
41
1
10
277.128541221223
20
11.144210879718
30
0
0
SPLINE
5
329
100
AcDbEntity
8
1
62
256
6
ByLayer
370
13
48
1
60
0
100
AcDbSpline
70
4
71
3
72
10
73
6
40
0
40
0
40
0
40
0
40
0.5
40
0.5
40
1
40
1
40
1
40
1
41
1
10
277.237131230837
20
-5.50973773044072
30
0
41
1
10
277.291632803421
20
-5.80376449469424
30
0
41
1
10
277.325228612859
20
-6.09774094510612
30
0
41
1
10
277.352631300718
20
-6.68546761509359
30
0
41
1
10
277.346434689013
20
-6.97921813053182
30
0
41
1
10
277.320097767479
20
-7.27284673735949
30
0
0
SPLINE
5
32A
100
AcDbEntity
8
1
62
256
6
ByLayer
370
13
48
1
60
0
100
AcDbSpline
70
4
71
3
72
8
73
4
40
0
40
0
40
0
40
0
40
1
40
1
40
1
40
1
41
1
10
250.324643816125
20
3.11009791008195
30
0
41
1
10
249.170960391185
20
3.66424432493443
30
0
41
1
10
248.020496835771
20
4.22841443346945
30
0
41
1
10
246.873115289947
20
4.80217906743869
30
0
0
SPLINE
5
32B
100
AcDbEntity
8
1
62
256
6
ByLayer
370
13
48
1
60
0
100
AcDbSpline
70
4
71
3
72
20
73
16
40
0
40
0
40
0
40
0
40
0.250000000000001
40
0.250000000000001
40
0.375000000000001
40
0.375000000000001
40
0.500000000000002
40
0.500000000000002
40
0.750000000000003
40
0.750000000000003
40
0.812500000000003
40
0.812500000000003
40
0.875000000000002
40
0.875000000000002
40
1
40
1
40
1
40
1
41
1
10
6.11286105507897
20
-23.0195806970946
30
0
41
1
10
5.95334555091927
20
-23.3484827078387
30
0
41
1
10
5.83102820080096
20
-23.6760935657288
30
0
41
1
10
5.70726192904479
20
-24.1646257548987
30
0
41
1
10
5.67643308161088
20
-24.3253855190437
30
0
41
1
10
5.63560928019689
20
-24.6408369618431
30
0
41
1
10
5.62552926378616
20
-24.7958424318221
30
0
41
1
10
5.62555065013397
20
-25.2527575304414
30
0
41
1
10
5.66636941607415
20
-25.5465672070567
30
0
41
1
10
5.76872013846584
20
-25.9002780591088
30
0
41
1
10
5.79184060772477
20
-25.9704199683838
30
0
41
1
10
5.84299835860372
20
-26.1081510392799
30
0
41
1
10
5.87103674519048
20
-26.1758896069258
30
0
41
1
10
5.96231986624528
20
-26.3758303202705
30
0
41
1
10
6.03279204087177
20
-26.5047471714201
30
0
41
1
10
6.11271852644305
20
-26.6294767759451
30
0
0
SPLINE
5
32C
100
AcDbEntity
8
1
62
256
6
ByLayer
370
13
48
1
60
0
100
AcDbSpline
70
4
71
3
72
16
73
12
40
0
40
0
40
0
40
0
40
0.250000000000005
40
0.250000000000005
40
0.500000000000009
40
0.500000000000009
40
0.625000000000003
40
0.625000000000003
40
0.749999999999996
40
0.749999999999996
40
1
40
1
40
1
40
1
41
1
10
258.429591856816
20
8.7631186774785
30
0
41
1
10
259.009275086988
20
8.59670120813112
30
0
41
1
10
259.589615176325
20
8.48162594030643
30
0
41
1
10
260.752492584428
20
8.34352835906367
30
0
41
1
10
261.335023015866
20
8.32062108386523
30
0
41
1
10
262.210625093888
20
8.35440622395396
30
0
41
1
10
262.502789109782
20
8.37708622008196
30
0
41
1
10
263.087680581304
20
8.44581883195281
30
0
41
1
10
263.377721912339
20
8.49156630397988
30
0
41
1
10
264.23957410048
20
8.66225199436053
30
0
41
1
10
264.803648941614
20
8.82050181953329
30
0
41
1
10
265.356256312558
20
9.02405379298577
30
0
0
SPLINE
5
32D
100
AcDbEntity
8
1
62
256
6
ByLayer
370
13
48
1
60
0
100
AcDbSpline
70
4
71
3
72
64
73
60
40
0
40
0
40
0
40
0
40
0.0040448082634698
40
0.0040448082634698
40
0.0243704244213588
40
0.0243704244213588
40
0.0446960405792477
40
0.0446960405792477
40
0.0548588486581922
40
0.0548588486581922
40
0.0650216567371367
40
0.0650216567371367
40
0.0853472728950252
40
0.0853472728950252
40
0.105672889052914
40
0.105672889052914
40
0.125998505210802
40
0.125998505210802
40
0.146324121368691
40
0.146324121368691
40
0.166649737526579
40
0.166649737526579
40
0.186975353684467
40
0.186975353684467
40
0.207300969842356
40
0.207300969842356
40
0.227626586000244
40
0.227626586000244
40
0.247952202158133
40
0.247952202158133
40
0.268277818316021
40
0.268277818316021
40
0.308929050631798
40
0.308929050631798
40
0.349580282947574
40
0.349580282947574
40
0.390231515263351
40
0.390231515263351
40
0.430882747579127
40
0.430882747579127
40
0.471533979894904
40
0.471533979894904
40
0.491859596052792
40
0.491859596052792
40
0.512185212210681
40
0.512185212210681
40
0.532510828368569
40
0.532510828368569
40
0.552836444526457
40
0.552836444526457
40
0.593487676842234
40
0.593487676842234
40
0.674790141473787
40
0.674790141473787
40
0.75609260610534
40
0.75609260610534
40
0.837395070736893
40
0.837395070736893
40
1
40
1
40
1
40
1
41
1
10
196.19950581474
20
-24.1681646979716
30
0
41
1
10
195.996998741379
20
-24.2160173744466
30
0
41
1
10
195.794491036009
20
-24.2635930697947
30
0
41
1
10
194.574347712401
20
-24.5485486408714
30
0
41
1
10
193.556738767755
20
-24.7785992976311
30
0
41
1
10
191.522205916814
20
-25.2174940668652
30
0
41
1
10
190.505071001765
20
-25.4265220034747
30
0
41
1
10
188.97840081179
20
-25.7191523086421
30
0
41
1
10
188.469328561196
20
-25.8131752933313
30
0
41
1
10
187.450010689283
20
-25.9961657275496
30
0
41
1
10
186.939728002585
20
-26.0853515623124
30
0
41
1
10
185.406303482014
20
-26.3470369317061
30
0
41
1
10
184.380697900334
20
-26.5124456716723
30
0
41
1
10
182.321568060244
20
-26.8200381451105
30
0
41
1
10
181.288138022332
20
-26.9629932785686
30
0
41
1
10
179.21331625357
20
-27.2282842228645
30
0
41
1
10
178.172387969444
20
-27.3505029181482
30
0
41
1
10
176.08534016684
20
-27.5748312885806
30
0
41
1
10
175.038911304588
20
-27.6770188285592
30
0
41
1
10
172.93997534664
20
-27.8628852952039
30
0
41
1
10
171.887445406627
20
-27.9466057034751
30
0
41
1
10
169.776126960275
20
-28.0965913601453
30
0
41
1
10
168.717376359233
20
-28.1630197435859
30
0
41
1
10
166.594092815003
20
-28.2822569035893
30
0
41
1
10
165.529566157517
20
-28.3351039830192
30
0
41
1
10
163.39517880936
20
-28.4304782587781
30
0
41
1
10
162.32573707366
20
-28.4727871603137
30
0
41
1
10
160.183359926676
20
-28.5466900273716
30
0
41
1
10
159.11026349327
20
-28.5782759670602
30
0
41
1
10
156.960152083823
20
-28.6309703972906
30
0
41
1
10
155.883122264727
20
-28.6521861938906
30
0
41
1
10
152.645572063396
20
-28.7038033641429
30
0
41
1
10
150.478542383291
20
-28.722868941841
30
0
41
1
10
146.124930602212
20
-28.7412988969311
30
0
41
1
10
143.941647838571
20
-28.7395788979175
30
0
41
1
10
139.562579312502
20
-28.7254536367941
30
0
41
1
10
137.366549672363
20
-28.7148121146142
30
0
41
1
10
132.961481586923
20
-28.6893963022439
30
0
41
1
10
130.751361952983
20
-28.673577996837
30
0
41
1
10
126.328779692363
20
-28.6392893809451
30
0
41
1
10
124.115313244125
20
-28.620719113495
30
0
41
1
10
120.791919316961
20
-28.6078022908139
30
0
41
1
10
119.683588596213
20
-28.6060264973003
30
0
41
1
10
117.46587193113
20
-28.6104533189285
30
0
41
1
10
116.356419647213
20
-28.617834946052
30
0
41
1
10
114.137051075785
20
-28.626021294877
30
0
41
1
10
113.027368491786
20
-28.6255129881846
30
0
41
1
10
110.808004623538
20
-28.621137906792
30
0
41
1
10
109.698323129318
20
-28.6179491619733
30
0
41
1
10
106.369278359199
20
-28.6098602097342
30
0
41
1
10
104.149914950367
20
-28.6059673453313
30
0
41
1
10
97.4918210043044
20
-28.6049566235124
30
0
41
1
10
93.0530893045514
20
-28.6104994005895
30
0
41
1
10
84.1756284562897
20
-28.6130273918488
30
0
41
1
10
79.7368988456054
20
-28.6112768498811
30
0
41
1
10
70.8594391585319
20
-28.6093485515506
30
0
41
1
10
66.4207092676012
20
-28.6093201775142
30
0
41
1
10
53.1045195768995
20
-28.609496301441
30
0
41
1
10
44.2270597554338
20
-28.6100505300612
30
0
41
1
10
35.3496
20
-28.6097844019575
30
0
0
SPLINE
5
32E
100
AcDbEntity
8
1
62
256
6
ByLayer
370
13
48
1
60
0
100
AcDbSpline
70
4
71
3
72
18
73
14
40
0
40
0
40
0
40
0
40
0.107861009436386
40
0.107861009436386
40
0.286288807549109
40
0.286288807549109
40
0.464716605661832
40
0.464716605661832
40
0.643144403774555
40
0.643144403774555
40
0.821572201887278
40
0.821572201887278
40
1
40
1
40
1
40
1
41
1
10
35.3495132316974
20
-10.5771272876755
30
0
41
1
10
35.3494955852558
20
-10.7730346921919
30
0
41
1
10
35.3494798837799
20
-10.9746679642703
30
0
41
1
10
35.3494436469004
20
-11.5218287816147
30
0
41
1
10
35.3494266704691
20
-11.8751800512763
30
0
41
1
10
35.3494045008605
20
-12.59474823728
30
0
41
1
10
35.3493993080995
20
-12.9609516488111
30
0
41
1
10
35.3494008801828
20
-13.6939602106691
30
0
41
1
10
35.3494076449976
20
-14.0607516039367
30
0
41
1
10
35.3494329061236
20
-14.782652069138
30
0
41
1
10
35.3494514019606
20
-15.1377475924885
30
0
41
1
10
35.3494995061337
20
-15.8243634989186
30
0
41
1
10
35.3495291135669
20
-16.1558709956333
30
0
41
1
10
35.3495637816721
20
-16.4700392787216
30
0
0
SPLINE
5
32F
100
AcDbEntity
8
1
62
256
6
ByLayer
370
13
48
1
60
0
100
AcDbSpline
70
4
71
3
72
10
73
6
40
0
40
0
40
0
40
0
40
0.5
40
0.5
40
1
40
1
40
1
40
1
41
1
10
268.681860141393
20
9.70016673601432
30
0
41
1
10
269.634691014193
20
9.75010248609004
30
0
41
1
10
270.550496660808
20
9.79809782628402
30
0
41
1
10
272.299806770418
20
9.88977528440597
30
0
41
1
10
273.13338429426
20
9.93346123129081
30
0
41
1
10
273.91885861787
20
9.97462619627504
30
0
0
SPLINE
5
330
100
AcDbEntity
8
1
62
256
6
ByLayer
370
13
48
1
60
0
100
AcDbSpline
70
4
71
3
72
10
73
6
40
0
40
0
40
0
40
0
40
0.5
40
0.5
40
1
40
1
40
1
40
1
41
1
10
257.366412469548
20
9.05417443776395
30
0
41
1
10
257.525794637351
20
9.00934818004464
30
0
41
1
10
257.673073253033
20
8.96871877583925
30
0
41
1
10
257.943592111339
20
8.89579516766088
30
0
41
1
10
258.06713025692
20
8.86344528359965
30
0
41
1
10
258.173602303693
20
8.83664886651596
30
0
0
SPLINE
5
331
100
AcDbEntity
8
1
62
256
6
ByLayer
370
13
48
1
60
0
100
AcDbSpline
70
4
71
3
72
8
73
4
40
0
40
0
40
0
40
0
40
1
40
1
40
1
40
1
41
1
10
254.259969144042
20
28.910309664845
30
0
41
1
10
255.259904039184
20
29.0226171730934
30
0
41
1
10
256.259905112778
20
29.1343341143793
30
0
41
1
10
257.259969144042
20
29.2454803260756
30
0
0
SPLINE
5
332
100
AcDbEntity
8
1
62
256
6
ByLayer
370
13
48
1
60
0
100
AcDbSpline
70
4
71
3
72
54
73
50
40
0
40
0
40
0
40
0
40
0.125000000000034
40
0.125000000000034
40
0.18750000000005
40
0.18750000000005
40
0.218750000000059
40
0.218750000000059
40
0.250000000000067
40
0.250000000000067
40
0.312500000000084
40
0.312500000000084
40
0.375000000000101
40
0.375000000000101
40
0.406250000000109
40
0.406250000000109
40
0.437500000000118
40
0.437500000000118
40
0.500000000000129
40
0.500000000000129
40
0.531250000000131
40
0.531250000000131
40
0.54687500000013
40
0.54687500000013
40
0.562500000000129
40
0.562500000000129
40
0.625000000000116
40
0.625000000000116
40
0.656250000000107
40
0.656250000000107
40
0.687500000000098
40
0.687500000000098
40
0.750000000000081
40
0.750000000000081
40
0.765625000000077
40
0.765625000000077
40
0.781250000000073
40
0.781250000000073
40
0.812500000000063
40
0.812500000000063
40
0.875000000000042
40
0.875000000000042
40
0.906250000000031
40
0.906250000000031
40
0.937500000000021
40
0.937500000000021
40
0.96875000000001
40
0.96875000000001
40
1
40
1
40
1
40
1
41
1
10
256.153525300463
20
2.27797049001376
30
0
41
1
10
257.271461796882
20
2.07217165905615
30
0
41
1
10
258.39762171924
20
1.8964813603699
30
0
41
1
10
260.10571344445
20
1.70196839610816
30
0
41
1
10
260.678229453347
20
1.64867156632624
30
0
41
1
10
261.542735009611
20
1.58971129144862
30
0
41
1
10
261.831860621405
20
1.57356208320741
30
0
41
1
10
262.412223478692
20
1.5489950176069
30
0
41
1
10
262.704029297542
20
1.54057038972024
30
0
41
1
10
263.57879690092
20
1.52818282437775
30
0
41
1
10
264.158547362995
20
1.53704254520875
30
0
41
1
10
265.310224345722
20
1.59383238685777
30
0
41
1
10
265.882158597546
20
1.64172390054404
30
0
41
1
10
266.733223458307
20
1.7477006716486
30
0
41
1
10
267.015879980507
20
1.78875109287395
30
0
41
1
10
267.578237904936
20
1.88328454697987
30
0
41
1
10
267.855222736219
20
1.93631097916463
30
0
41
1
10
268.673089396925
20
2.11336350091199
30
0
41
1
10
269.200957410443
20
2.25526116946602
30
0
41
1
10
269.963626077424
20
2.50811584734598
30
0
41
1
10
270.212977390112
20
2.59909076551094
30
0
41
1
10
270.579110849371
20
2.74639312116995
30
0
41
1
10
270.700122138894
20
2.79743347582638
30
0
41
1
10
270.937556298984
20
2.90247059720815
30
0
41
1
10
271.054040816724
20
2.95647836459202
30
0
41
1
10
271.625237719082
20
3.2340051749498
30
0
41
1
10
272.04647730638
20
3.47985188766097
30
0
41
1
10
272.621265580519
20
3.88669062520992
30
0
41
1
10
272.803503378007
20
4.02884143660319
30
0
41
1
10
273.146910307622
20
4.32598232584539
30
0
41
1
10
273.305545448642
20
4.47874991702153
30
0
41
1
10
273.743138662707
20
4.94935740220228
30
0
41
1
10
273.984031808774
20
5.27942258842748
30
0
41
1
10
274.220803721698
20
5.71266956614213
30
0
41
1
10
274.264921176222
20
5.80035856413724
30
0
41
1
10
274.346580691558
20
5.97784837580662
30
0
41
1
10
274.384042027523
20
6.06752678756445
30
0
41
1
10
274.485410706669
20
6.33672912066504
30
0
41
1
10
274.538778722617
20
6.51737476448184
30
0
41
1
10
274.658110661068
20
7.06268975650636
30
0
41
1
10
274.683531980262
20
7.43071815019488
30
0
41
1
10
274.643057991174
20
7.98927342120751
30
0
41
1
10
274.616508826479
20
8.17461286643277
30
0
41
1
10
274.539240086538
20
8.54188009798344
30
0
41
1
10
274.48849420656
20
8.72411741819863
30
0
41
1
10
274.364059255577
20
9.08594701472055
30
0
41
1
10
274.290366673338
20
9.26553888622888
30
0
41
1
10
274.120908230234
20
9.62217787463408
30
0
41
1
10
274.024897051518
20
9.79959661090609
30
0
41
1
10
273.918858617868
20
9.97462619626404
30
0
0
SPLINE
5
333
100
AcDbEntity
8
1
62
256
6
ByLayer
370
13
48
1
60
0
100
AcDbSpline
70
4
71
3
72
26
73
22
40
0
40
0
40
0
40
0
40
0.275928814471044
40
0.275928814471044
40
0.344911018088805
40
0.344911018088805
40
0.413893221706567
40
0.413893221706567
40
0.55185762894209
40
0.55185762894209
40
0.620839832559851
40
0.620839832559851
40
0.689822036177612
40
0.689822036177612
40
0.758804239795374
40
0.758804239795374
40
0.827786443413135
40
0.827786443413135
40
0.965750850648658
40
0.965750850648658
40
1
40
1
40
1
40
1
41
1
10
246.757277024713
20
28.8187090360419
30
0
41
1
10
242.160448576176
20
29.1095591673578
30
0
41
1
10
237.573145045998
20
29.1805317050711
30
0
41
1
10
231.829393810667
20
28.9923363681209
30
0
41
1
10
230.680279096486
20
28.9408576246716
30
0
41
1
10
228.383001942412
20
28.8103726659097
30
0
41
1
10
227.23456219198
20
28.731350090546
30
0
41
1
10
223.788739754177
20
28.4532451731492
30
0
41
1
10
221.491508182337
20
28.2130969973709
30
0
41
1
10
218.044899310097
20
27.7736966925135
30
0
41
1
10
216.895447202375
20
27.6139935719112
30
0
41
1
10
214.597347807594
20
27.2690580721167
30
0
41
1
10
213.448617758187
20
27.0837935338052
30
0
41
1
10
211.152212702272
20
26.6873292495581
30
0
41
1
10
210.004607537931
20
26.4760611569122
30
0
41
1
10
207.710510617736
20
26.0272037520934
30
0
41
1
10
206.563783881682
20
25.789790372086
30
0
41
1
10
203.120323938552
20
25.0430243853571
30
0
41
1
10
200.819534930089
20
24.498682673019
30
0
41
1
10
197.935467190016
20
23.7826711164029
30
0
41
1
10
197.361198850066
20
23.6385290523469
30
0
41
1
10
196.786169824257
20
23.4928340253649
30
0
0
SPLINE
5
334
100
AcDbEntity
8
1
62
256
6
ByLayer
370
13
48
1
60
0
100
AcDbSpline
70
4
71
3
72
8
73
4
40
0
40
0
40
0
40
0
40
1
40
1
40
1
40
1
41
1
10
35.3496
20
-28.6097843290305
30
0
41
1
10
35.2029333324973
20
-28.609836861816
30
0
41
1
10
35.0562666657982
20
-28.6098910707222
30
0
41
1
10
34.9095999999999
20
-28.6099469904931
30
0
0
SPLINE
5
335
100
AcDbEntity
8
1
62
256
6
ByLayer
370
13
48
1
60
0
100
AcDbSpline
70
4
71
3
72
10
73
6
40
0
40
0
40
0
40
0
40
0.5
40
0.5
40
1
40
1
40
1
40
1
41
1
10
263.650258131622
20
10.1097632262104
30
0
41
1
10
263.614798060842
20
10.0668136923821
30
0
41
1
10
263.578576562227
20
10.0258902343483
30
0
41
1
10
263.507485914892
20
9.95033709112514
30
0
41
1
10
263.472389834791
20
9.91541963961956
30
0
41
1
10
263.438501577099
20
9.88369026038035
30
0
0
SPLINE
5
336
100
AcDbEntity
8
1
62
256
6
ByLayer
370
13
48
1
60
0
100
AcDbSpline
70
4
71
3
72
12
73
8
40
0
40
0
40
0
40
0
40
0.500000000000001
40
0.500000000000001
40
0.750000000000001
40
0.750000000000001
40
1
40
1
40
1
40
1
41
1
10
32.0410286537196
20
-29.3369167869777
30
0
41
1
10
31.4165152141608
20
-29.3566056270486
30
0
41
1
10
30.8016674111732
20
-29.3771954351876
30
0
41
1
10
29.893334987622
20
-29.4075129035998
30
0
41
1
10
29.5928965282327
20
-29.4174844386122
30
0
41
1
10
28.9967916422565
20
-29.4363273450895
30
0
41
1
10
28.6998689397601
20
-29.4452263029456
30
0
41
1
10
28.4114061878572
20
-29.452815108102
30
0
0
SPLINE
5
337
100
AcDbEntity
8
1
62
256
6
ByLayer
370
13
48
1
60
0
100
AcDbSpline
70
4
71
3
72
34
73
30
40
0
40
0
40
0
40
0
40
0.0267898611286013
40
0.0267898611286013
40
0.0808570910659011
40
0.0808570910659011
40
0.134924321003201
40
0.134924321003201
40
0.188991550940501
40
0.188991550940501
40
0.243058780877801
40
0.243058780877801
40
0.351193240752402
40
0.351193240752402
40
0.405260470689702
40
0.405260470689702
40
0.459327700627002
40
0.459327700627002
40
0.513394930564302
40
0.513394930564302
40
0.567462160501601
40
0.567462160501601
40
0.675596620376201
40
0.675596620376201
40
0.783731080250801
40
0.783731080250801
40
0.8918655401254
40
0.8918655401254
40
1
40
1
40
1
40
1
41
1
10
196.684628593487
20
-24.3050973300506
30
0
41
1
10
196.141695715723
20
-24.4370514043575
30
0
41
1
10
195.598982689084
20
-24.5666740832701
30
0
41
1
10
193.961399550021
20
-24.950518026248
30
0
41
1
10
192.866831572345
20
-25.1970327860506
30
0
41
1
10
190.676075800476
20
-25.6670345902489
30
0
41
1
10
189.579947236607
20
-25.8905753894707
30
0
41
1
10
187.382895664331
20
-26.3121081789216
30
0
41
1
10
186.281941117264
20
-26.5100624857541
30
0
41
1
10
184.071485168592
20
-26.8785547619492
30
0
41
1
10
182.961370324107
20
-27.0489647384791
30
0
41
1
10
179.621312520148
20
-27.5203148931781
30
0
41
1
10
177.380597798529
20
-27.7818844151558
30
0
41
1
10
173.995669342948
20
-28.1088350723902
30
0
41
1
10
172.863399420047
20
-28.2069269960996
30
0
41
1
10
170.590517567559
20
-28.3835896985483
30
0
41
1
10
169.449870875982
20
-28.4621554683376
30
0
41
1
10
167.160839945143
20
-28.602520950373
30
0
41
1
10
166.013217646697
20
-28.6642734548642
30
0
41
1
10
163.713564903905
20
-28.7733033544461
30
0
41
1
10
162.561321476275
20
-28.8205746498006
30
0
41
1
10
159.097101013198
20
-28.9433771133648
30
0
41
1
10
156.777753646971
20
-28.9999480198707
30
0
41
1
10
152.117024815202
20
-29.0759842213961
30
0
41
1
10
149.774273887596
20
-29.0954033663635
30
0
41
1
10
145.07510986811
20
-29.1104971946013
30
0
41
1
10
142.717543521385
20
-29.106276713373
30
0
41
1
10
137.985491429939
20
-29.0871908820445
30
0
41
1
10
135.611080636822
20
-29.0723417336802
30
0
41
1
10
133.22808
20
-29.0572208140974
30
0
0
SPLINE
5
338
100
AcDbEntity
8
1
62
256
6
ByLayer
370
13
48
1
60
0
100
AcDbSpline
70
4
71
3
72
16
73
12
40
0
40
0
40
0
40
0
40
0.499999999999997
40
0.499999999999997
40
0.624999999999997
40
0.624999999999997
40
0.687499999999998
40
0.687499999999998
40
0.749999999999998
40
0.749999999999998
40
1
40
1
40
1
40
1
41
1
10
16.4502943739413
20
-30.485753738349
30
0
41
1
10
18.4484486636829
20
-30.3497410214364
30
0
41
1
10
20.4434568518531
20
-30.1865867051399
30
0
41
1
10
22.9332504081239
20
-29.9484230421683
30
0
41
1
10
23.4310106781985
20
-29.8990783460936
30
0
41
1
10
24.1773524489986
20
-29.8224849665804
30
0
41
1
10
24.4260403905078
20
-29.7961545539112
30
0
41
1
10
24.9235218897217
20
-29.7444048855712
30
0
41
1
10
25.172384907535
20
-29.7194659315795
30
0
41
1
10
26.416981698127
20
-29.5994889899591
30
0
41
1
10
27.4136812914089
20
-29.5185883907959
30
0
41
1
10
28.4114061878572
20
-29.452815108102
30
0
0
SPLINE
5
339
100
AcDbEntity
8
1
62
256
6
ByLayer
370
13
48
1
60
0
100
AcDbSpline
70
4
71
3
72
10
73
6
40
0
40
0
40
0
40
0
40
0.623733133168923
40
0.623733133168923
40
1
40
1
40
1
40
1
41
1
10
253.229946410315
20
11.3384020321469
30
0
41
1
10
248.730615404601
20
11.482990749303
30
0
41
1
10
244.23498500138
20
11.5409540146074
30
0
41
1
10
237.028471997219
20
11.4986924788117
30
0
41
1
10
234.317143538526
20
11.452134175237
30
0
41
1
10
231.605409599735
20
11.37585182168
30
0
0
SPLINE
5
33A
100
AcDbEntity
8
1
62
256
6
ByLayer
370
13
48
1
60
0
100
AcDbSpline
70
4
71
3
72
10
73
6
40
0
40
0
40
0
40
0
40
0.483783022638644
40
0.483783022638644
40
1
40
1
40
1
40
1
41
1
10
35.3496
20
-28.6097844019575
30
0
41
1
10
35.3496
20
-26.652116862677
30
0
41
1
10
35.3496
20
-24.6944493277768
30
0
41
1
10
35.3496
20
-20.6478676188009
30
0
41
1
10
35.3496
20
-18.5589534453319
30
0
41
1
10
35.3496
20
-16.4700392768441
30
0
0
SPLINE
5
33B
100
AcDbEntity
8
1
62
256
6
ByLayer
370
13
48
1
60
0
100
AcDbSpline
70
4
71
1
72
4
73
2
40
0
40
0
40
1
40
1
41
1
10
279.349779123818
20
10.4710283395975
30
0
41
1
10
279.494454116804
20
10.6005928524367
30
0
0
SPLINE
5
33C
100
AcDbEntity
8
1
62
256
6
ByLayer
370
13
48
1
60
0
100
AcDbSpline
70
4
71
1
72
4
73
2
40
0
40
0
40
1
40
1
41
1
10
260.450021905496
20
9.6025164525355
30
0
41
1
10
260.607447533154
20
9.48878436234429
30
0
0
SPLINE
5
33D
100
AcDbEntity
8
1
62
256
6
ByLayer
370
13
48
1
60
0
100
AcDbSpline
70
4
71
1
72
4
73
2
40
0
40
0
40
1
40
1
41
1
10
227.032957983576
20
13.2138575276875
30
0
41
1
10
226.997803026561
20
13.2279261717725
30
0
0
SPLINE
5
33E
100
AcDbEntity
8
1
62
256
6
ByLayer
370
13
48
1
60
0
100
AcDbSpline
70
4
71
3
72
12
73
8
40
0
40
0
40
0
40
0
40
0.279991220003762
40
0.560020466150897
40
0.706658152359385
40
0.853343941179679
40
1
40
1
40
1
40
1
41
1
10
5.00329999999998
20
-31.2500000000002
30
0
41
1
10
7.80111928747198
20
-31.2011179140007
30
0
41
1
10
13.3892200488907
20
-30.9850638423285
30
0
41
1
10
20.4311121437344
20
-30.4563084005307
30
0
41
1
10
26.1191911287738
20
-29.7903430085677
30
0
41
1
10
30.5050449401615
20
-29.4772161863565
30
0
41
1
10
33.4335816440734
20
-29.4084760824439
30
0
41
1
10
34.8996
20
-29.4084374999983
30
0
0
SPLINE
5
33F
100
AcDbEntity
8
1
62
256
6
ByLayer
370
13
48
1
60
0
100
AcDbSpline
70
4
71
3
72
12
73
8
40
0
40
0
40
0
40
0
40
0.186656260509326
40
0.373300842920896
40
0.55996640349045
40
0.780010029255046
40
1
40
1
40
1
40
1
41
1
10
34.8996
20
29.4084374999982
30
0
41
1
10
33.0328545386267
20
29.4093652408392
30
0
41
1
10
29.3052176741207
20
29.5047320830071
30
0
41
1
10
23.7384439982374
20
30.0785539834962
30
0
41
1
10
17.8418442862229
20
30.6654538518413
30
0
41
1
10
11.5929278351345
20
31.0631436586639
30
0
41
1
10
7.20102109730101
20
31.2116211168252
30
0
41
1
10
5.00330000000005
20
31.2500000000002
30
0
0
LINE
5
7F
100
AcDbEntity
8
SK1
62
256
6
ByLayer
370
13
48
1
60
0
100
AcDbLine
10
-69
20
-19.046
30
0
11
-69
21
-8.870896
31
0
39
0
210
0
220
0
230
1
0
LINE
5
81
100
AcDbEntity
8
SK1
62
256
6
ByLayer
370
13
48
1
60
0
100
AcDbLine
10
-69
20
8.870896
30
0
11
-69
21
19.046
31
0
39
0
210
0
220
0
230
1
0
LINE
5
82
100
AcDbEntity
8
SK1
62
256
6
ByLayer
370
13
48
1
60
0
100
AcDbLine
10
-68.516222
20
18.942544
30
0
11
-68.516222
21
8.64654
31
0
39
0
210
0
220
0
230
1
0
LINE
5
83
100
AcDbEntity
8
SK1
62
256
6
ByLayer
370
13
48
1
60
0
100
AcDbLine
10
-68.516222
20
-8.64654
30
0
11
-68.516222
21
-18.942544
31
0
39
0
210
0
220
0
230
1
0
LINE
5
84
100
AcDbEntity
8
SK1
62
256
6
ByLayer
370
13
48
1
60
0
100
AcDbLine
10
-2
20
-19.046
30
0
11
-2
21
19.046
31
0
39
0
210
0
220
0
230
1
0
LINE
5
85
100
AcDbEntity
8
SK1
62
256
6
ByLayer
370
13
48
1
60
0
100
AcDbLine
10
-68.599999
20
-19.046
30
0
11
-68.599999
21
-8.870896
31
0
39
0
210
0
220
0
230
1
0
LINE
5
86
100
AcDbEntity
8
SK1
62
256
6
ByLayer
370
13
48
1
60
0
100
AcDbLine
10
-68.599999
20
8.870896
30
0
11
-68.599999
21
19.046
31
0
39
0
210
0
220
0
230
1
0
LINE
5
87
100
AcDbEntity
8
SK1
62
256
6
ByLayer
370
13
48
1
60
0
100
AcDbLine
10
-1.375195
20
-18.796
30
0
11
-1.375195
21
18.796
31
0
39
0
210
0
220
0
230
1
0
LINE
5
88
100
AcDbEntity
8
SK1
62
256
6
ByLayer
370
13
48
1
60
0
100
AcDbLine
10
-66.600002
20
8.870896
30
0
11
-6.5
21
8.870896
31
0
39
0
210
0
220
0
230
1
0
LINE
5
89
100
AcDbEntity
8
SK1
62
256
6
ByLayer
370
13
48
1
60
0
100
AcDbLine
10
-69
20
8.870896
30
0
11
-68.599999
21
8.870896
31
0
39
0
210
0
220
0
230
1
0
LINE
5
8A
100
AcDbEntity
8
SK1
62
256
6
ByLayer
370
13
48
1
60
0
100
AcDbLine
10
-6.5
20
-8.870896
30
0
11
-66.600002
21
-8.870896
31
0
39
0
210
0
220
0
230
1
0
LINE
5
8B
100
AcDbEntity
8
SK1
62
256
6
ByLayer
370
13
48
1
60
0
100
AcDbLine
10
-6.5
20
-8.870896
30
0
11
-6.5
21
8.870896
31
0
39
0
210
0
220
0
230
1
0
LINE
5
8C
100
AcDbEntity
8
SK1
62
256
6
ByLayer
370
13
48
1
60
0
100
AcDbLine
10
-68.599999
20
-8.870896
30
0
11
-69
21
-8.870896
31
0
39
0
210
0
220
0
230
1
0
LINE
5
8D
100
AcDbEntity
8
SK1
62
256
6
ByLayer
370
13
48
1
60
0
100
AcDbLine
10
-1.544243
20
-18.833477
30
0
11
-1.544243
21
18.833477
31
0
39
0
210
0
220
0
230
1
0
LINE
5
8E
100
AcDbEntity
8
SK1
62
256
6
ByLayer
370
13
48
1
60
0
100
AcDbLine
10
-0.15
20
-18.796
30
0
11
-0.15
21
18.796
31
0
39
0
210
0
220
0
230
1
0
LINE
5
8F
100
AcDbEntity
8
SK1
62
256
6
ByLayer
370
13
48
1
60
0
100
AcDbLine
10
-67.633813
20
18.689667
30
0
11
-67.633813
21
8.07752
31
0
39
0
210
0
220
0
230
1
0
LINE
5
90
100
AcDbEntity
8
SK1
62
256
6
ByLayer
370
13
48
1
60
0
100
AcDbLine
10
-67.633813
20
-8.07752
30
0
11
-67.633813
21
-18.689667
31
0
39
0
210
0
220
0
230
1
0
LINE
5
91
100
AcDbEntity
8
1
62
256
6
ByLayer
370
18
48
1
60
0
100
AcDbLine
10
270.858274
20
18.717582
30
0
11
270.720011
21
18.710336
31
0
39
0
210
0
220
0
230
1
0
LINE
5
92
100
AcDbEntity
8
1
62
256
6
ByLayer
370
18
48
1
60
0
100
AcDbLine
10
269.441061
20
18.256216
30
0
11
269.302798
21
18.24897
31
0
39
0
210
0
220
0
230
1
0
LINE
5
93
100
AcDbEntity
8
1
62
256
6
ByLayer
370
18
48
1
60
0
100
AcDbLine
10
268.334093
20
19.258503
30
0
11
268.265858
21
19.254927
31
0
39
0
210
0
220
0
230
1
0
LINE
5
94
100
AcDbEntity
8
1
62
256
6
ByLayer
370
18
48
1
60
0
100
AcDbLine
10
271.050857
20
19.400443
30
0
11
271.070718
21
19.401923
31
0
39
0
210
0
220
0
230
1
0
LINE
5
95
100
AcDbEntity
8
1
62
256
6
ByLayer
370
18
48
1
60
0
100
AcDbLine
10
271.030256
20
20.173989
30
0
11
271.010349
21
20.173385
31
0
39
0
210
0
220
0
230
1
0
LINE
5
96
100
AcDbEntity
8
1
62
256
6
ByLayer
370
18
48
1
60
0
100
AcDbLine
10
270.84675
20
18.734542
30
0
11
270.709529
21
18.727351
31
0
39
0
210
0
220
0
230
1
0
LINE
5
97
100
AcDbEntity
8
1
62
256
6
ByLayer
370
18
48
1
60
0
100
AcDbLine
10
270.720011
20
18.710336
30
0
11
270.709529
21
18.727351
31
0
39
0
210
0
220
0
230
1
0
LINE
5
98
100
AcDbEntity
8
1
62
256
6
ByLayer
370
18
48
1
60
0
100
AcDbLine
10
271.14757
20
20.180576
30
0
11
271.010349
21
20.173385
31
0
39
0
210
0
220
0
230
1
0
LINE
5
99
100
AcDbEntity
8
1
62
256
6
ByLayer
370
18
48
1
60
0
100
AcDbLine
10
269.29994
20
21.126483
30
0
11
269.162719
21
21.119291
31
0
39
0
210
0
220
0
230
1
0
LINE
5
9A
100
AcDbEntity
8
1
62
256
6
ByLayer
370
18
48
1
60
0
100
AcDbLine
10
269.449444
20
18.27378
30
0
11
269.312223
21
18.266589
31
0
39
0
210
0
220
0
230
1
0
LINE
5
9B
100
AcDbEntity
8
1
62
256
6
ByLayer
370
18
48
1
60
0
100
AcDbLine
10
269.302798
20
18.24897
30
0
11
269.312223
21
18.266589
31
0
39
0
210
0
220
0
230
1
0
LINE
5
9C
100
AcDbEntity
8
1
62
256
6
ByLayer
370
18
48
1
60
0
100
AcDbLine
10
270.600533
20
20.807111
30
0
11
270.60918
21
20.825129
31
0
39
0
210
0
220
0
230
1
0
LINE
5
9D
100
AcDbEntity
8
1
62
256
6
ByLayer
370
18
48
1
60
0
100
AcDbLine
10
268.29363
20
20.030568
30
0
11
268.225985
21
20.027023
31
0
39
0
210
0
220
0
230
1
0
LINE
5
9E
100
AcDbEntity
8
1
62
256
6
ByLayer
370
18
48
1
60
0
100
AcDbLine
10
270.747442
20
20.832375
30
0
11
270.60918
21
20.825129
31
0
39
0
210
0
220
0
230
1
0
LINE
5
9F
100
AcDbEntity
8
1
62
256
6
ByLayer
370
18
48
1
60
0
100
AcDbLine
10
269.162719
20
21.119291
30
0
11
269.151504
21
21.135828
31
0
39
0
210
0
220
0
230
1
0
LINE
5
A0
100
AcDbEntity
8
1
62
256
6
ByLayer
370
18
48
1
60
0
100
AcDbLine
10
269.289767
20
21.143074
30
0
11
269.151504
21
21.135828
31
0
39
0
210
0
220
0
230
1
0
LINE
5
A1
100
AcDbEntity
8
1
62
256
6
ByLayer
370
18
48
1
60
0
100
AcDbLine
10
270.737754
20
20.814303
30
0
11
270.600533
21
20.807111
31
0
39
0
210
0
220
0
230
1
0
LINE
5
A2
100
AcDbEntity
8
1
62
256
6
ByLayer
370
18
48
1
60
0
100
AcDbLine
10
271.188078
20
19.407635
30
0
11
271.050857
21
19.400443
31
0
39
0
210
0
220
0
230
1
0
LINE
5
A3
100
AcDbEntity
8
1
62
256
6
ByLayer
370
18
48
1
60
0
100
AcDbLine
10
278.920863
20
-18.767833
30
0
11
279.272845
21
-18.667464
31
0
39
0
210
0
220
0
230
1
0
LINE
5
A4
100
AcDbEntity
8
1
62
256
6
ByLayer
370
18
48
1
60
0
100
AcDbLine
10
278.827939
20
-17.865356
30
0
11
278.814363
21
-17.869227
31
0
39
0
210
0
220
0
230
1
0
LINE
5
A5
100
AcDbEntity
8
1
62
256
6
ByLayer
370
18
48
1
60
0
100
AcDbLine
10
278.407467
20
0.462408
30
0
11
278.491568
21
0.451398
31
0
39
0
210
0
220
0
230
1
0
LINE
5
A6
100
AcDbEntity
8
1
62
256
6
ByLayer
370
18
48
1
60
0
100
AcDbLine
10
280.217724
20
-8.970765
30
0
11
279.078472
21
-17.576213
31
0
39
0
210
0
220
0
230
1
0
LINE
5
A7
100
AcDbEntity
8
1
62
256
6
ByLayer
370
18
48
1
60
0
100
AcDbLine
10
278.719001
20
-17.890251
30
0
11
278.645555
21
-17.901819
31
0
39
0
210
0
220
0
230
1
0
LINE
5
A8
100
AcDbEntity
8
1
62
256
6
ByLayer
370
18
48
1
60
0
100
AcDbLine
10
279.266611
20
-0.126216
30
0
11
279.165681
21
0.223813
31
0
39
0
210
0
220
0
230
1
0
LINE
5
A9
100
AcDbEntity
8
1
62
256
6
ByLayer
370
18
48
1
60
0
100
AcDbLine
10
278.782325
20
0.202256
30
0
11
278.786218
21
0.188755
31
0
39
0
210
0
220
0
230
1
0
LINE
5
AA
100
AcDbEntity
8
1
62
256
6
ByLayer
370
18
48
1
60
0
100
AcDbLine
10
278.80736
20
0.093922
30
0
11
280.214719
21
-8.742471
31
0
39
0
210
0
220
0
230
1
0
LINE
5
AB
100
AcDbEntity
8
1
62
256
6
ByLayer
370
13
48
1
60
0
100
AcDbLine
10
262.520617
20
27.685778
30
0
11
260.154438
21
27.288596
31
0
39
0
210
0
220
0
230
1
0
LINE
5
AC
100
AcDbEntity
8
1
62
256
6
ByLayer
370
13
48
1
60
0
100
AcDbLine
10
262.584213
20
11.057582
30
0
11
261.32786
21
19.01364
31
0
39
0
210
0
220
0
230
1
0
LINE
5
AD
100
AcDbEntity
8
1
62
256
6
ByLayer
370
13
48
1
60
0
100
AcDbLine
10
279.523717
20
12.104755
30
0
11
279.416174
21
11.037392
31
0
39
0
210
0
220
0
230
1
0
LINE
5
AE
100
AcDbEntity
8
1
62
256
6
ByLayer
370
13
48
1
60
0
100
AcDbLine
10
261.543312
20
19.045866
30
0
11
262.799665
21
11.089808
31
0
39
0
210
0
220
0
230
1
0
LINE
5
AF
100
AcDbEntity
8
1
62
256
6
ByLayer
370
13
48
1
60
0
100
AcDbLine
10
262.400556
20
27.433194
30
0
11
262.395857
21
27.432948
31
0
39
0
210
0
220
0
230
1
0
LINE
5
B0
100
AcDbEntity
8
1
62
256
6
ByLayer
370
13
48
1
60
0
100
AcDbLine
10
261.325195
20
19.214511
30
0
11
262.392382
21
27.370723
31
0
39
0
210
0
220
0
230
1
0
LINE
5
B1
100
AcDbEntity
8
1
62
256
6
ByLayer
370
13
48
1
60
0
100
AcDbLine
10
277.293262
20
29.884514
30
0
11
277.46811
21
29.893677
31
0
39
0
210
0
220
0
230
1
0
LINE
5
B2
100
AcDbEntity
8
1
62
256
6
ByLayer
370
13
48
1
60
0
100
AcDbLine
10
277.748236
20
30.034417
30
0
11
277.946358
21
30.04306
31
0
39
0
210
0
220
0
230
1
0
LINE
5
B3
100
AcDbEntity
8
1
62
256
6
ByLayer
370
13
48
1
60
0
100
AcDbLine
10
277.650115
20
30.081999
30
0
11
277.906787
21
30.141462
31
0
39
0
210
0
220
0
230
1
0
LINE
5
B4
100
AcDbEntity
8
1
62
256
6
ByLayer
370
13
48
1
60
0
100
AcDbLine
10
278.887721
20
10.948686
30
0
11
278.934942
21
10.956613
31
0
39
0
210
0
220
0
230
1
0
LINE
5
B5
100
AcDbEntity
8
1
62
256
6
ByLayer
370
13
48
1
60
0
100
AcDbLine
10
277.182195
20
12.054871
30
0
11
277.176381
21
12.010439
31
0
39
0
210
0
220
0
230
1
0
LINE
5
B6
100
AcDbEntity
8
1
62
256
6
ByLayer
370
13
48
1
60
0
100
AcDbLine
10
262.632635
20
10.750946
30
0
11
262.627936
21
10.7507
31
0
39
0
210
0
220
0
230
1
0
LINE
5
B7
100
AcDbEntity
8
1
62
256
6
ByLayer
370
13
48
1
60
0
100
AcDbLine
10
280.396349
20
20.435459
30
0
11
278.976091
21
29.42947
31
0
39
0
210
0
220
0
230
1
0
LINE
5
B8
100
AcDbEntity
8
1
62
256
6
ByLayer
370
13
48
1
60
0
100
AcDbLine
10
277.314414
20
12.056831
30
0
11
279.367906
21
12.401526
31
0
39
0
210
0
220
0
230
1
0
LINE
5
B9
100
AcDbEntity
8
1
62
256
6
ByLayer
370
13
48
1
60
0
100
AcDbLine
10
260.17144
20
27.040137
30
0
11
259.140903
21
19.164031
31
0
39
0
210
0
220
0
230
1
0
LINE
5
BA
100
AcDbEntity
8
1
62
256
6
ByLayer
370
13
48
1
60
0
100
AcDbLine
10
258.665109
20
19.871034
30
0
11
258.675254
21
20.661076
31
0
39
0
210
0
220
0
230
1
0
LINE
5
BB
100
AcDbEntity
8
1
62
256
6
ByLayer
370
13
48
1
60
0
100
AcDbLine
10
280.660965
20
20.475495
30
0
11
279.240707
21
29.469506
31
0
39
0
210
0
220
0
230
1
0
LINE
5
BC
100
AcDbEntity
8
1
62
256
6
ByLayer
370
13
48
1
60
0
100
AcDbLine
10
280.565302
20
20.259004
30
0
11
280.560603
21
20.258757
31
0
39
0
210
0
220
0
230
1
0
LINE
5
BD
100
AcDbEntity
8
1
62
256
6
ByLayer
370
13
48
1
60
0
100
AcDbLine
10
262.011196
20
9.569573
30
0
11
262.006497
21
9.569327
31
0
39
0
210
0
220
0
230
1
0
LINE
5
BE
100
AcDbEntity
8
1
62
256
6
ByLayer
370
13
48
1
60
0
100
AcDbLine
10
259.011636
20
19.184629
30
0
11
260.042173
21
27.060735
31
0
39
0
210
0
220
0
230
1
0
LINE
5
BF
100
AcDbEntity
8
1
62
256
6
ByLayer
370
13
48
1
60
0
100
AcDbLine
10
278.071217
20
20.399737
30
0
11
276.814864
21
28.355795
31
0
39
0
210
0
220
0
230
1
0
LINE
5
C0
100
AcDbEntity
8
1
62
256
6
ByLayer
370
13
48
1
60
0
100
AcDbLine
10
261.32786
20
19.01364
30
0
11
261.323161
21
19.013394
31
0
39
0
210
0
220
0
230
1
0
LINE
5
C1
100
AcDbEntity
8
1
62
256
6
ByLayer
370
13
48
1
60
0
100
AcDbLine
10
258.665109
20
19.871034
30
0
11
258.636227
21
19.315015
31
0
39
0
210
0
220
0
230
1
0
LINE
5
C2
100
AcDbEntity
8
1
62
256
6
ByLayer
370
13
48
1
60
0
100
AcDbLine
10
279.411384
20
12.254565
30
0
11
279.406685
21
12.254318
31
0
39
0
210
0
220
0
230
1
0
LINE
5
C3
100
AcDbEntity
8
1
62
256
6
ByLayer
370
13
48
1
60
0
100
AcDbLine
10
278.887721
20
10.948686
30
0
11
278.979491
21
11.155701
31
0
39
0
210
0
220
0
230
1
0
LINE
5
C4
100
AcDbEntity
8
1
62
256
6
ByLayer
370
13
48
1
60
0
100
AcDbLine
10
260.677284
20
28.964082
30
0
11
260.359795
21
28.963185
31
0
39
0
210
0
220
0
230
1
0
LINE
5
C5
100
AcDbEntity
8
1
62
256
6
ByLayer
370
13
48
1
60
0
100
AcDbLine
10
262.395857
20
27.432948
30
0
11
261.320496
21
19.214265
31
0
39
0
210
0
220
0
230
1
0
LINE
5
C6
100
AcDbEntity
8
1
62
256
6
ByLayer
370
13
48
1
60
0
100
AcDbLine
10
277.005934
20
12.100046
30
0
11
278.073121
21
20.256258
31
0
39
0
210
0
220
0
230
1
0
LINE
5
C7
100
AcDbEntity
8
1
62
256
6
ByLayer
370
13
48
1
60
0
100
AcDbLine
10
258.915972
20
18.968138
30
0
11
260.33623
21
9.974127
31
0
39
0
210
0
220
0
230
1
0
LINE
5
C8
100
AcDbEntity
8
1
62
256
6
ByLayer
370
13
48
1
60
0
100
AcDbLine
10
263.093252
20
27.632257
30
0
11
275.620142
21
28.288763
31
0
39
0
210
0
220
0
230
1
0
LINE
5
C9
100
AcDbEntity
8
1
62
256
6
ByLayer
370
13
48
1
60
0
100
AcDbLine
10
278.473279
20
30.04426
30
0
11
278.46858
21
30.044013
31
0
39
0
210
0
220
0
230
1
0
LINE
5
CA
100
AcDbEntity
8
1
62
256
6
ByLayer
370
13
48
1
60
0
100
AcDbLine
10
262.224932
20
27.384832
30
0
11
260.17144
21
27.040137
31
0
39
0
210
0
220
0
230
1
0
LINE
5
CB
100
AcDbEntity
8
1
62
256
6
ByLayer
370
13
48
1
60
0
100
AcDbLine
10
261.323161
20
19.013394
30
0
11
262.627936
21
10.7507
31
0
39
0
210
0
220
0
230
1
0
LINE
5
CC
100
AcDbEntity
8
1
62
256
6
ByLayer
370
13
48
1
60
0
100
AcDbLine
10
258.665109
20
19.871034
30
0
11
258.769855
21
20.910635
31
0
39
0
210
0
220
0
230
1
0
LINE
5
CD
100
AcDbEntity
8
1
62
256
6
ByLayer
370
13
48
1
60
0
100
AcDbLine
10
261.824664
20
9.408998
30
0
11
261.625881
21
9.400327
31
0
39
0
210
0
220
0
230
1
0
LINE
5
CE
100
AcDbEntity
8
1
62
256
6
ByLayer
370
13
48
1
60
0
100
AcDbLine
10
262.608596
20
27.345557
30
0
11
261.541409
21
19.189345
31
0
39
0
210
0
220
0
230
1
0
LINE
5
CF
100
AcDbEntity
8
1
62
256
6
ByLayer
370
13
48
1
60
0
100
AcDbLine
10
280.66401
20
20.245928
30
0
11
279.635521
21
12.385471
31
0
39
0
210
0
220
0
230
1
0
LINE
5
D0
100
AcDbEntity
8
1
62
256
6
ByLayer
370
13
48
1
60
0
100
AcDbLine
10
258.741642
20
18.410708
30
0
11
260.305504
21
9.973248
31
0
39
0
210
0
220
0
230
1
0
LINE
5
D1
100
AcDbEntity
8
1
62
256
6
ByLayer
370
13
48
1
60
0
100
AcDbLine
10
260.165554
20
27.189068
30
0
11
262.285393
21
27.544901
31
0
39
0
210
0
220
0
230
1
0
LINE
5
D2
100
AcDbEntity
8
1
62
256
6
ByLayer
370
13
48
1
60
0
100
AcDbLine
10
278.934942
20
10.956613
30
0
11
278.819952
21
10.44273
31
0
39
0
210
0
220
0
230
1
0
LINE
5
D3
100
AcDbEntity
8
1
62
256
6
ByLayer
370
13
48
1
60
0
100
AcDbLine
10
280.565302
20
20.259004
30
0
11
279.534765
21
12.382898
31
0
39
0
210
0
220
0
230
1
0
LINE
5
D4
100
AcDbEntity
8
1
62
256
6
ByLayer
370
13
48
1
60
0
100
AcDbLine
10
261.325195
20
19.214511
30
0
11
261.320496
21
19.214265
31
0
39
0
210
0
220
0
230
1
0
LINE
5
D5
100
AcDbEntity
8
1
62
256
6
ByLayer
370
13
48
1
60
0
100
AcDbLine
10
277.291545
20
11.898732
30
0
11
277.286846
21
11.898486
31
0
39
0
210
0
220
0
230
1
0
LINE
5
D6
100
AcDbEntity
8
1
62
256
6
ByLayer
370
13
48
1
60
0
100
AcDbLine
10
277.05632
20
11.757855
30
0
11
279.194548
21
12.116774
31
0
39
0
210
0
220
0
230
1
0
LINE
5
D7
100
AcDbEntity
8
1
62
256
6
ByLayer
370
13
48
1
60
0
100
AcDbLine
10
262.462332
20
10.751951
30
0
11
261.161572
21
18.989225
31
0
39
0
210
0
220
0
230
1
0
LINE
5
D8
100
AcDbEntity
8
1
62
256
6
ByLayer
370
13
48
1
60
0
100
AcDbLine
10
276.944303
20
28.692687
30
0
11
276.989833
21
28.404363
31
0
39
0
210
0
220
0
230
1
0
LINE
5
D9
100
AcDbEntity
8
1
62
256
6
ByLayer
370
13
48
1
60
0
100
AcDbLine
10
279.142379
20
29.453885
30
0
11
279.13768
21
29.453639
31
0
39
0
210
0
220
0
230
1
0
LINE
5
DA
100
AcDbEntity
8
1
62
256
6
ByLayer
370
13
48
1
60
0
100
AcDbLine
10
262.632635
20
10.750946
30
0
11
262.584213
21
11.057582
31
0
39
0
210
0
220
0
230
1
0
LINE
5
DB
100
AcDbEntity
8
1
62
256
6
ByLayer
370
13
48
1
60
0
100
AcDbLine
10
276.483685
20
11.811376
30
0
11
263.956796
21
11.15487
31
0
39
0
210
0
220
0
230
1
0
LINE
5
DC
100
AcDbEntity
8
1
62
256
6
ByLayer
370
13
48
1
60
0
100
AcDbLine
10
261.158336
20
19.233139
30
0
11
262.224932
21
27.384832
31
0
39
0
210
0
220
0
230
1
0
LINE
5
DD
100
AcDbEntity
8
1
62
256
6
ByLayer
370
13
48
1
60
0
100
AcDbLine
10
260.16962
20
29.183647
30
0
11
260.28481
21
29.171922
31
0
39
0
210
0
220
0
230
1
0
LINE
5
DE
100
AcDbEntity
8
1
62
256
6
ByLayer
370
13
48
1
60
0
100
AcDbLine
10
278.979491
20
11.155701
30
0
11
279.422499
21
12.155037
31
0
39
0
210
0
220
0
230
1
0
LINE
5
DF
100
AcDbEntity
8
1
62
256
6
ByLayer
370
13
48
1
60
0
100
AcDbLine
10
277.077014
20
28.689711
30
0
11
278.377774
21
20.452438
31
0
39
0
210
0
220
0
230
1
0
LINE
5
E0
100
AcDbEntity
8
1
62
256
6
ByLayer
370
13
48
1
60
0
100
AcDbLine
10
260.434558
20
9.989748
30
0
11
259.014301
21
18.983759
31
0
39
0
210
0
220
0
230
1
0
LINE
5
E1
100
AcDbEntity
8
1
62
256
6
ByLayer
370
13
48
1
60
0
100
AcDbLine
10
259.152491
20
15.420201
30
0
11
259.789217
21
12.758723
31
0
39
0
210
0
220
0
230
1
0
LINE
5
E2
100
AcDbEntity
8
1
62
256
6
ByLayer
370
13
48
1
60
0
100
AcDbLine
10
262.603723
20
10.663612
30
0
11
262.599024
21
10.663365
31
0
39
0
210
0
220
0
230
1
0
LINE
5
E3
100
AcDbEntity
8
1
62
256
6
ByLayer
370
13
48
1
60
0
100
AcDbLine
10
261.600536
20
9.549199
30
0
11
261.799319
21
9.55787
31
0
39
0
210
0
220
0
230
1
0
LINE
5
E4
100
AcDbEntity
8
1
62
256
6
ByLayer
370
13
48
1
60
0
100
AcDbLine
10
279.142379
20
29.453885
30
0
11
280.562637
21
20.459874
31
0
39
0
210
0
220
0
230
1
0
LINE
5
E5
100
AcDbEntity
8
1
62
256
6
ByLayer
370
13
48
1
60
0
100
AcDbLine
10
279.411384
20
12.254565
30
0
11
277.291545
21
11.898732
31
0
39
0
210
0
220
0
230
1
0
LINE
5
E6
100
AcDbEntity
8
1
62
256
6
ByLayer
370
13
48
1
60
0
100
AcDbLine
10
262.392382
20
27.370723
30
0
11
262.400556
21
27.433194
31
0
39
0
210
0
220
0
230
1
0
LINE
5
E7
100
AcDbEntity
8
1
62
256
6
ByLayer
370
13
48
1
60
0
100
AcDbLine
10
277.981023
20
30.044374
30
0
11
277.976324
21
30.044128
31
0
39
0
210
0
220
0
230
1
0
LINE
5
E8
100
AcDbEntity
8
1
62
256
6
ByLayer
370
13
48
1
60
0
100
AcDbLine
10
260.050157
20
28.461455
30
0
11
259.910645
21
28.438037
31
0
39
0
210
0
220
0
230
1
0
LINE
5
E9
100
AcDbEntity
8
1
62
256
6
ByLayer
370
13
48
1
60
0
100
AcDbLine
10
277.93881
20
29.892464
30
0
11
277.740027
21
29.883793
31
0
39
0
210
0
220
0
230
1
0
LINE
5
EA
100
AcDbEntity
8
1
62
256
6
ByLayer
370
13
48
1
60
0
100
AcDbLine
10
280.562637
20
20.459874
30
0
11
280.557938
21
20.459628
31
0
39
0
210
0
220
0
230
1
0
LINE
5
EB
100
AcDbEntity
8
1
62
256
6
ByLayer
370
13
48
1
60
0
100
AcDbLine
10
258.741642
20
18.410708
30
0
11
258.654798
21
18.960663
31
0
39
0
210
0
220
0
230
1
0
LINE
5
EC
100
AcDbEntity
8
1
62
256
6
ByLayer
370
13
48
1
60
0
100
AcDbLine
10
278.381009
20
20.208524
30
0
11
277.314414
21
12.056831
31
0
39
0
210
0
220
0
230
1
0
LINE
5
ED
100
AcDbEntity
8
1
62
256
6
ByLayer
370
13
48
1
60
0
100
AcDbLine
10
258.912927
20
19.197705
30
0
11
259.941417
21
27.058162
31
0
39
0
210
0
220
0
230
1
0
LINE
5
EE
100
AcDbEntity
8
1
62
256
6
ByLayer
370
13
48
1
60
0
100
AcDbLine
10
278.934942
20
10.956613
30
0
11
279.416174
21
11.037392
31
0
39
0
210
0
220
0
230
1
0
LINE
5
EF
100
AcDbEntity
8
1
62
256
6
ByLayer
370
13
48
1
60
0
100
AcDbLine
10
279.821715
20
13.808522
30
0
11
279.599428
21
10.9844
31
0
39
0
210
0
220
0
230
1
0
LINE
5
F0
100
AcDbEntity
8
1
62
256
6
ByLayer
370
13
48
1
60
0
100
AcDbLine
10
259.941417
20
27.058162
30
0
11
259.887568
21
27.663797
31
0
39
0
210
0
220
0
230
1
0
LINE
5
F1
100
AcDbEntity
8
1
62
256
6
ByLayer
370
13
48
1
60
0
100
AcDbLine
10
279.534765
20
12.382898
30
0
11
279.530066
21
12.382652
31
0
39
0
210
0
220
0
230
1
0
LINE
5
F2
100
AcDbEntity
8
1
62
256
6
ByLayer
370
13
48
1
60
0
100
AcDbLine
10
258.918657
20
21.211351
30
0
11
258.651978
21
19.173199
31
0
39
0
210
0
220
0
230
1
0
LINE
5
F3
100
AcDbEntity
8
1
62
256
6
ByLayer
370
13
48
1
60
0
100
AcDbLine
10
260.050157
20
28.461455
30
0
11
260.154438
21
27.288596
31
0
39
0
210
0
220
0
230
1
0
LINE
5
F4
100
AcDbEntity
8
1
62
256
6
ByLayer
370
13
48
1
60
0
100
AcDbLine
10
279.406685
20
12.254318
30
0
11
277.286846
21
11.898486
31
0
39
0
210
0
220
0
230
1
0
LINE
5
F5
100
AcDbEntity
8
1
62
256
6
ByLayer
370
13
48
1
60
0
100
AcDbLine
10
277.613201
20
30.080064
30
0
11
277.650115
21
30.081999
31
0
39
0
210
0
220
0
230
1
0
LINE
5
F6
100
AcDbEntity
8
1
62
256
6
ByLayer
370
13
48
1
60
0
100
AcDbLine
10
280.560603
20
20.258757
30
0
11
279.530066
21
12.382652
31
0
39
0
210
0
220
0
230
1
0
LINE
5
F7
100
AcDbEntity
8
1
62
256
6
ByLayer
370
13
48
1
60
0
100
AcDbLine
10
279.13768
20
29.453639
30
0
11
280.557938
21
20.459628
31
0
39
0
210
0
220
0
230
1
0
LINE
5
F8
100
AcDbEntity
8
1
62
256
6
ByLayer
370
13
48
1
60
0
100
AcDbLine
10
277.951057
20
30.043306
30
0
11
277.946358
21
30.04306
31
0
39
0
210
0
220
0
230
1
0
LINE
5
F9
100
AcDbEntity
8
1
62
256
6
ByLayer
370
13
48
1
60
0
100
AcDbLine
10
279.458105
20
10.589784
30
0
11
279.416174
21
11.037392
31
0
39
0
210
0
220
0
230
1
0
LINE
5
FA
100
AcDbEntity
8
1
62
256
6
ByLayer
370
13
48
1
60
0
100
AcDbLine
10
277.726535
20
30.103766
30
0
11
277.613201
21
30.080064
31
0
39
0
210
0
220
0
230
1
0
LINE
5
FB
100
AcDbEntity
8
1
62
256
6
ByLayer
370
13
48
1
60
0
100
AcDbLine
10
279.194548
20
12.116774
30
0
11
278.979491
21
11.155701
31
0
39
0
210
0
220
0
230
1
0
LINE
5
FC
100
AcDbEntity
8
1
62
256
6
ByLayer
370
13
48
1
60
0
100
AcDbLine
10
279.367906
20
12.401526
30
0
11
280.398443
21
20.277632
31
0
39
0
210
0
220
0
230
1
0
LINE
5
FD
100
AcDbEntity
8
1
62
256
6
ByLayer
370
13
48
1
60
0
100
AcDbLine
10
261.926822
20
9.361634
30
0
11
261.67015
21
9.302171
31
0
39
0
210
0
220
0
230
1
0
LINE
5
FE
100
AcDbEntity
8
1
62
256
6
ByLayer
370
13
48
1
60
0
100
AcDbLine
10
277.752274
20
30.034635
30
0
11
277.951057
21
30.043306
31
0
39
0
210
0
220
0
230
1
0
LINE
5
FF
100
AcDbEntity
8
1
62
256
6
ByLayer
370
13
48
1
60
0
100
AcDbLine
10
259.142997
20
19.006204
30
0
11
260.563255
21
10.012193
31
0
39
0
210
0
220
0
230
1
0
LINE
5
100
100
AcDbEntity
8
1
62
256
6
ByLayer
370
13
48
1
60
0
100
AcDbLine
10
277.752274
20
30.034635
30
0
11
277.747575
21
30.034389
31
0
39
0
210
0
220
0
230
1
0
LINE
5
101
100
AcDbEntity
8
1
62
256
6
ByLayer
370
13
48
1
60
0
100
AcDbLine
10
279.194548
20
12.116774
30
0
11
279.422499
21
12.155037
31
0
39
0
210
0
220
0
230
1
0
LINE
5
102
100
AcDbEntity
8
SK1
62
256
6
ByLayer
370
13
48
1
60
0
100
AcDbLine
10
-66.600002
20
19.046
30
0
11
-66.600002
21
8.870896
31
0
39
0
210
0
220
0
230
1
0
LINE
5
103
100
AcDbEntity
8
SK1
62
256
6
ByLayer
370
13
48
1
60
0
100
AcDbLine
10
-66.600002
20
-8.870896
30
0
11
-66.600002
21
-19.046
31
0
39
0
210
0
220
0
230
1
0
LINE
5
104
100
AcDbEntity
8
SK1
62
256
6
ByLayer
370
13
48
1
60
0
100
AcDbLine
10
-70
20
-18.046
30
0
11
-70
21
-6.449868
31
0
39
0
210
0
220
0
230
1
0
LINE
5
105
100
AcDbEntity
8
SK1
62
256
6
ByLayer
370
13
48
1
60
0
100
AcDbLine
10
-70
20
6.449868
30
0
11
-70
21
18.046
31
0
39
0
210
0
220
0
230
1
0
LINE
5
106
100
AcDbEntity
8
SK1
62
256
6
ByLayer
370
13
48
1
60
0
100
AcDbLine
10
-70
20
6.449868
30
0
11
-70
21
-6.449868
31
0
39
0
210
0
220
0
230
1
0
LINE
5
107
100
AcDbEntity
8
1
62
256
6
ByLayer
370
13
48
1
60
0
100
AcDbLine
10
257.259969
20
-29.25656
30
0
11
257.259969
21
-0.403549
31
0
39
0
210
0
220
0
230
1
0
LINE
5
108
100
AcDbEntity
8
1
62
256
6
ByLayer
370
13
48
1
60
0
100
AcDbLine
10
252.013811
20
2.520758
30
0
11
252.23412
21
1.202632
31
0
39
0
210
0
220
0
230
1
0
LINE
5
109
100
AcDbEntity
8
1
62
256
6
ByLayer
370
13
48
1
60
0
100
AcDbLine
10
0
20
-4.975942
30
0
11
0
21
4.975942
31
0
39
0
210
0
220
0
230
1
0
LINE
5
10A
100
AcDbEntity
8
1
62
256
6
ByLayer
370
13
48
1
60
0
100
AcDbLine
10
264.47376
20
10.981688
30
0
11
264.483158
21
10.982181
31
0
39
0
210
0
220
0
230
1
0
LINE
5
10B
100
AcDbEntity
8
1
62
256
6
ByLayer
370
13
48
1
60
0
100
AcDbLine
10
264.823107
20
11.200271
30
0
11
267.805972
21
11.356596
31
0
39
0
210
0
220
0
230
1
0
LINE
5
10C
100
AcDbEntity
8
1
62
256
6
ByLayer
370
13
48
1
60
0
100
AcDbLine
10
264.115686
20
10.862377
30
0
11
263.58382
21
10.834504
31
0
39
0
210
0
220
0
230
1
0
LINE
5
10D
100
AcDbEntity
8
1
62
256
6
ByLayer
370
13
48
1
60
0
100
AcDbLine
10
0
20
31.15
30
0
11
0
21
4.975942
31
0
39
0
210
0
220
0
230
1
0
LINE
5
10E
100
AcDbEntity
8
1
62
256
6
ByLayer
370
13
48
1
60
0
100
AcDbLine
10
277.701321
20
-29.25656
30
0
11
279.059056
21
-19.00079
31
0
39
0
210
0
220
0
230
1
0
LINE
5
10F
100
AcDbEntity
8
1
62
256
6
ByLayer
370
13
48
1
60
0
100
AcDbLine
10
279.111359
20
10.189745
30
0
11
278.970143
21
10.182344
31
0
39
0
210
0
220
0
230
1
0
LINE
5
110
100
AcDbEntity
8
1
62
256
6
ByLayer
370
13
48
1
60
0
100
AcDbLine
10
278.899277
20
0.619477
30
0
11
278.875617
21
0.622575
31
0
39
0
210
0
220
0
230
1
0
LINE
5
111
100
AcDbEntity
8
1
62
256
6
ByLayer
370
13
48
1
60
0
100
AcDbLine
10
279.735461
20
-9.669999
30
0
11
277.320098
21
-7.272847
31
0
39
0
210
0
220
0
230
1
0
LINE
5
112
100
AcDbEntity
8
1
62
256
6
ByLayer
370
13
48
1
60
0
100
AcDbLine
10
254.259969
20
-28.956607
30
0
11
239.609478
21
-28.956607
31
0
39
0
210
0
220
0
230
1
0
LINE
5
113
100
AcDbEntity
8
1
62
256
6
ByLayer
370
13
48
1
60
0
100
AcDbLine
10
279.085149
20
9.160903
30
0
11
279.04924
21
9.159021
31
0
39
0
210
0
220
0
230
1
0
LINE
5
114
100
AcDbEntity
8
1
62
256
6
ByLayer
370
13
48
1
60
0
100
AcDbLine
10
34.9096
20
-16.470039
30
0
11
34.9096
21
-28.609947
31
0
39
0
210
0
220
0
230
1
0
LINE
5
115
100
AcDbEntity
8
1
62
256
6
ByLayer
370
13
48
1
60
0
100
AcDbLine
10
273.273786
20
11.643152
30
0
11
276.256652
21
11.799478
31
0
39
0
210
0
220
0
230
1
0
LINE
5
116
100
AcDbEntity
8
1
62
256
6
ByLayer
370
13
48
1
60
0
100
AcDbLine
10
273.114239
20
11.606975
30
0
11
272.887782
21
11.595107
31
0
39
0
210
0
220
0
230
1
0
LINE
5
117
100
AcDbEntity
8
1
62
256
6
ByLayer
370
13
48
1
60
0
100
AcDbLine
10
39.8996
20
-29.292011
30
0
11
39.8996
21
-29.408438
31
0
39
0
210
0
220
0
230
1
0
LINE
5
118
100
AcDbEntity
8
1
62
256
6
ByLayer
370
13
48
1
60
0
100
AcDbLine
10
34.8996
20
29.408437
30
0
11
34.8996
21
-10.588047
31
0
39
0
210
0
220
0
230
1
0
LINE
5
119
100
AcDbEntity
8
1
62
256
6
ByLayer
370
13
48
1
60
0
100
AcDbLine
10
267.779254
20
10.654235
30
0
11
277.128541
21
11.144211
31
0
39
0
210
0
220
0
230
1
0
LINE
5
11A
100
AcDbEntity
8
1
62
256
6
ByLayer
370
13
48
1
60
0
100
AcDbLine
10
259.076052
20
21.46161
30
0
11
259.933021
21
28.01119
31
0
39
0
210
0
220
0
230
1
0
LINE
5
11B
100
AcDbEntity
8
1
62
256
6
ByLayer
370
13
48
1
60
0
100
AcDbLine
10
267.925569
20
9.660531
30
0
11
268.68186
21
9.700167
31
0
39
0
210
0
220
0
230
1
0
LINE
5
11C
100
AcDbEntity
8
1
62
256
6
ByLayer
370
13
48
1
60
0
100
AcDbLine
10
254.259969
20
-28.956607
30
0
11
254.259969
21
0.254985
31
0
39
0
210
0
220
0
230
1
0
LINE
5
11D
100
AcDbEntity
8
1
62
256
6
ByLayer
370
13
48
1
60
0
100
AcDbLine
10
0.1
20
5.567764
30
0
11
5.0033
21
5.567764
31
0
39
0
210
0
220
0
230
1
0
LINE
5
11E
100
AcDbEntity
8
1
62
256
6
ByLayer
370
13
48
1
60
0
100
AcDbLine
10
277.237131
20
-5.509738
30
0
11
279.713041
21
-7.966981
31
0
39
0
210
0
220
0
230
1
0
LINE
5
11F
100
AcDbEntity
8
1
62
256
6
ByLayer
370
13
48
1
60
0
100
AcDbLine
10
256.870104
20
10.218488
30
0
11
258.527342
21
9.709224
31
0
39
0
210
0
220
0
230
1
0
LINE
5
120
100
AcDbEntity
8
1
62
256
6
ByLayer
370
13
48
1
60
0
100
AcDbLine
10
279.281479
20
0.805651
30
0
11
278.900778
21
0.65843
31
0
39
0
210
0
220
0
230
1
0
LINE
5
121
100
AcDbEntity
8
1
62
256
6
ByLayer
370
13
48
1
60
0
100
AcDbLine
10
278.746247
20
0.598672
30
0
11
278.535892
21
0.517325
31
0
39
0
210
0
220
0
230
1
0
LINE
5
122
100
AcDbEntity
8
1
62
256
6
ByLayer
370
13
48
1
60
0
100
AcDbLine
10
254.259969
20
29.106812
30
0
11
254.259969
21
28.91031
31
0
39
0
210
0
220
0
230
1
0
LINE
5
123
100
AcDbEntity
8
1
62
256
6
ByLayer
370
13
48
1
60
0
100
AcDbLine
10
256.153525
20
2.27797
30
0
11
256.589738
21
-0.331925
31
0
39
0
210
0
220
0
230
1
0
LINE
5
124
100
AcDbEntity
8
1
62
256
6
ByLayer
370
13
48
1
60
0
100
AcDbLine
10
279.059056
20
-19.00079
30
0
11
278.608752
21
-18.629791
31
0
39
0
210
0
220
0
230
1
0
LINE
5
125
100
AcDbEntity
8
1
62
256
6
ByLayer
370
13
48
1
60
0
100
AcDbLine
10
279.111359
20
10.189745
30
0
11
279.274988
21
9.877452
31
0
39
0
210
0
220
0
230
1
0
LINE
5
126
100
AcDbEntity
8
1
62
256
6
ByLayer
370
13
48
1
60
0
100
AcDbLine
10
276.250532
20
2.820313
30
0
11
278.403934
21
0.683146
31
0
39
0
210
0
220
0
230
1
0
LINE
5
127
100
AcDbEntity
8
1
62
256
6
ByLayer
370
13
48
1
60
0
100
AcDbLine
10
5.0033
20
31.25
30
0
11
5.0033
21
5.567764
31
0
39
0
210
0
220
0
230
1
0
LINE
5
128
100
AcDbEntity
8
1
62
256
6
ByLayer
370
13
48
1
60
0
100
AcDbLine
10
278.474547
20
-0.19084
30
0
11
276.232429
21
2.034373
31
0
39
0
210
0
220
0
230
1
0
LINE
5
129
100
AcDbEntity
8
1
62
256
6
ByLayer
370
13
48
1
60
0
100
AcDbLine
10
255.265678
20
13.405756
30
0
11
255.265678
21
16.092111
31
0
39
0
210
0
220
0
230
1
0
LINE
5
12A
100
AcDbEntity
8
1
62
256
6
ByLayer
370
13
48
1
60
0
100
AcDbLine
10
263.062432
20
10.877611
30
0
11
263.227027
21
10.886237
31
0
39
0
210
0
220
0
230
1
0
LINE
5
12B
100
AcDbEntity
8
1
62
256
6
ByLayer
370
13
48
1
60
0
100
AcDbLine
10
279.274988
20
9.877452
30
0
11
279.281479
21
0.805651
31
0
39
0
210
0
220
0
230
1
0
LINE
5
12C
100
AcDbEntity
8
1
62
256
6
ByLayer
370
13
48
1
60
0
100
AcDbLine
10
5.0033
20
-5.567764
30
0
11
0.1
21
-5.567764
31
0
39
0
210
0
220
0
230
1
0
LINE
5
12D
100
AcDbEntity
8
1
62
256
6
ByLayer
370
13
48
1
60
0
100
AcDbLine
10
273.918859
20
9.974626
30
0
11
277.031411
21
10.137748
31
0
39
0
210
0
220
0
230
1
0
LINE
5
12E
100
AcDbEntity
8
1
62
256
6
ByLayer
370
13
48
1
60
0
100
AcDbLine
10
259.307761
20
14.436869
30
0
11
258.555923
21
19.198004
31
0
39
0
210
0
220
0
230
1
0
LINE
5
12F
100
AcDbEntity
8
1
62
256
6
ByLayer
370
13
48
1
60
0
100
AcDbLine
10
259.930937
20
27.15188
30
0
11
259.219343
21
21.713364
31
0
39
0
210
0
220
0
230
1
0
LINE
5
130
100
AcDbEntity
8
1
62
256
6
ByLayer
370
13
48
1
60
0
100
AcDbLine
10
0.1
20
-31.25
30
0
11
0.1
21
-5.567764
31
0
39
0
210
0
220
0
230
1
0
LINE
5
131
100
AcDbEntity
8
1
62
256
6
ByLayer
370
13
48
1
60
0
100
AcDbLine
10
263.06077
20
10.887133
30
0
11
263.062432
21
10.877611
31
0
39
0
210
0
220
0
230
1
0
LINE
5
132
100
AcDbEntity
8
1
62
256
6
ByLayer
370
13
48
1
60
0
100
AcDbLine
10
278.991217
20
1.133889
30
0
11
278.969542
21
1.136727
31
0
39
0
210
0
220
0
230
1
0
LINE
5
133
100
AcDbEntity
8
1
62
256
6
ByLayer
370
13
48
1
60
0
100
AcDbLine
10
264.435445
20
10.89206
30
0
11
264.121457
21
10.875605
31
0
39
0
210
0
220
0
230
1
0
LINE
5
134
100
AcDbEntity
8
1
62
256
6
ByLayer
370
13
48
1
60
0
100
AcDbLine
10
133.22808
20
-29.057221
30
0
11
133.22808
21
-29.106813
31
0
39
0
210
0
220
0
230
1
0
LINE
5
135
100
AcDbEntity
8
1
62
256
6
ByLayer
370
13
48
1
60
0
100
AcDbLine
10
276.711788
20
11.623056
30
0
11
264.483158
21
10.982181
31
0
39
0
210
0
220
0
230
1
0
LINE
5
136
100
AcDbEntity
8
1
62
256
6
ByLayer
370
13
48
1
60
0
100
AcDbLine
10
277.031411
20
10.137748
30
0
11
276.250532
21
2.820313
31
0
39
0
210
0
220
0
230
1
0
LINE
5
137
100
AcDbEntity
8
1
62
256
6
ByLayer
370
13
48
1
60
0
100
AcDbLine
10
277.701321
20
-29.25656
30
0
11
257.259969
21
-29.25656
31
0
39
0
210
0
220
0
230
1
0
LINE
5
138
100
AcDbEntity
8
1
62
256
6
ByLayer
370
13
48
1
60
0
100
AcDbLine
10
279.012062
20
9.456319
30
0
11
278.963934
21
10.289992
31
0
39
0
210
0
220
0
230
1
0
LINE
5
139
100
AcDbEntity
8
1
62
256
6
ByLayer
370
13
48
1
60
0
100
AcDbLine
10
279.735461
20
-9.669999
30
0
11
278.623211
21
-18.071482
31
0
39
0
210
0
220
0
230
1
0
LINE
5
13A
100
AcDbEntity
8
1
62
256
6
ByLayer
370
13
48
1
60
0
100
AcDbLine
10
278.991217
20
1.133889
30
0
11
279.281479
21
0.805651
31
0
39
0
210
0
220
0
230
1
0
LINE
5
13B
100
AcDbEntity
8
1
62
256
6
ByLayer
370
13
48
1
60
0
100
AcDbLine
10
264.843976
20
8.997206
30
0
11
265.356256
21
9.024054
31
0
39
0
210
0
220
0
230
1
0
LINE
5
13C
100
AcDbEntity
8
1
62
256
6
ByLayer
370
13
48
1
60
0
100
AcDbLine
10
276.232429
20
2.034373
30
0
11
276.4121
21
-0.880646
31
0
39
0
210
0
220
0
230
1
0
LINE
5
13D
100
AcDbEntity
8
1
62
256
6
ByLayer
370
13
48
1
60
0
100
AcDbLine
10
133.22808
20
29.106812
30
0
11
133.22808
21
-11.452494
31
0
39
0
210
0
220
0
230
1
0
LINE
5
13E
100
AcDbEntity
8
1
62
256
6
ByLayer
370
13
48
1
60
0
100
AcDbLine
10
255.718306
20
13.415309
30
0
11
256.66532
21
13.941621
31
0
39
0
210
0
220
0
230
1
0
LINE
5
13F
100
AcDbEntity
8
1
62
256
6
ByLayer
370
13
48
1
60
0
100
AcDbLine
10
34.8996
20
-29.291906
30
0
11
34.8996
21
-29.408437
31
0
39
0
210
0
220
0
230
1
0
LINE
5
140
100
AcDbEntity
8
1
62
256
6
ByLayer
370
13
48
1
60
0
100
AcDbLine
10
256.66532
20
13.941621
30
0
11
255.265678
21
16.092111
31
0
39
0
210
0
220
0
230
1
0
LINE
5
141
100
AcDbEntity
8
1
62
256
6
ByLayer
370
13
48
1
60
0
100
AcDbLine
10
278.474547
20
-0.19084
30
0
11
279.713041
21
-7.966981
31
0
39
0
210
0
220
0
230
1
0
LINE
5
142
100
AcDbEntity
8
1
62
256
6
ByLayer
370
13
48
1
60
0
100
AcDbLine
10
279.274988
20
9.877452
30
0
11
279.085149
21
9.160903
31
0
39
0
210
0
220
0
230
1
0
LINE
5
143
100
AcDbEntity
8
1
62
256
6
ByLayer
370
13
48
1
60
0
100
AcDbLine
10
0.1
20
31.25
30
0
11
0.1
21
5.567764
31
0
39
0
210
0
220
0
230
1
0
LINE
5
144
100
AcDbEntity
8
1
62
256
6
ByLayer
370
13
48
1
60
0
100
AcDbLine
10
257.259969
20
29.408437
30
0
11
257.259969
21
29.24548
31
0
39
0
210
0
220
0
230
1
0
LINE
5
145
100
AcDbEntity
8
1
62
256
6
ByLayer
370
13
48
1
60
0
100
AcDbLine
10
278.891469
20
0.628307
30
0
11
278.880612
21
0.629729
31
0
39
0
210
0
220
0
230
1
0
LINE
5
146
100
AcDbEntity
8
1
62
256
6
ByLayer
370
13
48
1
60
0
100
AcDbLine
10
39.8996
20
29.408437
30
0
11
39.8996
21
-10.587898
31
0
39
0
210
0
220
0
230
1
0
LINE
5
147
100
AcDbEntity
8
1
62
256
6
ByLayer
370
13
48
1
60
0
100
AcDbLine
10
10.1033
20
-4.641668
30
0
11
10.1033
21
4.641668
31
0
39
0
210
0
220
0
230
1
0
LINE
5
148
100
AcDbEntity
8
1
62
256
6
ByLayer
370
13
48
1
60
0
100
AcDbLine
10
0
20
-31.15
30
0
11
0
21
-4.975942
31
0
39
0
210
0
220
0
230
1
0
LINE
5
149
100
AcDbEntity
8
1
62
256
6
ByLayer
370
13
48
1
60
0
100
AcDbLine
10
278.891469
20
0.628307
30
0
11
278.899277
21
0.619477
31
0
39
0
210
0
220
0
230
1
0
LINE
5
14A
100
AcDbEntity
8
1
62
256
6
ByLayer
370
13
48
1
60
0
100
AcDbLine
10
5.0033
20
-5.567764
30
0
11
5.0033
21
-31.25
31
0
39
0
210
0
220
0
230
1
0
LINE
5
14B
100
AcDbEntity
8
1
62
256
6
ByLayer
370
13
48
1
60
0
100
AcDbLine
10
259.933021
20
28.01119
30
0
11
259.867026
21
29.270462
31
0
39
0
210
0
220
0
230
1
0
LINE
5
14C
100
AcDbEntity
8
1
62
256
6
ByLayer
370
13
48
1
60
0
100
AcDbLine
10
277.031411
20
10.137748
30
0
11
278.457128
21
10.212467
31
0
39
0
210
0
220
0
230
1
0
LINE
5
14D
100
AcDbEntity
8
4
62
256
6
ByLayer
370
18
48
0.05
60
0
100
AcDbLine
10
280.7208
20
0
30
0
11
0
21
0
31
0
39
0
210
0
220
0
230
1
0
LINE
5
14F
100
AcDbEntity
8
SK4
62
256
6
ByLayer
370
13
48
0.05
60
0
100
AcDbLine
10
280.7208
20
0
30
0
11
-70
21
0
31
0
39
0
210
0
220
0
230
1
0
LINE
5
151
100
AcDbEntity
8
SK1
62
256
6
ByLayer
370
13
48
1
60
0
100
AcDbLine
10
-68.516222
20
18.942544
30
0
11
-68.599999
21
19.046
31
0
39
0
210
0
220
0
230
1
0
LINE
5
152
100
AcDbEntity
8
SK1
62
256
6
ByLayer
370
13
48
1
60
0
100
AcDbLine
10
-68.599999
20
-19.046
30
0
11
-68.516222
21
-18.942544
31
0
39
0
210
0
220
0
230
1
0
LINE
5
153
100
AcDbEntity
8
SK1
62
256
6
ByLayer
370
13
48
1
60
0
100
AcDbLine
10
-70
20
-18.046
30
0
11
-69
21
-19.046
31
0
39
0
210
0
220
0
230
1
0
LINE
5
154
100
AcDbEntity
8
SK1
62
256
6
ByLayer
370
13
48
1
60
0
100
AcDbLine
10
-69
20
19.046
30
0
11
-70
21
18.046
31
0
39
0
210
0
220
0
230
1
0
LINE
5
155
100
AcDbEntity
8
SK1
62
256
6
ByLayer
370
13
48
1
60
0
100
AcDbLine
10
-68.599999
20
19.046
30
0
11
-69
21
19.046
31
0
39
0
210
0
220
0
230
1
0
LINE
5
156
100
AcDbEntity
8
SK1
62
256
6
ByLayer
370
13
48
1
60
0
100
AcDbLine
10
-69
20
-19.046
30
0
11
-68.599999
21
-19.046
31
0
39
0
210
0
220
0
230
1
0
LINE
5
157
100
AcDbEntity
8
SK1
62
256
6
ByLayer
370
13
48
1
60
0
100
AcDbLine
10
-67.633813
20
-18.689667
30
0
11
-66.600002
21
-19.046
31
0
39
0
210
0
220
0
230
1
0
LINE
5
158
100
AcDbEntity
8
SK1
62
256
6
ByLayer
370
13
48
1
60
0
100
AcDbLine
10
-66.600002
20
19.046
30
0
11
-67.633813
21
18.689667
31
0
39
0
210
0
220
0
230
1
0
LINE
5
159
100
AcDbEntity
8
SK1
62
256
6
ByLayer
370
13
48
1
60
0
100
AcDbLine
10
-0.15
20
18.796
30
0
11
-1.375195
21
18.796
31
0
39
0
210
0
220
0
230
1
0
LINE
5
15A
100
AcDbEntity
8
SK1
62
256
6
ByLayer
370
13
48
1
60
0
100
AcDbLine
10
-1.375195
20
-18.796
30
0
11
-0.15
21
-18.796
31
0
39
0
210
0
220
0
230
1
0
LINE
5
15B
100
AcDbEntity
8
SK1
62
256
6
ByLayer
370
13
48
1
60
0
100
AcDbLine
10
-1.544243
20
18.833477
30
0
11
-2
21
19.046
31
0
39
0
210
0
220
0
230
1
0
LINE
5
15C
100
AcDbEntity
8
SK1
62
256
6
ByLayer
370
13
48
1
60
0
100
AcDbLine
10
-2
20
-19.046
30
0
11
-1.544243
21
-18.833477
31
0
39
0
210
0
220
0
230
1
0
LINE
5
15D
100
AcDbEntity
8
SK1
62
256
6
ByLayer
370
13
48
1
60
0
100
AcDbLine
10
-2
20
19.046
30
0
11
-66.600002
21
19.046
31
0
39
0
210
0
220
0
230
1
0
LINE
5
15E
100
AcDbEntity
8
SK1
62
256
6
ByLayer
370
13
48
1
60
0
100
AcDbLine
10
-66.600002
20
-19.046
30
0
11
-2
21
-19.046
31
0
39
0
210
0
220
0
230
1
0
LINE
5
15F
100
AcDbEntity
8
1
62
256
6
ByLayer
370
13
48
1
60
0
100
AcDbLine
10
279.078982
20
11.101517
30
0
11
279.61376
21
12.307867
31
0
39
0
210
0
220
0
230
1
0
LINE
5
160
100
AcDbEntity
8
1
62
256
6
ByLayer
370
13
48
1
60
0
100
AcDbLine
10
278.249974
20
20.429948
30
0
11
276.99362
21
28.386006
31
0
39
0
210
0
220
0
230
1
0
LINE
5
161
100
AcDbEntity
8
1
62
256
6
ByLayer
370
13
48
1
60
0
100
AcDbLine
10
277.185447
20
12.073113
30
0
11
278.252634
21
20.229326
31
0
39
0
210
0
220
0
230
1
0
LINE
5
162
100
AcDbEntity
8
1
62
256
6
ByLayer
370
18
48
1
60
0
100
AcDbLine
10
269.80764
20
18.43075
30
0
11
269.680572
21
18.424091
31
0
39
0
210
0
220
0
230
1
0
LINE
5
163
100
AcDbEntity
8
1
62
256
6
ByLayer
370
18
48
1
60
0
100
AcDbLine
10
269.545514
20
21.001154
30
0
11
269.672582
21
21.007814
31
0
39
0
210
0
220
0
230
1
0
LINE
5
164
100
AcDbEntity
8
1
62
256
6
ByLayer
370
18
48
1
60
0
100
AcDbLine
10
269.835034
20
16.870346
30
0
11
269.902775
21
16.873896
31
0
39
0
210
0
220
0
230
1
0
LINE
5
165
100
AcDbEntity
8
1
62
256
6
ByLayer
370
18
48
1
60
0
100
AcDbLine
10
269.60446
20
22.566084
30
0
11
269.536719
21
22.562534
31
0
39
0
210
0
220
0
230
1
0
LINE
5
166
100
AcDbEntity
8
1
62
256
6
ByLayer
370
13
48
1
60
0
100
AcDbLine
10
34.8996
20
-29.408438
30
0
11
39.8996
21
-29.408438
31
0
39
0
210
0
220
0
230
1
0
LINE
5
167
100
AcDbEntity
8
1
62
256
6
ByLayer
370
13
48
1
60
0
100
AcDbLine
10
259.590457
20
29.408437
30
0
11
257.259969
21
29.408437
31
0
39
0
210
0
220
0
230
1
0
LINE
5
168
100
AcDbEntity
8
1
62
256
6
ByLayer
370
13
48
1
60
0
100
AcDbLine
10
39.8996
20
-29.408438
30
0
11
133.22808
21
-29.106813
31
0
39
0
210
0
220
0
230
1
0
LINE
5
169
100
AcDbEntity
8
1
62
256
6
ByLayer
370
13
48
1
60
0
100
AcDbLine
10
257.259969
20
29.408437
30
0
11
254.259969
21
29.106812
31
0
39
0
210
0
220
0
230
1
0
LINE
5
16A
100
AcDbEntity
8
1
62
256
6
ByLayer
370
13
48
1
60
0
100
AcDbLine
10
133.22808
20
-29.106813
30
0
11
144.845834
21
-29.106813
31
0
39
0
210
0
220
0
230
1
0
LINE
5
16B
100
AcDbEntity
8
1
62
256
6
ByLayer
370
13
48
1
60
0
100
AcDbLine
10
254.259969
20
29.106812
30
0
11
237.668694
21
29.106812
31
0
39
0
210
0
220
0
230
1
0
LINE
5
16C
100
AcDbEntity
8
1
62
256
6
ByLayer
370
13
48
1
60
0
100
AcDbLine
10
134.420323
20
29.106812
30
0
11
133.22808
21
29.106812
31
0
39
0
210
0
220
0
230
1
0
LINE
5
16D
100
AcDbEntity
8
1
62
256
6
ByLayer
370
13
48
1
60
0
100
AcDbLine
10
39.8996
20
29.408437
30
0
11
34.8996
21
29.408437
31
0
39
0
210
0
220
0
230
1
0
LINE
5
16E
100
AcDbEntity
8
1
62
256
6
ByLayer
370
13
48
1
60
0
100
AcDbLine
10
133.22808
20
29.106812
30
0
11
39.8996
21
29.408437
31
0
39
0
210
0
220
0
230
1
0
LINE
5
16F
100
AcDbEntity
8
1
62
256
6
ByLayer
370
13
48
1
60
0
100
AcDbLine
10
0
20
-31.15
30
0
11
0.1
21
-31.25
31
0
39
0
210
0
220
0
230
1
0
LINE
5
170
100
AcDbEntity
8
1
62
256
6
ByLayer
370
13
48
1
60
0
100
AcDbLine
10
0.1
20
31.25
30
0
11
0
21
31.15
31
0
39
0
210
0
220
0
230
1
0
LINE
5
171
100
AcDbEntity
8
1
62
256
6
ByLayer
370
13
48
1
60
0
100
AcDbLine
10
0.1
20
-31.25
30
0
11
5.0033
21
-31.25
31
0
39
0
210
0
220
0
230
1
0
LINE
5
172
100
AcDbEntity
8
1
62
256
6
ByLayer
370
13
48
1
60
0
100
AcDbLine
10
5.0033
20
31.25
30
0
11
0.1
21
31.25
31
0
39
0
210
0
220
0
230
1
0
LINE
5
173
100
AcDbEntity
8
81
62
256
6
ByLayer
370
18
48
1
60
0
100
AcDbLine
10
280.7208
20
0
30
0
11
287.7208
21
0
31
0
39
0
210
0
220
0
230
1
0
LINE
5
174
100
AcDbEntity
8
80
62
256
6
ByLayer
370
18
48
1
60
0
100
AcDbLine
10
0
20
0
30
0
11
-7
21
0
31
0
39
0
210
0
220
0
230
1
0
LINE
5
175
100
AcDbEntity
8
SK2
62
256
6
ByLayer
370
13
48
1
60
0
100
AcDbLine
10
-90.725
20
19.05
30
0
11
-90.725
21
-19.05
31
0
39
0
210
0
220
0
230
1
0
LINE
5
177
100
AcDbEntity
8
SK2
62
256
6
ByLayer
370
13
48
1
60
0
100
AcDbLine
10
-71.5875
20
-19.05
30
0
11
-93.9
21
-19.05
31
0
39
0
210
0
220
0
230
1
0
LINE
5
178
100
AcDbEntity
8
SK2
62
256
6
ByLayer
370
13
48
1
60
0
100
AcDbLine
10
-71.5875
20
19.05
30
0
11
-93.9
21
19.05
31
0
39
0
210
0
220
0
230
1
0
LINE
5
179
100
AcDbEntity
8
1
62
256
6
ByLayer
370
18
48
1
60
1
100
AcDbLine
10
-90.725
20
-19.05
30
0
11
-91.650575
21
-14.875003
31
0
39
0
210
0
220
0
230
1
0
LINE
5
17A
100
AcDbEntity
8
1
62
256
6
ByLayer
370
18
48
1
60
1
100
AcDbLine
10
-91.650575
20
-14.875003
30
0
11
-89.799425
21
-14.874997
31
0
39
0
210
0
220
0
230
1
0
LINE
5
17B
100
AcDbEntity
8
1
62
256
6
ByLayer
370
18
48
1
60
1
100
AcDbLine
10
-89.799425
20
-14.874997
30
0
11
-90.725
21
-19.05
31
0
39
0
210
0
220
0
230
1
0
LINE
5
17C
100
AcDbEntity
8
1
62
256
6
ByLayer
370
18
48
1
60
1
100
AcDbLine
10
-90.725
20
19.05
30
0
11
-89.799425
21
14.875003
31
0
39
0
210
0
220
0
230
1
0
LINE
5
17D
100
AcDbEntity
8
1
62
256
6
ByLayer
370
18
48
1
60
1
100
AcDbLine
10
-89.799425
20
14.875003
30
0
11
-91.650575
21
14.874997
31
0
39
0
210
0
220
0
230
1
0
LINE
5
17E
100
AcDbEntity
8
1
62
256
6
ByLayer
370
18
48
1
60
1
100
AcDbLine
10
-91.650575
20
14.874997
30
0
11
-90.725
21
19.05
31
0
39
0
210
0
220
0
230
1
0
LINE
5
17F
100
AcDbEntity
8
SK2
62
256
6
ByLayer
370
13
48
1
60
0
100
AcDbLine
10
-100.725
20
-31.25
30
0
11
-100.725
21
31.25
31
0
39
0
210
0
220
0
230
1
0
LINE
5
180
100
AcDbEntity
8
SK2
62
256
6
ByLayer
370
13
48
1
60
0
100
AcDbLine
10
-1.5875
20
31.25
30
0
11
-103.9
21
31.25
31
0
39
0
210
0
220
0
230
1
0
LINE
5
181
100
AcDbEntity
8
SK2
62
256
6
ByLayer
370
13
48
1
60
0
100
AcDbLine
10
-1.5875
20
-31.25
30
0
11
-103.9
21
-31.25
31
0
39
0
210
0
220
0
230
1
0
LINE
5
182
100
AcDbEntity
8
1
62
256
6
ByLayer
370
18
48
1
60
1
100
AcDbLine
10
-100.725
20
31.25
30
0
11
-99.799425
21
27.075003
31
0
39
0
210
0
220
0
230
1
0
LINE
5
183
100
AcDbEntity
8
1
62
256
6
ByLayer
370
18
48
1
60
1
100
AcDbLine
10
-99.799425
20
27.075003
30
0
11
-101.650575
21
27.074997
31
0
39
0
210
0
220
0
230
1
0
LINE
5
184
100
AcDbEntity
8
1
62
256
6
ByLayer
370
18
48
1
60
1
100
AcDbLine
10
-101.650575
20
27.074997
30
0
11
-100.725
21
31.25
31
0
39
0
210
0
220
0
230
1
0
LINE
5
185
100
AcDbEntity
8
1
62
256
6
ByLayer
370
18
48
1
60
1
100
AcDbLine
10
-100.725
20
-31.25
30
0
11
-101.650575
21
-27.075003
31
0
39
0
210
0
220
0
230
1
0
LINE
5
186
100
AcDbEntity
8
1
62
256
6
ByLayer
370
18
48
1
60
1
100
AcDbLine
10
-101.650575
20
-27.075003
30
0
11
-99.799425
21
-27.074997
31
0
39
0
210
0
220
0
230
1
0
LINE
5
187
100
AcDbEntity
8
1
62
256
6
ByLayer
370
18
48
1
60
1
100
AcDbLine
10
-99.799425
20
-27.074997
30
0
11
-100.725
21
-31.25
31
0
39
0
210
0
220
0
230
1
0
LINE
5
188
100
AcDbEntity
8
2
62
256
6
ByLayer
370
13
48
1
60
0
100
AcDbLine
10
307.6958
20
30.1625
30
0
11
307.6958
21
-30.1625
31
0
39
0
210
0
220
0
230
1
0
LINE
5
18A
100
AcDbEntity
8
2
62
256
6
ByLayer
370
13
48
1
60
0
100
AcDbLine
10
282.3083
20
-30.1625
30
0
11
310.8708
21
-30.1625
31
0
39
0
210
0
220
0
230
1
0
LINE
5
18B
100
AcDbEntity
8
2
62
256
6
ByLayer
370
13
48
1
60
0
100
AcDbLine
10
282.3083
20
30.1625
30
0
11
310.8708
21
30.1625
31
0
39
0
210
0
220
0
230
1
0
LINE
5
18C
100
AcDbEntity
8
1
62
256
6
ByLayer
370
18
48
1
60
1
100
AcDbLine
10
307.6958
20
-30.1625
30
0
11
306.770225
21
-25.987503
31
0
39
0
210
0
220
0
230
1
0
LINE
5
18D
100
AcDbEntity
8
1
62
256
6
ByLayer
370
18
48
1
60
1
100
AcDbLine
10
306.770225
20
-25.987503
30
0
11
308.621375
21
-25.987497
31
0
39
0
210
0
220
0
230
1
0
LINE
5
18E
100
AcDbEntity
8
1
62
256
6
ByLayer
370
18
48
1
60
1
100
AcDbLine
10
308.621375
20
-25.987497
30
0
11
307.6958
21
-30.1625
31
0
39
0
210
0
220
0
230
1
0
LINE
5
18F
100
AcDbEntity
8
1
62
256
6
ByLayer
370
18
48
1
60
1
100
AcDbLine
10
307.6958
20
30.1625
30
0
11
308.621375
21
25.987503
31
0
39
0
210
0
220
0
230
1
0
LINE
5
190
100
AcDbEntity
8
1
62
256
6
ByLayer
370
18
48
1
60
1
100
AcDbLine
10
308.621375
20
25.987503
30
0
11
306.770225
21
25.987497
31
0
39
0
210
0
220
0
230
1
0
LINE
5
191
100
AcDbEntity
8
1
62
256
6
ByLayer
370
18
48
1
60
1
100
AcDbLine
10
306.770225
20
25.987497
30
0
11
307.6958
21
30.1625
31
0
39
0
210
0
220
0
230
1
0
LINE
5
344
100
AcDbEntity
8
1
62
256
6
ByLayer
370
18
48
1
60
1
100
AcDbLine
10
-90.725
20
-19.05
30
0
11
-91.650575
21
-14.875003
31
0
39
0
210
0
220
0
230
1
0
LINE
5
345
100
AcDbEntity
8
1
62
256
6
ByLayer
370
18
48
1
60
1
100
AcDbLine
10
-91.650575
20
-14.875003
30
0
11
-89.799425
21
-14.874997
31
0
39
0
210
0
220
0
230
1
0
LINE
5
346
100
AcDbEntity
8
1
62
256
6
ByLayer
370
18
48
1
60
1
100
AcDbLine
10
-89.799425
20
-14.874997
30
0
11
-90.725
21
-19.05
31
0
39
0
210
0
220
0
230
1
0
LINE
5
348
100
AcDbEntity
8
1
62
256
6
ByLayer
370
18
48
1
60
1
100
AcDbLine
10
-90.725
20
19.05
30
0
11
-89.799425
21
14.875003
31
0
39
0
210
0
220
0
230
1
0
LINE
5
349
100
AcDbEntity
8
1
62
256
6
ByLayer
370
18
48
1
60
1
100
AcDbLine
10
-89.799425
20
14.875003
30
0
11
-91.650575
21
14.874997
31
0
39
0
210
0
220
0
230
1
0
LINE
5
34A
100
AcDbEntity
8
1
62
256
6
ByLayer
370
18
48
1
60
1
100
AcDbLine
10
-91.650575
20
14.874997
30
0
11
-90.725
21
19.05
31
0
39
0
210
0
220
0
230
1
0
LINE
5
34E
100
AcDbEntity
8
1
62
256
6
ByLayer
370
18
48
1
60
1
100
AcDbLine
10
-100.725
20
31.25
30
0
11
-99.799425
21
27.075003
31
0
39
0
210
0
220
0
230
1
0
LINE
5
34F
100
AcDbEntity
8
1
62
256
6
ByLayer
370
18
48
1
60
1
100
AcDbLine
10
-99.799425
20
27.075003
30
0
11
-101.650575
21
27.074997
31
0
39
0
210
0
220
0
230
1
0
LINE
5
350
100
AcDbEntity
8
1
62
256
6
ByLayer
370
18
48
1
60
1
100
AcDbLine
10
-101.650575
20
27.074997
30
0
11
-100.725
21
31.25
31
0
39
0
210
0
220
0
230
1
0
LINE
5
352
100
AcDbEntity
8
1
62
256
6
ByLayer
370
18
48
1
60
1
100
AcDbLine
10
-100.725
20
-31.25
30
0
11
-101.650575
21
-27.075003
31
0
39
0
210
0
220
0
230
1
0
LINE
5
353
100
AcDbEntity
8
1
62
256
6
ByLayer
370
18
48
1
60
1
100
AcDbLine
10
-101.650575
20
-27.075003
30
0
11
-99.799425
21
-27.074997
31
0
39
0
210
0
220
0
230
1
0
LINE
5
354
100
AcDbEntity
8
1
62
256
6
ByLayer
370
18
48
1
60
1
100
AcDbLine
10
-99.799425
20
-27.074997
30
0
11
-100.725
21
-31.25
31
0
39
0
210
0
220
0
230
1
0
LINE
5
358
100
AcDbEntity
8
1
62
256
6
ByLayer
370
18
48
1
60
1
100
AcDbLine
10
307.6958
20
-30.1625
30
0
11
306.770225
21
-25.987503
31
0
39
0
210
0
220
0
230
1
0
LINE
5
359
100
AcDbEntity
8
1
62
256
6
ByLayer
370
18
48
1
60
1
100
AcDbLine
10
306.770225
20
-25.987503
30
0
11
308.621375
21
-25.987497
31
0
39
0
210
0
220
0
230
1
0
LINE
5
35A
100
AcDbEntity
8
1
62
256
6
ByLayer
370
18
48
1
60
1
100
AcDbLine
10
308.621375
20
-25.987497
30
0
11
307.6958
21
-30.1625
31
0
39
0
210
0
220
0
230
1
0
LINE
5
35C
100
AcDbEntity
8
1
62
256
6
ByLayer
370
18
48
1
60
1
100
AcDbLine
10
307.6958
20
30.1625
30
0
11
308.621375
21
25.987503
31
0
39
0
210
0
220
0
230
1
0
LINE
5
35D
100
AcDbEntity
8
1
62
256
6
ByLayer
370
18
48
1
60
1
100
AcDbLine
10
308.621375
20
25.987503
30
0
11
306.770225
21
25.987497
31
0
39
0
210
0
220
0
230
1
0
LINE
5
35E
100
AcDbEntity
8
1
62
256
6
ByLayer
370
18
48
1
60
1
100
AcDbLine
10
306.770225
20
25.987497
30
0
11
307.6958
21
30.1625
31
0
39
0
210
0
220
0
230
1
0
MTEXT
5
340
100
AcDbEntity
8
SK2
62
256
6
ByLayer
370
18
48
1
60
0
100
AcDbMText
10
-92.736672
20
-8.979241
30
0
210
0
220
0
230
1
1
%%c
40
4.5
41
0
44
1.084337
50
90
71
7
72
5
7
iso_b_vert
0
MTEXT
5
343
100
AcDbEntity
8
SK2
62
256
6
ByLayer
370
18
48
1
60
0
100
AcDbMText
10
-92.736672
20
2.235603
30
0
210
0
220
0
230
1
1
\W0.7208;38.1
40
4.5
41
0
44
1.084337
50
90
71
7
72
5
7
iso_b_vert
0
MTEXT
5
34C
100
AcDbEntity
8
SK2
62
256
6
ByLayer
370
18
48
1
60
0
100
AcDbMText
10
-102.736672
20
-9.541655
30
0
210
0
220
0
230
1
1
%%c
40
4.5
41
0
44
1.084337
50
90
71
7
72
5
7
iso_b_vert
0
MTEXT
5
34D
100
AcDbEntity
8
SK2
62
256
6
ByLayer
370
18
48
1
60
0
100
AcDbMText
10
-102.736672
20
1.673189
30
0
210
0
220
0
230
1
1
\W0.7346;62.5
40
4.5
41
0
44
1.084337
50
90
71
7
72
5
7
iso_b_vert
0
MTEXT
5
356
100
AcDbEntity
8
2
62
256
6
ByLayer
370
18
48
1
60
0
100
AcDbMText
10
305.684128
20
-11.222683
30
0
210
0
220
0
230
1
1
%%c
40
4.5
41
0
44
1.084337
50
90
71
7
72
5
7
iso_b_vert
0
MTEXT
5
357
100
AcDbEntity
8
2
62
256
6
ByLayer
370
18
48
1
60
0
100
AcDbMText
10
305.684128
20
-0.007839
30
0
210
0
220
0
230
1
1
\W0.7468;60.32
40
4.5
41
0
44
1.084337
50
90
71
7
72
5
7
iso_b_vert
0
MTEXT
5
360
100
AcDbEntity
8
SK6
62
256
6
ByLayer
370
18
48
1
60
0
100
AcDbMText
10
9.308916
20
-94.592562
30
0
210
0
220
0
230
1
1
\W0.7851;DS20-D6033LX38-04
40
3.5
41
0
44
1.084337
50
0
71
7
72
5
7
iso_b_vert
0
HATCH
5
347
100
AcDbEntity
8
SK2
62
256
6
ByLayer
370
13
48
1
60
0
100
AcDbHatch
10
0
20
0
30
0
210
0
220
0
230
1
2
ANSI31
70
0
71
0
91
1
92
5
93
3
72
1
10
-90.7250000000001
20
-19.0499999999999
11
-91.650575216528
21
-14.8750033998275
72
1
10
-91.650575216528
20
-14.8750033998275
11
-89.7994247834721
21
-14.8749966001723
72
1
10
-89.7994247834721
20
-14.8749966001723
11
-90.7250000000001
21
-19.0499999999999
97
0
75
0
76
1
52
0
41
0.0062
77
0
78
1
53
45
43
0
44
0
45
-0.0139193969876572
46
0.0139193969876572
79
0
47
0
98
1
10
0
20
0
0
HATCH
5
34B
100
AcDbEntity
8
SK2
62
256
6
ByLayer
370
13
48
1
60
0
100
AcDbHatch
10
0
20
0
30
0
210
0
220
0
230
1
2
ANSI31
70
0
71
0
91
1
92
5
93
3
72
1
10
-90.7250000000001
20
19.0500000000001
11
-89.7994247834721
21
14.8750033998277
72
1
10
-89.7994247834721
20
14.8750033998277
11
-91.650575216528
21
14.8749966001725
72
1
10
-91.650575216528
20
14.8749966001725
11
-90.7250000000001
21
19.0500000000001
97
0
75
0
76
1
52
0
41
0.0062
77
0
78
1
53
45
43
0
44
0
45
-0.0139193969876572
46
0.0139193969876572
79
0
47
0
98
1
10
0
20
0
0
HATCH
5
351
100
AcDbEntity
8
SK2
62
256
6
ByLayer
370
13
48
1
60
0
100
AcDbHatch
10
0
20
0
30
0
210
0
220
0
230
1
2
ANSI31
70
0
71
0
91
1
92
5
93
3
72
1
10
-100.725
20
31.25
11
-99.7994247834721
21
27.0750033998276
72
1
10
-99.7994247834721
20
27.0750033998276
11
-101.650575216528
21
27.0749966001724
72
1
10
-101.650575216528
20
27.0749966001724
11
-100.725
21
31.25
97
0
75
0
76
1
52
0
41
0.0062
77
0
78
1
53
45
43
0
44
0
45
-0.0139193969876572
46
0.0139193969876572
79
0
47
0
98
1
10
0
20
0
0
HATCH
5
355
100
AcDbEntity
8
SK2
62
256
6
ByLayer
370
13
48
1
60
0
100
AcDbHatch
10
0
20
0
30
0
210
0
220
0
230
1
2
ANSI31
70
0
71
0
91
1
92
5
93
3
72
1
10
-100.725
20
-31.25
11
-101.650575216528
21
-27.0750033998276
72
1
10
-101.650575216528
20
-27.0750033998276
11
-99.7994247834721
21
-27.0749966001724
72
1
10
-99.7994247834721
20
-27.0749966001724
11
-100.725
21
-31.25
97
0
75
0
76
1
52
0
41
0.0062
77
0
78
1
53
45
43
0
44
0
45
-0.0139193969876572
46
0.0139193969876572
79
0
47
0
98
1
10
0
20
0
0
HATCH
5
35B
100
AcDbEntity
8
2
62
256
6
ByLayer
370
13
48
1
60
0
100
AcDbHatch
10
0
20
0
30
0
210
0
220
0
230
1
2
ANSI31
70
0
71
0
91
1
92
5
93
3
72
1
10
307.6958
20
-30.1625000000003
11
306.770224783472
21
-25.9875033998279
72
1
10
306.770224783472
20
-25.9875033998279
11
308.621375216528
21
-25.9874966001727
72
1
10
308.621375216528
20
-25.9874966001727
11
307.6958
21
-30.1625000000003
97
0
75
0
76
1
52
0
41
0.0062
77
0
78
1
53
45
43
0
44
0
45
-0.0139193969876572
46
0.0139193969876572
79
0
47
0
98
1
10
0
20
0
0
HATCH
5
35F
100
AcDbEntity
8
2
62
256
6
ByLayer
370
13
48
1
60
0
100
AcDbHatch
10
0
20
0
30
0
210
0
220
0
230
1
2
ANSI31
70
0
71
0
91
1
92
5
93
3
72
1
10
307.6958
20
30.1624999999997
11
308.621375216528
21
25.9875033998273
72
1
10
308.621375216528
20
25.9875033998273
11
306.770224783472
21
25.9874966001721
72
1
10
306.770224783472
20
25.9874966001721
11
307.6958
21
30.1624999999997
97
0
75
0
76
1
52
0
41
0.0062
77
0
78
1
53
45
43
0
44
0
45
-0.0139193969876572
46
0.0139193969876572
79
0
47
0
98
1
10
0
20
0
0
DIMENSION
5
363
100
AcDbEntity
8
2
62
256
6
ByLayer
370
18
48
1
60
0
100
AcDbDimension
2
_U0
10
280.7208
20
-80.1
30
0
11
140.3604
21
-80.1
31
0
70
32
71
1
72
1
41
1
210
0
220
0
230
1
3
Standard
100
AcDbAlignedDimension
13
0
23
-31.25
33
0
14
280.7208
24
-30.1625
34
0
50
0
100
AcDbRotatedDimension
1001
ACAD
1000
DSTYLE
1002
{
1070
   371
1070
    13
1070
   372
1070
    13
1070
   170
1070
     0
1070
   144
1040
1.0
1070
   277
1070
     2
1070
   284
1070
     8
1070
   278
1070
    46
1070
   146
1040
0.777778
1070
   345
1005
16
1070
   347
1005
16
1070
   346
1005
16
1070
   344
1005
0
1070
   343
1005
0
1070
   172
1070
     1
1070
    76
1070
     0
1070
    75
1070
     0
1070
   282
1070
     0
1070
   281
1070
     0
1070
    71
1070
     0
1070
    74
1070
     0
1070
   279
1070
     0
1070
   173
1070
     1
1070
   340
1005
341
1070
   271
1070
     1
1070
   272
1070
     2
1070
    77
1070
     1
1070
    73
1070
     1
1070
   171
1070
     3
1070
   274
1070
     4
1070
   177
1070
   150
1070
   176
1070
     9
1070
   178
1070
    43
1070
    78
1070
     8
1070
    48
1040
-0.1
1070
    41
1040
4.175
1070
   147
1040
2.25
1070
    42
1040
1.5875
1070
    44
1040
3.175
1070
   140
1040
4.5
1002
}
1001
ACAD_DSTYLE_DIM_LINETYPE
1070
   380
1005
16
1001
ACAD_DSTYLE_DIM_EXT1_LINETYPE
1070
   381
1005
16
1001
ACAD_DSTYLE_DIM_EXT2_LINETYPE
1070
   382
1005
16
0
DIMENSION
5
37C
100
AcDbEntity
8
SK2
62
256
6
ByLayer
370
18
48
1
60
0
100
AcDbDimension
2
_U1
10
0
20
-80.1
30
0
11
-35
21
-80.1
31
0
70
32
71
1
72
1
41
1
210
0
220
0
230
1
3
Standard
100
AcDbAlignedDimension
13
-70
23
-19.05
33
0
14
0
24
-31.25
34
0
50
0
100
AcDbRotatedDimension
1001
ACAD
1000
DSTYLE
1002
{
1070
   371
1070
    13
1070
   372
1070
    13
1070
   170
1070
     0
1070
   144
1040
1.0
1070
   277
1070
     2
1070
   284
1070
     8
1070
   278
1070
    46
1070
   146
1040
0.777778
1070
   345
1005
16
1070
   347
1005
16
1070
   346
1005
16
1070
   344
1005
0
1070
   343
1005
0
1070
   172
1070
     1
1070
    76
1070
     0
1070
    75
1070
     0
1070
   282
1070
     0
1070
   281
1070
     0
1070
    71
1070
     0
1070
    74
1070
     0
1070
   279
1070
     0
1070
   173
1070
     1
1070
   340
1005
341
1070
   271
1070
     1
1070
   272
1070
     2
1070
    77
1070
     1
1070
    73
1070
     1
1070
   171
1070
     3
1070
   274
1070
     4
1070
   177
1070
   150
1070
   176
1070
     9
1070
   178
1070
    43
1070
    78
1070
     8
1070
    48
1040
-0.1
1070
    41
1040
4.175
1070
   147
1040
2.25
1070
    42
1040
1.5875
1070
    44
1040
3.175
1070
   140
1040
4.5
1002
}
1001
ACAD_DSTYLE_DIM_LINETYPE
1070
   380
1005
16
1001
ACAD_DSTYLE_DIM_EXT1_LINETYPE
1070
   381
1005
16
1001
ACAD_DSTYLE_DIM_EXT2_LINETYPE
1070
   382
1005
16
0
DIMENSION
5
394
100
AcDbEntity
8
SK2
62
256
6
ByLayer
370
18
48
1
60
0
100
AcDbDimension
2
_U2
10
5.5033
20
-70.1
30
0
11
143.11205
21
-70.1
31
0
70
32
71
1
72
1
41
1
210
0
220
0
230
1
3
Standard
100
AcDbAlignedDimension
13
280.7208
23
-30.1625
33
0
14
5.5033
24
-31.25
34
0
50
0
100
AcDbRotatedDimension
1001
ACAD
1000
DSTYLE
1002
{
1070
   371
1070
    13
1070
   372
1070
    13
1070
   170
1070
     0
1070
   144
1040
1.0
1070
   277
1070
     2
1070
   284
1070
     8
1070
   278
1070
    46
1070
   146
1040
0.777778
1070
   345
1005
16
1070
   347
1005
16
1070
   346
1005
16
1070
   344
1005
0
1070
   343
1005
0
1070
   172
1070
     1
1070
    76
1070
     0
1070
    75
1070
     0
1070
   282
1070
     0
1070
   281
1070
     0
1070
    71
1070
     0
1070
    74
1070
     0
1070
   279
1070
     0
1070
   173
1070
     1
1070
   340
1005
341
1070
   271
1070
     1
1070
   272
1070
     2
1070
    77
1070
     1
1070
    73
1070
     1
1070
   171
1070
     3
1070
   274
1070
     4
1070
   177
1070
   150
1070
   176
1070
     9
1070
   178
1070
    43
1070
    78
1070
     8
1070
    48
1040
-0.1
1070
    41
1040
4.175
1070
   147
1040
2.25
1070
    42
1040
1.5875
1070
    44
1040
3.175
1070
   140
1040
4.5
1002
}
1001
ACAD_DSTYLE_DIM_LINETYPE
1070
   380
1005
16
1001
ACAD_DSTYLE_DIM_EXT1_LINETYPE
1070
   381
1005
16
1001
ACAD_DSTYLE_DIM_EXT2_LINETYPE
1070
   382
1005
16
0
DIMENSION
5
3AC
100
AcDbEntity
8
SK2
62
256
6
ByLayer
370
18
48
1
60
0
100
AcDbDimension
2
_U3
10
280.7208
20
-60.1
30
0
11
157.8102
21
-60.1
31
0
70
32
71
1
72
1
41
1
210
0
220
0
230
1
3
Standard
100
AcDbAlignedDimension
13
34.8996
23
-30.1625
33
0
14
280.7208
24
-30.1625
34
0
50
0
100
AcDbRotatedDimension
1001
ACAD
1000
DSTYLE
1002
{
1070
   371
1070
    13
1070
   372
1070
    13
1070
   170
1070
     0
1070
   144
1040
1.0
1070
   277
1070
     2
1070
   284
1070
     8
1070
   278
1070
    46
1070
   146
1040
0.777778
1070
   345
1005
16
1070
   347
1005
16
1070
   346
1005
16
1070
   344
1005
0
1070
   343
1005
0
1070
   172
1070
     1
1070
    76
1070
     0
1070
    75
1070
     0
1070
   282
1070
     0
1070
   281
1070
     0
1070
    71
1070
     0
1070
    74
1070
     0
1070
   279
1070
     0
1070
   173
1070
     1
1070
   340
1005
341
1070
   271
1070
     1
1070
   272
1070
     2
1070
    77
1070
     1
1070
    73
1070
     1
1070
   171
1070
     3
1070
   274
1070
     4
1070
   177
1070
   150
1070
   176
1070
     9
1070
   178
1070
    43
1070
    78
1070
     8
1070
    48
1040
-0.1
1070
    41
1040
4.175
1070
   147
1040
2.25
1070
    42
1040
1.5875
1070
    44
1040
3.175
1070
   140
1040
4.5
1002
}
1001
ACAD_DSTYLE_DIM_LINETYPE
1070
   380
1005
16
1001
ACAD_DSTYLE_DIM_EXT1_LINETYPE
1070
   381
1005
16
1001
ACAD_DSTYLE_DIM_EXT2_LINETYPE
1070
   382
1005
16
0
DIMENSION
5
3C4
100
AcDbEntity
8
2
62
256
6
ByLayer
370
18
48
1
60
0
100
AcDbDimension
2
_U4
10
280.7208
20
-50.1
30
0
11
302.643121
21
-50.1
31
0
70
32
71
1
72
1
41
1
210
0
220
0
230
1
3
Standard
100
AcDbAlignedDimension
13
279.1317
23
-15.08125
33
0
14
280.7208
24
0
34
0
50
0
100
AcDbRotatedDimension
1001
ACAD
1000
DSTYLE
1002
{
1070
   371
1070
    13
1070
   372
1070
    13
1070
   170
1070
     0
1070
   144
1040
1.0
1070
   277
1070
     2
1070
   284
1070
     8
1070
   278
1070
    46
1070
   146
1040
0.777778
1070
   345
1005
16
1070
   347
1005
16
1070
   346
1005
16
1070
   344
1005
0
1070
   343
1005
0
1070
   172
1070
     1
1070
    76
1070
     0
1070
    75
1070
     0
1070
   282
1070
     0
1070
   281
1070
     0
1070
    71
1070
     0
1070
    74
1070
     0
1070
   279
1070
     0
1070
   173
1070
     1
1070
   340
1005
341
1070
   271
1070
     2
1070
   272
1070
     2
1070
    77
1070
     1
1070
    73
1070
     1
1070
   171
1070
     3
1070
   274
1070
     4
1070
   177
1070
   150
1070
   176
1070
     9
1070
   178
1070
    43
1070
    78
1070
     8
1070
    48
1040
-0.1
1070
    41
1040
4.175
1070
   147
1040
2.25
1070
    42
1040
1.5875
1070
    44
1040
3.175
1070
   140
1040
4.5
1002
}
1001
ACAD_DSTYLE_DIM_LINETYPE
1070
   380
1005
16
1001
ACAD_DSTYLE_DIM_EXT1_LINETYPE
1070
   381
1005
16
1001
ACAD_DSTYLE_DIM_EXT2_LINETYPE
1070
   382
1005
16
0
ENDSEC
0
SECTION
2
OBJECTS
0
DICTIONARY
5
44e
330
0
100
AcDbDictionary
280
0
281
1
3
ACAD_GROUP
350
44f
3
ACAD_MLINESTYLE
350
450
0
DICTIONARY
5
44f
330
0
100
AcDbDictionary
280
0
281
1
0
DICTIONARY
5
450
330
0
100
AcDbDictionary
280
0
281
1
3
Standard
350
18
0
MLINESTYLE
5
18
330
450
100
AcDbMlineStyle
2
Standard
70
0
3

62
256
51
90
52
90
71
2
49
-0.5
62
256
6
ByLayer
49
0.5
62
256
6
ByLayer
0
RASTERVARIABLES
5
43c
330

100
AcDbRasterVariables
90
0
70
1
71
1
72
1
0
ENDSEC
0
EOF
