0
SECTION
2
HEADER
9
$ACADVER
1
AC1015
9
$DWGCODEPAGE
3
ANSI_1252
9
$HANDSEED
5
45e
9
$ANGBASE
50
0
9
$ANGDIR
70
0
9
$ATTMODE
70
1
9
$AUNITS
70
0
9
$AUPREC
70
0
9
$CECOLOR
62
256
9
$CELTSCALE
40
1
9
$CELTYPE
6
ByLayer
9
$CELWEIGHT
370
18
9
$CLAYER
8
0
9
$CMLJUST
70
0
9
$CMLSCALE
40
1
9
$CMLSTYLE
2
Standard
9
$DIMSTYLE
2
Standard
9
$TEXTSIZE
40
0.2
9
$TEXTSTYLE
7
Standard
9
$LUNITS
70
2
9
$LUPREC
70
4
9
$EXTNAMES
290
1
9
$INSUNITS
70
4
9
$LTSCALE
40
1
9
$LWDISPLAY
290
1
9
$PDMODE
70
0
9
$PDSIZE
40
0
9
$PLINEGEN
70
0
0
ENDSEC
0
SECTION
2
CLASSES
0
CLASS
1
RASTERVARIABLES
2
AcDbRasterVariables
3
ISM
90
0
280
0
281
0
0
ENDSEC
0
SECTION
2
TABLES
0
TABLE
2
VPORT
5
454
100
AcDbSymbolTable
0
VPORT
5
1
100
AcDbSymbolTableRecord
100
AcDbViewportTableRecord
2
*Active
70
0
10
0
20
0
11
1
21
1
12
-1
22
1
13
0
23
0
14
0.5
24
0.5
15
10
25
10
16
0
26
0
36
1
17
0
27
0
37
0
0
ENDTAB
0
TABLE
2
LTYPE
5
455
100
AcDbSymbolTable
0
LTYPE
5
14
100
AcDbSymbolTableRecord
100
AcDbLinetypeTableRecord
70
0
2
ByBlock
3

72
65
73
0
40
0
0
LTYPE
5
15
100
AcDbSymbolTableRecord
100
AcDbLinetypeTableRecord
70
0
2
ByLayer
3

72
65
73
0
40
0
0
LTYPE
5
16
100
AcDbSymbolTableRecord
100
AcDbLinetypeTableRecord
70
0
2
Continuous
3
Solid line
72
65
73
0
40
0
0
LTYPE
5
6E
100
AcDbSymbolTableRecord
100
AcDbLinetypeTableRecord
70
0
2
CENTER
3
____ _ ____ _ ____ _ ____
72
65
73
4
40
47.5
49
22
74
0
49
-8.5
74
0
49
8.5
74
0
49
-8.5
74
0
0
LTYPE
5
6F
100
AcDbSymbolTableRecord
100
AcDbLinetypeTableRecord
70
0
2
DASHED
3
__ __ __ __ __ __ __ __ __
72
65
73
2
40
25.72
49
12.86
74
0
49
-12.86
74
0
0
ENDTAB
0
TABLE
2
LAYER
5
456
100
AcDbSymbolTable
0
LAYER
5
10
100
AcDbSymbolTableRecord
100
AcDbLayerTableRecord
2
0
70
0
62
7
6
Continuous
290
1
370
-3
390
0
0
LAYER
5
71
100
AcDbSymbolTableRecord
100
AcDbLayerTableRecord
2
1
70
0
62
4
6
Continuous
290
1
370
-3
390
0
0
LAYER
5
73
100
AcDbSymbolTableRecord
100
AcDbLayerTableRecord
2
80
70
0
62
-6
6
Continuous
290
1
370
-3
390
0
0
LAYER
5
75
100
AcDbSymbolTableRecord
100
AcDbLayerTableRecord
2
81
70
0
62
-3
6
Continuous
290
1
370
-3
390
0
0
LAYER
5
14E
100
AcDbSymbolTableRecord
100
AcDbLayerTableRecord
2
4
70
0
62
-2
6
CENTER
290
1
370
-3
390
0
0
LAYER
5
189
100
AcDbSymbolTableRecord
100
AcDbLayerTableRecord
2
2
70
0
62
7
6
Continuous
290
1
370
-3
390
0
0
LAYER
5
369
100
AcDbSymbolTableRecord
100
AcDbLayerTableRecord
2
Defpoints
70
0
62
7
6
Continuous
290
0
370
-3
390
0
0
LAYER
5
440
100
AcDbSymbolTableRecord
100
AcDbLayerTableRecord
2
SK1
70
0
62
4
6
Continuous
290
1
370
-3
390
0
0
LAYER
5
441
100
AcDbSymbolTableRecord
100
AcDbLayerTableRecord
2
SK4
70
0
62
2
6
CENTER
290
1
370
-3
390
0
0
LAYER
5
442
100
AcDbSymbolTableRecord
100
AcDbLayerTableRecord
2
SK2
70
0
62
7
6
Continuous
290
1
370
-3
390
0
0
LAYER
5
443
100
AcDbSymbolTableRecord
100
AcDbLayerTableRecord
2
SK6
70
0
62
5
6
Continuous
290
1
370
-3
390
0
0
ENDTAB
0
TABLE
2
STYLE
5
457
100
AcDbSymbolTable
0
STYLE
5
11
100
AcDbSymbolTableRecord
100
AcDbTextStyleTableRecord
2
Standard
3
txt
70
0
71
0
40
0
41
1
42
0
50
0
0
STYLE
5
344
100
AcDbSymbolTableRecord
100
AcDbTextStyleTableRecord
2
iso_b_vert
3
simplex.shx
70
0
71
0
40
0
41
1
42
0
50
0
0
STYLE
5
345
100
AcDbSymbolTableRecord
100
AcDbTextStyleTableRecord
2
DWGDirectTextStyle
3
simplex
70
0
71
0
40
0
41
1
42
0
50
0
0
ENDTAB
0
TABLE
2
DIMSTYLE
5
458
100
AcDbSymbolTable
100
AcDbDimStyleTable
0
DIMSTYLE
105
27
100
AcDbSymbolTableRecord
100
AcDbDimStyleTableRecord
2
Standard
70
0
3
<>
41
0.18
42
0.0625
44
0.18
140
0.18
147
0.09
73
0
74
0
77
1
271
2
275
0
278
52
280
0
340
11
0
ENDTAB
0
TABLE
2
VIEW
5
459
100
AcDbSymbolTable
0
ENDTAB
0
TABLE
2
UCS
5
45a
100
AcDbSymbolTable
0
ENDTAB
0
TABLE
2
APPID
5
45b
100
AcDbSymbolTable
0
APPID
5
12
100
AcDbSymbolTableRecord
100
AcDbRegAppTableRecord
2
ACAD
70
0
0
APPID
5
365
100
AcDbSymbolTableRecord
100
AcDbRegAppTableRecord
2
ACAD_DSTYLE_DIMBREAK
70
0
0
APPID
5
3FF
100
AcDbSymbolTableRecord
100
AcDbRegAppTableRecord
2
ACAD_DSTYLE_DIM_LINETYPE
70
0
0
APPID
5
400
100
AcDbSymbolTableRecord
100
AcDbRegAppTableRecord
2
ACAD_DSTYLE_DIM_EXT1_LINETYPE
70
0
0
APPID
5
401
100
AcDbSymbolTableRecord
100
AcDbRegAppTableRecord
2
ACAD_DSTYLE_DIM_EXT2_LINETYPE
70
0
0
APPID
5
43C
100
AcDbSymbolTableRecord
100
AcDbRegAppTableRecord
2
ACAD_MLEADERVER
70
0
0
ENDTAB
0
TABLE
2
BLOCK_RECORD
5
45c
100
AcDbSymbolTable
0
BLOCK_RECORD
5
1F
100
AcDbSymbolTableRecord
100
AcDbBlockTableRecord
2
*Model_Space
340
0
70
0
0
BLOCK_RECORD
5
1B
100
AcDbSymbolTableRecord
100
AcDbBlockTableRecord
2
*Paper_Space
340
0
70
0
0
BLOCK_RECORD
5
23
100
AcDbSymbolTableRecord
100
AcDbBlockTableRecord
2
*Paper_Space0
340
0
70
0
0
BLOCK_RECORD
5
36A
100
AcDbSymbolTableRecord
100
AcDbBlockTableRecord
2
*D1
340
0
70
0
0
BLOCK_RECORD
5
376
100
AcDbSymbolTableRecord
100
AcDbBlockTableRecord
2
_U0
340
0
70
0
0
BLOCK_RECORD
5
382
100
AcDbSymbolTableRecord
100
AcDbBlockTableRecord
2
*D3
340
0
70
0
0
BLOCK_RECORD
5
38E
100
AcDbSymbolTableRecord
100
AcDbBlockTableRecord
2
_U1
340
0
70
0
0
BLOCK_RECORD
5
39A
100
AcDbSymbolTableRecord
100
AcDbBlockTableRecord
2
*D5
340
0
70
0
0
BLOCK_RECORD
5
3A6
100
AcDbSymbolTableRecord
100
AcDbBlockTableRecord
2
_U2
340
0
70
0
0
BLOCK_RECORD
5
3B2
100
AcDbSymbolTableRecord
100
AcDbBlockTableRecord
2
*D7
340
0
70
0
0
BLOCK_RECORD
5
3BE
100
AcDbSymbolTableRecord
100
AcDbBlockTableRecord
2
_U3
340
0
70
0
0
BLOCK_RECORD
5
3CA
100
AcDbSymbolTableRecord
100
AcDbBlockTableRecord
2
*D9
340
0
70
0
0
BLOCK_RECORD
5
3D8
100
AcDbSymbolTableRecord
100
AcDbBlockTableRecord
2
_U4
340
0
70
0
0
ENDTAB
0
ENDSEC
0
SECTION
2
BLOCKS
0
BLOCK
5
20
100
AcDbEntity
8
0
100
AcDbBlockBegin
2
*Model_Space
70
0
10
0
20
0
30
0
3
*Model_Space
0
ENDBLK
5
21
100
AcDbEntity
8
0
100
AcDbBlockEnd
0
BLOCK
5
1C
100
AcDbEntity
8
0
100
AcDbBlockBegin
2
*Paper_Space
70
0
10
0
20
0
30
0
3
*Paper_Space
0
ENDBLK
5
1D
100
AcDbEntity
8
0
100
AcDbBlockEnd
0
BLOCK
5
24
100
AcDbEntity
8
0
100
AcDbBlockBegin
2
*Paper_Space0
70
0
10
0
20
0
30
0
3
*Paper_Space0
0
ENDBLK
5
25
100
AcDbEntity
8
0
100
AcDbBlockEnd
0
BLOCK
5
36B
100
AcDbEntity
8
0
100
AcDbBlockBegin
2
*D1
70
1
10
0
20
0
30
0
3
*D1
0
LINE
5
36D
100
AcDbEntity
8
0
62
256
6
ByLayer
370
-2
48
1
60
0
100
AcDbLine
10
0
20
-32.8375
30
0
11
0
21
-88.774686
31
0
39
0
210
0
220
0
230
1
0
LINE
5
36E
100
AcDbEntity
8
0
62
256
6
ByLayer
370
-2
48
1
60
0
100
AcDbLine
10
280
20
-31.5875
30
0
11
280
21
-88.774686
31
0
39
0
210
0
220
0
230
1
0
LINE
5
36F
100
AcDbEntity
8
0
62
256
6
ByLayer
370
-2
48
1
60
0
100
AcDbLine
10
4.175
20
-85.599686
30
0
11
275.825
21
-85.599686
31
0
39
0
210
0
220
0
230
1
0
SOLID
5
370
100
AcDbEntity
8
0
62
256
6
ByLayer
370
-1
48
1
60
0
100
AcDbTrace
10
4.175
20
-84.903853
30
0
11
4.175
21
-86.29552
31
0
12
0
22
-85.599686
32
0
13
0
23
-85.599686
33
0
39
0
210
0
220
0
230
1
0
SOLID
5
371
100
AcDbEntity
8
0
62
256
6
ByLayer
370
-1
48
1
60
0
100
AcDbTrace
10
275.825
20
-86.29552
30
0
11
275.825
21
-84.903853
31
0
12
280
22
-85.599686
32
0
13
280
23
-85.599686
33
0
39
0
210
0
220
0
230
1
0
MTEXT
5
372
100
AcDbEntity
8
0
62
256
6
ByLayer
370
18
48
1
60
0
100
AcDbMText
10
140
20
-76.205936
30
0
210
0
220
0
230
1
1
\A1;280
40
4.5
41
0
44
1
50
0
71
5
72
5
7
iso_b_vert
0
POINT
5
373
100
AcDbEntity
8
Defpoints
62
0
6
ByLayer
370
-1
48
1
60
0
100
AcDbPoint
10
0
20
-31.25
30
0
39
0
210
0
220
0
230
1
50
360
0
POINT
5
374
100
AcDbEntity
8
Defpoints
62
0
6
ByLayer
370
-1
48
1
60
0
100
AcDbPoint
10
280
20
-30
30
0
39
0
210
0
220
0
230
1
50
360
0
POINT
5
375
100
AcDbEntity
8
Defpoints
62
0
6
ByLayer
370
-1
48
1
60
0
100
AcDbPoint
10
280
20
-85.599686
30
0
39
0
210
0
220
0
230
1
50
360
0
ENDBLK
5
36C
100
AcDbEntity
8
0
100
AcDbBlockEnd
0
BLOCK
5
37D
100
AcDbEntity
8
0
100
AcDbBlockBegin
2
_U0
70
0
10
0
20
0
30
0
3
_U0
0
MTEXT
5
377
100
AcDbEntity
8
2
62
256
6
ByLayer
370
18
48
1
60
0
100
AcDbMText
10
135.869387
20
-84.272015
30
0
210
0
220
0
230
1
1
\W0.7138;280
40
4.5
41
0
44
1.084337
50
0
71
7
72
5
7
iso_b_vert
0
LINE
5
378
100
AcDbEntity
8
2
62
256
6
ByLayer
370
13
48
1
60
0
100
AcDbLine
10
0
20
-32.8375
30
0
11
0
21
-88.774686
31
0
39
0
210
0
220
0
230
1
0
LINE
5
379
100
AcDbEntity
8
2
62
256
6
ByLayer
370
13
48
1
60
0
100
AcDbLine
10
280
20
-31.5875
30
0
11
280
21
-88.774686
31
0
39
0
210
0
220
0
230
1
0
LINE
5
37A
100
AcDbEntity
8
2
62
256
6
ByLayer
370
13
48
1
60
0
100
AcDbLine
10
0
20
-85.599686
30
0
11
280
21
-85.599686
31
0
39
0
210
0
220
0
230
1
0
SOLID
5
37B
100
AcDbEntity
8
2
62
256
6
ByLayer
370
18
48
1
60
0
100
AcDbTrace
10
0
20
-85.599686
30
0
11
4.174997
21
-84.674111
31
0
12
4.175003
22
-86.525261
32
0
13
4.175003
23
-86.525261
33
0
39
0
210
0
220
0
230
1
0
SOLID
5
37C
100
AcDbEntity
8
2
62
256
6
ByLayer
370
18
48
1
60
0
100
AcDbTrace
10
280
20
-85.599686
30
0
11
275.825003
21
-86.525261
31
0
12
275.824997
22
-84.674111
32
0
13
275.824997
23
-84.674111
33
0
39
0
210
0
220
0
230
1
0
ENDBLK
5
37E
100
AcDbEntity
8
0
100
AcDbBlockEnd
0
BLOCK
5
383
100
AcDbEntity
8
0
100
AcDbBlockBegin
2
*D3
70
1
10
0
20
0
30
0
3
*D3
0
LINE
5
385
100
AcDbEntity
8
0
62
256
6
ByLayer
370
-2
48
1
60
0
100
AcDbLine
10
-80
20
-26.5875
30
0
11
-80
21
-88.774686
31
0
39
0
210
0
220
0
230
1
0
LINE
5
386
100
AcDbEntity
8
0
62
256
6
ByLayer
370
-2
48
1
60
0
100
AcDbLine
10
0
20
-32.8375
30
0
11
0
21
-88.774686
31
0
39
0
210
0
220
0
230
1
0
LINE
5
387
100
AcDbEntity
8
0
62
256
6
ByLayer
370
-2
48
1
60
0
100
AcDbLine
10
-75.825
20
-85.599686
30
0
11
-4.175
21
-85.599686
31
0
39
0
210
0
220
0
230
1
0
SOLID
5
388
100
AcDbEntity
8
0
62
256
6
ByLayer
370
-1
48
1
60
0
100
AcDbTrace
10
-75.825
20
-84.903853
30
0
11
-75.825
21
-86.29552
31
0
12
-80
22
-85.599686
32
0
13
-80
23
-85.599686
33
0
39
0
210
0
220
0
230
1
0
SOLID
5
389
100
AcDbEntity
8
0
62
256
6
ByLayer
370
-1
48
1
60
0
100
AcDbTrace
10
-4.175
20
-86.29552
30
0
11
-4.175
21
-84.903853
31
0
12
0
22
-85.599686
32
0
13
0
23
-85.599686
33
0
39
0
210
0
220
0
230
1
0
MTEXT
5
38A
100
AcDbEntity
8
0
62
256
6
ByLayer
370
18
48
1
60
0
100
AcDbMText
10
-40
20
-76.205936
30
0
210
0
220
0
230
1
1
\A1;80
40
4.5
41
0
44
1
50
0
71
5
72
5
7
iso_b_vert
0
POINT
5
38B
100
AcDbEntity
8
Defpoints
62
0
6
ByLayer
370
-1
48
1
60
0
100
AcDbPoint
10
-80
20
-25
30
0
39
0
210
0
220
0
230
1
50
360
0
POINT
5
38C
100
AcDbEntity
8
Defpoints
62
0
6
ByLayer
370
-1
48
1
60
0
100
AcDbPoint
10
0
20
-31.25
30
0
39
0
210
0
220
0
230
1
50
360
0
POINT
5
38D
100
AcDbEntity
8
Defpoints
62
0
6
ByLayer
370
-1
48
1
60
0
100
AcDbPoint
10
0
20
-85.599686
30
0
39
0
210
0
220
0
230
1
50
360
0
ENDBLK
5
384
100
AcDbEntity
8
0
100
AcDbBlockEnd
0
BLOCK
5
395
100
AcDbEntity
8
0
100
AcDbBlockBegin
2
_U1
70
0
10
0
20
0
30
0
3
_U1
0
MTEXT
5
38F
100
AcDbEntity
8
SK2
62
256
6
ByLayer
370
18
48
1
60
0
100
AcDbMText
10
-42.449242
20
-84.272015
30
0
210
0
220
0
230
1
1
\W0.6740;80
40
4.5
41
0
44
1.084337
50
0
71
7
72
5
7
iso_b_vert
0
LINE
5
390
100
AcDbEntity
8
SK2
62
256
6
ByLayer
370
13
48
1
60
0
100
AcDbLine
10
-80
20
-26.5875
30
0
11
-80
21
-88.774686
31
0
39
0
210
0
220
0
230
1
0
LINE
5
391
100
AcDbEntity
8
SK2
62
256
6
ByLayer
370
13
48
1
60
0
100
AcDbLine
10
0
20
-32.8375
30
0
11
0
21
-88.774686
31
0
39
0
210
0
220
0
230
1
0
LINE
5
392
100
AcDbEntity
8
SK2
62
256
6
ByLayer
370
13
48
1
60
0
100
AcDbLine
10
-80
20
-85.599686
30
0
11
0
21
-85.599686
31
0
39
0
210
0
220
0
230
1
0
SOLID
5
393
100
AcDbEntity
8
SK2
62
256
6
ByLayer
370
18
48
1
60
0
100
AcDbTrace
10
-80
20
-85.599686
30
0
11
-75.825003
21
-84.674111
31
0
12
-75.824997
22
-86.525261
32
0
13
-75.824997
23
-86.525261
33
0
39
0
210
0
220
0
230
1
0
SOLID
5
394
100
AcDbEntity
8
SK2
62
256
6
ByLayer
370
18
48
1
60
0
100
AcDbTrace
10
0
20
-85.599686
30
0
11
-4.174997
21
-86.525261
31
0
12
-4.175003
22
-84.674111
32
0
13
-4.175003
23
-84.674111
33
0
39
0
210
0
220
0
230
1
0
ENDBLK
5
396
100
AcDbEntity
8
0
100
AcDbBlockEnd
0
BLOCK
5
39B
100
AcDbEntity
8
0
100
AcDbBlockBegin
2
*D5
70
1
10
0
20
0
30
0
3
*D5
0
LINE
5
39D
100
AcDbEntity
8
0
62
256
6
ByLayer
370
-2
48
1
60
0
100
AcDbLine
10
280
20
-31.5875
30
0
11
280
21
-78.774686
31
0
39
0
210
0
220
0
230
1
0
LINE
5
39E
100
AcDbEntity
8
0
62
256
6
ByLayer
370
-2
48
1
60
0
100
AcDbLine
10
5.5783
20
-32.8375
30
0
11
5.5783
21
-78.774686
31
0
39
0
210
0
220
0
230
1
0
LINE
5
39F
100
AcDbEntity
8
0
62
256
6
ByLayer
370
-2
48
1
60
0
100
AcDbLine
10
275.825
20
-75.599686
30
0
11
9.7533
21
-75.599686
31
0
39
0
210
0
220
0
230
1
0
SOLID
5
3A0
100
AcDbEntity
8
0
62
256
6
ByLayer
370
-1
48
1
60
0
100
AcDbTrace
10
275.825
20
-76.29552
30
0
11
275.825
21
-74.903853
31
0
12
280
22
-75.599686
32
0
13
280
23
-75.599686
33
0
39
0
210
0
220
0
230
1
0
SOLID
5
3A1
100
AcDbEntity
8
0
62
256
6
ByLayer
370
-1
48
1
60
0
100
AcDbTrace
10
9.7533
20
-74.903853
30
0
11
9.7533
21
-76.29552
31
0
12
5.5783
22
-75.599686
32
0
13
5.5783
23
-75.599686
33
0
39
0
210
0
220
0
230
1
0
MTEXT
5
3A2
100
AcDbEntity
8
0
62
256
6
ByLayer
370
18
48
1
60
0
100
AcDbMText
10
142.78915
20
-66.205936
30
0
210
0
220
0
230
1
1
\A1;274.4
40
4.5
41
0
44
1
50
0
71
5
72
5
7
iso_b_vert
0
POINT
5
3A3
100
AcDbEntity
8
Defpoints
62
0
6
ByLayer
370
-1
48
1
60
0
100
AcDbPoint
10
280
20
-30
30
0
39
0
210
0
220
0
230
1
50
360
0
POINT
5
3A4
100
AcDbEntity
8
Defpoints
62
0
6
ByLayer
370
-1
48
1
60
0
100
AcDbPoint
10
5.5783
20
-31.25
30
0
39
0
210
0
220
0
230
1
50
360
0
POINT
5
3A5
100
AcDbEntity
8
Defpoints
62
0
6
ByLayer
370
-1
48
1
60
0
100
AcDbPoint
10
5.5783
20
-75.599686
30
0
39
0
210
0
220
0
230
1
50
360
0
ENDBLK
5
39C
100
AcDbEntity
8
0
100
AcDbBlockEnd
0
BLOCK
5
3AD
100
AcDbEntity
8
0
100
AcDbBlockBegin
2
_U2
70
0
10
0
20
0
30
0
3
_U2
0
MTEXT
5
3A7
100
AcDbEntity
8
SK2
62
256
6
ByLayer
370
18
48
1
60
0
100
AcDbMText
10
135.591766
20
-74.272015
30
0
210
0
220
0
230
1
1
\W0.7868;274.4
40
4.5
41
0
44
1.084337
50
0
71
7
72
5
7
iso_b_vert
0
LINE
5
3A8
100
AcDbEntity
8
SK2
62
256
6
ByLayer
370
13
48
1
60
0
100
AcDbLine
10
280
20
-31.5875
30
0
11
280
21
-78.774686
31
0
39
0
210
0
220
0
230
1
0
LINE
5
3A9
100
AcDbEntity
8
SK2
62
256
6
ByLayer
370
13
48
1
60
0
100
AcDbLine
10
5.5783
20
-32.8375
30
0
11
5.5783
21
-78.774686
31
0
39
0
210
0
220
0
230
1
0
LINE
5
3AA
100
AcDbEntity
8
SK2
62
256
6
ByLayer
370
13
48
1
60
0
100
AcDbLine
10
280
20
-75.599686
30
0
11
5.5783
21
-75.599686
31
0
39
0
210
0
220
0
230
1
0
SOLID
5
3AB
100
AcDbEntity
8
SK2
62
256
6
ByLayer
370
18
48
1
60
0
100
AcDbTrace
10
280
20
-75.599686
30
0
11
275.825003
21
-76.525261
31
0
12
275.824997
22
-74.674111
32
0
13
275.824997
23
-74.674111
33
0
39
0
210
0
220
0
230
1
0
SOLID
5
3AC
100
AcDbEntity
8
SK2
62
256
6
ByLayer
370
18
48
1
60
0
100
AcDbTrace
10
5.5783
20
-75.599686
30
0
11
9.753297
21
-74.674111
31
0
12
9.753303
22
-76.525261
32
0
13
9.753303
23
-76.525261
33
0
39
0
210
0
220
0
230
1
0
ENDBLK
5
3AE
100
AcDbEntity
8
0
100
AcDbBlockEnd
0
BLOCK
5
3B3
100
AcDbEntity
8
0
100
AcDbBlockBegin
2
*D7
70
1
10
0
20
0
30
0
3
*D7
0
LINE
5
3B5
100
AcDbEntity
8
0
62
256
6
ByLayer
370
-2
48
1
60
0
100
AcDbLine
10
35
20
-31.5875
30
0
11
35
21
-68.774686
31
0
39
0
210
0
220
0
230
1
0
LINE
5
3B6
100
AcDbEntity
8
0
62
256
6
ByLayer
370
-2
48
1
60
0
100
AcDbLine
10
280
20
-31.5875
30
0
11
280
21
-68.774686
31
0
39
0
210
0
220
0
230
1
0
LINE
5
3B7
100
AcDbEntity
8
0
62
256
6
ByLayer
370
-2
48
1
60
0
100
AcDbLine
10
39.175
20
-65.599686
30
0
11
275.825
21
-65.599686
31
0
39
0
210
0
220
0
230
1
0
SOLID
5
3B8
100
AcDbEntity
8
0
62
256
6
ByLayer
370
-1
48
1
60
0
100
AcDbTrace
10
39.175
20
-64.903853
30
0
11
39.175
21
-66.29552
31
0
12
35
22
-65.599686
32
0
13
35
23
-65.599686
33
0
39
0
210
0
220
0
230
1
0
SOLID
5
3B9
100
AcDbEntity
8
0
62
256
6
ByLayer
370
-1
48
1
60
0
100
AcDbTrace
10
275.825
20
-66.29552
30
0
11
275.825
21
-64.903853
31
0
12
280
22
-65.599686
32
0
13
280
23
-65.599686
33
0
39
0
210
0
220
0
230
1
0
MTEXT
5
3BA
100
AcDbEntity
8
0
62
256
6
ByLayer
370
18
48
1
60
0
100
AcDbMText
10
157.5
20
-56.205936
30
0
210
0
220
0
230
1
1
\A1;245
40
4.5
41
0
44
1
50
0
71
5
72
5
7
iso_b_vert
0
POINT
5
3BB
100
AcDbEntity
8
Defpoints
62
0
6
ByLayer
370
-1
48
1
60
0
100
AcDbPoint
10
35
20
-30
30
0
39
0
210
0
220
0
230
1
50
360
0
POINT
5
3BC
100
AcDbEntity
8
Defpoints
62
0
6
ByLayer
370
-1
48
1
60
0
100
AcDbPoint
10
280
20
-30
30
0
39
0
210
0
220
0
230
1
50
360
0
POINT
5
3BD
100
AcDbEntity
8
Defpoints
62
0
6
ByLayer
370
-1
48
1
60
0
100
AcDbPoint
10
280
20
-65.599686
30
0
39
0
210
0
220
0
230
1
50
360
0
ENDBLK
5
3B4
100
AcDbEntity
8
0
100
AcDbBlockEnd
0
BLOCK
5
3C5
100
AcDbEntity
8
0
100
AcDbBlockBegin
2
_U3
70
0
10
0
20
0
30
0
3
_U3
0
MTEXT
5
3BF
100
AcDbEntity
8
SK2
62
256
6
ByLayer
370
18
48
1
60
0
100
AcDbMText
10
153.132472
20
-64.272015
30
0
210
0
220
0
230
1
1
\W0.7541;245
40
4.5
41
0
44
1.084337
50
0
71
7
72
5
7
iso_b_vert
0
LINE
5
3C0
100
AcDbEntity
8
SK2
62
256
6
ByLayer
370
13
48
1
60
0
100
AcDbLine
10
35
20
-31.5875
30
0
11
35
21
-68.774686
31
0
39
0
210
0
220
0
230
1
0
LINE
5
3C1
100
AcDbEntity
8
SK2
62
256
6
ByLayer
370
13
48
1
60
0
100
AcDbLine
10
280
20
-31.5875
30
0
11
280
21
-68.774686
31
0
39
0
210
0
220
0
230
1
0
LINE
5
3C2
100
AcDbEntity
8
SK2
62
256
6
ByLayer
370
13
48
1
60
0
100
AcDbLine
10
35
20
-65.599686
30
0
11
280
21
-65.599686
31
0
39
0
210
0
220
0
230
1
0
SOLID
5
3C3
100
AcDbEntity
8
SK2
62
256
6
ByLayer
370
18
48
1
60
0
100
AcDbTrace
10
35
20
-65.599686
30
0
11
39.174997
21
-64.674111
31
0
12
39.175003
22
-66.525261
32
0
13
39.175003
23
-66.525261
33
0
39
0
210
0
220
0
230
1
0
SOLID
5
3C4
100
AcDbEntity
8
SK2
62
256
6
ByLayer
370
18
48
1
60
0
100
AcDbTrace
10
280
20
-65.599686
30
0
11
275.825003
21
-66.525261
31
0
12
275.824997
22
-64.674111
32
0
13
275.824997
23
-64.674111
33
0
39
0
210
0
220
0
230
1
0
ENDBLK
5
3C6
100
AcDbEntity
8
0
100
AcDbBlockEnd
0
BLOCK
5
3CB
100
AcDbEntity
8
0
100
AcDbBlockBegin
2
*D9
70
1
10
0
20
0
30
0
3
*D9
0
LINE
5
3CD
100
AcDbEntity
8
0
62
256
6
ByLayer
370
-2
48
1
60
0
100
AcDbLine
10
278.4109
20
-16.5875
30
0
11
278.4109
21
-58.774686
31
0
39
0
210
0
220
0
230
1
0
LINE
5
3CE
100
AcDbEntity
8
0
62
256
6
ByLayer
370
-2
48
1
60
0
100
AcDbLine
10
280
20
-1.5875
30
0
11
280
21
-58.774686
31
0
39
0
210
0
220
0
230
1
0
LINE
5
3CF
100
AcDbEntity
8
0
62
256
6
ByLayer
370
-2
48
1
60
0
100
AcDbLine
10
280
20
-55.599686
30
0
11
315.494643
21
-55.599686
31
0
39
0
210
0
220
0
230
1
0
LINE
5
3D0
100
AcDbEntity
8
0
62
256
6
ByLayer
370
-2
48
1
60
0
100
AcDbLine
10
274.2359
20
-55.599686
30
0
11
270.0609
21
-55.599686
31
0
39
0
210
0
220
0
230
1
0
LINE
5
3D1
100
AcDbEntity
8
0
62
256
6
ByLayer
370
-2
48
1
60
0
100
AcDbLine
10
284.175
20
-55.599686
30
0
11
288.35
21
-55.599686
31
0
39
0
210
0
220
0
230
1
0
SOLID
5
3D2
100
AcDbEntity
8
0
62
256
6
ByLayer
370
-1
48
1
60
0
100
AcDbTrace
10
274.2359
20
-56.29552
30
0
11
274.2359
21
-54.903853
31
0
12
278.4109
22
-55.599686
32
0
13
278.4109
23
-55.599686
33
0
39
0
210
0
220
0
230
1
0
SOLID
5
3D3
100
AcDbEntity
8
0
62
256
6
ByLayer
370
-1
48
1
60
0
100
AcDbTrace
10
284.175
20
-54.903853
30
0
11
284.175
21
-56.29552
31
0
12
280
22
-55.599686
32
0
13
280
23
-55.599686
33
0
39
0
210
0
220
0
230
1
0
MTEXT
5
3D4
100
AcDbEntity
8
0
62
256
6
ByLayer
370
18
48
1
60
0
100
AcDbMText
10
301.922321
20
-46.205936
30
0
210
0
220
0
230
1
1
\A1;1.59
40
4.5
41
0
44
1
50
0
71
5
72
5
7
iso_b_vert
0
POINT
5
3D5
100
AcDbEntity
8
Defpoints
62
0
6
ByLayer
370
-1
48
1
60
0
100
AcDbPoint
10
278.4109
20
-15
30
0
39
0
210
0
220
0
230
1
50
360
0
POINT
5
3D6
100
AcDbEntity
8
Defpoints
62
0
6
ByLayer
370
-1
48
1
60
0
100
AcDbPoint
10
280
20
0
30
0
39
0
210
0
220
0
230
1
50
360
0
POINT
5
3D7
100
AcDbEntity
8
Defpoints
62
0
6
ByLayer
370
-1
48
1
60
0
100
AcDbPoint
10
280
20
-55.599686
30
0
39
0
210
0
220
0
230
1
50
360
0
ENDBLK
5
3CC
100
AcDbEntity
8
0
100
AcDbBlockEnd
0
BLOCK
5
3DF
100
AcDbEntity
8
0
100
AcDbBlockBegin
2
_U4
70
0
10
0
20
0
30
0
3
_U4
0
MTEXT
5
3D9
100
AcDbEntity
8
2
62
256
6
ByLayer
370
18
48
1
60
0
100
AcDbMText
10
292.351
20
-54.272015
30
0
210
0
220
0
230
1
1
\W0.6662;1.59
40
4.5
41
0
44
1.084337
50
0
71
7
72
5
7
iso_b_vert
0
LINE
5
3DA
100
AcDbEntity
8
2
62
256
6
ByLayer
370
13
48
1
60
0
100
AcDbLine
10
278.4109
20
-16.5875
30
0
11
278.4109
21
-58.774686
31
0
39
0
210
0
220
0
230
1
0
LINE
5
3DB
100
AcDbEntity
8
2
62
256
6
ByLayer
370
13
48
1
60
0
100
AcDbLine
10
280
20
-1.5875
30
0
11
280
21
-58.774686
31
0
39
0
210
0
220
0
230
1
0
LINE
5
3DC
100
AcDbEntity
8
2
62
256
6
ByLayer
370
13
48
1
60
0
100
AcDbLine
10
301.549041
20
-55.599686
30
0
11
267.1609
21
-55.599686
31
0
39
0
210
0
220
0
230
1
0
SOLID
5
3DD
100
AcDbEntity
8
2
62
256
6
ByLayer
370
18
48
1
60
0
100
AcDbTrace
10
278.4109
20
-55.599686
30
0
11
274.235903
21
-56.525261
31
0
12
274.235897
22
-54.674111
32
0
13
274.235897
23
-54.674111
33
0
39
0
210
0
220
0
230
1
0
SOLID
5
3DE
100
AcDbEntity
8
2
62
256
6
ByLayer
370
18
48
1
60
0
100
AcDbTrace
10
280
20
-55.599686
30
0
11
284.174997
21
-54.674111
31
0
12
284.175003
22
-56.525261
32
0
13
284.175003
23
-56.525261
33
0
39
0
210
0
220
0
230
1
0
ENDBLK
5
3E0
100
AcDbEntity
8
0
100
AcDbBlockEnd
0
ENDSEC
0
SECTION
2
ENTITIES
0
ARC
5
192
100
AcDbEntity
8
SK1
62
256
6
ByLayer
370
13
48
1
60
0
100
AcDbCircle
39
0
10
-77.894505
20
-25.396
30
0
40
0.799999999999979
210
0
220
0
230
1
100
AcDbArc
50
70.982
51
141
0
ARC
5
193
100
AcDbEntity
8
SK1
62
256
6
ByLayer
370
13
48
1
60
0
100
AcDbCircle
39
0
10
-77.894505
20
25.396
30
0
40
0.799999999999979
210
0
220
0
230
1
100
AcDbArc
50
219
51
289.018
0
ARC
5
194
100
AcDbEntity
8
SK1
62
256
6
ByLayer
370
13
48
1
60
0
100
AcDbCircle
39
0
10
-0.15
20
25.146
30
0
40
0.399999999999999
210
0
220
0
230
1
100
AcDbArc
50
270
51
292.024313
0
ARC
5
195
100
AcDbEntity
8
SK1
62
256
6
ByLayer
370
13
48
1
60
0
100
AcDbCircle
39
0
10
-0.15
20
-25.146
30
0
40
0.399999999999999
210
0
220
0
230
1
100
AcDbArc
50
67.975687
51
90
0
ARC
5
196
100
AcDbEntity
8
SK1
62
256
6
ByLayer
370
13
48
1
60
0
100
AcDbCircle
39
0
10
-1.375195
20
25.146
30
0
40
0.400000000000004
210
0
220
0
230
1
100
AcDbArc
50
245
51
270
0
ARC
5
197
100
AcDbEntity
8
SK1
62
256
6
ByLayer
370
13
48
1
60
0
100
AcDbCircle
39
0
10
-1.375195
20
-25.146
30
0
40
0.400000000000004
210
0
220
0
230
1
100
AcDbArc
50
90
51
115
0
ARC
5
198
100
AcDbEntity
8
1
62
256
6
ByLayer
370
13
48
1
60
0
100
AcDbCircle
39
0
10
276.075268
20
28.192383
30
0
40
0.2
210
0
220
0
230
1
100
AcDbArc
50
8.973565
51
93
0
ARC
5
199
100
AcDbEntity
8
1
62
256
6
ByLayer
370
13
48
1
60
0
100
AcDbCircle
39
0
10
276.266338
20
11.936634
30
0
40
0.2
210
0
220
0
230
1
100
AcDbArc
50
273
51
352.54557
0
ARC
5
19A
100
AcDbEntity
8
1
62
256
6
ByLayer
370
13
48
1
60
0
100
AcDbCircle
39
0
10
261.869
20
27.182146
30
0
40
0.2
210
0
220
0
230
1
100
AcDbArc
50
79.98854
51
93
0
ARC
5
19B
100
AcDbEntity
8
1
62
256
6
ByLayer
370
13
48
1
60
0
100
AcDbCircle
39
0
10
262.060069
20
10.926396
30
0
40
0.2
210
0
220
0
230
1
100
AcDbArc
50
273
51
303.773583
0
ELLIPSE
5
19C
100
AcDbEntity
8
1
62
256
6
ByLayer
370
18
48
1
60
0
100
AcDbEllipse
10
269.04026
20
19.557953
30
0
11
0.087735997045646
21
-1.67410255206257
31
0
210
0
220
0
230
1
40
0.995562
41
1.5707963267949
42
2.61799387799153
0
ELLIPSE
5
19D
100
AcDbEntity
8
1
62
256
6
ByLayer
370
18
48
1
60
0
100
AcDbEllipse
10
268.892243
20
19.550196
30
0
11
0.0675290843402512
21
-1.28853168869383
31
0
210
0
220
0
230
1
40
0.995562
41
2.09439510239319
42
3.14159265358979
0
ELLIPSE
5
19E
100
AcDbEntity
8
1
62
256
6
ByLayer
370
18
48
1
60
0
100
AcDbEllipse
10
268.814613
20
21.031463
30
0
11
-0.391813266884798
21
-0.0205340632130082
31
0
210
0
220
0
230
1
40
0.491907
41
0.288932900933201
42
1.5707963267949
0
ELLIPSE
5
19F
100
AcDbEntity
8
1
62
256
6
ByLayer
370
18
48
1
60
0
100
AcDbEllipse
10
269.04026
20
19.557953
30
0
11
0.087735997045646
21
-1.67410255206257
31
0
210
0
220
0
230
1
40
0.995562
41
-0.523598775598303
42
0.52359877559826
0
ELLIPSE
5
1A0
100
AcDbEntity
8
1
62
256
6
ByLayer
370
18
48
1
60
0
100
AcDbEllipse
10
269.04026
20
19.557953
30
0
11
0.087735997045646
21
-1.67410255206257
31
0
210
0
220
0
230
1
40
0.995562
41
0.52359877559826
42
1.5707963267949
0
ELLIPSE
5
1A1
100
AcDbEntity
8
1
62
256
6
ByLayer
370
18
48
1
60
0
100
AcDbEllipse
10
269.032817
20
19.557563
30
0
11
-0.149157475292373
21
2.84609417405054
31
0
210
0
220
0
230
1
40
0.995562
41
0
42
6.28318530717959
0
ELLIPSE
5
1A2
100
AcDbEntity
8
1
62
256
6
ByLayer
370
18
48
1
60
0
100
AcDbEllipse
10
270.20818
20
18.876493
30
0
11
-0.177620434615981
21
-0.351315571659273
31
0
210
0
220
0
230
1
40
0.48863
41
-2.85513231723821
42
-1.57326889137035
0
ELLIPSE
5
1A3
100
AcDbEntity
8
1
62
256
6
ByLayer
370
18
48
1
60
0
100
AcDbEllipse
10
270.20818
20
18.876493
30
0
11
-0.177620434612607
21
-0.351315571660621
31
0
210
0
220
0
230
1
40
0.48863
41
-1.57326889139071
42
-0.29140546552127
0
ELLIPSE
5
1A4
100
AcDbEntity
8
1
62
256
6
ByLayer
370
18
48
1
60
0
100
AcDbEllipse
10
268.222081
20
18.228649
30
0
11
-0.349414799997419
21
0.179424606472467
31
0
210
0
220
0
230
1
40
0.490808
41
2.51659138569071
42
-2.94320654539745
0
ELLIPSE
5
1A5
100
AcDbEntity
8
1
62
256
6
ByLayer
370
18
48
1
60
0
100
AcDbEllipse
10
268.965077
20
19.554013
30
0
11
-0.149157475292373
21
2.84609417405054
31
0
210
0
220
0
230
1
40
0.995562
41
0
42
3.1414943057158
0
ELLIPSE
5
1A6
100
AcDbEntity
8
1
62
256
6
ByLayer
370
18
48
1
60
0
100
AcDbEllipse
10
270.367036
20
19.627487
30
0
11
-0.0206256003553404
21
0.393559899646792
31
0
210
0
220
0
230
1
40
0.48755
41
-2.94566518558229
42
-0.320418374792246
0
ELLIPSE
5
1A7
100
AcDbEntity
8
1
62
256
6
ByLayer
370
18
48
1
60
0
100
AcDbEllipse
10
268.892243
20
19.550196
30
0
11
0.0675290843402512
21
-1.28853168869383
31
0
210
0
220
0
230
1
40
0.995562
41
-0.771408608870169
42
-4.42508056449383E-14
0
ELLIPSE
5
1A8
100
AcDbEntity
8
1
62
256
6
ByLayer
370
18
48
1
60
0
100
AcDbEllipse
10
269.04026
20
19.557953
30
0
11
0.087735997045646
21
-1.67410255206257
31
0
210
0
220
0
230
1
40
0.995562
41
-2.61799387799149
42
-1.5707963267949
0
ELLIPSE
5
1A9
100
AcDbEntity
8
1
62
256
6
ByLayer
370
18
48
1
60
0
100
AcDbEllipse
10
270.13055
20
20.357761
30
0
11
-0.213369888118595
21
0.330824637132845
31
0
210
0
220
0
230
1
40
0.48863
41
1.57326889139557
42
2.85513231724393
0
ELLIPSE
5
1AA
100
AcDbEntity
8
1
62
256
6
ByLayer
370
18
48
1
60
0
100
AcDbEllipse
10
269.04026
20
19.557953
30
0
11
0.087735997045646
21
-1.67410255206257
31
0
210
0
220
0
230
1
40
0.995562
41
2.61799387799153
42
-2.61799387799149
0
ELLIPSE
5
1AB
100
AcDbEntity
8
1
62
256
6
ByLayer
370
18
48
1
60
0
100
AcDbEllipse
10
270.13055
20
20.357761
30
0
11
-0.213369888129894
21
0.330824637133818
31
0
210
0
220
0
230
1
40
0.48863
41
0.291405465515123
42
1.57326889134441
0
ELLIPSE
5
1AC
100
AcDbEntity
8
1
62
256
6
ByLayer
370
18
48
1
60
0
100
AcDbEllipse
10
268.087613
20
20.794452
30
0
11
-0.328745690776224
21
-0.214965491791399
31
0
210
0
220
0
230
1
40
0.490808
41
2.94320654539732
42
-2.46828145615011
0
ELLIPSE
5
1AD
100
AcDbEntity
8
1
62
256
6
ByLayer
370
18
48
1
60
0
100
AcDbEllipse
10
268.892243
20
19.550196
30
0
11
0.0675290843402512
21
-1.28853168869383
31
0
210
0
220
0
230
1
40
0.995562
41
3.14159265358979
42
-2.35315137984987
0
ELLIPSE
5
1AE
100
AcDbEntity
8
1
62
256
6
ByLayer
370
18
48
1
60
0
100
AcDbEllipse
10
269.04026
20
19.557953
30
0
11
-0.0942047212372888
21
1.79753316255823
31
0
210
0
220
0
230
1
40
0.995562
41
0
42
6.28318530717959
0
ELLIPSE
5
1AF
100
AcDbEntity
8
1
62
256
6
ByLayer
370
18
48
1
60
0
100
AcDbEllipse
10
268.969873
20
18.068929
30
0
11
-0.391813266877491
21
-0.0205340632127102
31
0
210
0
220
0
230
1
40
0.491907
41
-1.5707963267949
42
-0.288932900936127
0
ELLIPSE
5
1B0
100
AcDbEntity
8
1
62
256
6
ByLayer
370
18
48
1
60
0
100
AcDbEllipse
10
269.562405
20
20.871743
30
0
11
-0.349414799997418
21
0.179424606472495
31
0
210
0
220
0
230
1
40
0.490808
41
2.94818767871661
42
-0.625002372328984
0
ELLIPSE
5
1B1
100
AcDbEntity
8
1
62
256
6
ByLayer
370
18
48
1
60
0
100
AcDbEllipse
10
268.892243
20
19.550196
30
0
11
0.0675290843402512
21
-1.28853168869383
31
0
210
0
220
0
230
1
40
0.995562
41
1.0471975511966
42
2.0943951023932
0
ELLIPSE
5
1B2
100
AcDbEntity
8
1
62
256
6
ByLayer
370
18
48
1
60
0
100
AcDbEllipse
10
269.696873
20
18.30594
30
0
11
-0.328745690776199
21
-0.214965491791421
31
0
210
0
220
0
230
1
40
0.490808
41
0.673312264881253
42
-2.94818767871613
0
ELLIPSE
5
1B3
100
AcDbEntity
8
1
62
256
6
ByLayer
370
18
48
1
60
0
100
AcDbEllipse
10
268.892243
20
19.550196
30
0
11
-0.0675290843402629
21
1.28853168869383
31
0
210
0
220
0
230
1
40
0.995562
41
-3.03775684415654
42
-2.0943951023932
0
ELLIPSE
5
1B4
100
AcDbEntity
8
1
62
256
6
ByLayer
370
18
48
1
60
0
100
AcDbEllipse
10
268.892243
20
19.550196
30
0
11
0.0675290843402512
21
-1.28853168869383
31
0
210
0
220
0
230
1
40
0.995562
41
-1.89285840703661
42
-1.23277995487282
0
ELLIPSE
5
1B5
100
AcDbEntity
8
1
62
256
6
ByLayer
370
18
48
1
60
0
100
AcDbEllipse
10
269.04026
20
19.557953
30
0
11
0.087735997045646
21
-1.67410255206257
31
0
210
0
220
0
230
1
40
0.995562
41
-1.5707963267949
42
-0.523598775598303
0
ELLIPSE
5
1B6
100
AcDbEntity
8
1
62
256
6
ByLayer
370
18
48
1
60
0
100
AcDbEllipse
10
269.0001
20
-8.079489
30
0
11
-1.5
21
1.51595858262354E-15
31
0
210
0
220
0
230
1
40
0.99438
41
-2.76882283485483
42
-0.152367045679276
0
ELLIPSE
5
1B7
100
AcDbEntity
8
1
62
256
6
ByLayer
370
18
48
1
60
0
100
AcDbEllipse
10
269.0001
20
-8.132425
30
0
11
2
21
0
31
0
210
0
220
0
230
1
40
0.99438
41
0.554196620186356
42
2.7947410577792
0
ELLIPSE
5
1B8
100
AcDbEntity
8
1
62
256
6
ByLayer
370
13
48
1
60
0
100
AcDbEllipse
10
279.148842
20
20.187859
30
0
11
0.0366351693700522
21
-0.699040674328241
31
0
210
0
220
0
230
1
40
0.995562
41
1.38753675533532
42
1.67551608191463
0
ELLIPSE
5
1B9
100
AcDbEntity
8
1
62
256
6
ByLayer
370
13
48
1
60
0
100
AcDbEllipse
10
275.867557
20
9.65169
30
0
11
-0.104671912485876
21
1.99725906950915
31
0
210
0
220
0
230
1
40
0.995562
41
-0.289833749671665
42
1.22758151225878E-12
0
ELLIPSE
5
1BA
100
AcDbEntity
8
1
62
256
6
ByLayer
370
13
48
1
60
0
100
AcDbEllipse
10
277.313207
20
27.982692
30
0
11
0.0994383168615647
21
-1.89739611603369
31
0
210
0
220
0
230
1
40
0.995562
41
3.11701412729515
42
3.13286600733109
0
ELLIPSE
5
1BB
100
AcDbEntity
8
1
62
256
6
ByLayer
370
13
48
1
60
0
100
AcDbEllipse
10
278.661203
20
12.239838
30
0
11
-0.0248313114066806
21
0.147930409226178
31
0
210
0
220
0
230
1
40
0.093503
41
1.5600958809183
42
3.1308922077277
0
ELLIPSE
5
1BC
100
AcDbEntity
8
1
62
256
6
ByLayer
370
13
48
1
60
0
100
AcDbEllipse
10
261.518229
20
27.223144
30
0
11
-0.0420204304807883
21
-0.159048282694816
31
0
210
0
220
0
230
1
40
0.081731
41
-3.11535881189547
42
-1.54456248507661
0
ELLIPSE
5
1BD
100
AcDbEntity
8
1
62
256
6
ByLayer
370
13
48
1
60
0
100
AcDbEllipse
10
279.69174
20
20.115944
30
0
11
0.148732254109672
21
-0.0194606420103725
31
0
210
0
220
0
230
1
40
0.01715
41
-1.66347501627554
42
-0.092678689477413
0
ELLIPSE
5
1BE
100
AcDbEntity
8
1
62
256
6
ByLayer
370
13
48
1
60
0
100
AcDbEllipse
10
276.321831
20
28.54588
30
0
11
0.00523359562429399
21
-0.0998629534754786
31
0
210
0
220
0
230
1
40
0.995562
41
-2.42263142026055
42
-1.46607657167477
0
ELLIPSE
5
1BF
100
AcDbEntity
8
1
62
256
6
ByLayer
370
13
48
1
60
0
100
AcDbEllipse
10
276.075268
20
28.192383
30
0
11
-0.111182483439558
21
0.166248174053769
31
0
210
0
220
0
230
1
40
0.080951
41
-1.61896516661991
42
-0.0481688398255666
0
ELLIPSE
5
1C0
100
AcDbEntity
8
1
62
256
6
ByLayer
370
13
48
1
60
0
100
AcDbEllipse
10
261.869
20
27.182146
30
0
11
-0.0347690313672594
21
-0.196954599991426
31
0
210
0
220
0
230
1
40
0.091713
41
1.59198601757343
42
-3.12040296277995
0
ELLIPSE
5
1C1
100
AcDbEntity
8
1
62
256
6
ByLayer
370
13
48
1
60
0
100
AcDbEllipse
10
277.333525
20
20.092846
30
0
11
0.19830967214623
21
-0.0259475226804965
31
0
210
0
220
0
230
1
40
0.01715
41
0.000128612732869053
42
1.47811763731306
0
ELLIPSE
5
1C2
100
AcDbEntity
8
1
62
256
6
ByLayer
370
13
48
1
60
0
100
AcDbEllipse
10
260.893833
20
9.387511
30
0
11
0.0065370786798103
21
-0.149857487641873
31
0
210
0
220
0
230
1
40
0.094105
41
-1.56997142650778
42
0.000824900286336043
0
ELLIPSE
5
1C3
100
AcDbEntity
8
1
62
256
6
ByLayer
370
13
48
1
60
0
100
AcDbEllipse
10
261.151774
20
9.434999
30
0
11
0.0126644888425849
21
-0.241652842685641
31
0
210
0
220
0
230
1
40
0.995562
41
0.174532925198092
42
1.3212129007703
0
ELLIPSE
5
1C4
100
AcDbEntity
8
1
62
256
6
ByLayer
370
13
48
1
60
0
100
AcDbEllipse
10
278.26377
20
11.342993
30
0
11
-0.223427012922349
21
-1.09873083906298
31
0
210
0
220
0
230
1
40
0.060635
41
1.0653631868011
42
1.25922193604853
0
ELLIPSE
5
1C5
100
AcDbEntity
8
1
62
256
6
ByLayer
370
13
48
1
60
0
100
AcDbEllipse
10
260.803716
20
18.882454
30
0
11
-0.19755208230446
21
-0.0311957493446154
31
0
210
0
220
0
230
1
40
0.009837
41
0.0937345075334974
42
1.66453083432279
0
ELLIPSE
5
1C6
100
AcDbEntity
8
1
62
256
6
ByLayer
370
13
48
1
60
0
100
AcDbEllipse
10
263.335969
20
8.994937
30
0
11
-0.109905508110169
21
2.0971220229846
31
0
210
0
220
0
230
1
40
0.995562
41
0.718961233329207
42
1.32121290077154
0
ELLIPSE
5
1C7
100
AcDbEntity
8
1
62
256
6
ByLayer
370
13
48
1
60
0
100
AcDbEllipse
10
260.803334
20
11.135103
30
0
11
-0.0915879234251411
21
1.74760168582051
31
0
210
0
220
0
230
1
40
0.995562
41
3.1170141272939
42
3.13286600732976
0
ELLIPSE
5
1C8
100
AcDbEntity
8
1
62
256
6
ByLayer
370
13
48
1
60
0
100
AcDbEllipse
10
260.382273
20
9.386639
30
0
11
-0.0042200033972645
21
-0.149940626820509
31
0
210
0
220
0
230
1
40
0.093806
41
-1.56322900126248
42
-0.073694238897655
0
ELLIPSE
5
1C9
100
AcDbEntity
8
1
62
256
6
ByLayer
370
13
48
1
60
0
100
AcDbEllipse
10
276.821185
20
20.157238
30
0
11
0.0444855628064897
21
-0.848835104541391
31
0
210
0
220
0
230
1
40
0.995562
41
1.38753675533548
42
1.67551608191454
0
ELLIPSE
5
1CA
100
AcDbEntity
8
1
62
256
6
ByLayer
370
13
48
1
60
0
100
AcDbEllipse
10
260.608127
20
18.132362
30
0
11
-0.457939617125708
21
8.73800842910253
31
0
210
0
220
0
230
1
40
0.995562
41
3.0614514247661
42
3.11701412729372
0
ELLIPSE
5
1CB
100
AcDbEntity
8
1
62
256
6
ByLayer
370
13
48
1
60
0
100
AcDbEllipse
10
263.321872
20
8.994199
30
0
11
0.117755901546589
21
-2.24691645319778
31
0
210
0
220
0
230
1
40
0.995562
41
-2.41106345636219
42
-1.82037975281822
0
ELLIPSE
5
1CC
100
AcDbEntity
8
1
62
256
6
ByLayer
370
13
48
1
60
0
100
AcDbEllipse
10
276.55429
20
11.834937
30
0
11
0.00523359562429414
21
-0.0998629534754813
31
0
210
0
220
0
230
1
40
0.995562
41
-1.75405589825196
42
0.113446401381129
0
ELLIPSE
5
1CD
100
AcDbEntity
8
1
62
256
6
ByLayer
370
13
48
1
60
0
100
AcDbEllipse
10
262.060069
20
10.926396
30
0
11
0.0104671912485858
21
-0.199725906950915
31
0
210
0
220
0
230
1
40
0.995562
41
-1.46607657167646
42
-2.46857419577357E-05
0
ELLIPSE
5
1CE
100
AcDbEntity
8
1
62
256
6
ByLayer
370
13
48
1
60
0
100
AcDbEllipse
10
276.986691
20
29.681961
30
0
11
0.147123305935863
21
-0.0292358145175159
31
0
210
0
220
0
230
1
40
0.023245
41
3.05024863021436
42
-1.66214035016936
0
ELLIPSE
5
1CF
100
AcDbEntity
8
1
62
256
6
ByLayer
370
13
48
1
60
0
100
AcDbEllipse
10
278.269388
20
29.267782
30
0
11
0.148164061728344
21
0.0233968120084646
31
0
210
0
220
0
230
1
40
0.009837
41
0.0937345075346782
42
1.66453083432234
0
ELLIPSE
5
1D0
100
AcDbEntity
8
1
62
256
6
ByLayer
370
13
48
1
60
0
100
AcDbEllipse
10
260.801813
20
19.025933
30
0
11
-0.19830967214623
21
0.0259475226804934
31
0
210
0
220
0
230
1
40
0.01715
41
-1.66347501627588
42
-0.0926786894815821
0
ELLIPSE
5
1D1
100
AcDbEntity
8
1
62
256
6
ByLayer
370
13
48
1
60
0
100
AcDbEllipse
10
261.869
20
27.182146
30
0
11
0.19830967214623
21
-0.0259475226804965
31
0
210
0
220
0
230
1
40
0.01715
41
1.47811763731447
42
3.04891396411863
0
ELLIPSE
5
1D2
100
AcDbEntity
8
1
62
256
6
ByLayer
370
13
48
1
60
0
100
AcDbEllipse
10
279.153541
20
20.188105
30
0
11
0.0366351693700522
21
-0.699040674328241
31
0
210
0
220
0
230
1
40
0.995562
41
1.38753675533665
42
1.67551608191594
0
ELLIPSE
5
1D3
100
AcDbEntity
8
1
62
256
6
ByLayer
370
13
48
1
60
0
100
AcDbEllipse
10
276.607711
20
11.895143
30
0
11
-0.0420204304799465
21
-0.15904828269353
31
0
210
0
220
0
230
1
40
0.081731
41
-1.54456248513134
42
0.0262338416977245
0
ELLIPSE
5
1D4
100
AcDbEntity
8
1
62
256
6
ByLayer
370
13
48
1
60
0
100
AcDbEllipse
10
261.095132
20
9.44638
30
0
11
0.0104671912485857
21
-0.199725906950913
31
0
210
0
220
0
230
1
40
0.995562
41
-0.00872664625841292
42
1.32121290077077
0
ELLIPSE
5
1D5
100
AcDbEntity
8
1
62
256
6
ByLayer
370
13
48
1
60
0
100
AcDbEllipse
10
259.856552
20
9.850505
30
0
11
-0.148164061728345
21
-0.0233968120084615
31
0
210
0
220
0
230
1
40
0.009837
41
-1.47706181926832
42
-0.26760497811437
0
ELLIPSE
5
1D6
100
AcDbEntity
8
1
62
256
6
ByLayer
370
13
48
1
60
0
100
AcDbEllipse
10
262.060069
20
10.926396
30
0
11
0.111182483439543
21
-0.166248174053779
31
0
210
0
220
0
230
1
40
0.080951
41
-1.97154963544632E-05
42
1.52262748697016
0
ELLIPSE
5
1D7
100
AcDbEntity
8
1
62
256
6
ByLayer
370
13
48
1
60
0
100
AcDbEllipse
10
277.331622
20
20.236325
30
0
11
0.197552082304459
21
0.0311957493446195
31
0
210
0
220
0
230
1
40
0.009837
41
-1.4770618192687
42
8.34922043579505E-05
0
ELLIPSE
5
1D8
100
AcDbEntity
8
1
62
256
6
ByLayer
370
13
48
1
60
0
100
AcDbEllipse
10
261.276561
20
18.959571
30
0
11
0.0444855628064897
21
-0.848835104541391
31
0
210
0
220
0
230
1
40
0.995562
41
-1.75405589825431
42
-1.46607657167525
0
ELLIPSE
5
1D9
100
AcDbEntity
8
1
62
256
6
ByLayer
370
13
48
1
60
0
100
AcDbEllipse
10
277.259707
20
29.73176
30
0
11
-0.00415024464891743
21
0.149942573905326
31
0
210
0
220
0
230
1
40
0.09408
41
0.00232311668849371
42
1.57311944348265
0
ELLIPSE
5
1DA
100
AcDbEntity
8
1
62
256
6
ByLayer
370
13
48
1
60
0
100
AcDbEllipse
10
260.454869
20
18.827537
30
0
11
-0.148164061728345
21
-0.0233968120084615
31
0
210
0
220
0
230
1
40
0.009837
41
-3.04785814606477
42
-1.47706181926821
0
ELLIPSE
5
1DB
100
AcDbEntity
8
1
62
256
6
ByLayer
370
13
48
1
60
0
100
AcDbEllipse
10
269.006755
20
19.556197
30
0
11
0.16148876483002
21
-3.0813891952549
31
0
210
0
220
0
230
1
40
0.995562
41
-0.832617303636143
42
0
0
ELLIPSE
5
1DC
100
AcDbEntity
8
1
62
256
6
ByLayer
370
13
48
1
60
0
100
AcDbEllipse
10
269.006755
20
19.556197
30
0
11
0.16148876483002
21
-3.0813891952549
31
0
210
0
220
0
230
1
40
0.995562
41
0
42
-2.3089694914097
0
ELLIPSE
5
1DD
100
AcDbEntity
8
1
62
256
6
ByLayer
370
13
48
1
60
0
100
AcDbEllipse
10
278.665902
20
12.240084
30
0
11
0.00785039343643922
21
-0.149794430213184
31
0
210
0
220
0
230
1
40
0.995562
41
0.113446401376152
42
1.38753675533663
0
ELLIPSE
5
1DE
100
AcDbEntity
8
1
62
256
6
ByLayer
370
13
48
1
60
0
100
AcDbEllipse
10
258.963001
20
18.929689
30
0
11
-0.028784775933618
21
0.549246244115055
31
0
210
0
220
0
230
1
40
0.995562
41
1.38753675533528
42
1.67551608191467
0
ELLIPSE
5
1DF
100
AcDbEntity
8
1
62
256
6
ByLayer
370
13
48
1
60
0
100
AcDbEllipse
10
277.308508
20
27.982445
30
0
11
0.0994383168615647
21
-1.89739611603369
31
0
210
0
220
0
230
1
40
0.995562
41
3.11701412729389
42
3.1328660073298
0
ELLIPSE
5
1E0
100
AcDbEntity
8
1
62
256
6
ByLayer
370
13
48
1
60
0
100
AcDbEllipse
10
274.79467
20
30.123596
30
0
11
-0.104671912485876
21
1.99725906950915
31
0
210
0
220
0
230
1
40
0.995562
41
-3.14159265358857
42
-1.82037975281688
0
ELLIPSE
5
1E1
100
AcDbEntity
8
1
62
256
6
ByLayer
370
13
48
1
60
0
100
AcDbEllipse
10
260.383259
20
9.935678
30
0
11
-0.0287847759336168
21
0.549246244115033
31
0
210
0
220
0
230
1
40
0.995562
41
1.67551608191468
42
3.06145142476626
0
ELLIPSE
5
1E2
100
AcDbEntity
8
1
62
256
6
ByLayer
370
13
48
1
60
0
100
AcDbEllipse
10
258.436294
20
18.844516
30
0
11
-0.148164061728345
21
-0.0233968120084615
31
0
210
0
220
0
230
1
40
0.009837
41
-1.47706181926708
42
-0.267630172925502
0
ELLIPSE
5
1E3
100
AcDbEntity
8
1
62
256
6
ByLayer
370
13
48
1
60
0
100
AcDbEllipse
10
274.672296
20
30.117182
30
0
11
-1.74911089440227
21
-1.53532677657117
31
0
210
0
220
0
230
1
40
0.758703
41
1.05561565777839
42
2.0613369540272
0
ELLIPSE
5
1E4
100
AcDbEntity
8
1
62
256
6
ByLayer
370
13
48
1
60
0
100
AcDbEllipse
10
261.076336
20
9.445395
30
0
11
-0.0026167978121468
21
0.0499314767377269
31
0
210
0
220
0
230
1
40
0.995562
41
3.13286600733222
42
-1.82037975281815
0
ELLIPSE
5
1E5
100
AcDbEntity
8
1
62
256
6
ByLayer
370
13
48
1
60
0
100
AcDbEllipse
10
261.139249
20
9.436326
30
0
11
-0.147123305935862
21
0.029235814517518
31
0
210
0
220
0
230
1
40
0.023245
41
1.4794523034201
42
3.05024863021643
0
ELLIPSE
5
1E6
100
AcDbEntity
8
1
62
256
6
ByLayer
370
13
48
1
60
0
100
AcDbEllipse
10
261.813506
20
10.572899
30
0
11
0.00523359562429399
21
-0.0998629534754786
31
0
210
0
220
0
230
1
40
0.995562
41
0.718961233326777
42
1.67551608191274
0
ELLIPSE
5
1E7
100
AcDbEntity
8
1
62
256
6
ByLayer
370
13
48
1
60
0
100
AcDbEllipse
10
259.469436
20
26.878695
30
0
11
0.00785039343643922
21
-0.149794430213184
31
0
210
0
220
0
230
1
40
0.995562
41
-3.02814625221633
42
-1.75405589825586
0
ELLIPSE
5
1E8
100
AcDbEntity
8
1
62
256
6
ByLayer
370
13
48
1
60
0
100
AcDbEllipse
10
278.132933
20
11.04785
30
0
11
-0.0433887970974065
21
-0.261709352296609
31
0
210
0
220
0
230
1
40
0.938419
41
0.311574452469695
42
0.505433203582044
0
ELLIPSE
5
1E9
100
AcDbEntity
8
1
62
256
6
ByLayer
370
13
48
1
60
0
100
AcDbEllipse
10
277.508414
20
20.985433
30
0
11
0.465790010562067
21
-8.88780285931572
31
0
210
0
220
0
230
1
40
0.995562
41
3.06145142476742
42
3.11701412729506
0
ELLIPSE
5
1EA
100
AcDbEntity
8
1
62
256
6
ByLayer
370
13
48
1
60
0
100
AcDbEllipse
10
260.626923
20
18.133347
30
0
11
0.465790010562067
21
-8.88780285931572
31
0
210
0
220
0
230
1
40
0.995562
41
-0.0801412288249883
42
-0.0245785262973699
0
ELLIPSE
5
1EB
100
AcDbEntity
8
1
62
256
6
ByLayer
370
13
48
1
60
0
100
AcDbEllipse
10
277.294412
20
27.981706
30
0
11
-0.0915879234251411
21
1.74760168582051
31
0
210
0
220
0
230
1
40
0.995562
41
-0.0245785262958879
42
-0.00872664625997228
0
ELLIPSE
5
1EC
100
AcDbEntity
8
1
62
256
6
ByLayer
370
13
48
1
60
0
100
AcDbEllipse
10
275.350872
20
9.624612
30
0
11
-1.52607791221634
21
-1.67412290957126
31
0
210
0
220
0
230
1
40
0.751206
41
2.58237106087272
42
-2.78125477170272
0
ELLIPSE
5
1ED
100
AcDbEntity
8
1
62
256
6
ByLayer
370
13
48
1
60
0
100
AcDbEllipse
10
276.607711
20
11.895143
30
0
11
-0.157457627820849
21
-0.0472734989245647
31
0
210
0
220
0
230
1
40
0.020424
41
-1.48728150119208
42
0.0835148255429376
0
ELLIPSE
5
1EE
100
AcDbEntity
8
1
62
256
6
ByLayer
370
13
48
1
60
0
100
AcDbEllipse
10
277.232107
20
29.730776
30
0
11
-0.00653707867981058
21
0.149857487641873
31
0
210
0
220
0
230
1
40
0.094105
41
0.000824900290362992
42
1.57162122708202
0
ELLIPSE
5
1EF
100
AcDbEntity
8
1
62
256
6
ByLayer
370
13
48
1
60
0
100
AcDbEllipse
10
276.266338
20
11.936634
30
0
11
0.0104671912485858
21
-0.199725906950915
31
0
210
0
220
0
230
1
40
0.995562
41
-0.226119054301584
42
1.75822148697352E-05
0
ELLIPSE
5
1F0
100
AcDbEntity
8
1
62
256
6
ByLayer
370
13
48
1
60
0
100
AcDbEllipse
10
261.092616
20
9.396182
30
0
11
0.0065370786798103
21
-0.149857487641873
31
0
210
0
220
0
230
1
40
0.094105
41
-1.56997142650778
42
-0.0234595020682646
0
ELLIPSE
5
1F1
100
AcDbEntity
8
1
62
256
6
ByLayer
370
13
48
1
60
0
100
AcDbEllipse
10
259.467627
20
26.864578
30
0
11
-0.043388781836165
21
-0.2617093602387
31
0
210
0
220
0
230
1
40
0.938419
41
-2.83001826192492
42
-1.53436336029091
0
ELLIPSE
5
1F2
100
AcDbEntity
8
1
62
256
6
ByLayer
370
13
48
1
60
0
100
AcDbEllipse
10
278.661203
20
12.239838
30
0
11
0.148732254109672
21
-0.0194606420103725
31
0
210
0
220
0
230
1
40
0.01715
41
-1.66347501627931
42
-0.0926786894795107
0
ELLIPSE
5
1F3
100
AcDbEntity
8
1
62
256
6
ByLayer
370
13
48
1
60
0
100
AcDbEllipse
10
269.086465
20
19.560375
30
0
11
0.164592752017091
21
-3.14061679904836
31
0
210
0
220
0
230
1
40
0.995562
41
0
42
6.28318530717959
0
ELLIPSE
5
1F4
100
AcDbEntity
8
1
62
256
6
ByLayer
370
13
48
1
60
0
100
AcDbEllipse
10
261.581048
20
27.283842
30
0
11
0.00523359562429414
21
-0.0998629534754813
31
0
210
0
220
0
230
1
40
0.995562
41
1.38753675533494
42
-3.02814625221092
0
ELLIPSE
5
1F5
100
AcDbEntity
8
1
62
256
6
ByLayer
370
13
48
1
60
0
100
AcDbEllipse
10
277.02141
20
29.671414
30
0
11
-0.0026167978121468
21
0.0499314767377269
31
0
210
0
220
0
230
1
40
0.995562
41
-0.00872664625639429
42
1.32121290077164
0
ELLIPSE
5
1F6
100
AcDbEntity
8
1
62
256
6
ByLayer
370
13
48
1
60
0
100
AcDbEllipse
10
269.482693
20
11.640257
30
0
11
0.0104671912485858
21
-0.199725906950915
31
0
210
0
220
0
230
1
40
0.094108
41
0
42
1.5707963267949
0
ELLIPSE
5
1F7
100
AcDbEntity
8
1
62
256
6
ByLayer
370
13
48
1
60
0
100
AcDbEllipse
10
260.402055
20
9.936663
30
0
11
0.0366351693700511
21
-0.699040674328219
31
0
210
0
220
0
230
1
40
0.995562
41
-1.46607657167647
42
-0.0801412288252356
0
ELLIPSE
5
1F8
100
AcDbEntity
8
1
62
256
6
ByLayer
370
13
48
1
60
0
100
AcDbEllipse
10
259.464737
20
26.878449
30
0
11
0.0248313114066576
21
-0.147930409226182
31
0
210
0
220
0
230
1
40
0.093503
41
-3.04696247434451
42
-1.58149677264269
0
ELLIPSE
5
1F9
100
AcDbEntity
8
1
62
256
6
ByLayer
370
13
48
1
60
0
100
AcDbEllipse
10
277.674306
20
20.046836
30
0
11
0.148732254109672
21
-0.0194606420103725
31
0
210
0
220
0
230
1
40
0.01715
41
-2.85472889772879
42
-1.66347501627516
0
ELLIPSE
5
1FA
100
AcDbEntity
8
1
62
256
6
ByLayer
370
13
48
1
60
0
100
AcDbEllipse
10
277.728584
20
29.18187
30
0
11
0.0366351693700511
21
-0.699040674328219
31
0
210
0
220
0
230
1
40
0.995562
41
1.67551608191472
42
3.06145142476611
0
ELLIPSE
5
1FB
100
AcDbEntity
8
1
62
256
6
ByLayer
370
13
48
1
60
0
100
AcDbEllipse
10
276.983564
20
29.68378
30
0
11
0.0126644888425849
21
-0.241652842685641
31
0
210
0
220
0
230
1
40
0.995562
41
-2.96705972838906
42
-1.82037975281683
0
ELLIPSE
5
1FC
100
AcDbEntity
8
1
62
256
6
ByLayer
370
13
48
1
60
0
100
AcDbEllipse
10
279.689646
20
20.273771
30
0
11
0.148164061728344
21
0.0233968120084646
31
0
210
0
220
0
230
1
40
0.009837
41
0.0937345075177563
42
1.66453083432272
0
ELLIPSE
5
1FD
100
AcDbEntity
8
1
62
256
6
ByLayer
370
13
48
1
60
0
100
AcDbEllipse
10
277.033324
20
29.722105
30
0
11
-0.00653707867981058
21
0.149857487641873
31
0
210
0
220
0
230
1
40
0.094105
41
0.00082490029438994
42
1.57162122708202
0
ELLIPSE
5
1FE
100
AcDbEntity
8
1
62
256
6
ByLayer
370
13
48
1
60
0
100
AcDbEllipse
10
261.314152
20
18.961541
30
0
11
-0.0261679781214692
21
0.49931476737729
31
0
210
0
220
0
230
1
40
0.995562
41
1.38753675533548
42
1.67551608191459
0
ELLIPSE
5
1FF
100
AcDbEntity
8
1
62
256
6
ByLayer
370
13
48
1
60
0
100
AcDbEllipse
10
276.266338
20
11.936634
30
0
11
-0.19830967214623
21
0.0259475226804934
31
0
210
0
220
0
230
1
40
0.01715
41
-3.14146404085278
42
-1.66347501627678
0
ELLIPSE
5
200
100
AcDbEntity
8
1
62
256
6
ByLayer
370
13
48
1
60
0
100
AcDbEllipse
10
263.340668
20
8.995184
30
0
11
-0.109905508110169
21
2.0971220229846
31
0
210
0
220
0
230
1
40
0.995562
41
0.718961233327897
42
1.32121290077023
0
ELLIPSE
5
201
100
AcDbEntity
8
1
62
256
6
ByLayer
370
13
48
1
60
0
100
AcDbEllipse
10
278.661203
20
12.239838
30
0
11
0.00785039343643922
21
-0.149794430213184
31
0
210
0
220
0
230
1
40
0.995562
41
0.113446401375029
42
1.38753675533509
0
ELLIPSE
5
202
100
AcDbEntity
8
1
62
256
6
ByLayer
370
13
48
1
60
0
100
AcDbEllipse
10
277.733283
20
29.182116
30
0
11
0.0366351693700511
21
-0.699040674328219
31
0
210
0
220
0
230
1
40
0.995562
41
1.67551608191602
42
3.06145142476742
0
ELLIPSE
5
203
100
AcDbEntity
8
1
62
256
6
ByLayer
370
13
48
1
60
0
100
AcDbEllipse
10
261.518229
20
27.223144
30
0
11
-0.157457627785479
21
-0.0472734989136092
31
0
210
0
220
0
230
1
40
0.020424
41
-3.05807782806782
42
-1.48728150106671
0
ELLIPSE
5
204
100
AcDbEntity
8
1
62
256
6
ByLayer
370
13
48
1
60
0
100
AcDbEllipse
10
278.132933
20
11.04785
30
0
11
-0.0433887818542409
21
-0.26170936023265
31
0
210
0
220
0
230
1
40
0.938419
41
0.505433140728718
42
1.30197962216676
0
ELLIPSE
5
205
100
AcDbEntity
8
1
62
256
6
ByLayer
370
13
48
1
60
0
100
AcDbEllipse
10
258.981797
20
18.930674
30
0
11
0.0366351693700522
21
-0.699040674328241
31
0
210
0
220
0
230
1
40
0.995562
41
-1.75405589825579
42
-1.46607657167647
0
ELLIPSE
5
206
100
AcDbEntity
8
1
62
256
6
ByLayer
370
13
48
1
60
0
100
AcDbEllipse
10
274.985067
20
30.133542
30
0
11
-2.31059782678219
21
-1.76937523164036
31
0
210
0
220
0
230
1
40
0.473299
41
1.89961872250582
42
1.92527736399309
0
ELLIPSE
5
207
100
AcDbEntity
8
1
62
256
6
ByLayer
370
13
48
1
60
0
100
AcDbEllipse
10
276.266338
20
11.936634
30
0
11
0.0347690313672874
21
0.196954599991421
31
0
210
0
220
0
230
1
40
0.091713
41
-3.1204029628434
42
-1.54960663601579
0
ELLIPSE
5
208
100
AcDbEntity
8
1
62
256
6
ByLayer
370
13
48
1
60
0
100
AcDbEllipse
10
259.464737
20
26.878449
30
0
11
-0.148732254109673
21
0.01946064201037
31
0
210
0
220
0
230
1
40
0.01715
41
0.265915951162892
42
1.47811763731727
0
ELLIPSE
5
209
100
AcDbEntity
8
1
62
256
6
ByLayer
370
13
48
1
60
0
100
AcDbEllipse
10
261.751095
20
29.440011
30
0
11
-1.90001443048792
21
1.34408422198073
31
0
210
0
220
0
230
1
40
0.758703
41
1.08025569956862
42
2.08597699581059
0
ELLIPSE
5
20A
100
AcDbEntity
8
1
62
256
6
ByLayer
370
13
48
1
60
0
100
AcDbEllipse
10
261.295356
20
18.960556
30
0
11
0.0366351693700503
21
-0.699040674328205
31
0
210
0
220
0
230
1
40
0.995562
41
-1.75405589825431
42
-1.46607657167532
0
ELLIPSE
5
20B
100
AcDbEntity
8
1
62
256
6
ByLayer
370
13
48
1
60
0
100
AcDbEllipse
10
277.040205
20
29.672399
30
0
11
0.0104671912485857
21
-0.199725906950913
31
0
210
0
220
0
230
1
40
0.995562
41
3.13286600733366
42
-1.82037975281667
0
ELLIPSE
5
20C
100
AcDbEntity
8
1
62
256
6
ByLayer
370
13
48
1
60
0
100
AcDbEllipse
10
260.866233
20
9.386527
30
0
11
0.00415024464891671
21
-0.149942573905326
31
0
210
0
220
0
230
1
40
0.09408
41
-1.56847321010714
42
-0.0396676110919675
0
ELLIPSE
5
20D
100
AcDbEntity
8
1
62
256
6
ByLayer
370
13
48
1
60
0
100
AcDbEllipse
10
275.228498
20
9.618198
30
0
11
0.104671912485858
21
-1.99725906950915
31
0
210
0
220
0
230
1
40
0.995562
41
2.04155882048584
42
2.70662419932495
0
ELLIPSE
5
20E
100
AcDbEntity
8
1
62
256
6
ByLayer
370
13
48
1
60
0
100
AcDbEllipse
10
278.667711
20
12.254201
30
0
11
-0.0433887818434153
21
-0.261709360236421
31
0
210
0
220
0
230
1
40
0.938419
41
0.311574391691375
42
1.60722929332947
0
ELLIPSE
5
20F
100
AcDbEntity
8
1
62
256
6
ByLayer
370
13
48
1
60
0
100
AcDbEllipse
10
261.438324
20
29.423586
30
0
11
-2.48288693705351
21
1.51815844100893
31
0
210
0
220
0
230
1
40
0.473299
41
1.21631575197409
42
1.24197441865835
0
ELLIPSE
5
210
100
AcDbEntity
8
1
62
256
6
ByLayer
370
13
48
1
60
0
100
AcDbEllipse
10
276.764536
20
29.672301
30
0
11
-0.279576450837687
21
-0.214084669587772
31
0
210
0
220
0
230
1
40
0.473311
41
-2.36298044736714
42
-1.21630047177826
0
ELLIPSE
5
211
100
AcDbEntity
8
1
62
256
6
ByLayer
370
13
48
1
60
0
100
AcDbEllipse
10
261.576349
20
27.283596
30
0
11
0.00523359562429414
21
-0.0998629534754813
31
0
210
0
220
0
230
1
40
0.995562
41
1.3875367553361
42
3.14158945216262
0
ELLIPSE
5
212
100
AcDbEntity
8
1
62
256
6
ByLayer
370
13
48
1
60
0
100
AcDbEllipse
10
274.155611
20
30.090104
30
0
11
0.104671912485858
21
-1.99725906950915
31
0
210
0
220
0
230
1
40
0.995562
41
0
42
0.28983374967428
0
ELLIPSE
5
213
100
AcDbEntity
8
1
62
256
6
ByLayer
370
13
48
1
60
0
100
AcDbEllipse
10
263.340668
20
8.995184
30
0
11
-0.104671912485876
21
1.99725906950915
31
0
210
0
220
0
230
1
40
0.995562
41
0
42
1.32121290077028
0
ELLIPSE
5
214
100
AcDbEntity
8
1
62
256
6
ByLayer
370
13
48
1
60
0
100
AcDbEllipse
10
274.79467
20
30.123596
30
0
11
-0.109905508110169
21
2.0971220229846
31
0
210
0
220
0
230
1
40
0.995562
41
-2.42263142025927
42
-1.82037975281694
0
ELLIPSE
5
215
100
AcDbEntity
8
1
62
256
6
ByLayer
370
13
48
1
60
0
100
AcDbEllipse
10
268.652645
20
27.478522
30
0
11
0.0104671912485858
21
-0.199725906950915
31
0
210
0
220
0
230
1
40
0.094108
41
1.5707963267949
42
3.14159265358979
0
ELLIPSE
5
216
100
AcDbEntity
8
1
62
256
6
ByLayer
370
13
48
1
60
0
100
AcDbEllipse
10
276.549591
20
11.834691
30
0
11
0.00523359562429414
21
-0.0998629534754813
31
0
210
0
220
0
230
1
40
0.995562
41
-4.94053538480633E-06
42
0.11344640138403
0
ELLIPSE
5
217
100
AcDbEntity
8
1
62
256
6
ByLayer
370
13
48
1
60
0
100
AcDbEllipse
10
261.869
20
27.182146
30
0
11
0.0104671912485858
21
-0.199725906950915
31
0
210
0
220
0
230
1
40
0.995562
41
-3.14157046250212
42
-1.75405589825547
0
ELLIPSE
5
218
100
AcDbEntity
8
1
62
256
6
ByLayer
370
13
48
1
60
0
100
AcDbEllipse
10
262.060069
20
10.926396
30
0
11
0.197552082304459
21
0.0311957493446195
31
0
210
0
220
0
230
1
40
0.009837
41
-3.04785814606447
42
-1.47706181926692
0
ELLIPSE
5
219
100
AcDbEntity
8
1
62
256
6
ByLayer
370
13
48
1
60
0
100
AcDbEllipse
10
277.489618
20
20.984448
30
0
11
-0.457939617125708
21
8.73800842910253
31
0
210
0
220
0
230
1
40
0.995562
41
-0.0801412288236837
42
-0.0245785262960596
0
ELLIPSE
5
21A
100
AcDbEntity
8
1
62
256
6
ByLayer
370
13
48
1
60
0
100
AcDbEllipse
10
274.775874
20
30.122611
30
0
11
0.117755901546589
21
-2.24691645319778
31
0
210
0
220
0
230
1
40
0.995562
41
0.730529197227673
42
1.3212129007716
0
ELLIPSE
5
21B
100
AcDbEntity
8
1
62
256
6
ByLayer
370
13
48
1
60
0
100
AcDbEllipse
10
277.714487
20
29.181131
30
0
11
-0.0287847759336168
21
0.549246244115033
31
0
210
0
220
0
230
1
40
0.995562
41
-1.46607657167512
42
-0.0801412288236626
0
ELLIPSE
5
21C
100
AcDbEntity
8
1
62
256
6
ByLayer
370
13
48
1
60
0
100
AcDbEllipse
10
279.134745
20
20.18712
30
0
11
-0.028784775933618
21
0.549246244115055
31
0
210
0
220
0
230
1
40
0.995562
41
-1.75405589825441
42
-1.46607657167512
0
ELLIPSE
5
21D
100
AcDbEntity
8
1
62
256
6
ByLayer
370
13
48
1
60
0
100
AcDbEllipse
10
277.743666
20
29.731647
30
0
11
0.00422000339726422
21
0.149940626820509
31
0
210
0
220
0
230
1
40
0.093806
41
0.00756732553959028
42
1.57836365232731
0
ELLIPSE
5
21E
100
AcDbEntity
8
1
62
256
6
ByLayer
370
13
48
1
60
0
100
AcDbEllipse
10
268.981192
20
19.554858
30
0
11
0.15604350706115
21
-2.97748748746713
31
0
210
0
220
0
230
1
40
0.995562
41
0
42
6.28318530717959
0
ELLIPSE
5
21F
100
AcDbEntity
8
1
62
256
6
ByLayer
370
13
48
1
60
0
100
AcDbEllipse
10
276.075268
20
28.192383
30
0
11
-0.19755208230446
21
-0.0311957493446154
31
0
210
0
220
0
230
1
40
0.009837
41
1.66453083432109
42
-3.14150916138182
0
ELLIPSE
5
220
100
AcDbEntity
8
1
62
256
6
ByLayer
370
13
48
1
60
0
100
AcDbEllipse
10
259.716819
20
28.778868
30
0
11
-0.300422843304741
21
0.183688194592318
31
0
210
0
220
0
230
1
40
0.473311
41
-1.92529218182278
42
-0.778612206214979
0
ELLIPSE
5
221
100
AcDbEntity
8
1
62
256
6
ByLayer
370
13
48
1
60
0
100
AcDbEllipse
10
262.267781
20
29.467089
30
0
11
-0.104671912485876
21
1.99725906950915
31
0
210
0
220
0
230
1
40
0.995562
41
2.85175890391542
42
3.14159265358831
0
ELLIPSE
5
222
100
AcDbEntity
8
1
62
256
6
ByLayer
370
13
48
1
60
0
100
AcDbEllipse
10
260.451633
20
19.071451
30
0
11
-0.148732254109673
21
0.01946064201037
31
0
210
0
220
0
230
1
40
0.01715
41
1.47811763731312
42
3.04891396410822
0
ELLIPSE
5
223
100
AcDbEntity
8
1
62
256
6
ByLayer
370
13
48
1
60
0
100
AcDbEllipse
10
261.090433
20
9.446134
30
0
11
0.0104671912485857
21
-0.199725906950913
31
0
210
0
220
0
230
1
40
0.995562
41
0.0115983514805346
42
1.32121290077195
0
ELLIPSE
5
224
100
AcDbEntity
8
1
62
256
6
ByLayer
370
13
48
1
60
0
100
AcDbEllipse
10
276.075268
20
28.192383
30
0
11
0.0104671912485858
21
-0.199725906950915
31
0
210
0
220
0
230
1
40
0.995562
41
3.14156912557389
42
-2.60644555906524
0
ELLIPSE
5
225
100
AcDbEntity
8
1
62
256
6
ByLayer
370
13
48
1
60
0
100
AcDbEllipse
10
258.4342
20
19.002343
30
0
11
-0.148732254109673
21
0.01946064201037
31
0
210
0
220
0
230
1
40
0.01715
41
0.265941268333848
42
1.47811763731388
0
ELLIPSE
5
226
100
AcDbEntity
8
1
62
256
6
ByLayer
370
13
48
1
60
0
100
AcDbEllipse
10
259.363346
20
28.037437
30
0
11
-0.043388781884809
21
-0.26170936022289
31
0
210
0
220
0
230
1
40
0.938419
41
-2.83001826174832
42
-2.21164798384285
0
ELLIPSE
5
227
100
AcDbEntity
8
1
62
256
6
ByLayer
370
13
48
1
60
0
100
AcDbEllipse
10
261.290657
20
18.960309
30
0
11
-0.0366351693700567
21
0.699040674328205
31
0
210
0
220
0
230
1
40
0.995562
41
1.38753675533548
42
1.67551608191455
0
ELLIPSE
5
228
100
AcDbEntity
8
1
62
256
6
ByLayer
370
13
48
1
60
0
100
AcDbEllipse
10
277.503715
20
20.985186
30
0
11
0.465790010562067
21
-8.88780285931572
31
0
210
0
220
0
230
1
40
0.995562
41
3.06145142476611
42
3.11701412729374
0
ELLIPSE
5
229
100
AcDbEntity
8
1
62
256
6
ByLayer
370
13
48
1
60
0
100
AcDbEllipse
10
276.858777
20
20.159209
30
0
11
-0.0261679781214692
21
0.49931476737729
31
0
210
0
220
0
230
1
40
0.995562
41
-1.75405589825431
42
-1.46607657167521
0
ELLIPSE
5
22A
100
AcDbEntity
8
1
62
256
6
ByLayer
370
13
48
1
60
0
100
AcDbEllipse
10
277.671071
20
20.29075
30
0
11
0.148164061728344
21
0.0233968120084646
31
0
210
0
220
0
230
1
40
0.009837
41
1.66453083432234
42
2.85269002801232
0
ELLIPSE
5
22B
100
AcDbEntity
8
1
62
256
6
ByLayer
370
13
48
1
60
0
100
AcDbEllipse
10
261.808807
20
10.572653
30
0
11
0.00523359562429399
21
-0.0998629534754786
31
0
210
0
220
0
230
1
40
0.995562
41
0.718961233327554
42
1.67551608191274
0
ELLIPSE
5
22C
100
AcDbEntity
8
1
62
256
6
ByLayer
370
13
48
1
60
0
100
AcDbEllipse
10
276.839981
20
20.158224
30
0
11
0.0366351693700503
21
-0.699040674328205
31
0
210
0
220
0
230
1
40
0.995562
41
1.38753675533548
42
1.67551608191447
0
ELLIPSE
5
22D
100
AcDbEntity
8
1
62
256
6
ByLayer
370
13
48
1
60
0
100
AcDbEllipse
10
260.82213
20
11.136088
30
0
11
0.0994383168615647
21
-1.89739611603369
31
0
210
0
220
0
230
1
40
0.995562
41
-0.0245785262972013
42
-0.00872664626128365
0
ELLIPSE
5
22E
100
AcDbEntity
8
1
62
256
6
ByLayer
370
13
48
1
60
0
100
AcDbEllipse
10
290.762434
20
9E-06
30
0
11
-306.683005272156
21
0.144506185092347
31
0
210
0
220
0
230
1
40
0.094396
41
-1.44907810553428
42
-1.42461788364065
0
ELLIPSE
5
22F
100
AcDbEntity
8
1
62
256
6
ByLayer
370
13
48
1
60
0
100
AcDbEllipse
10
278.340315
20
9.467707
30
0
11
-0.0095619614675915
21
0.500181998812283
31
0
210
0
220
0
230
1
40
0.105005
41
1.92335436673579
42
-2.78903461366197
0
ELLIPSE
5
230
100
AcDbEntity
8
1
62
256
6
ByLayer
370
13
48
1
60
0
100
AcDbEllipse
10
252
20
7.147527
30
0
11
-5.81110285501814
21
1.9633148990346
31
0
210
0
220
0
230
1
40
0.760796
41
1.41180726059945
42
1.70054613947589
0
ELLIPSE
5
231
100
AcDbEntity
8
1
62
256
6
ByLayer
370
13
48
1
60
0
100
AcDbEllipse
10
260.226214
20
11.86612
30
0
11
0.162241464353079
21
-3.09575155773918
31
0
210
0
220
0
230
1
40
0.995562
41
0.0839997461781999
42
1.07850402440021
0
ELLIPSE
5
232
100
AcDbEntity
8
1
62
256
6
ByLayer
370
13
48
1
60
0
100
AcDbEllipse
10
268.798362
20
-7.89206
30
0
11
-2.09999999999999
21
2.12234201567295E-15
31
0
210
0
220
0
230
1
40
0.99438
41
-2.72925844953207
42
-0.424212982721879
0
ELLIPSE
5
233
100
AcDbEntity
8
1
62
256
6
ByLayer
370
13
48
1
60
0
100
AcDbEllipse
10
260.424245
20
18.152825
30
0
11
-0.471023606186443
21
8.98766581279117
31
0
210
0
220
0
230
1
40
0.995562
41
2.79252680319576
42
2.96271820098505
0
ELLIPSE
5
234
100
AcDbEntity
8
1
62
256
6
ByLayer
370
13
48
1
60
0
100
AcDbEllipse
10
278.169504
20
13.227065
30
0
11
-0.0958184389214804
21
3.0990356587319
31
0
210
0
220
0
230
1
40
0.525119
41
2.85232323621619
42
3.12981406260784
0
ELLIPSE
5
235
100
AcDbEntity
8
1
62
256
6
ByLayer
370
13
48
1
60
0
100
AcDbEllipse
10
278.129421
20
0
30
0
11
-4.96941994735156
21
29.2469184274596
31
0
210
0
220
0
230
1
40
0.085438
41
1.584987436185
42
1.7457453081348
0
ELLIPSE
5
236
100
AcDbEntity
8
1
62
256
6
ByLayer
370
13
48
1
60
0
100
AcDbEllipse
10
278.279229
20
0.128421
30
0
11
-0.0214251637797336
21
1.01121483821497
31
0
210
0
220
0
230
1
40
0.102254
41
-0.120764223694194
42
1.0623718627738
0
ELLIPSE
5
237
100
AcDbEntity
8
1
62
256
6
ByLayer
370
13
48
1
60
0
100
AcDbEllipse
10
260.586953
20
11.885026
30
0
11
-1.97200940519466
21
-2.45265018643389
31
0
210
0
220
0
230
1
40
0.965978
41
1.55736417764045
42
1.8442262935826
0
ELLIPSE
5
238
100
AcDbEntity
8
1
62
256
6
ByLayer
370
13
48
1
60
0
100
AcDbEllipse
10
260.424245
20
18.152825
30
0
11
-0.471023606186443
21
8.98766581279117
31
0
210
0
220
0
230
1
40
0.995562
41
-2.92946901796115
42
-2.82366807128865
0
ELLIPSE
5
239
100
AcDbEntity
8
1
62
256
6
ByLayer
370
13
48
1
60
0
100
AcDbEllipse
10
267.634149
20
-0.493116
30
0
11
0.575695518672216
21
-10.9849248823003
31
0
210
0
220
0
230
1
40
0.995562
41
3.14159265358979
42
-2.82366807128866
0
ELLIPSE
5
23A
100
AcDbEntity
8
1
62
256
6
ByLayer
370
13
48
1
60
0
100
AcDbEllipse
10
278.175075
20
0.125589
30
0
11
-0.010712581893211
21
0.505607419215134
31
0
210
0
220
0
230
1
40
0.102254
41
-0.120764223681354
42
0.287358019046993
0
ELLIPSE
5
23B
100
AcDbEntity
8
1
62
256
6
ByLayer
370
13
48
1
60
0
100
AcDbEllipse
10
268.541145
20
10.769788
30
0
11
-4.04277875821669
21
-0.708917705675508
31
0
210
0
220
0
230
1
40
0.014774
41
-3.02036303277754
42
-2.68601592126123
0
ELLIPSE
5
23C
100
AcDbEntity
8
1
62
256
6
ByLayer
370
13
48
1
60
0
100
AcDbEllipse
10
278.515532
20
13.245199
30
0
11
0.162241464353079
21
-3.09575155773918
31
0
210
0
220
0
230
1
40
0.995562
41
-0.998377754702095
42
-0.804393367027741
0
ELLIPSE
5
23D
100
AcDbEntity
8
1
62
256
6
ByLayer
370
13
48
1
60
0
100
AcDbEllipse
10
260.855876
20
11.899119
30
0
11
0.162241464353079
21
-3.09575155773918
31
0
210
0
220
0
230
1
40
0.995562
41
0.615809199294293
42
1.13183444118518
0
ELLIPSE
5
23E
100
AcDbEntity
8
1
62
256
6
ByLayer
370
13
48
1
60
0
100
AcDbEllipse
10
259.420843
20
9.084532
30
0
11
-3.83466560078302
21
0.491804336362401
31
0
210
0
220
0
230
1
40
0.198036
41
-0.0183778678822442
42
0.314142626161295
0
ELLIPSE
5
23F
100
AcDbEntity
8
1
62
256
6
ByLayer
370
13
48
1
60
0
100
AcDbEllipse
10
267.152433
20
10.496734
30
0
11
0.0523359562429289
21
-0.998629534754575
31
0
210
0
220
0
230
1
40
0.094108
41
-1.5707963267949
42
0
0
ELLIPSE
5
240
100
AcDbEntity
8
1
62
256
6
ByLayer
370
13
48
1
60
0
100
AcDbEllipse
10
277.719917
20
11.050552
30
0
11
-0.0191239229484927
21
1.00036399786817
31
0
210
0
220
0
230
1
40
0.105005
41
-3.13810046405837
42
-2.51325343171206
0
ELLIPSE
5
241
100
AcDbEntity
8
1
62
256
6
ByLayer
370
13
48
1
60
0
100
AcDbEllipse
10
288.613006
20
0
30
0
11
-59.2181367809922
21
25.0100683560182
31
0
210
0
220
0
230
1
40
0.246221
41
0.873545089482845
42
1.00117117285222
0
ELLIPSE
5
242
100
AcDbEntity
8
1
62
256
6
ByLayer
370
13
48
1
60
0
100
AcDbEllipse
10
273.032672
20
-8.892844
30
0
11
-6.03299243296315
21
-0.0259857690278029
31
0
210
0
220
0
230
1
40
0.988933
41
3.00714063941758
42
-2.9896213233117
0
ELLIPSE
5
243
100
AcDbEntity
8
1
62
256
6
ByLayer
370
13
48
1
60
0
100
AcDbEllipse
10
262.516814
20
10.140199
30
0
11
1.4997537385788
21
0.0271794707661962
31
0
210
0
220
0
230
1
40
0.340502
41
-1.53279213818707
42
-1.51222596036998
0
ELLIPSE
5
244
100
AcDbEntity
8
1
62
256
6
ByLayer
370
13
48
1
60
0
100
AcDbEllipse
10
267.728129
20
-0.488191
30
0
11
-0.523359562429381
21
9.98629534754574
31
0
210
0
220
0
230
1
40
0.995562
41
0
42
0.317924582301129
0
ELLIPSE
5
245
100
AcDbEntity
8
1
62
256
6
ByLayer
370
13
48
1
60
0
100
AcDbEllipse
10
264.175737
20
10.541006
30
0
11
-0.0261679781214689
21
0.499314767377287
31
0
210
0
220
0
230
1
40
0.995562
41
0.927295216956093
42
1.13183444118518
0
ELLIPSE
5
246
100
AcDbEntity
8
1
62
256
6
ByLayer
370
13
48
1
60
0
100
AcDbEllipse
10
252
20
8.245567
30
0
11
-4
21
4.04255622032945E-15
31
0
210
0
220
0
230
1
40
0.761028
41
-3.08405179872001
42
-2.78170425738161
0
ELLIPSE
5
247
100
AcDbEntity
8
1
62
256
6
ByLayer
370
13
48
1
60
0
100
AcDbEllipse
10
278.440778
20
10.500441
30
0
11
-0.019093419594612
21
-0.501606840107862
31
0
210
0
220
0
230
1
40
0.197189
41
-0.688891549972861
42
-0.331191944132007
0
ELLIPSE
5
248
100
AcDbEntity
8
1
62
256
6
ByLayer
370
13
48
1
60
0
100
AcDbEllipse
10
263.85448
20
10.52417
30
0
11
-0.318066032320821
21
-0.395588740061343
31
0
210
0
220
0
230
1
40
0.965978
41
-2.06962855845461
42
-1.29736636151284
0
ELLIPSE
5
249
100
AcDbEntity
8
1
62
256
6
ByLayer
370
13
48
1
60
0
100
AcDbEllipse
10
252
20
1.596838
30
0
11
-0.604569253841367
21
16.6899268931036
31
0
210
0
220
0
230
1
40
0.357669
41
-0.5389518277528
42
-0.364490994351845
0
ELLIPSE
5
24A
100
AcDbEntity
8
1
62
256
6
ByLayer
370
13
48
1
60
0
100
AcDbEllipse
10
290.761923
20
0.000463
30
0
11
-309.858625727094
21
0.145954089076971
31
0
210
0
220
0
230
1
40
0.094395
41
-1.46854070726035
42
-1.46007972855837
0
ELLIPSE
5
24B
100
AcDbEntity
8
1
62
256
6
ByLayer
370
13
48
1
60
0
100
AcDbEllipse
10
214.149865
20
0
30
0
11
-309.861119739273
21
0.146004919819823
31
0
210
0
220
0
230
1
40
0.094396
41
-1.7705574312684
42
-1.71869019144162
0
ELLIPSE
5
24C
100
AcDbEntity
8
1
62
256
6
ByLayer
370
13
48
1
60
0
100
AcDbEllipse
10
277.956018
20
-18.11224
30
0
11
-0.0640163259264505
21
-0.515978325146718
31
0
210
0
220
0
230
1
40
0.113152
41
-1.64308735277591
42
-0.0722910259821844
0
ELLIPSE
5
24D
100
AcDbEntity
8
1
62
256
6
ByLayer
370
13
48
1
60
0
100
AcDbEllipse
10
260.402837
20
0
30
0
11
-1.54672891895538
21
29.2496356112651
31
0
210
0
220
0
230
1
40
0.094396
41
-0.102256511115351
42
-0.00499342284620853
0
ELLIPSE
5
24E
100
AcDbEntity
8
1
62
256
6
ByLayer
370
13
48
1
60
0
100
AcDbEllipse
10
263.762681
20
9.767077
30
0
11
0.363113722374463
21
-0.931744828063651
31
0
210
0
220
0
230
1
40
0.089392
41
-1.60033673645362
42
-0.0295404096592328
0
ELLIPSE
5
24F
100
AcDbEntity
8
1
62
256
6
ByLayer
370
13
48
1
60
0
100
AcDbEllipse
10
260.855876
20
11.899119
30
0
11
0.162241464353079
21
-3.09575155773918
31
0
210
0
220
0
230
1
40
0.995562
41
-2.31498441521963
42
-0.582560016270397
0
ELLIPSE
5
250
100
AcDbEntity
8
1
62
256
6
ByLayer
370
13
48
1
60
0
100
AcDbEllipse
10
294.814228
20
15.573148
30
0
11
-25.2332500754086
21
-4.42587027401343
31
0
210
0
220
0
230
1
40
0.01474
41
0.449983621626102
42
0.454113729705876
0
ELLIPSE
5
251
100
AcDbEntity
8
1
62
256
6
ByLayer
370
13
48
1
60
0
100
AcDbEllipse
10
275.60901
20
11.140199
30
0
11
-0.0261679781214691
21
0.499314767377289
31
0
210
0
220
0
230
1
40
0.995562
41
-0.998377754701985
42
-0.927295218001589
0
ELLIPSE
5
252
100
AcDbEntity
8
1
62
256
6
ByLayer
370
13
48
1
60
0
100
AcDbEllipse
10
1215.382785
20
-1E-06
30
0
11
-1547.57801652387
21
22.7245231575616
31
0
210
0
220
0
230
1
40
0.0119
41
0.902767492947855
42
0.918445764405169
0
ELLIPSE
5
253
100
AcDbEntity
8
1
62
256
6
ByLayer
370
13
48
1
60
0
100
AcDbEllipse
10
271.067166
20
14.306837
30
0
11
-1.97200940237213
21
-2.45265018659388
31
0
210
0
220
0
230
1
40
0.965978
41
0.712391851703465
42
1.04314259951231
0
ELLIPSE
5
254
100
AcDbEntity
8
1
62
256
6
ByLayer
370
13
48
1
60
0
100
AcDbEllipse
10
260.518224
20
18.15775
30
0
11
0.523359562429289
21
-9.98629534754575
31
0
210
0
220
0
230
1
40
0.995562
41
-5.96902186782908E-07
42
0.317924582301125
0
ELLIPSE
5
255
100
AcDbEntity
8
1
62
256
6
ByLayer
370
13
48
1
60
0
100
AcDbEllipse
10
268.798362
20
-8.410829
30
0
11
2
21
0
31
0
210
0
220
0
230
1
40
0.99438
41
2.43080738052991
42
2.59741019881785
0
ELLIPSE
5
256
100
AcDbEntity
8
1
62
256
6
ByLayer
370
13
48
1
60
0
100
AcDbEllipse
10
276.998953
20
-18.974494
30
0
11
-0.29493485677069
21
-2.49686934857336
31
0
210
0
220
0
230
1
40
0.117024
41
0
42
6.28318530717959
0
ELLIPSE
5
257
100
AcDbEntity
8
1
62
256
6
ByLayer
370
13
48
1
60
0
100
AcDbEllipse
10
280.840713
20
0
30
0
11
-3.5527785077101
21
-29.2470648789433
31
0
210
0
220
0
230
1
40
0.11663
41
-1.30536200595626
42
-0.088142674774273
0
ELLIPSE
5
258
100
AcDbEntity
8
1
62
256
6
ByLayer
370
13
48
1
60
0
100
AcDbEllipse
10
260.883294
20
19.519808
30
0
11
0.162241464353079
21
-3.09575155773918
31
0
210
0
220
0
230
1
40
0.995562
41
-2.23430559079025
42
-1.46607657167525
0
ELLIPSE
5
259
100
AcDbEntity
8
1
62
256
6
ByLayer
370
13
48
1
60
0
100
AcDbEllipse
10
260.090465
20
10.326906
30
0
11
-4.04277875704167
21
-0.708917705463785
31
0
210
0
220
0
230
1
40
0.014774
41
-3.02036303284126
42
-2.66133983533948
0
ELLIPSE
5
25A
100
AcDbEntity
8
1
62
256
6
ByLayer
370
13
48
1
60
0
100
AcDbEllipse
10
258.095321
20
14.196341
30
0
11
-0.0261679781214691
21
0.499314767377288
31
0
210
0
220
0
230
1
40
0.995562
41
-2.31498441521933
42
-1.46607657167509
0
ELLIPSE
5
25B
100
AcDbEntity
8
1
62
256
6
ByLayer
370
13
48
1
60
0
100
AcDbEllipse
10
268.798362
20
-7.89206
30
0
11
2
21
0
31
0
210
0
220
0
230
1
40
0.99438
41
0.388085078988866
42
2.76028202432361
0
ELLIPSE
5
25C
100
AcDbEntity
8
1
62
256
6
ByLayer
370
13
48
1
60
0
100
AcDbEllipse
10
259.847889
20
11.846293
30
0
11
-2.74310165142225
21
2.20554168959945
31
0
210
0
220
0
230
1
40
0.772244
41
3.13694524740595
42
-2.77548047982761
0
ELLIPSE
5
25D
100
AcDbEntity
8
1
62
256
6
ByLayer
370
13
48
1
60
0
100
AcDbEllipse
10
257.900521
20
9.551722
30
0
11
-0.293740802135514
21
-0.955885108766104
31
0
210
0
220
0
230
1
40
0.088433
41
-1.53847716189229
42
-7.17550736982689E-06
0
ELLIPSE
5
25E
100
AcDbEntity
8
1
62
256
6
ByLayer
370
13
48
1
60
0
100
AcDbEllipse
10
260.179224
20
11.863658
30
0
11
-0.136073486231638
21
2.59643679036189
31
0
210
0
220
0
230
1
40
0.995562
41
2.40144888609819
42
2.97998013990121
0
ELLIPSE
5
25F
100
AcDbEntity
8
1
62
256
6
ByLayer
370
13
48
1
60
0
100
AcDbEllipse
10
260.179224
20
11.863658
30
0
11
-0.136073486231638
21
2.59643679036189
31
0
210
0
220
0
230
1
40
0.995562
41
-2.68543658663367
42
-2.07675099364108
0
ELLIPSE
5
260
100
AcDbEntity
8
1
62
256
6
ByLayer
370
13
48
1
60
0
100
AcDbEllipse
10
278.24949
20
-2.543667
30
0
11
-2.65327641031243
21
4.25259677143171
31
0
210
0
220
0
230
1
40
0.376984
41
-0.995228992566154
42
-0.858882356537639
0
ELLIPSE
5
261
100
AcDbEntity
8
1
62
256
6
ByLayer
370
13
48
1
60
0
100
AcDbEllipse
10
281.602353
20
2.848678
30
0
11
-5.84618988564425
21
-1.98257538473731
31
0
210
0
220
0
230
1
40
0.847504
41
-0.375032237689467
42
-0.227480168973647
0
ELLIPSE
5
262
100
AcDbEntity
8
1
62
256
6
ByLayer
370
13
48
1
60
0
100
AcDbEllipse
10
252
20
8.245567
30
0
11
-4
21
4.04255622032945E-15
31
0
210
0
220
0
230
1
40
0.761028
41
-2.68407940548409
42
-1.69760724823104
0
ELLIPSE
5
263
100
AcDbEntity
8
1
62
256
6
ByLayer
370
13
48
1
60
0
100
AcDbEllipse
10
283.713316
20
0.740547
30
0
11
-6.03299237527509
21
-0.0259855213020755
31
0
210
0
220
0
230
1
40
0.988933
41
0.0310672874534188
42
0.151971371585319
0
POINT
5
70
100
AcDbEntity
8
1
62
256
6
ByLayer
370
18
48
1
60
0
100
AcDbPoint
10
0
20
0
30
0
39
0
210
0
220
0
230
1
50
360
0
POINT
5
72
100
AcDbEntity
8
80
62
256
6
ByLayer
370
18
48
1
60
0
100
AcDbPoint
10
0
20
0
30
0
39
0
210
0
220
0
230
1
50
360
0
POINT
5
74
100
AcDbEntity
8
81
62
256
6
ByLayer
370
18
48
1
60
0
100
AcDbPoint
10
280
20
0
30
0
39
0
210
0
220
0
230
1
50
360
0
POINT
5
76
100
AcDbEntity
8
1
62
256
6
ByLayer
370
18
48
1
60
1
100
AcDbPoint
10
0
20
-31.25
30
0
39
0
210
0
220
0
230
1
50
360
0
POINT
5
77
100
AcDbEntity
8
1
62
256
6
ByLayer
370
18
48
1
60
1
100
AcDbPoint
10
280
20
-30
30
0
39
0
210
0
220
0
230
1
50
360
0
POINT
5
78
100
AcDbEntity
8
1
62
256
6
ByLayer
370
18
48
1
60
1
100
AcDbPoint
10
-80
20
-25
30
0
39
0
210
0
220
0
230
1
50
360
0
POINT
5
79
100
AcDbEntity
8
1
62
256
6
ByLayer
370
18
48
1
60
1
100
AcDbPoint
10
0
20
-31.25
30
0
39
0
210
0
220
0
230
1
50
360
0
POINT
5
7A
100
AcDbEntity
8
1
62
256
6
ByLayer
370
18
48
1
60
1
100
AcDbPoint
10
280
20
-30
30
0
39
0
210
0
220
0
230
1
50
360
0
POINT
5
7B
100
AcDbEntity
8
1
62
256
6
ByLayer
370
18
48
1
60
1
100
AcDbPoint
10
5.5783
20
-31.25
30
0
39
0
210
0
220
0
230
1
50
360
0
POINT
5
7C
100
AcDbEntity
8
1
62
256
6
ByLayer
370
18
48
1
60
1
100
AcDbPoint
10
35
20
-30
30
0
39
0
210
0
220
0
230
1
50
360
0
POINT
5
7D
100
AcDbEntity
8
1
62
256
6
ByLayer
370
18
48
1
60
1
100
AcDbPoint
10
280
20
-30
30
0
39
0
210
0
220
0
230
1
50
360
0
POINT
5
7E
100
AcDbEntity
8
1
62
256
6
ByLayer
370
18
48
1
60
1
100
AcDbPoint
10
278.4109
20
-15
30
0
39
0
210
0
220
0
230
1
50
360
0
SPLINE
5
264
100
AcDbEntity
8
SK1
62
256
6
ByLayer
370
13
48
1
60
0
100
AcDbSpline
70
4
71
3
72
10
73
6
40
0
40
0
40
0
40
0
40
0.5
40
0.5
40
1
40
1
40
1
40
1
41
1
10
-80
20
8.0540176309716
30
0
41
1
10
-79.85176739512
20
8.49565927489135
30
0
41
1
10
-79.6935189817436
20
8.93491944720282
30
0
41
1
10
-79.3587118244384
20
9.80908612108971
30
0
41
1
10
-79.1828143207057
20
10.2422333475178
30
0
41
1
10
-79
20
10.6704826507521
30
0
0
SPLINE
5
265
100
AcDbEntity
8
SK1
62
256
6
ByLayer
370
13
48
1
60
0
100
AcDbSpline
70
4
71
3
72
8
73
4
40
0
40
0
40
0
40
0
40
1
40
1
40
1
40
1
41
1
10
-79
20
-10.6704826507519
30
0
41
1
10
-79.3663118043068
20
-9.81238370995035
30
0
41
1
10
-79.7021882940637
20
-8.9413126460914
30
0
41
1
10
-80
20
-8.05401763097143
30
0
0
SPLINE
5
266
100
AcDbEntity
8
SK1
62
256
6
ByLayer
370
13
48
1
60
0
100
AcDbSpline
70
4
71
3
72
18
73
14
40
0
40
0
40
0
40
0
40
0.124999999999994
40
0.124999999999994
40
0.249999999999988
40
0.249999999999988
40
0.374999999999981
40
0.374999999999981
40
0.499999999999975
40
0.499999999999975
40
0.749999999999988
40
0.749999999999988
40
1
40
1
40
1
40
1
41
1
10
-77.6338131992802
20
-9.80675144594582
30
0
41
1
10
-77.6747633651724
20
-9.77128805754603
30
0
41
1
10
-77.7208435774768
20
-9.74055738411698
30
0
41
1
10
-77.8223424340443
20
-9.70060949890774
30
0
41
1
10
-77.877225313581
20
-9.69229190808377
30
0
41
1
10
-77.9860246497556
20
-9.70510854686367
30
0
41
1
10
-78.0378757025226
20
-9.72573581195073
30
0
41
1
10
-78.1301404068999
20
-9.78251362708679
30
0
41
1
10
-78.1717204994047
20
-9.81892837813635
30
0
41
1
10
-78.2826414870913
20
-9.93741839107241
30
0
41
1
10
-78.3411195831128
20
-10.0300646017818
30
0
41
1
10
-78.4407354299096
20
-10.2228684878255
30
0
41
1
10
-78.4816839215995
20
-10.3239961106508
30
0
41
1
10
-78.5162221138915
20
-10.4258292340309
30
0
0
SPLINE
5
267
100
AcDbEntity
8
SK1
62
256
6
ByLayer
370
13
48
1
60
0
100
AcDbSpline
70
4
71
3
72
74
73
70
40
0
40
0
40
0
40
0
40
0.0156249999999999
40
0.0156249999999999
40
0.0234374999999999
40
0.0234374999999999
40
0.0312499999999998
40
0.0312499999999998
40
0.0468749999999997
40
0.0468749999999997
40
0.0624999999999996
40
0.0624999999999996
40
0.0781249999999995
40
0.0781249999999995
40
0.0937499999999994
40
0.0937499999999994
40
0.124999999999999
40
0.124999999999999
40
0.140624999999999
40
0.140624999999999
40
0.156249999999999
40
0.156249999999999
40
0.187499999999999
40
0.187499999999999
40
0.249999999999999
40
0.249999999999999
40
0.281249999999999
40
0.281249999999999
40
0.312499999999999
40
0.312499999999999
40
0.374999999999999
40
0.374999999999999
40
0.437499999999999
40
0.437499999999999
40
0.499999999999999
40
0.499999999999999
40
0.562499999999999
40
0.562499999999999
40
0.593749999999999
40
0.593749999999999
40
0.624999999999999
40
0.624999999999999
40
0.687499999999999
40
0.687499999999999
40
0.749999999999999
40
0.749999999999999
40
0.781249999999999
40
0.781249999999999
40
0.812499999999999
40
0.812499999999999
40
0.84375
40
0.84375
40
0.875
40
0.875
40
0.90625
40
0.90625
40
0.9375
40
0.9375
40
0.9453125
40
0.9453125
40
0.953125
40
0.953125
40
0.96875
40
0.96875
40
0.984375
40
0.984375
40
0.9921875
40
0.9921875
40
1
40
1
40
1
40
1
41
1
10
-6.50000000009537
20
10.670482650752
30
0
41
1
10
-6.37048388891068
20
10.6704826507608
30
0
41
1
10
-6.24446776465052
20
10.6528697557375
30
0
41
1
10
-6.06010517952292
20
10.6029156441243
30
0
41
1
10
-5.99927461449792
20
10.5821925812253
30
0
41
1
10
-5.88223506583904
20
10.5345394314587
30
0
41
1
10
-5.82559748012396
20
10.5075199899682
30
0
41
1
10
-5.66065779452136
20
10.417975973631
30
0
41
1
10
-5.55712762892128
20
10.3466184036529
30
0
41
1
10
-5.36736536971405
20
10.1913586531549
30
0
41
1
10
-5.27997153671004
20
10.1068512703449
30
0
41
1
10
-5.11666218977227
20
9.92704332772249
30
0
41
1
10
-5.04055810401205
20
9.83130794393438
30
0
41
1
10
-4.90046448763793
20
9.63491798753748
30
0
41
1
10
-4.83603834410378
20
9.5338271584321
30
0
41
1
10
-4.65598112089407
20
9.22347109153861
30
0
41
1
10
-4.55339976152399
20
9.00719880738419
30
0
41
1
10
-4.41750582616754
20
8.67228763084432
30
0
41
1
10
-4.37530268897782
20
8.55891791867154
30
0
41
1
10
-4.29686000058592
20
8.33134323345735
30
0
41
1
10
-4.26049265592715
20
8.21682554312125
30
0
41
1
10
-4.1585724311424
20
7.87130398108656
30
0
41
1
10
-4.10013853486055
20
7.63834185023578
30
0
41
1
10
-3.94578977994675
20
6.93282891322849
30
0
41
1
10
-3.87048459563749
20
6.45370790232082
30
0
41
1
10
-3.78175631324949
20
5.72457369042988
30
0
41
1
10
-3.75634074966133
20
5.47976683985843
30
0
41
1
10
-3.7120067271199
20
4.98691048522593
30
0
41
1
10
-3.69308648223611
20
4.73862820397792
30
0
41
1
10
-3.64424139462162
20
3.99444565639502
30
0
41
1
10
-3.62191393829291
20
3.49753056604814
30
0
41
1
10
-3.58913059568964
20
2.50225576491911
30
0
41
1
10
-3.57872244966512
20
2.00389538867495
30
0
41
1
10
-3.56529013292472
20
1.00580199142325
30
0
41
1
10
-3.56228022077386
20
0.506068785393097
30
0
41
1
10
-3.56223334097642
20
-0.494754197166372
30
0
41
1
10
-3.56519357916225
20
-0.995843898846687
30
0
41
1
10
-3.57526735092097
20
-1.74852495498422
30
0
41
1
10
-3.57958751937886
20
-1.99959349362723
30
0
41
1
10
-3.59064705878916
20
-2.50209075145548
30
0
41
1
10
-3.59739709579894
20
-2.75385038007658
30
0
41
1
10
-3.62227132036486
20
-3.50710000839359
30
0
41
1
10
-3.64484459181701
20
-4.00580366741292
30
0
41
1
10
-3.71010606722081
20
-4.99571816607531
30
0
41
1
10
-3.75268745857275
20
-5.48693664959626
30
0
41
1
10
-3.84180186701059
20
-6.21737273914593
30
0
41
1
10
-3.87576317934641
20
-6.45978205407951
30
0
41
1
10
-3.95487127334194
20
-6.94225537606115
30
0
41
1
10
-3.99994180570394
20
-7.18182085753699
30
0
41
1
10
-4.10416683371689
20
-7.65518824089065
30
0
41
1
10
-4.16332953330694
20
-7.88926779084468
30
0
41
1
10
-4.30073575990994
20
-8.35126379883343
30
0
41
1
10
-4.37869000461005
20
-8.57819056735369
30
0
41
1
10
-4.55882768232694
20
-9.01890405609001
30
0
41
1
10
-4.66096064418579
20
-9.23316248710555
30
0
41
1
10
-4.9012460930548
20
-9.6450662502447
30
0
41
1
10
-5.04044720826909
20
-9.84412891865716
30
0
41
1
10
-5.24436673816899
20
-10.0673788314332
30
0
41
1
10
-5.28672193295479
20
-10.1108128419076
30
0
41
1
10
-5.37506018490618
20
-10.1949099292502
30
0
41
1
10
-5.42113974977889
20
-10.2356293471388
30
0
41
1
10
-5.56352602684599
20
-10.3512474104623
30
0
41
1
10
-5.66447995477702
20
-10.4202823836625
30
0
41
1
10
-5.88197798496884
20
-10.5378913469096
30
0
41
1
10
-6.00024980803649
20
-10.5867345345007
30
0
41
1
10
-6.18283559041274
20
-10.6361515407661
30
0
41
1
10
-6.24478714200797
20
-10.6488401790656
30
0
41
1
10
-6.37105473569075
20
-10.6660269221224
30
0
41
1
10
-6.43557318110055
20
-10.6704826507564
30
0
41
1
10
-6.50000000009538
20
-10.6704826507521
30
0
0
SPLINE
5
268
100
AcDbEntity
8
1
62
256
6
ByLayer
370
18
48
1
60
0
100
AcDbSpline
70
4
71
3
72
8
73
4
40
0
40
0
40
0
40
0
40
1
40
1
40
1
40
1
41
1
10
269.330284066841
20
21.0034214414022
30
0
41
1
10
269.333773128153
20
21.0093132393654
30
0
41
1
10
269.337261922796
20
21.0152042658788
30
0
41
1
10
269.340750460537
20
21.0210945498758
30
0
0
SPLINE
5
269
100
AcDbEntity
8
1
62
256
6
ByLayer
370
18
48
1
60
0
100
AcDbSpline
70
4
71
3
72
16
73
12
40
0
40
0
40
0
40
0
40
0.12499999999999
40
0.12499999999999
40
0.24999999999998
40
0.24999999999998
40
0.499999999999987
40
0.499999999999987
40
0.749999999999993
40
0.749999999999993
40
1
40
1
40
1
40
1
41
1
10
270.137473788336
20
18.5551552444338
30
0
41
1
10
270.154393389677
20
18.5440690175031
30
0
41
1
10
270.168006368874
20
18.5287831941167
30
0
41
1
10
270.184169888393
20
18.492214087307
30
0
41
1
10
270.186640306172
20
18.471090033239
30
0
41
1
10
270.181086510712
20
18.4090102735446
30
0
41
1
10
270.162365948466
20
18.369114294294
30
0
41
1
10
270.114877928212
20
18.2963344195441
30
0
41
1
10
270.085604704618
20
18.263252662565
30
0
41
1
10
270.021533503406
20
18.2030714245647
30
0
41
1
10
269.986498562457
20
18.1758887477874
30
0
41
1
10
269.949578404447
20
18.1518111807168
30
0
0
SPLINE
5
26A
100
AcDbEntity
8
1
62
256
6
ByLayer
370
18
48
1
60
0
100
AcDbSpline
70
4
71
3
72
8
73
4
40
0
40
0
40
0
40
0
40
1
40
1
40
1
40
1
41
1
10
270.125949998954
20
18.5721152758117
30
0
41
1
10
270.129791571682
20
18.5664611810521
30
0
41
1
10
270.133632830969
20
18.5608078467751
30
0
41
1
10
270.137473788336
20
18.5551552444338
30
0
0
SPLINE
5
26B
100
AcDbEntity
8
1
62
256
6
ByLayer
370
18
48
1
60
0
100
AcDbSpline
70
4
71
3
72
20
73
16
40
0
40
0
40
0
40
0
40
0.125000000000021
40
0.125000000000021
40
0.250000000000043
40
0.250000000000043
40
0.375000000000064
40
0.375000000000064
40
0.500000000000086
40
0.500000000000086
40
0.750000000000043
40
0.750000000000043
40
0.875000000000021
40
0.875000000000021
40
1
40
1
40
1
40
1
41
1
10
270.125949998954
20
18.5721152758117
30
0
41
1
10
270.107464932066
20
18.5993219245549
30
0
41
1
10
270.09860243763
20
18.6320040433381
30
0
41
1
10
270.091134339819
20
18.6992669437942
30
0
41
1
10
270.092697118066
20
18.7337289971819
30
0
41
1
10
270.102670361392
20
18.802754372388
30
0
41
1
10
270.111226002271
20
18.8374122927697
30
0
41
1
10
270.133501051587
20
18.9047225672223
30
0
41
1
10
270.147296483195
20
18.937747050406
30
0
41
1
10
270.196506972891
20
19.0350203908131
30
0
41
1
10
270.238581297132
20
19.0956711152322
30
0
41
1
10
270.314642702759
20
19.1713044136944
30
0
41
1
10
270.342223428129
20
19.1939426174116
30
0
41
1
10
270.401848798
20
19.229543328067
30
0
41
1
10
270.433841232014
20
19.2427525878155
30
0
41
1
10
270.467278257244
20
19.2452078242003
30
0
0
SPLINE
5
26C
100
AcDbEntity
8
1
62
256
6
ByLayer
370
18
48
1
60
0
100
AcDbSpline
70
4
71
3
72
8
73
4
40
0
40
0
40
0
40
0
40
1
40
1
40
1
40
1
41
1
10
268.728643845485
20
18.1113533415253
30
0
41
1
10
268.725848910192
20
18.1054979211654
30
0
41
1
10
268.723054542004
20
18.0996432880003
30
0
41
1
10
268.720260719401
20
18.0937894124809
30
0
0
SPLINE
5
26D
100
AcDbEntity
8
1
62
256
6
ByLayer
370
18
48
1
60
0
100
AcDbSpline
70
4
71
3
72
8
73
4
40
0
40
0
40
0
40
0
40
1
40
1
40
1
40
1
41
1
10
267.932977913372
20
20.5426595071159
30
0
41
1
10
267.929830466663
20
20.5483499794787
30
0
41
1
10
267.926683633831
20
20.554039707104
30
0
41
1
10
267.923537391602
20
20.559728717923
30
0
0
SPLINE
5
26E
100
AcDbEntity
8
1
62
256
6
ByLayer
370
18
48
1
60
0
100
AcDbSpline
70
4
71
3
72
18
73
14
40
0
40
0
40
0
40
0
40
0.124999999999996
40
0.124999999999996
40
0.249999999999992
40
0.249999999999992
40
0.499999999999991
40
0.499999999999991
40
0.74999999999999
40
0.74999999999999
40
0.874999999999995
40
0.874999999999995
40
1
40
1
40
1
40
1
41
1
10
270.426770109632
20
20.0181493257502
30
0
41
1
10
270.393280638529
20
20.0170966520982
30
0
41
1
10
270.360047969452
20
20.0268850629555
30
0
41
1
10
270.296897293633
20
20.0561388270351
30
0
41
1
10
270.267182824586
20
20.0757435894132
30
0
41
1
10
270.183816470686
20
20.1428641388691
30
0
41
1
10
270.135632487231
20
20.1987304800114
30
0
41
1
10
270.056795670404
20
20.3208266603292
30
0
41
1
10
270.026369829482
20
20.3866220076827
30
0
41
1
10
270.000785310678
20
20.4876722844748
30
0
41
1
10
269.995609726893
20
20.522163465766
30
0
41
1
10
269.996028779963
20
20.5893122156773
30
0
41
1
10
270.001385459357
20
20.6228322366298
30
0
41
1
10
270.016954353535
20
20.6518760844229
30
0
0
SPLINE
5
26F
100
AcDbEntity
8
1
62
256
6
ByLayer
370
18
48
1
60
0
100
AcDbSpline
70
4
71
3
72
16
73
12
40
0
40
0
40
0
40
0
40
0.250000000000066
40
0.250000000000066
40
0.500000000000133
40
0.500000000000133
40
0.750000000000199
40
0.750000000000199
40
0.875000000000099
40
0.875000000000099
40
1
40
1
40
1
40
1
41
1
10
268.130942374233
20
20.9640952363847
30
0
41
1
10
268.167888083678
20
20.9881894668835
30
0
41
1
10
268.206723307933
20
21.0093124073279
30
0
41
1
10
268.287376517488
20
21.0440334352048
30
0
41
1
10
268.329159266427
20
21.0577195836015
30
0
41
1
10
268.414240543031
20
21.0726761761812
30
0
41
1
10
268.457745823115
20
21.0743428882246
30
0
41
1
10
268.515756862152
20
21.0555706443247
30
0
41
1
10
268.533217353179
20
21.0454293077574
30
0
41
1
10
268.558615282611
20
21.017438958841
30
0
41
1
10
268.566344607205
20
20.9997238405118
30
0
41
1
10
268.5689669195
20
20.9806470884029
30
0
0
SPLINE
5
270
100
AcDbEntity
8
1
62
256
6
ByLayer
370
18
48
1
60
0
100
AcDbSpline
70
4
71
3
72
18
73
14
40
0
40
0
40
0
40
0
40
0.125000000000022
40
0.125000000000022
40
0.250000000000044
40
0.250000000000044
40
0.500000000000088
40
0.500000000000088
40
0.750000000000133
40
0.750000000000133
40
0.875000000000066
40
0.875000000000066
40
1
40
1
40
1
40
1
41
1
10
268.579140052454
20
20.9640556516865
30
0
41
1
10
268.595388166816
20
20.9375580459661
30
0
41
1
10
268.620492680185
20
20.917477387546
30
0
41
1
10
268.67716058001
20
20.8853675232236
30
0
41
1
10
268.708737764999
20
20.8735742825386
30
0
41
1
10
268.807720811087
20
20.847266947634
30
0
41
1
10
268.879596034659
20
20.841597232286
30
0
41
1
10
269.024114107685
20
20.8491844148331
30
0
41
1
10
269.096487493506
20
20.862363155062
30
0
41
1
10
269.197483174777
20
20.8992212014696
30
0
41
1
10
269.229829859739
20
20.9144150092099
30
0
41
1
10
269.287768651469
20
20.9524667579662
30
0
41
1
10
269.313561272449
20
20.9751825206369
30
0
41
1
10
269.330284066841
20
21.0034214414022
30
0
0
SPLINE
5
271
100
AcDbEntity
8
1
62
256
6
ByLayer
370
18
48
1
60
0
100
AcDbSpline
70
4
71
3
72
8
73
4
40
0
40
0
40
0
40
0
40
1
40
1
40
1
40
1
41
1
10
268.5689669195
20
20.9806470884029
30
0
41
1
10
268.572357333862
20
20.9751173150094
30
0
41
1
10
268.575748370017
20
20.96958684515
30
0
41
1
10
268.579140052454
20
20.9640556516865
30
0
0
SPLINE
5
272
100
AcDbEntity
8
1
62
256
6
ByLayer
370
18
48
1
60
0
100
AcDbSpline
70
4
71
3
72
16
73
12
40
0
40
0
40
0
40
0
40
0.250000000000003
40
0.250000000000003
40
0.500000000000006
40
0.500000000000006
40
0.750000000000009
40
0.750000000000009
40
0.875000000000005
40
0.875000000000005
40
1
40
1
40
1
40
1
41
1
10
267.373587563661
20
19.4706065869656
30
0
41
1
10
267.371271423236
20
19.5148011790149
30
0
41
1
10
267.372407501275
20
19.5592354894702
30
0
41
1
10
267.382520446237
20
19.6471456344957
30
0
41
1
10
267.391407291943
20
19.6906294576005
30
0
41
1
10
267.420383506408
20
19.7731042346667
30
0
41
1
10
267.440247216149
20
19.812453672291
30
0
41
1
10
267.484290198764
20
19.8552609058799
30
0
41
1
10
267.501300020746
20
19.8660815532864
30
0
41
1
10
267.537082904702
20
19.87577489222
30
0
41
1
10
267.555641302417
20
19.8745262043663
30
0
41
1
10
267.572830301093
20
19.8681412986118
30
0
0
SPLINE
5
273
100
AcDbEntity
8
1
62
256
6
ByLayer
370
18
48
1
60
0
100
AcDbSpline
70
4
71
3
72
18
73
14
40
0
40
0
40
0
40
0
40
0.125000000000001
40
0.125000000000001
40
0.250000000000002
40
0.250000000000002
40
0.500000000000002
40
0.500000000000002
40
0.750000000000001
40
0.750000000000001
40
0.875
40
0.875
40
1
40
1
40
1
40
1
41
1
10
269.479787859872
20
18.1507191312411
30
0
41
1
10
269.460214481679
20
18.1770424672685
30
0
41
1
10
269.43216593697
20
18.1969688355441
30
0
41
1
10
269.370413532282
20
18.2288122322579
30
0
41
1
10
269.336720675928
20
18.2404945953049
30
0
41
1
10
269.232637717771
20
18.2665346551434
30
0
41
1
10
269.159024775319
20
18.2721133005039
30
0
41
1
10
269.014509044511
20
18.2645262407072
30
0
41
1
10
268.943865063843
20
18.2514381347618
30
0
41
1
10
268.847980543296
20
18.2148479529373
30
0
41
1
10
268.81775667198
20
18.199765397146
30
0
41
1
10
268.764892363344
20
18.1619795907797
30
0
41
1
10
268.742039748872
20
18.1394179073212
30
0
41
1
10
268.728643845485
20
18.1113533415254
30
0
0
SPLINE
5
274
100
AcDbEntity
8
1
62
256
6
ByLayer
370
18
48
1
60
0
100
AcDbSpline
70
4
71
3
72
16
73
12
40
0
40
0
40
0
40
0
40
0.124999999999983
40
0.124999999999983
40
0.249999999999966
40
0.249999999999966
40
0.499999999999977
40
0.499999999999977
40
0.749999999999989
40
0.749999999999989
40
1
40
1
40
1
40
1
41
1
10
267.923537391602
20
20.559728717923
30
0
41
1
10
267.908711891487
20
20.5709246920485
30
0
41
1
10
267.897226442117
20
20.5863220145485
30
0
41
1
10
267.884891482587
20
20.623091767685
30
0
41
1
10
267.884108877842
20
20.6443042762861
30
0
41
1
10
267.893737396034
20
20.70659758315
30
0
41
1
10
267.914054063493
20
20.7465772107304
30
0
41
1
10
267.963861561669
20
20.8194786441672
30
0
41
1
10
267.993823014291
20
20.8525964697013
30
0
41
1
10
268.058790035318
20
20.9128246556288
30
0
41
1
10
268.094022216223
20
20.9400176693141
30
0
41
1
10
268.130942374233
20
20.9640952363847
30
0
0
SPLINE
5
275
100
AcDbEntity
8
1
62
256
6
ByLayer
370
18
48
1
60
0
100
AcDbSpline
70
4
71
3
72
16
73
12
40
0
40
0
40
0
40
0
40
0.250000000000071
40
0.250000000000071
40
0.500000000000142
40
0.500000000000142
40
0.750000000000213
40
0.750000000000213
40
0.875000000000106
40
0.875000000000106
40
1
40
1
40
1
40
1
41
1
10
269.949578404447
20
18.1518111807168
30
0
41
1
10
269.912632695002
20
18.127716950218
30
0
41
1
10
269.873600862987
20
18.1065837059976
30
0
41
1
10
269.792050974888
20
18.0718156851894
30
0
41
1
10
269.749581019091
20
18.0580935218074
30
0
41
1
10
269.662173644713
20
18.043015023609
30
0
41
1
10
269.61707607063
20
18.0412648629732
30
0
41
1
10
269.554942274469
20
18.0598210423277
30
0
41
1
10
269.535805486164
20
18.0698745278772
30
0
41
1
10
269.506598025698
20
18.097665227732
30
0
41
1
10
269.496752889563
20
18.115269461077
30
0
41
1
10
269.492044260438
20
18.1342368739539
30
0
0
SPLINE
5
276
100
AcDbEntity
8
1
62
256
6
ByLayer
370
18
48
1
60
0
100
AcDbSpline
70
4
71
3
72
16
73
12
40
0
40
0
40
0
40
0
40
0.124999999999997
40
0.124999999999997
40
0.249999999999995
40
0.249999999999995
40
0.499999999999996
40
0.499999999999996
40
0.749999999999998
40
0.749999999999998
40
1
40
1
40
1
40
1
41
1
10
268.720260719401
20
18.0937894124809
30
0
41
1
10
268.719644545488
20
18.0744712471858
30
0
41
1
10
268.713760419381
20
18.0559462666241
30
0
41
1
10
268.691188562014
20
18.0253317264565
30
0
41
1
10
268.674595022251
20
18.0133854913354
30
0
41
1
10
268.61921632974
20
17.9890273181835
30
0
41
1
10
268.575812719756
20
17.9860948791185
30
0
41
1
10
268.489825556881
20
17.9920816379436
30
0
41
1
10
268.446810335939
20
18.0013261865377
30
0
41
1
10
268.363064025426
20
18.0273944549701
30
0
41
1
10
268.322140275375
20
18.0443780988731
30
0
41
1
10
268.282905578768
20
18.0644645591316
30
0
0
SPLINE
5
277
100
AcDbEntity
8
1
62
256
6
ByLayer
370
18
48
1
60
0
100
AcDbSpline
70
4
71
3
72
16
73
12
40
0
40
0
40
0
40
0
40
0.25
40
0.25
40
0.5
40
0.5
40
0.75
40
0.75
40
0.875
40
0.875
40
1
40
1
40
1
40
1
41
1
10
269.797615199911
20
21.0514418579699
30
0
41
1
10
269.836877049782
20
21.0313414964194
30
0
41
1
10
269.874477892118
20
21.0080249745204
30
0
41
1
10
269.944569817439
20
20.9548123609062
30
0
41
1
10
269.977122117244
20
20.9249966787056
30
0
41
1
10
270.032064130495
20
20.8574175414096
30
0
41
1
10
270.054909553839
20
20.8196930915325
30
0
41
1
10
270.066816231699
20
20.7580055817709
30
0
41
1
10
270.066428752104
20
20.7369996722883
30
0
41
1
10
270.054139032063
20
20.6992161599075
30
0
41
1
10
270.042252053172
20
20.6826942869398
30
0
41
1
10
270.026642208376
20
20.6699477709695
30
0
0
SPLINE
5
278
100
AcDbEntity
8
1
62
256
6
ByLayer
370
18
48
1
60
0
100
AcDbSpline
70
4
71
3
72
8
73
4
40
0
40
0
40
0
40
0
40
1
40
1
40
1
40
1
41
1
10
267.572830301093
20
19.8681412986118
30
0
41
1
10
267.579102416251
20
19.8686164471447
30
0
41
1
10
267.585375521301
20
19.8690916662617
30
0
41
1
10
267.591649655082
20
19.8695669587274
30
0
0
SPLINE
5
279
100
AcDbEntity
8
1
62
256
6
ByLayer
370
18
48
1
60
0
100
AcDbSpline
70
4
71
3
72
16
73
12
40
0
40
0
40
0
40
0
40
0.25
40
0.25
40
0.5
40
0.5
40
0.75
40
0.75
40
0.875
40
0.875
40
1
40
1
40
1
40
1
41
1
10
268.282905578768
20
18.0644645591316
30
0
41
1
10
268.243643728898
20
18.0845649206821
30
0
41
1
10
268.205846278802
20
18.1078711388051
30
0
41
1
10
268.134857674937
20
18.161036759488
30
0
41
1
10
268.101618168275
20
18.1908164267034
30
0
41
1
10
268.044350057249
20
18.2582736583806
30
0
41
1
10
268.019912339907
20
18.2959146596653
30
0
41
1
10
268.003882904923
20
18.3573861048814
30
0
41
1
10
268.002594087238
20
18.3783041633462
30
0
41
1
10
268.011074276246
20
18.4158880266655
30
0
41
1
10
268.020845443596
20
18.4322990146489
30
0
41
1
10
268.034368971562
20
18.4449361913873
30
0
0
SPLINE
5
27A
100
AcDbEntity
8
1
62
256
6
ByLayer
370
18
48
1
60
0
100
AcDbSpline
70
4
71
3
72
16
73
12
40
0
40
0
40
0
40
0
40
0.249999999999942
40
0.249999999999942
40
0.499999999999883
40
0.499999999999883
40
0.749999999999825
40
0.749999999999825
40
0.874999999999913
40
0.874999999999913
40
1
40
1
40
1
40
1
41
1
10
270.706933215018
20
19.645299830136
30
0
41
1
10
270.704617074592
20
19.6894944221853
30
0
41
1
10
270.69864596216
20
19.7335562605711
30
0
41
1
10
270.678502626059
20
19.8198807410967
30
0
41
1
10
270.664431959361
20
19.8621614119585
30
0
41
1
10
270.62466742015
20
19.9410336387783
30
0
41
1
10
270.599207095646
20
19.9780077444196
30
0
41
1
10
270.54680805363
20
20.0157606656681
30
0
41
1
10
270.52708405031
20
20.0246561748659
30
0
41
1
10
270.486674427879
20
20.0303564337417
30
0
41
1
10
270.46623240689
20
20.0270638205527
30
0
41
1
10
270.447718658904
20
20.0188078131313
30
0
0
SPLINE
5
27B
100
AcDbEntity
8
1
62
256
6
ByLayer
370
18
48
1
60
0
100
AcDbSpline
70
4
71
3
72
18
73
14
40
0
40
0
40
0
40
0
40
0.125
40
0.125
40
0.25
40
0.25
40
0.5
40
0.5
40
0.75
40
0.75
40
0.875
40
0.875
40
1
40
1
40
1
40
1
41
1
10
268.041973558791
20
18.4628986985047
30
0
41
1
10
268.054119530704
20
18.4915860943206
30
0
41
1
10
268.056595639897
20
18.524620641022
30
0
41
1
10
268.051994819127
20
18.5919676796215
30
0
41
1
10
268.044726701381
20
18.6261644741252
30
0
41
1
10
268.013936404288
20
18.7274271399569
30
0
41
1
10
267.98151539874
20
18.7934689541265
30
0
41
1
10
267.902658290759
20
18.9153886883682
30
0
41
1
10
267.856416181565
20
18.9710754747385
30
0
41
1
10
267.778048431653
20
19.0384917240098
30
0
41
1
10
267.750402415977
20
19.0581983193503
30
0
41
1
10
267.692522889423
20
19.0875790327715
30
0
41
1
10
267.662302614252
20
19.0975032173419
30
0
41
1
10
267.632157802694
20
19.0966254571774
30
0
0
SPLINE
5
27C
100
AcDbEntity
8
1
62
256
6
ByLayer
370
18
48
1
60
0
100
AcDbSpline
70
4
71
3
72
16
73
12
40
0
40
0
40
0
40
0
40
0.124999999999911
40
0.124999999999911
40
0.249999999999821
40
0.249999999999821
40
0.499999999999881
40
0.499999999999881
40
0.74999999999994
40
0.74999999999994
40
1
40
1
40
1
40
1
41
1
10
270.488180878845
20
19.246742663745
30
0
41
1
10
270.507528113767
20
19.2404436820372
30
0
41
1
10
270.528320760923
20
19.2393160213162
30
0
41
1
10
270.568135799656
20
19.2493872408026
30
0
41
1
10
270.586979886049
20
19.2605517361491
30
0
41
1
10
270.634626218995
20
19.3033815733998
30
0
41
1
10
270.656108360969
20
19.3427645286584
30
0
41
1
10
270.687322985055
20
19.4251847059319
30
0
41
1
10
270.69690951314
20
19.468733607717
30
0
41
1
10
270.707909221677
20
19.5565907132326
30
0
41
1
10
270.709247753615
20
19.6011358028069
30
0
41
1
10
270.706933215018
20
19.645299830136
30
0
0
SPLINE
5
27D
100
AcDbEntity
8
1
62
256
6
ByLayer
370
18
48
1
60
0
100
AcDbSpline
70
4
71
3
72
8
73
4
40
0
40
0
40
0
40
0
40
1
40
1
40
1
40
1
41
1
10
269.492044260438
20
18.1342368739539
30
0
41
1
10
269.487959130938
20
18.1397302388698
30
0
41
1
10
269.483873668328
20
18.1452243153809
30
0
41
1
10
269.479787859872
20
18.1507191312411
30
0
0
SPLINE
5
27E
100
AcDbEntity
8
1
62
256
6
ByLayer
370
18
48
1
60
0
100
AcDbSpline
70
4
71
3
72
16
73
12
40
0
40
0
40
0
40
0
40
0.124999999999996
40
0.124999999999996
40
0.249999999999992
40
0.249999999999992
40
0.499999999999994
40
0.499999999999994
40
0.749999999999997
40
0.749999999999997
40
1
40
1
40
1
40
1
41
1
10
267.613292521034
20
19.0960761492255
30
0
41
1
10
267.596803796393
20
19.0878990844585
30
0
41
1
10
267.578370456002
20
19.08471567684
30
0
41
1
10
267.54154935911
20
19.0907705666455
30
0
41
1
10
267.523329308087
20
19.0999926128589
30
0
41
1
10
267.4755417724
20
19.1378209729862
30
0
41
1
10
267.451656777269
20
19.1748263373368
30
0
41
1
10
267.41431737361
20
19.2536537502552
30
0
41
1
10
267.400919490776
20
19.2959980901059
30
0
41
1
10
267.381692291382
20
19.3822710705022
30
0
41
1
10
267.375902102258
20
19.4264425596365
30
0
41
1
10
267.373587563661
20
19.4706065869656
30
0
0
SPLINE
5
27F
100
AcDbEntity
8
1
62
256
6
ByLayer
370
18
48
1
60
0
100
AcDbSpline
70
4
71
3
72
8
73
4
40
0
40
0
40
0
40
0
40
1
40
1
40
1
40
1
41
1
10
270.447718658904
20
20.0188078131313
30
0
41
1
10
270.440736521365
20
20.0185883357144
30
0
41
1
10
270.433753680662
20
20.0183688401521
30
0
41
1
10
270.426770109632
20
20.0181493257502
30
0
0
SPLINE
5
280
100
AcDbEntity
8
1
62
256
6
ByLayer
370
18
48
1
60
0
100
AcDbSpline
70
4
71
3
72
8
73
4
40
0
40
0
40
0
40
0
40
1
40
1
40
1
40
1
41
1
10
270.026642208376
20
20.6699477709695
30
0
41
1
10
270.023413150011
20
20.6639246448042
30
0
41
1
10
270.020183867889
20
20.6579007591537
30
0
41
1
10
270.016954353535
20
20.651876084423
30
0
0
SPLINE
5
281
100
AcDbEntity
8
1
62
256
6
ByLayer
370
18
48
1
60
0
100
AcDbSpline
70
4
71
3
72
16
73
12
40
0
40
0
40
0
40
0
40
0.124999999999997
40
0.124999999999997
40
0.249999999999994
40
0.249999999999994
40
0.499999999999996
40
0.499999999999996
40
0.749999999999998
40
0.749999999999998
40
1
40
1
40
1
40
1
41
1
10
269.340750460537
20
21.0210945498758
30
0
41
1
10
269.343460735676
20
21.0405224623659
30
0
41
1
10
269.351472391609
20
21.0591589420411
30
0
41
1
10
269.377872808966
20
21.0899741285356
30
0
41
1
10
269.396154161762
20
21.1020088181897
30
0
41
1
10
269.455607577006
20
21.1265805385111
30
0
41
1
10
269.500607292203
20
21.1295966259059
30
0
41
1
10
269.588913933
20
21.1237314257678
30
0
41
1
10
269.63261738297
20
21.1145229457286
30
0
41
1
10
269.717259513298
20
21.0885016252234
30
0
41
1
10
269.758380503305
20
21.0715283182285
30
0
41
1
10
269.797615199911
20
21.0514418579699
30
0
0
SPLINE
5
282
100
AcDbEntity
8
1
62
256
6
ByLayer
370
18
48
1
60
0
100
AcDbSpline
70
4
71
3
72
18
73
14
40
0
40
0
40
0
40
0
40
0.125
40
0.125
40
0.25
40
0.25
40
0.5
40
0.5
40
0.75
40
0.75
40
0.875
40
0.875
40
1
40
1
40
1
40
1
41
1
10
267.591649655082
20
19.8695669587274
30
0
41
1
10
267.621706373272
20
19.8718438836694
30
0
41
1
10
267.650759011504
20
19.884874917023
30
0
41
1
10
267.705368342991
20
19.9202453251044
30
0
41
1
10
267.730735245917
20
19.942704317742
30
0
41
1
10
267.801477950946
20
20.0177932862022
30
0
41
1
10
267.84180102841
20
20.0782109200176
30
0
41
1
10
267.907460822346
20
20.2077177754311
30
0
41
1
10
267.932727396396
20
20.2765379848886
30
0
41
1
10
267.952799747394
20
20.380678348276
30
0
41
1
10
267.956439009856
20
20.4155231253822
30
0
41
1
10
267.953961033485
20
20.4828226163648
30
0
41
1
10
267.948063376041
20
20.5153855239998
30
0
41
1
10
267.932977913372
20
20.5426595071159
30
0
0
SPLINE
5
283
100
AcDbEntity
8
1
62
256
6
ByLayer
370
18
48
1
60
0
100
AcDbSpline
70
4
71
3
72
8
73
4
40
0
40
0
40
0
40
0
40
1
40
1
40
1
40
1
41
1
10
268.034368971562
20
18.4449361913872
30
0
41
1
10
268.036903314789
20
18.4509229090749
30
0
41
1
10
268.039438170456
20
18.4569104013772
30
0
41
1
10
268.041973558791
20
18.4628986985047
30
0
0
SPLINE
5
284
100
AcDbEntity
8
1
62
256
6
ByLayer
370
18
48
1
60
0
100
AcDbSpline
70
4
71
3
72
8
73
4
40
0
40
0
40
0
40
0
40
1
40
1
40
1
40
1
41
1
10
270.467278257244
20
19.2452078242003
30
0
41
1
10
270.474246517044
20
19.2457194942691
30
0
41
1
10
270.481214048549
20
19.2462311067344
30
0
41
1
10
270.488180878845
20
19.246742663745
30
0
0
SPLINE
5
285
100
AcDbEntity
8
1
62
256
6
ByLayer
370
18
48
1
60
0
100
AcDbSpline
70
4
71
3
72
8
73
4
40
0
40
0
40
0
40
0
40
1
40
1
40
1
40
1
41
1
10
267.632157802694
20
19.0966254571774
30
0
41
1
10
267.625868357683
20
19.0964423203787
30
0
41
1
10
267.619579943435
20
19.0962592181648
30
0
41
1
10
267.613292521034
20
19.0960761492255
30
0
0
SPLINE
5
286
100
AcDbEntity
8
1
62
256
6
ByLayer
370
18
48
1
60
0
100
AcDbSpline
70
4
71
1
72
4
73
2
40
0
40
0
40
1
40
1
41
1
10
278.065418342081
20
0.190890882507119
30
0
41
1
10
278.545810676796
20
-0.126692381505137
30
0
0
SPLINE
5
287
100
AcDbEntity
8
1
62
256
6
ByLayer
370
18
48
1
60
0
100
AcDbSpline
70
4
71
1
72
4
73
2
40
0
40
0
40
1
40
1
41
1
10
279.990150541484
20
-9.15673956532058
30
0
41
1
10
279.964700644903
20
-8.9969583134143
30
0
0
SPLINE
5
288
100
AcDbEntity
8
1
62
256
6
ByLayer
370
18
48
1
60
0
100
AcDbSpline
70
4
71
3
72
10
73
6
40
0
40
0
40
0
40
0
40
0.507963656765749
40
0.507963656765749
40
1
40
1
40
1
40
1
41
1
10
278.200063329253
20
-18.76705389443
30
0
41
1
10
278.260029427762
20
-18.749954937718
30
0
41
1
10
278.319995526685
20
-18.7328576294872
30
0
41
1
10
278.438047473652
20
-18.6991976784484
30
0
41
1
10
278.496133322273
20
-18.6826350131356
30
0
41
1
10
278.554219170402
20
-18.6660733498559
30
0
0
SPLINE
5
289
100
AcDbEntity
8
1
62
256
6
ByLayer
370
18
48
1
60
0
100
AcDbSpline
70
4
71
3
72
12
73
8
40
0
40
0
40
0
40
0
40
0.5
40
0.5
40
0.75
40
0.75
40
1
40
1
40
1
40
1
41
1
10
278.154124004951
20
0.472395506151628
30
0
41
1
10
278.221249435531
20
0.463545689531315
30
0
41
1
10
278.285500339752
20
0.434672696212289
30
0
41
1
10
278.36247267885
20
0.368864371545442
30
0
41
1
10
278.384884950979
20
0.343135525850187
30
0
41
1
10
278.421266529614
20
0.286443436613553
30
0
41
1
10
278.434727430492
20
0.255393635026962
30
0
41
1
10
278.444881431247
20
0.223270040528206
30
0
0
SPLINE
5
28A
100
AcDbEntity
8
1
62
256
6
ByLayer
370
18
48
1
60
0
100
AcDbSpline
70
4
71
1
72
4
73
2
40
0
40
0
40
1
40
1
41
1
10
278.444881431247
20
0.22331153239
30
0
41
1
10
278.061525475776
20
0.204390621216419
30
0
0
SPLINE
5
28B
100
AcDbEntity
8
1
62
256
6
ByLayer
370
18
48
1
60
0
100
AcDbSpline
70
4
71
3
72
12
73
8
40
0
40
0
40
0
40
0
40
0.500000000000134
40
0.500000000000134
40
0.750000000000067
40
0.750000000000067
40
1
40
1
40
1
40
1
41
1
10
278.802578065246
20
-18.377568939127
30
0
41
1
10
278.793678272114
20
-18.4443171559476
30
0
41
1
10
278.764643241057
20
-18.5082081036788
30
0
41
1
10
278.698462089743
20
-18.5847469679527
30
0
41
1
10
278.6725879313
20
-18.6070333836789
30
0
41
1
10
278.615575711419
20
-18.6432107791182
30
0
41
1
10
278.584350504067
20
-18.6565961124281
30
0
41
1
10
278.552045438321
20
-18.6666931344064
30
0
0
SPLINE
5
28C
100
AcDbEntity
8
1
62
256
6
ByLayer
370
18
48
1
60
0
100
AcDbSpline
70
4
71
1
72
4
73
2
40
0
40
0
40
1
40
1
41
1
10
278.552045438321
20
-18.666651642544
30
0
41
1
10
278.107138951125
20
-17.8619650763528
30
0
0
SPLINE
5
28D
100
AcDbEntity
8
1
62
256
6
ByLayer
370
18
48
1
60
0
100
AcDbSpline
70
4
71
2
72
6
73
3
40
0
40
0
40
0
40
1
40
1
40
1
41
1
10
278.086559657842
20
0.0960645210959115
30
0
41
1
10
278.078905304393
20
0.144120597314242
30
0
41
1
10
278.065418342081
20
0.190890882507261
30
0
0
SPLINE
5
28E
100
AcDbEntity
8
1
62
256
6
ByLayer
370
18
48
1
60
0
100
AcDbSpline
70
4
71
1
72
4
73
2
40
0
40
0
40
1
40
1
41
1
10
277.770768049502
20
0.453515215384101
30
0
41
1
10
278.154124004952
20
0.472436126551003
30
0
0
SPLINE
5
28F
100
AcDbEntity
8
1
62
256
6
ByLayer
370
18
48
1
60
0
100
AcDbSpline
70
4
71
3
72
8
73
4
40
0
40
0
40
0
40
0
40
1
40
1
40
1
40
1
41
1
10
278.200063329253
20
-18.7670136499471
30
0
41
1
10
278.168706911135
20
-18.7759544255893
30
0
41
1
10
278.136919473594
20
-18.7829619249911
30
0
41
1
10
278.104701016632
20
-18.7880361481525
30
0
0
SPLINE
5
290
100
AcDbEntity
8
1
62
256
6
ByLayer
370
18
48
1
60
0
100
AcDbSpline
70
4
71
1
72
4
73
2
40
0
40
0
40
1
40
1
41
1
10
279.993155758075
20
-9.38501787989003
30
0
41
1
10
279.496924283891
20
-8.96799226554151
30
0
0
SPLINE
5
291
100
AcDbEntity
8
1
62
256
6
ByLayer
370
18
48
1
60
0
100
AcDbSpline
70
4
71
1
72
4
73
2
40
0
40
0
40
1
40
1
41
1
10
279.493919067307
20
-8.73971395097266
30
0
41
1
10
279.990150541484
20
-9.15673956532035
30
0
0
SPLINE
5
292
100
AcDbEntity
8
1
62
256
6
ByLayer
370
18
48
1
60
0
100
AcDbSpline
70
4
71
1
72
4
73
2
40
0
40
0
40
1
40
1
41
1
10
279.915156809879
20
-8.68590887715607
30
0
41
1
10
279.82455311507
20
-8.11707466842427
30
0
0
SPLINE
5
293
100
AcDbEntity
8
1
62
256
6
ByLayer
370
18
48
1
60
0
100
AcDbSpline
70
4
71
1
72
4
73
2
40
0
40
0
40
1
40
1
41
1
10
278.802578065246
20
-18.3775283187277
30
0
41
1
10
279.85459195936
20
-10.4315992276592
30
0
0
SPLINE
5
294
100
AcDbEntity
8
1
62
256
6
ByLayer
370
18
48
1
60
0
100
AcDbSpline
70
4
71
3
72
29
73
25
40
0
40
0
40
0
40
0
40
0.0028990666613181
40
0.0106094047554237
40
0.0260300809436348
40
0.0568714333200571
40
0.118554138072902
40
0.241919547578591
40
0.36528495708428
40
0.426967661837125
40
0.484795197542917
40
0.488650366589969
40
0.496360704684075
40
0.50407104277818
40
0.519491718966392
40
0.550333071342814
40
0.612015776095659
40
0.735381185601348
40
0.858746595107037
40
0.978256835565674
40
0.982112004612726
40
0.989822342706832
40
0.997532680800937
40
1
40
1
40
1
40
1
41
1
10
277.949111175791
20
-17.6914887660193
30
0
41
1
10
277.969949396406
20
-17.6823740355915
30
0
41
1
10
278.045827116084
20
-17.643397743762
30
0
41
1
10
278.203912298436
20
-17.4924014285888
30
0
41
1
10
278.22143699443
20
-17.108104591743
30
0
41
1
10
278.323300052749
20
-16.4814275176294
30
0
41
1
10
278.482926719381
20
-15.179864365211
30
0
41
1
10
278.734168104075
20
-13.3417513929005
30
0
41
1
10
278.972399151119
20
-11.4965089288482
30
0
41
1
10
279.173213606234
20
-10.0456106289299
30
0
41
1
10
279.269990981293
20
-9.30733564194441
30
0
41
1
10
279.323738627898
20
-8.88146374176543
30
0
41
1
10
279.316425230224
20
-8.74599053845608
30
0
41
1
10
279.27245180171
20
-8.5577226257989
30
0
41
1
10
279.230451521237
20
-8.2400430129282
30
0
41
1
10
279.122295761826
20
-7.59574880312877
30
0
41
1
10
278.921268209832
20
-6.31054177821142
30
0
41
1
10
278.626933134506
20
-4.47363315449999
30
0
41
1
10
278.279492452615
20
-2.2925980972941
30
0
41
1
10
278.04580238702
20
-0.823410603943728
30
0
41
1
10
277.922305911493
20
-0.0320935496520747
30
0
41
1
10
277.869790043798
20
0.114367939576567
30
0
41
1
10
277.765438299771
20
0.222394116429115
30
0
41
1
10
277.700123713624
20
0.258259386993899
30
0
41
1
10
277.684024320999
20
0.265703301256821
30
0
0
SPLINE
5
295
100
AcDbEntity
8
1
62
256
6
ByLayer
370
18
48
1
60
0
100
AcDbSpline
70
4
71
2
72
12
73
9
40
0
40
0
40
0
40
0.25
40
0.5
40
0.5
40
0.75
40
0.75
40
0.875
40
1
40
1
40
1
41
1
10
278.061525475776
20
0.204390621216476
30
0
41
1
10
278.047622878047
20
0.252602252980807
30
0
41
1
10
277.993210900431
20
0.337850415637576
30
0
41
1
10
277.95377596051
20
0.371923364847675
30
0
41
1
10
277.916061777416
20
0.404509529492515
30
0
41
1
10
277.868450775637
20
0.425955015432549
30
0
41
1
10
277.846339406429
20
0.435914668448788
30
0
41
1
10
277.796723060587
20
0.450117377663673
30
0
41
1
10
277.770768049502
20
0.453515215384073
30
0
0
SPLINE
5
296
100
AcDbEntity
8
1
62
256
6
ByLayer
370
18
48
1
60
0
100
AcDbSpline
70
4
71
3
72
26
73
22
40
0
40
0
40
0
40
0
40
0.0032712693939337
40
0.0189984965120485
40
0.0504529507482781
40
0.113361859220737
40
0.239179676165656
40
0.364997493110574
40
0.427906401583034
40
0.486883503275964
40
0.490815310055493
40
0.49867892361455
40
0.506542537173608
40
0.522269764291722
40
0.553724218527952
40
0.616633127000411
40
0.74245094394533
40
0.868268760890248
40
0.990154771055638
40
0.994086577835167
40
1
40
1
40
1
40
1
41
1
10
277.990289241368
20
-17.4809519600876
30
0
41
1
10
278.00214772458
20
-17.4683689061961
30
0
41
1
10
278.063069188217
20
-17.3886470190985
30
0
41
1
10
278.077074434101
20
-17.0815277575407
30
0
41
1
10
278.179817856292
20
-16.4494345505828
30
0
41
1
10
278.339223859706
20
-15.1496706408609
30
0
41
1
10
278.590526984383
20
-13.3111059712176
30
0
41
1
10
278.828773542461
20
-11.4657433648967
30
0
41
1
10
279.029607127536
20
-10.014706849695
30
0
41
1
10
279.126272831558
20
-9.27728375535236
30
0
41
1
10
279.178363153968
20
-8.86454373811821
30
0
41
1
10
279.172424334605
20
-8.75453319050396
30
0
41
1
10
279.129720348684
20
-8.57170027155124
30
0
41
1
10
279.087126261422
20
-8.24952925270614
30
0
41
1
10
278.979251845854
20
-7.60691103510015
30
0
41
1
10
278.77814197451
20
-6.32117772706456
30
0
41
1
10
278.483838807004
20
-4.48446823609339
30
0
41
1
10
278.136385227813
20
-2.3033522169743
30
0
41
1
10
277.902659614205
20
-0.83394123659869
30
0
41
1
10
277.783003052214
20
-0.0672288445518916
30
0
41
1
10
277.765860846444
20
-0.0140704930299194
30
0
41
1
10
277.751730860707
20
0.0151077964506499
30
0
0
SPLINE
5
297
100
AcDbEntity
8
1
62
256
6
ByLayer
370
18
48
1
60
0
100
AcDbSpline
70
4
71
3
72
8
73
4
40
0
40
0
40
0
40
0
40
1
40
1
40
1
40
1
41
1
10
279.991114580242
20
-9.15661544968188
30
0
41
1
10
279.996050494171
20
-9.19452683886018
30
0
41
1
10
279.999429899272
20
-9.23255048754012
30
0
41
1
10
279.999933060269
20
-9.27077094169675
30
0
0
SPLINE
5
298
100
AcDbEntity
8
1
62
256
6
ByLayer
370
18
48
1
60
0
100
AcDbSpline
70
4
71
2
72
6
73
3
40
0
40
0
40
0
40
1
40
1
40
1
41
1
10
277.998200600061
20
-17.8868585624182
30
0
41
1
10
278.046528285503
20
-17.8792472276866
30
0
41
1
10
278.093562912681
20
-17.8658360642113
30
0
0
SPLINE
5
299
100
AcDbEntity
8
1
62
256
6
ByLayer
370
18
48
1
60
0
100
AcDbSpline
70
4
71
1
72
4
73
2
40
0
40
0
40
1
40
1
41
1
10
279.85459195936
20
-10.4315992276592
30
0
41
1
10
279.930382905483
20
-9.85914530190149
30
0
0
SPLINE
5
29A
100
AcDbEntity
8
1
62
256
6
ByLayer
370
18
48
1
60
0
100
AcDbSpline
70
4
71
1
72
4
73
2
40
0
40
0
40
1
40
1
41
1
10
278.357671578091
20
-17.5728417525442
30
0
41
1
10
278.802578065246
20
-18.3775283187277
30
0
0
SPLINE
5
29B
100
AcDbEntity
8
1
62
256
6
ByLayer
370
18
48
1
60
0
100
AcDbSpline
70
4
71
1
72
4
73
2
40
0
40
0
40
1
40
1
41
1
10
278.093562912682
20
-17.8658360642113
30
0
41
1
10
278.200063329253
20
-18.7670136499471
30
0
0
SPLINE
5
29C
100
AcDbEntity
8
1
62
256
6
ByLayer
370
18
48
1
60
0
100
AcDbSpline
70
4
71
1
72
4
73
2
40
0
40
0
40
1
40
1
41
1
10
279.82455311507
20
-8.11707466842427
30
0
41
1
10
278.566951992562
20
-0.221518742924445
30
0
0
SPLINE
5
29D
100
AcDbEntity
8
1
62
256
6
ByLayer
370
18
48
1
60
0
100
AcDbSpline
70
4
71
1
72
4
73
2
40
0
40
0
40
1
40
1
41
1
10
279.971827802725
20
-9.54610930825893
30
0
41
1
10
279.993155758075
20
-9.3850178798898
30
0
0
SPLINE
5
29E
100
AcDbEntity
8
1
62
256
6
ByLayer
370
18
48
1
60
0
100
AcDbSpline
70
4
71
3
72
8
73
4
40
0
40
0
40
0
40
0
40
1
40
1
40
1
40
1
41
1
10
278.545810676796
20
-0.126692381504967
30
0
41
1
10
278.554801985051
20
-0.157872571809293
30
0
41
1
10
278.561849090306
20
-0.189481358949109
30
0
41
1
10
278.566951992562
20
-0.221518742924474
30
0
0
SPLINE
5
29F
100
AcDbEntity
8
1
62
256
6
ByLayer
370
18
48
1
60
0
100
AcDbSpline
70
4
71
1
72
4
73
2
40
0
40
0
40
1
40
1
41
1
10
278.104701016632
20
-18.7880361481525
30
0
41
1
10
277.998200600061
20
-17.8868585624181
30
0
0
SPLINE
5
2A0
100
AcDbEntity
8
1
62
256
6
ByLayer
370
18
48
1
60
0
100
AcDbSpline
70
4
71
2
72
12
73
9
40
0
40
0
40
0
40
0.25
40
0.5
40
0.5
40
0.75
40
0.75
40
0.875
40
1
40
1
40
1
41
1
10
278.107138951125
20
-17.8619650763523
30
0
41
1
10
278.155623071276
20
-17.8481406134035
30
0
41
1
10
278.241353049891
20
-17.7940344396588
30
0
41
1
10
278.275618576763
20
-17.754821130299
30
0
41
1
10
278.308388915868
20
-17.7173189068561
30
0
41
1
10
278.329955610029
20
-17.6699754863895
30
0
41
1
10
278.339971554232
20
-17.647988386548
30
0
41
1
10
278.354254536055
20
-17.5986508923794
30
0
41
1
10
278.357671578091
20
-17.5728417525448
30
0
0
SPLINE
5
2A1
100
AcDbEntity
8
1
62
256
6
ByLayer
370
18
48
1
60
0
100
AcDbSpline
70
4
71
1
72
4
73
2
40
0
40
0
40
1
40
1
41
1
10
278.154124004952
20
0.472436126550974
30
0
41
1
10
277.683913149621
20
0.533992647390846
30
0
0
SPLINE
5
2A2
100
AcDbEntity
8
1
62
256
6
ByLayer
370
18
48
1
60
0
100
AcDbSpline
70
4
71
3
72
12
73
8
40
0
40
0
40
0
40
0
40
0.250320940065029
40
0.250320940065029
40
0.50064218089187
40
0.50064218089187
40
1
40
1
40
1
40
1
41
1
10
278.104701016632
20
-18.7880784729776
30
0
41
1
10
278.112756568426
20
-18.7868094687184
30
0
41
1
10
278.120793615883
20
-18.7854182544779
30
0
41
1
10
278.136819285037
20
-18.7823923240541
30
0
41
1
10
278.144809777523
20
-18.7807572537867
30
0
41
1
10
278.168650849023
20
-18.7754988917755
30
0
41
1
10
278.184428971311
20
-18.7715119334938
30
0
41
1
10
278.200063329253
20
-18.76705389443
30
0
0
SPLINE
5
2A3
100
AcDbEntity
8
1
62
256
6
ByLayer
370
18
48
1
60
0
100
AcDbSpline
70
4
71
1
72
4
73
2
40
0
40
0
40
1
40
1
41
1
10
279.964700644903
20
-8.9969583134143
30
0
41
1
10
279.915156809879
20
-8.68590887715607
30
0
0
SPLINE
5
2A4
100
AcDbEntity
8
1
62
256
6
ByLayer
370
18
48
1
60
0
100
AcDbSpline
70
4
71
3
72
8
73
4
40
0
40
0
40
0
40
0
40
1
40
1
40
1
40
1
41
1
10
279.999933060269
20
-9.27077094169675
30
0
41
1
10
280.000436224147
20
-9.30899161461599
30
0
41
1
10
279.998063746236
20
-9.34709051813439
30
0
41
1
10
279.994132053515
20
-9.38511769765063
30
0
0
SPLINE
5
2A5
100
AcDbEntity
8
1
62
256
6
ByLayer
370
18
48
1
60
0
100
AcDbSpline
70
4
71
1
72
4
73
2
40
0
40
0
40
1
40
1
41
1
10
279.930382905483
20
-9.85914530190149
30
0
41
1
10
279.971827802725
20
-9.54610930825893
30
0
0
SPLINE
5
2A6
100
AcDbEntity
8
1
62
256
6
ByLayer
370
18
48
1
60
0
100
AcDbSpline
70
4
71
2
72
7
73
4
40
0
40
0
40
0
40
0.5
40
1
40
1
40
1
41
1
10
279.496924283891
20
-8.9679922655412
30
0
41
1
10
279.50441642359
20
-8.91140364900022
30
0
41
1
10
279.502990374581
20
-8.79666604228584
30
0
41
1
10
279.493919067307
20
-8.73971395097291
30
0
0
SPLINE
5
2A7
100
AcDbEntity
8
1
62
256
6
ByLayer
370
18
48
1
60
0
100
AcDbSpline
70
4
71
1
72
4
73
2
40
0
40
0
40
1
40
1
41
1
10
278.566951992562
20
-0.221518742924275
30
0
41
1
10
278.086559657842
20
0.096064521096082
30
0
0
SPLINE
5
2A8
100
AcDbEntity
8
1
62
256
6
ByLayer
370
13
48
1
60
0
100
AcDbSpline
70
4
71
3
72
28
73
24
40
0
40
0
40
0
40
0
40
0.125000000000157
40
0.125000000000157
40
0.250000000000314
40
0.250000000000314
40
0.375000000000471
40
0.375000000000471
40
0.500000000000628
40
0.500000000000628
40
0.625000000000784
40
0.625000000000784
40
0.687500000000753
40
0.687500000000753
40
0.750000000000722
40
0.750000000000722
40
0.781250000000605
40
0.781250000000605
40
0.812500000000488
40
0.812500000000488
40
0.875000000000254
40
0.875000000000254
40
1
40
1
40
1
40
1
41
1
10
278.737304815314
20
10.427357258533
30
0
41
1
10
278.718607248923
20
10.4166095408451
30
0
41
1
10
278.698778985872
20
10.4060011190914
30
0
41
1
10
278.656248346212
20
10.3851383513909
30
0
41
1
10
278.6333492985
20
10.3748194630388
30
0
41
1
10
278.584848893955
20
10.3552591221898
30
0
41
1
10
278.559217785608
20
10.3459602800588
30
0
41
1
10
278.504192918091
20
10.328674104479
30
0
41
1
10
278.47516466466
20
10.3208815695462
30
0
41
1
10
278.415790725441
20
10.3081580748852
30
0
41
1
10
278.385541022071
20
10.3032568483692
30
0
41
1
10
278.342051050464
20
10.2986557256638
30
0
41
1
10
278.327691665572
20
10.2975432809837
30
0
41
1
10
278.299502478505
20
10.2957633341674
30
0
41
1
10
278.285546434425
20
10.2950113865882
30
0
41
1
10
278.265021582167
20
10.2942911325252
30
0
41
1
10
278.258147997225
20
10.29401920113
30
0
41
1
10
278.243814828188
20
10.2928915538765
30
0
41
1
10
278.236398516223
20
10.292077222615
30
0
41
1
10
278.213887857707
20
10.2893641378956
30
0
41
1
10
278.199078594614
20
10.2877565301802
30
0
41
1
10
278.15593917476
20
10.2842433894806
30
0
41
1
10
278.127396658903
20
10.2821219844249
30
0
41
1
10
278.099151700739
20
10.2803030594538
30
0
0
SPLINE
5
2A9
100
AcDbEntity
8
1
62
256
6
ByLayer
370
13
48
1
60
0
100
AcDbSpline
70
4
71
3
72
8
73
4
40
0
40
0
40
0
40
0
40
1
40
1
40
1
40
1
41
1
10
278.099151700739
20
10.2803030594538
30
0
41
1
10
278.007159633022
20
10.2743789342297
30
0
41
1
10
277.918638184616
20
10.2721891078708
30
0
41
1
10
277.832443851761
20
10.2717954158481
30
0
0
SPLINE
5
2AA
100
AcDbEntity
8
1
62
256
6
ByLayer
370
13
48
1
60
0
100
AcDbSpline
70
4
71
1
72
4
73
2
40
0
40
0
40
1
40
1
41
1
10
257.91753433748
20
19.0460552746153
30
0
41
1
10
257.861536318056
20
19.0427752355003
30
0
0
SPLINE
5
2AB
100
AcDbEntity
8
1
62
256
6
ByLayer
370
13
48
1
60
0
100
AcDbSpline
70
4
71
3
72
8
73
4
40
0
40
0
40
0
40
0
40
1
40
1
40
1
40
1
41
1
10
277.005734699259
20
29.941339387914
30
0
41
1
10
277.065827711855
20
29.9539069088472
30
0
41
1
10
277.125855029528
20
29.9664584010021
30
0
41
1
10
277.185987370756
20
29.9790355095211
30
0
0
SPLINE
5
2AC
100
AcDbEntity
8
1
62
256
6
ByLayer
370
13
48
1
60
0
100
AcDbSpline
70
4
71
3
72
20
73
16
40
0
40
0
40
0
40
0
40
0.0624999999999152
40
0.0624999999999152
40
0.12499999999983
40
0.12499999999983
40
0.14062499999982
40
0.14062499999982
40
0.15624999999981
40
0.15624999999981
40
0.187499999999812
40
0.187499999999812
40
0.249999999999839
40
0.4999999999999
40
1
40
1
40
1
40
1
41
1
10
275.964862827604
20
28.3588720630468
30
0
41
1
10
275.834463352079
20
28.2716642629581
30
0
41
1
10
275.69686612049
20
28.2004778701979
30
0
41
1
10
275.407825414908
20
28.088925285794
30
0
41
1
10
275.254697804373
20
28.0486139264514
30
0
41
1
10
275.063624159501
20
28.0204411270249
30
0
41
1
10
275.02533989496
20
28.0158583381828
30
0
41
1
10
274.948628921196
20
28.0088473296519
30
0
41
1
10
274.910183931517
20
28.0066956138476
30
0
41
1
10
274.794816340403
20
28.0007338967555
30
0
41
1
10
274.717910958459
20
27.9966634393865
30
0
41
1
10
274.487186903101
20
27.984571704018
30
0
41
1
10
273.718106718574
20
27.9442659194564
30
0
41
1
10
271.718498238793
20
27.8394708795955
30
0
41
1
10
269.872705795965
20
27.7427369966495
30
0
41
1
10
268.642177500723
20
27.6782477413509
30
0
0
SPLINE
5
2AD
100
AcDbEntity
8
1
62
256
6
ByLayer
370
13
48
1
60
0
100
AcDbSpline
70
4
71
3
72
20
73
16
40
0
40
0
40
0
40
0
40
0.499999999999963
40
0.499999999999963
40
0.749999999999957
40
0.749999999999957
40
0.874999999999954
40
0.874999999999954
40
0.906249999999941
40
0.906249999999941
40
0.921874999999947
40
0.921874999999947
40
0.937499999999953
40
0.937499999999953
40
1
40
1
40
1
40
1
41
1
10
269.493160149233
20
11.4405315062414
30
0
41
1
10
270.615603445394
20
11.4993562667643
30
0
41
1
10
271.738047025903
20
11.5581761922586
30
0
41
1
10
273.421711932074
20
11.6464130954268
30
0
41
1
10
273.982932668475
20
11.675837085466
30
0
41
1
10
274.82476512028
20
11.7199555536943
30
0
41
1
10
275.105377615094
20
11.7346398976989
30
0
41
1
10
275.456140410853
20
11.7530320302636
30
0
41
1
10
275.526292381025
20
11.7567181149014
30
0
41
1
10
275.631521118733
20
11.7622370681665
30
0
41
1
10
275.666598355189
20
11.7640638397225
30
0
41
1
10
275.736751727643
20
11.7677316913735
30
0
41
1
10
275.77180759923
20
11.7698362568607
30
0
41
1
10
275.947519358175
20
11.7747368463203
30
0
41
1
10
276.089149408238
20
11.7648664463508
30
0
41
1
10
276.23195926514
20
11.7396557612801
30
0
0
SPLINE
5
2AE
100
AcDbEntity
8
1
62
256
6
ByLayer
370
13
48
1
60
0
100
AcDbSpline
70
4
71
2
72
6
73
3
40
0
40
0
40
0
40
1
40
1
40
1
41
1
10
258.185408335082
20
18.9203882383902
30
0
41
0.997409491337352
10
258.184643084332
20
18.9780783527871
30
0
41
1
10
258.19212727077
20
19.0352779003889
30
0
0
SPLINE
5
2AF
100
AcDbEntity
8
1
62
256
6
ByLayer
370
13
48
1
60
0
100
AcDbSpline
70
4
71
1
72
4
73
2
40
0
40
0
40
1
40
1
41
1
10
257.837431349627
20
19.1497805503509
30
0
41
1
10
257.915426832951
20
19.1525881644527
30
0
0
SPLINE
5
2B0
100
AcDbEntity
8
1
62
256
6
ByLayer
370
13
48
1
60
0
100
AcDbSpline
70
4
71
3
72
10
73
6
40
0
40
0
40
0
40
0
40
0.5
40
0.5
40
1
40
1
40
1
40
1
41
1
10
261.878223886348
20
10.5009384230024
30
0
41
1
10
261.87447634121
20
10.5007420224839
30
0
41
1
10
261.857399510896
20
10.5105330539865
30
0
41
1
10
261.80691688065
20
10.5435050608145
30
0
41
1
10
261.773471540529
20
10.5666520435267
30
0
41
1
10
261.741532311568
20
10.5895245084304
30
0
0
SPLINE
5
2B1
100
AcDbEntity
8
1
62
256
6
ByLayer
370
13
48
1
60
0
100
AcDbSpline
70
4
71
2
72
6
73
3
40
0
40
0
40
0
40
1
40
1
40
1
41
1
10
257.931178388186
20
19.0107721348218
30
0
41
0.999139328225411
10
257.928880286603
20
18.9932083859813
30
0
41
0.99885055641337
10
257.927420910473
20
18.9755539699344
30
0
0
SPLINE
5
2B2
100
AcDbEntity
8
1
62
256
6
ByLayer
370
13
48
1
60
0
100
AcDbSpline
70
4
71
1
72
4
73
2
40
0
40
0
40
1
40
1
41
1
10
257.851138158451
20
18.9341303172485
30
0
41
1
10
257.92565030073
20
18.9401759521967
30
0
0
SPLINE
5
2B3
100
AcDbEntity
8
1
62
256
6
ByLayer
370
13
48
1
60
0
100
AcDbSpline
70
4
71
3
72
20
73
16
40
0
40
0
40
0
40
0
40
0.124999999999987
40
0.124999999999987
40
0.249999999999974
40
0.249999999999974
40
0.374999999999961
40
0.374999999999961
40
0.499999999999948
40
0.499999999999948
40
0.624999999999935
40
0.624999999999935
40
0.749999999999922
40
0.749999999999922
40
1
40
1
40
1
40
1
41
1
10
259.615430367333
20
9.81170049563369
30
0
41
1
10
259.625293573939
20
9.74455778539064
30
0
41
1
10
259.643746437041
20
9.68041381999547
30
0
41
1
10
259.69631878688
20
9.55759528218158
30
0
41
1
10
259.731061374144
20
9.49869894278706
30
0
41
1
10
259.814026867597
20
9.39190733886437
30
0
41
1
10
259.86170650005
20
9.34450678589897
30
0
41
1
10
259.967483604304
20
9.26300216244923
30
0
41
1
10
260.026379822808
20
9.22842746730751
30
0
41
1
10
260.148865592668
20
9.17585610109646
30
0
41
1
10
260.213831321859
20
9.15713341413465
30
0
41
1
10
260.34621656849
20
9.13599198156589
30
0
41
1
10
260.412673453027
20
9.13594290438218
30
0
41
1
10
260.611958725927
20
9.13239621439803
30
0
41
1
10
260.744895589322
20
9.13321756725318
30
0
41
1
10
260.877903579957
20
9.13687087231202
30
0
0
SPLINE
5
2B4
100
AcDbEntity
8
1
62
256
6
ByLayer
370
13
48
1
60
0
100
AcDbSpline
70
4
71
3
72
12
73
8
40
0
40
0
40
0
40
0
40
0.479903613580676
40
0.479903613580676
40
0.959807227161351
40
0.959807227161351
40
1
40
1
40
1
40
1
41
1
10
277.832443851761
20
10.2717954158481
30
0
41
1
10
277.813777200487
20
10.2713392661592
30
0
41
1
10
277.795938379865
20
10.2715053433681
30
0
41
1
10
277.759962082444
20
10.2716130211485
30
0
41
1
10
277.741923558346
20
10.2716299791489
30
0
41
1
10
277.72239291463
20
10.2716620030861
30
0
41
1
10
277.720883659532
20
10.2716645237703
30
0
41
1
10
277.719374463147
20
10.271667087437
30
0
0
SPLINE
5
2B5
100
AcDbEntity
8
1
62
256
6
ByLayer
370
13
48
1
60
0
100
AcDbSpline
70
4
71
3
72
8
73
4
40
0
40
0
40
0
40
0
40
1
40
1
40
1
40
1
41
1
10
259.163226817673
20
28.7929745480456
30
0
41
1
10
259.243709352996
20
28.7971253963561
30
0
41
1
10
259.323177855134
20
28.7990667745969
30
0
41
1
10
259.4015222825
20
28.7997449522978
30
0
0
SPLINE
5
2B6
100
AcDbEntity
8
1
62
256
6
ByLayer
370
13
48
1
60
0
100
AcDbSpline
70
4
71
2
72
6
73
3
40
0
40
0
40
0
40
1
40
1
40
1
41
0.99885055641337
10
257.927420910473
20
18.9755539699344
30
0
41
0.998270163111941
10
257.924485202886
20
18.9400400252775
30
0
41
1
10
257.924957890198
20
18.9044054504953
30
0
0
SPLINE
5
2B7
100
AcDbEntity
8
1
62
256
6
ByLayer
370
13
48
1
60
0
100
AcDbSpline
70
4
71
3
72
10
73
6
40
0
40
0
40
0
40
0
40
0.5
40
0.5
40
1
40
1
40
1
40
1
41
1
10
276.247715829493
20
28.6173482997332
30
0
41
1
10
276.243968284355
20
28.6171518992148
30
0
41
1
10
276.253714624294
20
28.6069766929906
30
0
41
1
10
276.293829011785
20
28.5734613095848
30
0
41
1
10
276.324274372968
20
28.5501571046382
30
0
41
1
10
276.356213601929
20
28.5272846397349
30
0
0
SPLINE
5
2B8
100
AcDbEntity
8
1
62
256
6
ByLayer
370
13
48
1
60
0
100
AcDbSpline
70
4
71
3
72
8
73
4
40
0
40
0
40
0
40
0
40
1
40
1
40
1
40
1
41
1
10
259.448819731773
20
29.0212204634067
30
0
41
1
10
259.387742251336
20
29.0274377078855
30
0
41
1
10
259.326731781405
20
29.0336458783827
30
0
41
1
10
259.265614185608
20
29.039868546964
30
0
0
SPLINE
5
2B9
100
AcDbEntity
8
1
62
256
6
ByLayer
370
13
48
1
60
0
100
AcDbSpline
70
4
71
3
72
24
73
20
40
0
40
0
40
0
40
0
40
0.0436863032256781
40
0.0436863032256781
40
0.0873726064513563
40
0.0873726064513563
40
0.131058909677034
40
0.131058909677034
40
0.174745212902712
40
0.174745212902712
40
0.262117819354048
40
0.262117819354048
40
0.349490425805384
40
0.349490425805384
40
0.524235638708056
40
0.524235638708056
40
0.698980851610727
40
0.698980851610727
40
1
40
1
40
1
40
1
41
1
10
259.584703922022
20
9.81082101288115
30
0
41
1
10
259.587757145577
20
9.7937269176889
30
0
41
1
10
259.591459246259
20
9.77500757572489
30
0
41
1
10
259.59936712298
20
9.73823417933153
30
0
41
1
10
259.603414184373
20
9.7210524026311
30
0
41
1
10
259.610917662982
20
9.69135177483693
30
0
41
1
10
259.6144554486
20
9.6783880737664
30
0
41
1
10
259.621056989217
20
9.65530932291526
30
0
41
1
10
259.624168761083
20
9.64503060713145
30
0
41
1
10
259.633013083563
20
9.61693323385222
30
0
41
1
10
259.638309663915
20
9.60167253670815
30
0
41
1
10
259.64826481955
20
9.57477681299207
30
0
41
1
10
259.652877193456
20
9.56330738673691
30
0
41
1
10
259.666037778122
20
9.53256414261267
30
0
41
1
10
259.673878971834
20
9.51698598085511
30
0
41
1
10
259.688570704782
20
9.49090283969807
30
0
41
1
10
259.695386763898
20
9.48055488716568
30
0
41
1
10
259.712971947651
20
9.45732487755924
30
0
41
1
10
259.723031338217
20
9.44794131299057
30
0
41
1
10
259.732413692025
20
9.44190854140791
30
0
0
SPLINE
5
2BA
100
AcDbEntity
8
1
62
256
6
ByLayer
370
13
48
1
60
0
100
AcDbSpline
70
4
71
3
72
20
73
16
40
0
40
0
40
0
40
0
40
0.499999999999951
40
0.499999999999951
40
0.749999999999939
40
0.749999999999939
40
0.874999999999933
40
0.874999999999933
40
0.906249999999925
40
0.906249999999925
40
0.921874999999934
40
0.921874999999934
40
0.937499999999942
40
0.937499999999942
40
1
40
1
40
1
40
1
41
1
10
268.642177500722
20
27.678247741351
30
0
41
1
10
267.519734204561
20
27.619422980828
30
0
41
1
10
266.397290624052
20
27.5606030553337
30
0
41
1
10
264.713625717881
20
27.4723661521656
30
0
41
1
10
264.15240498148
20
27.4429421621264
30
0
41
1
10
263.310572529674
20
27.398823693898
30
0
41
1
10
263.02996003486
20
27.3841393498934
30
0
41
1
10
262.679197239101
20
27.3657472173287
30
0
41
1
10
262.609045268929
20
27.3620611326909
30
0
41
1
10
262.503816531221
20
27.3565421794258
30
0
41
1
10
262.468739294765
20
27.3547154078698
30
0
41
1
10
262.398585922311
20
27.3510475562188
30
0
41
1
10
262.363530050725
20
27.3489429907316
30
0
41
1
10
262.187818291779
20
27.344042401272
30
0
41
1
10
262.046188241718
20
27.3539128012415
30
0
41
1
10
261.903378384816
20
27.3791234863123
30
0
0
SPLINE
5
2BB
100
AcDbEntity
8
1
62
256
6
ByLayer
370
13
48
1
60
0
100
AcDbSpline
70
4
71
3
72
12
73
8
40
0
40
0
40
0
40
0
40
0.250000000000153
40
0.250000000000153
40
0.500000000000306
40
0.500000000000306
40
1
40
1
40
1
40
1
41
1
10
259.4015222825
20
28.7997449522978
30
0
41
1
10
259.421721186659
20
28.8002814039577
30
0
41
1
10
259.441368851602
20
28.8002101242628
30
0
41
1
10
259.480863054127
20
28.8002868120765
30
0
41
1
10
259.500644262184
20
28.8003611842723
30
0
41
1
10
259.559952954152
20
28.8005474006624
30
0
41
1
10
259.599467877658
20
28.8006459799746
30
0
41
1
10
259.638995237126
20
28.800757691083
30
0
0
SPLINE
5
2BC
100
AcDbEntity
8
1
62
256
6
ByLayer
370
13
48
1
60
0
100
AcDbSpline
70
4
71
1
72
4
73
2
40
0
40
0
40
1
40
1
41
1
10
258.19212727077
20
19.0352779003889
30
0
41
1
10
257.931178388186
20
19.0107721348218
30
0
0
SPLINE
5
2BD
100
AcDbEntity
8
1
62
256
6
ByLayer
370
13
48
1
60
0
100
AcDbSpline
70
4
71
2
72
6
73
3
40
0
40
0
40
0
40
1
40
1
40
1
41
0.998850556413359
10
257.927420910473
20
18.9755539699352
30
0
41
0.998270163111957
10
257.92078906694
20
19.0105665004843
30
0
41
1
10
257.91753433748
20
19.0460552746153
30
0
0
SPLINE
5
2BE
100
AcDbEntity
8
1
62
256
6
ByLayer
370
13
48
1
60
0
100
AcDbSpline
70
4
71
3
72
22
73
18
40
0
40
0
40
0
40
0
40
0.0625000000000479
40
0.0625000000000479
40
0.093750000000072
40
0.093750000000072
40
0.125000000000096
40
0.125000000000096
40
0.15625000000012
40
0.15625000000012
40
0.171875000000132
40
0.171875000000132
40
0.187500000000144
40
0.187500000000144
40
0.250000000000148
40
0.500000000000099
40
1
40
1
40
1
40
1
41
1
10
262.078865173501
20
10.9273809479692
30
0
41
1
10
262.211923485958
20
11.0163669095017
30
0
41
1
10
262.352090061535
20
11.0902588436897
30
0
41
1
10
262.572701324787
20
11.1790948507586
30
0
41
1
10
262.648347691613
20
11.2051272353529
30
0
41
1
10
262.801480822443
20
11.2490641619557
30
0
41
1
10
262.878371817326
20
11.2668194727569
30
0
41
1
10
263.032773034724
20
11.2942885916616
30
0
41
1
10
263.110276154019
20
11.3040946446147
30
0
41
1
10
263.227003657231
20
11.3126634656703
30
0
41
1
10
263.265994495995
20
11.3144591313484
30
0
41
1
10
263.343938854902
20
11.3185350951438
30
0
41
1
10
263.382910396916
20
11.3205813550574
30
0
41
1
10
263.577769582562
20
11.3307934922501
30
0
41
1
10
264.357206325148
20
11.3716420410206
30
0
41
1
10
266.383741855871
20
11.4778482678239
30
0
41
1
10
268.254390038076
20
11.5758847848731
30
0
41
1
10
269.501488826213
20
11.641242462906
30
0
0
SPLINE
5
2BF
100
AcDbEntity
8
1
62
256
6
ByLayer
370
13
48
1
60
0
100
AcDbSpline
70
4
71
3
72
22
73
18
40
0
40
0
40
0
40
0
40
0.062499999999964
40
0.062499999999964
40
0.093749999999946
40
0.093749999999946
40
0.124999999999928
40
0.124999999999928
40
0.15624999999991
40
0.15624999999991
40
0.171874999999901
40
0.171874999999901
40
0.187499999999892
40
0.187499999999892
40
0.2499999999999
40
0.499999999999934
40
1
40
1
40
1
40
1
41
1
10
276.094064212913
20
28.1933683990503
30
0
41
1
10
275.961005900456
20
28.1043824375179
30
0
41
1
10
275.820839324879
20
28.0304905033299
30
0
41
1
10
275.600228061627
20
27.941654496261
30
0
41
1
10
275.524581694801
20
27.9156221116667
30
0
41
1
10
275.371448563971
20
27.8716851850639
30
0
41
1
10
275.294557569087
20
27.8539298742628
30
0
41
1
10
275.14015635169
20
27.8264607553579
30
0
41
1
10
275.062653232395
20
27.8166547024049
30
0
41
1
10
274.945925729183
20
27.8080858813492
30
0
41
1
10
274.906934890418
20
27.8062902156712
30
0
41
1
10
274.828990531511
20
27.8022142518758
30
0
41
1
10
274.790018989498
20
27.8001679919621
30
0
41
1
10
274.595159803852
20
27.7899558547695
30
0
41
1
10
273.815723061266
20
27.749107305999
30
0
41
1
10
271.789187530543
20
27.6429010791956
30
0
41
1
10
269.918539348338
20
27.5448645621464
30
0
41
1
10
268.671440560201
20
27.4795068841136
30
0
0
SPLINE
5
2C0
100
AcDbEntity
8
1
62
256
6
ByLayer
370
13
48
1
60
0
100
AcDbSpline
70
4
71
2
72
6
73
3
40
0
40
0
40
0
40
1
40
1
40
1
41
1
10
258.185408335082
20
18.9203882383902
30
0
41
0.997409491337352
10
258.186173585833
20
18.8626981239924
30
0
41
1
10
258.195172435203
20
18.8057114681568
30
0
0
SPLINE
5
2C1
100
AcDbEntity
8
1
62
256
6
ByLayer
370
13
48
1
60
0
100
AcDbSpline
70
4
71
3
72
24
73
20
40
0
40
0
40
0
40
0
40
0.125
40
0.125
40
0.250000000000001
40
0.250000000000001
40
0.375000000000001
40
0.375000000000001
40
0.500000000000001
40
0.500000000000001
40
0.625000000000002
40
0.625000000000002
40
0.750000000000002
40
0.750000000000002
40
0.812500000000001
40
0.812500000000001
40
0.875000000000001
40
0.875000000000001
40
1
40
1
40
1
40
1
41
1
10
278.519907282623
20
29.3070787519587
30
0
41
1
10
278.511721551862
20
29.3628022271513
30
0
41
1
10
278.497654013588
20
29.4164722977654
30
0
41
1
10
278.458423222149
20
29.5199388012209
30
0
41
1
10
278.433179888662
20
29.5702484125252
30
0
41
1
10
278.37221624598
20
29.6643585571161
30
0
41
1
10
278.336632512928
20
29.7083693767425
30
0
41
1
10
278.258178011293
20
29.7869047616861
30
0
41
1
10
278.215132113953
20
29.8217155316594
30
0
41
1
10
278.121563263655
20
29.8826102472742
30
0
41
1
10
278.071591174817
20
29.908022384366
30
0
41
1
10
277.968456472256
20
29.9478150733758
30
0
41
1
10
277.914301168583
20
29.9625031496649
30
0
41
1
10
277.831909322839
20
29.9760851322906
30
0
41
1
10
277.804407766996
20
29.9791151155143
30
0
41
1
10
277.749337181474
20
29.9824885911752
30
0
41
1
10
277.721765925019
20
29.9827434238087
30
0
41
1
10
277.639074223894
20
29.9843865753305
30
0
41
1
10
277.583937737626
20
29.9851361931987
30
0
41
1
10
277.528786202938
20
29.9852866537064
30
0
0
SPLINE
5
2C2
100
AcDbEntity
8
1
62
256
6
ByLayer
370
13
48
1
60
0
100
AcDbSpline
70
4
71
3
72
9
73
5
40
0
40
0
40
0
40
0
40
0.806009473591512
40
1
40
1
40
1
40
1
41
1
10
259.194258582616
20
29.0352574611867
30
0
41
1
10
259.21341291418
20
29.0367361899678
30
0
41
1
10
259.237207570513
20
29.0381415591248
30
0
41
1
10
259.260998965793
20
29.0395870776598
30
0
41
1
10
259.265614185607
20
29.039868546964
30
0
0
SPLINE
5
2C3
100
AcDbEntity
8
1
62
256
6
ByLayer
370
13
48
1
60
0
100
AcDbSpline
70
4
71
1
72
4
73
2
40
0
40
0
40
1
40
1
41
1
10
259.194258582616
20
29.0352574611867
30
0
41
1
10
259.4015222825
20
28.7997449522978
30
0
0
SPLINE
5
2C4
100
AcDbEntity
8
1
62
256
6
ByLayer
370
13
48
1
60
0
100
AcDbSpline
70
4
71
2
72
6
73
3
40
0
40
0
40
0
40
1
40
1
40
1
41
1
10
279.949929314873
20
20.1983910092021
30
0
41
0.997409491337352
10
279.949164064123
20
20.2560811236
30
0
41
1
10
279.940165214752
20
20.3130677794356
30
0
0
SPLINE
5
2C5
100
AcDbEntity
8
1
62
256
6
ByLayer
370
13
48
1
60
0
100
AcDbSpline
70
4
71
3
72
18
73
14
40
0
40
0
40
0
40
0
40
0.500000000000037
40
0.500000000000037
40
0.750000000000043
40
0.750000000000043
40
0.875000000000046
40
0.875000000000046
40
0.906250000000034
40
0.906250000000034
40
0.937500000000023
40
0.937500000000023
40
1
40
1
40
1
40
1
41
1
10
268.6714405602
20
27.4795068841137
30
0
41
1
10
267.54122836596
20
27.4202749728949
30
0
41
1
10
266.411015942598
20
27.3610480945453
30
0
41
1
10
264.715697604798
20
27.2722001703787
30
0
41
1
10
264.15059199636
20
27.2425716494095
30
0
41
1
10
263.302932758198
20
27.198149410913
30
0
41
1
10
263.020378706321
20
27.1833661988189
30
0
41
1
10
262.667188009067
20
27.1648407080426
30
0
41
1
10
262.596550384052
20
27.1611228079927
30
0
41
1
10
262.455273268188
20
27.1537334397549
30
0
41
1
10
262.384674836654
20
27.1490401973243
30
0
41
1
10
262.172405900472
20
27.1467471931158
30
0
41
1
10
262.030381288655
20
27.1579595022244
30
0
41
1
10
261.887795752773
20
27.1831305871814
30
0
0
SPLINE
5
2C6
100
AcDbEntity
8
1
62
256
6
ByLayer
370
13
48
1
60
0
100
AcDbSpline
70
4
71
3
72
8
73
4
40
0
40
0
40
0
40
0
40
1
40
1
40
1
40
1
41
1
10
259.119253361424
20
29.0291459778149
30
0
41
1
10
259.14424185669
20
29.0312845837635
30
0
41
1
10
259.169243699504
20
29.0333209604818
30
0
41
1
10
259.194258582616
20
29.0352574611867
30
0
0
SPLINE
5
2C7
100
AcDbEntity
8
1
62
256
6
ByLayer
370
13
48
1
60
0
100
AcDbSpline
70
4
71
3
72
10
73
6
40
0
40
0
40
0
40
0
40
0.469672452884614
40
0.469672452884614
40
1
40
1
40
1
40
1
41
1
10
276.218170841786
20
28.529937053302
30
0
41
1
10
276.21820434607
20
28.529716401194
30
0
41
1
10
276.231024251568
20
28.5293221236407
30
0
41
1
10
276.279055682205
20
28.5283452688531
30
0
41
1
10
276.316989071679
20
28.527754343739
30
0
41
1
10
276.356213601929
20
28.5272846397349
30
0
0
SPLINE
5
2C8
100
AcDbEntity
8
1
62
256
6
ByLayer
370
13
48
1
60
0
100
AcDbSpline
70
4
71
1
72
4
73
2
40
0
40
0
40
1
40
1
41
1
10
258.195172435203
20
18.8057114681568
30
0
41
1
10
257.933997650062
20
18.7982358647654
30
0
0
SPLINE
5
2C9
100
AcDbEntity
8
1
62
256
6
ByLayer
370
13
48
1
60
0
100
AcDbSpline
70
4
71
3
72
9
73
5
40
0
40
0
40
0
40
0
40
0.806009473591878
40
1
40
1
40
1
40
1
41
1
10
277.257434069999
20
29.9819083752804
30
0
41
1
10
277.238230098619
20
29.9813768305871
30
0
41
1
10
277.214418890825
20
29.9802872821244
30
0
41
1
10
277.190606729467
20
29.97923800397
30
0
41
1
10
277.185987370756
20
29.9790355095211
30
0
0
SPLINE
5
2CA
100
AcDbEntity
8
1
62
256
6
ByLayer
370
13
48
1
60
0
100
AcDbSpline
70
4
71
3
72
20
73
16
40
0
40
0
40
0
40
0
40
0.06250000000003
40
0.06250000000003
40
0.12500000000006
40
0.12500000000006
40
0.140625000000057
40
0.140625000000057
40
0.156250000000053
40
0.156250000000053
40
0.187500000000046
40
0.187500000000046
40
0.250000000000032
40
0.500000000000021
40
1
40
1
40
1
40
1
41
1
10
262.170474822343
20
10.7599071845397
30
0
41
1
10
262.300874297867
20
10.8471149846287
30
0
41
1
10
262.438471529456
20
10.9183013773894
30
0
41
1
10
262.727512235035
20
11.0298539617946
30
0
41
1
10
262.880639845569
20
11.070165321138
30
0
41
1
10
263.07171349044
20
11.0983381205657
30
0
41
1
10
263.109997754981
20
11.102920909408
30
0
41
1
10
263.186708728745
20
11.1099319179394
30
0
41
1
10
263.225153718424
20
11.112083633744
30
0
41
1
10
263.340521309537
20
11.1180453508361
30
0
41
1
10
263.417426691481
20
11.1221158082051
30
0
41
1
10
263.648150746838
20
11.1342075435735
30
0
41
1
10
264.417230931362
20
11.174513328135
30
0
41
1
10
266.416839411115
20
11.2793083679944
30
0
41
1
10
268.262631853995
20
11.3760422509431
30
0
41
1
10
269.493160149233
20
11.4405315062415
30
0
0
SPLINE
5
2CB
100
AcDbEntity
8
1
62
256
6
ByLayer
370
13
48
1
60
0
100
AcDbSpline
70
4
71
3
72
24
73
20
40
0
40
0
40
0
40
0
40
0.0612470952999581
40
0.0612470952999581
40
0.122494190599916
40
0.122494190599916
40
0.183741285899874
40
0.183741285899874
40
0.244988381199833
40
0.244988381199833
40
0.367482571799749
40
0.367482571799749
40
0.489976762399665
40
0.489976762399665
40
0.734965143599499
40
0.734965143599499
40
0.979953524799334
40
0.979953524799334
40
1
40
1
40
1
40
1
41
1
10
278.878628430143
20
10.8219727500065
30
0
41
1
10
278.877378751968
20
10.80465314929
30
0
41
1
10
278.875653635829
20
10.7856493789449
30
0
41
1
10
278.871632945899
20
10.7482508328633
30
0
41
1
10
278.869404039445
20
10.7307401466252
30
0
41
1
10
278.865046226659
20
10.7004178948892
30
0
41
1
10
278.862882897152
20
10.687155411036
30
0
41
1
10
278.858729906826
20
10.6635130391009
30
0
41
1
10
278.856709599937
20
10.6529653624663
30
0
41
1
10
278.850850702832
20
10.6240974261002
30
0
41
1
10
278.847178314922
20
10.6083666852472
30
0
41
1
10
278.84008906334
20
10.5805777019999
30
0
41
1
10
278.836700838001
20
10.5686889821052
30
0
41
1
10
278.82682589246
20
10.536738496998
30
0
41
1
10
278.820656014936
20
10.5204260461119
30
0
41
1
10
278.808771195501
20
10.4929500868633
30
0
41
1
10
278.803074131045
20
10.4819463493126
30
0
41
1
10
278.797089812659
20
10.4720361337217
30
0
41
1
10
278.796638316677
20
10.4712987301652
30
0
41
1
10
278.796187941809
20
10.4705732896391
30
0
0
SPLINE
5
2CC
100
AcDbEntity
8
1
62
256
6
ByLayer
370
13
48
1
60
0
100
AcDbSpline
70
4
71
3
72
10
73
6
40
0
40
0
40
0
40
0
40
0.121795174107804
40
0.121795174107804
40
1
40
1
40
1
40
1
41
1
10
278.770289539041
20
10.4396412285317
30
0
41
1
10
278.768888621854
20
10.4385172544967
30
0
41
1
10
278.767496080969
20
10.4374815148238
30
0
41
1
10
278.756125135291
20
10.4296336897592
30
0
41
1
10
278.746570804231
20
10.4270549680441
30
0
41
1
10
278.737304815314
20
10.4273572585331
30
0
0
SPLINE
5
2CD
100
AcDbEntity
8
1
62
256
6
ByLayer
370
13
48
1
60
0
100
AcDbSpline
70
4
71
3
72
14
73
10
40
0
40
0
40
0
40
0
40
0.0756915387057985
40
0.0756915387057985
40
0.483516253850349
40
0.483516253850349
40
0.8913409689949
40
0.8913409689949
40
1
40
1
40
1
40
1
41
1
10
278.629849285375
20
10.3094676771078
30
0
41
1
10
278.621288260396
20
10.3005063136048
30
0
41
1
10
278.612519004888
20
10.2917491378586
30
0
41
1
10
278.555208317596
20
10.2371435365975
30
0
41
1
10
278.500248778491
20
10.1966019140408
30
0
41
1
10
278.383929202616
20
10.131515289979
30
0
41
1
10
278.321276416183
20
10.1061044000178
30
0
41
1
10
278.239306278871
20
10.0840281197215
30
0
41
1
10
278.221964484136
20
10.0801245183627
30
0
41
1
10
278.204554507403
20
10.0767431248151
30
0
0
SPLINE
5
2CE
100
AcDbEntity
8
1
62
256
6
ByLayer
370
13
48
1
60
0
100
AcDbSpline
70
4
71
1
72
4
73
2
40
0
40
0
40
1
40
1
41
1
10
257.924957890198
20
18.9044054504953
30
0
41
1
10
258.185408335082
20
18.9203882383902
30
0
0
SPLINE
5
2CF
100
AcDbEntity
8
1
62
256
6
ByLayer
370
13
48
1
60
0
100
AcDbSpline
70
4
71
3
72
8
73
4
40
0
40
0
40
0
40
0
40
1
40
1
40
1
40
1
41
1
10
277.528786202938
20
29.9852866537064
30
0
41
1
10
277.438369970163
20
29.9855333208639
30
0
41
1
10
277.347918919547
20
29.9843937053498
30
0
41
1
10
277.257434069998
20
29.9819083752804
30
0
0
SPLINE
5
2D0
100
AcDbEntity
8
1
62
256
6
ByLayer
370
13
48
1
60
0
100
AcDbSpline
70
4
71
2
72
6
73
3
40
0
40
0
40
0
40
1
40
1
40
1
41
1
10
257.933997650062
20
18.7982358647654
30
0
41
0.997409491337352
10
257.925666371566
20
18.8509950210458
30
0
41
1
10
257.924957890198
20
18.9044054504953
30
0
0
SPLINE
5
2D1
100
AcDbEntity
8
1
62
256
6
ByLayer
370
13
48
1
60
0
100
AcDbSpline
70
4
71
2
72
6
73
3
40
0
40
0
40
0
40
1
40
1
40
1
41
1
10
279.949929314873
20
20.1983910092021
30
0
41
0.997409491337352
10
279.950694565623
20
20.1407008948053
30
0
41
1
10
279.943210379185
20
20.0835013472034
30
0
0
SPLINE
5
2D2
100
AcDbEntity
8
1
62
256
6
ByLayer
370
13
48
1
60
0
100
AcDbSpline
70
4
71
1
72
4
73
2
40
0
40
0
40
1
40
1
41
1
10
259.615430367333
20
9.81170049563369
30
0
41
1
10
259.584703922022
20
9.81082101288112
30
0
0
SPLINE
5
2D3
100
AcDbEntity
8
1
62
256
6
ByLayer
370
13
48
1
60
0
100
AcDbSpline
70
4
71
3
72
9
73
5
40
0
40
0
40
0
40
0
40
0.806009473590001
40
1
40
1
40
1
40
1
41
1
10
260.877903579957
20
9.13687087231199
30
0
41
1
10
260.897107551336
20
9.13740241700526
30
0
41
1
10
260.92091875913
20
9.13849196546803
30
0
41
1
10
260.944730920489
20
9.1395412436224
30
0
41
1
10
260.9493502792
20
9.1397437380713
30
0
0
SPLINE
5
2D4
100
AcDbEntity
8
1
62
256
6
ByLayer
370
13
48
1
60
0
100
AcDbSpline
70
4
71
1
72
4
73
2
40
0
40
0
40
1
40
1
41
1
10
259.638995237126
20
28.800757691083
30
0
41
1
10
259.448819731773
20
29.0212204634067
30
0
0
SPLINE
5
2D5
100
AcDbEntity
8
1
62
256
6
ByLayer
370
13
48
1
60
0
100
AcDbSpline
70
4
71
2
72
6
73
3
40
0
40
0
40
0
40
1
40
1
40
1
41
1
10
257.915426832951
20
19.1525881644527
30
0
41
0.997409491337352
10
257.912656027601
20
19.0992471726126
30
0
41
1
10
257.91753433748
20
19.0460552746153
30
0
0
SPLINE
5
2D6
100
AcDbEntity
8
1
62
256
6
ByLayer
370
13
48
1
60
0
100
AcDbSpline
70
4
71
3
72
18
73
14
40
0
40
0
40
0
40
0
40
0.500000000000024
40
0.500000000000024
40
0.750000000000024
40
0.750000000000024
40
0.875000000000037
40
0.875000000000037
40
0.906250000000028
40
0.906250000000028
40
0.937500000000018
40
0.937500000000018
40
1
40
1
40
1
40
1
41
1
10
269.501488826214
20
11.6412424629059
30
0
41
1
10
270.631701020454
20
11.7004743741246
30
0
41
1
10
271.761913443815
20
11.7597012524743
30
0
41
1
10
273.457231781616
20
11.8485491766409
30
0
41
1
10
274.022337390054
20
11.87817769761
30
0
41
1
10
274.869996628216
20
11.9225999361066
30
0
41
1
10
275.152550680093
20
11.9373831482007
30
0
41
1
10
275.505741377347
20
11.955908638977
30
0
41
1
10
275.576379002362
20
11.9596265390269
30
0
41
1
10
275.717656118226
20
11.9670159072646
30
0
41
1
10
275.78825454976
20
11.9717091496953
30
0
41
1
10
276.000523485942
20
11.9740021539038
30
0
41
1
10
276.142548097759
20
11.9627898447952
30
0
41
1
10
276.285133633641
20
11.9376187598382
30
0
0
SPLINE
5
2D7
100
AcDbEntity
8
1
62
256
6
ByLayer
370
13
48
1
60
0
100
AcDbSpline
70
4
71
3
72
10
73
6
40
0
40
0
40
0
40
0
40
0.5
40
0.5
40
1
40
1
40
1
40
1
41
1
10
261.907135535841
20
10.5882731043199
30
0
41
1
10
261.903386919157
20
10.5880766476441
30
0
41
1
10
261.883000894353
20
10.5881282494715
30
0
41
1
10
261.821690327672
20
10.5886211077011
30
0
41
1
10
261.780756841819
20
10.5890548044263
30
0
41
1
10
261.741532311568
20
10.5895245084303
30
0
0
SPLINE
5
2D8
100
AcDbEntity
8
SK1
62
256
6
ByLayer
370
13
48
1
60
0
100
AcDbSpline
70
4
71
3
72
22
73
18
40
0
40
0
40
0
40
0
40
0.250000000000013
40
0.250000000000013
40
0.375000000000011
40
0.375000000000011
40
0.500000000000009
40
0.500000000000009
40
0.625000000000006
40
0.625000000000006
40
0.687500000000005
40
0.687500000000005
40
0.750000000000004
40
0.750000000000004
40
0.875000000000002
40
0.875000000000002
40
1
40
1
40
1
40
1
41
1
10
-78.5162221138982
20
10.4258292340508
30
0
41
1
10
-78.4816010925007
20
10.3237518956136
30
0
41
1
10
-78.4411780188043
20
10.2239013321123
30
0
41
1
10
-78.3666785250411
20
10.0794467030181
30
0
41
1
10
-78.3393689035363
20
10.0320610579929
30
0
41
1
10
-78.2793566754053
20
9.94200016242738
30
0
41
1
10
-78.2466129799402
20
9.89906478118272
30
0
41
1
10
-78.1725895963645
20
9.81972659981167
30
0
41
1
10
-78.1310790894698
20
9.78319125007499
30
0
41
1
10
-78.0614135112523
20
9.74017151629326
30
0
41
1
10
-78.0367084860757
20
9.72773410304424
30
0
41
1
10
-77.9859900462305
20
9.70877612675764
30
0
41
1
10
-77.9597650984162
20
9.70209114959093
30
0
41
1
10
-77.8779326920127
20
9.69222679373803
30
0
41
1
10
-77.8229289559465
20
9.7004005561752
30
0
41
1
10
-77.720518632779
20
9.74066343125068
30
0
41
1
10
-77.6749703009745
20
9.77110884838677
30
0
41
1
10
-77.6338131992791
20
9.80675144594503
30
0
0
SPLINE
5
2D9
100
AcDbEntity
8
SK1
62
256
6
ByLayer
370
13
48
1
60
0
100
AcDbSpline
70
4
71
3
72
8
73
4
40
0
40
0
40
0
40
0
40
1
40
1
40
1
40
1
41
1
10
-78.5999993841624
20
10.6704826507521
30
0
41
1
10
-78.571842816211
20
10.5890315497
30
0
41
1
10
-78.5439155289718
20
10.5074810741399
30
0
41
1
10
-78.5162221138982
20
10.4258292340508
30
0
0
SPLINE
5
2DA
100
AcDbEntity
8
SK1
62
256
6
ByLayer
370
13
48
1
60
0
100
AcDbSpline
70
4
71
3
72
8
73
4
40
0
40
0
40
0
40
0
40
1
40
1
40
1
40
1
41
1
10
-78.5162221138915
20
-10.4258292340309
30
0
41
1
10
-78.5439104435588
20
-10.5074660802026
30
0
41
1
10
-78.5718376779285
20
-10.5890166857158
30
0
41
1
10
-78.5999993841625
20
-10.6704826507519
30
0
0
SPLINE
5
2DB
100
AcDbEntity
8
SK1
62
256
6
ByLayer
370
13
48
1
60
0
100
AcDbSpline
70
4
71
3
72
8
73
4
40
0
40
0
40
0
40
0
40
1
40
1
40
1
40
1
41
1
10
-76.6000022063887
20
-10.6704826507519
30
0
41
1
10
-76.9486457469478
20
-10.3889796865166
30
0
41
1
10
-77.2935001928291
20
-10.1014670365259
30
0
41
1
10
-77.6338131992803
20
-9.80675144594593
30
0
0
SPLINE
5
2DC
100
AcDbEntity
8
SK1
62
256
6
ByLayer
370
13
48
1
60
0
100
AcDbSpline
70
4
71
3
72
8
73
4
40
0
40
0
40
0
40
0
40
1
40
1
40
1
40
1
41
1
10
-77.6338131992799
20
9.80675144594619
30
0
41
1
10
-77.2939543866941
20
10.101073698597
30
0
41
1
10
-76.9490850005699
20
10.3886250228495
30
0
41
1
10
-76.6000022063887
20
10.6704826507521
30
0
0
SPLINE
5
2DD
100
AcDbEntity
8
1
62
256
6
ByLayer
370
13
48
1
60
0
100
AcDbSpline
70
4
71
3
72
10
73
6
40
0
40
0
40
0
40
0
40
0.482111829129015
40
0.482111829129015
40
1
40
1
40
1
40
1
41
1
10
35.45
20
-28.4529692584996
30
0
41
1
10
35.45
20
-26.5167205433014
30
0
41
1
10
35.45
20
-24.5804718324566
30
0
41
1
10
35.45
20
-20.5642901303986
30
0
41
1
10
35.45
20
-18.4843571398549
30
0
41
1
10
35.45
20
-16.4044241543287
30
0
0
SPLINE
5
2DE
100
AcDbEntity
8
1
62
256
6
ByLayer
370
13
48
1
60
0
100
AcDbSpline
70
4
71
3
72
8
73
4
40
0
40
0
40
0
40
0
40
1
40
1
40
1
40
1
41
1
10
253.539169144042
20
28.7530005133329
30
0
41
1
10
254.539103982505
20
28.8648123474705
30
0
41
1
10
255.539105061016
20
28.9760304695933
30
0
41
1
10
256.539169144042
20
29.0866748423296
30
0
0
SPLINE
5
2DF
100
AcDbEntity
8
1
62
256
6
ByLayer
370
13
48
1
60
0
100
AcDbSpline
70
4
71
1
72
4
73
2
40
0
40
0
40
1
40
1
41
1
10
35.009999998852
20
-28.4531317759675
30
0
41
1
10
35.010000001148
20
-28.4666724761025
30
0
0
SPLINE
5
2E0
100
AcDbEntity
8
1
62
256
6
ByLayer
370
13
48
1
60
0
100
AcDbSpline
70
4
71
3
72
10
73
6
40
0
40
0
40
0
40
0
40
0.5
40
0.5
40
1
40
1
40
1
40
1
41
1
10
256.200651379798
20
13.3044398110357
30
0
41
1
10
256.173457661804
20
13.4050790603591
30
0
41
1
10
256.139114575008
20
13.5033051759891
30
0
41
1
10
256.054948127637
20
13.6945323347587
30
0
41
1
10
256.004736337933
20
13.7880744188747
30
0
41
1
10
255.947127364979
20
13.8771661048278
30
0
0
SPLINE
5
2E1
100
AcDbEntity
8
1
62
256
6
ByLayer
370
13
48
1
60
0
100
AcDbSpline
70
4
71
3
72
8
73
4
40
0
40
0
40
0
40
0
40
1
40
1
40
1
40
1
41
1
10
35
20
-10.5322019037422
30
0
41
1
10
34.0467043165619
20
-10.5323566728122
30
0
41
1
10
33.0938473917678
20
-10.5330975338124
30
0
41
1
10
32.1414284892712
20
-10.5344243104658
30
0
0
SPLINE
5
2E2
100
AcDbEntity
8
1
62
256
6
ByLayer
370
13
48
1
60
0
100
AcDbSpline
70
4
71
3
72
8
73
4
40
0
40
0
40
0
40
0
40
1
40
1
40
1
40
1
41
1
10
245.867480536689
20
4.88151836563603
30
0
41
1
10
245.934732378
20
4.86240129794859
30
0
41
1
10
246.001941277006
20
4.84344402252475
30
0
41
1
10
246.069106530324
20
4.82464915671358
30
0
0
SPLINE
5
2E3
100
AcDbEntity
8
1
62
256
6
ByLayer
370
13
48
1
60
0
100
AcDbSpline
70
4
71
3
72
8
73
4
40
0
40
0
40
0
40
0
40
1
40
1
40
1
40
1
41
1
10
35.45
20
-28.4529691857645
30
0
41
1
10
35.3033333324719
20
-28.4530216417559
30
0
41
1
10
35.1566666657709
20
-28.4530758265359
30
0
41
1
10
35.01
20
-28.4531317759674
30
0
0
SPLINE
5
2E4
100
AcDbEntity
8
1
62
256
6
ByLayer
370
13
48
1
60
0
100
AcDbSpline
70
4
71
3
72
10
73
6
40
0
40
0
40
0
40
0
40
0.365985550489468
40
0.365985550489468
40
1
40
1
40
1
40
1
41
1
10
226.442954655571
20
13.1428219596347
30
0
41
1
10
228.836473080597
20
12.1878040609382
30
0
41
1
10
231.230174078479
20
11.2055749286702
30
0
41
1
10
237.777882292963
20
8.46054185817601
30
0
41
1
10
241.921649376232
20
6.65996378555283
30
0
41
1
10
246.069106530324
20
4.82464915671355
30
0
0
SPLINE
5
2E5
100
AcDbEntity
8
1
62
256
6
ByLayer
370
13
48
1
60
0
100
AcDbSpline
70
4
71
3
72
14
73
10
40
0
40
0
40
0
40
0
40
0.499999999999989
40
0.499999999999989
40
0.624999999999985
40
0.624999999999985
40
0.749999999999981
40
0.749999999999981
40
1
40
1
40
1
40
1
41
1
10
256.601869819814
20
11.2782096996478
30
0
41
1
10
256.616419749228
20
11.6271838007701
30
0
41
1
10
256.597866035168
20
11.9737869584576
30
0
41
1
10
256.518461845812
20
12.4030148960624
30
0
41
1
10
256.499641552602
20
12.4889594766851
30
0
41
1
10
256.456103575768
20
12.6588126058614
30
0
41
1
10
256.431455768656
20
12.7425428427604
30
0
41
1
10
256.348508888394
20
12.9899920579491
30
0
41
1
10
256.281245857834
20
13.1499859560614
30
0
41
1
10
256.200651379799
20
13.3044398110357
30
0
0
SPLINE
5
2E6
100
AcDbEntity
8
1
62
256
6
ByLayer
370
13
48
1
60
0
100
AcDbSpline
70
4
71
3
72
15
73
11
40
0
40
0
40
0
40
0
40
0.500000000000001
40
0.500000000000001
40
0.750000000000001
40
0.750000000000001
40
0.812500000000001
40
0.812500000000001
40
0.875000000000001
40
1
40
1
40
1
40
1
41
1
10
16.5477615047025
20
-30.3599783955509
30
0
41
1
10
18.5387191512398
20
-30.2171035874298
30
0
41
1
10
20.5273258506652
20
-30.0538617180598
30
0
41
1
10
23.5066764570198
20
-29.7781622402138
30
0
41
1
10
24.4991625450867
20
-29.6811252770198
30
0
41
1
10
25.739125297994
20
-29.5533495896291
30
0
41
1
10
25.9871354929355
20
-29.5280349784221
30
0
41
1
10
26.4833535273101
20
-29.4801000272834
30
0
41
1
10
27.2279039203254
20
-29.4112421704411
30
0
41
1
10
27.9731247832951
20
-29.3515240974902
30
0
41
1
10
28.4702372054169
20
-29.3157813567124
30
0
0
SPLINE
5
2E7
100
AcDbEntity
8
1
62
256
6
ByLayer
370
13
48
1
60
0
100
AcDbSpline
70
4
71
3
72
8
73
4
40
0
40
0
40
0
40
0
40
1
40
1
40
1
40
1
41
1
10
254.520499682567
20
2.4488437049306
30
0
41
1
10
254.816277116451
20
2.37432405135115
30
0
41
1
10
255.113497490715
20
2.30995506515902
30
0
41
1
10
255.411978808175
20
2.25542074552871
30
0
0
SPLINE
5
2E8
100
AcDbEntity
8
1
62
256
6
ByLayer
370
13
48
1
60
0
100
AcDbSpline
70
4
71
3
72
8
73
4
40
0
40
0
40
0
40
0
40
1
40
1
40
1
40
1
41
1
10
277.684032732078
20
0.529249199853979
30
0
41
1
10
277.682118008476
20
0.58282717154276
30
0
41
1
10
277.681852173539
20
0.636269375388792
30
0
41
1
10
277.68313431177
20
0.685560049361186
30
0
0
SPLINE
5
2E9
100
AcDbEntity
8
1
62
256
6
ByLayer
370
13
48
1
60
0
100
AcDbSpline
70
4
71
3
72
14
73
10
40
0
40
0
40
0
40
0
40
0.500000000000001
40
0.500000000000001
40
0.625
40
0.625
40
0.749999999999999
40
0.749999999999999
40
1
40
1
40
1
40
1
41
1
10
28.4670333994745
20
-11.2328717255211
30
0
41
1
10
29.0461957910239
20
-11.0054043754574
30
0
41
1
10
29.6447468240021
20
-10.8316195392834
30
0
41
1
10
30.4177289257249
20
-10.6839925449872
30
0
41
1
10
30.5736863397634
20
-10.6579761539782
30
0
41
1
10
30.8855979092665
20
-10.6134379418434
30
0
41
1
10
31.0418573293078
20
-10.5948506939474
30
0
41
1
10
31.5115431153095
20
-10.5500801811053
30
0
41
1
10
31.8258751615248
20
-10.534863895177
30
0
41
1
10
32.1414284892712
20
-10.5344243104658
30
0
0
SPLINE
5
2EA
100
AcDbEntity
8
1
62
256
6
ByLayer
370
13
48
1
60
0
100
AcDbSpline
70
4
71
3
72
8
73
4
40
0
40
0
40
0
40
0
40
1
40
1
40
1
40
1
41
1
10
254.146549820721
20
2.55515526837968
30
0
41
1
10
254.270280144626
20
2.51818472139922
30
0
41
1
10
254.394582620229
20
2.48282536056311
30
0
41
1
10
254.519475056341
20
2.44912018384011
30
0
0
SPLINE
5
2EB
100
AcDbEntity
8
1
62
256
6
ByLayer
370
13
48
1
60
0
100
AcDbSpline
70
4
71
3
72
10
73
6
40
0
40
0
40
0
40
0
40
0.831982487578707
40
0.831982487578707
40
1
40
1
40
1
40
1
41
1
10
258.461358086286
20
21.4944475686786
30
0
41
1
10
258.425887053883
20
21.4473125260936
30
0
41
1
10
258.395054038124
20
21.4021362268133
30
0
41
1
10
258.367673478873
20
21.3570397397767
30
0
41
1
10
258.363434019059
20
21.3498225881017
30
0
41
1
10
258.35965057321
20
21.3431225338728
30
0
0
SPLINE
5
2EC
100
AcDbEntity
8
1
62
256
6
ByLayer
370
13
48
1
60
0
100
AcDbSpline
70
4
71
3
72
14
73
10
40
0
40
0
40
0
40
0
40
0.499999999999955
40
0.499999999999955
40
0.749999999999954
40
0.749999999999954
40
0.874999999999977
40
0.874999999999977
40
1
40
1
40
1
40
1
41
1
10
251.270749932567
20
2.50960283056202
30
0
41
1
10
251.75146280116
20
2.39863374898906
30
0
41
1
10
252.234773538311
20
2.34716281246594
30
0
41
1
10
252.95847967539
20
2.35806543231925
30
0
41
1
10
253.199489954967
20
2.37648490623201
30
0
41
1
10
253.559790439757
20
2.42703540659323
30
0
41
1
10
253.679245988155
20
2.44766994817496
30
0
41
1
10
253.914936799821
20
2.49605855298896
30
0
41
1
10
254.031444777777
20
2.52384909878745
30
0
41
1
10
254.146549820721
20
2.55515526837968
30
0
0
SPLINE
5
2ED
100
AcDbEntity
8
1
62
256
6
ByLayer
370
13
48
1
60
0
100
AcDbSpline
70
4
71
3
72
14
73
10
40
0
40
0
40
0
40
0
40
0.25
40
0.25
40
0.5
40
0.5
40
0.75
40
0.75
40
1
40
1
40
1
40
1
41
1
10
262.863019877619
20
10.6720766807743
30
0
41
1
10
262.838189913335
20
10.6785854085784
30
0
41
1
10
262.811463401323
20
10.6859013255379
30
0
41
1
10
262.755744850538
20
10.6998009159486
30
0
41
1
10
262.726563757483
20
10.7064352212418
30
0
41
1
10
262.665085147169
20
10.7172433621673
30
0
41
1
10
262.633782163179
20
10.7212025439582
30
0
41
1
10
262.570407159337
20
10.7253288799992
30
0
41
1
10
262.537888888429
20
10.7254696950774
30
0
41
1
10
262.506226946961
20
10.7238103630374
30
0
0
SPLINE
5
2EE
100
AcDbEntity
8
1
62
256
6
ByLayer
370
13
48
1
60
0
100
AcDbSpline
70
4
71
3
72
54
73
50
40
0
40
0
40
0
40
0
40
0.0312499999999992
40
0.0312499999999992
40
0.0624999999999984
40
0.0624999999999984
40
0.0937499999999976
40
0.0937499999999976
40
0.124999999999997
40
0.124999999999997
40
0.156249999999996
40
0.156249999999996
40
0.164062499999996
40
0.164062499999996
40
0.171874999999996
40
0.171874999999996
40
0.187499999999996
40
0.187499999999996
40
0.203124999999996
40
0.203124999999996
40
0.218749999999996
40
0.218749999999996
40
0.249999999999996
40
0.249999999999996
40
0.281249999999996
40
0.281249999999996
40
0.312499999999995
40
0.312499999999995
40
0.374999999999995
40
0.374999999999995
40
0.437499999999995
40
0.437499999999995
40
0.468749999999995
40
0.468749999999995
40
0.499999999999995
40
0.499999999999995
40
0.624999999999995
40
0.624999999999995
40
0.687499999999995
40
0.687499999999995
40
0.749999999999995
40
0.749999999999995
40
0.781249999999996
40
0.781249999999996
40
0.812499999999996
40
0.812499999999996
40
0.874999999999997
40
0.874999999999997
40
1
40
1
40
1
40
1
41
1
10
238.736171231953
20
-28.7987344784807
30
0
41
1
10
237.583820221808
20
-28.7853441591016
30
0
41
1
10
236.42996023663
20
-28.7725733422554
30
0
41
1
10
234.121982119918
20
-28.7460409093055
30
0
41
1
10
232.967773960787
20
-28.7323954373272
30
0
41
1
10
230.662759415475
20
-28.6994804171529
30
0
41
1
10
229.511332539892
20
-28.6801886854979
30
0
41
1
10
227.23059626445
20
-28.628849712275
30
0
41
1
10
226.09998179102
20
-28.5969950673544
30
0
41
1
10
223.870388415099
20
-28.508631351247
30
0
41
1
10
222.771386142534
20
-28.4523454389112
30
0
41
1
10
221.426515511715
20
-28.3527873624859
30
0
41
1
10
221.158981632352
20
-28.3313873768501
30
0
41
1
10
220.62698584705
20
-28.2851493802416
30
0
41
1
10
220.362717611317
20
-28.2601483366829
30
0
41
1
10
219.570057572627
20
-28.1829001812114
30
0
41
1
10
219.040913933469
20
-28.1292112347549
30
0
41
1
10
217.983832760207
20
-28.0153780461388
30
0
41
1
10
217.455416044822
20
-27.9555662915951
30
0
41
1
10
216.398235945486
20
-27.8308311860439
30
0
41
1
10
215.869626460953
20
-27.7658481491723
30
0
41
1
10
214.283763090753
20
-27.56309923521
30
0
41
1
10
213.226428556318
20
-27.4175779409033
30
0
41
1
10
211.112165828604
20
-27.1055465664342
30
0
41
1
10
210.055259956195
20
-26.939021812296
30
0
41
1
10
207.942637242766
20
-26.5841354189321
30
0
41
1
10
206.887150897866
20
-26.3955357619543
30
0
41
1
10
203.720882987497
20
-25.79778625074
30
0
41
1
10
201.608604936468
20
-25.3567389831153
30
0
41
1
10
197.375082634073
20
-24.4138214218041
30
0
41
1
10
195.253188155767
20
-23.9117758403219
30
0
41
1
10
192.054098525493
20
-23.130858929712
30
0
41
1
10
190.985113428599
20
-22.8658464658972
30
0
41
1
10
188.840980127478
20
-22.3291405370519
30
0
41
1
10
187.76548362631
20
-22.0574024756693
30
0
41
1
10
182.376557370046
20
-20.6899809786336
30
0
41
1
10
178.026969075409
20
-19.5667348611911
30
0
41
1
10
171.419825177211
20
-17.9550509538838
30
0
41
1
10
169.2065499464
20
-17.4302964057833
30
0
41
1
10
164.760263905213
20
-16.4208011967675
30
0
41
1
10
162.526603798085
20
-15.936057746463
30
0
41
1
10
159.159142730898
20
-15.2488856945096
30
0
41
1
10
158.033534528594
20
-15.0262596169056
30
0
41
1
10
155.778697911452
20
-14.5947715564342
30
0
41
1
10
154.649685826774
20
-14.3859446837213
30
0
41
1
10
151.257971410635
20
-13.7806773811984
30
0
41
1
10
148.990608355178
20
-13.4053870074533
30
0
41
1
10
142.17033339707
20
-12.3684448373892
30
0
41
1
10
137.599052253289
20
-11.7969329104722
30
0
41
1
10
133
20
-11.3777544604413
30
0
0
SPLINE
5
2EF
100
AcDbEntity
8
1
62
256
6
ByLayer
370
13
48
1
60
0
100
AcDbSpline
70
4
71
3
72
8
73
4
40
0
40
0
40
0
40
0
40
1
40
1
40
1
40
1
41
1
10
251.490007686764
20
1.20982407968427
30
0
41
1
10
252.13404470587
20
0.809610997067722
30
0
41
1
10
252.815558580857
20
0.490081890872403
30
0
41
1
10
253.539169144042
20
0.261426929553238
30
0
0
SPLINE
5
2F0
100
AcDbEntity
8
1
62
256
6
ByLayer
370
13
48
1
60
0
100
AcDbSpline
70
4
71
3
72
10
73
6
40
0
40
0
40
0
40
0
40
0.5
40
0.5
40
1
40
1
40
1
40
1
41
1
10
272.393438565164
20
11.4445480773034
30
0
41
1
10
272.417895995678
20
11.4548241899515
30
0
41
1
10
272.44396015276
20
11.4632170304919
30
0
41
1
10
272.497295542517
20
11.4753687191363
30
0
41
1
10
272.52474401174
20
11.4792297371827
30
0
41
1
10
272.552985779274
20
11.4807254532102
30
0
0
SPLINE
5
2F1
100
AcDbEntity
8
1
62
256
6
ByLayer
370
13
48
1
60
0
100
AcDbSpline
70
4
71
3
72
19
73
15
40
0
40
0
40
0
40
0
40
0.25
40
0.25
40
0.375
40
0.375
40
0.5
40
0.5
40
0.625
40
0.625
40
0.75
40
0.875
40
0.875
40
1
40
1
40
1
40
1
41
1
10
35.0050000318131
20
-16.4086858048023
30
0
41
1
10
32.9335339777325
20
-16.787207598481
30
0
41
1
10
30.8722144291125
20
-17.3905729013411
30
0
41
1
10
27.9436928632687
20
-18.6293094789978
30
0
41
1
10
26.9949287488368
20
-19.0985757154827
30
0
41
1
10
25.1755150465595
20
-20.1421541284812
30
0
41
1
10
24.3047091457065
20
-20.7157071763248
30
0
41
1
10
22.662970447194
20
-21.9527352646435
30
0
41
1
10
21.8920511261957
20
-22.6162188801958
30
0
41
1
10
20.472101578461
20
-24.0194672844757
30
0
41
1
10
19.1734840628508
20
-25.4986424080582
30
0
41
1
10
18.1351399886244
20
-27.0855768419962
30
0
41
1
10
17.2357373238019
20
-28.7043438674842
30
0
41
1
10
16.8565533541593
20
-29.5295364566302
30
0
41
1
10
16.5477615047025
20
-30.3599783955508
30
0
0
SPLINE
5
2F2
100
AcDbEntity
8
1
62
256
6
ByLayer
370
13
48
1
60
0
100
AcDbSpline
70
4
71
3
72
48
73
44
40
0
40
0
40
0
40
0
40
0.0490698539081235
40
0.132118101509061
40
0.221095290596483
40
0.316099387549076
40
0.417165853454932
40
0.524261858890487
40
0.533276614253799
40
0.542556354221554
40
0.552101708311766
40
0.561913290664654
40
0.57199169837201
40
0.582337509643971
40
0.592951281823186
40
0.60383354925477
40
0.614984821019324
40
0.626405578535285
40
0.638096273036239
40
0.650057322928315
40
0.662289111032392
40
0.67479198171567
40
0.687566237917063
40
0.700612138070804
40
0.713929892932813
40
0.727519662314463
40
0.741381551728663
40
0.755515608953395
40
0.769921820518251
40
0.784600108119839
40
0.799550324972423
40
0.814772252100594
40
0.830265594581326
40
0.846029977743327
40
0.86206494333217
40
0.878369945650375
40
0.894944347682234
40
0.911787417213921
40
0.928898322960114
40
0.946276130709183
40
0.963919799499744
40
0.981828177842234
40
1
40
1
40
1
40
1
41
1
10
30.6282918913664
20
-10.6461119765645
30
0
41
1
10
30.6752658924776
20
-10.7417276587279
30
0
41
1
10
30.8058578840622
20
-11.0009700625047
30
0
41
1
10
31.0423301509323
20
-11.442183463951
30
0
41
1
10
31.3565026551156
20
-11.9827681278554
30
0
41
1
10
31.7233906892607
20
-12.5639923376905
30
0
41
1
10
32.1462681630008
20
-13.1814933601911
30
0
41
1
10
32.4710488086771
20
-13.6193517299055
30
0
41
1
10
32.6638901904159
20
-13.8691837103611
30
0
41
1
10
32.7068528205131
20
-13.9245873724604
30
0
41
1
10
32.7512211227923
20
-13.9814793576452
30
0
41
1
10
32.7970149557686
20
-14.0398458392301
30
0
41
1
10
32.8442582241827
20
-14.0996668231668
30
0
41
1
10
32.8929730774696
20
-14.1609223793888
30
0
41
1
10
32.9431814030241
20
-14.2235908278429
30
0
41
1
10
32.9949042777398
20
-14.2876491706443
30
0
41
1
10
33.0481619841074
20
-14.3530728976767
30
0
41
1
10
33.1029738640485
20
-14.4198359669458
30
0
41
1
10
33.1593582129954
20
-14.4879107366453
30
0
41
1
10
33.2173321578786
20
-14.5572679112392
30
0
41
1
10
33.2769115347413
20
-14.6278764844598
30
0
41
1
10
33.3381107616835
20
-14.6997036842111
30
0
41
1
10
33.4009427084225
20
-14.77271491824
30
0
41
1
10
33.4654185622312
20
-14.8468737211475
30
0
41
1
10
33.5315476904614
20
-14.9221417028479
30
0
41
1
10
33.5993374997662
20
-14.9984784987231
30
0
41
1
10
33.668793292186
20
-15.0758417216875
30
0
41
1
10
33.739918118282
20
-15.1541869164007
30
0
41
1
10
33.812712627526
20
-15.2334675158587
30
0
41
1
10
33.8871749161806
20
-15.3136348006373
30
0
41
1
10
33.9633003729296
20
-15.3946378609304
30
0
41
1
10
34.0410815225716
20
-15.4764235620572
30
0
41
1
10
34.1205078680023
20
-15.5589365121014
30
0
41
1
10
34.2015657312108
20
-15.6421190380775
30
0
41
1
10
34.2842380922387
20
-15.725911147416
30
0
41
1
10
34.3685044320171
20
-15.8102505649445
30
0
41
1
10
34.4543405584846
20
-15.89507250156
30
0
41
1
10
34.5417184969938
20
-15.9803104711033
30
0
41
1
10
34.6306061376432
20
-16.0658931230026
30
0
41
1
10
34.7209678167725
20
-16.1517563250875
30
0
41
1
10
34.8127613381776
20
-16.2377970205589
30
0
41
1
10
34.9059485985538
20
-16.3240494214873
30
0
41
1
10
34.9684972972982
20
-16.3809443105129
30
0
41
1
10
35
20
-16.409599467378
30
0
0
SPLINE
5
2F3
100
AcDbEntity
8
1
62
256
6
ByLayer
370
13
48
1
60
0
100
AcDbSpline
70
4
71
3
72
10
73
6
40
0
40
0
40
0
40
0
40
0.5
40
0.5
40
1
40
1
40
1
40
1
41
1
10
255.993379926908
20
8.42063146306555
30
0
41
1
10
255.417772877269
20
8.80132854700057
30
0
41
1
10
254.814047774608
20
9.14624464649683
30
0
41
1
10
253.566414871204
20
9.78494327327212
30
0
41
1
10
252.922301824716
20
10.0784646197791
30
0
41
1
10
252.261911094067
20
10.3512721720848
30
0
0
SPLINE
5
2F4
100
AcDbEntity
8
1
62
256
6
ByLayer
370
13
48
1
60
0
100
AcDbSpline
70
4
71
3
72
8
73
4
40
0
40
0
40
0
40
0
40
1
40
1
40
1
40
1
41
1
10
255.844491242064
20
-0.308550016344725
30
0
41
1
10
256.076045305635
20
-0.332749757193142
30
0
41
1
10
256.307604634428
20
-0.35692633431222
30
0
41
1
10
256.539169144042
20
-0.381080041088495
30
0
0
SPLINE
5
2F5
100
AcDbEntity
8
1
62
256
6
ByLayer
370
13
48
1
60
0
100
AcDbSpline
70
4
71
3
72
15
73
11
40
0
40
0
40
0
40
0
40
0.125
40
0.1875
40
0.1875
40
0.25
40
0.25
40
0.5
40
0.5
40
1
40
1
40
1
40
1
41
1
10
28.4670333994744
20
-11.2328717255209
30
0
41
1
10
27.9700574956214
20
-11.2633748237723
30
0
41
1
10
27.2250406014989
20
-11.3143346826538
30
0
41
1
10
26.4806929705988
20
-11.373088625364
30
0
41
1
10
25.9846098434106
20
-11.4139887930112
30
0
41
1
10
25.736667244663
20
-11.4355913984195
30
0
41
1
10
24.4970375172195
20
-11.5445741253605
30
0
41
1
10
23.5048141917876
20
-11.6273402989435
30
0
41
1
10
20.526257010863
20
-11.86249615595
30
0
41
1
10
18.5381798614932
20
-12.0017358503064
30
0
41
1
10
16.5477523470233
20
-12.1236072172642
30
0
0
SPLINE
5
2F6
100
AcDbEntity
8
1
62
256
6
ByLayer
370
13
48
1
60
0
100
AcDbSpline
70
4
71
3
72
10
73
6
40
0
40
0
40
0
40
0
40
0.5
40
0.5
40
1
40
1
40
1
40
1
41
1
10
267.965946951241
20
9.53799598432684
30
0
41
1
10
268.889754357988
20
9.58641067899964
30
0
41
1
10
269.777850273592
20
9.63295381372683
30
0
41
1
10
271.474813329204
20
9.72188787899674
30
0
41
1
10
272.283748366277
20
9.76428236787399
30
0
41
1
10
273.046530031103
20
9.80425806100536
30
0
0
SPLINE
5
2F7
100
AcDbEntity
8
1
62
256
6
ByLayer
370
13
48
1
60
0
100
AcDbSpline
70
4
71
3
72
8
73
4
40
0
40
0
40
0
40
0
40
1
40
1
40
1
40
1
41
1
10
252.261911094067
20
10.3512721720848
30
0
41
1
10
252.348910812221
20
10.6549850512059
30
0
41
1
10
252.429300718608
20
10.9597951209829
30
0
41
1
10
252.505885279985
20
11.2652368560985
30
0
0
SPLINE
5
2F8
100
AcDbEntity
8
1
62
256
6
ByLayer
370
13
48
1
60
0
100
AcDbSpline
70
4
71
3
72
20
73
16
40
0
40
0
40
0
40
0
40
0.125
40
0.125
40
0.25
40
0.25
40
0.375
40
0.375
40
0.5
40
0.5
40
0.625000000000001
40
0.625000000000001
40
0.750000000000001
40
0.750000000000001
40
1
40
1
40
1
40
1
41
1
10
257.396057316998
20
8.69108003472496
30
0
41
1
10
257.354631631007
20
8.63341974336595
30
0
41
1
10
257.309767744312
20
8.57881605265098
30
0
41
1
10
257.211875769741
20
8.47692313736593
30
0
41
1
10
257.158354716458
20
8.42935695853478
30
0
41
1
10
257.045507128102
20
8.34689014586888
30
0
41
1
10
256.985885543129
20
8.31153828861554
30
0
41
1
10
256.859032778889
20
8.25502648214905
30
0
41
1
10
256.794293520084
20
8.23506154303999
30
0
41
1
10
256.662993271372
20
8.2119450868899
30
0
41
1
10
256.59549088678
20
8.20894776542454
30
0
41
1
10
256.464737975698
20
8.21908254901007
30
0
41
1
10
256.400753919819
20
8.23197388494836
30
0
41
1
10
256.214010336971
20
8.28913171079608
30
0
41
1
10
256.101046975742
20
8.34942223873045
30
0
41
1
10
255.993379926909
20
8.42063146306523
30
0
0
SPLINE
5
2F9
100
AcDbEntity
8
1
62
256
6
ByLayer
370
13
48
1
60
0
100
AcDbSpline
70
4
71
3
72
14
73
10
40
0
40
0
40
0
40
0
40
0.12500000000005
40
0.12500000000005
40
0.2500000000001
40
0.2500000000001
40
0.500000000000067
40
0.500000000000067
40
1
40
1
40
1
40
1
41
1
10
271.424967649591
20
11.2213340966182
30
0
41
1
10
271.465658114931
20
11.2234665935447
30
0
41
1
10
271.507114571246
20
11.2265349888431
30
0
41
1
10
271.588916168713
20
11.2343908260739
30
0
41
1
10
271.629667993412
20
11.2391977551743
30
0
41
1
10
271.75154932817
20
11.2562450141863
30
0
41
1
10
271.832304212869
20
11.2711038272826
30
0
41
1
10
272.073641151445
20
11.3263577342956
30
0
41
1
10
272.233219567449
20
11.377229948037
30
0
41
1
10
272.393438565166
20
11.4445480773034
30
0
0
SPLINE
5
2FA
100
AcDbEntity
8
1
62
256
6
ByLayer
370
13
48
1
60
0
100
AcDbSpline
70
4
71
3
72
10
73
6
40
0
40
0
40
0
40
0
40
0.62480485538997
40
0.62480485538997
40
1
40
1
40
1
40
1
41
1
10
252.507922550096
20
11.2725187786148
30
0
41
1
10
248.025588593665
20
11.4168222068523
30
0
41
1
10
243.546944470923
20
11.4747296529681
30
0
41
1
10
236.379968969614
20
11.4328002637577
30
0
41
1
10
233.691193614582
20
11.3867695967434
30
0
41
1
10
231.002018188219
20
11.3113576644999
30
0
0
SPLINE
5
2FB
100
AcDbEntity
8
1
62
256
6
ByLayer
370
13
48
1
60
0
100
AcDbSpline
70
4
71
3
72
10
73
6
40
0
40
0
40
0
40
0
40
0.5
40
0.5
40
1
40
1
40
1
40
1
41
1
10
254.997505574689
20
13.3493769027227
30
0
41
1
10
255.207256450683
20
13.3290085944681
30
0
41
1
10
255.411161709332
20
13.3163850640723
30
0
41
1
10
255.811194996617
20
13.3026007921369
30
0
41
1
10
256.007300735029
20
13.301409760455
30
0
41
1
10
256.200651379799
20
13.3044398110359
30
0
0
SPLINE
5
2FC
100
AcDbEntity
8
1
62
256
6
ByLayer
370
13
48
1
60
0
100
AcDbSpline
70
4
71
3
72
10
73
6
40
0
40
0
40
0
40
0
40
0.5
40
0.5
40
1
40
1
40
1
40
1
41
1
10
276.533745932247
20
-5.50875127554971
30
0
41
1
10
276.588307581539
20
-5.80289975942347
30
0
41
1
10
276.621959755431
20
-6.0969896104167
30
0
41
1
10
276.64948088786
20
-6.68492502001772
30
0
41
1
10
276.64334627014
20
-6.97877088114186
30
0
41
1
10
276.617081032487
20
-7.27248522622708
30
0
0
SPLINE
5
2FD
100
AcDbEntity
8
1
62
256
6
ByLayer
370
13
48
1
60
0
100
AcDbSpline
70
4
71
3
72
28
73
24
40
0
40
0
40
0
40
0
40
0.0624999999999999
40
0.0624999999999999
40
0.125
40
0.125
40
0.1875
40
0.1875
40
0.25
40
0.25
40
0.312499999999999
40
0.312499999999999
40
0.374999999999999
40
0.374999999999999
40
0.437499999999999
40
0.437499999999999
40
0.499999999999999
40
0.499999999999999
40
0.624999999999999
40
0.624999999999999
40
0.749999999999999
40
0.749999999999999
40
1
40
1
40
1
40
1
41
1
10
133
20
-11.3777544604413
30
0
41
1
10
131.0707337753
20
-11.2023453974597
30
0
41
1
10
129.139122084048
20
-11.0535942341504
30
0
41
1
10
125.271316935779
20
-10.809389064986
30
0
41
1
10
123.334897980765
20
-10.7139397161609
30
0
41
1
10
119.461939842128
20
-10.5766330026485
30
0
41
1
10
117.524829902983
20
-10.5364714811163
30
0
41
1
10
113.64975937241
20
-10.4948594647622
30
0
41
1
10
111.711814677528
20
-10.4926703899496
30
0
41
1
10
107.83562458642
20
-10.501988662722
30
0
41
1
10
105.897437476955
20
-10.5129377076015
30
0
41
1
10
102.021136194096
20
-10.5274403180533
30
0
41
1
10
100.082983901679
20
-10.532467536482
30
0
41
1
10
96.2066740444504
20
-10.5353932336994
30
0
41
1
10
94.2685166639888
20
-10.5335429822365
30
0
41
1
10
90.3922016449852
20
-10.5295052454364
30
0
41
1
10
88.4540438092261
20
-10.5276315368605
30
0
41
1
10
82.6395677134308
20
-10.5234359022032
30
0
41
1
10
78.7632466411572
20
-10.5224589321053
30
0
41
1
10
71.010595835071
20
-10.5257872161575
30
0
41
1
10
67.134268943191
20
-10.5294428535911
30
0
41
1
10
55.505292174156
20
-10.5351753627906
30
0
41
1
10
47.7526479192069
20
-10.5318962703259
30
0
41
1
10
40
20
-10.5320857235067
30
0
0
SPLINE
5
2FE
100
AcDbEntity
8
1
62
256
6
ByLayer
370
13
48
1
60
0
100
AcDbSpline
70
4
71
3
72
54
73
50
40
0
40
0
40
0
40
0
40
0.124999999999988
40
0.124999999999988
40
0.187499999999983
40
0.187499999999983
40
0.21874999999998
40
0.21874999999998
40
0.249999999999977
40
0.249999999999977
40
0.312499999999965
40
0.312499999999965
40
0.374999999999953
40
0.374999999999953
40
0.40624999999995
40
0.40624999999995
40
0.437499999999947
40
0.437499999999947
40
0.499999999999941
40
0.499999999999941
40
0.531249999999941
40
0.531249999999941
40
0.546874999999944
40
0.546874999999944
40
0.562499999999946
40
0.562499999999946
40
0.62499999999996
40
0.62499999999996
40
0.656249999999964
40
0.656249999999964
40
0.687499999999969
40
0.687499999999969
40
0.749999999999978
40
0.749999999999978
40
0.76562499999998
40
0.76562499999998
40
0.781249999999981
40
0.781249999999981
40
0.812499999999984
40
0.812499999999984
40
0.874999999999989
40
0.874999999999989
40
0.906249999999992
40
0.906249999999992
40
0.937499999999995
40
0.937499999999995
40
0.968749999999997
40
0.968749999999997
40
1
40
1
40
1
40
1
41
1
10
255.411978808163
20
2.25542074553079
30
0
41
1
10
256.519455417401
20
2.05307815368761
30
0
41
1
10
257.635063807092
20
1.88010709381319
30
0
41
1
10
259.327152456924
20
1.68810739762157
30
0
41
1
10
259.894304995472
20
1.63538755743892
30
0
41
1
10
260.750717242258
20
1.57683605788591
30
0
41
1
10
261.037137062329
20
1.56074688275959
30
0
41
1
10
261.612071409881
20
1.53613449743159
30
0
41
1
10
261.901126299797
20
1.5276041690399
30
0
41
1
10
262.767879205879
20
1.51463023767343
30
0
41
1
10
263.342374640234
20
1.52275135163347
30
0
41
1
10
264.483734888829
20
1.5773093978288
30
0
41
1
10
265.050607243663
20
1.62370846629412
30
0
41
1
10
265.894242909275
20
1.72681369646929
30
0
41
1
10
266.17439186862
20
1.76679113217719
30
0
41
1
10
266.732033157631
20
1.85899141846997
30
0
41
1
10
267.00671822155
20
1.91075285564435
30
0
41
1
10
267.817863656068
20
2.08370963903039
30
0
41
1
10
268.341487123922
20
2.22247772486907
30
0
41
1
10
269.09817056668
20
2.46998881622801
30
0
41
1
10
269.34559066217
20
2.55907391321514
30
0
41
1
10
269.708929576914
20
2.70336715555678
30
0
41
1
10
269.829026638782
20
2.75337341940204
30
0
41
1
10
270.064723845246
20
2.85631812307094
30
0
41
1
10
270.180362510943
20
2.90925768770839
30
0
41
1
10
270.747443880595
20
3.18133291772455
30
0
41
1
10
271.165752028729
20
3.42246714358234
30
0
41
1
10
271.73672939269
20
3.82166968132307
30
0
41
1
10
271.917778073135
20
3.96116326461251
30
0
41
1
10
272.259091325315
20
4.25285557834647
30
0
41
1
10
272.416799872345
20
4.40284344140019
30
0
41
1
10
272.851978232096
20
4.86494523956901
30
0
41
1
10
273.091744457235
20
5.1891194332928
30
0
41
1
10
273.327773860495
20
5.6147059986198
30
0
41
1
10
273.371776404769
20
5.70084796391592
30
0
41
1
10
273.453276101495
20
5.87521277626939
30
0
41
1
10
273.490691184578
20
5.96331136390333
30
0
41
1
10
273.592033486387
20
6.22778754270973
30
0
41
1
10
273.645529945826
20
6.40527856155285
30
0
41
1
10
273.765684484579
20
6.94111708952943
30
0
41
1
10
273.792233630012
20
7.30281122091813
30
0
41
1
10
273.75438161478
20
7.85183355107759
30
0
41
1
10
273.728856453698
20
8.03400933158875
30
0
41
1
10
273.653910428994
20
8.39507617777542
30
0
41
1
10
273.604465403043
20
8.57426033411471
30
0
41
1
10
273.482905785935
20
8.93007374736848
30
0
41
1
10
273.410787715398
20
9.1067026121506
30
0
41
1
10
273.244752088908
20
9.45750350179554
30
0
41
1
10
273.150594231652
20
9.63204073412774
30
0
41
1
10
273.046530031101
20
9.80425806099424
30
0
0
SPLINE
5
2FF
100
AcDbEntity
8
1
62
256
6
ByLayer
370
13
48
1
60
0
100
AcDbSpline
70
4
71
3
72
18
73
14
40
0
40
0
40
0
40
0
40
0.249999999999999
40
0.249999999999999
40
0.499999999999998
40
0.499999999999998
40
0.624999999999998
40
0.624999999999998
40
0.749999999999999
40
0.749999999999999
40
0.874999999999999
40
0.874999999999999
40
1
40
1
40
1
40
1
41
1
10
252.507922550096
20
11.2725187786147
30
0
41
1
10
252.549444833938
20
11.4069777847625
30
0
41
1
10
252.587776765678
20
11.5554279310362
30
0
41
1
10
252.662052273435
20
11.8805124244925
30
0
41
1
10
252.696256873047
20
12.0500350902164
30
0
41
1
10
252.745772702366
20
12.3135450875943
30
0
41
1
10
252.762065924177
20
12.4034828816853
30
0
41
1
10
252.79377235575
20
12.58138410429
30
0
41
1
10
252.80927623744
20
12.6698720364395
30
0
41
1
10
252.840612357502
20
12.8457434525338
30
0
41
1
10
252.856427402211
20
12.9332650082948
30
0
41
1
10
252.890286306816
20
13.1062498609689
30
0
41
1
10
252.907884878906
20
13.1901664966864
30
0
41
1
10
252.92874977377
20
13.270875912249
30
0
0
SPLINE
5
300
100
AcDbEntity
8
1
62
256
6
ByLayer
370
13
48
1
60
0
100
AcDbSpline
70
4
71
3
72
8
73
4
40
0
40
0
40
0
40
0
40
1
40
1
40
1
40
1
41
1
10
1.42E-14
20
4.97594212184995
30
0
41
1
10
0.031571657597965
20
5.1735845200318
30
0
41
1
10
0.0649171506606621
20
5.37085605809409
30
0
41
1
10
0.0999999999999801
20
5.56776436282993
30
0
0
SPLINE
5
301
100
AcDbEntity
8
1
62
256
6
ByLayer
370
13
48
1
60
0
100
AcDbSpline
70
4
71
3
72
12
73
8
40
0
40
0
40
0
40
0
40
0.480654366717656
40
0.480654366717656
40
0.740327183358828
40
0.740327183358828
40
1
40
1
40
1
40
1
41
1
10
227.076418102413
20
12.8833652520362
30
0
41
1
10
231.217355633958
20
13.1166061169988
30
0
41
1
10
235.357299841056
20
13.2706390424021
30
0
41
1
10
241.737315999852
20
13.3786726515186
30
0
41
1
10
243.976043790934
20
13.392095167761
30
0
41
1
10
248.452387196912
20
13.369028698227
30
0
41
1
10
250.690398937258
20
13.3325524765863
30
0
41
1
10
252.92874977377
20
13.270875912249
30
0
0
SPLINE
5
302
100
AcDbEntity
8
1
62
256
6
ByLayer
370
13
48
1
60
0
100
AcDbSpline
70
4
71
3
72
26
73
22
40
0
40
0
40
0
40
0
40
0.0089452677731537
40
0.0089452677731537
40
0.119062460242803
40
0.119062460242803
40
0.229179652712453
40
0.229179652712453
40
0.339296845182102
40
0.339296845182102
40
0.449414037651752
40
0.449414037651752
40
0.504472633886577
40
0.504472633886577
40
0.559531230121401
40
0.559531230121401
40
0.669648422591051
40
0.669648422591051
40
0.779765615060701
40
0.779765615060701
40
1
40
1
40
1
40
1
41
1
10
15.7177759672624
20
-12.244577526908
30
0
41
1
10
15.6724186403265
20
-12.2779102149132
30
0
41
1
10
15.6272121071774
20
-12.3113395943305
30
0
41
1
10
15.0276719471495
20
-12.7574620450717
30
0
41
1
10
14.4957321746873
20
-13.1847063247762
30
0
41
1
10
13.4763754206413
20
-14.0678602372467
30
0
41
1
10
12.9891546027426
20
-14.5239668957408
30
0
41
1
10
12.0582878553686
20
-15.4654602390928
30
0
41
1
10
11.6145554706752
20
-15.950624803151
30
0
41
1
10
10.7699239404105
20
-16.9492156571696
30
0
41
1
10
10.3690206337102
20
-17.4626399936538
30
0
41
1
10
9.80042408912752
20
-18.2541825273089
30
0
41
1
10
9.61636303322973
20
-18.5216045315894
30
0
41
1
10
9.2594404824021
20
-19.0637224769081
30
0
41
1
10
9.08700768271285
20
-19.3378140190557
30
0
41
1
10
8.59077170517497
20
-20.1644553517569
30
0
41
1
10
8.2870463606417
20
-20.7229965991045
30
0
41
1
10
7.73245476836223
20
-21.8568235261176
30
0
41
1
10
7.48121338521766
20
-22.4318709689238
30
0
41
1
10
6.80054595111901
20
-24.1795275023211
30
0
41
1
10
6.44344258536269
20
-25.3744621954181
30
0
41
1
10
6.17792163694153
20
-26.5965020732175
30
0
0
SPLINE
5
303
100
AcDbEntity
8
1
62
256
6
ByLayer
370
13
48
1
60
0
100
AcDbSpline
70
4
71
3
72
8
73
4
40
0
40
0
40
0
40
0
40
1
40
1
40
1
40
1
41
1
10
249.605093206737
20
3.09308147462335
30
0
41
1
10
248.423106704566
20
3.65998455694648
30
0
41
1
10
247.244494602268
20
4.23732887796632
30
0
41
1
10
246.069106530324
20
4.8246491567136
30
0
0
SPLINE
5
304
100
AcDbEntity
8
1
62
256
6
ByLayer
370
13
48
1
60
0
100
AcDbSpline
70
4
71
3
72
12
73
8
40
0
40
0
40
0
40
0
40
0.500000000000001
40
0.500000000000001
40
0.75
40
0.75
40
1
40
1
40
1
40
1
41
1
10
263.018925842043
20
10.5452629350944
30
0
41
1
10
263.024244869615
20
10.5694606659677
30
0
41
1
10
263.014461052574
20
10.5939345214448
30
0
41
1
10
262.974680658669
20
10.6270926292369
30
0
41
1
10
262.957238452054
20
10.6375510678076
30
0
41
1
10
262.915436284573
20
10.656325821782
30
0
41
1
10
262.890447553605
20
10.6648870096479
30
0
41
1
10
262.863019877619
20
10.6720766807746
30
0
0
SPLINE
5
305
100
AcDbEntity
8
1
62
256
6
ByLayer
370
13
48
1
60
0
100
AcDbSpline
70
4
71
3
72
8
73
4
40
0
40
0
40
0
40
0
40
1
40
1
40
1
40
1
41
1
10
246.038258808161
20
28.5599886598182
30
0
41
1
10
246.060532652935
20
28.5939478156699
30
0
41
1
10
246.082770263268
20
28.6279311143773
30
0
41
1
10
246.104971845186
20
28.6619384186654
30
0
0
SPLINE
5
306
100
AcDbEntity
8
1
62
256
6
ByLayer
370
13
48
1
60
0
100
AcDbSpline
70
4
71
1
72
4
73
2
40
0
40
0
40
1
40
1
41
1
10
35.45
20
-16.4044241545712
30
0
41
1
10
35.01
20
-16.4044241545712
30
0
0
SPLINE
5
307
100
AcDbEntity
8
1
62
256
6
ByLayer
370
13
48
1
60
0
100
AcDbSpline
70
4
71
3
72
12
73
8
40
0
40
0
40
0
40
0
40
0.499999999999951
40
0.499999999999951
40
0.749999999999975
40
0.749999999999975
40
1
40
1
40
1
40
1
41
1
10
256.553942415444
20
8.91991752870601
30
0
41
1
10
256.719091744926
20
8.87313152311359
30
0
41
1
10
256.872227796962
20
8.83056699643126
30
0
41
1
10
257.084178772212
20
8.77295866626227
30
0
41
1
10
257.152144051102
20
8.75472631298382
30
0
41
1
10
257.280170135611
20
8.72089545383798
30
0
41
1
10
257.340133851061
20
8.70531950517133
30
0
41
1
10
257.396057316998
20
8.69108003472496
30
0
0
SPLINE
5
308
100
AcDbEntity
8
1
62
256
6
ByLayer
370
13
48
1
60
0
100
AcDbSpline
70
4
71
3
72
42
73
38
40
0
40
0
40
0
40
0
40
0.125000000000001
40
0.125000000000001
40
0.156250000000001
40
0.156250000000001
40
0.187500000000001
40
0.187500000000001
40
0.250000000000001
40
0.250000000000001
40
0.281250000000001
40
0.281250000000001
40
0.312500000000001
40
0.312500000000001
40
0.375000000000001
40
0.375000000000001
40
0.437500000000001
40
0.437500000000001
40
0.468750000000001
40
0.468750000000001
40
0.500000000000002
40
0.500000000000002
40
0.562500000000002
40
0.562500000000002
40
0.625000000000002
40
0.625000000000002
40
0.750000000000002
40
0.750000000000002
40
0.812500000000002
40
0.812500000000002
40
0.843750000000001
40
0.843750000000001
40
0.875000000000001
40
0.875000000000001
40
0.937500000000001
40
0.937500000000001
40
1
40
1
40
1
40
1
41
1
10
6.17792163694151
20
-26.5965020732176
30
0
41
1
10
5.97023225343114
20
-27.0080930776611
30
0
41
1
10
5.86289597174564
20
-27.3989973341488
30
0
41
1
10
5.85530627261848
20
-27.8585019021707
30
0
41
1
10
5.86020177644771
20
-27.9484035766882
30
0
41
1
10
5.88257238588611
20
-28.1229868053777
30
0
41
1
10
5.89997156288582
20
-28.2078864278517
30
0
41
1
10
5.97017785678804
20
-28.4556249746846
30
0
41
1
10
6.04101516908636
20
-28.6115055422676
30
0
41
1
10
6.1832084017275
20
-28.8319219245181
30
0
41
1
10
6.23655244381351
20
-28.9031628692494
30
0
41
1
10
6.35529926144942
20
-29.0412358458508
30
0
41
1
10
6.42047948284602
20
-29.1077603616881
30
0
41
1
10
6.63124508403175
20
-29.2985941781036
30
0
41
1
10
6.79247556059971
20
-29.4149122112022
30
0
41
1
10
7.15436619875221
20
-29.6279677407092
30
0
41
1
10
7.35506410101161
20
-29.7246922522834
30
0
41
1
10
7.68558180301649
20
-29.8562755703583
30
0
41
1
10
7.80072343468856
20
-29.8978683408415
30
0
41
1
10
8.03812226638149
20
-29.9758722182153
30
0
41
1
10
8.1606906721404
20
-30.0124150893421
30
0
41
1
10
8.53970929257312
20
-30.1151910654515
30
0
41
1
10
8.80744918341378
20
-30.1745879299182
30
0
41
1
10
9.37240277447827
20
-30.2773777995076
30
0
41
1
10
9.66956649780361
20
-30.3207772584684
30
0
41
1
10
10.6067614817115
20
-30.429259991663
30
0
41
1
10
11.2720369491738
20
-30.4707494922923
30
0
41
1
10
12.3278873980167
20
-30.4990019537736
30
0
41
1
10
12.6898138440032
20
-30.5026265187383
30
0
41
1
10
13.2485553562131
20
-30.5001814666312
30
0
41
1
10
13.4374768575157
20
-30.4980415375999
30
0
41
1
10
13.8162967459461
20
-30.4913241677301
30
0
41
1
10
14.0067358418478
20
-30.486746853645
30
0
41
1
10
14.5811821596663
20
-30.4695826396631
30
0
41
1
10
14.9683085429355
20
-30.4535871641679
30
0
41
1
10
15.7512799480419
20
-30.4131617806972
30
0
41
1
10
16.1471332596409
20
-30.3887283764726
30
0
41
1
10
16.5477615047025
20
-30.3599783955509
30
0
0
SPLINE
5
309
100
AcDbEntity
8
1
62
256
6
ByLayer
370
13
48
1
60
0
100
AcDbSpline
70
4
71
3
72
8
73
4
40
0
40
0
40
0
40
0
40
1
40
1
40
1
40
1
41
1
10
253.205752656578
20
13.4056412109185
30
0
41
1
10
253.327623971002
20
14.6939447051287
30
0
41
1
10
253.447153985348
20
15.9810091618311
30
0
41
1
10
253.563820564495
20
17.266998847298
30
0
0
SPLINE
5
30A
100
AcDbEntity
8
1
62
256
6
ByLayer
370
13
48
1
60
0
100
AcDbSpline
70
4
71
3
72
8
73
4
40
0
40
0
40
0
40
0
40
1
40
1
40
1
40
1
41
1
10
253.205717144256
20
13.4057910384892
30
0
41
1
10
253.619428073003
20
13.4127079372218
30
0
41
1
10
254.018991583198
20
13.3882387766509
30
0
41
1
10
254.404595180456
20
13.3316170000288
30
0
0
SPLINE
5
30B
100
AcDbEntity
8
1
62
256
6
ByLayer
370
13
48
1
60
0
100
AcDbSpline
70
4
71
3
72
10
73
6
40
0
40
0
40
0
40
0
40
0.5
40
0.5
40
1
40
1
40
1
40
1
41
1
10
253.539169144042
20
0.261426929553267
30
0
41
1
10
253.912723801772
20
0.114384321348297
30
0
41
1
10
254.291570700822
20
-0.0071387081744376
30
0
41
1
10
255.059898491091
20
-0.197944196140725
30
0
41
1
10
255.449373447906
20
-0.267256211883193
30
0
41
1
10
255.844491242064
20
-0.308550016344157
30
0
0
SPLINE
5
30C
100
AcDbEntity
8
1
62
256
6
ByLayer
370
13
48
1
60
0
100
AcDbSpline
70
4
71
3
72
8
73
4
40
0
40
0
40
0
40
0
40
1
40
1
40
1
40
1
41
1
10
256.539169144042
20
-29.0970505626461
30
0
41
1
10
255.539169143316
20
-28.997611875139
30
0
41
1
10
254.539169143309
20
-28.898173180492
30
0
41
1
10
253.539169144042
20
-28.7987344784807
30
0
0
SPLINE
5
30D
100
AcDbEntity
8
1
62
256
6
ByLayer
370
13
48
1
60
0
100
AcDbSpline
70
4
71
3
72
8
73
4
40
0
40
0
40
0
40
0
40
1
40
1
40
1
40
1
41
1
10
40
20
-29.134085804841
30
0
41
1
10
38.3333333029033
20
-29.1340661537549
30
0
41
1
10
36.6666666147209
20
-29.1340329582852
30
0
41
1
10
35
20
-29.1339823575802
30
0
0
SPLINE
5
30E
100
AcDbEntity
8
1
62
256
6
ByLayer
370
13
48
1
60
0
100
AcDbSpline
70
4
71
3
72
30
73
26
40
0
40
0
40
0
40
0
40
0.112529463004023
40
0.112529463004023
40
0.225058926008046
40
0.225058926008046
40
0.337588389012069
40
0.337588389012069
40
0.393853120514083
40
0.393853120514083
40
0.450117852016097
40
0.450117852016097
40
0.562647315020129
40
0.562647315020129
40
0.675176778024162
40
0.675176778024162
40
0.731441509526178
40
0.731441509526178
40
0.787706241028195
40
0.787706241028195
40
0.900235704032227
40
0.900235704032227
40
0.956500435534241
40
0.956500435534241
40
1
40
1
40
1
40
1
41
1
10
252.261911094067
20
10.3512721720854
30
0
41
1
10
251.665961658882
20
10.493701601469
30
0
41
1
10
251.063834692873
20
10.6107647921363
30
0
41
1
10
249.848420025281
20
10.8023021039479
30
0
41
1
10
249.235115281039
20
10.8766977708824
30
0
41
1
10
247.99723629524
20
10.9865585572452
30
0
41
1
10
247.372657488401
20
11.0219907409237
30
0
41
1
10
246.426553760373
20
11.0467091249508
30
0
41
1
10
246.109639600939
20
11.0501922447652
30
0
41
1
10
245.472501976073
20
11.0475795461938
30
0
41
1
10
245.151610399495
20
11.0414482318062
30
0
41
1
10
244.191434896834
20
11.0087369957977
30
0
41
1
10
243.553124534457
20
10.9679649611164
30
0
41
1
10
242.279982649573
20
10.8488647546689
30
0
41
1
10
241.645149661371
20
10.7705554176419
30
0
41
1
10
240.695527376225
20
10.6238518506875
30
0
41
1
10
240.379425814294
20
10.5700619966268
30
0
41
1
10
239.748126558638
20
10.4522654942711
30
0
41
1
10
239.432163022299
20
10.3880647253027
30
0
41
1
10
238.497652418154
20
10.1818949802124
30
0
41
1
10
237.889191135091
20
10.0260283869279
30
0
41
1
10
237.001676638265
20
9.76222878580268
30
0
41
1
10
236.710057203327
20
9.66926195482432
30
0
41
1
10
236.201350058987
20
9.49456878363674
30
0
41
1
10
235.981870027526
20
9.41484863846097
30
0
41
1
10
235.767791132713
20
9.33233669231603
30
0
0
SPLINE
5
30F
100
AcDbEntity
8
1
62
256
6
ByLayer
370
13
48
1
60
0
100
AcDbSpline
70
4
71
3
72
46
73
42
40
0
40
0
40
0
40
0
40
0.0624999999999994
40
0.0624999999999994
40
0.124999999999999
40
0.124999999999999
40
0.156249999999999
40
0.156249999999999
40
0.187499999999998
40
0.187499999999998
40
0.249999999999998
40
0.249999999999998
40
0.312499999999997
40
0.312499999999997
40
0.343749999999997
40
0.343749999999997
40
0.374999999999997
40
0.374999999999997
40
0.437499999999997
40
0.437499999999997
40
0.499999999999996
40
0.499999999999996
40
0.562499999999996
40
0.562499999999996
40
0.593749999999996
40
0.593749999999996
40
0.624999999999996
40
0.624999999999996
40
0.749999999999997
40
0.749999999999997
40
0.781249999999998
40
0.781249999999998
40
0.812499999999998
40
0.812499999999998
40
0.874999999999998
40
0.874999999999998
40
0.937499999999999
40
0.937499999999999
40
0.96875
40
0.96875
40
1
40
1
40
1
40
1
41
1
10
16.5477523470233
20
-12.1236072172642
30
0
41
1
10
16.1467135617717
20
-12.1481634427324
30
0
41
1
10
15.7506411751502
20
-12.1946631331757
30
0
41
1
10
14.967474679095
20
-12.327281201943
30
0
41
1
10
14.5803940570626
20
-12.4134591345268
30
0
41
1
10
14.0061856934082
20
-12.5709513019
30
0
41
1
10
13.8158546672132
20
-12.6281658445456
30
0
41
1
10
13.4373219349518
20
-12.7519509684313
30
0
41
1
10
13.2488079831239
20
-12.8186414382956
30
0
41
1
10
12.6885385473961
20
-13.031949386471
30
0
41
1
10
12.3257435642956
20
-13.1903269763673
30
0
41
1
10
11.6201520348526
20
-13.5366597681474
30
0
41
1
10
11.2772580907231
20
-13.7244647171475
30
0
41
1
10
10.7776725981826
20
-14.0275066252575
30
0
41
1
10
10.6136451071154
20
-14.1321400089803
30
0
41
1
10
10.2905719982271
20
-14.3485219121235
30
0
41
1
10
10.1311698797867
20
-14.4605325758535
30
0
41
1
10
9.66310576775872
20
-14.8054072172768
30
0
41
1
10
9.36647586233163
20
-15.0455767041507
30
0
41
1
10
8.80282152658282
20
-15.5446427428961
30
0
41
1
10
8.53591788420852
20
-15.8036347415945
30
0
41
1
10
8.03242177249956
20
-16.3399271899391
30
0
41
1
10
7.7958013862423
20
-16.6172100147264
30
0
41
1
10
7.46490279066997
20
-17.0469873973794
30
0
41
1
10
7.35874719866528
20
-17.1924660966919
30
0
41
1
10
7.15751994249921
20
-17.4839723249735
30
0
41
1
10
7.0620591282661
20
-17.6304917798867
30
0
41
1
10
6.61041336962026
20
-18.3666362806895
30
0
41
1
10
6.32990242341016
20
-18.966615069882
30
0
41
1
10
6.0907599028145
20
-19.728728006103
30
0
41
1
10
6.04842342922085
20
-19.882395946631
30
0
41
1
10
5.9766533683312
20
-20.186857951582
30
0
41
1
10
5.94704380487592
20
-20.3377961523893
30
0
41
1
10
5.8766013493988
20
-20.7867352069479
30
0
41
1
10
5.85416915553435
20
-21.0808639864734
30
0
41
1
10
5.85932545112441
20
-21.6587147164779
30
0
41
1
10
5.88673932518253
20
-21.9424379862778
30
0
41
1
10
5.96732269111681
20
-22.3600657872201
30
0
41
1
10
6.00071369681233
20
-22.4976009411536
30
0
41
1
10
6.0799185961567
20
-22.7668753470138
30
0
41
1
10
6.12588431860816
20
-22.8989707934427
30
0
41
1
10
6.17806571245123
20
-23.028602671885
30
0
0
SPLINE
5
310
100
AcDbEntity
8
1
62
256
6
ByLayer
370
13
48
1
60
0
100
AcDbSpline
70
4
71
3
72
8
73
4
40
0
40
0
40
0
40
0
40
1
40
1
40
1
40
1
41
1
10
0.0999999999999659
20
-5.56776436282993
30
0
41
1
10
0.0648944344305846
20
-5.37072855948901
30
0
41
1
10
0.03155109950454
20
-5.17345582387856
30
0
41
1
10
0
20
-4.97594212184998
30
0
0
SPLINE
5
311
100
AcDbEntity
8
1
62
256
6
ByLayer
370
13
48
1
60
0
100
AcDbSpline
70
4
71
3
72
16
73
12
40
0
40
0
40
0
40
0
40
0.40726857326287
40
0.40726857326287
40
0.610902859894305
40
0.610902859894305
40
0.712720003210023
40
0.712720003210023
40
0.814537146525741
40
0.814537146525741
40
1
40
1
40
1
40
1
41
1
10
6.17806571245123
20
-23.028602671885
30
0
41
1
10
6.44366313951896
20
-21.8413617202398
30
0
41
1
10
6.80131956244267
20
-20.6709749318073
30
0
41
1
10
7.48524332290552
20
-18.940592334288
30
0
41
1
10
7.73797936511949
20
-18.3680383714989
30
0
41
1
10
8.15708051688176
20
-17.5158981197424
30
0
41
1
10
8.30347875588879
20
-17.2329272865069
30
0
41
1
10
8.61015302287356
20
-16.6695257725335
30
0
41
1
10
8.77011294713077
20
-16.389783786603
30
0
41
1
10
9.23735144351204
20
-15.6097747650562
30
0
41
1
10
9.55824455530959
20
-15.1155918727221
30
0
41
1
10
9.89800798464729
20
-14.6304865573681
30
0
0
SPLINE
5
312
100
AcDbEntity
8
1
62
256
6
ByLayer
370
13
48
1
60
0
100
AcDbSpline
70
4
71
3
72
8
73
4
40
0
40
0
40
0
40
0
40
1
40
1
40
1
40
1
41
1
10
277.68436963922
20
0.577112289577826
30
0
41
1
10
277.840723432957
20
0.60096258190211
30
0
41
1
10
277.995550026461
20
0.611369443114057
30
0
41
1
10
278.150148748219
20
0.610154317684561
30
0
0
SPLINE
5
313
100
AcDbEntity
8
1
62
256
6
ByLayer
370
13
48
1
60
0
100
AcDbSpline
70
4
71
3
72
8
73
4
40
0
40
0
40
0
40
0
40
1
40
1
40
1
40
1
41
1
10
257.396057316998
20
8.69108003472493
30
0
41
1
10
257.501095702727
20
8.66090061515007
30
0
41
1
10
257.6059245654
20
8.63080148877353
30
0
41
1
10
257.710541645517
20
8.60078352147909
30
0
0
SPLINE
5
314
100
AcDbEntity
8
1
62
256
6
ByLayer
370
13
48
1
60
0
100
AcDbSpline
70
4
71
3
72
16
73
12
40
0
40
0
40
0
40
0
40
0.250000000000038
40
0.250000000000038
40
0.375000000000048
40
0.375000000000048
40
0.500000000000057
40
0.500000000000057
40
0.750000000000029
40
0.750000000000029
40
1
40
1
40
1
40
1
41
1
10
256.601869819814
20
11.2782096996477
30
0
41
1
10
256.600611207088
20
11.1644686034191
30
0
41
1
10
256.589884827431
20
11.0521949268432
30
0
41
1
10
256.557933332616
20
10.8862428693035
30
0
41
1
10
256.544622865389
20
10.8313377883162
30
0
41
1
10
256.512119236078
20
10.7224393917143
30
0
41
1
10
256.492909559759
20
10.6685491422891
30
0
41
1
10
256.427130960134
20
10.5122331717526
30
0
41
1
10
256.372209611023
20
10.4138268685636
30
0
41
1
10
256.236218826206
20
10.230725815134
30
0
41
1
10
256.157718895873
20
10.1497571172211
30
0
41
1
10
256.069151636708
20
10.0806920448813
30
0
0
SPLINE
5
315
100
AcDbEntity
8
1
62
256
6
ByLayer
370
13
48
1
60
0
100
AcDbSpline
70
4
71
3
72
14
73
10
40
0
40
0
40
0
40
0
40
0.499999999999928
40
0.499999999999928
40
0.749999999999964
40
0.749999999999964
40
0.874999999999982
40
0.874999999999982
40
1
40
1
40
1
40
1
41
1
10
267.252115878551
20
11.1751027727204
30
0
41
1
10
267.428094872949
20
11.1254040336201
30
0
41
1
10
267.60345890345
20
11.0920854096876
30
0
41
1
10
267.867370356775
20
11.0633104488805
30
0
41
1
10
267.955473112969
20
11.0573010897583
30
0
41
1
10
268.087996003557
20
11.053586591237
30
0
41
1
10
268.132231659223
20
11.0532336672493
30
0
41
1
10
268.220854336184
20
11.0543093877772
30
0
41
1
10
268.265679991536
20
11.0557628463432
30
0
41
1
10
268.309581836172
20
11.058063644527
30
0
0
SPLINE
5
316
100
AcDbEntity
8
1
62
256
6
ByLayer
370
13
48
1
60
0
100
AcDbSpline
70
4
71
3
72
24
73
20
40
0
40
0
40
0
40
0
40
0.125
40
0.125
40
0.25
40
0.25
40
0.375
40
0.375
40
0.5
40
0.5
40
0.625
40
0.625
40
0.6875
40
0.6875
40
0.75
40
0.75
40
0.875
40
0.875
40
1
40
1
40
1
40
1
41
1
10
262.768544146329
20
9.46533581447449
30
0
41
1
10
262.647874541018
20
9.36968219093973
30
0
41
1
10
262.520289913449
20
9.2828606575396
30
0
41
1
10
262.252114252458
20
9.1286089467298
30
0
41
1
10
262.113975934331
20
9.06251807416251
30
0
41
1
10
261.829133499697
20
8.95158446653855
30
0
41
1
10
261.682046219437
20
8.90665875410815
30
0
41
1
10
261.38004818898
20
8.83922107801322
30
0
41
1
10
261.228125409137
20
8.81731908368326
30
0
41
1
10
260.922389134892
20
8.79624084049055
30
0
41
1
10
260.76857568002
20
8.79706578471195
30
0
41
1
10
260.53648474418
20
8.81584519925531
30
0
41
1
10
260.458773169932
20
8.82508720737829
30
0
41
1
10
260.305544477614
20
8.84916146971239
30
0
41
1
10
260.229702311492
20
8.8640080076672
30
0
41
1
10
260.004479409822
20
8.91682517980027
30
0
41
1
10
259.857385677806
20
8.96302164992974
30
0
41
1
10
259.569629179865
20
9.07782334707909
30
0
41
1
10
259.428669404933
20
9.14684364701304
30
0
41
1
10
259.295745705764
20
9.22512735882233
30
0
0
SPLINE
5
317
100
AcDbEntity
8
1
62
256
6
ByLayer
370
13
48
1
60
0
100
AcDbSpline
70
4
71
3
72
14
73
10
40
0
40
0
40
0
40
0
40
0.25
40
0.25
40
0.5
40
0.5
40
0.75
40
0.75
40
1
40
1
40
1
40
1
41
1
10
252.928749773767
20
13.2708759122413
30
0
41
1
10
252.935433157334
20
13.2967285218711
30
0
41
1
10
252.952189965763
20
13.3190458980792
30
0
41
1
10
252.992987575822
20
13.3536391246767
30
0
41
1
10
253.01726821105
20
13.3666856266343
30
0
41
1
10
253.067939923292
20
13.3865526199353
30
0
41
1
10
253.094986471034
20
13.3935708559789
30
0
41
1
10
253.149663097315
20
13.4029203157639
30
0
41
1
10
253.177502106479
20
13.4053194795155
30
0
41
1
10
253.205766908694
20
13.4057918703565
30
0
0
SPLINE
5
318
100
AcDbEntity
8
1
62
256
6
ByLayer
370
13
48
1
60
0
100
AcDbSpline
70
4
71
3
72
8
73
4
40
0
40
0
40
0
40
0
40
1
40
1
40
1
40
1
41
1
10
267.085172465964
20
11.1941695377008
30
0
41
1
10
267.141760801968
20
11.197135206724
30
0
41
1
10
267.19828360401
20
11.1903057017787
30
0
41
1
10
267.252115878551
20
11.1751027727204
30
0
0
SPLINE
5
319
100
AcDbEntity
8
1
62
256
6
ByLayer
370
13
48
1
60
0
100
AcDbSpline
70
4
71
3
72
16
73
12
40
0
40
0
40
0
40
0
40
0.250000000000009
40
0.250000000000009
40
0.500000000000018
40
0.500000000000018
40
0.625000000000014
40
0.625000000000014
40
0.750000000000009
40
0.750000000000009
40
1
40
1
40
1
40
1
41
1
10
257.710541645517
20
8.60078352147923
30
0
41
1
10
258.289955902294
20
8.43453114481011
30
0
41
1
10
258.870132536127
20
8.31949015677608
30
0
41
1
10
260.032892118832
20
8.18135070454051
30
0
41
1
10
260.615468540034
20
8.15836477316466
30
0
41
1
10
261.491317542845
20
8.19203810630128
30
0
41
1
10
261.783593719514
20
8.2146818695843
30
0
41
1
10
262.368774890987
20
8.28336212610753
30
0
41
1
10
262.658885613068
20
8.32907673622029
30
0
41
1
10
263.521229119872
20
8.49973664839135
30
0
41
1
10
264.085784704562
20
8.65803820740658
30
0
41
1
10
264.639018020107
20
8.86181359563653
30
0
0
SPLINE
5
31A
100
AcDbEntity
8
1
62
256
6
ByLayer
370
13
48
1
60
0
100
AcDbSpline
70
4
71
3
72
8
73
4
40
0
40
0
40
0
40
0
40
1
40
1
40
1
40
1
41
1
10
252.505885279985
20
11.2652368560984
30
0
41
1
10
252.506495837337
20
11.2676719382307
30
0
41
1
10
252.507175357056
20
11.2700991902813
30
0
41
1
10
252.507922550096
20
11.2725187786147
30
0
0
SPLINE
5
31B
100
AcDbEntity
8
1
62
256
6
ByLayer
370
13
48
1
60
0
100
AcDbSpline
70
4
71
3
72
14
73
10
40
0
40
0
40
0
40
0
40
0.500000000000002
40
0.500000000000002
40
0.625000000000001
40
0.625000000000001
40
0.75
40
0.75
40
1
40
1
40
1
40
1
41
1
10
32.1414286477636
20
-28.4677688658718
30
0
41
1
10
31.4941580794332
20
-28.4680162681914
30
0
41
1
10
30.8627958244806
20
-28.5436678351935
30
0
41
1
10
30.0917758970591
20
-28.7244177804223
30
0
41
1
10
29.9384899060412
20
-28.7649189916417
30
0
41
1
10
29.633744666511
20
-28.854580031085
30
0
41
1
10
29.4822891693221
20
-28.9037798339139
30
0
41
1
10
29.0366829494124
20
-29.0620033853933
30
0
41
1
10
28.7491326549254
20
-29.1822028943763
30
0
41
1
10
28.4702372054169
20
-29.3157813567124
30
0
0
SPLINE
5
31C
100
AcDbEntity
8
1
62
256
6
ByLayer
370
13
48
1
60
0
100
AcDbSpline
70
4
71
3
72
14
73
10
40
0
40
0
40
0
40
0
40
0.0145581563093118
40
0.0145581563093118
40
0.343038770872874
40
0.343038770872874
40
0.671519385436437
40
0.671519385436437
40
1
40
1
40
1
40
1
41
1
10
259.191890710356
20
27.6972217194453
30
0
41
1
10
259.191899997023
20
27.6940486900931
30
0
41
1
10
259.19191178338
20
27.6908668533308
30
0
41
1
10
259.192240074466
20
27.6157476244277
30
0
41
1
10
259.193704453329
20
27.5390688379898
30
0
41
1
10
259.197343052513
20
27.3844855798404
30
0
41
1
10
259.199589420293
20
27.3060773147293
30
0
41
1
10
259.204543214699
20
27.1483702955722
30
0
41
1
10
259.207258979333
20
27.0690650331306
30
0
41
1
10
259.210137023227
20
26.9894528635503
30
0
0
SPLINE
5
31D
100
AcDbEntity
8
1
62
256
6
ByLayer
370
13
48
1
60
0
100
AcDbSpline
70
4
71
3
72
20
73
16
40
0
40
0
40
0
40
0
40
0.179002941666272
40
0.179002941666272
40
0.358005883332543
40
0.358005883332543
40
0.537008824998813
40
0.537008824998813
40
0.626510295831949
40
0.626510295831949
40
0.716011766665085
40
0.716011766665085
40
0.895014708331357
40
0.895014708331357
40
1
40
1
40
1
40
1
41
1
10
35.01
20
-16.4044241543287
30
0
41
1
10
35.01
20
-16.0874530990764
30
0
41
1
10
35.01
20
-15.7579741023451
30
0
41
1
10
35.01
20
-15.0750430668777
30
0
41
1
10
35.01
20
-14.7188179944104
30
0
41
1
10
35.01
20
-13.9937689698413
30
0
41
1
10
35.01
20
-13.6300576128089
30
0
41
1
10
35.01
20
-13.0827569036452
30
0
41
1
10
35.01
20
-12.9000325682959
30
0
41
1
10
35.01
20
-12.5339879418585
30
0
41
1
10
35.01
20
-12.3504868430976
30
0
41
1
10
35.01
20
-11.8104063504372
30
0
41
1
10
35.01
20
-11.4603454999552
30
0
41
1
10
35.01
20
-10.9206602872375
30
0
41
1
10
35.01
20
-10.7236764347522
30
0
41
1
10
35.01
20
-10.5322891543458
30
0
0
SPLINE
5
31E
100
AcDbEntity
8
1
62
256
6
ByLayer
370
13
48
1
60
0
100
AcDbSpline
70
4
71
3
72
28
73
24
40
0
40
0
40
0
40
0
40
0.276147873170523
40
0.276147873170523
40
0.345184841463153
40
0.345184841463153
40
0.414221809755783
40
0.414221809755783
40
0.483258778048414
40
0.483258778048414
40
0.552295746341044
40
0.552295746341044
40
0.621332714633674
40
0.621332714633674
40
0.690369682926304
40
0.690369682926304
40
0.759406651218934
40
0.759406651218934
40
0.828443619511564
40
0.828443619511564
40
0.966517556096824
40
0.966517556096824
40
1
40
1
40
1
40
1
41
1
10
246.104971845179
20
28.6619384186537
30
0
41
1
10
241.525653266987
20
28.9524373161278
30
0
41
1
10
236.955975180836
20
29.0235500676431
30
0
41
1
10
231.234405106456
20
28.8361922206323
30
0
41
1
10
230.089661329539
20
28.7849111286355
30
0
41
1
10
227.801162622803
20
28.654886532532
30
0
41
1
10
226.657123302846
20
28.5761266966365
30
0
41
1
10
224.368734527712
20
28.3913143939487
30
0
41
1
10
223.224183580077
20
28.2852359694853
30
0
41
1
10
220.936321607017
20
28.0463638047631
30
0
41
1
10
219.792764242338
20
27.9135555918299
30
0
41
1
10
217.505681619596
20
27.6217277600522
30
0
41
1
10
216.362149979792
20
27.4627133817329
30
0
41
1
10
214.074458965557
20
27.1190600746974
30
0
41
1
10
212.930350941808
20
26.9344031154833
30
0
41
1
10
210.642030648669
20
26.5390058677242
30
0
41
1
10
209.49762790795
20
26.3281509202856
30
0
41
1
10
207.210036346965
20
25.8801042191748
30
0
41
1
10
206.066896608801
20
25.643149584434
30
0
41
1
10
202.635093800482
20
24.8980776602472
30
0
41
1
10
200.343273069425
20
24.3554223838024
30
0
41
1
10
197.483272764492
20
23.6449051549636
30
0
41
1
10
196.924437282863
20
23.5045730015279
30
0
41
1
10
196.364887799725
20
23.3627592935703
30
0
0
SPLINE
5
31F
100
AcDbEntity
8
1
62
256
6
ByLayer
370
13
48
1
60
0
100
AcDbSpline
70
4
71
3
72
18
73
14
40
0
40
0
40
0
40
0
40
0.249999999999979
40
0.249999999999979
40
0.374999999999949
40
0.374999999999949
40
0.499999999999918
40
0.499999999999918
40
0.749999999999853
40
0.749999999999853
40
0.874999999999927
40
0.874999999999927
40
1
40
1
40
1
40
1
41
1
10
263.752959616462
20
10.8192611929603
30
0
41
1
10
263.747539013916
20
10.8189771112235
30
0
41
1
10
263.74870306217
20
10.8292301523684
30
0
41
1
10
263.763828497671
20
10.8576408137678
30
0
41
1
10
263.77114283891
20
10.8691428336069
30
0
41
1
10
263.791002901161
20
10.8946366110261
30
0
41
1
10
263.803815423093
20
10.9088792377123
30
0
41
1
10
263.849796732593
20
10.9513405971357
30
0
41
1
10
263.891932277476
20
10.9800305764659
30
0
41
1
10
263.965166391366
20
11.0112132841001
30
0
41
1
10
263.991663651535
20
11.0198906486644
30
0
41
1
10
264.045785705005
20
11.0323714118726
30
0
41
1
10
264.073642941868
20
11.0363260643123
30
0
41
1
10
264.102306336385
20
11.0378441101757
30
0
0
SPLINE
5
320
100
AcDbEntity
8
1
62
256
6
ByLayer
370
13
48
1
60
0
100
AcDbSpline
70
4
71
3
72
12
73
8
40
0
40
0
40
0
40
0
40
0.250000000000033
40
0.250000000000033
40
0.500000000000066
40
0.500000000000066
40
1
40
1
40
1
40
1
41
1
10
255.743744531958
20
9.3176118627957
30
0
41
1
10
255.80264204136
20
9.27047360314737
30
0
41
1
10
255.867674021111
20
9.2280056354904
30
0
41
1
10
256.000461834686
20
9.14943917081186
30
0
41
1
10
256.068368991538
20
9.11352143102917
30
0
41
1
10
256.273890257596
20
9.01447381527822
30
0
41
1
10
256.413202136783
20
8.95978856835194
30
0
41
1
10
256.55394241544
20
8.91991752869973
30
0
0
SPLINE
5
321
100
AcDbEntity
8
1
62
256
6
ByLayer
370
13
48
1
60
0
100
AcDbSpline
70
4
71
3
72
8
73
4
40
0
40
0
40
0
40
0
40
1
40
1
40
1
40
1
41
1
10
35
20
-29.1339823575783
30
0
41
1
10
34.0467091033627
20
-29.1339534152625
30
0
41
1
10
33.0938522262454
20
-29.15022115388
30
0
41
1
10
32.1414286547337
20
-29.18275910997
30
0
0
SPLINE
5
322
100
AcDbEntity
8
1
62
256
6
ByLayer
370
13
48
1
60
0
100
AcDbSpline
70
4
71
3
72
32
73
28
40
0
40
0
40
0
40
0
40
0.125321135617817
40
0.125321135617817
40
0.250642271235634
40
0.250642271235634
40
0.375963406853451
40
0.375963406853451
40
0.501284542471269
40
0.501284542471269
40
0.626605678089086
40
0.626605678089086
40
0.689266245897994
40
0.689266245897994
40
0.751926813706903
40
0.751926813706903
40
0.877247949324719
40
0.877247949324719
40
0.908578233229173
40
0.908578233229173
40
0.924243375181401
40
0.924243375181401
40
0.939908517133628
40
0.939908517133628
40
0.971238801038083
40
0.971238801038083
40
1
40
1
40
1
40
1
41
1
10
246.038258808144
20
28.5599886598286
30
0
41
1
10
243.967644040034
20
28.6908556506458
30
0
41
1
10
241.897731235466
20
28.7775462009731
30
0
41
1
10
237.756431048959
20
28.8620012244116
30
0
41
1
10
235.687836600753
20
28.8597098302286
30
0
41
1
10
231.551504749406
20
28.7650111952355
30
0
41
1
10
229.483774258699
20
28.6724984199371
30
0
41
1
10
225.345639909275
20
28.3955516873042
30
0
41
1
10
223.274938313586
20
28.2114433155718
30
0
41
1
10
219.135113984735
20
27.7582474263419
30
0
41
1
10
217.064467714828
20
27.4891612779813
30
0
41
1
10
213.959197064809
20
27.0260762773617
30
0
41
1
10
212.924177846644
20
26.8615114583346
30
0
41
1
10
210.853949748728
20
26.5093169280971
30
0
41
1
10
209.818491707917
20
26.32160222031
30
0
41
1
10
206.714126611993
20
25.721088299791
30
0
41
1
10
204.646088532693
20
25.2732402705857
30
0
41
1
10
202.059565005319
20
24.6884399757633
30
0
41
1
10
201.542205755998
20
24.5701841949102
30
0
41
1
10
200.766075827664
20
24.3913305518949
30
0
41
1
10
200.507359097569
20
24.3314920690698
30
0
41
1
10
199.989860047769
20
24.2112909085878
30
0
41
1
10
199.731023043167
20
24.1507536435557
30
0
41
1
10
198.953291730766
20
23.9653272511303
30
0
41
1
10
198.433371690514
20
23.8372836663569
30
0
41
1
10
197.434565821779
20
23.588018739292
30
0
41
1
10
196.955849658947
20
23.4671691281746
30
0
41
1
10
196.476524630521
20
23.3453059767298
30
0
0
SPLINE
5
323
100
AcDbEntity
8
1
62
256
6
ByLayer
370
13
48
1
60
0
100
AcDbSpline
70
4
71
3
72
10
73
6
40
0
40
0
40
0
40
0
40
0.5
40
0.5
40
1
40
1
40
1
40
1
41
1
10
262.929458131622
20
9.94733636767094
30
0
41
1
10
262.893998060842
20
9.90438683384264
30
0
41
1
10
262.857776562227
20
9.86346337580881
30
0
41
1
10
262.786685914891
20
9.78791023258557
30
0
41
1
10
262.75158983479
20
9.75299278108014
30
0
41
1
10
262.717701577099
20
9.7212634018409
30
0
0
SPLINE
5
324
100
AcDbEntity
8
1
62
256
6
ByLayer
370
13
48
1
60
0
100
AcDbSpline
70
4
71
3
72
36
73
32
40
0
40
0
40
0
40
0
40
0.0425531554441942
40
0.0425531554441942
40
0.0957446468084053
40
0.0957446468084053
40
0.122340392490511
40
0.122340392490511
40
0.148936138172617
40
0.148936138172617
40
0.255319120901039
40
0.255319120901039
40
0.30851061226525
40
0.30851061226525
40
0.335106357947356
40
0.335106357947356
40
0.361702103629461
40
0.361702103629461
40
0.388297849311567
40
0.388297849311567
40
0.414893594993673
40
0.414893594993673
40
0.468085086357884
40
0.468085086357884
40
0.574468069086307
40
0.574468069086307
40
0.68085105181473
40
0.68085105181473
40
0.787234034543154
40
0.787234034543154
40
1
40
1
40
1
40
1
41
1
10
158.734893310133
20
-15.187222074648
30
0
41
1
10
157.003743564768
20
-15.3071378397093
30
0
41
1
10
155.270327968822
20
-15.4190602275456
30
0
41
1
10
151.364375428444
20
-15.6504605579062
30
0
41
1
10
149.190347450603
20
-15.7645506091013
30
0
41
1
10
145.922236454849
20
-15.9114368474817
30
0
41
1
10
144.831679247318
20
-15.956315879136
30
0
41
1
10
142.648075997224
20
-16.0378170353334
30
0
41
1
10
141.554933376094
20
-16.074514322676
30
0
41
1
10
136.09070096644
20
-16.2388580597428
30
0
41
1
10
131.718049478385
20
-16.3102458096268
30
0
41
1
10
125.157309423804
20
-16.3734623114747
30
0
41
1
10
122.970104183891
20
-16.3872526523121
30
0
41
1
10
119.688829580883
20
-16.3995128418709
30
0
41
1
10
118.59499205575
20
-16.4021702326056
30
0
41
1
10
116.407160454003
20
-16.4047665477263
30
0
41
1
10
115.313175344175
20
-16.4047371719264
30
0
41
1
10
113.125189070472
20
-16.404027678985
30
0
41
1
10
112.031181861343
20
-16.4033701681104
30
0
41
1
10
109.843159981719
20
-16.4028150342522
30
0
41
1
10
108.749145221241
20
-16.4029085268413
30
0
41
1
10
105.467092579544
20
-16.4036493410486
30
0
41
1
10
103.279044678349
20
-16.404584967177
30
0
41
1
10
96.7149060686558
20
-16.4054076931325
30
0
41
1
10
92.3388244573318
20
-16.4043231864879
30
0
41
1
10
83.5866960881216
20
-16.4036325988094
30
0
41
1
10
79.2106458481593
20
-16.4036888141823
30
0
41
1
10
70.4585328926319
20
-16.4041593357015
30
0
41
1
10
66.0824704121954
20
-16.4045855653853
30
0
41
1
10
52.9542656324497
20
-16.4048835655879
30
0
41
1
10
44.2021079253965
20
-16.4039660299793
30
0
41
1
10
35.4500000000001
20
-16.4044241543287
30
0
0
SPLINE
5
325
100
AcDbEntity
8
1
62
256
6
ByLayer
370
13
48
1
60
0
100
AcDbSpline
70
4
71
3
72
34
73
30
40
0
40
0
40
0
40
0
40
0.0279984694902277
40
0.0279984694902277
40
0.0819985545185477
40
0.0819985545185477
40
0.135998639546868
40
0.135998639546868
40
0.189998724575188
40
0.189998724575188
40
0.243998809603508
40
0.243998809603508
40
0.351998979660148
40
0.351998979660148
40
0.405999064688469
40
0.405999064688469
40
0.459999149716789
40
0.459999149716789
40
0.51399923474511
40
0.51399923474511
40
0.56799931977343
40
0.56799931977343
40
0.675999489830073
40
0.675999489830073
40
0.783999659886715
40
0.783999659886715
40
0.891999829943358
40
0.891999829943358
40
1
40
1
40
1
40
1
41
1
10
196.314728259966
20
-24.1596329649013
30
0
41
1
10
195.748546253723
20
-24.2973997550667
30
0
41
1
10
195.182609399371
20
-24.4326220420046
30
0
41
1
10
193.525655564606
20
-24.820821353903
30
0
41
1
10
192.434934357979
20
-25.0663335310498
30
0
41
1
10
190.251881790147
20
-25.5343310748879
30
0
41
1
10
189.159604706739
20
-25.7568657657917
30
0
41
1
10
186.970292805365
20
-26.1764258451057
30
0
41
1
10
185.87322595719
20
-26.3734129100286
30
0
41
1
10
183.670610849112
20
-26.7400411614132
30
0
41
1
10
182.56436753268
20
-26.9095600274045
30
0
41
1
10
179.235510566783
20
-27.3783102450008
30
0
41
1
10
177.002348238604
20
-27.6382121248555
30
0
41
1
10
173.629000325348
20
-27.962907625526
30
0
41
1
10
172.500631960107
20
-28.0602870746962
30
0
41
1
10
170.235655304636
20
-28.2356130374504
30
0
41
1
10
169.09900513281
20
-28.313549375234
30
0
41
1
10
166.818042597141
20
-28.4527259393279
30
0
41
1
10
165.674157663146
20
-28.5139383065564
30
0
41
1
10
163.382265545362
20
-28.621937813276
30
0
41
1
10
162.233935429123
20
-28.6687293832789
30
0
41
1
10
158.781503970089
20
-28.7901680301069
30
0
41
1
10
156.470052068318
20
-28.8459184246918
30
0
41
1
10
151.82516410728
20
-28.9205562072939
30
0
41
1
10
149.490301861605
20
-28.9394094620673
30
0
41
1
10
144.80682995299
20
-28.9536529418872
30
0
41
1
10
142.457201549357
20
-28.9491425587675
30
0
41
1
10
137.741183057962
20
-28.9296902313708
30
0
41
1
10
135.374863637804
20
-28.9147648636695
30
0
41
1
10
133
20
-28.8996656656557
30
0
0
SPLINE
5
326
100
AcDbEntity
8
1
62
256
6
ByLayer
370
13
48
1
60
0
100
AcDbSpline
70
4
71
3
72
42
73
38
40
0
40
0
40
0
40
0
40
0.0156250000000001
40
0.0156250000000001
40
0.0312500000000003
40
0.0312500000000003
40
0.0625000000000002
40
0.0625000000000002
40
0.0937500000000001
40
0.0937500000000001
40
0.125
40
0.125
40
0.1875
40
0.1875
40
0.25
40
0.25
40
0.375
40
0.375
40
0.5
40
0.5
40
0.625
40
0.625
40
0.75
40
0.75
40
0.8125
40
0.8125
40
0.875
40
0.875
40
0.90625
40
0.90625
40
0.9375
40
0.9375
40
0.96875
40
0.96875
40
0.984375
40
0.984375
40
1
40
1
40
1
40
1
41
1
10
10.1783
20
4.11914994909637
30
0
41
1
10
10.2221979737839
20
4.1014766791005
30
0
41
1
10
10.2622910753829
20
4.07812751118914
30
0
41
1
10
10.3374698126222
20
4.02395591050194
30
0
41
1
10
10.3727693990372
20
3.9927988286602
30
0
41
1
10
10.4709497988048
20
3.89313330312325
30
0
41
1
10
10.5263962904666
20
3.81912734609577
30
0
41
1
10
10.6266569915661
20
3.66304581491224
30
0
41
1
10
10.6710266685222
20
3.58099333480743
30
0
41
1
10
10.7508276091718
20
3.41507249881644
30
0
41
1
10
10.7865436878235
20
3.33059702278931
30
0
41
1
10
10.8848750217299
20
3.07394730579244
30
0
41
1
10
10.9388233085414
20
2.89860285564404
30
0
41
1
10
11.0322526937372
20
2.5425117149245
30
0
41
1
10
11.0714878617695
20
2.36173913373344
30
0
41
1
10
11.1715884669282
20
1.8205622596532
30
0
41
1
10
11.2160110380158
20
1.45835680158393
30
0
41
1
10
11.2747099007369
20
0.731940752480313
30
0
41
1
10
11.2886424525569
20
0.367710271642181
30
0
41
1
10
11.2887741442852
20
-0.362619185198412
30
0
41
1
10
11.2749895538113
20
-0.728741813362547
30
0
41
1
10
11.2156148019896
20
-1.46299797470215
30
0
41
1
10
11.1705937332886
20
-1.82784775580407
30
0
41
1
10
11.0697057000524
20
-2.3703875094009
30
0
41
1
10
11.0305074004941
20
-2.54996801165564
30
0
41
1
10
10.9369171543118
20
-2.90503141533969
30
0
41
1
10
10.8824581224534
20
-3.08120232660877
30
0
41
1
10
10.7837645297248
20
-3.33734805275932
30
0
41
1
10
10.7479859800119
20
-3.42144061546111
30
0
41
1
10
10.66836010998
20
-3.58604477366842
30
0
41
1
10
10.624605772313
20
-3.6665968834337
30
0
41
1
10
10.5242770100983
20
-3.82205353434821
30
0
41
1
10
10.4688002493473
20
-3.89566104445564
30
0
41
1
10
10.3710596000571
20
-3.99435415774792
30
0
41
1
10
10.3360943950988
20
-4.02505148730447
30
0
41
1
10
10.2615532997664
20
-4.07855163443878
30
0
41
1
10
10.2218066917054
20
-4.10163420878214
30
0
41
1
10
10.1783000000002
20
-4.11914994909668
30
0
0
SPLINE
5
327
100
AcDbEntity
8
1
62
256
6
ByLayer
370
13
48
1
60
0
100
AcDbSpline
70
4
71
3
72
14
73
10
40
0
40
0
40
0
40
0
40
0.500000000000006
40
0.500000000000006
40
0.750000000000007
40
0.750000000000007
40
0.875000000000004
40
0.875000000000004
40
1
40
1
40
1
40
1
41
1
10
246.038258808167
20
28.5599886598272
30
0
41
1
10
246.952557812512
20
26.4696205073419
30
0
41
1
10
248.008279334573
20
24.4630042131311
30
0
41
1
10
249.873166186083
20
21.6196712080793
30
0
41
1
10
250.541757809854
20
20.6997053141144
30
0
41
1
10
251.623600957924
20
19.3665148518382
30
0
41
1
10
251.995910169782
20
18.9317453506058
30
0
41
1
10
252.762772209286
20
18.0835954630826
30
0
41
1
10
253.157562903408
20
17.6699212212083
30
0
41
1
10
253.563795539603
20
17.2667230039669
30
0
0
SPLINE
5
328
100
AcDbEntity
8
1
62
256
6
ByLayer
370
13
48
1
60
0
100
AcDbSpline
70
2053
71
3
72
96
73
92
40
0
40
0
40
0
40
0
40
0.0312499999999851
40
0.0312499999999851
40
0.0468749999999776
40
0.0468749999999776
40
0.0624999999999701
40
0.0624999999999701
40
0.0937499999999551
40
0.0937499999999551
40
0.109374999999953
40
0.109374999999953
40
0.12499999999995
40
0.140624999999948
40
0.140624999999948
40
0.156249999999945
40
0.156249999999945
40
0.18749999999994
40
0.18749999999994
40
0.203124999999938
40
0.203124999999938
40
0.218749999999935
40
0.218749999999935
40
0.249999999999932
40
0.249999999999932
40
0.265624999999931
40
0.265624999999931
40
0.281249999999929
40
0.281249999999929
40
0.312499999999926
40
0.312499999999926
40
0.328124999999925
40
0.328124999999925
40
0.343749999999924
40
0.343749999999924
40
0.374999999999915
40
0.374999999999915
40
0.406249999999905
40
0.406249999999905
40
0.421874999999901
40
0.421874999999901
40
0.437499999999896
40
0.437499999999896
40
0.468749999999887
40
0.468749999999887
40
0.484374999999888
40
0.484374999999888
40
0.49999999999989
40
0.49999999999989
40
0.531249999999905
40
0.531249999999905
40
0.546874999999907
40
0.546874999999907
40
0.562499999999909
40
0.57812499999991
40
0.57812499999991
40
0.593749999999912
40
0.593749999999912
40
0.624999999999915
40
0.624999999999915
40
0.640624999999921
40
0.640624999999921
40
0.656249999999927
40
0.656249999999927
40
0.687499999999938
40
0.687499999999938
40
0.71874999999995
40
0.71874999999995
40
0.734374999999956
40
0.734374999999956
40
0.749999999999962
40
0.749999999999962
40
0.781249999999973
40
0.781249999999973
40
0.796874999999979
40
0.796874999999979
40
0.812499999999985
40
0.812499999999985
40
0.843749999999993
40
0.843749999999993
40
0.875
40
0.875
40
0.906250000000007
40
0.906250000000007
40
0.921875000000006
40
0.921875000000006
40
0.937500000000005
40
0.937500000000005
40
0.968750000000002
40
0.968750000000002
40
1
40
1
40
1
40
1
41
1
10
268.798361855947
20
-3.99341270680191
30
0
41
1
10
268.940899009878
20
-3.99341270680191
30
0
41
1
10
269.080904500373
20
-4.00806935746508
30
0
41
1
10
269.287277866011
20
-4.05108451686053
30
0
41
1
10
269.355458340223
20
-4.06895566613278
30
0
41
1
10
269.490567600747
20
-4.11193380066922
30
0
41
1
10
269.557305484022
20
-4.13703239708053
30
0
41
1
10
269.75107745263
20
-4.22139797780099
30
0
41
1
10
269.873270555658
20
-4.29010219299829
30
0
41
1
10
270.046154041125
20
-4.4116544962767
30
0
41
1
10
270.102272263916
20
-4.45551766620881
30
0
41
1
10
270.208716280129
20
-4.54769914645263
30
0
41
1
10
270.309842079549
20
-4.64458507570765
30
0
41
1
10
270.40064538526
20
-4.75057749077496
30
0
41
1
10
270.486296616277
20
-4.86110265065886
30
0
41
1
10
270.526697986556
20
-4.91887866594317
30
0
41
1
10
270.638898131913
20
-5.09743159937284
30
0
41
1
10
270.700919535791
20
-5.22178025824778
30
0
41
1
10
270.775800728415
20
-5.41578369408103
30
0
41
1
10
270.79771389809
20
-5.4817076512812
30
0
41
1
10
270.835359853309
20
-5.61609449108295
30
0
41
1
10
270.850981634296
20
-5.68428838412225
30
0
41
1
10
270.887803474431
20
-5.88861817006963
30
0
41
1
10
270.899407340686
20
-6.02571957183144
30
0
41
1
10
270.89772941246
20
-6.23265181120996
30
0
41
1
10
270.89392836015
20
-6.30217300863555
30
0
41
1
10
270.879910070481
20
-6.43993760887062
30
0
41
1
10
270.869748076353
20
-6.50800492301866
30
0
41
1
10
270.830074368578
20
-6.709838124518
30
0
41
1
10
270.791460599374
20
-6.84125575010287
30
0
41
1
10
270.714808504018
20
-7.03360266817208
30
0
41
1
10
270.686013921936
20
-7.09703543363787
30
0
41
1
10
270.623217346622
20
-7.21970609824956
30
0
41
1
10
270.589103162239
20
-7.279270164856
30
0
41
1
10
270.478675182081
20
-7.45271322501492
30
0
41
1
10
270.394362907294
20
-7.56139800655035
30
0
41
1
10
270.20273652331
20
-7.76398667092911
30
0
41
1
10
270.097730200304
20
-7.85526385817269
30
0
41
1
10
269.928529530744
20
-7.97539779165169
30
0
41
1
10
269.870061987643
20
-8.01273735543876
30
0
41
1
10
269.748830324427
20
-8.08181473253688
30
0
41
1
10
269.685691599547
20
-8.11371239481016
30
0
41
1
10
269.492184877677
20
-8.19922662719966
30
0
41
1
10
269.359118526906
20
-8.24237061663243
30
0
41
1
10
269.153421489585
20
-8.28635624273622
30
0
41
1
10
269.083832370608
20
-8.29753807072174
30
0
41
1
10
268.942512692804
20
-8.31262788469826
30
0
41
1
10
268.871361892006
20
-8.31643284136555
30
0
41
1
10
268.659867821958
20
-8.31669450930335
30
0
41
1
10
268.520084907306
20
-8.30226902015301
30
0
41
1
10
268.312241463305
20
-8.25856555438148
30
0
41
1
10
268.243309053981
20
-8.24024158217784
30
0
41
1
10
268.10934059642
20
-8.19711496386694
30
0
41
1
10
267.978406424623
20
-8.14735624595846
30
0
41
1
10
267.853360762232
20
-8.08469633644091
30
0
41
1
10
267.731257512667
20
-8.0155711963223
30
0
41
1
10
267.671561185375
20
-7.9776462941613
30
0
41
1
10
267.500600849248
20
-7.85667912324371
30
0
41
1
10
267.396075686837
20
-7.76586127236325
30
0
41
1
10
267.252837122632
20
-7.61492235095869
30
0
41
1
10
267.207163100695
20
-7.56185544242524
30
0
41
1
10
267.121815652706
20
-7.45246483909185
30
0
41
1
10
267.082057754836
20
-7.39611004268119
30
0
41
1
10
266.971207552356
20
-7.22222523712566
30
0
41
1
10
266.908460068159
20
-7.09991915986257
30
0
41
1
10
266.805548477537
20
-6.84226204376617
30
0
41
1
10
266.766750305464
20
-6.71019799334394
30
0
41
1
10
266.727064499501
20
-6.50853347821462
30
0
41
1
10
266.716918875485
20
-6.44065071906684
30
0
41
1
10
266.70290179441
20
-6.30353532613788
30
0
41
1
10
266.699034699918
20
-6.23394749254493
30
0
41
1
10
266.69725936108
20
-6.02598674352333
30
0
41
1
10
266.708931294285
20
-5.88886610656817
30
0
41
1
10
266.745503654635
20
-5.68545825274913
30
0
41
1
10
266.760892987786
20
-5.61803731090782
30
0
41
1
10
266.798298385571
20
-5.48399348525689
30
0
41
1
10
266.820426492067
20
-5.41717357027392
30
0
41
1
10
266.89554600696
20
-5.22224457523461
30
0
41
1
10
266.957481566397
20
-5.09826286027544
30
0
41
1
10
267.105307819156
20
-4.86245236827324
30
0
41
1
10
267.192363148978
20
-4.74964151419329
30
0
41
1
10
267.384548436815
20
-4.54621111239044
30
0
41
1
10
267.489963543079
20
-4.45459531972904
30
0
41
1
10
267.662466237357
20
-4.3328235147099
30
0
41
1
10
267.722754588678
20
-4.29467194384037
30
0
41
1
10
267.845891409504
20
-4.22530032154418
30
0
41
1
10
267.908834852703
20
-4.19395585294796
30
0
41
1
10
268.101713736661
20
-4.10977392926844
30
0
41
1
10
268.235777764699
20
-4.06665766842568
30
0
41
1
10
268.51470925384
20
-4.00808710136292
30
0
41
1
10
268.655824702015
20
-3.99341270680191
30
0
41
1
10
268.798361855947
20
-3.99341270680191
30
0
0
SPLINE
5
329
100
AcDbEntity
8
1
62
256
6
ByLayer
370
13
48
1
60
0
100
AcDbSpline
70
4
71
3
72
16
73
12
40
0
40
0
40
0
40
0
40
0.249999999999998
40
0.249999999999998
40
0.374999999999997
40
0.374999999999997
40
0.499999999999996
40
0.499999999999996
40
0.749999999999998
40
0.749999999999998
40
1
40
1
40
1
40
1
41
1
10
277.683134311771
20
0.685560049361186
30
0
41
1
10
277.68439233535
20
0.733923656786658
30
0
41
1
10
277.686503744548
20
0.77955851095723
30
0
41
1
10
277.690744340148
20
0.839175668409837
30
0
41
1
10
277.692332457074
20
0.857626014735786
30
0
41
1
10
277.695861997565
20
0.891648935398251
30
0
41
1
10
277.697820521221
20
0.907302601036122
30
0
41
1
10
277.704051536684
20
0.948312329606068
30
0
41
1
10
277.708771541721
20
0.968515426938922
30
0
41
1
10
277.718987153554
20
0.992653857910426
30
0
41
1
10
277.724331782949
20
0.996476284494122
30
0
41
1
10
277.729920957154
20
0.991783046022817
30
0
0
SPLINE
5
32A
100
AcDbEntity
8
1
62
256
6
ByLayer
370
13
48
1
60
0
100
AcDbSpline
70
4
71
3
72
10
73
6
40
0
40
0
40
0
40
0
40
0.5
40
0.5
40
1
40
1
40
1
40
1
41
1
10
264.639018020107
20
8.86181359563668
30
0
41
1
10
265.211719712602
20
9.07275987534885
30
0
41
1
10
265.774499393765
20
9.22603362900259
30
0
41
1
10
266.883519999054
20
9.44484038434035
30
0
41
1
10
267.429642424379
20
9.50988945505469
30
0
41
1
10
267.965946951241
20
9.53799598432693
30
0
0
SPLINE
5
32B
100
AcDbEntity
8
1
62
256
6
ByLayer
370
13
48
1
60
0
100
AcDbSpline
70
4
71
3
72
18
73
14
40
0
40
0
40
0
40
0
40
0.106286221730287
40
0.106286221730287
40
0.28502897738423
40
0.28502897738423
40
0.463771733038172
40
0.463771733038172
40
0.642514488692115
40
0.642514488692115
40
0.821257244346058
40
0.821257244346058
40
1
40
1
40
1
40
1
41
1
10
35.4499122750873
20
-10.5211181651866
30
0
41
1
10
35.449894987338
20
-10.7140088291235
30
0
41
1
10
35.4498795850161
20
-10.9124206326207
30
0
41
1
10
35.4498436020509
20
-11.4562137295272
30
0
41
1
10
35.4498266500625
20
-11.8095649903423
30
0
41
1
10
35.4498045386779
20
-12.5291331596897
30
0
41
1
10
35.4497993796967
20
-12.8953365634123
30
0
41
1
10
35.4498010275467
20
-13.6283451114085
30
0
41
1
10
35.449807834347
20
-13.9951364986241
30
0
41
1
10
35.4498331862452
20
-14.7170369541371
30
0
41
1
10
35.4498517308672
20
-15.0721324738523
30
0
41
1
10
35.449899937778
20
-15.7587483759924
30
0
41
1
10
35.4499295991619
20
-16.0902558720535
30
0
41
1
10
35.4499643228983
20
-16.4044241561962
30
0
0
SPLINE
5
32C
100
AcDbEntity
8
1
62
256
6
ByLayer
370
13
48
1
60
0
100
AcDbSpline
70
4
71
3
72
20
73
16
40
0
40
0
40
0
40
0
40
0.25
40
0.25
40
0.375
40
0.375
40
0.500000000000001
40
0.500000000000001
40
0.750000000000002
40
0.750000000000002
40
0.812500000000002
40
0.812500000000002
40
0.875000000000002
40
0.875000000000002
40
1
40
1
40
1
40
1
41
1
10
6.17806571245123
20
-23.028602671885
30
0
41
1
10
6.02194704407685
20
-23.3553519369073
30
0
41
1
10
5.90219403885153
20
-23.6804433176971
30
0
41
1
10
5.78101647245563
20
-24.1645989455058
30
0
41
1
10
5.75084822433573
20
-24.3237387875801
30
0
41
1
10
5.71088628988072
20
-24.6358760978043
30
0
41
1
10
5.70101838929537
20
-24.7891496808621
30
0
41
1
10
5.70104112940641
20
-25.2406512116363
30
0
41
1
10
5.7410214671978
20
-25.5305530532005
30
0
41
1
10
5.84118758435312
20
-25.8790223508643
30
0
41
1
10
5.86381809323686
20
-25.9481189910152
30
0
41
1
10
5.91389587254098
20
-26.0837707646913
30
0
41
1
10
5.94135287835739
20
-26.1504566609613
30
0
41
1
10
6.03072021067264
20
-26.3472133115245
30
0
41
1
10
6.09970157837338
20
-26.4739685933476
30
0
41
1
10
6.17792163694152
20
-26.5965020732176
30
0
0
SPLINE
5
32D
100
AcDbEntity
8
1
62
256
6
ByLayer
370
13
48
1
60
0
100
AcDbSpline
70
4
71
3
72
14
73
10
40
0
40
0
40
0
40
0
40
0.25
40
0.25
40
0.5
40
0.5
40
0.75
40
0.75
40
1
40
1
40
1
40
1
41
1
10
256.069151636708
20
10.0806920448814
30
0
41
1
10
256.020120342608
20
10.0424572625722
30
0
41
1
10
255.971655298197
20
10.0040440519425
30
0
41
1
10
255.876382747013
20
9.92626250789922
30
0
41
1
10
255.829438714958
20
9.88683282242843
30
0
41
1
10
255.741177360777
20
9.80723124692744
30
0
41
1
10
255.69921470789
20
9.76670842848191
30
0
41
1
10
255.628780782175
20
9.68261710691462
30
0
41
1
10
255.599269088702
20
9.63782990214094
30
0
41
1
10
255.58861485848
20
9.5902082127175
30
0
0
SPLINE
5
32E
100
AcDbEntity
8
1
62
256
6
ByLayer
370
13
48
1
60
0
100
AcDbSpline
70
4
71
3
72
18
73
14
40
0
40
0
40
0
40
0
40
0.125
40
0.125
40
0.25
40
0.25
40
0.5
40
0.5
40
0.749999999999999
40
0.749999999999999
40
0.875
40
0.875
40
1
40
1
40
1
40
1
41
1
10
256.601869819814
20
11.2782096996477
30
0
41
1
10
256.536489009165
20
11.3770555932944
30
0
41
1
10
256.467608490439
20
11.4755215394826
30
0
41
1
10
256.322247078169
20
11.6713621731571
30
0
41
1
10
256.246029926711
20
11.7683341250493
30
0
41
1
10
256.009030826329
20
12.0527139017276
30
0
41
1
10
255.838987890033
20
12.2349211661797
30
0
41
1
10
255.47331816547
20
12.5822526757374
30
0
41
1
10
255.277676641398
20
12.7473423340282
30
0
41
1
10
254.963212769011
20
12.9799436596412
30
0
41
1
10
254.854345463114
20
13.0553091633083
30
0
41
1
10
254.632442818032
20
13.1987954337027
30
0
41
1
10
254.519483654616
20
13.2669319299252
30
0
41
1
10
254.404595180456
20
13.3316170000285
30
0
0
SPLINE
5
32F
100
AcDbEntity
8
1
62
256
6
ByLayer
370
13
48
1
60
0
100
AcDbSpline
70
4
71
3
72
26
73
22
40
0
40
0
40
0
40
0
40
0.0625000000000004
40
0.0625000000000004
40
0.125000000000001
40
0.125000000000001
40
0.156250000000001
40
0.156250000000001
40
0.187500000000001
40
0.187500000000001
40
0.250000000000001
40
0.250000000000001
40
0.312500000000001
40
0.312500000000001
40
0.375000000000001
40
0.375000000000001
40
0.500000000000001
40
0.500000000000001
40
0.75
40
0.75
40
1
40
1
40
1
40
1
41
1
10
133
20
-28.8996656656558
30
0
41
1
10
131.071758795184
20
-28.8937453056635
30
0
41
1
10
129.140639434583
20
-28.8877985260812
30
0
41
1
10
125.272952767271
20
-28.879255406274
30
0
41
1
10
123.336157793714
20
-28.8766331771143
30
0
41
1
10
120.431118468758
20
-28.8763407380785
30
0
41
1
10
119.46263430303
20
-28.8768371233237
30
0
41
1
10
117.525405820347
20
-28.8790781175688
30
0
41
1
10
116.556655946766
20
-28.8808505447699
30
0
41
1
10
113.650097282476
20
-28.8877268182525
30
0
41
1
10
111.711997801065
20
-28.8942986530382
30
0
41
1
10
107.835729897478
20
-28.907799925857
30
0
41
1
10
105.897559732692
20
-28.9148510905181
30
0
41
1
10
102.021246074173
20
-28.9285531843003
30
0
41
1
10
100.08308545205
20
-28.935174298495
30
0
41
1
10
94.2685970783524
20
-28.9546473234815
30
0
41
1
10
90.3922637911849
20
-28.9671670095268
30
0
41
1
10
78.7632736591217
20
-29.0053084791013
30
0
41
1
10
71.0106183811033
20
-29.0310164489865
30
0
41
1
10
55.5053099132807
20
-29.0826098376657
30
0
41
1
10
47.7526569726088
20
-29.1084972760326
30
0
41
1
10
39.9999999999999
20
-29.1340858048409
30
0
0
SPLINE
5
330
100
AcDbEntity
8
1
62
256
6
ByLayer
370
13
48
1
60
0
100
AcDbSpline
70
4
71
3
72
12
73
8
40
0
40
0
40
0
40
0
40
0.5
40
0.5
40
0.75
40
0.75
40
1
40
1
40
1
40
1
41
1
10
5.07830000000006
20
-5.56776436283138
30
0
41
1
10
5.94843583306518
20
-5.3972189536193
30
0
41
1
10
6.81045432722209
20
-5.19809559568517
30
0
41
1
10
8.08743575212445
20
-4.84291780783545
30
0
41
1
10
8.51039787068558
20
-4.71502536324275
30
0
41
1
10
9.34974312808411
20
-4.43607848127797
30
0
41
1
10
9.76614322774067
20
-4.28508375626063
30
0
41
1
10
10.1783
20
-4.11914994909637
30
0
0
SPLINE
5
331
100
AcDbEntity
8
1
62
256
6
ByLayer
370
13
48
1
60
0
100
AcDbSpline
70
4
71
3
72
8
73
4
40
0
40
0
40
0
40
0
40
1
40
1
40
1
40
1
41
1
10
35.0099999999995
20
-28.4666724761313
30
0
41
1
10
34.0538095489752
20
-28.4670374027686
30
0
41
1
10
33.0976190985007
20
-28.467403386952
30
0
41
1
10
32.1414286477635
20
-28.4677688658523
30
0
0
SPLINE
5
332
100
AcDbEntity
8
1
62
256
6
ByLayer
370
13
48
1
60
0
100
AcDbSpline
70
4
71
3
72
58
73
54
40
0
40
0
40
0
40
0
40
0.031599071058076
40
0.031599071058076
40
0.063198142116152
40
0.063198142116152
40
0.126396284232304
40
0.126396284232304
40
0.15799535529038
40
0.15799535529038
40
0.189594426348456
40
0.189594426348456
40
0.252792568464607
40
0.252792568464607
40
0.315990710580759
40
0.315990710580759
40
0.37918885269691
40
0.37918885269691
40
0.410787923754986
40
0.410787923754986
40
0.442386994813061
40
0.442386994813061
40
0.473986065871137
40
0.473986065871137
40
0.505585136929213
40
0.505585136929213
40
0.537184207987288
40
0.537184207987288
40
0.568783279045364
40
0.568783279045364
40
0.60038235010344
40
0.60038235010344
40
0.631981421161515
40
0.631981421161515
40
0.695179563277667
40
0.695179563277667
40
0.726778634335742
40
0.726778634335742
40
0.758377705393818
40
0.758377705393818
40
0.789976776451893
40
0.789976776451893
40
0.821575847509969
40
0.821575847509969
40
0.853174918568045
40
0.853174918568045
40
0.88477398962612
40
0.88477398962612
40
0.916373060684196
40
0.916373060684196
40
0.947972131742272
40
0.947972131742272
40
1
40
1
40
1
40
1
41
1
10
245.867480536689
20
4.88151836563605
30
0
41
1
10
244.721391319468
20
5.39028406721638
30
0
41
1
10
243.574971949346
20
5.89661807079526
30
0
41
1
10
241.283453689636
20
6.90230871481688
30
0
41
1
10
240.138056463788
20
7.40179799213016
30
0
41
1
10
236.702202967447
20
8.8886141228281
30
0
41
1
10
234.412089959528
20
9.86429792845166
30
0
41
1
10
230.974495595139
20
11.2979647451503
30
0
41
1
10
229.82783331517
20
11.7710332345961
30
0
41
1
10
227.535342906501
20
12.7052166009721
30
0
41
1
10
226.389621649706
20
13.1662919577307
30
0
41
1
10
222.953237726106
20
14.5299215584363
30
0
41
1
10
220.663373813638
20
15.4129099563054
30
0
41
1
10
216.08141845292
20
17.1183141399049
30
0
41
1
10
213.787984978558
20
17.9411359893999
30
0
41
1
10
209.205713611683
20
19.5133953180724
30
0
41
1
10
206.915831597289
20
20.2632583192588
30
0
41
1
10
203.480154418234
20
21.3292092955471
30
0
41
1
10
202.3347862184
20
21.6747172912537
30
0
41
1
10
200.043309664993
20
22.3453554387632
30
0
41
1
10
198.897043360703
20
22.6705566828177
30
0
41
1
10
196.6063305622
20
23.2988413137599
30
0
41
1
10
195.461468061435
20
23.6019605525098
30
0
41
1
10
193.171536116231
20
24.1846650092303
30
0
41
1
10
192.02667546952
20
24.4644880923753
30
0
41
1
10
189.734302067225
20
24.997959257235
30
0
41
1
10
188.586543993337
20
25.2512777586751
30
0
41
1
10
186.282478463796
20
25.7265945788289
30
0
41
1
10
185.125368250469
20
25.9484232125251
30
0
41
1
10
182.801420191921
20
26.3592687119624
30
0
41
1
10
181.635207771754
20
26.5484116912924
30
0
41
1
10
179.292341204739
20
26.895676823804
30
0
41
1
10
178.11546748589
20
27.0536159036394
30
0
41
1
10
174.569449605166
20
27.4869514173204
30
0
41
1
10
172.185241910021
20
27.7225434247056
30
0
41
1
10
168.584978157651
20
28.0182584438547
30
0
41
1
10
167.381501012885
20
28.1070679826934
30
0
41
1
10
164.9702237796
20
28.2679500726854
30
0
41
1
10
163.762149200026
20
28.3400174658236
30
0
41
1
10
161.34139387943
20
28.4694731437081
30
0
41
1
10
160.128743652429
20
28.5268783552012
30
0
41
1
10
157.698994385226
20
28.628745215283
30
0
41
1
10
156.481795309412
20
28.6731214385755
30
0
41
1
10
154.041454989407
20
28.7498775450408
30
0
41
1
10
152.818071713736
20
28.7822569230464
30
0
41
1
10
150.36639699402
20
28.8365342969995
30
0
41
1
10
149.137911562608
20
28.8584555904348
30
0
41
1
10
146.674789686976
20
28.8937953527265
30
0
41
1
10
145.440082638205
20
28.9072036973101
30
0
41
1
10
142.964079973907
20
28.9276794615843
30
0
41
1
10
141.723086949593
20
28.9347664477688
30
0
41
1
10
138.434246032289
20
28.947798504381
30
0
41
1
10
136.382536633348
20
28.950167805451
30
0
41
1
10
134.325588419551
20
28.9500102673337
30
0
0
SPLINE
5
333
100
AcDbEntity
8
1
62
256
6
ByLayer
370
13
48
1
60
0
100
AcDbSpline
70
4
71
3
72
12
73
8
40
0
40
0
40
0
40
0
40
0.25
40
0.25
40
0.5
40
0.5
40
1
40
1
40
1
40
1
41
1
10
10.1783
20
4.11914994909634
30
0
41
1
10
9.76614322774068
20
4.2850837562606
30
0
41
1
10
9.3497431280841
20
4.43607848127789
30
0
41
1
10
8.51039787068558
20
4.71502536324266
30
0
41
1
10
8.08743575212448
20
4.84291780783542
30
0
41
1
10
6.81045432722213
20
5.19809559568515
30
0
41
1
10
5.94843583306518
20
5.39721895361927
30
0
41
1
10
5.07830000000006
20
5.56776436283135
30
0
0
SPLINE
5
334
100
AcDbEntity
8
1
62
256
6
ByLayer
370
13
48
1
60
0
100
AcDbSpline
70
4
71
3
72
18
73
14
40
0
40
0
40
0
40
0
40
0.250000000000257
40
0.250000000000257
40
0.375000000000271
40
0.375000000000271
40
0.500000000000285
40
0.500000000000285
40
0.750000000000143
40
0.750000000000143
40
0.875000000000071
40
0.875000000000071
40
1
40
1
40
1
40
1
41
1
10
275.535851908976
20
11.6370508807419
30
0
41
1
10
275.593218874437
20
11.640057356006
30
0
41
1
10
275.650978754446
20
11.6328829365526
30
0
41
1
10
275.732306124868
20
11.6095083022463
30
0
41
1
10
275.75820243134
20
11.5997378201248
30
0
41
1
10
275.806386965567
20
11.5777953429708
30
0
41
1
10
275.829065104018
20
11.5654053120149
30
0
41
1
10
275.889137596936
20
11.5284855286673
30
0
41
1
10
275.920033886236
20
11.5036215579551
30
0
41
1
10
275.952375108359
20
11.477988701732
30
0
41
1
10
275.961094706919
20
11.4711656296634
30
0
41
1
10
275.974273120033
20
11.4622341673329
30
0
41
1
10
275.978879126339
20
11.4599944841662
30
0
41
1
10
275.981589869296
20
11.4601365481847
30
0
0
SPLINE
5
335
100
AcDbEntity
8
1
62
256
6
ByLayer
370
13
48
1
60
0
100
AcDbSpline
70
4
71
3
72
12
73
8
40
0
40
0
40
0
40
0
40
0.500000000000045
40
0.500000000000045
40
0.750000000000022
40
0.750000000000022
40
1
40
1
40
1
40
1
41
1
10
277.797133199454
20
10.2424333135821
30
0
41
1
10
277.545187547421
20
10.3036400722642
30
0
41
1
10
277.302411449128
20
10.3929218582191
30
0
41
1
10
276.946557953307
20
10.5789362250994
30
0
41
1
10
276.832290249676
20
10.6483456535618
30
0
41
1
10
276.613008609888
20
10.8027118832258
30
0
41
1
10
276.507908641945
20
10.8876690014957
30
0
41
1
10
276.407741221223
20
10.9817840211786
30
0
0
SPLINE
5
336
100
AcDbEntity
8
1
62
256
6
ByLayer
370
13
48
1
60
0
100
AcDbSpline
70
4
71
3
72
8
73
4
40
0
40
0
40
0
40
0
40
1
40
1
40
1
40
1
41
1
10
254.544877894958
20
13.3398135915797
30
0
41
1
10
254.498895909242
20
13.3341289406182
30
0
41
1
10
254.452107682511
20
13.3316029939124
30
0
41
1
10
254.404595180456
20
13.3316170000288
30
0
0
SPLINE
5
337
100
AcDbEntity
8
1
62
256
6
ByLayer
370
13
48
1
60
0
100
AcDbSpline
70
4
71
3
72
12
73
8
40
0
40
0
40
0
40
0
40
0.5
40
0.5
40
0.75
40
0.75
40
1
40
1
40
1
40
1
41
1
10
32.1414286547336
20
-29.18275910997
30
0
41
1
10
31.509515913554
20
-29.2043473503708
30
0
41
1
10
30.8874558447367
20
-29.2273921489067
30
0
41
1
10
29.9685748053286
20
-29.2620824679139
30
0
41
1
10
29.6646655892044
20
-29.2736248736463
30
0
41
1
10
29.0617146126215
20
-29.295786157398
30
0
41
1
10
28.7615719123547
20
-29.3064344007489
30
0
41
1
10
28.4702372054168
20
-29.3157813567124
30
0
0
SPLINE
5
338
100
AcDbEntity
8
1
62
256
6
ByLayer
370
13
48
1
60
0
100
AcDbSpline
70
4
71
3
72
16
73
12
40
0
40
0
40
0
40
0
40
0.250000000000001
40
0.250000000000001
40
0.500000000000001
40
0.500000000000001
40
0.625000000000001
40
0.625000000000001
40
0.750000000000001
40
0.750000000000001
40
1
40
1
40
1
40
1
41
1
10
262.717701577094
20
9.72126340183593
30
0
41
1
10
262.690107789465
20
9.69542749842921
30
0
41
1
10
262.664394051735
20
9.6727745909225
30
0
41
1
10
262.618609168727
20
9.63474964935239
30
0
41
1
10
262.599216294079
20
9.6199558051986
30
0
41
1
10
262.578650480834
20
9.60623613566136
30
0
41
1
10
262.573297702035
20
9.603128140634
30
0
41
1
10
262.565916922274
20
9.60006987581465
30
0
41
1
10
262.56395140094
20
9.6001751324207
30
0
41
1
10
262.563502567875
20
9.60538404440734
30
0
41
1
10
262.570602023584
20
9.61564366321554
30
0
41
1
10
262.583045292632
20
9.63093044404479
30
0
0
SPLINE
5
339
100
AcDbEntity
8
1
62
256
6
ByLayer
370
13
48
1
60
0
100
AcDbSpline
70
4
71
3
72
10
73
6
40
0
40
0
40
0
40
0
40
0.5
40
0.5
40
1
40
1
40
1
40
1
41
1
10
254.544877894959
20
13.339813591574
30
0
41
1
10
254.619078727804
20
13.34810057548
30
0
41
1
10
254.693702711276
20
13.3540982073669
30
0
41
1
10
254.844308540611
20
13.3587470918649
30
0
41
1
10
254.920255311404
20
13.3575881094753
30
0
41
1
10
254.99750557469
20
13.3493769027222
30
0
0
SPLINE
5
33A
100
AcDbEntity
8
1
62
256
6
ByLayer
370
13
48
1
60
0
100
AcDbSpline
70
4
71
3
72
68
73
64
40
0
40
0
40
0
40
0
40
0.0042269653116974
40
0.0042269653116974
40
0.024548863978805
40
0.024548863978805
40
0.0448707626459126
40
0.0448707626459126
40
0.0550317119794667
40
0.0550317119794667
40
0.0651926613130208
40
0.0651926613130208
40
0.0855145599801289
40
0.0855145599801289
40
0.105836458647237
40
0.105836458647237
40
0.126158357314345
40
0.126158357314345
40
0.146480255981453
40
0.146480255981453
40
0.166802154648561
40
0.166802154648561
40
0.18712405331567
40
0.18712405331567
40
0.207445951982778
40
0.207445951982778
40
0.227767850649886
40
0.227767850649886
40
0.248089749316994
40
0.248089749316994
40
0.268411647984102
40
0.268411647984102
40
0.309055445318318
40
0.309055445318318
40
0.329377343985427
40
0.329377343985427
40
0.349699242652535
40
0.349699242652535
40
0.390343039986752
40
0.390343039986752
40
0.41066493865386
40
0.41066493865386
40
0.430986837320968
40
0.430986837320968
40
0.471630634655185
40
0.471630634655185
40
0.491952533322293
40
0.491952533322293
40
0.512274431989401
40
0.512274431989401
40
0.53259633065651
40
0.53259633065651
40
0.552918229323618
40
0.552918229323618
40
0.593562026657834
40
0.593562026657834
40
0.674849621326267
40
0.674849621326267
40
0.7561372159947
40
0.7561372159947
40
0.837424810663134
40
0.837424810663134
40
1
40
1
40
1
40
1
41
1
10
195.778460193407
20
-24.0348984740336
30
0
41
1
10
195.567526394817
20
-24.0847352713564
30
0
41
1
10
195.356592448931
20
-24.134270517972
30
0
41
1
10
194.131546839687
20
-24.4201817559309
30
0
41
1
10
193.117331976196
20
-24.6493043135373
30
0
41
1
10
191.089648582062
20
-25.0862644749059
30
0
41
1
10
190.075944377862
20
-25.2942684284633
30
0
41
1
10
188.554435887103
20
-25.5853292803262
30
0
41
1
10
188.047083162517
20
-25.6788465956855
30
0
41
1
10
187.031200341322
20
-25.8608930980123
30
0
41
1
10
186.522631301623
20
-25.9496508038969
30
0
41
1
10
184.994365061414
20
-26.2100688929426
30
0
41
1
10
183.972223942419
20
-26.3747164510528
30
0
41
1
10
181.920062854688
20
-26.6807131512033
30
0
41
1
10
180.890135691072
20
-26.8228278728533
30
0
41
1
10
178.822365081045
20
-27.0864041285554
30
0
41
1
10
177.784709852385
20
-27.2077882376693
30
0
41
1
10
175.704411271218
20
-27.4304688103633
30
0
41
1
10
174.66138638638
20
-27.5318507101945
30
0
41
1
10
172.569321370255
20
-27.716206889403
30
0
41
1
10
171.520259683792
20
-27.7992363883716
30
0
41
1
10
169.415945747802
20
-27.9479075251178
30
0
41
1
10
168.360728748918
20
-28.0137053451471
30
0
41
1
10
166.244572919868
20
-28.1317739837007
30
0
41
1
10
165.183639436533
20
-28.1840775299463
30
0
41
1
10
163.056502862292
20
-28.2785257916073
30
0
41
1
10
161.990484854014
20
-28.3204665344604
30
0
41
1
10
159.855146591301
20
-28.3936485914521
30
0
41
1
10
158.785591317644
20
-28.4248764786422
30
0
41
1
10
156.642584644683
20
-28.4767768822304
30
0
41
1
10
155.569117684325
20
-28.4975845160421
30
0
41
1
10
152.34230172577
20
-28.5480244755318
30
0
41
1
10
150.182488413902
20
-28.5663725781322
30
0
41
1
10
146.928271743672
20
-28.579403252464
30
0
41
1
10
145.841496256603
20
-28.5812071148491
30
0
41
1
10
143.665374634169
20
-28.5806454509639
30
0
41
1
10
142.575779465378
20
-28.5782556847306
30
0
41
1
10
139.30226930552
20
-28.5676745500669
30
0
41
1
10
137.11358241561
20
-28.5572187112461
30
0
41
1
10
133.821010672376
20
-28.538149426125
30
0
41
1
10
132.721899953437
20
-28.5311162307756
30
0
41
1
10
130.520498219795
20
-28.5156055577909
30
0
41
1
10
129.418764633466
20
-28.5070407887503
30
0
41
1
10
126.112698086804
20
-28.4808325345739
30
0
41
1
10
123.906615878086
20
-28.4619886596984
30
0
41
1
10
120.594521133998
20
-28.449804507503
30
0
41
1
10
119.489994177445
20
-28.4484514630543
30
0
41
1
10
117.279963173267
20
-28.454220480437
30
0
41
1
10
116.174425461751
20
-28.462165696263
30
0
41
1
10
113.96285912972
20
-28.4698964790821
30
0
41
1
10
112.85700858558
20
-28.4689765280444
30
0
41
1
10
110.645383679031
20
-28.4642035384239
30
0
41
1
10
109.539573387282
20
-28.4608956261168
30
0
41
1
10
106.222141582185
20
-28.4526719283925
30
0
41
1
10
104.010519944711
20
-28.4488923741203
30
0
41
1
10
97.3756384948541
20
-28.447849751704
30
0
41
1
10
92.9523769164311
20
-28.4536708985664
30
0
41
1
10
84.1058589443035
20
-28.4565604266253
30
0
41
1
10
79.6825987906037
20
-28.4548899170222
30
0
41
1
10
70.8360791072548
20
-28.4530106886639
30
0
41
1
10
66.4128192233449
20
-28.4529205631837
30
0
41
1
10
53.1430395631609
20
-28.4528782451554
30
0
41
1
10
44.2965197736749
20
-28.4532409309516
30
0
41
1
10
35.4499999999999
20
-28.4529692584996
30
0
0
SPLINE
5
33B
100
AcDbEntity
8
1
62
256
6
ByLayer
370
13
48
1
60
0
100
AcDbSpline
70
4
71
3
72
8
73
4
40
0
40
0
40
0
40
0
40
1
40
1
40
1
40
1
41
1
10
258.49854280623
20
21.5509369169006
30
0
41
1
10
258.486759801547
20
21.5303128142925
30
0
41
1
10
258.474199875524
20
21.5115121490314
30
0
41
1
10
258.461358086286
20
21.4944475686786
30
0
0
SPLINE
5
33C
100
AcDbEntity
8
1
62
256
6
ByLayer
370
13
48
1
60
0
100
AcDbSpline
70
4
71
3
72
8
73
4
40
0
40
0
40
0
40
0
40
1
40
1
40
1
40
1
41
1
10
32.1414286477635
20
-28.4677688658523
30
0
41
1
10
32.1414286500591
20
-28.7060989472462
30
0
41
1
10
32.1414286523824
20
-28.9444290286186
30
0
41
1
10
32.1414286547336
20
-29.1827591099697
30
0
0
SPLINE
5
33D
100
AcDbEntity
8
1
62
256
6
ByLayer
370
13
48
1
60
0
100
AcDbSpline
70
4
71
3
72
8
73
4
40
0
40
0
40
0
40
0
40
1
40
1
40
1
40
1
41
1
10
40
20
-10.5320857235066
30
0
41
1
10
38.3333333414141
20
-10.5319277887528
30
0
41
1
10
36.6666666419465
20
-10.5319313177629
30
0
41
1
10
35
20
-10.5322019037422
30
0
0
SPLINE
5
33E
100
AcDbEntity
8
1
62
256
6
ByLayer
370
13
48
1
60
0
100
AcDbSpline
70
4
71
1
72
4
73
2
40
0
40
0
40
1
40
1
41
1
10
226.448214205634
20
13.1407591303991
30
0
41
1
10
226.399254115882
20
13.160352238228
30
0
0
SPLINE
5
33F
100
AcDbEntity
8
1
62
256
6
ByLayer
370
13
48
1
60
0
100
AcDbSpline
70
4
71
1
72
4
73
2
40
0
40
0
40
1
40
1
41
1
10
278.628979123819
20
10.308601481059
30
0
41
1
10
278.773654116805
20
10.4381659938977
30
0
0
SPLINE
5
340
100
AcDbEntity
8
1
62
256
6
ByLayer
370
13
48
1
60
0
100
AcDbSpline
70
4
71
1
72
4
73
2
40
0
40
0
40
1
40
1
41
1
10
259.729221905495
20
9.44008959399648
30
0
41
1
10
259.886647533153
20
9.32635750380561
30
0
0
SPLINE
5
341
100
AcDbEntity
8
1
62
256
6
ByLayer
370
13
48
1
60
0
100
AcDbSpline
70
4
71
3
72
12
73
8
40
0
40
0
40
0
40
0
40
0.279997461893743
40
0.560024210389507
40
0.706674447353493
40
0.853343843860763
40
1
40
1
40
1
40
1
41
1
10
5.07830000000001
20
-31.2500000000002
30
0
41
1
10
7.87728611458009
20
-31.1522375149286
30
0
41
1
10
13.4688362583917
20
-30.8654832195404
30
0
41
1
10
20.5163868332014
20
-30.3203577381596
30
0
41
1
10
26.2130204089442
20
-29.6777360497366
30
0
41
1
10
30.6003037292784
20
-29.3209496886204
30
0
41
1
10
33.5321288860333
20
-29.2500492886981
30
0
41
1
10
34.9999999999999
20
-29.2499999999981
30
0
0
SPLINE
5
342
100
AcDbEntity
8
1
62
256
6
ByLayer
370
13
48
1
60
0
100
AcDbSpline
70
4
71
3
72
12
73
8
40
0
40
0
40
0
40
0
40
0.186652836182139
40
0.373296135738851
40
0.559971769421264
40
0.780003502425041
40
1
40
1
40
1
40
1
41
1
10
35
20
29.249999999998
30
0
41
1
10
33.1310774492137
20
29.2542086875073
30
0
41
1
10
29.3992240139117
20
29.3553958250973
30
0
41
1
10
23.8301110143109
20
29.9699400712226
30
0
41
1
10
17.9239265838273
20
30.5251394997293
30
0
41
1
10
11.6718751474221
20
30.9667429853444
30
0
41
1
10
7.27717525935219
20
31.173206062427
30
0
41
1
10
5.0783000000001
20
31.2500000000002
30
0
0
LINE
5
7F
100
AcDbEntity
8
SK1
62
256
6
ByLayer
370
13
48
1
60
0
100
AcDbLine
10
-1.544243
20
-24.783477
30
0
11
-1.544243
21
24.783477
31
0
39
0
210
0
220
0
230
1
0
LINE
5
81
100
AcDbEntity
8
SK1
62
256
6
ByLayer
370
13
48
1
60
0
100
AcDbLine
10
-79
20
10.670483
30
0
11
-78.599999
21
10.670483
31
0
39
0
210
0
220
0
230
1
0
LINE
5
82
100
AcDbEntity
8
SK1
62
256
6
ByLayer
370
13
48
1
60
0
100
AcDbLine
10
-76.600002
20
10.670483
30
0
11
-6.5
21
10.670483
31
0
39
0
210
0
220
0
230
1
0
LINE
5
83
100
AcDbEntity
8
SK1
62
256
6
ByLayer
370
13
48
1
60
0
100
AcDbLine
10
-0.15
20
-24.746
30
0
11
-0.15
21
24.746
31
0
39
0
210
0
220
0
230
1
0
LINE
5
84
100
AcDbEntity
8
SK1
62
256
6
ByLayer
370
13
48
1
60
0
100
AcDbLine
10
-78.516222
20
24.892544
30
0
11
-78.516222
21
10.425829
31
0
39
0
210
0
220
0
230
1
0
LINE
5
85
100
AcDbEntity
8
SK1
62
256
6
ByLayer
370
13
48
1
60
0
100
AcDbLine
10
-78.516222
20
-10.425829
30
0
11
-78.516222
21
-24.892544
31
0
39
0
210
0
220
0
230
1
0
LINE
5
86
100
AcDbEntity
8
SK1
62
256
6
ByLayer
370
13
48
1
60
0
100
AcDbLine
10
-80
20
8.054018
30
0
11
-80
21
-8.054018
31
0
39
0
210
0
220
0
230
1
0
LINE
5
87
100
AcDbEntity
8
SK1
62
256
6
ByLayer
370
13
48
1
60
0
100
AcDbLine
10
-6.5
20
-10.670483
30
0
11
-76.600002
21
-10.670483
31
0
39
0
210
0
220
0
230
1
0
LINE
5
88
100
AcDbEntity
8
SK1
62
256
6
ByLayer
370
13
48
1
60
0
100
AcDbLine
10
-77.633813
20
24.639667
30
0
11
-77.633813
21
9.806751
31
0
39
0
210
0
220
0
230
1
0
LINE
5
89
100
AcDbEntity
8
SK1
62
256
6
ByLayer
370
13
48
1
60
0
100
AcDbLine
10
-77.633813
20
-9.806751
30
0
11
-77.633813
21
-24.639667
31
0
39
0
210
0
220
0
230
1
0
LINE
5
8A
100
AcDbEntity
8
SK1
62
256
6
ByLayer
370
13
48
1
60
0
100
AcDbLine
10
-6.5
20
-10.670483
30
0
11
-6.5
21
10.670483
31
0
39
0
210
0
220
0
230
1
0
LINE
5
8B
100
AcDbEntity
8
SK1
62
256
6
ByLayer
370
13
48
1
60
0
100
AcDbLine
10
-79
20
-24.996
30
0
11
-79
21
-10.670483
31
0
39
0
210
0
220
0
230
1
0
LINE
5
8C
100
AcDbEntity
8
SK1
62
256
6
ByLayer
370
13
48
1
60
0
100
AcDbLine
10
-79
20
10.670483
30
0
11
-79
21
24.996
31
0
39
0
210
0
220
0
230
1
0
LINE
5
8D
100
AcDbEntity
8
SK1
62
256
6
ByLayer
370
13
48
1
60
0
100
AcDbLine
10
-78.599999
20
-24.996
30
0
11
-78.599999
21
-10.670483
31
0
39
0
210
0
220
0
230
1
0
LINE
5
8E
100
AcDbEntity
8
SK1
62
256
6
ByLayer
370
13
48
1
60
0
100
AcDbLine
10
-78.599999
20
10.670483
30
0
11
-78.599999
21
24.996
31
0
39
0
210
0
220
0
230
1
0
LINE
5
8F
100
AcDbEntity
8
SK1
62
256
6
ByLayer
370
13
48
1
60
0
100
AcDbLine
10
-2
20
-24.996
30
0
11
-2
21
24.996
31
0
39
0
210
0
220
0
230
1
0
LINE
5
90
100
AcDbEntity
8
1
62
256
6
ByLayer
370
18
48
1
60
0
100
AcDbLine
10
269.999211
20
18.547909
30
0
11
269.988729
21
18.564924
31
0
39
0
210
0
220
0
230
1
0
LINE
5
91
100
AcDbEntity
8
1
62
256
6
ByLayer
370
18
48
1
60
0
100
AcDbLine
10
268.581998
20
18.086543
30
0
11
268.591423
21
18.104162
31
0
39
0
210
0
220
0
230
1
0
LINE
5
92
100
AcDbEntity
8
1
62
256
6
ByLayer
370
18
48
1
60
0
100
AcDbLine
10
267.613293
20
19.096076
30
0
11
267.545058
21
19.0925
31
0
39
0
210
0
220
0
230
1
0
LINE
5
93
100
AcDbEntity
8
1
62
256
6
ByLayer
370
18
48
1
60
0
100
AcDbLine
10
268.57914
20
20.964056
30
0
11
268.441919
21
20.956864
31
0
39
0
210
0
220
0
230
1
0
LINE
5
94
100
AcDbEntity
8
1
62
256
6
ByLayer
370
18
48
1
60
0
100
AcDbLine
10
270.42677
20
20.018149
30
0
11
270.289549
21
20.010958
31
0
39
0
210
0
220
0
230
1
0
LINE
5
95
100
AcDbEntity
8
1
62
256
6
ByLayer
370
18
48
1
60
0
100
AcDbLine
10
268.728644
20
18.111353
30
0
11
268.591423
21
18.104162
31
0
39
0
210
0
220
0
230
1
0
LINE
5
96
100
AcDbEntity
8
1
62
256
6
ByLayer
370
18
48
1
60
0
100
AcDbLine
10
267.57283
20
19.868141
30
0
11
267.505185
21
19.864596
31
0
39
0
210
0
220
0
230
1
0
LINE
5
97
100
AcDbEntity
8
1
62
256
6
ByLayer
370
18
48
1
60
0
100
AcDbLine
10
270.12595
20
18.572115
30
0
11
269.988729
21
18.564924
31
0
39
0
210
0
220
0
230
1
0
LINE
5
98
100
AcDbEntity
8
1
62
256
6
ByLayer
370
18
48
1
60
0
100
AcDbLine
10
270.467278
20
19.245208
30
0
11
270.330057
21
19.238016
31
0
39
0
210
0
220
0
230
1
0
LINE
5
99
100
AcDbEntity
8
1
62
256
6
ByLayer
370
18
48
1
60
0
100
AcDbLine
10
270.026642
20
20.669948
30
0
11
269.88838
21
20.662702
31
0
39
0
210
0
220
0
230
1
0
LINE
5
9A
100
AcDbEntity
8
1
62
256
6
ByLayer
370
18
48
1
60
0
100
AcDbLine
10
268.568967
20
20.980647
30
0
11
268.430704
21
20.973401
31
0
39
0
210
0
220
0
230
1
0
LINE
5
9B
100
AcDbEntity
8
1
62
256
6
ByLayer
370
18
48
1
60
0
100
AcDbLine
10
270.016954
20
20.651876
30
0
11
269.879733
21
20.644685
31
0
39
0
210
0
220
0
230
1
0
LINE
5
9C
100
AcDbEntity
8
1
62
256
6
ByLayer
370
18
48
1
60
0
100
AcDbLine
10
270.137474
20
18.555155
30
0
11
269.999211
21
18.547909
31
0
39
0
210
0
220
0
230
1
0
LINE
5
9D
100
AcDbEntity
8
1
62
256
6
ByLayer
370
18
48
1
60
0
100
AcDbLine
10
270.330057
20
19.238016
30
0
11
270.349918
21
19.239497
31
0
39
0
210
0
220
0
230
1
0
LINE
5
9E
100
AcDbEntity
8
1
62
256
6
ByLayer
370
18
48
1
60
0
100
AcDbLine
10
268.441919
20
20.956864
30
0
11
268.430704
21
20.973401
31
0
39
0
210
0
220
0
230
1
0
LINE
5
9F
100
AcDbEntity
8
1
62
256
6
ByLayer
370
18
48
1
60
0
100
AcDbLine
10
270.309456
20
20.011562
30
0
11
270.289549
21
20.010958
31
0
39
0
210
0
220
0
230
1
0
LINE
5
A0
100
AcDbEntity
8
1
62
256
6
ByLayer
370
18
48
1
60
0
100
AcDbLine
10
269.879733
20
20.644685
30
0
11
269.88838
21
20.662702
31
0
39
0
210
0
220
0
230
1
0
LINE
5
A1
100
AcDbEntity
8
1
62
256
6
ByLayer
370
18
48
1
60
0
100
AcDbLine
10
268.720261
20
18.093789
30
0
11
268.581998
21
18.086543
31
0
39
0
210
0
220
0
230
1
0
LINE
5
A2
100
AcDbEntity
8
1
62
256
6
ByLayer
370
18
48
1
60
0
100
AcDbLine
10
277.686667
20
0.464525
30
0
11
277.770768
21
0.453515
31
0
39
0
210
0
220
0
230
1
0
LINE
5
A3
100
AcDbEntity
8
1
62
256
6
ByLayer
370
18
48
1
60
0
100
AcDbLine
10
278.545811
20
-0.126692
30
0
11
278.444881
21
0.223312
31
0
39
0
210
0
220
0
230
1
0
LINE
5
A4
100
AcDbEntity
8
1
62
256
6
ByLayer
370
18
48
1
60
0
100
AcDbLine
10
278.08656
20
0.096065
30
0
11
279.493919
21
-8.739714
31
0
39
0
210
0
220
0
230
1
0
LINE
5
A5
100
AcDbEntity
8
1
62
256
6
ByLayer
370
18
48
1
60
0
100
AcDbLine
10
279.496924
20
-8.967992
30
0
11
278.357672
21
-17.572842
31
0
39
0
210
0
220
0
230
1
0
LINE
5
A6
100
AcDbEntity
8
1
62
256
6
ByLayer
370
18
48
1
60
0
100
AcDbLine
10
278.061525
20
0.204391
30
0
11
278.065418
21
0.190891
31
0
39
0
210
0
220
0
230
1
0
LINE
5
A7
100
AcDbEntity
8
1
62
256
6
ByLayer
370
18
48
1
60
0
100
AcDbLine
10
278.107139
20
-17.861965
30
0
11
278.093563
21
-17.865836
31
0
39
0
210
0
220
0
230
1
0
LINE
5
A8
100
AcDbEntity
8
1
62
256
6
ByLayer
370
18
48
1
60
0
100
AcDbLine
10
277.998201
20
-17.886859
30
0
11
277.924755
21
-17.898426
31
0
39
0
210
0
220
0
230
1
0
LINE
5
A9
100
AcDbEntity
8
1
62
256
6
ByLayer
370
18
48
1
60
0
100
AcDbLine
10
278.200063
20
-18.767014
30
0
11
278.552045
21
-18.666652
31
0
39
0
210
0
220
0
230
1
0
LINE
5
AA
100
AcDbEntity
8
1
62
256
6
ByLayer
370
13
48
1
60
0
100
AcDbLine
10
277.660209
20
20.046097
30
0
11
276.593614
21
11.894404
31
0
39
0
210
0
220
0
230
1
0
LINE
5
AB
100
AcDbEntity
8
1
62
256
6
ByLayer
370
13
48
1
60
0
100
AcDbLine
10
276.461395
20
11.892444
30
0
11
276.455581
21
11.848012
31
0
39
0
210
0
220
0
230
1
0
LINE
5
AC
100
AcDbEntity
8
1
62
256
6
ByLayer
370
13
48
1
60
0
100
AcDbLine
10
279.841837
20
20.297447
30
0
11
279.837138
21
20.297201
31
0
39
0
210
0
220
0
230
1
0
LINE
5
AD
100
AcDbEntity
8
1
62
256
6
ByLayer
370
13
48
1
60
0
100
AcDbLine
10
261.887796
20
27.183131
30
0
11
260.820609
21
19.026918
31
0
39
0
210
0
220
0
230
1
0
LINE
5
AE
100
AcDbEntity
8
1
62
256
6
ByLayer
370
13
48
1
60
0
100
AcDbLine
10
276.593614
20
11.894404
30
0
11
278.647106
21
12.239099
31
0
39
0
210
0
220
0
230
1
0
LINE
5
AF
100
AcDbEntity
8
1
62
256
6
ByLayer
370
13
48
1
60
0
100
AcDbLine
10
278.214142
20
10.794186
30
0
11
278.099152
21
10.280303
31
0
39
0
210
0
220
0
230
1
0
LINE
5
B0
100
AcDbEntity
8
1
62
256
6
ByLayer
370
13
48
1
60
0
100
AcDbLine
10
277.752479
20
29.881833
30
0
11
277.74778
21
29.881587
31
0
39
0
210
0
220
0
230
1
0
LINE
5
B1
100
AcDbEntity
8
1
62
256
6
ByLayer
370
13
48
1
60
0
100
AcDbLine
10
279.94321
20
20.083501
30
0
11
278.914721
21
12.223044
31
0
39
0
210
0
220
0
230
1
0
LINE
5
B2
100
AcDbEntity
8
1
62
256
6
ByLayer
370
13
48
1
60
0
100
AcDbLine
10
276.892401
20
29.917637
30
0
11
276.929315
21
29.919572
31
0
39
0
210
0
220
0
230
1
0
LINE
5
B3
100
AcDbEntity
8
1
62
256
6
ByLayer
370
13
48
1
60
0
100
AcDbLine
10
278.813965
20
12.220471
30
0
11
278.809266
21
12.220225
31
0
39
0
210
0
220
0
230
1
0
LINE
5
B4
100
AcDbEntity
8
1
62
256
6
ByLayer
370
13
48
1
60
0
100
AcDbLine
10
278.258691
20
10.993274
30
0
11
278.701699
21
11.99261
31
0
39
0
210
0
220
0
230
1
0
LINE
5
B5
100
AcDbEntity
8
1
62
256
6
ByLayer
370
13
48
1
60
0
100
AcDbLine
10
277.005735
20
29.941339
30
0
11
276.892401
21
29.917637
31
0
39
0
210
0
220
0
230
1
0
LINE
5
B6
100
AcDbEntity
8
1
62
256
6
ByLayer
370
13
48
1
60
0
100
AcDbLine
10
258.020842
20
18.248282
30
0
11
259.584704
21
9.810821
31
0
39
0
210
0
220
0
230
1
0
LINE
5
B7
100
AcDbEntity
8
1
62
256
6
ByLayer
370
13
48
1
60
0
100
AcDbLine
10
275.762885
20
11.648949
30
0
11
263.235996
21
10.992443
31
0
39
0
210
0
220
0
230
1
0
LINE
5
B8
100
AcDbEntity
8
1
62
256
6
ByLayer
370
13
48
1
60
0
100
AcDbLine
10
278.473748
20
11.954347
30
0
11
278.701699
21
11.99261
31
0
39
0
210
0
220
0
230
1
0
LINE
5
B9
100
AcDbEntity
8
1
62
256
6
ByLayer
370
13
48
1
60
0
100
AcDbLine
10
277.031474
20
29.872208
30
0
11
277.230257
21
29.880879
31
0
39
0
210
0
220
0
230
1
0
LINE
5
BA
100
AcDbEntity
8
1
62
256
6
ByLayer
370
13
48
1
60
0
100
AcDbLine
10
259.329357
20
28.299028
30
0
11
259.433638
21
27.126169
31
0
39
0
210
0
220
0
230
1
0
LINE
5
BB
100
AcDbEntity
8
1
62
256
6
ByLayer
370
13
48
1
60
0
100
AcDbLine
10
258.020842
20
18.248282
30
0
11
257.933998
21
18.798236
31
0
39
0
210
0
220
0
230
1
0
LINE
5
BC
100
AcDbEntity
8
1
62
256
6
ByLayer
370
13
48
1
60
0
100
AcDbLine
10
278.647106
20
12.239099
30
0
11
279.677643
21
20.115205
31
0
39
0
210
0
220
0
230
1
0
LINE
5
BD
100
AcDbEntity
8
1
62
256
6
ByLayer
370
13
48
1
60
0
100
AcDbLine
10
259.45064
20
26.87771
30
0
11
258.420103
21
19.001604
31
0
39
0
210
0
220
0
230
1
0
LINE
5
BE
100
AcDbEntity
8
1
62
256
6
ByLayer
370
13
48
1
60
0
100
AcDbLine
10
276.33552
20
11.595428
30
0
11
278.473748
21
11.954347
31
0
39
0
210
0
220
0
230
1
0
LINE
5
BF
100
AcDbEntity
8
1
62
256
6
ByLayer
370
13
48
1
60
0
100
AcDbLine
10
276.570745
20
11.736306
30
0
11
276.566046
21
11.736059
31
0
39
0
210
0
220
0
230
1
0
LINE
5
C0
100
AcDbEntity
8
1
62
256
6
ByLayer
370
13
48
1
60
0
100
AcDbLine
10
260.604395
20
19.052084
30
0
11
260.599696
21
19.051838
31
0
39
0
210
0
220
0
230
1
0
LINE
5
C1
100
AcDbEntity
8
1
62
256
6
ByLayer
370
13
48
1
60
0
100
AcDbLine
10
279.844502
20
20.096577
30
0
11
279.839803
21
20.096331
31
0
39
0
210
0
220
0
230
1
0
LINE
5
C2
100
AcDbEntity
8
1
62
256
6
ByLayer
370
13
48
1
60
0
100
AcDbLine
10
276.223503
20
28.53026
30
0
11
276.269033
21
28.241936
31
0
39
0
210
0
220
0
230
1
0
LINE
5
C3
100
AcDbEntity
8
1
62
256
6
ByLayer
370
13
48
1
60
0
100
AcDbLine
10
259.329357
20
28.299028
30
0
11
259.189845
21
28.27561
31
0
39
0
210
0
220
0
230
1
0
LINE
5
C4
100
AcDbEntity
8
1
62
256
6
ByLayer
370
13
48
1
60
0
100
AcDbLine
10
261.911835
20
10.588519
30
0
11
261.907136
21
10.588273
31
0
39
0
210
0
220
0
230
1
0
LINE
5
C5
100
AcDbEntity
8
1
62
256
6
ByLayer
370
13
48
1
60
0
100
AcDbLine
10
258.431691
20
15.257774
30
0
11
259.068417
21
12.596296
31
0
39
0
210
0
220
0
230
1
0
LINE
5
C6
100
AcDbEntity
8
1
62
256
6
ByLayer
370
13
48
1
60
0
100
AcDbLine
10
277.21801
20
29.730037
30
0
11
277.019227
21
29.721366
31
0
39
0
210
0
220
0
230
1
0
LINE
5
C7
100
AcDbEntity
8
1
62
256
6
ByLayer
370
13
48
1
60
0
100
AcDbLine
10
279.100915
20
13.646096
30
0
11
278.878628
21
10.821973
31
0
39
0
210
0
220
0
230
1
0
LINE
5
C8
100
AcDbEntity
8
1
62
256
6
ByLayer
370
13
48
1
60
0
100
AcDbLine
10
261.675057
20
27.270521
30
0
11
260.599696
21
19.051838
31
0
39
0
210
0
220
0
230
1
0
LINE
5
C9
100
AcDbEntity
8
1
62
256
6
ByLayer
370
13
48
1
60
0
100
AcDbLine
10
277.027436
20
29.871991
30
0
11
277.225558
21
29.880633
31
0
39
0
210
0
220
0
230
1
0
LINE
5
CA
100
AcDbEntity
8
1
62
256
6
ByLayer
370
13
48
1
60
0
100
AcDbLine
10
258.192127
20
19.035278
30
0
11
259.220617
21
26.895735
31
0
39
0
210
0
220
0
230
1
0
LINE
5
CB
100
AcDbEntity
8
1
62
256
6
ByLayer
370
13
48
1
60
0
100
AcDbLine
10
261.671582
20
27.208296
30
0
11
261.679756
21
27.270767
31
0
39
0
210
0
220
0
230
1
0
LINE
5
CC
100
AcDbEntity
8
1
62
256
6
ByLayer
370
13
48
1
60
0
100
AcDbLine
10
277.350417
20
20.23731
30
0
11
276.094064
21
28.193368
31
0
39
0
210
0
220
0
230
1
0
LINE
5
CD
100
AcDbEntity
8
1
62
256
6
ByLayer
370
13
48
1
60
0
100
AcDbLine
10
278.41688
20
29.291212
30
0
11
279.837138
21
20.297201
31
0
39
0
210
0
220
0
230
1
0
LINE
5
CE
100
AcDbEntity
8
1
62
256
6
ByLayer
370
13
48
1
60
0
100
AcDbLine
10
276.929315
20
29.919572
30
0
11
277.185987
21
29.979036
31
0
39
0
210
0
220
0
230
1
0
LINE
5
CF
100
AcDbEntity
8
1
62
256
6
ByLayer
370
13
48
1
60
0
100
AcDbLine
10
258.290836
20
19.022202
30
0
11
259.321373
21
26.898308
31
0
39
0
210
0
220
0
230
1
0
LINE
5
D0
100
AcDbEntity
8
1
62
256
6
ByLayer
370
13
48
1
60
0
100
AcDbLine
10
257.944309
20
19.708607
30
0
11
258.049055
21
20.748208
31
0
39
0
210
0
220
0
230
1
0
LINE
5
D1
100
AcDbEntity
8
1
62
256
6
ByLayer
370
13
48
1
60
0
100
AcDbLine
10
278.690584
20
12.092138
30
0
11
276.570745
21
11.736306
31
0
39
0
210
0
220
0
230
1
0
LINE
5
D2
100
AcDbEntity
8
1
62
256
6
ByLayer
370
13
48
1
60
0
100
AcDbLine
10
259.956484
20
28.801655
30
0
11
259.638995
21
28.800758
31
0
39
0
210
0
220
0
230
1
0
LINE
5
D3
100
AcDbEntity
8
1
62
256
6
ByLayer
370
13
48
1
60
0
100
AcDbLine
10
278.737305
20
10.427357
30
0
11
278.695374
21
10.874965
31
0
39
0
210
0
220
0
230
1
0
LINE
5
D4
100
AcDbEntity
8
1
62
256
6
ByLayer
370
13
48
1
60
0
100
AcDbLine
10
278.802917
20
11.942328
30
0
11
278.695374
21
10.874965
31
0
39
0
210
0
220
0
230
1
0
LINE
5
D5
100
AcDbEntity
8
1
62
256
6
ByLayer
370
13
48
1
60
0
100
AcDbLine
10
260.602361
20
18.850967
30
0
11
261.907136
21
10.588273
31
0
39
0
210
0
220
0
230
1
0
LINE
5
D6
100
AcDbEntity
8
1
62
256
6
ByLayer
370
13
48
1
60
0
100
AcDbLine
10
260.437536
20
19.070712
30
0
11
261.504132
21
27.222405
31
0
39
0
210
0
220
0
230
1
0
LINE
5
D7
100
AcDbEntity
8
1
62
256
6
ByLayer
370
13
48
1
60
0
100
AcDbLine
10
279.844502
20
20.096577
30
0
11
278.813965
21
12.220471
31
0
39
0
210
0
220
0
230
1
0
LINE
5
D8
100
AcDbEntity
8
1
62
256
6
ByLayer
370
13
48
1
60
0
100
AcDbLine
10
260.604395
20
19.052084
30
0
11
261.671582
21
27.208296
31
0
39
0
210
0
220
0
230
1
0
LINE
5
D9
100
AcDbEntity
8
1
62
256
6
ByLayer
370
13
48
1
60
0
100
AcDbLine
10
261.882923
20
10.501185
30
0
11
261.878224
21
10.500938
31
0
39
0
210
0
220
0
230
1
0
LINE
5
DA
100
AcDbEntity
8
1
62
256
6
ByLayer
370
13
48
1
60
0
100
AcDbLine
10
277.230257
20
29.880879
30
0
11
277.225558
21
29.880633
31
0
39
0
210
0
220
0
230
1
0
LINE
5
DB
100
AcDbEntity
8
1
62
256
6
ByLayer
370
13
48
1
60
0
100
AcDbLine
10
261.290396
20
9.407146
30
0
11
261.285697
21
9.4069
31
0
39
0
210
0
220
0
230
1
0
LINE
5
DC
100
AcDbEntity
8
1
62
256
6
ByLayer
370
13
48
1
60
0
100
AcDbLine
10
278.166921
20
10.78626
30
0
11
278.214142
21
10.794186
31
0
39
0
210
0
220
0
230
1
0
LINE
5
DD
100
AcDbEntity
8
1
62
256
6
ByLayer
370
13
48
1
60
0
100
AcDbLine
10
278.421579
20
29.291458
30
0
11
279.841837
21
20.297447
31
0
39
0
210
0
220
0
230
1
0
LINE
5
DE
100
AcDbEntity
8
1
62
256
6
ByLayer
370
13
48
1
60
0
100
AcDbLine
10
260.60706
20
18.851213
30
0
11
260.602361
21
18.850967
31
0
39
0
210
0
220
0
230
1
0
LINE
5
DF
100
AcDbEntity
8
1
62
256
6
ByLayer
370
13
48
1
60
0
100
AcDbLine
10
259.220617
20
26.895735
30
0
11
259.166768
21
27.50137
31
0
39
0
210
0
220
0
230
1
0
LINE
5
E0
100
AcDbEntity
8
1
62
256
6
ByLayer
370
13
48
1
60
0
100
AcDbLine
10
259.444754
20
27.026642
30
0
11
261.564593
21
27.382474
31
0
39
0
210
0
220
0
230
1
0
LINE
5
E1
100
AcDbEntity
8
1
62
256
6
ByLayer
370
13
48
1
60
0
100
AcDbLine
10
259.713758
20
9.827321
30
0
11
258.293501
21
18.821332
31
0
39
0
210
0
220
0
230
1
0
LINE
5
E2
100
AcDbEntity
8
1
62
256
6
ByLayer
370
13
48
1
60
0
100
AcDbLine
10
279.675549
20
20.273032
30
0
11
278.255291
21
29.267043
31
0
39
0
210
0
220
0
230
1
0
LINE
5
E3
100
AcDbEntity
8
1
62
256
6
ByLayer
370
13
48
1
60
0
100
AcDbLine
10
278.685885
20
12.091891
30
0
11
276.566046
21
11.736059
31
0
39
0
210
0
220
0
230
1
0
LINE
5
E4
100
AcDbEntity
8
1
62
256
6
ByLayer
370
13
48
1
60
0
100
AcDbLine
10
261.504132
20
27.222405
30
0
11
259.45064
21
26.87771
31
0
39
0
210
0
220
0
230
1
0
LINE
5
E5
100
AcDbEntity
8
1
62
256
6
ByLayer
370
13
48
1
60
0
100
AcDbLine
10
278.421579
20
29.291458
30
0
11
278.41688
21
29.291212
31
0
39
0
210
0
220
0
230
1
0
LINE
5
E6
100
AcDbEntity
8
1
62
256
6
ByLayer
370
13
48
1
60
0
100
AcDbLine
10
261.911835
20
10.588519
30
0
11
261.863413
21
10.895155
31
0
39
0
210
0
220
0
230
1
0
LINE
5
E7
100
AcDbEntity
8
1
62
256
6
ByLayer
370
13
48
1
60
0
100
AcDbLine
10
276.356214
20
28.527285
30
0
11
277.656974
21
20.290011
31
0
39
0
210
0
220
0
230
1
0
LINE
5
E8
100
AcDbEntity
8
1
62
256
6
ByLayer
370
13
48
1
60
0
100
AcDbLine
10
279.839803
20
20.096331
30
0
11
278.809266
21
12.220225
31
0
39
0
210
0
220
0
230
1
0
LINE
5
E9
100
AcDbEntity
8
1
62
256
6
ByLayer
370
13
48
1
60
0
100
AcDbLine
10
261.741532
20
10.589525
30
0
11
260.440772
21
18.826798
31
0
39
0
210
0
220
0
230
1
0
LINE
5
EA
100
AcDbEntity
8
1
62
256
6
ByLayer
370
13
48
1
60
0
100
AcDbLine
10
277.260223
20
29.881948
30
0
11
277.255524
21
29.881701
31
0
39
0
210
0
220
0
230
1
0
LINE
5
EB
100
AcDbEntity
8
1
62
256
6
ByLayer
370
13
48
1
60
0
100
AcDbLine
10
279.940165
20
20.313068
30
0
11
278.519907
21
29.307079
31
0
39
0
210
0
220
0
230
1
0
LINE
5
EC
100
AcDbEntity
8
1
62
256
6
ByLayer
370
13
48
1
60
0
100
AcDbLine
10
261.863413
20
10.895155
30
0
11
260.60706
21
18.851213
31
0
39
0
210
0
220
0
230
1
0
LINE
5
ED
100
AcDbEntity
8
1
62
256
6
ByLayer
370
13
48
1
60
0
100
AcDbLine
10
258.422197
20
18.843777
30
0
11
259.842455
21
9.849766
31
0
39
0
210
0
220
0
230
1
0
LINE
5
EE
100
AcDbEntity
8
1
62
256
6
ByLayer
370
13
48
1
60
0
100
AcDbLine
10
261.103864
20
9.246571
30
0
11
260.905081
21
9.2379
31
0
39
0
210
0
220
0
230
1
0
LINE
5
EF
100
AcDbEntity
8
1
62
256
6
ByLayer
370
13
48
1
60
0
100
AcDbLine
10
278.473748
20
11.954347
30
0
11
278.258691
21
10.993274
31
0
39
0
210
0
220
0
230
1
0
LINE
5
F0
100
AcDbEntity
8
1
62
256
6
ByLayer
370
13
48
1
60
0
100
AcDbLine
10
257.944309
20
19.708607
30
0
11
257.954454
21
20.49865
31
0
39
0
210
0
220
0
230
1
0
LINE
5
F1
100
AcDbEntity
8
1
62
256
6
ByLayer
370
13
48
1
60
0
100
AcDbLine
10
260.879736
20
9.386772
30
0
11
261.078519
21
9.395443
31
0
39
0
210
0
220
0
230
1
0
LINE
5
F2
100
AcDbEntity
8
1
62
256
6
ByLayer
370
13
48
1
60
0
100
AcDbLine
10
278.690584
20
12.092138
30
0
11
278.685885
21
12.091891
31
0
39
0
210
0
220
0
230
1
0
LINE
5
F3
100
AcDbEntity
8
1
62
256
6
ByLayer
370
13
48
1
60
0
100
AcDbLine
10
277.031474
20
29.872208
30
0
11
277.026775
21
29.871962
31
0
39
0
210
0
220
0
230
1
0
LINE
5
F4
100
AcDbEntity
8
1
62
256
6
ByLayer
370
13
48
1
60
0
100
AcDbLine
10
278.166921
20
10.78626
30
0
11
278.258691
21
10.993274
31
0
39
0
210
0
220
0
230
1
0
LINE
5
F5
100
AcDbEntity
8
1
62
256
6
ByLayer
370
13
48
1
60
0
100
AcDbLine
10
262.372452
20
27.46983
30
0
11
274.899342
21
28.126337
31
0
39
0
210
0
220
0
230
1
0
LINE
5
F6
100
AcDbEntity
8
1
62
256
6
ByLayer
370
13
48
1
60
0
100
AcDbLine
10
261.799817
20
27.523351
30
0
11
259.433638
21
27.126169
31
0
39
0
210
0
220
0
230
1
0
LINE
5
F7
100
AcDbEntity
8
1
62
256
6
ByLayer
370
13
48
1
60
0
100
AcDbLine
10
261.206022
20
9.199207
30
0
11
260.94935
21
9.139744
31
0
39
0
210
0
220
0
230
1
0
LINE
5
F8
100
AcDbEntity
8
1
62
256
6
ByLayer
370
13
48
1
60
0
100
AcDbLine
10
259.44882
20
29.02122
30
0
11
259.56401
21
29.009495
31
0
39
0
210
0
220
0
230
1
0
LINE
5
F9
100
AcDbEntity
8
1
62
256
6
ByLayer
370
13
48
1
60
0
100
AcDbLine
10
257.944309
20
19.708607
30
0
11
257.915427
21
19.152588
31
0
39
0
210
0
220
0
230
1
0
LINE
5
FA
100
AcDbEntity
8
1
62
256
6
ByLayer
370
13
48
1
60
0
100
AcDbLine
10
260.822512
20
18.883439
30
0
11
262.078865
21
10.927381
31
0
39
0
210
0
220
0
230
1
0
LINE
5
FB
100
AcDbEntity
8
1
62
256
6
ByLayer
370
13
48
1
60
0
100
AcDbLine
10
278.214142
20
10.794186
30
0
11
278.695374
21
10.874965
31
0
39
0
210
0
220
0
230
1
0
LINE
5
FC
100
AcDbEntity
8
1
62
256
6
ByLayer
370
13
48
1
60
0
100
AcDbLine
10
258.197857
20
21.048924
30
0
11
257.931178
21
19.010772
31
0
39
0
210
0
220
0
230
1
0
LINE
5
FD
100
AcDbEntity
8
1
62
256
6
ByLayer
370
13
48
1
60
0
100
AcDbLine
10
276.572462
20
29.722087
30
0
11
276.74731
21
29.731251
31
0
39
0
210
0
220
0
230
1
0
LINE
5
FE
100
AcDbEntity
8
1
62
256
6
ByLayer
370
13
48
1
60
0
100
AcDbLine
10
276.285134
20
11.937619
30
0
11
277.352321
21
20.093831
31
0
39
0
210
0
220
0
230
1
0
LINE
5
FF
100
AcDbEntity
8
1
62
256
6
ByLayer
370
13
48
1
60
0
100
AcDbLine
10
261.679756
20
27.270767
30
0
11
261.675057
21
27.270521
31
0
39
0
210
0
220
0
230
1
0
LINE
5
100
100
AcDbEntity
8
1
62
256
6
ByLayer
370
13
48
1
60
0
100
AcDbLine
10
258.195172
20
18.805711
30
0
11
259.61543
21
9.8117
31
0
39
0
210
0
220
0
230
1
0
LINE
5
101
100
AcDbEntity
8
SK1
62
256
6
ByLayer
370
13
48
1
60
0
100
AcDbLine
10
-78.599999
20
-10.670483
30
0
11
-79
21
-10.670483
31
0
39
0
210
0
220
0
230
1
0
LINE
5
102
100
AcDbEntity
8
SK1
62
256
6
ByLayer
370
13
48
1
60
0
100
AcDbLine
10
-76.600002
20
24.996
30
0
11
-76.600002
21
10.670483
31
0
39
0
210
0
220
0
230
1
0
LINE
5
103
100
AcDbEntity
8
SK1
62
256
6
ByLayer
370
13
48
1
60
0
100
AcDbLine
10
-76.600002
20
-10.670483
30
0
11
-76.600002
21
-24.996
31
0
39
0
210
0
220
0
230
1
0
LINE
5
104
100
AcDbEntity
8
SK1
62
256
6
ByLayer
370
13
48
1
60
0
100
AcDbLine
10
-80
20
-23.996
30
0
11
-80
21
-8.054018
31
0
39
0
210
0
220
0
230
1
0
LINE
5
105
100
AcDbEntity
8
SK1
62
256
6
ByLayer
370
13
48
1
60
0
100
AcDbLine
10
-80
20
8.054018
30
0
11
-80
21
23.996
31
0
39
0
210
0
220
0
230
1
0
LINE
5
106
100
AcDbEntity
8
SK1
62
256
6
ByLayer
370
13
48
1
60
0
100
AcDbLine
10
-1.375195
20
-24.746
30
0
11
-1.375195
21
24.746
31
0
39
0
210
0
220
0
230
1
0
LINE
5
107
100
AcDbEntity
8
1
62
256
6
ByLayer
370
13
48
1
60
0
100
AcDbLine
10
277.001452
20
-29.097051
30
0
11
278.338256
21
-19.000086
31
0
39
0
210
0
220
0
230
1
0
LINE
5
108
100
AcDbEntity
8
1
62
256
6
ByLayer
370
13
48
1
60
0
100
AcDbLine
10
279.014661
20
-9.666849
30
0
11
276.617081
21
-7.272485
31
0
39
0
210
0
220
0
230
1
0
LINE
5
109
100
AcDbEntity
8
1
62
256
6
ByLayer
370
13
48
1
60
0
100
AcDbLine
10
275.52784
20
2.034572
30
0
11
275.701407
21
-0.839565
31
0
39
0
210
0
220
0
230
1
0
LINE
5
10A
100
AcDbEntity
8
1
62
256
6
ByLayer
370
13
48
1
60
0
100
AcDbLine
10
267.204769
20
9.498104
30
0
11
267.965947
21
9.537996
31
0
39
0
210
0
220
0
230
1
0
LINE
5
10B
100
AcDbEntity
8
1
62
256
6
ByLayer
370
13
48
1
60
0
100
AcDbLine
10
263.394886
20
10.699951
30
0
11
262.86302
21
10.672077
31
0
39
0
210
0
220
0
230
1
0
LINE
5
10C
100
AcDbEntity
8
1
62
256
6
ByLayer
370
13
48
1
60
0
100
AcDbLine
10
278.367424
20
8.998637
30
0
11
278.331519
21
8.996755
31
0
39
0
210
0
220
0
230
1
0
LINE
5
10D
100
AcDbEntity
8
1
62
256
6
ByLayer
370
13
48
1
60
0
100
AcDbLine
10
255.411979
20
2.255421
30
0
11
255.844491
21
-0.30855
31
0
39
0
210
0
220
0
230
1
0
LINE
5
10E
100
AcDbEntity
8
1
62
256
6
ByLayer
370
13
48
1
60
0
100
AcDbLine
10
256.539169
20
29.25
30
0
11
256.539169
21
29.086675
31
0
39
0
210
0
220
0
230
1
0
LINE
5
10F
100
AcDbEntity
8
1
62
256
6
ByLayer
370
13
48
1
60
0
100
AcDbLine
10
278.178477
20
0.618768
30
0
11
278.154678
21
0.621884
31
0
39
0
210
0
220
0
230
1
0
LINE
5
110
100
AcDbEntity
8
1
62
256
6
ByLayer
370
13
48
1
60
0
100
AcDbLine
10
278.390559
20
10.027318
30
0
11
278.252365
21
10.020076
31
0
39
0
210
0
220
0
230
1
0
LINE
5
111
100
AcDbEntity
8
1
62
256
6
ByLayer
370
13
48
1
60
0
100
AcDbLine
10
279.014661
20
-9.666849
30
0
11
277.902411
21
-18.067747
31
0
39
0
210
0
220
0
230
1
0
LINE
5
112
100
AcDbEntity
8
1
62
256
6
ByLayer
370
13
48
1
60
0
100
AcDbLine
10
253.539169
20
28.95
30
0
11
253.539169
21
28.753001
31
0
39
0
210
0
220
0
230
1
0
LINE
5
113
100
AcDbEntity
8
1
62
256
6
ByLayer
370
13
48
1
60
0
100
AcDbLine
10
258.355252
20
21.299184
30
0
11
259.212221
21
27.848763
31
0
39
0
210
0
220
0
230
1
0
LINE
5
114
100
AcDbEntity
8
1
62
256
6
ByLayer
370
13
48
1
60
0
100
AcDbLine
10
276.322234
20
9.97593
30
0
11
275.547021
21
2.818808
31
0
39
0
210
0
220
0
230
1
0
LINE
5
115
100
AcDbEntity
8
1
62
256
6
ByLayer
370
13
48
1
60
0
100
AcDbLine
10
40
20
29.25
30
0
11
40
21
-10.532086
31
0
39
0
210
0
220
0
230
1
0
LINE
5
116
100
AcDbEntity
8
1
62
256
6
ByLayer
370
13
48
1
60
0
100
AcDbLine
10
0
20
-31.15
30
0
11
0
21
-4.975942
31
0
39
0
210
0
220
0
230
1
0
LINE
5
117
100
AcDbEntity
8
1
62
256
6
ByLayer
370
13
48
1
60
0
100
AcDbLine
10
253.539169
20
-28.798734
30
0
11
238.736171
21
-28.798734
31
0
39
0
210
0
220
0
230
1
0
LINE
5
118
100
AcDbEntity
8
1
62
256
6
ByLayer
370
13
48
1
60
0
100
AcDbLine
10
133
20
28.95
30
0
11
133
21
-11.377754
31
0
39
0
210
0
220
0
230
1
0
LINE
5
119
100
AcDbEntity
8
1
62
256
6
ByLayer
370
13
48
1
60
0
100
AcDbLine
10
278.556154
20
9.711274
30
0
11
278.367424
21
8.998637
31
0
39
0
210
0
220
0
230
1
0
LINE
5
11A
100
AcDbEntity
8
1
62
256
6
ByLayer
370
13
48
1
60
0
100
AcDbLine
10
275.990988
20
11.460629
30
0
11
263.762358
21
10.819754
31
0
39
0
210
0
220
0
230
1
0
LINE
5
11B
100
AcDbEntity
8
1
62
256
6
ByLayer
370
13
48
1
60
0
100
AcDbLine
10
264.123176
20
8.834779
30
0
11
264.639018
21
8.861814
31
0
39
0
210
0
220
0
230
1
0
LINE
5
11C
100
AcDbEntity
8
1
62
256
6
ByLayer
370
13
48
1
60
0
100
AcDbLine
10
259.210137
20
26.989453
30
0
11
258.498543
21
21.550937
31
0
39
0
210
0
220
0
230
1
0
LINE
5
11D
100
AcDbEntity
8
1
62
256
6
ByLayer
370
13
48
1
60
0
100
AcDbLine
10
0
20
-4.975942
30
0
11
0
21
4.975942
31
0
39
0
210
0
220
0
230
1
0
LINE
5
11E
100
AcDbEntity
8
1
62
256
6
ByLayer
370
13
48
1
60
0
100
AcDbLine
10
255.947127
20
13.877166
30
0
11
254.544878
21
16.0319
31
0
39
0
210
0
220
0
230
1
0
LINE
5
11F
100
AcDbEntity
8
1
62
256
6
ByLayer
370
13
48
1
60
0
100
AcDbLine
10
254.997506
20
13.349377
30
0
11
255.947127
21
13.877166
31
0
39
0
210
0
220
0
230
1
0
LINE
5
120
100
AcDbEntity
8
1
62
256
6
ByLayer
370
13
48
1
60
0
100
AcDbLine
10
278.170669
20
0.627646
30
0
11
278.159687
21
0.629084
31
0
39
0
210
0
220
0
230
1
0
LINE
5
121
100
AcDbEntity
8
1
62
256
6
ByLayer
370
13
48
1
60
0
100
AcDbLine
10
276.322234
20
9.97593
30
0
11
277.739408
21
10.050201
31
0
39
0
210
0
220
0
230
1
0
LINE
5
122
100
AcDbEntity
8
1
62
256
6
ByLayer
370
13
48
1
60
0
100
AcDbLine
10
256.539169
20
-29.097051
30
0
11
256.539169
21
-0.38108
31
0
39
0
210
0
220
0
230
1
0
LINE
5
123
100
AcDbEntity
8
1
62
256
6
ByLayer
370
13
48
1
60
0
100
AcDbLine
10
35.01
20
-16.404424
30
0
11
35.01
21
-28.453132
31
0
39
0
210
0
220
0
230
1
0
LINE
5
124
100
AcDbEntity
8
1
62
256
6
ByLayer
370
13
48
1
60
0
100
AcDbLine
10
263.75296
20
10.819261
30
0
11
263.762358
21
10.819754
31
0
39
0
210
0
220
0
230
1
0
LINE
5
125
100
AcDbEntity
8
1
62
256
6
ByLayer
370
13
48
1
60
0
100
AcDbLine
10
277.001452
20
-29.097051
30
0
11
256.539169
21
-29.097051
31
0
39
0
210
0
220
0
230
1
0
LINE
5
126
100
AcDbEntity
8
1
62
256
6
ByLayer
370
13
48
1
60
0
100
AcDbLine
10
254.544878
20
13.339814
30
0
11
254.544878
21
16.0319
31
0
39
0
210
0
220
0
230
1
0
LINE
5
127
100
AcDbEntity
8
1
62
256
6
ByLayer
370
13
48
1
60
0
100
AcDbLine
10
253.539169
20
-28.798734
30
0
11
253.539169
21
0.261427
31
0
39
0
210
0
220
0
230
1
0
LINE
5
128
100
AcDbEntity
8
1
62
256
6
ByLayer
370
13
48
1
60
0
100
AcDbLine
10
35
20
-29.133982
30
0
11
35
21
-29.25
31
0
39
0
210
0
220
0
230
1
0
LINE
5
129
100
AcDbEntity
8
1
62
256
6
ByLayer
370
13
48
1
60
0
100
AcDbLine
10
278.562942
20
0.799929
30
0
11
278.179679
21
0.650498
31
0
39
0
210
0
220
0
230
1
0
LINE
5
12A
100
AcDbEntity
8
1
62
256
6
ByLayer
370
13
48
1
60
0
100
AcDbLine
10
278.051993
20
0.600715
30
0
11
277.831329
21
0.51468
31
0
39
0
210
0
220
0
230
1
0
LINE
5
12B
100
AcDbEntity
8
1
62
256
6
ByLayer
370
13
48
1
60
0
100
AcDbLine
10
278.294326
20
9.294053
30
0
11
278.246148
21
10.127651
31
0
39
0
210
0
220
0
230
1
0
LINE
5
12C
100
AcDbEntity
8
1
62
256
6
ByLayer
370
13
48
1
60
0
100
AcDbLine
10
259.212221
20
27.848763
30
0
11
259.146031
21
29.11175
31
0
39
0
210
0
220
0
230
1
0
LINE
5
12D
100
AcDbEntity
8
1
62
256
6
ByLayer
370
13
48
1
60
0
100
AcDbLine
10
278.390559
20
10.027318
30
0
11
278.556154
21
9.711274
31
0
39
0
210
0
220
0
230
1
0
LINE
5
12E
100
AcDbEntity
8
1
62
256
6
ByLayer
370
13
48
1
60
0
100
AcDbLine
10
0
20
31.15
30
0
11
0
21
4.975942
31
0
39
0
210
0
220
0
230
1
0
LINE
5
12F
100
AcDbEntity
8
1
62
256
6
ByLayer
370
13
48
1
60
0
100
AcDbLine
10
262.33997
20
10.724706
30
0
11
262.341632
21
10.715184
31
0
39
0
210
0
220
0
230
1
0
LINE
5
130
100
AcDbEntity
8
1
62
256
6
ByLayer
370
13
48
1
60
0
100
AcDbLine
10
5.0783
20
-5.567764
30
0
11
5.0783
21
-31.25
31
0
39
0
210
0
220
0
230
1
0
LINE
5
131
100
AcDbEntity
8
1
62
256
6
ByLayer
370
13
48
1
60
0
100
AcDbLine
10
251.27075
20
2.509603
30
0
11
251.490008
21
1.209824
31
0
39
0
210
0
220
0
230
1
0
LINE
5
132
100
AcDbEntity
8
1
62
256
6
ByLayer
370
13
48
1
60
0
100
AcDbLine
10
258.586961
20
14.274442
30
0
11
257.835123
21
19.035577
31
0
39
0
210
0
220
0
230
1
0
LINE
5
133
100
AcDbEntity
8
1
62
256
6
ByLayer
370
13
48
1
60
0
100
AcDbLine
10
278.556154
20
9.711274
30
0
11
278.562942
21
0.799929
31
0
39
0
210
0
220
0
230
1
0
LINE
5
134
100
AcDbEntity
8
1
62
256
6
ByLayer
370
13
48
1
60
0
100
AcDbLine
10
0.1
20
5.567764
30
0
11
5.0783
21
5.567764
31
0
39
0
210
0
220
0
230
1
0
LINE
5
135
100
AcDbEntity
8
1
62
256
6
ByLayer
370
13
48
1
60
0
100
AcDbLine
10
267.058454
20
10.491809
30
0
11
276.407741
21
10.981784
31
0
39
0
210
0
220
0
230
1
0
LINE
5
136
100
AcDbEntity
8
1
62
256
6
ByLayer
370
13
48
1
60
0
100
AcDbLine
10
277.753747
20
-0.188349
30
0
11
275.52784
21
2.034572
31
0
39
0
210
0
220
0
230
1
0
LINE
5
137
100
AcDbEntity
8
1
62
256
6
ByLayer
370
13
48
1
60
0
100
AcDbLine
10
0.1
20
-31.25
30
0
11
0.1
21
-5.567764
31
0
39
0
210
0
220
0
230
1
0
LINE
5
138
100
AcDbEntity
8
1
62
256
6
ByLayer
370
13
48
1
60
0
100
AcDbLine
10
276.533746
20
-5.508751
30
0
11
278.992241
21
-7.963948
31
0
39
0
210
0
220
0
230
1
0
LINE
5
139
100
AcDbEntity
8
1
62
256
6
ByLayer
370
13
48
1
60
0
100
AcDbLine
10
256.069152
20
10.080692
30
0
11
257.806542
21
9.546797
31
0
39
0
210
0
220
0
230
1
0
LINE
5
13A
100
AcDbEntity
8
1
62
256
6
ByLayer
370
13
48
1
60
0
100
AcDbLine
10
5.0783
20
-5.567764
30
0
11
0.1
21
-5.567764
31
0
39
0
210
0
220
0
230
1
0
LINE
5
13B
100
AcDbEntity
8
1
62
256
6
ByLayer
370
13
48
1
60
0
100
AcDbLine
10
273.04653
20
9.804258
30
0
11
276.322234
21
9.97593
31
0
39
0
210
0
220
0
230
1
0
LINE
5
13C
100
AcDbEntity
8
1
62
256
6
ByLayer
370
13
48
1
60
0
100
AcDbLine
10
278.338256
20
-19.000086
30
0
11
277.887952
21
-18.626347
31
0
39
0
210
0
220
0
230
1
0
LINE
5
13D
100
AcDbEntity
8
1
62
256
6
ByLayer
370
13
48
1
60
0
100
AcDbLine
10
278.270417
20
1.132535
30
0
11
278.562942
21
0.799929
31
0
39
0
210
0
220
0
230
1
0
LINE
5
13E
100
AcDbEntity
8
1
62
256
6
ByLayer
370
13
48
1
60
0
100
AcDbLine
10
10.1783
20
-4.11915
30
0
11
10.1783
21
4.11915
31
0
39
0
210
0
220
0
230
1
0
LINE
5
13F
100
AcDbEntity
8
1
62
256
6
ByLayer
370
13
48
1
60
0
100
AcDbLine
10
272.393439
20
11.444548
30
0
11
272.166982
21
11.43268
31
0
39
0
210
0
220
0
230
1
0
LINE
5
140
100
AcDbEntity
8
1
62
256
6
ByLayer
370
13
48
1
60
0
100
AcDbLine
10
262.341632
20
10.715184
30
0
11
262.506227
21
10.72381
31
0
39
0
210
0
220
0
230
1
0
LINE
5
141
100
AcDbEntity
8
1
62
256
6
ByLayer
370
13
48
1
60
0
100
AcDbLine
10
40
20
-29.134086
30
0
11
40
21
-29.25
31
0
39
0
210
0
220
0
230
1
0
LINE
5
142
100
AcDbEntity
8
1
62
256
6
ByLayer
370
13
48
1
60
0
100
AcDbLine
10
278.170669
20
0.627646
30
0
11
278.178477
21
0.618768
31
0
39
0
210
0
220
0
230
1
0
LINE
5
143
100
AcDbEntity
8
1
62
256
6
ByLayer
370
13
48
1
60
0
100
AcDbLine
10
133
20
-28.899666
30
0
11
133
21
-28.95
31
0
39
0
210
0
220
0
230
1
0
LINE
5
144
100
AcDbEntity
8
1
62
256
6
ByLayer
370
13
48
1
60
0
100
AcDbLine
10
263.714645
20
10.729633
30
0
11
263.400657
21
10.713178
31
0
39
0
210
0
220
0
230
1
0
LINE
5
145
100
AcDbEntity
8
1
62
256
6
ByLayer
370
13
48
1
60
0
100
AcDbLine
10
264.102307
20
11.037844
30
0
11
267.085172
21
11.19417
31
0
39
0
210
0
220
0
230
1
0
LINE
5
146
100
AcDbEntity
8
1
62
256
6
ByLayer
370
13
48
1
60
0
100
AcDbLine
10
275.547021
20
2.818808
30
0
11
277.683134
21
0.68556
31
0
39
0
210
0
220
0
230
1
0
LINE
5
147
100
AcDbEntity
8
1
62
256
6
ByLayer
370
13
48
1
60
0
100
AcDbLine
10
277.753747
20
-0.188349
30
0
11
278.992241
21
-7.963948
31
0
39
0
210
0
220
0
230
1
0
LINE
5
148
100
AcDbEntity
8
1
62
256
6
ByLayer
370
13
48
1
60
0
100
AcDbLine
10
5.0783
20
31.25
30
0
11
5.0783
21
5.567764
31
0
39
0
210
0
220
0
230
1
0
LINE
5
149
100
AcDbEntity
8
1
62
256
6
ByLayer
370
13
48
1
60
0
100
AcDbLine
10
278.270417
20
1.132535
30
0
11
278.248548
21
1.135397
31
0
39
0
210
0
220
0
230
1
0
LINE
5
14A
100
AcDbEntity
8
1
62
256
6
ByLayer
370
13
48
1
60
0
100
AcDbLine
10
35
20
29.25
30
0
11
35
21
-10.532202
31
0
39
0
210
0
220
0
230
1
0
LINE
5
14B
100
AcDbEntity
8
1
62
256
6
ByLayer
370
13
48
1
60
0
100
AcDbLine
10
0.1
20
31.25
30
0
11
0.1
21
5.567764
31
0
39
0
210
0
220
0
230
1
0
LINE
5
14C
100
AcDbEntity
8
1
62
256
6
ByLayer
370
13
48
1
60
0
100
AcDbLine
10
272.552986
20
11.480726
30
0
11
275.535852
21
11.637051
31
0
39
0
210
0
220
0
230
1
0
LINE
5
14D
100
AcDbEntity
8
4
62
256
6
ByLayer
370
18
48
0.05
60
0
100
AcDbLine
10
280
20
0
30
0
11
0
21
0
31
0
39
0
210
0
220
0
230
1
0
LINE
5
14F
100
AcDbEntity
8
SK4
62
256
6
ByLayer
370
13
48
0.05
60
0
100
AcDbLine
10
280
20
0
30
0
11
-80
21
0
31
0
39
0
210
0
220
0
230
1
0
LINE
5
151
100
AcDbEntity
8
SK1
62
256
6
ByLayer
370
13
48
1
60
0
100
AcDbLine
10
-80
20
-23.996
30
0
11
-79
21
-24.996
31
0
39
0
210
0
220
0
230
1
0
LINE
5
152
100
AcDbEntity
8
SK1
62
256
6
ByLayer
370
13
48
1
60
0
100
AcDbLine
10
-79
20
24.996
30
0
11
-80
21
23.996
31
0
39
0
210
0
220
0
230
1
0
LINE
5
153
100
AcDbEntity
8
SK1
62
256
6
ByLayer
370
13
48
1
60
0
100
AcDbLine
10
-78.516222
20
24.892544
30
0
11
-78.599999
21
24.996
31
0
39
0
210
0
220
0
230
1
0
LINE
5
154
100
AcDbEntity
8
SK1
62
256
6
ByLayer
370
13
48
1
60
0
100
AcDbLine
10
-78.599999
20
-24.996
30
0
11
-78.516222
21
-24.892544
31
0
39
0
210
0
220
0
230
1
0
LINE
5
155
100
AcDbEntity
8
SK1
62
256
6
ByLayer
370
13
48
1
60
0
100
AcDbLine
10
-77.633813
20
-24.639667
30
0
11
-76.600002
21
-24.996
31
0
39
0
210
0
220
0
230
1
0
LINE
5
156
100
AcDbEntity
8
SK1
62
256
6
ByLayer
370
13
48
1
60
0
100
AcDbLine
10
-76.600002
20
24.996
30
0
11
-77.633813
21
24.639667
31
0
39
0
210
0
220
0
230
1
0
LINE
5
157
100
AcDbEntity
8
SK1
62
256
6
ByLayer
370
13
48
1
60
0
100
AcDbLine
10
-78.599999
20
24.996
30
0
11
-79
21
24.996
31
0
39
0
210
0
220
0
230
1
0
LINE
5
158
100
AcDbEntity
8
SK1
62
256
6
ByLayer
370
13
48
1
60
0
100
AcDbLine
10
-79
20
-24.996
30
0
11
-78.599999
21
-24.996
31
0
39
0
210
0
220
0
230
1
0
LINE
5
159
100
AcDbEntity
8
SK1
62
256
6
ByLayer
370
13
48
1
60
0
100
AcDbLine
10
-0.15
20
24.746
30
0
11
-1.375195
21
24.746
31
0
39
0
210
0
220
0
230
1
0
LINE
5
15A
100
AcDbEntity
8
SK1
62
256
6
ByLayer
370
13
48
1
60
0
100
AcDbLine
10
-1.375195
20
-24.746
30
0
11
-0.15
21
-24.746
31
0
39
0
210
0
220
0
230
1
0
LINE
5
15B
100
AcDbEntity
8
SK1
62
256
6
ByLayer
370
13
48
1
60
0
100
AcDbLine
10
-2
20
24.996
30
0
11
-76.600002
21
24.996
31
0
39
0
210
0
220
0
230
1
0
LINE
5
15C
100
AcDbEntity
8
SK1
62
256
6
ByLayer
370
13
48
1
60
0
100
AcDbLine
10
-76.600002
20
-24.996
30
0
11
-2
21
-24.996
31
0
39
0
210
0
220
0
230
1
0
LINE
5
15D
100
AcDbEntity
8
SK1
62
256
6
ByLayer
370
13
48
1
60
0
100
AcDbLine
10
-1.544243
20
24.783477
30
0
11
-2
21
24.996
31
0
39
0
210
0
220
0
230
1
0
LINE
5
15E
100
AcDbEntity
8
SK1
62
256
6
ByLayer
370
13
48
1
60
0
100
AcDbLine
10
-2
20
-24.996
30
0
11
-1.544243
21
-24.783477
31
0
39
0
210
0
220
0
230
1
0
LINE
5
15F
100
AcDbEntity
8
1
62
256
6
ByLayer
370
13
48
1
60
0
100
AcDbLine
10
278.358182
20
10.93909
30
0
11
278.89296
21
12.14544
31
0
39
0
210
0
220
0
230
1
0
LINE
5
160
100
AcDbEntity
8
1
62
256
6
ByLayer
370
13
48
1
60
0
100
AcDbLine
10
277.529174
20
20.267521
30
0
11
276.27282
21
28.223579
31
0
39
0
210
0
220
0
230
1
0
LINE
5
161
100
AcDbEntity
8
1
62
256
6
ByLayer
370
13
48
1
60
0
100
AcDbLine
10
276.464647
20
11.910686
30
0
11
277.531834
21
20.066899
31
0
39
0
210
0
220
0
230
1
0
LINE
5
162
100
AcDbEntity
8
1
62
256
6
ByLayer
370
18
48
1
60
0
100
AcDbLine
10
269.08684
20
18.268324
30
0
11
268.959772
21
18.261664
31
0
39
0
210
0
220
0
230
1
0
LINE
5
163
100
AcDbEntity
8
1
62
256
6
ByLayer
370
18
48
1
60
0
100
AcDbLine
10
268.824714
20
20.838728
30
0
11
268.951782
21
20.845387
31
0
39
0
210
0
220
0
230
1
0
LINE
5
164
100
AcDbEntity
8
1
62
256
6
ByLayer
370
18
48
1
60
0
100
AcDbLine
10
269.114234
20
16.707919
30
0
11
269.181975
21
16.711469
31
0
39
0
210
0
220
0
230
1
0
LINE
5
165
100
AcDbEntity
8
1
62
256
6
ByLayer
370
18
48
1
60
0
100
AcDbLine
10
268.88366
20
22.403657
30
0
11
268.815919
21
22.400107
31
0
39
0
210
0
220
0
230
1
0
LINE
5
166
100
AcDbEntity
8
1
62
256
6
ByLayer
370
13
48
1
60
0
100
AcDbLine
10
35
20
-29.25
30
0
11
40
21
-29.25
31
0
39
0
210
0
220
0
230
1
0
LINE
5
167
100
AcDbEntity
8
1
62
256
6
ByLayer
370
13
48
1
60
0
100
AcDbLine
10
258.869909
20
29.25
30
0
11
256.539169
21
29.25
31
0
39
0
210
0
220
0
230
1
0
LINE
5
168
100
AcDbEntity
8
1
62
256
6
ByLayer
370
13
48
1
60
0
100
AcDbLine
10
40
20
-29.25
30
0
11
133
21
-28.95
31
0
39
0
210
0
220
0
230
1
0
LINE
5
169
100
AcDbEntity
8
1
62
256
6
ByLayer
370
13
48
1
60
0
100
AcDbLine
10
256.539169
20
29.25
30
0
11
253.539169
21
28.95
31
0
39
0
210
0
220
0
230
1
0
LINE
5
16A
100
AcDbEntity
8
1
62
256
6
ByLayer
370
13
48
1
60
0
100
AcDbLine
10
133
20
-28.95
30
0
11
144.710007
21
-28.95
31
0
39
0
210
0
220
0
230
1
0
LINE
5
16B
100
AcDbEntity
8
1
62
256
6
ByLayer
370
13
48
1
60
0
100
AcDbLine
10
253.539169
20
28.95
30
0
11
237.041453
21
28.95
31
0
39
0
210
0
220
0
230
1
0
LINE
5
16C
100
AcDbEntity
8
1
62
256
6
ByLayer
370
13
48
1
60
0
100
AcDbLine
10
134.322596
20
28.95
30
0
11
133
21
28.95
31
0
39
0
210
0
220
0
230
1
0
LINE
5
16D
100
AcDbEntity
8
1
62
256
6
ByLayer
370
13
48
1
60
0
100
AcDbLine
10
133
20
28.95
30
0
11
40
21
29.25
31
0
39
0
210
0
220
0
230
1
0
LINE
5
16E
100
AcDbEntity
8
1
62
256
6
ByLayer
370
13
48
1
60
0
100
AcDbLine
10
40
20
29.25
30
0
11
35
21
29.25
31
0
39
0
210
0
220
0
230
1
0
LINE
5
16F
100
AcDbEntity
8
1
62
256
6
ByLayer
370
13
48
1
60
0
100
AcDbLine
10
0
20
-31.15
30
0
11
0.1
21
-31.25
31
0
39
0
210
0
220
0
230
1
0
LINE
5
170
100
AcDbEntity
8
1
62
256
6
ByLayer
370
13
48
1
60
0
100
AcDbLine
10
0.1
20
31.25
30
0
11
0
21
31.15
31
0
39
0
210
0
220
0
230
1
0
LINE
5
171
100
AcDbEntity
8
1
62
256
6
ByLayer
370
13
48
1
60
0
100
AcDbLine
10
0.1
20
-31.25
30
0
11
5.0783
21
-31.25
31
0
39
0
210
0
220
0
230
1
0
LINE
5
172
100
AcDbEntity
8
1
62
256
6
ByLayer
370
13
48
1
60
0
100
AcDbLine
10
5.0783
20
31.25
30
0
11
0.1
21
31.25
31
0
39
0
210
0
220
0
230
1
0
LINE
5
173
100
AcDbEntity
8
81
62
256
6
ByLayer
370
18
48
1
60
0
100
AcDbLine
10
280
20
0
30
0
11
287
21
0
31
0
39
0
210
0
220
0
230
1
0
LINE
5
174
100
AcDbEntity
8
80
62
256
6
ByLayer
370
18
48
1
60
0
100
AcDbLine
10
0
20
0
30
0
11
-7
21
0
31
0
39
0
210
0
220
0
230
1
0
LINE
5
175
100
AcDbEntity
8
SK2
62
256
6
ByLayer
370
13
48
1
60
0
100
AcDbLine
10
-100.725
20
25
30
0
11
-100.725
21
-25
31
0
39
0
210
0
220
0
230
1
0
LINE
5
177
100
AcDbEntity
8
SK2
62
256
6
ByLayer
370
13
48
1
60
0
100
AcDbLine
10
-81.5875
20
-25
30
0
11
-103.9
21
-25
31
0
39
0
210
0
220
0
230
1
0
LINE
5
178
100
AcDbEntity
8
SK2
62
256
6
ByLayer
370
13
48
1
60
0
100
AcDbLine
10
-81.5875
20
25
30
0
11
-103.9
21
25
31
0
39
0
210
0
220
0
230
1
0
LINE
5
179
100
AcDbEntity
8
1
62
256
6
ByLayer
370
18
48
1
60
1
100
AcDbLine
10
-100.725
20
-25
30
0
11
-101.650575
21
-20.825003
31
0
39
0
210
0
220
0
230
1
0
LINE
5
17A
100
AcDbEntity
8
1
62
256
6
ByLayer
370
18
48
1
60
1
100
AcDbLine
10
-101.650575
20
-20.825003
30
0
11
-99.799425
21
-20.824997
31
0
39
0
210
0
220
0
230
1
0
LINE
5
17B
100
AcDbEntity
8
1
62
256
6
ByLayer
370
18
48
1
60
1
100
AcDbLine
10
-99.799425
20
-20.824997
30
0
11
-100.725
21
-25
31
0
39
0
210
0
220
0
230
1
0
LINE
5
17C
100
AcDbEntity
8
1
62
256
6
ByLayer
370
18
48
1
60
1
100
AcDbLine
10
-100.725
20
25
30
0
11
-99.799425
21
20.825003
31
0
39
0
210
0
220
0
230
1
0
LINE
5
17D
100
AcDbEntity
8
1
62
256
6
ByLayer
370
18
48
1
60
1
100
AcDbLine
10
-99.799425
20
20.825003
30
0
11
-101.650575
21
20.824997
31
0
39
0
210
0
220
0
230
1
0
LINE
5
17E
100
AcDbEntity
8
1
62
256
6
ByLayer
370
18
48
1
60
1
100
AcDbLine
10
-101.650575
20
20.824997
30
0
11
-100.725
21
25
31
0
39
0
210
0
220
0
230
1
0
LINE
5
17F
100
AcDbEntity
8
SK2
62
256
6
ByLayer
370
13
48
1
60
0
100
AcDbLine
10
-110.725
20
-31.25
30
0
11
-110.725
21
31.25
31
0
39
0
210
0
220
0
230
1
0
LINE
5
180
100
AcDbEntity
8
SK2
62
256
6
ByLayer
370
13
48
1
60
0
100
AcDbLine
10
-1.5875
20
31.25
30
0
11
-113.9
21
31.25
31
0
39
0
210
0
220
0
230
1
0
LINE
5
181
100
AcDbEntity
8
SK2
62
256
6
ByLayer
370
13
48
1
60
0
100
AcDbLine
10
-1.5875
20
-31.25
30
0
11
-113.9
21
-31.25
31
0
39
0
210
0
220
0
230
1
0
LINE
5
182
100
AcDbEntity
8
1
62
256
6
ByLayer
370
18
48
1
60
1
100
AcDbLine
10
-110.725
20
31.25
30
0
11
-109.799425
21
27.075003
31
0
39
0
210
0
220
0
230
1
0
LINE
5
183
100
AcDbEntity
8
1
62
256
6
ByLayer
370
18
48
1
60
1
100
AcDbLine
10
-109.799425
20
27.075003
30
0
11
-111.650575
21
27.074997
31
0
39
0
210
0
220
0
230
1
0
LINE
5
184
100
AcDbEntity
8
1
62
256
6
ByLayer
370
18
48
1
60
1
100
AcDbLine
10
-111.650575
20
27.074997
30
0
11
-110.725
21
31.25
31
0
39
0
210
0
220
0
230
1
0
LINE
5
185
100
AcDbEntity
8
1
62
256
6
ByLayer
370
18
48
1
60
1
100
AcDbLine
10
-110.725
20
-31.25
30
0
11
-111.650575
21
-27.075003
31
0
39
0
210
0
220
0
230
1
0
LINE
5
186
100
AcDbEntity
8
1
62
256
6
ByLayer
370
18
48
1
60
1
100
AcDbLine
10
-111.650575
20
-27.075003
30
0
11
-109.799425
21
-27.074997
31
0
39
0
210
0
220
0
230
1
0
LINE
5
187
100
AcDbEntity
8
1
62
256
6
ByLayer
370
18
48
1
60
1
100
AcDbLine
10
-109.799425
20
-27.074997
30
0
11
-110.725
21
-31.25
31
0
39
0
210
0
220
0
230
1
0
LINE
5
188
100
AcDbEntity
8
2
62
256
6
ByLayer
370
13
48
1
60
0
100
AcDbLine
10
306.975
20
30
30
0
11
306.975
21
-30
31
0
39
0
210
0
220
0
230
1
0
LINE
5
18A
100
AcDbEntity
8
2
62
256
6
ByLayer
370
13
48
1
60
0
100
AcDbLine
10
281.5875
20
-30
30
0
11
310.15
21
-30
31
0
39
0
210
0
220
0
230
1
0
LINE
5
18B
100
AcDbEntity
8
2
62
256
6
ByLayer
370
13
48
1
60
0
100
AcDbLine
10
281.5875
20
30
30
0
11
310.15
21
30
31
0
39
0
210
0
220
0
230
1
0
LINE
5
18C
100
AcDbEntity
8
1
62
256
6
ByLayer
370
18
48
1
60
1
100
AcDbLine
10
306.975
20
-30
30
0
11
306.049425
21
-25.825003
31
0
39
0
210
0
220
0
230
1
0
LINE
5
18D
100
AcDbEntity
8
1
62
256
6
ByLayer
370
18
48
1
60
1
100
AcDbLine
10
306.049425
20
-25.825003
30
0
11
307.900575
21
-25.824997
31
0
39
0
210
0
220
0
230
1
0
LINE
5
18E
100
AcDbEntity
8
1
62
256
6
ByLayer
370
18
48
1
60
1
100
AcDbLine
10
307.900575
20
-25.824997
30
0
11
306.975
21
-30
31
0
39
0
210
0
220
0
230
1
0
LINE
5
18F
100
AcDbEntity
8
1
62
256
6
ByLayer
370
18
48
1
60
1
100
AcDbLine
10
306.975
20
30
30
0
11
307.900575
21
25.825003
31
0
39
0
210
0
220
0
230
1
0
LINE
5
190
100
AcDbEntity
8
1
62
256
6
ByLayer
370
18
48
1
60
1
100
AcDbLine
10
307.900575
20
25.825003
30
0
11
306.049425
21
25.824997
31
0
39
0
210
0
220
0
230
1
0
LINE
5
191
100
AcDbEntity
8
1
62
256
6
ByLayer
370
18
48
1
60
1
100
AcDbLine
10
306.049425
20
25.824997
30
0
11
306.975
21
30
31
0
39
0
210
0
220
0
230
1
0
LINE
5
347
100
AcDbEntity
8
1
62
256
6
ByLayer
370
18
48
1
60
1
100
AcDbLine
10
-100.725
20
-25
30
0
11
-101.650575
21
-20.825003
31
0
39
0
210
0
220
0
230
1
0
LINE
5
348
100
AcDbEntity
8
1
62
256
6
ByLayer
370
18
48
1
60
1
100
AcDbLine
10
-101.650575
20
-20.825003
30
0
11
-99.799425
21
-20.824997
31
0
39
0
210
0
220
0
230
1
0
LINE
5
349
100
AcDbEntity
8
1
62
256
6
ByLayer
370
18
48
1
60
1
100
AcDbLine
10
-99.799425
20
-20.824997
30
0
11
-100.725
21
-25
31
0
39
0
210
0
220
0
230
1
0
LINE
5
34B
100
AcDbEntity
8
1
62
256
6
ByLayer
370
18
48
1
60
1
100
AcDbLine
10
-100.725
20
25
30
0
11
-99.799425
21
20.825003
31
0
39
0
210
0
220
0
230
1
0
LINE
5
34C
100
AcDbEntity
8
1
62
256
6
ByLayer
370
18
48
1
60
1
100
AcDbLine
10
-99.799425
20
20.825003
30
0
11
-101.650575
21
20.824997
31
0
39
0
210
0
220
0
230
1
0
LINE
5
34D
100
AcDbEntity
8
1
62
256
6
ByLayer
370
18
48
1
60
1
100
AcDbLine
10
-101.650575
20
20.824997
30
0
11
-100.725
21
25
31
0
39
0
210
0
220
0
230
1
0
LINE
5
351
100
AcDbEntity
8
1
62
256
6
ByLayer
370
18
48
1
60
1
100
AcDbLine
10
-110.725
20
31.25
30
0
11
-109.799425
21
27.075003
31
0
39
0
210
0
220
0
230
1
0
LINE
5
352
100
AcDbEntity
8
1
62
256
6
ByLayer
370
18
48
1
60
1
100
AcDbLine
10
-109.799425
20
27.075003
30
0
11
-111.650575
21
27.074997
31
0
39
0
210
0
220
0
230
1
0
LINE
5
353
100
AcDbEntity
8
1
62
256
6
ByLayer
370
18
48
1
60
1
100
AcDbLine
10
-111.650575
20
27.074997
30
0
11
-110.725
21
31.25
31
0
39
0
210
0
220
0
230
1
0
LINE
5
355
100
AcDbEntity
8
1
62
256
6
ByLayer
370
18
48
1
60
1
100
AcDbLine
10
-110.725
20
-31.25
30
0
11
-111.650575
21
-27.075003
31
0
39
0
210
0
220
0
230
1
0
LINE
5
356
100
AcDbEntity
8
1
62
256
6
ByLayer
370
18
48
1
60
1
100
AcDbLine
10
-111.650575
20
-27.075003
30
0
11
-109.799425
21
-27.074997
31
0
39
0
210
0
220
0
230
1
0
LINE
5
357
100
AcDbEntity
8
1
62
256
6
ByLayer
370
18
48
1
60
1
100
AcDbLine
10
-109.799425
20
-27.074997
30
0
11
-110.725
21
-31.25
31
0
39
0
210
0
220
0
230
1
0
LINE
5
35B
100
AcDbEntity
8
1
62
256
6
ByLayer
370
18
48
1
60
1
100
AcDbLine
10
306.975
20
-30
30
0
11
306.049425
21
-25.825003
31
0
39
0
210
0
220
0
230
1
0
LINE
5
35C
100
AcDbEntity
8
1
62
256
6
ByLayer
370
18
48
1
60
1
100
AcDbLine
10
306.049425
20
-25.825003
30
0
11
307.900575
21
-25.824997
31
0
39
0
210
0
220
0
230
1
0
LINE
5
35D
100
AcDbEntity
8
1
62
256
6
ByLayer
370
18
48
1
60
1
100
AcDbLine
10
307.900575
20
-25.824997
30
0
11
306.975
21
-30
31
0
39
0
210
0
220
0
230
1
0
LINE
5
35F
100
AcDbEntity
8
1
62
256
6
ByLayer
370
18
48
1
60
1
100
AcDbLine
10
306.975
20
30
30
0
11
307.900575
21
25.825003
31
0
39
0
210
0
220
0
230
1
0
LINE
5
360
100
AcDbEntity
8
1
62
256
6
ByLayer
370
18
48
1
60
1
100
AcDbLine
10
307.900575
20
25.825003
30
0
11
306.049425
21
25.824997
31
0
39
0
210
0
220
0
230
1
0
LINE
5
361
100
AcDbEntity
8
1
62
256
6
ByLayer
370
18
48
1
60
1
100
AcDbLine
10
306.049425
20
25.824997
30
0
11
306.975
21
30
31
0
39
0
210
0
220
0
230
1
0
MTEXT
5
343
100
AcDbEntity
8
SK2
62
256
6
ByLayer
370
18
48
1
60
0
100
AcDbMText
10
-102.736672
20
-6.949399
30
0
210
0
220
0
230
1
1
%%c
40
4.5
41
0
44
1.084337
50
90
71
7
72
5
7
iso_b_vert
0
MTEXT
5
346
100
AcDbEntity
8
SK2
62
256
6
ByLayer
370
18
48
1
60
0
100
AcDbMText
10
-102.736672
20
4.265444
30
0
210
0
220
0
230
1
1
\W0.6740;50
40
4.5
41
0
44
1.084337
50
90
71
7
72
5
7
iso_b_vert
0
MTEXT
5
34F
100
AcDbEntity
8
SK2
62
256
6
ByLayer
370
18
48
1
60
0
100
AcDbMText
10
-112.736672
20
-9.541655
30
0
210
0
220
0
230
1
1
%%c
40
4.5
41
0
44
1.084337
50
90
71
7
72
5
7
iso_b_vert
0
MTEXT
5
350
100
AcDbEntity
8
SK2
62
256
6
ByLayer
370
18
48
1
60
0
100
AcDbMText
10
-112.736672
20
1.673189
30
0
210
0
220
0
230
1
1
\W0.7346;62.5
40
4.5
41
0
44
1.084337
50
90
71
7
72
5
7
iso_b_vert
0
MTEXT
5
359
100
AcDbEntity
8
2
62
256
6
ByLayer
370
18
48
1
60
0
100
AcDbMText
10
304.963328
20
-6.949399
30
0
210
0
220
0
230
1
1
%%c
40
4.5
41
0
44
1.084337
50
90
71
7
72
5
7
iso_b_vert
0
MTEXT
5
35A
100
AcDbEntity
8
2
62
256
6
ByLayer
370
18
48
1
60
0
100
AcDbMText
10
304.963328
20
4.265444
30
0
210
0
220
0
230
1
1
\W0.6740;60
40
4.5
41
0
44
1.084337
50
90
71
7
72
5
7
iso_b_vert
0
MTEXT
5
363
100
AcDbEntity
8
SK6
62
256
6
ByLayer
370
18
48
1
60
0
100
AcDbMText
10
9.308916
20
-94.592562
30
0
210
0
220
0
230
1
1
\W0.7699;DS20-D6000L50-04
40
3.5
41
0
44
1.084337
50
0
71
7
72
5
7
iso_b_vert
0
HATCH
5
34A
100
AcDbEntity
8
SK2
62
256
6
ByLayer
370
13
48
1
60
0
100
AcDbHatch
10
0
20
0
30
0
210
0
220
0
230
1
2
ANSI31
70
0
71
0
91
1
92
5
93
3
72
1
10
-100.725
20
-24.9999999999999
11
-101.650575216528
21
-20.8250033998275
72
1
10
-101.650575216528
20
-20.8250033998275
11
-99.7994247834721
21
-20.8249966001723
72
1
10
-99.7994247834721
20
-20.8249966001723
11
-100.725
21
-24.9999999999999
97
0
75
0
76
1
52
0
41
0.0062
77
0
78
1
53
45
43
0
44
0
45
-0.0139193969876572
46
0.0139193969876572
79
0
47
0
98
1
10
0
20
0
0
HATCH
5
34E
100
AcDbEntity
8
SK2
62
256
6
ByLayer
370
13
48
1
60
0
100
AcDbHatch
10
0
20
0
30
0
210
0
220
0
230
1
2
ANSI31
70
0
71
0
91
1
92
5
93
3
72
1
10
-100.725
20
25.0000000000001
11
-99.7994247834721
21
20.8250033998277
72
1
10
-99.7994247834721
20
20.8250033998277
11
-101.650575216528
21
20.8249966001725
72
1
10
-101.650575216528
20
20.8249966001725
11
-100.725
21
25.0000000000001
97
0
75
0
76
1
52
0
41
0.0062
77
0
78
1
53
45
43
0
44
0
45
-0.0139193969876572
46
0.0139193969876572
79
0
47
0
98
1
10
0
20
0
0
HATCH
5
354
100
AcDbEntity
8
SK2
62
256
6
ByLayer
370
13
48
1
60
0
100
AcDbHatch
10
0
20
0
30
0
210
0
220
0
230
1
2
ANSI31
70
0
71
0
91
1
92
5
93
3
72
1
10
-110.725
20
31.25
11
-109.799424783472
21
27.0750033998276
72
1
10
-109.799424783472
20
27.0750033998276
11
-111.650575216528
21
27.0749966001724
72
1
10
-111.650575216528
20
27.0749966001724
11
-110.725
21
31.25
97
0
75
0
76
1
52
0
41
0.0062
77
0
78
1
53
45
43
0
44
0
45
-0.0139193969876572
46
0.0139193969876572
79
0
47
0
98
1
10
0
20
0
0
HATCH
5
358
100
AcDbEntity
8
SK2
62
256
6
ByLayer
370
13
48
1
60
0
100
AcDbHatch
10
0
20
0
30
0
210
0
220
0
230
1
2
ANSI31
70
0
71
0
91
1
92
5
93
3
72
1
10
-110.725
20
-31.25
11
-111.650575216528
21
-27.0750033998276
72
1
10
-111.650575216528
20
-27.0750033998276
11
-109.799424783472
21
-27.0749966001724
72
1
10
-109.799424783472
20
-27.0749966001724
11
-110.725
21
-31.25
97
0
75
0
76
1
52
0
41
0.0062
77
0
78
1
53
45
43
0
44
0
45
-0.0139193969876572
46
0.0139193969876572
79
0
47
0
98
1
10
0
20
0
0
HATCH
5
35E
100
AcDbEntity
8
2
62
256
6
ByLayer
370
13
48
1
60
0
100
AcDbHatch
10
0
20
0
30
0
210
0
220
0
230
1
2
ANSI31
70
0
71
0
91
1
92
5
93
3
72
1
10
306.975
20
-30.0000000000003
11
306.049424783472
21
-25.8250033998279
72
1
10
306.049424783472
20
-25.8250033998279
11
307.900575216528
21
-25.8249966001727
72
1
10
307.900575216528
20
-25.8249966001727
11
306.975
21
-30.0000000000003
97
0
75
0
76
1
52
0
41
0.0062
77
0
78
1
53
45
43
0
44
0
45
-0.0139193969876572
46
0.0139193969876572
79
0
47
0
98
1
10
0
20
0
0
HATCH
5
362
100
AcDbEntity
8
2
62
256
6
ByLayer
370
13
48
1
60
0
100
AcDbHatch
10
0
20
0
30
0
210
0
220
0
230
1
2
ANSI31
70
0
71
0
91
1
92
5
93
3
72
1
10
306.975
20
29.9999999999997
11
307.900575216528
21
25.8250033998273
72
1
10
307.900575216528
20
25.8250033998273
11
306.049424783472
21
25.8249966001721
72
1
10
306.049424783472
20
25.8249966001721
11
306.975
21
29.9999999999997
97
0
75
0
76
1
52
0
41
0.0062
77
0
78
1
53
45
43
0
44
0
45
-0.0139193969876572
46
0.0139193969876572
79
0
47
0
98
1
10
0
20
0
0
DIMENSION
5
366
100
AcDbEntity
8
2
62
256
6
ByLayer
370
18
48
1
60
0
100
AcDbDimension
2
_U0
10
280
20
-85.599686
30
0
11
140
21
-85.599686
31
0
70
32
71
1
72
1
41
1
210
0
220
0
230
1
3
Standard
100
AcDbAlignedDimension
13
0
23
-31.25
33
0
14
280
24
-30
34
0
50
0
100
AcDbRotatedDimension
1001
ACAD
1000
DSTYLE
1002
{
1070
   371
1070
    13
1070
   372
1070
    13
1070
   170
1070
     0
1070
   144
1040
1.0
1070
   277
1070
     2
1070
   284
1070
     8
1070
   278
1070
    46
1070
   146
1040
0.777778
1070
   345
1005
16
1070
   347
1005
16
1070
   346
1005
16
1070
   344
1005
0
1070
   343
1005
0
1070
   172
1070
     1
1070
    76
1070
     0
1070
    75
1070
     0
1070
   282
1070
     0
1070
   281
1070
     0
1070
    71
1070
     0
1070
    74
1070
     0
1070
   279
1070
     0
1070
   173
1070
     1
1070
   340
1005
344
1070
   271
1070
     1
1070
   272
1070
     2
1070
    77
1070
     1
1070
    73
1070
     1
1070
   171
1070
     3
1070
   274
1070
     4
1070
   177
1070
   150
1070
   176
1070
     9
1070
   178
1070
    43
1070
    78
1070
     8
1070
    48
1040
-0.1
1070
    41
1040
4.175
1070
   147
1040
2.25
1070
    42
1040
1.5875
1070
    44
1040
3.175
1070
   140
1040
4.5
1002
}
1001
ACAD_DSTYLE_DIM_LINETYPE
1070
   380
1005
16
1001
ACAD_DSTYLE_DIM_EXT1_LINETYPE
1070
   381
1005
16
1001
ACAD_DSTYLE_DIM_EXT2_LINETYPE
1070
   382
1005
16
0
DIMENSION
5
37F
100
AcDbEntity
8
SK2
62
256
6
ByLayer
370
18
48
1
60
0
100
AcDbDimension
2
_U1
10
0
20
-85.599686
30
0
11
-40
21
-85.599686
31
0
70
32
71
1
72
1
41
1
210
0
220
0
230
1
3
Standard
100
AcDbAlignedDimension
13
-80
23
-25
33
0
14
0
24
-31.25
34
0
50
0
100
AcDbRotatedDimension
1001
ACAD
1000
DSTYLE
1002
{
1070
   371
1070
    13
1070
   372
1070
    13
1070
   170
1070
     0
1070
   144
1040
1.0
1070
   277
1070
     2
1070
   284
1070
     8
1070
   278
1070
    46
1070
   146
1040
0.777778
1070
   345
1005
16
1070
   347
1005
16
1070
   346
1005
16
1070
   344
1005
0
1070
   343
1005
0
1070
   172
1070
     1
1070
    76
1070
     0
1070
    75
1070
     0
1070
   282
1070
     0
1070
   281
1070
     0
1070
    71
1070
     0
1070
    74
1070
     0
1070
   279
1070
     0
1070
   173
1070
     1
1070
   340
1005
344
1070
   271
1070
     1
1070
   272
1070
     2
1070
    77
1070
     1
1070
    73
1070
     1
1070
   171
1070
     3
1070
   274
1070
     4
1070
   177
1070
   150
1070
   176
1070
     9
1070
   178
1070
    43
1070
    78
1070
     8
1070
    48
1040
-0.1
1070
    41
1040
4.175
1070
   147
1040
2.25
1070
    42
1040
1.5875
1070
    44
1040
3.175
1070
   140
1040
4.5
1002
}
1001
ACAD_DSTYLE_DIM_LINETYPE
1070
   380
1005
16
1001
ACAD_DSTYLE_DIM_EXT1_LINETYPE
1070
   381
1005
16
1001
ACAD_DSTYLE_DIM_EXT2_LINETYPE
1070
   382
1005
16
0
DIMENSION
5
397
100
AcDbEntity
8
SK2
62
256
6
ByLayer
370
18
48
1
60
0
100
AcDbDimension
2
_U2
10
5.5783
20
-75.599686
30
0
11
142.78915
21
-75.599686
31
0
70
32
71
1
72
1
41
1
210
0
220
0
230
1
3
Standard
100
AcDbAlignedDimension
13
280
23
-30
33
0
14
5.5783
24
-31.25
34
0
50
0
100
AcDbRotatedDimension
1001
ACAD
1000
DSTYLE
1002
{
1070
   371
1070
    13
1070
   372
1070
    13
1070
   170
1070
     0
1070
   144
1040
1.0
1070
   277
1070
     2
1070
   284
1070
     8
1070
   278
1070
    46
1070
   146
1040
0.777778
1070
   345
1005
16
1070
   347
1005
16
1070
   346
1005
16
1070
   344
1005
0
1070
   343
1005
0
1070
   172
1070
     1
1070
    76
1070
     0
1070
    75
1070
     0
1070
   282
1070
     0
1070
   281
1070
     0
1070
    71
1070
     0
1070
    74
1070
     0
1070
   279
1070
     0
1070
   173
1070
     1
1070
   340
1005
344
1070
   271
1070
     1
1070
   272
1070
     2
1070
    77
1070
     1
1070
    73
1070
     1
1070
   171
1070
     3
1070
   274
1070
     4
1070
   177
1070
   150
1070
   176
1070
     9
1070
   178
1070
    43
1070
    78
1070
     8
1070
    48
1040
-0.1
1070
    41
1040
4.175
1070
   147
1040
2.25
1070
    42
1040
1.5875
1070
    44
1040
3.175
1070
   140
1040
4.5
1002
}
1001
ACAD_DSTYLE_DIM_LINETYPE
1070
   380
1005
16
1001
ACAD_DSTYLE_DIM_EXT1_LINETYPE
1070
   381
1005
16
1001
ACAD_DSTYLE_DIM_EXT2_LINETYPE
1070
   382
1005
16
0
DIMENSION
5
3AF
100
AcDbEntity
8
SK2
62
256
6
ByLayer
370
18
48
1
60
0
100
AcDbDimension
2
_U3
10
280
20
-65.599686
30
0
11
157.5
21
-65.599686
31
0
70
32
71
1
72
1
41
1
210
0
220
0
230
1
3
Standard
100
AcDbAlignedDimension
13
35
23
-30
33
0
14
280
24
-30
34
0
50
0
100
AcDbRotatedDimension
1001
ACAD
1000
DSTYLE
1002
{
1070
   371
1070
    13
1070
   372
1070
    13
1070
   170
1070
     0
1070
   144
1040
1.0
1070
   277
1070
     2
1070
   284
1070
     8
1070
   278
1070
    46
1070
   146
1040
0.777778
1070
   345
1005
16
1070
   347
1005
16
1070
   346
1005
16
1070
   344
1005
0
1070
   343
1005
0
1070
   172
1070
     1
1070
    76
1070
     0
1070
    75
1070
     0
1070
   282
1070
     0
1070
   281
1070
     0
1070
    71
1070
     0
1070
    74
1070
     0
1070
   279
1070
     0
1070
   173
1070
     1
1070
   340
1005
344
1070
   271
1070
     1
1070
   272
1070
     2
1070
    77
1070
     1
1070
    73
1070
     1
1070
   171
1070
     3
1070
   274
1070
     4
1070
   177
1070
   150
1070
   176
1070
     9
1070
   178
1070
    43
1070
    78
1070
     8
1070
    48
1040
-0.1
1070
    41
1040
4.175
1070
   147
1040
2.25
1070
    42
1040
1.5875
1070
    44
1040
3.175
1070
   140
1040
4.5
1002
}
1001
ACAD_DSTYLE_DIM_LINETYPE
1070
   380
1005
16
1001
ACAD_DSTYLE_DIM_EXT1_LINETYPE
1070
   381
1005
16
1001
ACAD_DSTYLE_DIM_EXT2_LINETYPE
1070
   382
1005
16
0
DIMENSION
5
3C7
100
AcDbEntity
8
2
62
256
6
ByLayer
370
18
48
1
60
0
100
AcDbDimension
2
_U4
10
280
20
-55.599686
30
0
11
301.922321
21
-55.599686
31
0
70
32
71
1
72
1
41
1
210
0
220
0
230
1
3
Standard
100
AcDbAlignedDimension
13
278.4109
23
-15
33
0
14
280
24
0
34
0
50
0
100
AcDbRotatedDimension
1001
ACAD
1000
DSTYLE
1002
{
1070
   371
1070
    13
1070
   372
1070
    13
1070
   170
1070
     0
1070
   144
1040
1.0
1070
   277
1070
     2
1070
   284
1070
     8
1070
   278
1070
    46
1070
   146
1040
0.777778
1070
   345
1005
16
1070
   347
1005
16
1070
   346
1005
16
1070
   344
1005
0
1070
   343
1005
0
1070
   172
1070
     1
1070
    76
1070
     0
1070
    75
1070
     0
1070
   282
1070
     0
1070
   281
1070
     0
1070
    71
1070
     0
1070
    74
1070
     0
1070
   279
1070
     0
1070
   173
1070
     1
1070
   340
1005
344
1070
   271
1070
     2
1070
   272
1070
     2
1070
    77
1070
     1
1070
    73
1070
     1
1070
   171
1070
     3
1070
   274
1070
     4
1070
   177
1070
   150
1070
   176
1070
     9
1070
   178
1070
    43
1070
    78
1070
     8
1070
    48
1040
-0.1
1070
    41
1040
4.175
1070
   147
1040
2.25
1070
    42
1040
1.5875
1070
    44
1040
3.175
1070
   140
1040
4.5
1002
}
1001
ACAD_DSTYLE_DIM_LINETYPE
1070
   380
1005
16
1001
ACAD_DSTYLE_DIM_EXT1_LINETYPE
1070
   381
1005
16
1001
ACAD_DSTYLE_DIM_EXT2_LINETYPE
1070
   382
1005
16
0
ENDSEC
0
SECTION
2
OBJECTS
0
DICTIONARY
5
451
330
0
100
AcDbDictionary
280
0
281
1
3
ACAD_GROUP
350
452
3
ACAD_MLINESTYLE
350
453
0
DICTIONARY
5
452
330
0
100
AcDbDictionary
280
0
281
1
0
DICTIONARY
5
453
330
0
100
AcDbDictionary
280
0
281
1
3
Standard
350
18
0
MLINESTYLE
5
18
330
453
100
AcDbMlineStyle
2
Standard
70
0
3

62
256
51
90
52
90
71
2
49
-0.5
62
256
6
ByLayer
49
0.5
62
256
6
ByLayer
0
RASTERVARIABLES
5
43f
330

100
AcDbRasterVariables
90
0
70
1
71
1
72
1
0
ENDSEC
0
EOF
