0
SECTION
2
HEADER
9
$ACADVER
1
AC1015
9
$DWGCODEPAGE
3
ANSI_1252
9
$HANDSEED
5
459
9
$ANGBASE
50
0
9
$ANGDIR
70
0
9
$ATTMODE
70
1
9
$AUNITS
70
0
9
$AUPREC
70
0
9
$CECOLOR
62
256
9
$CELTSCALE
40
1
9
$CELTYPE
6
ByLayer
9
$CELWEIGHT
370
18
9
$CLAYER
8
0
9
$CMLJUST
70
0
9
$CMLSCALE
40
1
9
$CMLSTYLE
2
Standard
9
$DIMSTYLE
2
Standard
9
$TEXTSIZE
40
0.2
9
$TEXTSTYLE
7
Standard
9
$LUNITS
70
2
9
$LUPREC
70
4
9
$EXTNAMES
290
1
9
$INSUNITS
70
4
9
$LTSCALE
40
1
9
$LWDISPLAY
290
1
9
$PDMODE
70
0
9
$PDSIZE
40
0
9
$PLINEGEN
70
0
0
ENDSEC
0
SECTION
2
CLASSES
0
CLASS
1
RASTERVARIABLES
2
AcDbRasterVariables
3
ISM
90
0
280
0
281
0
0
ENDSEC
0
SECTION
2
TABLES
0
TABLE
2
VPORT
5
44f
100
AcDbSymbolTable
0
VPORT
5
1
100
AcDbSymbolTableRecord
100
AcDbViewportTableRecord
2
*Active
70
0
10
0
20
0
11
1
21
1
12
-1
22
1
13
0
23
0
14
0.5
24
0.5
15
10
25
10
16
0
26
0
36
1
17
0
27
0
37
0
0
ENDTAB
0
TABLE
2
LTYPE
5
450
100
AcDbSymbolTable
0
LTYPE
5
14
100
AcDbSymbolTableRecord
100
AcDbLinetypeTableRecord
70
0
2
ByBlock
3

72
65
73
0
40
0
0
LTYPE
5
15
100
AcDbSymbolTableRecord
100
AcDbLinetypeTableRecord
70
0
2
ByLayer
3

72
65
73
0
40
0
0
LTYPE
5
16
100
AcDbSymbolTableRecord
100
AcDbLinetypeTableRecord
70
0
2
Continuous
3
Solid line
72
65
73
0
40
0
0
LTYPE
5
6E
100
AcDbSymbolTableRecord
100
AcDbLinetypeTableRecord
70
0
2
CENTER
3
____ _ ____ _ ____ _ ____
72
65
73
4
40
47.5
49
22
74
0
49
-8.5
74
0
49
8.5
74
0
49
-8.5
74
0
0
LTYPE
5
6F
100
AcDbSymbolTableRecord
100
AcDbLinetypeTableRecord
70
0
2
DASHED
3
__ __ __ __ __ __ __ __ __
72
65
73
2
40
25.72
49
12.86
74
0
49
-12.86
74
0
0
ENDTAB
0
TABLE
2
LAYER
5
451
100
AcDbSymbolTable
0
LAYER
5
10
100
AcDbSymbolTableRecord
100
AcDbLayerTableRecord
2
0
70
0
62
7
6
Continuous
290
1
370
-3
390
0
0
LAYER
5
71
100
AcDbSymbolTableRecord
100
AcDbLayerTableRecord
2
1
70
0
62
4
6
Continuous
290
1
370
-3
390
0
0
LAYER
5
73
100
AcDbSymbolTableRecord
100
AcDbLayerTableRecord
2
80
70
0
62
-6
6
Continuous
290
1
370
-3
390
0
0
LAYER
5
75
100
AcDbSymbolTableRecord
100
AcDbLayerTableRecord
2
81
70
0
62
-3
6
Continuous
290
1
370
-3
390
0
0
LAYER
5
148
100
AcDbSymbolTableRecord
100
AcDbLayerTableRecord
2
4
70
0
62
-2
6
CENTER
290
1
370
-3
390
0
0
LAYER
5
182
100
AcDbSymbolTableRecord
100
AcDbLayerTableRecord
2
2
70
0
62
7
6
Continuous
290
1
370
-3
390
0
0
LAYER
5
364
100
AcDbSymbolTableRecord
100
AcDbLayerTableRecord
2
Defpoints
70
0
62
7
6
Continuous
290
0
370
-3
390
0
0
LAYER
5
43b
100
AcDbSymbolTableRecord
100
AcDbLayerTableRecord
2
SK1
70
0
62
4
6
Continuous
290
1
370
-3
390
0
0
LAYER
5
43c
100
AcDbSymbolTableRecord
100
AcDbLayerTableRecord
2
SK4
70
0
62
2
6
CENTER
290
1
370
-3
390
0
0
LAYER
5
43d
100
AcDbSymbolTableRecord
100
AcDbLayerTableRecord
2
SK2
70
0
62
7
6
Continuous
290
1
370
-3
390
0
0
LAYER
5
43e
100
AcDbSymbolTableRecord
100
AcDbLayerTableRecord
2
SK6
70
0
62
5
6
Continuous
290
1
370
-3
390
0
0
ENDTAB
0
TABLE
2
STYLE
5
452
100
AcDbSymbolTable
0
STYLE
5
11
100
AcDbSymbolTableRecord
100
AcDbTextStyleTableRecord
2
Standard
3
txt
70
0
71
0
40
0
41
1
42
0
50
0
0
STYLE
5
33F
100
AcDbSymbolTableRecord
100
AcDbTextStyleTableRecord
2
iso_b_vert
3
simplex.shx
70
0
71
0
40
0
41
1
42
0
50
0
0
STYLE
5
340
100
AcDbSymbolTableRecord
100
AcDbTextStyleTableRecord
2
DWGDirectTextStyle
3
simplex
70
0
71
0
40
0
41
1
42
0
50
0
0
ENDTAB
0
TABLE
2
DIMSTYLE
5
453
100
AcDbSymbolTable
100
AcDbDimStyleTable
0
DIMSTYLE
105
27
100
AcDbSymbolTableRecord
100
AcDbDimStyleTableRecord
2
Standard
70
0
3
<>
41
0.18
42
0.0625
44
0.18
140
0.18
147
0.09
73
0
74
0
77
1
271
2
275
0
278
52
280
0
340
11
0
ENDTAB
0
TABLE
2
VIEW
5
454
100
AcDbSymbolTable
0
ENDTAB
0
TABLE
2
UCS
5
455
100
AcDbSymbolTable
0
ENDTAB
0
TABLE
2
APPID
5
456
100
AcDbSymbolTable
0
APPID
5
12
100
AcDbSymbolTableRecord
100
AcDbRegAppTableRecord
2
ACAD
70
0
0
APPID
5
360
100
AcDbSymbolTableRecord
100
AcDbRegAppTableRecord
2
ACAD_DSTYLE_DIMBREAK
70
0
0
APPID
5
3FA
100
AcDbSymbolTableRecord
100
AcDbRegAppTableRecord
2
ACAD_DSTYLE_DIM_LINETYPE
70
0
0
APPID
5
3FB
100
AcDbSymbolTableRecord
100
AcDbRegAppTableRecord
2
ACAD_DSTYLE_DIM_EXT1_LINETYPE
70
0
0
APPID
5
3FC
100
AcDbSymbolTableRecord
100
AcDbRegAppTableRecord
2
ACAD_DSTYLE_DIM_EXT2_LINETYPE
70
0
0
APPID
5
437
100
AcDbSymbolTableRecord
100
AcDbRegAppTableRecord
2
ACAD_MLEADERVER
70
0
0
ENDTAB
0
TABLE
2
BLOCK_RECORD
5
457
100
AcDbSymbolTable
0
BLOCK_RECORD
5
1F
100
AcDbSymbolTableRecord
100
AcDbBlockTableRecord
2
*Model_Space
340
0
70
0
0
BLOCK_RECORD
5
1B
100
AcDbSymbolTableRecord
100
AcDbBlockTableRecord
2
*Paper_Space
340
0
70
0
0
BLOCK_RECORD
5
23
100
AcDbSymbolTableRecord
100
AcDbBlockTableRecord
2
*Paper_Space0
340
0
70
0
0
BLOCK_RECORD
5
365
100
AcDbSymbolTableRecord
100
AcDbBlockTableRecord
2
*D1
340
0
70
0
0
BLOCK_RECORD
5
371
100
AcDbSymbolTableRecord
100
AcDbBlockTableRecord
2
_U0
340
0
70
0
0
BLOCK_RECORD
5
37D
100
AcDbSymbolTableRecord
100
AcDbBlockTableRecord
2
*D3
340
0
70
0
0
BLOCK_RECORD
5
389
100
AcDbSymbolTableRecord
100
AcDbBlockTableRecord
2
_U1
340
0
70
0
0
BLOCK_RECORD
5
395
100
AcDbSymbolTableRecord
100
AcDbBlockTableRecord
2
*D5
340
0
70
0
0
BLOCK_RECORD
5
3A1
100
AcDbSymbolTableRecord
100
AcDbBlockTableRecord
2
_U2
340
0
70
0
0
BLOCK_RECORD
5
3AD
100
AcDbSymbolTableRecord
100
AcDbBlockTableRecord
2
*D7
340
0
70
0
0
BLOCK_RECORD
5
3B9
100
AcDbSymbolTableRecord
100
AcDbBlockTableRecord
2
_U3
340
0
70
0
0
BLOCK_RECORD
5
3C5
100
AcDbSymbolTableRecord
100
AcDbBlockTableRecord
2
*D9
340
0
70
0
0
BLOCK_RECORD
5
3D3
100
AcDbSymbolTableRecord
100
AcDbBlockTableRecord
2
_U4
340
0
70
0
0
ENDTAB
0
ENDSEC
0
SECTION
2
BLOCKS
0
BLOCK
5
20
100
AcDbEntity
8
0
100
AcDbBlockBegin
2
*Model_Space
70
0
10
0
20
0
30
0
3
*Model_Space
0
ENDBLK
5
21
100
AcDbEntity
8
0
100
AcDbBlockEnd
0
BLOCK
5
1C
100
AcDbEntity
8
0
100
AcDbBlockBegin
2
*Paper_Space
70
0
10
0
20
0
30
0
3
*Paper_Space
0
ENDBLK
5
1D
100
AcDbEntity
8
0
100
AcDbBlockEnd
0
BLOCK
5
24
100
AcDbEntity
8
0
100
AcDbBlockBegin
2
*Paper_Space0
70
0
10
0
20
0
30
0
3
*Paper_Space0
0
ENDBLK
5
25
100
AcDbEntity
8
0
100
AcDbBlockEnd
0
BLOCK
5
366
100
AcDbEntity
8
0
100
AcDbBlockBegin
2
*D1
70
1
10
0
20
0
30
0
3
*D1
0
LINE
5
368
100
AcDbEntity
8
0
62
256
6
ByLayer
370
-2
48
1
60
0
100
AcDbLine
10
0
20
-26.3375
30
0
11
0
21
-76.785915
31
0
39
0
210
0
220
0
230
1
0
LINE
5
369
100
AcDbEntity
8
0
62
256
6
ByLayer
370
-2
48
1
60
0
100
AcDbLine
10
223.52
20
-25.4
30
0
11
223.52
21
-76.785915
31
0
39
0
210
0
220
0
230
1
0
LINE
5
36A
100
AcDbEntity
8
0
62
256
6
ByLayer
370
-2
48
1
60
0
100
AcDbLine
10
4.175
20
-73.610915
30
0
11
219.345
21
-73.610915
31
0
39
0
210
0
220
0
230
1
0
SOLID
5
36B
100
AcDbEntity
8
0
62
256
6
ByLayer
370
-1
48
1
60
0
100
AcDbTrace
10
4.175
20
-72.915082
30
0
11
4.175
21
-74.306748
31
0
12
0
22
-73.610915
32
0
13
0
23
-73.610915
33
0
39
0
210
0
220
0
230
1
0
SOLID
5
36C
100
AcDbEntity
8
0
62
256
6
ByLayer
370
-1
48
1
60
0
100
AcDbTrace
10
219.345
20
-74.306748
30
0
11
219.345
21
-72.915082
31
0
12
223.52
22
-73.610915
32
0
13
223.52
23
-73.610915
33
0
39
0
210
0
220
0
230
1
0
MTEXT
5
36D
100
AcDbEntity
8
0
62
256
6
ByLayer
370
18
48
1
60
0
100
AcDbMText
10
111.76
20
-64.217165
30
0
210
0
220
0
230
1
1
\A1;223.5
40
4.5
41
0
44
1
50
0
71
5
72
5
7
iso_b_vert
0
POINT
5
36E
100
AcDbEntity
8
Defpoints
62
0
6
ByLayer
370
-1
48
1
60
0
100
AcDbPoint
10
0
20
-24.75
30
0
39
0
210
0
220
0
230
1
50
360
0
POINT
5
36F
100
AcDbEntity
8
Defpoints
62
0
6
ByLayer
370
-1
48
1
60
0
100
AcDbPoint
10
223.52
20
-23.8125
30
0
39
0
210
0
220
0
230
1
50
360
0
POINT
5
370
100
AcDbEntity
8
Defpoints
62
0
6
ByLayer
370
-1
48
1
60
0
100
AcDbPoint
10
223.52
20
-73.610915
30
0
39
0
210
0
220
0
230
1
50
360
0
ENDBLK
5
367
100
AcDbEntity
8
0
100
AcDbBlockEnd
0
BLOCK
5
378
100
AcDbEntity
8
0
100
AcDbBlockBegin
2
_U0
70
0
10
0
20
0
30
0
3
_U0
0
MTEXT
5
372
100
AcDbEntity
8
2
62
256
6
ByLayer
370
18
48
1
60
0
100
AcDbMText
10
105.036444
20
-72.283243
30
0
210
0
220
0
230
1
1
\W0.7468;223.5
40
4.5
41
0
44
1.084337
50
0
71
7
72
5
7
iso_b_vert
0
LINE
5
373
100
AcDbEntity
8
2
62
256
6
ByLayer
370
13
48
1
60
0
100
AcDbLine
10
0
20
-26.3375
30
0
11
0
21
-76.785915
31
0
39
0
210
0
220
0
230
1
0
LINE
5
374
100
AcDbEntity
8
2
62
256
6
ByLayer
370
13
48
1
60
0
100
AcDbLine
10
223.52
20
-25.4
30
0
11
223.52
21
-76.785915
31
0
39
0
210
0
220
0
230
1
0
LINE
5
375
100
AcDbEntity
8
2
62
256
6
ByLayer
370
13
48
1
60
0
100
AcDbLine
10
0
20
-73.610915
30
0
11
223.52
21
-73.610915
31
0
39
0
210
0
220
0
230
1
0
SOLID
5
376
100
AcDbEntity
8
2
62
256
6
ByLayer
370
18
48
1
60
0
100
AcDbTrace
10
0
20
-73.610915
30
0
11
4.174997
21
-72.68534
31
0
12
4.175003
22
-74.53649
32
0
13
4.175003
23
-74.53649
33
0
39
0
210
0
220
0
230
1
0
SOLID
5
377
100
AcDbEntity
8
2
62
256
6
ByLayer
370
18
48
1
60
0
100
AcDbTrace
10
223.52
20
-73.610915
30
0
11
219.345003
21
-74.53649
31
0
12
219.344997
22
-72.68534
32
0
13
219.344997
23
-72.68534
33
0
39
0
210
0
220
0
230
1
0
ENDBLK
5
379
100
AcDbEntity
8
0
100
AcDbBlockEnd
0
BLOCK
5
37E
100
AcDbEntity
8
0
100
AcDbBlockBegin
2
*D3
70
1
10
0
20
0
30
0
3
*D3
0
LINE
5
380
100
AcDbEntity
8
0
62
256
6
ByLayer
370
-2
48
1
60
0
100
AcDbLine
10
-70
20
-20.6375
30
0
11
-70
21
-76.785915
31
0
39
0
210
0
220
0
230
1
0
LINE
5
381
100
AcDbEntity
8
0
62
256
6
ByLayer
370
-2
48
1
60
0
100
AcDbLine
10
0
20
-26.3375
30
0
11
0
21
-76.785915
31
0
39
0
210
0
220
0
230
1
0
LINE
5
382
100
AcDbEntity
8
0
62
256
6
ByLayer
370
-2
48
1
60
0
100
AcDbLine
10
-65.825
20
-73.610915
30
0
11
-4.175
21
-73.610915
31
0
39
0
210
0
220
0
230
1
0
SOLID
5
383
100
AcDbEntity
8
0
62
256
6
ByLayer
370
-1
48
1
60
0
100
AcDbTrace
10
-65.825
20
-72.915082
30
0
11
-65.825
21
-74.306748
31
0
12
-70
22
-73.610915
32
0
13
-70
23
-73.610915
33
0
39
0
210
0
220
0
230
1
0
SOLID
5
384
100
AcDbEntity
8
0
62
256
6
ByLayer
370
-1
48
1
60
0
100
AcDbTrace
10
-4.175
20
-74.306748
30
0
11
-4.175
21
-72.915082
31
0
12
0
22
-73.610915
32
0
13
0
23
-73.610915
33
0
39
0
210
0
220
0
230
1
0
MTEXT
5
385
100
AcDbEntity
8
0
62
256
6
ByLayer
370
18
48
1
60
0
100
AcDbMText
10
-35
20
-64.217165
30
0
210
0
220
0
230
1
1
\A1;70
40
4.5
41
0
44
1
50
0
71
5
72
5
7
iso_b_vert
0
POINT
5
386
100
AcDbEntity
8
Defpoints
62
0
6
ByLayer
370
-1
48
1
60
0
100
AcDbPoint
10
-70
20
-19.05
30
0
39
0
210
0
220
0
230
1
50
360
0
POINT
5
387
100
AcDbEntity
8
Defpoints
62
0
6
ByLayer
370
-1
48
1
60
0
100
AcDbPoint
10
0
20
-24.75
30
0
39
0
210
0
220
0
230
1
50
360
0
POINT
5
388
100
AcDbEntity
8
Defpoints
62
0
6
ByLayer
370
-1
48
1
60
0
100
AcDbPoint
10
0
20
-73.610915
30
0
39
0
210
0
220
0
230
1
50
360
0
ENDBLK
5
37F
100
AcDbEntity
8
0
100
AcDbBlockEnd
0
BLOCK
5
390
100
AcDbEntity
8
0
100
AcDbBlockBegin
2
_U1
70
0
10
0
20
0
30
0
3
_U1
0
MTEXT
5
38A
100
AcDbEntity
8
SK2
62
256
6
ByLayer
370
18
48
1
60
0
100
AcDbMText
10
-37.449242
20
-72.283243
30
0
210
0
220
0
230
1
1
\W0.6740;70
40
4.5
41
0
44
1.084337
50
0
71
7
72
5
7
iso_b_vert
0
LINE
5
38B
100
AcDbEntity
8
SK2
62
256
6
ByLayer
370
13
48
1
60
0
100
AcDbLine
10
-70
20
-20.6375
30
0
11
-70
21
-76.785915
31
0
39
0
210
0
220
0
230
1
0
LINE
5
38C
100
AcDbEntity
8
SK2
62
256
6
ByLayer
370
13
48
1
60
0
100
AcDbLine
10
0
20
-26.3375
30
0
11
0
21
-76.785915
31
0
39
0
210
0
220
0
230
1
0
LINE
5
38D
100
AcDbEntity
8
SK2
62
256
6
ByLayer
370
13
48
1
60
0
100
AcDbLine
10
-70
20
-73.610915
30
0
11
0
21
-73.610915
31
0
39
0
210
0
220
0
230
1
0
SOLID
5
38E
100
AcDbEntity
8
SK2
62
256
6
ByLayer
370
18
48
1
60
0
100
AcDbTrace
10
-70
20
-73.610915
30
0
11
-65.825003
21
-72.68534
31
0
12
-65.824997
22
-74.53649
32
0
13
-65.824997
23
-74.53649
33
0
39
0
210
0
220
0
230
1
0
SOLID
5
38F
100
AcDbEntity
8
SK2
62
256
6
ByLayer
370
18
48
1
60
0
100
AcDbTrace
10
0
20
-73.610915
30
0
11
-4.174997
21
-74.53649
31
0
12
-4.175003
22
-72.68534
32
0
13
-4.175003
23
-72.68534
33
0
39
0
210
0
220
0
230
1
0
ENDBLK
5
391
100
AcDbEntity
8
0
100
AcDbBlockEnd
0
BLOCK
5
396
100
AcDbEntity
8
0
100
AcDbBlockBegin
2
*D5
70
1
10
0
20
0
30
0
3
*D5
0
LINE
5
398
100
AcDbEntity
8
0
62
256
6
ByLayer
370
-2
48
1
60
0
100
AcDbLine
10
223.52
20
-25.4
30
0
11
223.52
21
-66.785915
31
0
39
0
210
0
220
0
230
1
0
LINE
5
399
100
AcDbEntity
8
0
62
256
6
ByLayer
370
-2
48
1
60
0
100
AcDbLine
10
5.5098
20
-26.3375
30
0
11
5.5098
21
-66.785915
31
0
39
0
210
0
220
0
230
1
0
LINE
5
39A
100
AcDbEntity
8
0
62
256
6
ByLayer
370
-2
48
1
60
0
100
AcDbLine
10
219.345
20
-63.610915
30
0
11
9.6848
21
-63.610915
31
0
39
0
210
0
220
0
230
1
0
SOLID
5
39B
100
AcDbEntity
8
0
62
256
6
ByLayer
370
-1
48
1
60
0
100
AcDbTrace
10
219.345
20
-64.306748
30
0
11
219.345
21
-62.915082
31
0
12
223.52
22
-63.610915
32
0
13
223.52
23
-63.610915
33
0
39
0
210
0
220
0
230
1
0
SOLID
5
39C
100
AcDbEntity
8
0
62
256
6
ByLayer
370
-1
48
1
60
0
100
AcDbTrace
10
9.6848
20
-62.915082
30
0
11
9.6848
21
-64.306748
31
0
12
5.5098
22
-63.610915
32
0
13
5.5098
23
-63.610915
33
0
39
0
210
0
220
0
230
1
0
MTEXT
5
39D
100
AcDbEntity
8
0
62
256
6
ByLayer
370
18
48
1
60
0
100
AcDbMText
10
114.5149
20
-54.217165
30
0
210
0
220
0
230
1
1
\A1;218
40
4.5
41
0
44
1
50
0
71
5
72
5
7
iso_b_vert
0
POINT
5
39E
100
AcDbEntity
8
Defpoints
62
0
6
ByLayer
370
-1
48
1
60
0
100
AcDbPoint
10
223.52
20
-23.8125
30
0
39
0
210
0
220
0
230
1
50
360
0
POINT
5
39F
100
AcDbEntity
8
Defpoints
62
0
6
ByLayer
370
-1
48
1
60
0
100
AcDbPoint
10
5.5098
20
-24.75
30
0
39
0
210
0
220
0
230
1
50
360
0
POINT
5
3A0
100
AcDbEntity
8
Defpoints
62
0
6
ByLayer
370
-1
48
1
60
0
100
AcDbPoint
10
5.5098
20
-63.610915
30
0
39
0
210
0
220
0
230
1
50
360
0
ENDBLK
5
397
100
AcDbEntity
8
0
100
AcDbBlockEnd
0
BLOCK
5
3A8
100
AcDbEntity
8
0
100
AcDbBlockBegin
2
_U2
70
0
10
0
20
0
30
0
3
_U2
0
MTEXT
5
3A2
100
AcDbEntity
8
SK2
62
256
6
ByLayer
370
18
48
1
60
0
100
AcDbMText
10
110.946701
20
-62.283243
30
0
210
0
220
0
230
1
1
\W0.6217;218
40
4.5
41
0
44
1.084337
50
0
71
7
72
5
7
iso_b_vert
0
LINE
5
3A3
100
AcDbEntity
8
SK2
62
256
6
ByLayer
370
13
48
1
60
0
100
AcDbLine
10
223.52
20
-25.4
30
0
11
223.52
21
-66.785915
31
0
39
0
210
0
220
0
230
1
0
LINE
5
3A4
100
AcDbEntity
8
SK2
62
256
6
ByLayer
370
13
48
1
60
0
100
AcDbLine
10
5.5098
20
-26.3375
30
0
11
5.5098
21
-66.785915
31
0
39
0
210
0
220
0
230
1
0
LINE
5
3A5
100
AcDbEntity
8
SK2
62
256
6
ByLayer
370
13
48
1
60
0
100
AcDbLine
10
223.52
20
-63.610915
30
0
11
5.5098
21
-63.610915
31
0
39
0
210
0
220
0
230
1
0
SOLID
5
3A6
100
AcDbEntity
8
SK2
62
256
6
ByLayer
370
18
48
1
60
0
100
AcDbTrace
10
223.52
20
-63.610915
30
0
11
219.345003
21
-64.53649
31
0
12
219.344997
22
-62.68534
32
0
13
219.344997
23
-62.68534
33
0
39
0
210
0
220
0
230
1
0
SOLID
5
3A7
100
AcDbEntity
8
SK2
62
256
6
ByLayer
370
18
48
1
60
0
100
AcDbTrace
10
5.5098
20
-63.610915
30
0
11
9.684797
21
-62.68534
31
0
12
9.684803
22
-64.53649
32
0
13
9.684803
23
-64.53649
33
0
39
0
210
0
220
0
230
1
0
ENDBLK
5
3A9
100
AcDbEntity
8
0
100
AcDbBlockEnd
0
BLOCK
5
3AE
100
AcDbEntity
8
0
100
AcDbBlockBegin
2
*D7
70
1
10
0
20
0
30
0
3
*D7
0
LINE
5
3B0
100
AcDbEntity
8
0
62
256
6
ByLayer
370
-2
48
1
60
0
100
AcDbLine
10
28.8036
20
-25.4
30
0
11
28.8036
21
-56.785915
31
0
39
0
210
0
220
0
230
1
0
LINE
5
3B1
100
AcDbEntity
8
0
62
256
6
ByLayer
370
-2
48
1
60
0
100
AcDbLine
10
223.52
20
-25.4
30
0
11
223.52
21
-56.785915
31
0
39
0
210
0
220
0
230
1
0
LINE
5
3B2
100
AcDbEntity
8
0
62
256
6
ByLayer
370
-2
48
1
60
0
100
AcDbLine
10
32.9786
20
-53.610915
30
0
11
219.345
21
-53.610915
31
0
39
0
210
0
220
0
230
1
0
SOLID
5
3B3
100
AcDbEntity
8
0
62
256
6
ByLayer
370
-1
48
1
60
0
100
AcDbTrace
10
32.9786
20
-52.915082
30
0
11
32.9786
21
-54.306748
31
0
12
28.8036
22
-53.610915
32
0
13
28.8036
23
-53.610915
33
0
39
0
210
0
220
0
230
1
0
SOLID
5
3B4
100
AcDbEntity
8
0
62
256
6
ByLayer
370
-1
48
1
60
0
100
AcDbTrace
10
219.345
20
-54.306748
30
0
11
219.345
21
-52.915082
31
0
12
223.52
22
-53.610915
32
0
13
223.52
23
-53.610915
33
0
39
0
210
0
220
0
230
1
0
MTEXT
5
3B5
100
AcDbEntity
8
0
62
256
6
ByLayer
370
18
48
1
60
0
100
AcDbMText
10
126.1618
20
-44.217165
30
0
210
0
220
0
230
1
1
\A1;194.7
40
4.5
41
0
44
1
50
0
71
5
72
5
7
iso_b_vert
0
POINT
5
3B6
100
AcDbEntity
8
Defpoints
62
0
6
ByLayer
370
-1
48
1
60
0
100
AcDbPoint
10
28.8036
20
-23.8125
30
0
39
0
210
0
220
0
230
1
50
360
0
POINT
5
3B7
100
AcDbEntity
8
Defpoints
62
0
6
ByLayer
370
-1
48
1
60
0
100
AcDbPoint
10
223.52
20
-23.8125
30
0
39
0
210
0
220
0
230
1
50
360
0
POINT
5
3B8
100
AcDbEntity
8
Defpoints
62
0
6
ByLayer
370
-1
48
1
60
0
100
AcDbPoint
10
223.52
20
-53.610915
30
0
39
0
210
0
220
0
230
1
50
360
0
ENDBLK
5
3AF
100
AcDbEntity
8
0
100
AcDbBlockEnd
0
BLOCK
5
3C0
100
AcDbEntity
8
0
100
AcDbBlockBegin
2
_U3
70
0
10
0
20
0
30
0
3
_U3
0
MTEXT
5
3BA
100
AcDbEntity
8
SK2
62
256
6
ByLayer
370
18
48
1
60
0
100
AcDbMText
10
119.763744
20
-52.283243
30
0
210
0
220
0
230
1
1
\W0.7091;194.7
40
4.5
41
0
44
1.084337
50
0
71
7
72
5
7
iso_b_vert
0
LINE
5
3BB
100
AcDbEntity
8
SK2
62
256
6
ByLayer
370
13
48
1
60
0
100
AcDbLine
10
28.8036
20
-25.4
30
0
11
28.8036
21
-56.785915
31
0
39
0
210
0
220
0
230
1
0
LINE
5
3BC
100
AcDbEntity
8
SK2
62
256
6
ByLayer
370
13
48
1
60
0
100
AcDbLine
10
223.52
20
-25.4
30
0
11
223.52
21
-56.785915
31
0
39
0
210
0
220
0
230
1
0
LINE
5
3BD
100
AcDbEntity
8
SK2
62
256
6
ByLayer
370
13
48
1
60
0
100
AcDbLine
10
28.8036
20
-53.610915
30
0
11
223.52
21
-53.610915
31
0
39
0
210
0
220
0
230
1
0
SOLID
5
3BE
100
AcDbEntity
8
SK2
62
256
6
ByLayer
370
18
48
1
60
0
100
AcDbTrace
10
28.8036
20
-53.610915
30
0
11
32.978597
21
-52.68534
31
0
12
32.978603
22
-54.53649
32
0
13
32.978603
23
-54.53649
33
0
39
0
210
0
220
0
230
1
0
SOLID
5
3BF
100
AcDbEntity
8
SK2
62
256
6
ByLayer
370
18
48
1
60
0
100
AcDbTrace
10
223.52
20
-53.610915
30
0
11
219.345003
21
-54.53649
31
0
12
219.344997
22
-52.68534
32
0
13
219.344997
23
-52.68534
33
0
39
0
210
0
220
0
230
1
0
ENDBLK
5
3C1
100
AcDbEntity
8
0
100
AcDbBlockEnd
0
BLOCK
5
3C6
100
AcDbEntity
8
0
100
AcDbBlockBegin
2
*D9
70
1
10
0
20
0
30
0
3
*D9
0
LINE
5
3C8
100
AcDbEntity
8
0
62
256
6
ByLayer
370
-2
48
1
60
0
100
AcDbLine
10
222.2434
20
-13.49375
30
0
11
222.2434
21
-46.785915
31
0
39
0
210
0
220
0
230
1
0
LINE
5
3C9
100
AcDbEntity
8
0
62
256
6
ByLayer
370
-2
48
1
60
0
100
AcDbLine
10
223.52
20
-1.5875
30
0
11
223.52
21
-46.785915
31
0
39
0
210
0
220
0
230
1
0
LINE
5
3CA
100
AcDbEntity
8
0
62
256
6
ByLayer
370
-2
48
1
60
0
100
AcDbLine
10
223.52
20
-43.610915
30
0
11
259.228929
21
-43.610915
31
0
39
0
210
0
220
0
230
1
0
LINE
5
3CB
100
AcDbEntity
8
0
62
256
6
ByLayer
370
-2
48
1
60
0
100
AcDbLine
10
218.0684
20
-43.610915
30
0
11
213.8934
21
-43.610915
31
0
39
0
210
0
220
0
230
1
0
LINE
5
3CC
100
AcDbEntity
8
0
62
256
6
ByLayer
370
-2
48
1
60
0
100
AcDbLine
10
227.695
20
-43.610915
30
0
11
231.87
21
-43.610915
31
0
39
0
210
0
220
0
230
1
0
SOLID
5
3CD
100
AcDbEntity
8
0
62
256
6
ByLayer
370
-1
48
1
60
0
100
AcDbTrace
10
218.0684
20
-44.306748
30
0
11
218.0684
21
-42.915082
31
0
12
222.2434
22
-43.610915
32
0
13
222.2434
23
-43.610915
33
0
39
0
210
0
220
0
230
1
0
SOLID
5
3CE
100
AcDbEntity
8
0
62
256
6
ByLayer
370
-1
48
1
60
0
100
AcDbTrace
10
227.695
20
-42.915082
30
0
11
227.695
21
-44.306748
31
0
12
223.52
22
-43.610915
32
0
13
223.52
23
-43.610915
33
0
39
0
210
0
220
0
230
1
0
MTEXT
5
3CF
100
AcDbEntity
8
0
62
256
6
ByLayer
370
18
48
1
60
0
100
AcDbMText
10
245.549464
20
-34.217165
30
0
210
0
220
0
230
1
1
\A1;1.28
40
4.5
41
0
44
1
50
0
71
5
72
5
7
iso_b_vert
0
POINT
5
3D0
100
AcDbEntity
8
Defpoints
62
0
6
ByLayer
370
-1
48
1
60
0
100
AcDbPoint
10
222.2434
20
-11.90625
30
0
39
0
210
0
220
0
230
1
50
360
0
POINT
5
3D1
100
AcDbEntity
8
Defpoints
62
0
6
ByLayer
370
-1
48
1
60
0
100
AcDbPoint
10
223.52
20
0
30
0
39
0
210
0
220
0
230
1
50
360
0
POINT
5
3D2
100
AcDbEntity
8
Defpoints
62
0
6
ByLayer
370
-1
48
1
60
0
100
AcDbPoint
10
223.52
20
-43.610915
30
0
39
0
210
0
220
0
230
1
50
360
0
ENDBLK
5
3C7
100
AcDbEntity
8
0
100
AcDbBlockEnd
0
BLOCK
5
3DA
100
AcDbEntity
8
0
100
AcDbBlockBegin
2
_U4
70
0
10
0
20
0
30
0
3
_U4
0
MTEXT
5
3D4
100
AcDbEntity
8
2
62
256
6
ByLayer
370
18
48
1
60
0
100
AcDbMText
10
235.871
20
-42.283243
30
0
210
0
220
0
230
1
1
\W0.6563;1.28
40
4.5
41
0
44
1.084337
50
0
71
7
72
5
7
iso_b_vert
0
LINE
5
3D5
100
AcDbEntity
8
2
62
256
6
ByLayer
370
13
48
1
60
0
100
AcDbLine
10
222.2434
20
-13.49375
30
0
11
222.2434
21
-46.785915
31
0
39
0
210
0
220
0
230
1
0
LINE
5
3D6
100
AcDbEntity
8
2
62
256
6
ByLayer
370
13
48
1
60
0
100
AcDbLine
10
223.52
20
-1.5875
30
0
11
223.52
21
-46.785915
31
0
39
0
210
0
220
0
230
1
0
LINE
5
3D7
100
AcDbEntity
8
2
62
256
6
ByLayer
370
13
48
1
60
0
100
AcDbLine
10
245.069041
20
-43.610915
30
0
11
210.9934
21
-43.610915
31
0
39
0
210
0
220
0
230
1
0
SOLID
5
3D8
100
AcDbEntity
8
2
62
256
6
ByLayer
370
18
48
1
60
0
100
AcDbTrace
10
222.2434
20
-43.610915
30
0
11
218.068403
21
-44.53649
31
0
12
218.068397
22
-42.68534
32
0
13
218.068397
23
-42.68534
33
0
39
0
210
0
220
0
230
1
0
SOLID
5
3D9
100
AcDbEntity
8
2
62
256
6
ByLayer
370
18
48
1
60
0
100
AcDbTrace
10
223.52
20
-43.610915
30
0
11
227.694997
21
-42.68534
31
0
12
227.695003
22
-44.53649
32
0
13
227.695003
23
-44.53649
33
0
39
0
210
0
220
0
230
1
0
ENDBLK
5
3DB
100
AcDbEntity
8
0
100
AcDbBlockEnd
0
ENDSEC
0
SECTION
2
ENTITIES
0
ARC
5
18B
100
AcDbEntity
8
SK1
62
256
6
ByLayer
370
13
48
1
60
0
100
AcDbCircle
39
0
10
-67.894505
20
-19.446
30
0
40
0.799999999999993
210
0
220
0
230
1
100
AcDbArc
50
70.982
51
141
0
ARC
5
18C
100
AcDbEntity
8
SK1
62
256
6
ByLayer
370
13
48
1
60
0
100
AcDbCircle
39
0
10
-67.894505
20
19.446
30
0
40
0.799999999999993
210
0
220
0
230
1
100
AcDbArc
50
219
51
289.018
0
ARC
5
18D
100
AcDbEntity
8
SK1
62
256
6
ByLayer
370
13
48
1
60
0
100
AcDbCircle
39
0
10
-0.15
20
19.196
30
0
40
0.399999999999999
210
0
220
0
230
1
100
AcDbArc
50
270
51
292.024313
0
ARC
5
18E
100
AcDbEntity
8
SK1
62
256
6
ByLayer
370
13
48
1
60
0
100
AcDbCircle
39
0
10
-0.15
20
-19.196
30
0
40
0.399999999999999
210
0
220
0
230
1
100
AcDbArc
50
67.975687
51
90
0
ARC
5
18F
100
AcDbEntity
8
SK1
62
256
6
ByLayer
370
13
48
1
60
0
100
AcDbCircle
39
0
10
-1.375195
20
19.196
30
0
40
0.400000000000004
210
0
220
0
230
1
100
AcDbArc
50
245
51
270
0
ARC
5
190
100
AcDbEntity
8
SK1
62
256
6
ByLayer
370
13
48
1
60
0
100
AcDbCircle
39
0
10
-1.375195
20
-19.196
30
0
40
0.400000000000004
210
0
220
0
230
1
100
AcDbArc
50
90
51
115
0
ARC
5
191
100
AcDbEntity
8
1
62
256
6
ByLayer
370
13
48
1
60
0
100
AcDbCircle
39
0
10
220.066286
20
22.314941
30
0
40
0.2
210
0
220
0
230
1
100
AcDbArc
50
8.974534
51
93
0
ARC
5
192
100
AcDbEntity
8
1
62
256
6
ByLayer
370
13
48
1
60
0
100
AcDbCircle
39
0
10
220.212333
20
9.493842
30
0
40
0.2
210
0
220
0
230
1
100
AcDbArc
50
273
51
352.543899
0
ARC
5
193
100
AcDbEntity
8
1
62
256
6
ByLayer
370
13
48
1
60
0
100
AcDbCircle
39
0
10
207.445347
20
21.418937
30
0
40
0.2
210
0
220
0
230
1
100
AcDbArc
50
76.847115
51
93
0
ARC
5
194
100
AcDbEntity
8
1
62
256
6
ByLayer
370
13
48
1
60
0
100
AcDbCircle
39
0
10
207.591393
20
8.597838
30
0
40
0.2
210
0
220
0
230
1
100
AcDbArc
50
273
51
304.880681
0
ELLIPSE
5
195
100
AcDbEntity
8
1
62
256
6
ByLayer
370
18
48
1
60
0
100
AcDbEllipse
10
213.801937
20
15.45498
30
0
11
0.0877359970456743
21
-1.67410255206257
31
0
210
0
220
0
230
1
40
0.995725
41
0.523598775598284
42
1.5707963267949
0
ELLIPSE
5
196
100
AcDbEntity
8
1
62
256
6
ByLayer
370
18
48
1
60
0
100
AcDbEllipse
10
212.98637
20
14.125813
30
0
11
-0.349478313243819
21
0.179405951069336
31
0
210
0
220
0
230
1
40
0.490768
41
2.5164965647999
42
-2.94329838355319
0
ELLIPSE
5
197
100
AcDbEntity
8
1
62
256
6
ByLayer
370
18
48
1
60
0
100
AcDbEllipse
10
214.895169
20
16.254941
30
0
11
-0.213416480926134
21
0.330813521386581
31
0
210
0
220
0
230
1
40
0.48867
41
1.57317835191247
42
2.85504177777598
0
ELLIPSE
5
198
100
AcDbEntity
8
1
62
256
6
ByLayer
370
18
48
1
60
0
100
AcDbEllipse
10
214.461404
20
14.203116
30
0
11
-0.328810806110999
21
-0.214953577526583
31
0
210
0
220
0
230
1
40
0.490768
41
0.673401308867754
42
-2.94809584056006
0
ELLIPSE
5
199
100
AcDbEntity
8
1
62
256
6
ByLayer
370
18
48
1
60
0
100
AcDbEllipse
10
213.794632
20
15.454597
30
0
11
-0.149157475292399
21
2.84609417405054
31
0
210
0
220
0
230
1
40
0.995725
41
0
42
6.28318530717959
0
ELLIPSE
5
19A
100
AcDbEntity
8
1
62
256
6
ByLayer
370
18
48
1
60
0
100
AcDbEllipse
10
213.801937
20
15.45498
30
0
11
0.0877359970456743
21
-1.67410255206257
31
0
210
0
220
0
230
1
40
0.995725
41
1.5707963267949
42
2.61799387799147
0
ELLIPSE
5
19B
100
AcDbEntity
8
1
62
256
6
ByLayer
370
18
48
1
60
0
100
AcDbEllipse
10
214.895169
20
16.254941
30
0
11
-0.213416480931887
21
0.330813521391192
31
0
210
0
220
0
230
1
40
0.48867
41
0.291314926052183
42
1.57317835189835
0
ELLIPSE
5
19C
100
AcDbEntity
8
1
62
256
6
ByLayer
370
18
48
1
60
0
100
AcDbEllipse
10
213.656653
20
15.447366
30
0
11
0.067529084340273
21
-1.28853168869383
31
0
210
0
220
0
230
1
40
0.995725
41
1.0471975511966
42
2.0943951023932
0
ELLIPSE
5
19D
100
AcDbEntity
8
1
62
256
6
ByLayer
370
18
48
1
60
0
100
AcDbEllipse
10
214.972799
20
14.773674
30
0
11
-0.177667934094742
21
-0.351309387091398
31
0
210
0
220
0
230
1
40
0.48867
41
-2.85504177777689
42
-1.57317835191622
0
ELLIPSE
5
19E
100
AcDbEntity
8
1
62
256
6
ByLayer
370
18
48
1
60
0
100
AcDbEllipse
10
213.801937
20
15.45498
30
0
11
0.0877359970456743
21
-1.67410255206257
31
0
210
0
220
0
230
1
40
0.995725
41
-2.61799387799145
42
-1.5707963267949
0
ELLIPSE
5
19F
100
AcDbEntity
8
1
62
256
6
ByLayer
370
18
48
1
60
0
100
AcDbEllipse
10
213.579023
20
16.928633
30
0
11
-0.391877312292868
21
-0.0205374196884142
31
0
210
0
220
0
230
1
40
0.491826
41
0.288932900934341
42
1.5707963267949
0
ELLIPSE
5
1A0
100
AcDbEntity
8
1
62
256
6
ByLayer
370
18
48
1
60
0
100
AcDbEllipse
10
215.131687
20
15.524669
30
0
11
-0.0206256003553256
21
0.393559899646769
31
0
210
0
220
0
230
1
40
0.48763
41
-2.9456696947458
42
-0.320422399685477
0
ELLIPSE
5
1A1
100
AcDbEntity
8
1
62
256
6
ByLayer
370
18
48
1
60
0
100
AcDbEllipse
10
213.656653
20
15.447366
30
0
11
0.067529084340273
21
-1.28853168869383
31
0
210
0
220
0
230
1
40
0.995725
41
3.14159265358979
42
-2.34982975905692
0
ELLIPSE
5
1A2
100
AcDbEntity
8
1
62
256
6
ByLayer
370
18
48
1
60
0
100
AcDbEllipse
10
213.656653
20
15.447366
30
0
11
0.067529084340273
21
-1.28853168869383
31
0
210
0
220
0
230
1
40
0.995725
41
2.09439510239319
42
3.14159265358977
0
ELLIPSE
5
1A3
100
AcDbEntity
8
1
62
256
6
ByLayer
370
18
48
1
60
0
100
AcDbEllipse
10
213.656653
20
15.447366
30
0
11
-0.0675290843402741
21
1.28853168869383
31
0
210
0
220
0
230
1
40
0.995725
41
-3.03890209425328
42
-2.0943951023932
0
ELLIPSE
5
1A4
100
AcDbEntity
8
1
62
256
6
ByLayer
370
18
48
1
60
0
100
AcDbEllipse
10
213.734283
20
13.966099
30
0
11
-0.391877312293785
21
-0.0205374196884723
31
0
210
0
220
0
230
1
40
0.491826
41
-1.5707963267949
42
-0.288932900934104
0
ELLIPSE
5
1A5
100
AcDbEntity
8
1
62
256
6
ByLayer
370
18
48
1
60
0
100
AcDbEllipse
10
213.801937
20
15.45498
30
0
11
0.0877359970456743
21
-1.67410255206257
31
0
210
0
220
0
230
1
40
0.995725
41
-0.523598775598319
42
0.523598775598284
0
ELLIPSE
5
1A6
100
AcDbEntity
8
1
62
256
6
ByLayer
370
18
48
1
60
0
100
AcDbEllipse
10
214.326936
20
16.768919
30
0
11
-0.349478313243824
21
0.179405951069332
31
0
210
0
220
0
230
1
40
0.490768
41
2.94809584056002
42
-0.625095735375776
0
ELLIPSE
5
1A7
100
AcDbEntity
8
1
62
256
6
ByLayer
370
18
48
1
60
0
100
AcDbEllipse
10
213.801937
20
15.45498
30
0
11
0.0877359970456743
21
-1.67410255206257
31
0
210
0
220
0
230
1
40
0.995725
41
-1.5707963267949
42
-0.523598775598319
0
ELLIPSE
5
1A8
100
AcDbEntity
8
1
62
256
6
ByLayer
370
18
48
1
60
0
100
AcDbEllipse
10
213.656653
20
15.447366
30
0
11
0.067529084340273
21
-1.28853168869383
31
0
210
0
220
0
230
1
40
0.995725
41
-0.773927979467152
42
-2.21217808980824E-14
0
ELLIPSE
5
1A9
100
AcDbEntity
8
1
62
256
6
ByLayer
370
18
48
1
60
0
100
AcDbEllipse
10
213.728142
20
15.451112
30
0
11
-0.149157475292399
21
2.84609417405054
31
0
210
0
220
0
230
1
40
0.995725
41
9.25163458661911E-05
42
3.1415869351611
0
ELLIPSE
5
1AA
100
AcDbEntity
8
1
62
256
6
ByLayer
370
18
48
1
60
0
100
AcDbEllipse
10
212.851902
20
16.691616
30
0
11
-0.328810806110979
21
-0.214953577526586
31
0
210
0
220
0
230
1
40
0.490768
41
2.94329838355324
42
-2.46819100314316
0
ELLIPSE
5
1AB
100
AcDbEntity
8
1
62
256
6
ByLayer
370
18
48
1
60
0
100
AcDbEllipse
10
213.656653
20
15.447366
30
0
11
0.067529084340273
21
-1.28853168869383
31
0
210
0
220
0
230
1
40
0.995725
41
-1.8941510985487
42
-1.23150380240866
0
ELLIPSE
5
1AC
100
AcDbEntity
8
1
62
256
6
ByLayer
370
18
48
1
60
0
100
AcDbEllipse
10
213.801937
20
15.45498
30
0
11
-0.0942047212373048
21
1.79753316255823
31
0
210
0
220
0
230
1
40
0.995725
41
0
42
6.28318530717959
0
ELLIPSE
5
1AD
100
AcDbEntity
8
1
62
256
6
ByLayer
370
18
48
1
60
0
100
AcDbEllipse
10
214.972799
20
14.773674
30
0
11
-0.177667934094395
21
-0.35130938709111
31
0
210
0
220
0
230
1
40
0.48867
41
-1.5731783519173
42
-0.291314926055767
0
ELLIPSE
5
1AE
100
AcDbEntity
8
1
62
256
6
ByLayer
370
18
48
1
60
0
100
AcDbEllipse
10
213.801937
20
15.45498
30
0
11
0.0877359970456743
21
-1.67410255206257
31
0
210
0
220
0
230
1
40
0.995725
41
2.61799387799148
42
-2.61799387799145
0
ELLIPSE
5
1AF
100
AcDbEntity
8
1
62
256
6
ByLayer
370
18
48
1
60
0
100
AcDbEllipse
10
214.724527
20
-6.191178
30
0
11
2
21
0
31
0
210
0
220
0
230
1
40
0.994435
41
0.434816156131537
42
3.00925310161669
0
ELLIPSE
5
1B0
100
AcDbEntity
8
1
62
256
6
ByLayer
370
18
48
1
60
0
100
AcDbEllipse
10
214.724527
20
-6.138503
30
0
11
-1.5
21
1.51595858262354E-15
31
0
210
0
220
0
230
1
40
0.994435
41
-3.07925192985004
42
0
0
ELLIPSE
5
1B1
100
AcDbEntity
8
1
62
256
6
ByLayer
370
18
48
1
60
0
100
AcDbEllipse
10
214.724527
20
-6.138503
30
0
11
-1.5
21
1.51595858262354E-15
31
0
210
0
220
0
230
1
40
0.994435
41
0
42
0.295408102904909
0
ELLIPSE
5
1B2
100
AcDbEntity
8
1
62
256
6
ByLayer
370
18
48
1
60
0
100
AcDbEllipse
10
214.724527
20
-7.037153
30
0
11
-2.35
21
2.37500177944355E-15
31
0
210
0
220
0
230
1
40
0.994435
41
-0.596509873726981
42
-0.52602052321282
0
ELLIPSE
5
1B3
100
AcDbEntity
8
1
62
256
6
ByLayer
370
18
48
1
60
0
100
AcDbEllipse
10
214.724527
20
-6.933016
30
0
11
-2.35
21
2.37500177944355E-15
31
0
210
0
220
0
230
1
40
0.994435
41
-0.634699898548106
42
-0.500396636455214
0
ELLIPSE
5
1B4
100
AcDbEntity
8
1
62
256
6
ByLayer
370
13
48
1
60
0
100
AcDbEllipse
10
220.866428
20
23.522417
30
0
11
-0.0026167978121474
21
0.0499314767377296
31
0
210
0
220
0
230
1
40
0.995725
41
-0.00872664625866289
42
1.26193471909933
0
ELLIPSE
5
1B5
100
AcDbEntity
8
1
62
256
6
ByLayer
370
13
48
1
60
0
100
AcDbEllipse
10
220.066286
20
22.314941
30
0
11
0.010467191248589
21
-0.199725906950915
31
0
210
0
220
0
230
1
40
0.995725
41
3.14157394909767
42
-2.5870894781382
0
ELLIPSE
5
1B6
100
AcDbEntity
8
1
62
256
6
ByLayer
370
13
48
1
60
0
100
AcDbEllipse
10
221.945717
20
8.741056
30
0
11
-0.0435637040589868
21
-0.259139630110252
31
0
210
0
220
0
230
1
40
0.947521
41
0.308152981486865
42
1.28542437778899
0
ELLIPSE
5
1B7
100
AcDbEntity
8
1
62
256
6
ByLayer
370
13
48
1
60
0
100
AcDbEllipse
10
222.101909
20
23.12017
30
0
11
0.148163665863161
21
0.023399318750542
31
0
210
0
220
0
230
1
40
0.009655
41
0.0919985744662022
42
1.66279490126864
0
ELLIPSE
5
1B8
100
AcDbEntity
8
1
62
256
6
ByLayer
370
13
48
1
60
0
100
AcDbEllipse
10
205.679874
20
22.743574
30
0
11
-0.300351321609548
21
0.184900888628401
31
0
210
0
220
0
230
1
40
0.479615
41
-1.86916058278167
42
-0.78175878888633
0
ELLIPSE
5
1B9
100
AcDbEntity
8
1
62
256
6
ByLayer
370
13
48
1
60
0
100
AcDbEllipse
10
207.115442
20
14.920996
30
0
11
-0.0261679781214735
21
0.499314767377287
31
0
210
0
220
0
230
1
40
0.995725
41
1.38753675533554
42
1.67551608191459
0
ELLIPSE
5
1BA
100
AcDbEntity
8
1
62
256
6
ByLayer
370
13
48
1
60
0
100
AcDbEllipse
10
220.579135
20
15.993717
30
0
11
-0.0261679781214735
21
0.499314767377287
31
0
210
0
220
0
230
1
40
0.995725
41
-1.75405589825426
42
-1.46607657167521
0
ELLIPSE
5
1BB
100
AcDbEntity
8
1
62
256
6
ByLayer
370
13
48
1
60
0
100
AcDbEllipse
10
221.395234
20
15.881374
30
0
11
0.148731686424787
21
-0.0194649801756591
31
0
210
0
220
0
230
1
40
0.016833
41
-2.85804977879083
42
-1.6617584171057
0
ELLIPSE
5
1BC
100
AcDbEntity
8
1
62
256
6
ByLayer
370
13
48
1
60
0
100
AcDbEllipse
10
207.163186
20
21.565235
30
0
11
0.00523359562429394
21
-0.0998629534754454
31
0
210
0
220
0
230
1
40
0.995725
41
1.38753675533517
42
-3.03687289847123
0
ELLIPSE
5
1BD
100
AcDbEntity
8
1
62
256
6
ByLayer
370
13
48
1
60
0
100
AcDbEllipse
10
208.795556
20
6.856182
30
0
11
-0.0994383168615992
21
1.89739611603369
31
0
210
0
220
0
230
1
40
0.995725
41
0.761807904942407
42
1.26193471909811
0
ELLIPSE
5
1BE
100
AcDbEntity
8
1
62
256
6
ByLayer
370
13
48
1
60
0
100
AcDbEllipse
10
214.153584
20
9.259893
30
0
11
0.010467191248589
21
-0.199725906950915
31
0
210
0
220
0
230
1
40
0.092371
41
0
42
1.5707963267949
0
ELLIPSE
5
1BF
100
AcDbEntity
8
1
62
256
6
ByLayer
370
13
48
1
60
0
100
AcDbEllipse
10
207.100523
20
21.505148
30
0
11
-0.157381426396071
21
-0.0466723701595163
31
0
210
0
220
0
230
1
40
0.019797
41
-3.05943361683494
42
-1.48863728999265
0
ELLIPSE
5
1C0
100
AcDbEntity
8
1
62
256
6
ByLayer
370
13
48
1
60
0
100
AcDbEllipse
10
218.843675
20
24.055631
30
0
11
0.107288710298039
21
-2.04719054624688
31
0
210
0
220
0
230
1
40
0.995725
41
0.773852857220443
42
1.26193471909894
0
ELLIPSE
5
1C1
100
AcDbEntity
8
1
62
256
6
ByLayer
370
13
48
1
60
0
100
AcDbEllipse
10
220.878082
20
23.573094
30
0
11
-0.00653729335064164
21
0.149857478277354
31
0
210
0
220
0
230
1
40
0.092367
41
0.000809536047835613
42
1.57160586284002
0
ELLIPSE
5
1C2
100
AcDbEntity
8
1
62
256
6
ByLayer
370
13
48
1
60
0
100
AcDbEllipse
10
206.253221
20
15.030922
30
0
11
-0.148731686424787
21
0.0194649801756601
31
0
210
0
220
0
230
1
40
0.016833
41
1.47983423648372
42
3.05063056327851
0
ELLIPSE
5
1C3
100
AcDbEntity
8
1
62
256
6
ByLayer
370
13
48
1
60
0
100
AcDbEllipse
10
206.816351
20
7.376458
30
0
11
-0.14513953236318
21
0.0378750068699314
31
0
210
0
220
0
230
1
40
0.028078
41
1.4826478747345
42
3.05344420152964
0
ELLIPSE
5
1C4
100
AcDbEntity
8
1
62
256
6
ByLayer
370
13
48
1
60
0
100
AcDbEllipse
10
219.733517
20
7.429416
30
0
11
-0.0942047212373044
21
1.79753316255823
31
0
210
0
220
0
230
1
40
0.995725
41
-0.400544394527612
42
8.0873912696254E-13
0
ELLIPSE
5
1C5
100
AcDbEntity
8
1
62
256
6
ByLayer
370
13
48
1
60
0
100
AcDbEllipse
10
208.795556
20
6.856182
30
0
11
-0.0942047212373044
21
1.79753316255823
31
0
210
0
220
0
230
1
40
0.995725
41
0
42
1.26193471909811
0
ELLIPSE
5
1C6
100
AcDbEntity
8
1
62
256
6
ByLayer
370
13
48
1
60
0
100
AcDbEllipse
10
220.489881
20
9.347303
30
0
11
0.00523359562429394
21
-0.0998629534754454
31
0
210
0
220
0
230
1
40
0.995725
41
-6.34410696055359E-06
42
0.104719755120294
0
ELLIPSE
5
1C7
100
AcDbEntity
8
1
62
256
6
ByLayer
370
13
48
1
60
0
100
AcDbEllipse
10
220.310539
20
22.683341
30
0
11
0.00523359562429395
21
-0.0998629534754455
31
0
210
0
220
0
230
1
40
0.995725
41
-2.3797847486468
42
-1.46607657167388
0
ELLIPSE
5
1C8
100
AcDbEntity
8
1
62
256
6
ByLayer
370
13
48
1
60
0
100
AcDbEllipse
10
222.394155
20
9.700406
30
0
11
0.00785039343644185
21
-0.149794430213186
31
0
210
0
220
0
230
1
40
0.995725
41
0.104719755119505
42
1.38753675533529
0
ELLIPSE
5
1C9
100
AcDbEntity
8
1
62
256
6
ByLayer
370
13
48
1
60
0
100
AcDbEllipse
10
220.066286
20
22.314941
30
0
11
-0.114373860315962
21
0.164068949153778
31
0
210
0
220
0
230
1
40
0.07853
41
-1.61960141451367
42
-0.0488050877215519
0
ELLIPSE
5
1CA
100
AcDbEntity
8
1
62
256
6
ByLayer
370
13
48
1
60
0
100
AcDbEllipse
10
221.344885
20
14.836233
30
0
11
-0.457939617125786
21
8.73800842910252
31
0
210
0
220
0
230
1
40
0.995725
41
-0.0773624824591907
42
-0.0273572726604669
0
ELLIPSE
5
1CB
100
AcDbEntity
8
1
62
256
6
ByLayer
370
13
48
1
60
0
100
AcDbEllipse
10
206.470163
20
9.07781
30
0
11
0.0994383168615969
21
-1.89739611603369
31
0
210
0
220
0
230
1
40
0.995725
41
-0.0273572726611083
42
-0.00872664626080421
0
ELLIPSE
5
1CC
100
AcDbEntity
8
1
62
256
6
ByLayer
370
13
48
1
60
0
100
AcDbEllipse
10
220.494494
20
9.347544
30
0
11
0.00523359562429394
21
-0.0998629534754454
31
0
210
0
220
0
230
1
40
0.995725
41
-1.75405589825289
42
0.104719755120294
0
ELLIPSE
5
1CD
100
AcDbEntity
8
1
62
256
6
ByLayer
370
13
48
1
60
0
100
AcDbEllipse
10
206.770373
20
7.339202
30
0
11
0.00653729335064122
21
-0.149857478277354
31
0
210
0
220
0
230
1
40
0.092367
41
-1.56998679074958
42
-0.0232440763778358
0
ELLIPSE
5
1CE
100
AcDbEntity
8
1
62
256
6
ByLayer
370
13
48
1
60
0
100
AcDbEllipse
10
222.673411
20
16.020051
30
0
11
0.036635169370062
21
-0.699040674328201
31
0
210
0
220
0
230
1
40
0.995725
41
1.3875367553363
42
1.67551608191537
0
ELLIPSE
5
1CF
100
AcDbEntity
8
1
62
256
6
ByLayer
370
13
48
1
60
0
100
AcDbEllipse
10
222.398768
20
9.700647
30
0
11
0.00785039343644185
21
-0.149794430213186
31
0
210
0
220
0
230
1
40
0.995725
41
0.104719755119895
42
1.38753675533606
0
ELLIPSE
5
1D0
100
AcDbEntity
8
1
62
256
6
ByLayer
370
13
48
1
60
0
100
AcDbEllipse
10
221.392
20
16.125288
30
0
11
0.148163665863161
21
0.023399318750542
31
0
210
0
220
0
230
1
40
0.009655
41
1.6627949012694
42
2.85602956830955
0
ELLIPSE
5
1D1
100
AcDbEntity
8
1
62
256
6
ByLayer
370
13
48
1
60
0
100
AcDbEllipse
10
221.052407
20
16.070856
30
0
11
0.197551554484215
21
0.0311990916673893
31
0
210
0
220
0
230
1
40
0.009655
41
-1.47879775232127
42
0.000129454933123932
0
ELLIPSE
5
1D2
100
AcDbEntity
8
1
62
256
6
ByLayer
370
13
48
1
60
0
100
AcDbEllipse
10
221.054309
20
15.927377
30
0
11
0.198308915233049
21
-0.0259533069008789
31
0
210
0
220
0
230
1
40
0.016833
41
0.000152472669166819
42
1.47983423648403
0
ELLIPSE
5
1D3
100
AcDbEntity
8
1
62
256
6
ByLayer
370
13
48
1
60
0
100
AcDbEllipse
10
207.347141
20
8.229438
30
0
11
0.00523359562429395
21
-0.0998629534754455
31
0
210
0
220
0
230
1
40
0.995725
41
0.761807904942054
42
1.67551608191449
0
ELLIPSE
5
1D4
100
AcDbEntity
8
1
62
256
6
ByLayer
370
13
48
1
60
0
100
AcDbEllipse
10
218.862123
20
24.056598
30
0
11
-0.0942047212373044
21
1.79753316255823
31
0
210
0
220
0
230
1
40
0.995725
41
-3.14159265358903
42
-1.87965793449004
0
ELLIPSE
5
1D5
100
AcDbEntity
8
1
62
256
6
ByLayer
370
13
48
1
60
0
100
AcDbEllipse
10
221.187516
20
21.834969
30
0
11
0.0994383168615969
21
-1.89739611603369
31
0
210
0
220
0
230
1
40
0.995725
41
3.11423538093031
42
3.13286600733064
0
ELLIPSE
5
1D6
100
AcDbEntity
8
1
62
256
6
ByLayer
370
13
48
1
60
0
100
AcDbEllipse
10
206.605272
20
14.841923
30
0
11
-0.197551554484215
21
-0.0311990916673892
31
0
210
0
220
0
230
1
40
0.009655
41
0.0919985744717376
42
1.66279490126894
0
ELLIPSE
5
1D7
100
AcDbEntity
8
1
62
256
6
ByLayer
370
13
48
1
60
0
100
AcDbEllipse
10
213.504095
20
21.652886
30
0
11
0.010467191248589
21
-0.199725906950915
31
0
210
0
220
0
230
1
40
0.092371
41
1.5707963267949
42
-3.14159265356672
0
ELLIPSE
5
1D8
100
AcDbEntity
8
1
62
256
6
ByLayer
370
13
48
1
60
0
100
AcDbEllipse
10
204.438763
20
14.80657
30
0
11
-0.148163665863161
21
-0.0233993187505419
31
0
210
0
220
0
230
1
40
0.009655
41
-1.47879775232066
42
-0.264819008247535
0
ELLIPSE
5
1D9
100
AcDbEntity
8
1
62
256
6
ByLayer
370
13
48
1
60
0
100
AcDbEllipse
10
220.212333
20
9.493842
30
0
11
0.0455100421907769
21
0.194753269702446
31
0
210
0
220
0
230
1
40
0.088753
41
-3.11589220193367
42
-1.5450958751147
0
ELLIPSE
5
1DA
100
AcDbEntity
8
1
62
256
6
ByLayer
370
13
48
1
60
0
100
AcDbEllipse
10
207.448933
20
23.458458
30
0
11
-1.72936595006343
21
1.21940905087723
31
0
210
0
220
0
230
1
40
0.74335
41
1.1617510966981
42
1.98390815207421
0
ELLIPSE
5
1DB
100
AcDbEntity
8
1
62
256
6
ByLayer
370
13
48
1
60
0
100
AcDbEllipse
10
221.358721
20
14.836958
30
0
11
0.465790010562217
21
-8.88780285931571
31
0
210
0
220
0
230
1
40
0.995725
41
3.0642301711306
42
3.11423538092933
0
ELLIPSE
5
1DC
100
AcDbEntity
8
1
62
256
6
ByLayer
370
13
48
1
60
0
100
AcDbEllipse
10
221.547179
20
23.033529
30
0
11
-0.0287847759336221
21
0.549246244115039
31
0
210
0
220
0
230
1
40
0.995725
41
-1.46607657167527
42
-0.0773624824590804
0
ELLIPSE
5
1DD
100
AcDbEntity
8
1
62
256
6
ByLayer
370
13
48
1
60
0
100
AcDbEllipse
10
207.924162
20
23.483363
30
0
11
-0.0942047212373044
21
1.79753316255823
31
0
210
0
220
0
230
1
40
0.995725
41
2.74104825906056
42
3.14159265358898
0
ELLIPSE
5
1DE
100
AcDbEntity
8
1
62
256
6
ByLayer
370
13
48
1
60
0
100
AcDbEllipse
10
219.180053
20
7.40041
30
0
11
0.0942047212373021
21
-1.79753316255823
31
0
210
0
220
0
230
1
40
0.995725
41
2.08113387818485
42
2.74715960225141
0
ELLIPSE
5
1DF
100
AcDbEntity
8
1
62
256
6
ByLayer
370
13
48
1
60
0
100
AcDbEllipse
10
220.547931
20
9.407148
30
0
11
-0.0427993177774031
21
-0.158580925153507
31
0
210
0
220
0
230
1
40
0.080206
41
-1.54458133969067
42
0.0262149871102304
0
ELLIPSE
5
1E0
100
AcDbEntity
8
1
62
256
6
ByLayer
370
13
48
1
60
0
100
AcDbEllipse
10
218.308659
20
24.027592
30
0
11
0.0942047212373021
21
-1.79753316255823
31
0
210
0
220
0
230
1
40
0.995725
41
0
42
0.400544394529216
0
ELLIPSE
5
1E1
100
AcDbEntity
8
1
62
256
6
ByLayer
370
13
48
1
60
0
100
AcDbEllipse
10
207.100523
20
21.505148
30
0
11
-0.0427993177776752
21
-0.158580925153817
31
0
210
0
220
0
230
1
40
0.080206
41
-3.11537766647989
42
-1.54458133967982
0
ELLIPSE
5
1E2
100
AcDbEntity
8
1
62
256
6
ByLayer
370
13
48
1
60
0
100
AcDbEllipse
10
219.103178
20
24.06923
30
0
11
-2.06113715515914
21
-1.58826929769339
31
0
210
0
220
0
230
1
40
0.479615
41
1.82992717605962
42
1.86916045789374
0
ELLIPSE
5
1E3
100
AcDbEntity
8
1
62
256
6
ByLayer
370
13
48
1
60
0
100
AcDbEllipse
10
220.066286
20
22.314941
30
0
11
-0.197551554484215
21
-0.0311990916673892
31
0
210
0
220
0
230
1
40
0.009655
41
1.66279490126767
42
-3.14146319873578
0
ELLIPSE
5
1E4
100
AcDbEntity
8
1
62
256
6
ByLayer
370
13
48
1
60
0
100
AcDbEllipse
10
205.158498
20
22.142717
30
0
11
-0.0435637040751058
21
-0.259139630105318
31
0
210
0
220
0
230
1
40
0.947521
41
-2.83343967204306
42
-2.19739446861024
0
ELLIPSE
5
1E5
100
AcDbEntity
8
1
62
256
6
ByLayer
370
13
48
1
60
0
100
AcDbEllipse
10
205.258912
20
21.212132
30
0
11
0.00785039343644185
21
-0.149794430213186
31
0
210
0
220
0
230
1
40
0.995725
41
-3.03687289847181
42
-1.75405589825547
0
ELLIPSE
5
1E6
100
AcDbEntity
8
1
62
256
6
ByLayer
370
13
48
1
60
0
100
AcDbEllipse
10
205.254299
20
21.21189
30
0
11
-0.148731686424787
21
0.0194649801756601
31
0
210
0
220
0
230
1
40
0.016833
41
-0.0909620903112785
42
1.4798342364819
0
ELLIPSE
5
1E7
100
AcDbEntity
8
1
62
256
6
ByLayer
370
13
48
1
60
0
100
AcDbEllipse
10
207.591393
20
8.597838
30
0
11
0.114373860315959
21
-0.164068949153779
31
0
210
0
220
0
230
1
40
0.07853
41
3.3501368868413E-05
42
1.52199123907684
0
ELLIPSE
5
1E8
100
AcDbEntity
8
1
62
256
6
ByLayer
370
13
48
1
60
0
100
AcDbEllipse
10
221.182904
20
21.834728
30
0
11
0.0994383168615969
21
-1.89739611603369
31
0
210
0
220
0
230
1
40
0.995725
41
3.11423538092948
42
3.13286600732985
0
ELLIPSE
5
1E9
100
AcDbEntity
8
1
62
256
6
ByLayer
370
13
48
1
60
0
100
AcDbEllipse
10
213.769051
20
15.453256
30
0
11
0.161488764830073
21
-3.0813891952549
31
0
210
0
220
0
230
1
40
0.995725
41
-0.853733431166164
42
0
0
ELLIPSE
5
1EA
100
AcDbEntity
8
1
62
256
6
ByLayer
370
13
48
1
60
0
100
AcDbEllipse
10
213.769051
20
15.453256
30
0
11
0.161488764830073
21
-3.0813891952549
31
0
210
0
220
0
230
1
40
0.995725
41
0
42
-2.28787053660727
0
ELLIPSE
5
1EB
100
AcDbEntity
8
1
62
256
6
ByLayer
370
13
48
1
60
0
100
AcDbEllipse
10
207.158574
20
21.564993
30
0
11
0.00523359562429394
21
-0.0998629534754454
31
0
210
0
220
0
230
1
40
0.995725
41
1.38753675533603
42
3.14158141713697
0
ELLIPSE
5
1EC
100
AcDbEntity
8
1
62
256
6
ByLayer
370
13
48
1
60
0
100
AcDbEllipse
10
213.847288
20
15.457356
30
0
11
0.164592752017143
21
-3.14061679904834
31
0
210
0
220
0
230
1
40
0.995725
41
0
42
6.28318530717959
0
ELLIPSE
5
1ED
100
AcDbEntity
8
1
62
256
6
ByLayer
370
13
48
1
60
0
100
AcDbEllipse
10
207.096993
20
14.920029
30
0
11
0.036635169370062
21
-0.699040674328202
31
0
210
0
220
0
230
1
40
0.995725
41
-1.75405589825427
42
-1.46607657167524
0
ELLIPSE
5
1EE
100
AcDbEntity
8
1
62
256
6
ByLayer
370
13
48
1
60
0
100
AcDbEllipse
10
206.275897
20
16.074612
30
0
11
-0.457939617125786
21
8.73800842910252
31
0
210
0
220
0
230
1
40
0.995725
41
3.06423017113061
42
3.11423538092933
0
ELLIPSE
5
1EF
100
AcDbEntity
8
1
62
256
6
ByLayer
370
13
48
1
60
0
100
AcDbEllipse
10
221.106505
20
23.583059
30
0
11
-0.00653729335064164
21
0.149857478277354
31
0
210
0
220
0
230
1
40
0.092367
41
0.000809536045784252
42
1.57160586284002
0
ELLIPSE
5
1F0
100
AcDbEntity
8
1
62
256
6
ByLayer
370
13
48
1
60
0
100
AcDbEllipse
10
220.884877
20
23.523384
30
0
11
0.0104671912485892
21
-0.199725906950916
31
0
210
0
220
0
230
1
40
0.995725
41
3.13286600733138
42
-1.87965793448986
0
ELLIPSE
5
1F1
100
AcDbEntity
8
1
62
256
6
ByLayer
370
13
48
1
60
0
100
AcDbEllipse
10
213.74396
20
15.451941
30
0
11
0.156043507061199
21
-2.97748748746711
31
0
210
0
220
0
230
1
40
0.995725
41
0
42
6.28318530717959
0
ELLIPSE
5
1F2
100
AcDbEntity
8
1
62
256
6
ByLayer
370
13
48
1
60
0
100
AcDbEllipse
10
206.826759
20
7.375172
30
0
11
0.0127690523125567
21
-0.243648032548637
31
0
210
0
220
0
230
1
40
0.995725
41
0.174532925198828
42
1.26193471909827
0
ELLIPSE
5
1F3
100
AcDbEntity
8
1
62
256
6
ByLayer
370
13
48
1
60
0
100
AcDbEllipse
10
207.445347
20
21.418937
30
0
11
-0.0455100421907656
21
-0.194753269702449
31
0
210
0
220
0
230
1
40
0.088753
41
1.59649677847495
42
-3.11589220188392
0
ELLIPSE
5
1F4
100
AcDbEntity
8
1
62
256
6
ByLayer
370
13
48
1
60
0
100
AcDbEllipse
10
207.445347
20
21.418937
30
0
11
0.010467191248589
21
-0.199725906950915
31
0
210
0
220
0
230
1
40
0.995725
41
-3.14157313675576
42
-1.75405589825518
0
ELLIPSE
5
1F5
100
AcDbEntity
8
1
62
256
6
ByLayer
370
13
48
1
60
0
100
AcDbEllipse
10
207.591393
20
8.597838
30
0
11
0.197551554484215
21
0.0311990916673893
31
0
210
0
220
0
230
1
40
0.009655
41
-3.04959407912175
42
-1.47879775232028
0
ELLIPSE
5
1F6
100
AcDbEntity
8
1
62
256
6
ByLayer
370
13
48
1
60
0
100
AcDbEllipse
10
207.129646
20
23.441725
30
0
11
-2.21586788358086
21
1.36412174584508
31
0
210
0
220
0
230
1
40
0.479615
41
1.27243184070566
42
1.31166508783202
0
ELLIPSE
5
1F7
100
AcDbEntity
8
1
62
256
6
ByLayer
370
13
48
1
60
0
100
AcDbEllipse
10
218.862123
20
24.056598
30
0
11
-0.0994383168615992
21
1.89739611603369
31
0
210
0
220
0
230
1
40
0.995725
41
-2.37978474864574
42
-1.87965793449005
0
ELLIPSE
5
1F8
100
AcDbEntity
8
1
62
256
6
ByLayer
370
13
48
1
60
0
100
AcDbEllipse
10
208.777107
20
6.855215
30
0
11
0.107288710298039
21
-2.04719054624688
31
0
210
0
220
0
230
1
40
0.995725
41
-2.36773979636937
42
-1.87965793449085
0
ELLIPSE
5
1F9
100
AcDbEntity
8
1
62
256
6
ByLayer
370
13
48
1
60
0
100
AcDbEllipse
10
207.078545
20
14.919062
30
0
11
0.0444855628065039
21
-0.848835104541388
31
0
210
0
220
0
230
1
40
0.995725
41
-1.75405589825425
42
-1.46607657167522
0
ELLIPSE
5
1FA
100
AcDbEntity
8
1
62
256
6
ByLayer
370
13
48
1
60
0
100
AcDbEllipse
10
204.96582
20
14.891761
30
0
11
-0.0287847759336208
21
0.549246244115015
31
0
210
0
220
0
230
1
40
0.995725
41
1.38753675533548
42
1.67551608191458
0
ELLIPSE
5
1FB
100
AcDbEntity
8
1
62
256
6
ByLayer
370
13
48
1
60
0
100
AcDbEllipse
10
206.772802
20
7.389396
30
0
11
0.0104671912485892
21
-0.199725906950916
31
0
210
0
220
0
230
1
40
0.995725
41
-0.00872664625984151
42
1.26193471909829
0
ELLIPSE
5
1FC
100
AcDbEntity
8
1
62
256
6
ByLayer
370
13
48
1
60
0
100
AcDbEllipse
10
207.445347
20
21.418937
30
0
11
0.198308915233049
21
-0.0259533069008789
31
0
210
0
220
0
230
1
40
0.016833
41
1.47983423648517
42
3.05063056328134
0
ELLIPSE
5
1FD
100
AcDbEntity
8
1
62
256
6
ByLayer
370
13
48
1
60
0
100
AcDbEllipse
10
221.561015
20
23.034254
30
0
11
0.0366351693700632
21
-0.699040674328225
31
0
210
0
220
0
230
1
40
0.995725
41
1.67551608191455
42
3.06423017113068
0
ELLIPSE
5
1FE
100
AcDbEntity
8
1
62
256
6
ByLayer
370
13
48
1
60
0
100
AcDbEllipse
10
206.76819
20
7.389154
30
0
11
0.0104671912485892
21
-0.199725906950916
31
0
210
0
220
0
230
1
40
0.995725
41
0.0114035669056942
42
1.26193471909919
0
ELLIPSE
5
1FF
100
AcDbEntity
8
1
62
256
6
ByLayer
370
13
48
1
60
0
100
AcDbEllipse
10
221.363333
20
14.8372
30
0
11
0.465790010562217
21
-8.88780285931571
31
0
210
0
220
0
230
1
40
0.995725
41
3.06423017113143
42
3.11423538093016
0
ELLIPSE
5
200
100
AcDbEntity
8
1
62
256
6
ByLayer
370
13
48
1
60
0
100
AcDbEllipse
10
218.783888
20
24.052497
30
0
11
-1.59242934825149
21
-1.39349696569071
31
0
210
0
220
0
230
1
40
0.74335
41
1.15768450151242
42
1.97984155689231
0
ELLIPSE
5
201
100
AcDbEntity
8
1
62
256
6
ByLayer
370
13
48
1
60
0
100
AcDbEllipse
10
222.654962
20
16.019084
30
0
11
-0.0287847759336208
21
0.549246244115015
31
0
210
0
220
0
230
1
40
0.995725
41
-1.75405589825431
42
-1.46607657167522
0
ELLIPSE
5
202
100
AcDbEntity
8
1
62
256
6
ByLayer
370
13
48
1
60
0
100
AcDbEllipse
10
205.257405
20
21.200327
30
0
11
-0.0435637040642916
21
-0.259139630108637
31
0
210
0
220
0
230
1
40
0.947521
41
-2.83343967208343
42
-1.53236303186526
0
ELLIPSE
5
203
100
AcDbEntity
8
1
62
256
6
ByLayer
370
13
48
1
60
0
100
AcDbEllipse
10
223.209692
20
16.105726
30
0
11
0.148163665863161
21
0.023399318750542
31
0
210
0
220
0
230
1
40
0.009655
41
0.0919985744735827
42
1.66279490126883
0
ELLIPSE
5
204
100
AcDbEntity
8
1
62
256
6
ByLayer
370
13
48
1
60
0
100
AcDbEllipse
10
222.668799
20
16.019809
30
0
11
0.036635169370062
21
-0.699040674328201
31
0
210
0
220
0
230
1
40
0.995725
41
1.38753675533548
42
1.67551608191455
0
ELLIPSE
5
205
100
AcDbEntity
8
1
62
256
6
ByLayer
370
13
48
1
60
0
100
AcDbEllipse
10
206.092052
20
7.878284
30
0
11
0.0366351693700632
21
-0.699040674328225
31
0
210
0
220
0
230
1
40
0.995725
41
-1.46607657167606
42
-0.0773624824598946
0
ELLIPSE
5
206
100
AcDbEntity
8
1
62
256
6
ByLayer
370
13
48
1
60
0
100
AcDbEllipse
10
206.073603
20
7.877317
30
0
11
-0.0287847759336221
21
0.549246244115039
31
0
210
0
220
0
230
1
40
0.995725
41
1.67551608191452
42
3.06423017113071
0
ELLIPSE
5
207
100
AcDbEntity
8
1
62
256
6
ByLayer
370
13
48
1
60
0
100
AcDbEllipse
10
222.394155
20
9.700406
30
0
11
0.148731686424787
21
-0.0194649801756591
31
0
210
0
220
0
230
1
40
0.016833
41
-1.66175841710318
42
-0.0909620903084588
0
ELLIPSE
5
208
100
AcDbEntity
8
1
62
256
6
ByLayer
370
13
48
1
60
0
100
AcDbEllipse
10
220.617982
20
23.526447
30
0
11
-0.279378559898193
21
-0.215283244301339
31
0
210
0
220
0
230
1
40
0.479615
41
-2.35983386470049
42
-1.27243207080374
0
ELLIPSE
5
209
100
AcDbEntity
8
1
62
256
6
ByLayer
370
13
48
1
60
0
100
AcDbEllipse
10
220.212333
20
9.493842
30
0
11
0.010467191248589
21
-0.199725906950915
31
0
210
0
220
0
230
1
40
0.995725
41
-0.280778212086032
42
2.11747660773086E-05
0
ELLIPSE
5
20A
100
AcDbEntity
8
1
62
256
6
ByLayer
370
13
48
1
60
0
100
AcDbEllipse
10
206.256455
20
14.787007
30
0
11
-0.148163665863161
21
-0.0233993187505419
31
0
210
0
220
0
230
1
40
0.009655
41
-3.04959407911743
42
-1.47879775232123
0
ELLIPSE
5
20B
100
AcDbEntity
8
1
62
256
6
ByLayer
370
13
48
1
60
0
100
AcDbEllipse
10
204.984268
20
14.892728
30
0
11
0.036635169370062
21
-0.699040674328201
31
0
210
0
220
0
230
1
40
0.995725
41
-1.75405589825514
42
-1.46607657167606
0
ELLIPSE
5
20C
100
AcDbEntity
8
1
62
256
6
ByLayer
370
13
48
1
60
0
100
AcDbEllipse
10
207.342528
20
8.229196
30
0
11
0.00523359562429395
21
-0.0998629534754455
31
0
210
0
220
0
230
1
40
0.995725
41
0.761807904942898
42
1.67551608191477
0
ELLIPSE
5
20D
100
AcDbEntity
8
1
62
256
6
ByLayer
370
13
48
1
60
0
100
AcDbEllipse
10
206.60337
20
14.985402
30
0
11
-0.198308915233049
21
0.0259533069008801
31
0
210
0
220
0
230
1
40
0.016833
41
-1.66175841710548
42
-0.0909620903084502
0
ELLIPSE
5
20E
100
AcDbEntity
8
1
62
256
6
ByLayer
370
13
48
1
60
0
100
AcDbEllipse
10
205.546546
20
7.792126
30
0
11
-0.148163665863161
21
-0.0233993187505419
31
0
210
0
220
0
230
1
40
0.009655
41
-1.47879775232128
42
-0.264793552090074
0
ELLIPSE
5
20F
100
AcDbEntity
8
1
62
256
6
ByLayer
370
13
48
1
60
0
100
AcDbEllipse
10
220.542237
20
15.991783
30
0
11
0.0444855628065039
21
-0.848835104541388
31
0
210
0
220
0
230
1
40
0.995725
41
1.38753675533551
42
1.67551608191457
0
ELLIPSE
5
210
100
AcDbEntity
8
1
62
256
6
ByLayer
370
13
48
1
60
0
100
AcDbEllipse
10
222.394155
20
9.700406
30
0
11
-0.0235312926468724
21
0.148142763125194
31
0
210
0
220
0
230
1
40
0.091865
41
1.56109981835339
42
3.13189614514058
0
ELLIPSE
5
211
100
AcDbEntity
8
1
62
256
6
ByLayer
370
13
48
1
60
0
100
AcDbEllipse
10
206.294346
20
16.075579
30
0
11
0.465790010562217
21
-8.88780285931571
31
0
210
0
220
0
230
1
40
0.995725
41
-0.0773624824600122
42
-0.027357272661283
0
ELLIPSE
5
212
100
AcDbEntity
8
1
62
256
6
ByLayer
370
13
48
1
60
0
100
AcDbEllipse
10
208.790944
20
6.85594
30
0
11
-0.0994383168615992
21
1.89739611603369
31
0
210
0
220
0
230
1
40
0.995725
41
0.76180790494323
42
1.26193471909893
0
ELLIPSE
5
213
100
AcDbEntity
8
1
62
256
6
ByLayer
370
13
48
1
60
0
100
AcDbEllipse
10
222.400274
20
9.712452
30
0
11
-0.0435637040532496
21
-0.259139630111936
31
0
210
0
220
0
230
1
40
0.947521
41
0.308152981465726
42
1.60922962167811
0
ELLIPSE
5
214
100
AcDbEntity
8
1
62
256
6
ByLayer
370
13
48
1
60
0
100
AcDbEllipse
10
221.574584
20
23.584072
30
0
11
0.00379960965785709
21
0.149951868832795
31
0
210
0
220
0
230
1
40
0.092094
41
0.00716942111247568
42
1.57796574790525
0
ELLIPSE
5
215
100
AcDbEntity
8
1
62
256
6
ByLayer
370
13
48
1
60
0
100
AcDbEllipse
10
205.254299
20
21.21189
30
0
11
0.0235312926468821
21
-0.148142763125192
31
0
210
0
220
0
230
1
40
0.091865
41
-3.05123893762757
42
-1.58049283525138
0
ELLIPSE
5
216
100
AcDbEntity
8
1
62
256
6
ByLayer
370
13
48
1
60
0
100
AcDbEllipse
10
204.43667
20
14.964397
30
0
11
-0.148731686424787
21
0.0194649801756601
31
0
210
0
220
0
230
1
40
0.016833
41
0.263181912489624
42
1.47983423648391
0
ELLIPSE
5
217
100
AcDbEntity
8
1
62
256
6
ByLayer
370
13
48
1
60
0
100
AcDbEllipse
10
220.560686
20
15.99275
30
0
11
0.036635169370062
21
-0.699040674328202
31
0
210
0
220
0
230
1
40
0.995725
41
1.38753675533552
42
1.67551608191455
0
ELLIPSE
5
218
100
AcDbEntity
8
1
62
256
6
ByLayer
370
13
48
1
60
0
100
AcDbEllipse
10
221.169067
20
21.834003
30
0
11
-0.091587923425157
21
1.7476016858205
31
0
210
0
220
0
230
1
40
0.995725
41
-0.0273572726603383
42
-0.00872664625997129
0
ELLIPSE
5
219
100
AcDbEntity
8
1
62
256
6
ByLayer
370
13
48
1
60
0
100
AcDbEllipse
10
221.565628
20
23.034495
30
0
11
0.0366351693700632
21
-0.699040674328225
31
0
210
0
220
0
230
1
40
0.995725
41
1.67551608191537
42
3.06423017113146
0
ELLIPSE
5
21A
100
AcDbEntity
8
1
62
256
6
ByLayer
370
13
48
1
60
0
100
AcDbEllipse
10
220.83092
20
23.537607
30
0
11
0.0127690523125567
21
-0.243648032548637
31
0
210
0
220
0
230
1
40
0.995725
41
-2.96705972838928
42
-1.87965793448993
0
ELLIPSE
5
21B
100
AcDbEntity
8
1
62
256
6
ByLayer
370
13
48
1
60
0
100
AcDbEllipse
10
207.591393
20
8.597838
30
0
11
0.010467191248589
21
-0.199725906950915
31
0
210
0
220
0
230
1
40
0.995725
41
-1.46607657167604
42
-1.72590776916005E-05
0
ELLIPSE
5
21C
100
AcDbEntity
8
1
62
256
6
ByLayer
370
13
48
1
60
0
100
AcDbEllipse
10
207.092381
20
14.919788
30
0
11
-0.0366351693700629
21
0.699040674328202
31
0
210
0
220
0
230
1
40
0.995725
41
1.38753675533552
42
1.67551608191455
0
ELLIPSE
5
21D
100
AcDbEntity
8
1
62
256
6
ByLayer
370
13
48
1
60
0
100
AcDbEllipse
10
219.258288
20
7.40451
30
0
11
-1.40394107567718
21
-1.50837379634228
31
0
210
0
220
0
230
1
40
0.735668
41
2.56900210139233
42
-2.89202615041521
0
ELLIPSE
5
21E
100
AcDbEntity
8
1
62
256
6
ByLayer
370
13
48
1
60
0
100
AcDbEllipse
10
220.832104
20
23.535837
30
0
11
0.14513953236318
21
-0.0378750068699342
31
0
210
0
220
0
230
1
40
0.028078
41
3.05344420152922
42
-1.65894477885525
0
ELLIPSE
5
21F
100
AcDbEntity
8
1
62
256
6
ByLayer
370
13
48
1
60
0
100
AcDbEllipse
10
206.754354
20
7.388429
30
0
11
-0.0026167978121474
21
0.0499314767377296
31
0
210
0
220
0
230
1
40
0.995725
41
3.13286600733052
42
-1.87965793449105
0
ELLIPSE
5
220
100
AcDbEntity
8
1
62
256
6
ByLayer
370
13
48
1
60
0
100
AcDbEllipse
10
206.54195
20
7.329237
30
0
11
0.00653729335064122
21
-0.149857478277354
31
0
210
0
220
0
230
1
40
0.092367
41
-1.56998679074977
42
0.000809536043604682
0
ELLIPSE
5
221
100
AcDbEntity
8
1
62
256
6
ByLayer
370
13
48
1
60
0
100
AcDbEllipse
10
223.211784
20
15.947899
30
0
11
0.148731686424787
21
-0.0194649801756591
31
0
210
0
220
0
230
1
40
0.016833
41
-1.66175841710532
42
-0.0909620903112785
0
ELLIPSE
5
222
100
AcDbEntity
8
1
62
256
6
ByLayer
370
13
48
1
60
0
100
AcDbEllipse
10
220.212333
20
9.493842
30
0
11
-0.198308915233049
21
0.0259533069008801
31
0
210
0
220
0
230
1
40
0.016833
41
-3.14144018094331
42
-1.66175841710604
0
ELLIPSE
5
223
100
AcDbEntity
8
1
62
256
6
ByLayer
370
13
48
1
60
0
100
AcDbEllipse
10
206.073871
20
7.328223
30
0
11
-0.00379960965785735
21
-0.149951868832795
31
0
210
0
220
0
230
1
40
0.092094
41
-1.56362690568454
42
-0.0717426686092287
0
ELLIPSE
5
224
100
AcDbEntity
8
1
62
256
6
ByLayer
370
13
48
1
60
0
100
AcDbEllipse
10
206.509506
20
7.328126
30
0
11
0.00373239490690328
21
-0.149953556904326
31
0
210
0
220
0
230
1
40
0.092336
41
-1.56825879134033
42
-0.0414707750421847
0
ELLIPSE
5
225
100
AcDbEntity
8
1
62
256
6
ByLayer
370
13
48
1
60
0
100
AcDbEllipse
10
206.451715
20
9.076843
30
0
11
-0.091587923425157
21
1.7476016858205
31
0
210
0
220
0
230
1
40
0.995725
41
3.11423538092949
42
3.13286600732984
0
ELLIPSE
5
226
100
AcDbEntity
8
1
62
256
6
ByLayer
370
13
48
1
60
0
100
AcDbEllipse
10
221.138949
20
23.58417
30
0
11
-0.00373239490690383
21
0.149953556904326
31
0
210
0
220
0
230
1
40
0.092336
41
0.0025375354558029
42
1.57333386224946
0
ELLIPSE
5
227
100
AcDbEntity
8
1
62
256
6
ByLayer
370
13
48
1
60
0
100
AcDbEllipse
10
220.547931
20
9.407148
30
0
11
-0.157381426401014
21
-0.0466723701611444
31
0
210
0
220
0
230
1
40
0.019797
41
-1.48863729005346
42
-0.271936942497736
0
ELLIPSE
5
228
100
AcDbEntity
8
1
62
256
6
ByLayer
370
13
48
1
60
0
100
AcDbEllipse
10
213.077876
20
-2.632703
30
0
11
0.575695518672402
21
-10.9849248823003
31
0
210
0
220
0
230
1
40
0.995725
41
-3.14159265358978
42
-2.83440246605355
0
ELLIPSE
5
229
100
AcDbEntity
8
1
62
256
6
ByLayer
370
13
48
1
60
0
100
AcDbEllipse
10
226.016419
20
2.273643
30
0
11
-5.84167751695924
21
-1.99173158444743
31
0
210
0
220
0
230
1
40
0.849286
41
-0.376036605526631
42
-0.228484536092304
0
ELLIPSE
5
22A
100
AcDbEntity
8
1
62
256
6
ByLayer
370
13
48
1
60
0
100
AcDbEllipse
10
235.032965
20
8.5E-05
30
0
11
-250.61963007008
21
0.11368434223413
31
0
210
0
220
0
230
1
40
0.092638
41
-1.4504164072307
42
-1.44108830406081
0
ELLIPSE
5
22B
100
AcDbEntity
8
1
62
256
6
ByLayer
370
13
48
1
60
0
100
AcDbEllipse
10
214.522789
20
-6.00369
30
0
11
-2.09999999999999
21
2.12234201567295E-15
31
0
210
0
220
0
230
1
40
0.994435
41
-2.75498031966592
42
-0.284903109220032
0
ELLIPSE
5
22C
100
AcDbEntity
8
1
62
256
6
ByLayer
370
13
48
1
60
0
100
AcDbEllipse
10
222.020707
20
0.125714
30
0
11
-0.0106855465759426
21
0.505604454991712
31
0
210
0
220
0
230
1
40
0.102266
41
-0.12024133070585
42
0.225368907931561
0
ELLIPSE
5
22D
100
AcDbEntity
8
1
62
256
6
ByLayer
370
13
48
1
60
0
100
AcDbEllipse
10
199.52
20
5.822694
30
0
11
-4.99966187691505
21
0.0715087138193014
31
0
210
0
220
0
230
1
40
0.813162
41
1.76439363797452
42
1.87834534484086
0
ELLIPSE
5
22E
100
AcDbEntity
8
1
62
256
6
ByLayer
370
13
48
1
60
0
100
AcDbEllipse
10
206.066634
20
16.089755
30
0
11
-0.471023606186523
21
8.98766581279117
31
0
210
0
220
0
230
1
40
0.995725
41
-2.91693381338445
42
-2.83440246605354
0
ELLIPSE
5
22F
100
AcDbEntity
8
1
62
256
6
ByLayer
370
13
48
1
60
0
100
AcDbEllipse
10
203.540675
20
7.488535
30
0
11
-0.29369042064903
21
-0.95590058940195
31
0
210
0
220
0
230
1
40
0.0868
41
-1.53907871771946
42
-0.0767518009867762
0
ELLIPSE
5
230
100
AcDbEntity
8
1
62
256
6
ByLayer
370
13
48
1
60
0
100
AcDbEllipse
10
216.011694
20
11.440127
30
0
11
-1.65564191923054
21
-2.05486645240847
31
0
210
0
220
0
230
1
40
0.966608
41
0.713732917296156
42
1.07490334569056
0
ELLIPSE
5
231
100
AcDbEntity
8
1
62
256
6
ByLayer
370
13
48
1
60
0
100
AcDbEllipse
10
205.91719
20
9.308901
30
0
11
-2.29348548683285
21
1.8479014559409
31
0
210
0
220
0
230
1
40
0.775936
41
3.05283506783885
42
-2.77958348577931
0
ELLIPSE
5
232
100
AcDbEntity
8
1
62
256
6
ByLayer
370
13
48
1
60
0
100
AcDbEllipse
10
982.765034
20
0
30
0
11
-1265.19016916747
21
17.9592475054399
31
0
210
0
220
0
230
1
40
0.01163
41
0.90652299226623
42
0.92393675640583
0
ELLIPSE
5
233
100
AcDbEntity
8
1
62
256
6
ByLayer
370
13
48
1
60
0
100
AcDbEllipse
10
206.576594
20
9.343459
30
0
11
-1.65564191948174
21
-2.05486645285277
31
0
210
0
220
0
230
1
40
0.966608
41
1.54124461099608
42
1.85179470977625
0
ELLIPSE
5
234
100
AcDbEntity
8
1
62
256
6
ByLayer
370
13
48
1
60
0
100
AcDbEllipse
10
208.148304
20
8.794403
30
0
11
0.0261679781214729
21
-0.499314767377287
31
0
210
0
220
0
230
1
40
0.092371
41
-1.00594782560333
42
-0.630730776736619
0
ELLIPSE
5
235
100
AcDbEntity
8
1
62
256
6
ByLayer
370
13
48
1
60
0
100
AcDbEllipse
10
205.906804
20
0
30
0
11
-1.22730830964052
21
23.2169091290333
31
0
210
0
220
0
230
1
40
0.092638
41
-0.120380159990731
42
-0.00489743551647133
0
ELLIPSE
5
236
100
AcDbEntity
8
1
62
256
6
ByLayer
370
13
48
1
60
0
100
AcDbEllipse
10
221.788769
20
-14.327314
30
0
11
-0.0640459332411509
21
-0.515984406718169
31
0
210
0
220
0
230
1
40
0.113087
41
-1.64258009660191
42
-0.0717837698223296
0
ELLIPSE
5
237
100
AcDbEntity
8
1
62
256
6
ByLayer
370
13
48
1
60
0
100
AcDbEllipse
10
209.640892
20
8.202268
30
0
11
-0.0261679781214735
21
0.499314767377288
31
0
210
0
220
0
230
1
40
0.995725
41
0.927295218001583
42
1.13806179252797
0
ELLIPSE
5
238
100
AcDbEntity
8
1
62
256
6
ByLayer
370
13
48
1
60
0
100
AcDbEllipse
10
213.17012
20
-2.627869
30
0
11
-0.52335956242947
21
9.98629534754574
31
0
210
0
220
0
230
1
40
0.995725
41
0
42
0.307190187536249
0
ELLIPSE
5
239
100
AcDbEntity
8
1
62
256
6
ByLayer
370
13
48
1
60
0
100
AcDbEllipse
10
206.184116
20
9.32289
30
0
11
-0.109905508110188
21
2.0971220229846
31
0
210
0
220
0
230
1
40
0.995725
41
2.21256348620481
42
2.71619434556725
0
ELLIPSE
5
23A
100
AcDbEntity
8
1
62
256
6
ByLayer
370
13
48
1
60
0
100
AcDbEllipse
10
206.184116
20
9.32289
30
0
11
-0.109905508110188
21
2.0971220229846
31
0
210
0
220
0
230
1
40
0.995725
41
-2.74205116609548
42
-2.08304175457705
0
ELLIPSE
5
23B
100
AcDbEntity
8
1
62
256
6
ByLayer
370
13
48
1
60
0
100
AcDbEllipse
10
224.112497
20
0
30
0
11
-2.8214352775886
21
-23.2148579489158
31
0
210
0
220
0
230
1
40
0.116567
41
-1.29908482079942
42
-0.0866418634486022
0
ELLIPSE
5
23C
100
AcDbEntity
8
1
62
256
6
ByLayer
370
13
48
1
60
0
100
AcDbEllipse
10
214.522789
20
-6.519905
30
0
11
2
21
0
31
0
210
0
220
0
230
1
40
0.994435
41
2.49658435540789
42
2.76911747143923
0
ELLIPSE
5
23D
100
AcDbEntity
8
1
62
256
6
ByLayer
370
13
48
1
60
0
100
AcDbEllipse
10
222.124857
20
0.129603
30
0
11
-0.021371093140072
21
1.01120890947604
31
0
210
0
220
0
230
1
40
0.102266
41
-0.12024133073621
42
1.06346457213756
0
ELLIPSE
5
23E
100
AcDbEntity
8
1
62
256
6
ByLayer
370
13
48
1
60
0
100
AcDbEllipse
10
222.134054
20
7.276619
30
0
11
-0.00953739020477645
21
0.500183279006538
31
0
210
0
220
0
230
1
40
0.104979
41
1.92335867022679
42
-2.7890303101676
0
ELLIPSE
5
23F
100
AcDbEntity
8
1
62
256
6
ByLayer
370
13
48
1
60
0
100
AcDbEllipse
10
221.975459
20
0
30
0
11
-3.94345875636177
21
23.2147378306529
31
0
210
0
220
0
230
1
40
0.085525
41
1.59581008927076
42
1.73600470701122
0
ELLIPSE
5
240
100
AcDbEntity
8
1
62
256
6
ByLayer
370
13
48
1
60
0
100
AcDbEllipse
10
222.16187
20
8.305546
30
0
11
-0.0190690707690436
21
-0.501607026763641
31
0
210
0
220
0
230
1
40
0.195483
41
-0.786740978468545
42
-0.331356153715292
0
ELLIPSE
5
241
100
AcDbEntity
8
1
62
256
6
ByLayer
370
13
48
1
60
0
100
AcDbEllipse
10
235.033057
20
1.4E-05
30
0
11
-248.049555543414
21
0.112526921975492
31
0
210
0
220
0
230
1
40
0.092638
41
-1.42752770868703
42
-1.41176366329106
0
ELLIPSE
5
242
100
AcDbEntity
8
1
62
256
6
ByLayer
370
13
48
1
60
0
100
AcDbEllipse
10
213.387064
20
8.398596
30
0
11
-3.96879667607113
21
-0.704906652978259
31
0
210
0
220
0
230
1
40
0.015321
41
-3.01817314110452
42
-2.7167145401079
0
ELLIPSE
5
243
100
AcDbEntity
8
1
62
256
6
ByLayer
370
13
48
1
60
0
100
AcDbEllipse
10
199.52
20
6.499527
30
0
11
-3
21
3.03191716524709E-15
31
0
210
0
220
0
230
1
40
0.759716
41
-2.99749724030235
42
-1.69515426081735
0
ELLIPSE
5
244
100
AcDbEntity
8
1
62
256
6
ByLayer
370
13
48
1
60
0
100
AcDbEllipse
10
227.611475
20
0.68864
30
0
11
-6.03299189763524
21
-0.0261165012911812
31
0
210
0
220
0
230
1
40
0.988988
41
0.0283476751458442
42
0.151949661920345
0
ELLIPSE
5
245
100
AcDbEntity
8
1
62
256
6
ByLayer
370
13
48
1
60
0
100
AcDbEllipse
10
212.594424
20
8.357056
30
0
11
0.0523359562429457
21
-0.998629534754574
31
0
210
0
220
0
230
1
40
0.092371
41
-1.5707963267949
42
0
0
ELLIPSE
5
246
100
AcDbEntity
8
1
62
256
6
ByLayer
370
13
48
1
60
0
100
AcDbEllipse
10
165.651871
20
0
30
0
11
-250.620098069411
21
0.113695192301109
31
0
210
0
220
0
230
1
40
0.092638
41
-1.78744408152888
42
-1.73289580934194
0
ELLIPSE
5
247
100
AcDbEntity
8
1
62
256
6
ByLayer
370
13
48
1
60
0
100
AcDbEllipse
10
214.522789
20
-6.00369
30
0
11
2
21
0
31
0
210
0
220
0
230
1
40
0.994435
41
0.750055475199147
42
2.95535530714498
0
ELLIPSE
5
248
100
AcDbEntity
8
1
62
256
6
ByLayer
370
13
48
1
60
0
100
AcDbEllipse
10
204.007208
20
10.728556
30
0
11
-0.0261679781214736
21
0.49931476737729
31
0
210
0
220
0
230
1
40
0.995725
41
-2.08239418575095
42
-1.46607657167526
0
ELLIPSE
5
249
100
AcDbEntity
8
1
62
256
6
ByLayer
370
13
48
1
60
0
100
AcDbEllipse
10
221.048141
20
-14.748882
30
0
11
-0.295469314444686
21
-2.48982605088653
31
0
210
0
220
0
230
1
40
0.117264
41
0
42
6.28318530717959
0
ELLIPSE
5
24A
100
AcDbEntity
8
1
62
256
6
ByLayer
370
13
48
1
60
0
100
AcDbEllipse
10
217.155371
20
8.596085
30
0
11
-0.318394449103904
21
-0.395164887017338
31
0
210
0
220
0
230
1
40
0.966608
41
-2.1258574203321
42
-2.06668442418411
0
ELLIPSE
5
24B
100
AcDbEntity
8
1
62
256
6
ByLayer
370
13
48
1
60
0
100
AcDbEllipse
10
226.325158
20
0
30
0
11
-47.0595119877374
21
19.7864274513702
31
0
210
0
220
0
230
1
40
0.248298
41
0.748864857005357
42
0.991436426718909
0
ELLIPSE
5
24C
100
AcDbEntity
8
1
62
256
6
ByLayer
370
13
48
1
60
0
100
AcDbEllipse
10
222.050865
20
-1.996233
30
0
11
-2.22395852554665
21
3.55664916228014
31
0
210
0
220
0
230
1
40
0.378685
41
-1.00621158439069
42
-0.862871895565264
0
ELLIPSE
5
24D
100
AcDbEntity
8
1
62
256
6
ByLayer
370
13
48
1
60
0
100
AcDbEllipse
10
219.485057
20
8.718179
30
0
11
-0.0261679781214734
21
0.499314767377286
31
0
210
0
220
0
230
1
40
0.995725
41
-0.990362103391461
42
-0.927295220884967
0
ELLIPSE
5
24E
100
AcDbEntity
8
1
62
256
6
ByLayer
370
13
48
1
60
0
100
AcDbEllipse
10
221.607492
20
8.829411
30
0
11
-0.0190747804158239
21
1.00036655813212
31
0
210
0
220
0
230
1
40
0.104979
41
-3.13809616056499
42
-2.59475407381833
0
ELLIPSE
5
24F
100
AcDbEntity
8
1
62
256
6
ByLayer
370
13
48
1
60
0
100
AcDbEllipse
10
221.973762
20
10.550939
30
0
11
0.136073486231659
21
-2.59643679036189
31
0
210
0
220
0
230
1
40
0.995725
41
-0.990362103391459
42
-0.858139698776705
0
ELLIPSE
5
250
100
AcDbEntity
8
1
62
256
6
ByLayer
370
13
48
1
60
0
100
AcDbEllipse
10
1132.257295
20
-0.404199
30
0
11
-1047.15066376957
21
0.47263575271289
31
0
210
0
220
0
230
1
40
0.047765
41
-0.478294687434186
42
-0.472032605993966
0
ELLIPSE
5
251
100
AcDbEntity
8
1
62
256
6
ByLayer
370
13
48
1
60
0
100
AcDbEllipse
10
221.83606
20
10.543723
30
0
11
-0.0804454850009987
21
2.59918447689408
31
0
210
0
220
0
230
1
40
0.529767
41
2.96867733992304
42
-3.13024406777763
0
ELLIPSE
5
252
100
AcDbEntity
8
1
62
256
6
ByLayer
370
13
48
1
60
0
100
AcDbEllipse
10
205.631055
20
7.992121
30
0
11
-3.9687966763746
21
-0.704906653033712
31
0
210
0
220
0
230
1
40
0.015321
41
-3.01817314075308
42
-2.71671454012355
0
ELLIPSE
5
253
100
AcDbEntity
8
1
62
256
6
ByLayer
370
13
48
1
60
0
100
AcDbEllipse
10
205.124447
20
19.442996
30
0
11
-0.143594274774629
21
2.73994198455292
31
0
210
0
220
0
230
1
40
0.016833
41
0.326127687959679
42
0.836829632654607
0
ELLIPSE
5
254
100
AcDbEntity
8
1
62
256
6
ByLayer
370
13
48
1
60
0
100
AcDbEllipse
10
209.399362
20
8.18961
30
0
11
-0.318392676564733
21
-0.395166625673247
31
0
210
0
220
0
230
1
40
0.966608
41
-2.12586228213844
42
-1.2897979443479
0
ELLIPSE
5
255
100
AcDbEntity
8
1
62
256
6
ByLayer
370
13
48
1
60
0
100
AcDbEllipse
10
206.230238
20
9.325307
30
0
11
0.136073486231659
21
-2.59643679036189
31
0
210
0
220
0
230
1
40
0.995725
41
0.0555653949272747
42
1.07574208457342
0
ELLIPSE
5
256
100
AcDbEntity
8
1
62
256
6
ByLayer
370
13
48
1
60
0
100
AcDbEllipse
10
206.158878
20
16.094589
30
0
11
0.523359562429457
21
-9.98629534754574
31
0
210
0
220
0
230
1
40
0.995725
41
-7.15313039965501E-06
42
0.307190187536254
0
ELLIPSE
5
257
100
AcDbEntity
8
1
62
256
6
ByLayer
370
13
48
1
60
0
100
AcDbEllipse
10
206.774478
20
9.35383
30
0
11
0.136073486231659
21
-2.59643679036189
31
0
210
0
220
0
230
1
40
0.995725
41
-2.08239418575104
42
-0.58193252743229
0
ELLIPSE
5
258
100
AcDbEntity
8
1
62
256
6
ByLayer
370
13
48
1
60
0
100
AcDbEllipse
10
199.52
20
1.622981
30
0
11
-0.494126391789368
21
13.9827987641011
31
0
210
0
220
0
230
1
40
0.355832
41
-0.537142374841408
42
-0.381214586793761
0
ELLIPSE
5
259
100
AcDbEntity
8
1
62
256
6
ByLayer
370
13
48
1
60
0
100
AcDbEllipse
10
206.42823
20
15.187069
30
0
11
0.136073486231659
21
-2.59643679036189
31
0
210
0
220
0
230
1
40
0.995725
41
-2.20424198809739
42
-1.46607657167525
0
ELLIPSE
5
25A
100
AcDbEntity
8
1
62
256
6
ByLayer
370
13
48
1
60
0
100
AcDbEllipse
10
216.617669
20
-6.979066
30
0
11
-6.03299187789921
21
-0.026116428595727
31
0
210
0
220
0
230
1
40
0.988988
41
3.00711898328376
42
-2.98964297951375
0
ELLIPSE
5
25B
100
AcDbEntity
8
1
62
256
6
ByLayer
370
13
48
1
60
0
100
AcDbEllipse
10
206.066634
20
16.089755
30
0
11
-0.471023606186523
21
8.98766581279117
31
0
210
0
220
0
230
1
40
0.995725
41
2.79252680319577
42
3.02206401946907
0
ELLIPSE
5
25C
100
AcDbEntity
8
1
62
256
6
ByLayer
370
13
48
1
60
0
100
AcDbEllipse
10
209.313937
20
7.669483
30
0
11
0.353010790461904
21
-0.935619250452587
31
0
210
0
220
0
230
1
40
0.088046
41
-1.59884006173132
42
-0.028043734936437
0
ELLIPSE
5
25D
100
AcDbEntity
8
1
62
256
6
ByLayer
370
13
48
1
60
0
100
AcDbEllipse
10
206.774478
20
9.35383
30
0
11
0.136073486231659
21
-2.59643679036189
31
0
210
0
220
0
230
1
40
0.995725
41
0.687062733516923
42
1.1380617925279
0
POINT
5
70
100
AcDbEntity
8
1
62
256
6
ByLayer
370
18
48
1
60
0
100
AcDbPoint
10
0
20
0
30
0
39
0
210
0
220
0
230
1
50
360
0
POINT
5
72
100
AcDbEntity
8
80
62
256
6
ByLayer
370
18
48
1
60
0
100
AcDbPoint
10
0
20
0
30
0
39
0
210
0
220
0
230
1
50
360
0
POINT
5
74
100
AcDbEntity
8
81
62
256
6
ByLayer
370
18
48
1
60
0
100
AcDbPoint
10
223.52
20
0
30
0
39
0
210
0
220
0
230
1
50
360
0
POINT
5
76
100
AcDbEntity
8
1
62
256
6
ByLayer
370
18
48
1
60
1
100
AcDbPoint
10
0
20
-24.75
30
0
39
0
210
0
220
0
230
1
50
360
0
POINT
5
77
100
AcDbEntity
8
1
62
256
6
ByLayer
370
18
48
1
60
1
100
AcDbPoint
10
223.52
20
-23.8125
30
0
39
0
210
0
220
0
230
1
50
360
0
POINT
5
78
100
AcDbEntity
8
1
62
256
6
ByLayer
370
18
48
1
60
1
100
AcDbPoint
10
-70
20
-19.05
30
0
39
0
210
0
220
0
230
1
50
360
0
POINT
5
79
100
AcDbEntity
8
1
62
256
6
ByLayer
370
18
48
1
60
1
100
AcDbPoint
10
0
20
-24.75
30
0
39
0
210
0
220
0
230
1
50
360
0
POINT
5
7A
100
AcDbEntity
8
1
62
256
6
ByLayer
370
18
48
1
60
1
100
AcDbPoint
10
223.52
20
-23.8125
30
0
39
0
210
0
220
0
230
1
50
360
0
POINT
5
7B
100
AcDbEntity
8
1
62
256
6
ByLayer
370
18
48
1
60
1
100
AcDbPoint
10
5.5098
20
-24.75
30
0
39
0
210
0
220
0
230
1
50
360
0
POINT
5
7C
100
AcDbEntity
8
1
62
256
6
ByLayer
370
18
48
1
60
1
100
AcDbPoint
10
28.8036
20
-23.8125
30
0
39
0
210
0
220
0
230
1
50
360
0
POINT
5
7D
100
AcDbEntity
8
1
62
256
6
ByLayer
370
18
48
1
60
1
100
AcDbPoint
10
223.52
20
-23.8125
30
0
39
0
210
0
220
0
230
1
50
360
0
POINT
5
7E
100
AcDbEntity
8
1
62
256
6
ByLayer
370
18
48
1
60
1
100
AcDbPoint
10
222.2434
20
-11.90625
30
0
39
0
210
0
220
0
230
1
50
360
0
SPLINE
5
25E
100
AcDbEntity
8
SK1
62
256
6
ByLayer
370
13
48
1
60
0
100
AcDbSpline
70
4
71
3
72
68
73
64
40
0
40
0
40
0
40
0
40
0.015625
40
0.015625
40
0.0312500000000001
40
0.0312500000000001
40
0.0468750000000001
40
0.0468750000000001
40
0.0625000000000001
40
0.0625000000000001
40
0.0781250000000002
40
0.0781250000000002
40
0.0937500000000002
40
0.0937500000000002
40
0.125
40
0.125
40
0.15625
40
0.15625
40
0.1875
40
0.1875
40
0.250000000000001
40
0.250000000000001
40
0.281250000000001
40
0.281250000000001
40
0.312500000000001
40
0.312500000000001
40
0.375
40
0.375
40
0.4375
40
0.4375
40
0.5
40
0.5
40
0.5625
40
0.5625
40
0.59375
40
0.59375
40
0.625
40
0.625
40
0.6875
40
0.6875
40
0.749999999999999
40
0.749999999999999
40
0.78125
40
0.78125
40
0.8125
40
0.8125
40
0.84375
40
0.84375
40
0.875
40
0.875
40
0.90625
40
0.90625
40
0.921875
40
0.921875
40
0.9375
40
0.9375
40
0.953125
40
0.953125
40
0.96875
40
0.96875
40
0.984375
40
0.984375
40
1
40
1
40
1
40
1
41
1
10
-6.50000000009537
20
8.87089623431592
30
0
41
1
10
-6.38964005784193
20
8.87089623432257
30
0
41
1
10
-6.28158777178416
20
8.85940086480647
30
0
41
1
10
-6.06968685290551
20
8.81540344387071
30
0
41
1
10
-5.96501017976783
20
8.78237878278361
30
0
41
1
10
-5.76743688221792
20
8.69971062398861
30
0
41
1
10
-5.67362162233444
20
8.65004386475434
30
0
41
1
10
-5.49440680002854
20
8.53638191883883
30
0
41
1
10
-5.41084411120518
20
8.47354035148646
30
0
41
1
10
-5.25410321779377
20
8.33890938882163
30
0
41
1
10
-5.18076228366576
20
8.26697977481194
30
0
41
1
10
-5.04236841853764
20
8.11530552801844
30
0
41
1
10
-4.97708142928902
20
8.03517541733243
30
0
41
1
10
-4.79483748696403
20
7.7886883824635
30
0
41
1
10
-4.69031457331725
20
7.61555747347686
30
0
41
1
10
-4.50449292536955
20
7.25613146802451
30
0
41
1
10
-4.42331516342429
20
7.0697011257152
30
0
41
1
10
-4.27866003032617
20
6.68621407711885
30
0
41
1
10
-4.21613483481546
20
6.49167843530805
30
0
41
1
10
-4.050058842756
20
5.9010477327684
30
0
41
1
10
-3.96765133118522
20
5.49799143172808
30
0
41
1
10
-3.86912379467795
20
4.88237914332473
30
0
41
1
10
-3.84059190899215
20
4.67531435241614
30
0
41
1
10
-3.79034359563845
20
4.25775817736212
30
0
41
1
10
-3.76860205743282
20
4.04686198179485
30
0
41
1
10
-3.71189783140515
20
3.41388377187141
30
0
41
1
10
-3.68514759900531
20
2.99065660100223
30
0
41
1
10
-3.64518264030204
20
2.14196585175267
30
0
41
1
10
-3.63202206704267
20
1.71650095141314
30
0
41
1
10
-3.6148752993273
20
0.863453409773285
30
0
41
1
10
-3.61090488997965
20
0.435870434789052
30
0
41
1
10
-3.61081378158445
20
-0.421394939045854
30
0
41
1
10
-3.61468794705834
20
-0.851077090828767
30
0
41
1
10
-3.6275848658499
20
-1.49723621391487
30
0
41
1
10
-3.63310141210927
20
-1.71320956001128
30
0
41
1
10
-3.646955419264
20
-2.14305408206693
30
0
41
1
10
-3.65529329679171
20
-2.35715224442401
30
0
41
1
10
-3.68548793121671
20
-2.99691438981384
30
0
41
1
10
-3.71238572795085
20
-3.42005942268045
30
0
41
1
10
-3.78767314105632
20
-4.25901300764133
30
0
41
1
10
-3.83594141362367
20
-4.67483087955947
30
0
41
1
10
-3.9346982037289
20
-5.2922060405285
30
0
41
1
10
-3.9721522548909
20
-5.49733813204614
30
0
41
1
10
-4.05827073884203
20
-5.90316900106956
30
0
41
1
10
-4.10684136225636
20
-6.10359019941808
30
0
41
1
10
-4.21829935961328
20
-6.49875483311666
30
0
41
1
10
-4.28137467697044
20
-6.69407757191092
30
0
41
1
10
-4.42568828754189
20
-7.07530157739131
30
0
41
1
10
-4.50652538220599
20
-7.26037606946602
30
0
41
1
10
-4.69126678450728
20
-7.61708086864488
30
0
41
1
10
-4.79503486630585
20
-7.78877297154605
30
0
41
1
10
-4.97543514483755
20
-8.03303881488131
30
0
41
1
10
-5.03973358082381
20
-8.11223071981814
30
0
41
1
10
-5.17893362392576
20
-8.2651568613432
30
0
41
1
10
-5.25300494784939
20
-8.33791002118039
30
0
41
1
10
-5.41049164235615
20
-8.47329310847419
30
0
41
1
10
-5.49407608281142
20
-8.53615420612931
30
0
41
1
10
-5.67346592733142
20
-8.64996303558974
30
0
41
1
10
-5.76709683224057
20
-8.69948671737211
30
0
41
1
10
-5.96303851927409
20
-8.78163447161853
30
0
41
1
10
-6.06561702593201
20
-8.81437574885777
30
0
41
1
10
-6.28052082104801
20
-8.85935768582462
30
0
41
1
10
-6.38946945782645
20
-8.87089623432257
30
0
41
1
10
-6.5000000000954
20
-8.87089623431589
30
0
0
SPLINE
5
25F
100
AcDbEntity
8
1
62
256
6
ByLayer
370
18
48
1
60
0
100
AcDbSpline
70
4
71
3
72
18
73
14
40
0
40
0
40
0
40
0
40
0.124999999999973
40
0.124999999999973
40
0.249999999999947
40
0.249999999999947
40
0.499999999999965
40
0.499999999999965
40
0.749999999999982
40
0.749999999999982
40
0.874999999999991
40
0.874999999999991
40
1
40
1
40
1
40
1
41
1
10
212.353294205629
20
15.7665917906862
30
0
41
1
10
212.383386815406
20
15.7688705966266
30
0
41
1
10
212.412471722502
20
15.7819033211197
30
0
41
1
10
212.467137616773
20
15.817276693531
30
0
41
1
10
212.492528552686
20
15.8397369456841
30
0
41
1
10
212.563330933246
20
15.9148290416064
30
0
41
1
10
212.603677285638
20
15.975247895209
30
0
41
1
10
212.669348867431
20
16.1047553683979
30
0
41
1
10
212.69460403993
20
16.1735749803255
30
0
41
1
10
212.71463294567
20
16.2777130668434
30
0
41
1
10
212.718253326502
20
16.3125568544054
30
0
41
1
10
212.715728255809
20
16.379853877279
30
0
41
1
10
212.709802531023
20
16.412415313967
30
0
41
1
10
212.69468385455
20
16.4396875564214
30
0
0
SPLINE
5
260
100
AcDbEntity
8
1
62
256
6
ByLayer
370
18
48
1
60
0
100
AcDbSpline
70
4
71
3
72
8
73
4
40
0
40
0
40
0
40
0
40
1
40
1
40
1
40
1
41
1
10
214.887996584875
20
14.4691611775518
30
0
41
1
10
214.891832270212
20
14.463506774247
30
0
41
1
10
214.895667639265
20
14.457853131276
30
0
41
1
10
214.899502703666
20
14.4522002200974
30
0
0
SPLINE
5
261
100
AcDbEntity
8
1
62
256
6
ByLayer
370
18
48
1
60
0
100
AcDbSpline
70
4
71
3
72
8
73
4
40
0
40
0
40
0
40
0
40
1
40
1
40
1
40
1
41
1
10
214.788671123706
20
16.5669927466331
30
0
41
1
10
214.785447958307
20
16.5609699293051
30
0
41
1
10
214.782224566419
20
16.5549463523486
30
0
41
1
10
214.779000939456
20
16.5489219861629
30
0
0
SPLINE
5
262
100
AcDbEntity
8
1
62
256
6
ByLayer
370
18
48
1
60
0
100
AcDbSpline
70
4
71
3
72
18
73
14
40
0
40
0
40
0
40
0
40
0.125000000000045
40
0.125000000000045
40
0.250000000000091
40
0.250000000000091
40
0.500000000000088
40
0.500000000000088
40
0.750000000000086
40
0.750000000000086
40
0.875000000000043
40
0.875000000000043
40
1
40
1
40
1
40
1
41
1
10
214.241725514053
20
14.0477593241105
30
0
41
1
10
214.222180142611
20
14.0740841279096
30
0
41
1
10
214.194154617537
20
14.0940117025931
30
0
41
1
10
214.132439777223
20
14.1258570679722
30
0
41
1
10
214.098761234383
20
14.1375401811588
30
0
41
1
10
213.994709034171
20
14.1635818529529
30
0
41
1
10
213.921100325295
20
14.1691607201857
30
0
41
1
10
213.776560950158
20
14.1615724212423
30
0
41
1
10
213.705889233689
20
14.1484828617251
30
0
41
1
10
213.609941163334
20
14.1118893493963
30
0
41
1
10
213.579692463783
20
14.0968054924123
30
0
41
1
10
213.526771949533
20
14.0590167404346
30
0
41
1
10
213.503888032938
20
14.0364534165013
30
0
41
1
10
213.490458718403
20
14.0083870997014
30
0
0
SPLINE
5
263
100
AcDbEntity
8
1
62
256
6
ByLayer
370
18
48
1
60
0
100
AcDbSpline
70
4
71
3
72
8
73
4
40
0
40
0
40
0
40
0
40
1
40
1
40
1
40
1
41
1
10
212.334452367484
20
15.7651649522259
30
0
41
1
10
212.340731979922
20
15.7656404936747
30
0
41
1
10
212.347012579724
20
15.766116105575
30
0
41
1
10
212.353294205629
20
15.7665917906862
30
0
0
SPLINE
5
264
100
AcDbEntity
8
1
62
256
6
ByLayer
370
18
48
1
60
0
100
AcDbSpline
70
4
71
3
72
8
73
4
40
0
40
0
40
0
40
0
40
1
40
1
40
1
40
1
41
1
10
212.393802353241
20
14.9936502891362
30
0
41
1
10
212.387505416107
20
14.993466759692
30
0
41
1
10
212.381209507106
20
14.9932832646947
30
0
41
1
10
212.374914587425
20
14.9930998028397
30
0
0
SPLINE
5
265
100
AcDbEntity
8
1
62
256
6
ByLayer
370
18
48
1
60
0
100
AcDbSpline
70
4
71
3
72
20
73
16
40
0
40
0
40
0
40
0
40
0.125000000000009
40
0.125000000000009
40
0.250000000000018
40
0.250000000000018
40
0.375000000000027
40
0.375000000000027
40
0.500000000000036
40
0.500000000000036
40
0.750000000000016
40
0.750000000000016
40
0.875000000000008
40
0.875000000000008
40
1
40
1
40
1
40
1
41
1
10
214.887996584875
20
14.4691611775518
30
0
41
1
10
214.869539847223
20
14.4963693109672
30
0
41
1
10
214.860703764333
20
14.5290528139209
30
0
41
1
10
214.853282355908
20
14.5963181612641
30
0
41
1
10
214.854865245712
20
14.6307812686538
30
0
41
1
10
214.864872306323
20
14.6998084161487
30
0
41
1
10
214.873441604393
20
14.7344670522734
30
0
41
1
10
214.895736728929
20
14.8017783788237
30
0
41
1
10
214.909538754432
20
14.8348032075789
30
0
41
1
10
214.95875825694
20
14.9320770203274
30
0
41
1
10
215.000823844107
20
14.9927272868558
30
0
41
1
10
215.076850686083
20
15.0683587739139
30
0
41
1
10
215.104416319433
20
15.0909961866918
30
0
41
1
10
215.164004410264
20
15.1265949436356
30
0
41
1
10
215.1959747606
20
15.1398030460275
30
0
41
1
10
215.229386233797
20
15.142256943287
30
0
0
SPLINE
5
266
100
AcDbEntity
8
1
62
256
6
ByLayer
370
18
48
1
60
0
100
AcDbSpline
70
4
71
3
72
8
73
4
40
0
40
0
40
0
40
0
40
1
40
1
40
1
40
1
41
1
10
213.330760871615
20
16.8776797501662
30
0
41
1
10
213.334158262207
20
16.8721503423814
30
0
41
1
10
213.337556271998
20
16.8666202379947
30
0
41
1
10
213.340954925372
20
16.8610894098626
30
0
0
SPLINE
5
267
100
AcDbEntity
8
1
62
256
6
ByLayer
370
18
48
1
60
0
100
AcDbSpline
70
4
71
3
72
8
73
4
40
0
40
0
40
0
40
0
40
1
40
1
40
1
40
1
41
1
10
214.253964367534
20
14.0312761472195
30
0
41
1
10
214.249885089836
20
14.0367698188154
30
0
41
1
10
214.245805476292
20
14.042264201863
30
0
41
1
10
214.241725514053
20
14.0477593241105
30
0
0
SPLINE
5
268
100
AcDbEntity
8
1
62
256
6
ByLayer
370
18
48
1
60
0
100
AcDbSpline
70
4
71
3
72
16
73
12
40
0
40
0
40
0
40
0
40
0.125
40
0.125
40
0.25
40
0.25
40
0.5
40
0.5
40
0.75
40
0.75
40
1
40
1
40
1
40
1
41
1
10
215.250272871665
20
15.1437909451598
30
0
41
1
10
215.269603701477
20
15.1374911036966
30
0
41
1
10
215.290379911955
20
15.1363625815658
30
0
41
1
10
215.330165866619
20
15.1464322768207
30
0
41
1
10
215.34899739937
20
15.1575961142587
30
0
41
1
10
215.396613911858
20
15.2004243886854
30
0
41
1
10
215.418085025489
20
15.2398067659731
30
0
41
1
10
215.449283837687
20
15.3222261145806
30
0
41
1
10
215.458865890144
20
15.365774781808
30
0
41
1
10
215.469859798379
20
15.4536315833427
30
0
41
1
10
215.471197091909
20
15.4981766080147
30
0
41
1
10
215.468882553313
20
15.5423406353438
30
0
0
SPLINE
5
269
100
AcDbEntity
8
1
62
256
6
ByLayer
370
18
48
1
60
0
100
AcDbSpline
70
4
71
3
72
16
73
12
40
0
40
0
40
0
40
0
40
0.249999999999968
40
0.249999999999968
40
0.499999999999935
40
0.499999999999935
40
0.749999999999903
40
0.749999999999903
40
0.874999999999951
40
0.874999999999951
40
1
40
1
40
1
40
1
41
1
10
212.892483063471
20
16.861114625203
30
0
41
1
10
212.929435001323
20
16.8852091821188
30
0
41
1
10
212.96827856788
20
16.9063325597647
30
0
41
1
10
213.048953573387
20
16.9410547299191
30
0
41
1
10
213.090749651169
20
16.9547415768508
30
0
41
1
10
213.175866590762
20
16.9697000384485
30
0
41
1
10
213.219393808063
20
16.9713679001727
30
0
41
1
10
213.277452543835
20
16.9525981559528
30
0
41
1
10
213.29493140804
20
16.942457782283
30
0
41
1
10
213.320368721666
20
16.9144694974047
30
0
41
1
10
213.328118862218
20
16.8967554699937
30
0
41
1
10
213.330760871615
20
16.8776797501662
30
0
0
SPLINE
5
26A
100
AcDbEntity
8
1
62
256
6
ByLayer
370
18
48
1
60
0
100
AcDbSpline
70
4
71
3
72
16
73
12
40
0
40
0
40
0
40
0
40
0.124999999999952
40
0.124999999999952
40
0.249999999999904
40
0.249999999999904
40
0.499999999999936
40
0.499999999999936
40
0.749999999999968
40
0.749999999999968
40
1
40
1
40
1
40
1
41
1
10
213.482054671517
20
13.9908220742442
30
0
41
1
10
213.481418727008
20
13.9715028728161
30
0
41
1
10
213.475513666982
20
13.9529767951541
30
0
41
1
10
213.452902208196
20
13.9223601795641
30
0
41
1
10
213.436290140622
20
13.9104129734415
30
0
41
1
10
213.380864259417
20
13.8860523272351
30
0
41
1
10
213.337438682479
20
13.8831187369308
30
0
41
1
10
213.251415949525
20
13.889103631607
30
0
41
1
10
213.208387385211
20
13.8983474809047
30
0
41
1
10
213.12461930186
20
13.924414608271
30
0
41
1
10
213.083687188712
20
13.9413978138826
30
0
41
1
10
213.044446268007
20
13.96148394795
30
0
0
SPLINE
5
26B
100
AcDbEntity
8
1
62
256
6
ByLayer
370
18
48
1
60
0
100
AcDbSpline
70
4
71
3
72
18
73
14
40
0
40
0
40
0
40
0
40
0.12500000000001
40
0.12500000000001
40
0.250000000000019
40
0.250000000000019
40
0.500000000000012
40
0.500000000000012
40
0.750000000000004
40
0.750000000000004
40
0.875000000000002
40
0.875000000000002
40
1
40
1
40
1
40
1
41
1
10
212.803679499969
20
14.3599267478102
30
0
41
1
10
212.815858669442
20
14.3886158834365
30
0
41
1
10
212.818362886116
20
14.4216519031886
30
0
41
1
10
212.813809249384
20
14.4890014145987
30
0
41
1
10
212.806559945026
20
14.5231991950702
30
0
41
1
10
212.77581299604
20
14.6244641326801
30
0
41
1
10
212.74340345536
20
14.6905065476979
30
0
41
1
10
212.664534512532
20
14.8124256617015
30
0
41
1
10
212.618269232864
20
14.8681112337588
30
0
41
1
10
212.53984167711
20
14.9355243487387
30
0
41
1
10
212.512171550623
20
14.9552296804852
30
0
41
1
10
212.454235574726
20
14.9846074355216
30
0
41
1
10
212.423983073949
20
14.9945299312195
30
0
41
1
10
212.393802353241
20
14.9936502891362
30
0
0
SPLINE
5
26C
100
AcDbEntity
8
1
62
256
6
ByLayer
370
18
48
1
60
0
100
AcDbSpline
70
4
71
3
72
8
73
4
40
0
40
0
40
0
40
0
40
1
40
1
40
1
40
1
41
1
10
212.796054115443
20
14.3419631507526
30
0
41
1
10
212.798595393736
20
14.3479502318917
30
0
41
1
10
212.801137181871
20
14.3539380875092
30
0
41
1
10
212.803679499969
20
14.3599267478101
30
0
0
SPLINE
5
26D
100
AcDbEntity
8
1
62
256
6
ByLayer
370
18
48
1
60
0
100
AcDbSpline
70
4
71
3
72
8
73
4
40
0
40
0
40
0
40
0
40
1
40
1
40
1
40
1
41
1
10
214.092221721022
20
16.9004616342717
30
0
41
1
10
214.095704936117
20
16.9063531258476
30
0
41
1
10
214.099187881695
20
16.9122438458245
30
0
41
1
10
214.102670567632
20
16.9181338231415
30
0
0
SPLINE
5
26E
100
AcDbEntity
8
1
62
256
6
ByLayer
370
18
48
1
60
0
100
AcDbSpline
70
4
71
3
72
8
73
4
40
0
40
0
40
0
40
0
40
1
40
1
40
1
40
1
41
1
10
212.69468385455
20
16.4396875564214
30
0
41
1
10
212.691529478078
20
16.4453776656107
30
0
41
1
10
212.688375712779
20
16.4510670299208
30
0
41
1
10
212.685222535483
20
16.4567556772884
30
0
0
SPLINE
5
26F
100
AcDbEntity
8
1
62
256
6
ByLayer
370
18
48
1
60
0
100
AcDbSpline
70
4
71
3
72
18
73
14
40
0
40
0
40
0
40
0
40
0.125000000000028
40
0.125000000000028
40
0.250000000000055
40
0.250000000000055
40
0.500000000000044
40
0.500000000000044
40
0.750000000000034
40
0.750000000000034
40
0.875000000000017
40
0.875000000000017
40
1
40
1
40
1
40
1
41
1
10
215.188878086185
20
15.9151984448369
30
0
41
1
10
215.155414151084
20
15.91414710947
30
0
41
1
10
215.122203594125
20
15.9239366791744
30
0
41
1
10
215.059090266042
20
15.9531924005658
30
0
41
1
10
215.029390834018
20
15.9727979510009
30
0
41
1
10
214.946058967271
20
16.039920307852
30
0
41
1
10
214.897883760266
20
16.0957871089485
30
0
41
1
10
214.819034981342
20
16.2178826623593
30
0
41
1
10
214.788588518887
20
16.2836769289841
30
0
41
1
10
214.762953430791
20
16.3847245555519
30
0
41
1
10
214.757757487755
20
16.41921466986
30
0
41
1
10
214.758130198256
20
16.4863609910602
30
0
41
1
10
214.763460427306
20
16.5198796258089
30
0
41
1
10
214.779000939456
20
16.5489219861629
30
0
0
SPLINE
5
270
100
AcDbEntity
8
1
62
256
6
ByLayer
370
18
48
1
60
0
100
AcDbSpline
70
4
71
3
72
16
73
12
40
0
40
0
40
0
40
0
40
0.250000000000005
40
0.250000000000005
40
0.500000000000009
40
0.500000000000009
40
0.750000000000014
40
0.750000000000014
40
0.875000000000007
40
0.875000000000007
40
1
40
1
40
1
40
1
41
1
10
214.559428321854
20
16.9484755243813
30
0
41
1
10
214.598696400131
20
16.9283754892477
30
0
41
1
10
214.636305003901
20
16.9050593741082
30
0
41
1
10
214.706416252344
20
16.851847773176
30
0
41
1
10
214.738980004685
20
16.8220326911772
30
0
41
1
10
214.793952062777
20
16.7544551284647
30
0
41
1
10
214.816815719027
20
16.7167316341337
30
0
41
1
10
214.828762211463
20
16.6550462109657
30
0
41
1
10
214.828390102809
20
16.6340411070399
30
0
41
1
10
214.816133539785
20
16.5962593323447
30
0
41
1
10
214.804264189368
20
16.5797383832463
30
0
41
1
10
214.788671123706
20
16.5669927466331
30
0
0
SPLINE
5
271
100
AcDbEntity
8
1
62
256
6
ByLayer
370
18
48
1
60
0
100
AcDbSpline
70
4
71
3
72
8
73
4
40
0
40
0
40
0
40
0
40
1
40
1
40
1
40
1
41
1
10
215.209810651724
20
15.915856094546
30
0
41
1
10
215.202833844938
20
15.9156368965021
30
0
41
1
10
215.195856332184
20
15.9154176801658
30
0
41
1
10
215.188878086185
20
15.9151984448369
30
0
0
SPLINE
5
272
100
AcDbEntity
8
1
62
256
6
ByLayer
370
18
48
1
60
0
100
AcDbSpline
70
4
71
3
72
16
73
12
40
0
40
0
40
0
40
0
40
0.250000000000028
40
0.250000000000028
40
0.500000000000056
40
0.500000000000056
40
0.750000000000083
40
0.750000000000083
40
0.875000000000042
40
0.875000000000042
40
1
40
1
40
1
40
1
41
1
10
215.468882553313
20
15.5423406353438
30
0
41
1
10
215.466566412887
20
15.5865352273932
30
0
41
1
10
215.460596534786
20
15.6305971304675
30
0
41
1
10
215.440459004514
20
15.7169219152637
30
0
41
1
10
215.426392806204
20
15.7592028203039
30
0
41
1
10
215.38664412474
20
15.8380758781929
30
0
41
1
10
215.361194796913
20
15.8750505601457
30
0
41
1
10
215.30882593644
20
15.9128050631418
30
0
41
1
10
215.289114407438
20
15.9217012260909
30
0
41
1
10
215.248733729648
20
15.9274030018911
30
0
41
1
10
215.228308055582
20
15.924111245408
30
0
41
1
10
215.209810651724
20
15.915856094546
30
0
0
SPLINE
5
273
100
AcDbEntity
8
1
62
256
6
ByLayer
370
18
48
1
60
0
100
AcDbSpline
70
4
71
3
72
16
73
12
40
0
40
0
40
0
40
0
40
0.249999999999964
40
0.249999999999964
40
0.499999999999928
40
0.499999999999928
40
0.749999999999891
40
0.749999999999891
40
0.874999999999946
40
0.874999999999946
40
1
40
1
40
1
40
1
41
1
10
214.711391526389
20
14.0488448471282
30
0
41
1
10
214.674439588538
20
14.0247502902124
30
0
41
1
10
214.635403044618
20
14.0036167990515
30
0
41
1
10
214.553847917886
20
13.9688485036982
30
0
41
1
10
214.511377322637
20
13.9551263068039
30
0
41
1
10
214.423977237058
20
13.9400481905953
30
0
41
1
10
214.378887127736
20
13.938298421171
30
0
41
1
10
214.316781762244
20
13.9568560905138
30
0
41
1
10
214.297657553873
20
13.9669102353496
30
0
41
1
10
214.268481052846
20
13.9947025577199
30
0
41
1
10
214.258654169569
20
14.0123077476566
30
0
41
1
10
214.253964367534
20
14.0312761472195
30
0
0
SPLINE
5
274
100
AcDbEntity
8
1
62
256
6
ByLayer
370
18
48
1
60
0
100
AcDbSpline
70
4
71
3
72
16
73
12
40
0
40
0
40
0
40
0
40
0.125000000000002
40
0.125000000000002
40
0.250000000000004
40
0.250000000000004
40
0.500000000000002
40
0.500000000000002
40
0.750000000000001
40
0.750000000000001
40
1
40
1
40
1
40
1
41
1
10
212.685222535483
20
16.4567556772883
30
0
41
1
10
212.670375209176
20
16.4679505075516
30
0
41
1
10
212.658868202608
20
16.4833467002867
30
0
41
1
10
212.646495886057
20
16.5201144956248
30
0
41
1
10
212.645697614138
20
16.541326183144
30
0
41
1
10
212.655290280817
20
16.6036176111097
30
0
41
1
10
212.675595735046
20
16.6435966510296
30
0
41
1
10
212.725390370863
20
16.7164974103788
30
0
41
1
10
212.755350580086
20
16.7496151707491
30
0
41
1
10
212.820320362058
20
16.8098435013716
30
0
41
1
10
212.855556681363
20
16.8370367319413
30
0
41
1
10
212.892483063471
20
16.861114625203
30
0
0
SPLINE
5
275
100
AcDbEntity
8
1
62
256
6
ByLayer
370
18
48
1
60
0
100
AcDbSpline
70
4
71
3
72
16
73
12
40
0
40
0
40
0
40
0
40
0.249999999999974
40
0.249999999999974
40
0.499999999999949
40
0.499999999999949
40
0.749999999999923
40
0.749999999999923
40
0.874999999999961
40
0.874999999999961
40
1
40
1
40
1
40
1
41
1
10
212.134992036548
20
15.3676188369874
30
0
41
1
10
212.132675896122
20
15.4118134290367
30
0
41
1
10
212.133814370227
20
15.4562478650645
30
0
41
1
10
212.14393806668
20
15.5441585735518
30
0
41
1
10
212.152833133387
20
15.587642827501
30
0
41
1
10
212.181836441895
20
15.6701190245057
30
0
41
1
10
212.201718556935
20
15.7094694267109
30
0
41
1
10
212.245807485412
20
15.7522790682204
30
0
41
1
10
212.262835786187
20
15.7631006840594
30
0
41
1
10
212.298660069136
20
15.7727961926223
30
0
41
1
10
212.317241188744
20
15.7715486955726
30
0
41
1
10
212.334452367484
20
15.7651649522259
30
0
0
SPLINE
5
276
100
AcDbEntity
8
1
62
256
6
ByLayer
370
18
48
1
60
0
100
AcDbSpline
70
4
71
3
72
8
73
4
40
0
40
0
40
0
40
0
40
1
40
1
40
1
40
1
41
1
10
213.490458718403
20
14.0083870997014
30
0
41
1
10
213.487656812173
20
14.0025313140101
30
0
41
1
10
213.484855470349
20
13.9966763153723
30
0
41
1
10
213.482054671517
20
13.9908220742442
30
0
0
SPLINE
5
277
100
AcDbEntity
8
1
62
256
6
ByLayer
370
18
48
1
60
0
100
AcDbSpline
70
4
71
3
72
16
73
12
40
0
40
0
40
0
40
0
40
0.125000000000042
40
0.125000000000042
40
0.250000000000085
40
0.250000000000085
40
0.500000000000057
40
0.500000000000057
40
0.750000000000028
40
0.750000000000028
40
1
40
1
40
1
40
1
41
1
10
212.374914587425
20
14.9930998028397
30
0
41
1
10
212.358403599963
20
14.9849215713277
30
0
41
1
10
212.339947411053
20
14.981736966269
30
0
41
1
10
212.303084703225
20
14.9877896753377
30
0
41
1
10
212.284846040091
20
14.9970107461318
30
0
41
1
10
212.23701308442
20
15.0348367258985
30
0
41
1
10
212.21310964528
20
15.0718411236395
30
0
41
1
10
212.175743223957
20
15.1506671206222
30
0
41
1
10
212.162337108486
20
15.1930110290187
30
0
41
1
10
212.14309916793
20
15.2792834464946
30
0
41
1
10
212.137306575144
20
15.3234548096583
30
0
41
1
10
212.134992036548
20
15.3676188369874
30
0
0
SPLINE
5
278
100
AcDbEntity
8
1
62
256
6
ByLayer
370
18
48
1
60
0
100
AcDbSpline
70
4
71
3
72
8
73
4
40
0
40
0
40
0
40
0
40
1
40
1
40
1
40
1
41
1
10
215.229386233797
20
15.142256943287
30
0
41
1
10
215.236349168566
20
15.1427683342827
30
0
41
1
10
215.243311372122
20
15.1432796675221
30
0
41
1
10
215.250272871665
20
15.1437909451598
30
0
0
SPLINE
5
279
100
AcDbEntity
8
1
62
256
6
ByLayer
370
18
48
1
60
0
100
AcDbSpline
70
4
71
3
72
16
73
12
40
0
40
0
40
0
40
0
40
0.125000000000008
40
0.125000000000008
40
0.250000000000017
40
0.250000000000017
40
0.500000000000011
40
0.500000000000011
40
0.750000000000006
40
0.750000000000006
40
1
40
1
40
1
40
1
41
1
10
214.899502703666
20
14.4522002200974
30
0
41
1
10
214.916405463267
20
14.4411131105285
30
0
41
1
10
214.930000714465
20
14.4258263580571
30
0
41
1
10
214.946130895999
20
14.3892555040776
30
0
41
1
10
214.948585815199
20
14.3681306377635
30
0
41
1
10
214.942992630811
20
14.3060488137829
30
0
41
1
10
214.924253809444
20
14.2661518776122
30
0
41
1
10
214.876735821998
20
14.1933704323483
30
0
41
1
10
214.847451133537
20
14.160288074521
30
0
41
1
10
214.783360629917
20
14.1001058249243
30
0
41
1
10
214.748317908498
20
14.07292274039
30
0
41
1
10
214.711391526389
20
14.0488448471282
30
0
0
SPLINE
5
27A
100
AcDbEntity
8
1
62
256
6
ByLayer
370
18
48
1
60
0
100
AcDbSpline
70
4
71
3
72
16
73
12
40
0
40
0
40
0
40
0
40
0.25
40
0.25
40
0.5
40
0.5
40
0.75
40
0.75
40
0.875
40
0.875
40
1
40
1
40
1
40
1
41
1
10
213.044446268007
20
13.96148394795
30
0
41
1
10
213.00517818973
20
13.9815839830835
30
0
41
1
10
212.967376608596
20
14.0048899847079
30
0
41
1
10
212.896385238929
20
14.0580554604413
30
0
41
1
10
212.863146969121
20
14.0878351924775
30
0
41
1
10
212.805891765043
20
14.1552931005791
30
0
41
1
10
212.781465216772
20
14.1929346872101
30
0
41
1
10
212.765472094616
20
14.2544080355009
30
0
41
1
10
212.764198859103
20
14.2753269105927
30
0
41
1
10
212.772716234726
20
14.3129127227799
30
0
41
1
10
212.78250884242
20
14.3293248344041
30
0
41
1
10
212.796054115443
20
14.3419631507526
30
0
0
SPLINE
5
27B
100
AcDbEntity
8
1
62
256
6
ByLayer
370
18
48
1
60
0
100
AcDbSpline
70
4
71
3
72
18
73
14
40
0
40
0
40
0
40
0
40
0.125
40
0.125
40
0.25
40
0.25
40
0.5
40
0.5
40
0.75
40
0.75
40
0.875
40
0.875
40
1
40
1
40
1
40
1
41
1
10
213.340954925372
20
16.8610894098626
30
0
41
1
10
213.35723643454
20
16.8345935542899
30
0
41
1
10
213.382372290311
20
16.8145145384553
30
0
41
1
10
213.439096512
20
16.7824076258368
30
0
41
1
10
213.470698449704
20
16.7706156823866
30
0
41
1
10
213.569744908582
20
16.7443116708055
30
0
41
1
10
213.64164798585
20
16.7386434152079
30
0
41
1
10
213.786189659956
20
16.7462318346352
30
0
41
1
10
213.858558847821
20
16.7594103548586
30
0
41
1
10
213.959523700454
20
16.7962667856057
30
0
41
1
10
213.99185601554
20
16.8114598402527
30
0
41
1
10
214.049757311698
20
16.8495096239494
30
0
41
1
10
214.075526947086
20
16.8722241819962
30
0
41
1
10
214.092221721022
20
16.9004616342717
30
0
0
SPLINE
5
27C
100
AcDbEntity
8
1
62
256
6
ByLayer
370
18
48
1
60
0
100
AcDbSpline
70
4
71
3
72
16
73
12
40
0
40
0
40
0
40
0
40
0.125000000000055
40
0.125000000000055
40
0.250000000000111
40
0.250000000000111
40
0.500000000000074
40
0.500000000000074
40
0.750000000000037
40
0.750000000000037
40
1
40
1
40
1
40
1
41
1
10
214.102670567632
20
16.9181338231415
30
0
41
1
10
214.105361945435
20
16.9375607452641
30
0
41
1
10
214.113355250091
20
16.9561962631896
30
0
41
1
10
214.13972457386
20
16.9870098201382
30
0
41
1
10
214.157993288717
20
16.9990438474659
30
0
41
1
10
214.217418652211
20
17.0236140976575
30
0
41
1
10
214.262410862011
20
17.0266297917111
30
0
41
1
10
214.350710243336
20
17.0207642111201
30
0
41
1
10
214.394414328412
20
17.0115557643655
30
0
41
1
10
214.479061690115
20
16.985534718025
30
0
41
1
10
214.520187401149
20
16.9685616584486
30
0
41
1
10
214.559428321854
20
16.9484755243813
30
0
0
SPLINE
5
27D
100
AcDbEntity
8
1
62
256
6
ByLayer
370
18
48
1
60
0
100
AcDbSpline
70
4
71
1
72
4
73
2
40
0
40
0
40
1
40
1
41
1
10
223.513165867288
20
-7.43307526203674
30
0
41
1
10
223.078963327374
20
-7.07000270386538
30
0
0
SPLINE
5
27E
100
AcDbEntity
8
1
62
256
6
ByLayer
370
18
48
1
60
0
100
AcDbSpline
70
4
71
3
72
10
73
6
40
0
40
0
40
0
40
0
40
0.53820646774887
40
0.53820646774887
40
1
40
1
40
1
40
1
41
1
10
222.322775983848
20
-14.836224456921
30
0
41
1
10
222.259255712239
20
-14.8543365697433
30
0
41
1
10
222.195735905434
20
-14.872451741079
30
0
41
1
10
222.07771397827
20
-14.9061057736398
30
0
41
1
10
222.023211916416
20
-14.9216450212379
30
0
41
1
10
221.96871035099
20
-14.93718753152
30
0
0
SPLINE
5
27F
100
AcDbEntity
8
1
62
256
6
ByLayer
370
18
48
1
60
0
100
AcDbSpline
70
4
71
1
72
4
73
2
40
0
40
0
40
1
40
1
41
1
10
223.494066489762
20
-7.1037351687684
30
0
41
1
10
223.455251136127
20
-6.86002843760704
30
0
0
SPLINE
5
280
100
AcDbEntity
8
1
62
256
6
ByLayer
370
18
48
1
60
0
100
AcDbSpline
70
4
71
3
72
10
73
6
40
0
40
0
40
0
40
0
40
0.772178373481874
40
0.772178373481874
40
1
40
1
40
1
40
1
41
1
10
222.27538699614
20
0.225832346344589
30
0
41
1
10
222.301360250839
20
0.135755970231145
30
0
41
1
10
222.327335403734
20
0.0456784409642523
30
0
41
1
10
222.360971405322
20
-0.0709736436192543
30
0
41
1
10
222.368634449461
20
-0.0975495329098806
30
0
41
1
10
222.376297980848
20
-0.124125717887267
30
0
0
SPLINE
5
281
100
AcDbEntity
8
1
62
256
6
ByLayer
370
18
48
1
60
0
100
AcDbSpline
70
4
71
3
72
12
73
8
40
0
40
0
40
0
40
0
40
0.441018842611383
40
0.441018842611383
40
0.720346479689289
40
0.720346479689289
40
1
40
1
40
1
40
1
41
1
10
221.96871035068
20
-14.9371875316083
30
0
41
1
10
221.954901627278
20
-14.9411254409771
30
0
41
1
10
221.940981171339
20
-14.9446946777243
30
0
41
1
10
221.91810897451
20
-14.9499103090814
30
0
41
1
10
221.909202680057
20
-14.9517828267551
30
0
41
1
10
221.891323227961
20
-14.9552262447187
30
0
41
1
10
221.882347397638
20
-14.9567972927251
30
0
41
1
10
221.873348527668
20
-14.9582153348554
30
0
0
SPLINE
5
282
100
AcDbEntity
8
1
62
256
6
ByLayer
370
18
48
1
60
0
100
AcDbSpline
70
4
71
1
72
4
73
2
40
0
40
0
40
1
40
1
41
1
10
221.984704534161
20
0.474974923531505
30
0
41
1
10
221.581111633002
20
0.527813257179957
30
0
0
SPLINE
5
283
100
AcDbEntity
8
1
62
256
6
ByLayer
370
18
48
1
60
0
100
AcDbSpline
70
4
71
3
72
8
73
4
40
0
40
0
40
0
40
0
40
1
40
1
40
1
40
1
41
1
10
223.511122535693
20
-7.21042880092233
30
0
41
1
10
223.515995704875
20
-7.24642826838323
30
0
41
1
10
223.51946541116
20
-7.2825290947286
30
0
41
1
10
223.519943169458
20
-7.31882196306631
30
0
0
SPLINE
5
284
100
AcDbEntity
8
1
62
256
6
ByLayer
370
18
48
1
60
0
100
AcDbSpline
70
4
71
3
72
12
73
8
40
0
40
0
40
0
40
0
40
0.115854136431004
40
0.268293178705298
40
0.420732220979592
40
0.496951742116739
40
1
40
1
40
1
40
1
41
1
10
222.616209130587
20
-6.67073783740233
30
0
41
1
10
222.620577924971
20
-6.69822069355916
30
0
41
1
10
222.631291057133
20
-6.76138610791122
30
0
41
1
10
222.652038650366
20
-6.85739190313444
30
0
41
1
10
222.654870955082
20
-6.92601255334318
30
0
41
1
10
222.633289482417
20
-7.09767461302749
30
0
41
1
10
222.615936553218
20
-7.23412830990756
30
0
41
1
10
222.600693409568
20
-7.35295591515091
30
0
0
SPLINE
5
285
100
AcDbEntity
8
1
62
256
6
ByLayer
370
18
48
1
60
0
100
AcDbSpline
70
4
71
2
72
12
73
9
40
0
40
0
40
0
40
0.25
40
0.5
40
0.5
40
0.75
40
0.75
40
0.875
40
1
40
1
40
1
41
1
10
221.931419951337
20
-14.1346996429847
30
0
41
1
10
221.979904071486
20
-14.1208744103311
30
0
41
1
10
222.065634050109
20
-14.0667652241076
30
0
41
1
10
222.099899576969
20
-14.0275497314695
30
0
41
1
10
222.132669916069
20
-13.9900454200084
30
0
41
1
10
222.154236610227
20
-13.9426993636022
30
0
41
1
10
222.164252554425
20
-13.9207110395932
30
0
41
1
10
222.178535536245
20
-13.8713707984483
30
0
41
1
10
222.181952578279
20
-13.8455602216362
30
0
0
SPLINE
5
286
100
AcDbEntity
8
1
62
256
6
ByLayer
370
18
48
1
60
0
100
AcDbSpline
70
4
71
1
72
4
73
2
40
0
40
0
40
1
40
1
41
1
10
223.383960107631
20
-6.41241938889877
30
0
41
1
10
222.397532521834
20
-0.219018583575092
30
0
0
SPLINE
5
287
100
AcDbEntity
8
1
62
256
6
ByLayer
370
18
48
1
60
0
100
AcDbSpline
70
4
71
1
72
4
73
2
40
0
40
0
40
1
40
1
41
1
10
223.07595811075
20
-6.84171167943535
30
0
41
1
10
223.510160650652
20
-7.20478423760471
30
0
0
SPLINE
5
288
100
AcDbEntity
8
1
62
256
6
ByLayer
370
18
48
1
60
0
100
AcDbSpline
70
4
71
2
72
12
73
9
40
0
40
0
40
0
40
0.25
40
0.5
40
0.5
40
0.75
40
0.75
40
0.875
40
1
40
1
40
1
41
1
10
221.940025499436
20
0.207434569021444
30
0
41
1
10
221.926122901702
20
0.255648885068552
30
0
41
1
10
221.871710924077
20
0.340901794087898
30
0
41
1
10
221.832275984154
20
0.374976640377838
30
0
41
1
10
221.794561801062
20
0.407564619320112
30
0
41
1
10
221.746950799277
20
0.429011299283815
30
0
41
1
10
221.72483943007
20
0.438971506823663
30
0
41
1
10
221.675223084224
20
0.453175006803832
30
0
41
1
10
221.649268073139
20
0.456573033705752
30
0
0
SPLINE
5
289
100
AcDbEntity
8
1
62
256
6
ByLayer
370
18
48
1
60
0
100
AcDbSpline
70
4
71
1
72
4
73
2
40
0
40
0
40
1
40
1
41
1
10
223.510160650652
20
-7.20478423760463
30
0
41
1
10
223.494066489762
20
-7.1037351687684
30
0
0
SPLINE
5
28A
100
AcDbEntity
8
1
62
256
6
ByLayer
370
18
48
1
60
0
100
AcDbSpline
70
4
71
3
72
12
73
8
40
0
40
0
40
0
40
0
40
0.499999999999938
40
0.499999999999938
40
0.749999999999969
40
0.749999999999969
40
1
40
1
40
1
40
1
41
1
10
222.571250855168
20
-14.5477707460181
30
0
41
1
10
222.562356361325
20
-14.6145123958476
30
0
41
1
10
222.533331276555
20
-14.6783917189493
30
0
41
1
10
222.467166936343
20
-14.7549707821879
30
0
41
1
10
222.441302936077
20
-14.7772918956028
30
0
41
1
10
222.384283768546
20
-14.8134822231265
30
0
41
1
10
222.353031534726
20
-14.8268211909461
30
0
41
1
10
222.320714090607
20
-14.8369153159938
30
0
0
SPLINE
5
28B
100
AcDbEntity
8
1
62
256
6
ByLayer
370
18
48
1
60
0
100
AcDbSpline
70
4
71
2
72
7
73
4
40
0
40
0
40
0
40
0.5
40
1
40
1
40
1
41
1
10
223.078963327374
20
-7.07000270386541
30
0
41
1
10
223.086455467072
20
-7.01341093666431
30
0
41
1
10
223.085029418031
20
-6.89866694169928
30
0
41
1
10
223.07595811075
20
-6.84171167943535
30
0
0
SPLINE
5
28C
100
AcDbEntity
8
1
62
256
6
ByLayer
370
18
48
1
60
0
100
AcDbSpline
70
4
71
3
72
8
73
4
40
0
40
0
40
0
40
0
40
1
40
1
40
1
40
1
41
1
10
223.519943169458
20
-7.31882196306631
30
0
41
1
10
223.520415193705
20
-7.35467924459755
30
0
41
1
10
223.517984280196
20
-7.39042509103302
30
0
41
1
10
223.514156289442
20
-7.42610697432877
30
0
0
SPLINE
5
28D
100
AcDbEntity
8
1
62
256
6
ByLayer
370
18
48
1
60
0
100
AcDbSpline
70
4
71
1
72
4
73
2
40
0
40
0
40
1
40
1
41
1
10
222.571245754536
20
-14.5478549985406
30
0
41
1
10
223.406152638255
20
-8.24139811569387
30
0
0
SPLINE
5
28E
100
AcDbEntity
8
1
62
256
6
ByLayer
370
18
48
1
60
0
100
AcDbSpline
70
4
71
1
72
4
73
2
40
0
40
0
40
1
40
1
41
1
10
223.455251136127
20
-6.86002843760704
30
0
41
1
10
223.383960107631
20
-6.41241938889877
30
0
0
SPLINE
5
28F
100
AcDbEntity
8
1
62
256
6
ByLayer
370
18
48
1
60
0
100
AcDbSpline
70
4
71
1
72
4
73
2
40
0
40
0
40
1
40
1
41
1
10
221.649268073139
20
0.45657303370578
30
0
41
1
10
221.984704534161
20
0.474974923531533
30
0
0
SPLINE
5
290
100
AcDbEntity
8
1
62
256
6
ByLayer
370
18
48
1
60
0
100
AcDbSpline
70
4
71
1
72
4
73
2
40
0
40
0
40
1
40
1
41
1
10
222.275461960473
20
0.225836458853394
30
0
41
1
10
221.940025499436
20
0.207434569021416
30
0
0
SPLINE
5
291
100
AcDbEntity
8
1
62
256
6
ByLayer
370
18
48
1
60
0
100
AcDbSpline
70
4
71
3
72
12
73
8
40
0
40
0
40
0
40
0
40
0.441018843027398
40
0.441018843027398
40
0.720346479899167
40
0.720346479899167
40
1
40
1
40
1
40
1
41
1
10
222.376297980535
20
-0.124125716801785
30
0
41
1
10
222.380257763915
20
-0.137857758884166
30
0
41
1
10
222.383846795266
20
-0.151700928010598
30
0
41
1
10
222.389091214694
20
-0.174446241844748
30
0
41
1
10
222.390974029879
20
-0.183303154571803
30
0
41
1
10
222.394436272607
20
-0.201083553104752
30
0
41
1
10
222.396015848494
20
-0.21000969692048
30
0
41
1
10
222.397441505486
20
-0.218958808658357
30
0
0
SPLINE
5
292
100
AcDbEntity
8
1
62
256
6
ByLayer
370
18
48
1
60
0
100
AcDbSpline
70
4
71
1
72
4
73
2
40
0
40
0
40
1
40
1
41
1
10
222.181952578279
20
-13.8455602216359
30
0
41
1
10
222.571245754536
20
-14.5478549985406
30
0
0
SPLINE
5
293
100
AcDbEntity
8
1
62
256
6
ByLayer
370
18
48
1
60
0
100
AcDbSpline
70
4
71
1
72
4
73
2
40
0
40
0
40
1
40
1
41
1
10
223.466471987546
20
-7.78577679681635
30
0
41
1
10
223.499329005038
20
-7.5375917978042
30
0
0
SPLINE
5
294
100
AcDbEntity
8
1
62
256
6
ByLayer
370
18
48
1
60
0
100
AcDbSpline
70
4
71
3
72
12
73
8
40
0
40
0
40
0
40
0
40
0.5
40
0.5
40
0.75
40
0.75
40
1
40
1
40
1
40
1
41
1
10
221.984705210944
20
0.475064921308331
30
0
41
1
10
222.051820335429
20
0.466219916351434
30
0
41
1
10
222.116055297994
20
0.437354535356349
30
0
41
1
10
222.193063730676
20
0.371559219454611
30
0
41
1
10
222.215509450651
20
0.345838847771233
30
0
41
1
10
222.251901573908
20
0.289136261207972
30
0
41
1
10
222.265314905154
20
0.258057660616998
30
0
41
1
10
222.275465232716
20
0.225919774432668
30
0
0
SPLINE
5
295
100
AcDbEntity
8
1
62
256
6
ByLayer
370
18
48
1
60
0
100
AcDbSpline
70
4
71
1
72
4
73
2
40
0
40
0
40
1
40
1
41
1
10
221.956047913193
20
0.151868714682479
30
0
41
1
10
222.376297980848
20
-0.12412571788704
30
0
0
SPLINE
5
296
100
AcDbEntity
8
1
62
256
6
ByLayer
370
18
48
1
60
0
100
AcDbSpline
70
4
71
1
72
4
73
2
40
0
40
0
40
1
40
1
41
1
10
223.499329005038
20
-7.5375917978042
30
0
41
1
10
223.513165867288
20
-7.43307526203679
30
0
0
SPLINE
5
297
100
AcDbEntity
8
1
62
256
6
ByLayer
370
18
48
1
60
0
100
AcDbSpline
70
4
71
1
72
4
73
2
40
0
40
0
40
1
40
1
41
1
10
222.397532521834
20
-0.219018583575064
30
0
41
1
10
221.977189228936
20
0.0570370736114967
30
0
0
SPLINE
5
298
100
AcDbEntity
8
1
62
256
6
ByLayer
370
18
48
1
60
0
100
AcDbSpline
70
4
71
1
72
4
73
2
40
0
40
0
40
1
40
1
41
1
10
221.873368705908
20
-14.9583856838244
30
0
41
1
10
221.780180841347
20
-14.1716565640492
30
0
0
SPLINE
5
299
100
AcDbEntity
8
1
62
256
6
ByLayer
370
18
48
1
60
0
100
AcDbSpline
70
4
71
2
72
6
73
3
40
0
40
0
40
0
40
1
40
1
40
1
41
1
10
221.780180841347
20
-14.1716565640491
30
0
41
1
10
221.828508526853
20
-14.1640448055192
30
0
41
1
10
221.875543153986
20
-14.1506328953765
30
0
0
SPLINE
5
29A
100
AcDbEntity
8
1
62
256
6
ByLayer
370
18
48
1
60
0
100
AcDbSpline
70
4
71
1
72
4
73
2
40
0
40
0
40
1
40
1
41
1
10
223.406152638255
20
-8.24139811569387
30
0
41
1
10
223.466471987546
20
-7.78577679681635
30
0
0
SPLINE
5
29B
100
AcDbEntity
8
1
62
256
6
ByLayer
370
18
48
1
60
0
100
AcDbSpline
70
4
71
1
72
4
73
2
40
0
40
0
40
1
40
1
41
1
10
222.320713127596
20
-14.8369944198875
30
0
41
1
10
221.931419951337
20
-14.1346996429846
30
0
0
SPLINE
5
29C
100
AcDbEntity
8
1
62
256
6
ByLayer
370
18
48
1
60
0
100
AcDbSpline
70
4
71
2
72
6
73
3
40
0
40
0
40
0
40
1
40
1
40
1
41
1
10
221.977189228936
20
0.0570370736114114
30
0
41
1
10
221.969534875532
20
0.105095825362156
30
0
41
1
10
221.956047913193
20
0.151868714682564
30
0
0
SPLINE
5
29D
100
AcDbEntity
8
1
62
256
6
ByLayer
370
18
48
1
60
0
100
AcDbSpline
70
4
71
3
72
30
73
26
40
0
40
0
40
0
40
0
40
0.0051026566789586
40
0.0127873979373177
40
0.0281568804540359
40
0.0588958454874724
40
0.120373775554345
40
0.243329635688091
40
0.366285495821837
40
0.485398985326403
40
0.489241355955583
40
0.496926097213942
40
0.504610838472301
40
0.519980320989019
40
0.550719286022456
40
0.612197216089329
40
0.735153076223074
40
0.85810893635682
40
0.919586866423693
40
0.95032583145713
40
0.965695313973848
40
0.981064796490566
40
0.988749537748925
40
0.996434279007284
40
1
40
1
40
1
40
1
41
1
10
221.764149200304
20
-13.9754832127436
30
0
41
1
10
221.792489815347
20
-13.9642218561677
30
0
41
1
10
221.863338704459
20
-13.9294139948006
30
0
41
1
10
222.000386952642
20
-13.7934903937616
30
0
41
1
10
222.043309450746
20
-13.4914942026409
30
0
41
1
10
222.108462061983
20
-12.9870528211129
30
0
41
1
10
222.244904343625
20
-11.9646376178952
30
0
41
1
10
222.434859173738
20
-10.5108291335007
30
0
41
1
10
222.671947525564
20
-8.78357418927649
30
0
41
1
10
222.82549503216
20
-7.61810945771995
30
0
41
1
10
222.904581729123
20
-6.98904278070023
30
0
41
1
10
222.900028996104
20
-6.87873985383362
30
0
41
1
10
222.867441572935
20
-6.72794735272549
30
0
41
1
10
222.832706497601
20
-6.47719488789988
30
0
41
1
10
222.748342488674
20
-5.96851323701776
30
0
41
1
10
222.588980504803
20
-4.95396806496888
30
0
41
1
10
222.357404971435
20
-3.50359735070785
30
0
41
1
10
222.124428430222
20
-2.05436715319948
30
0
41
1
10
221.967119657064
20
-1.03777876914407
30
0
41
1
10
221.879596941718
20
-0.533583571972088
30
0
41
1
10
221.844668124445
20
-0.243239477932974
30
0
41
1
10
221.817125794992
20
-0.0462832833039784
30
0
41
1
10
221.746125568127
20
0.127234262682748
30
0
41
1
10
221.654206948976
20
0.218884843712146
30
0
41
1
10
221.595249831362
20
0.251122047683964
30
0
41
1
10
221.576288436064
20
0.259613069380322
30
0
0
SPLINE
5
29E
100
AcDbEntity
8
1
62
256
6
ByLayer
370
18
48
1
60
0
100
AcDbSpline
70
4
71
3
72
27
73
23
40
0
40
0
40
0
40
0
40
0.003086233747683
40
0.0188322811963407
40
0.0503243760936562
40
0.113308565888287
40
0.239276945477549
40
0.365245325066811
40
0.487277192793908
40
0.491213704656072
40
0.499086728380401
40
0.50695975210473
40
0.522705799553388
40
0.554197894450703
40
0.617182084245334
40
0.743150463834596
40
0.869118843423858
40
0.932103033218489
40
0.963595128115804
40
0.979341175564462
40
0.995087223013119
40
1
40
1
40
1
40
1
41
1
10
221.810599068707
20
-13.7636084028856
30
0
41
1
10
221.819247085542
20
-13.7541076343088
30
0
41
1
10
221.866841790132
20
-13.6918334002723
30
0
41
1
10
221.899717997629
20
-13.4605213872081
30
0
41
1
10
221.964792430026
20
-12.9566853020922
30
0
41
1
10
222.101248714977
20
-11.9341651666255
30
0
41
1
10
222.291238301766
20
-10.4800906739825
30
0
41
1
10
222.528337074317
20
-8.75275981185925
30
0
41
1
10
222.681778378105
20
-7.58810118670055
30
0
41
1
10
222.759322229879
20
-6.97130651665387
30
0
41
1
10
222.755770288894
20
-6.88525062781733
30
0
41
1
10
222.724647893576
20
-6.74123728235082
30
0
41
1
10
222.689435670463
20
-6.48704028831986
30
0
41
1
10
222.605284583366
20
-5.97964247197029
30
0
41
1
10
222.445855621711
20
-4.96467089968448
30
0
41
1
10
222.21432066564
20
-3.51455432334009
30
0
41
1
10
221.981289455875
20
-2.06498406019128
30
0
41
1
10
221.824117483057
20
-1.04927973132416
30
0
41
1
10
221.736180357974
20
-0.542697229344299
30
0
41
1
10
221.700969511587
20
-0.250008782020501
30
0
41
1
10
221.677977537186
20
-0.0855923410323385
30
0
41
1
10
221.64582607816
20
0.0006800520345962
30
0
41
1
10
221.636524140248
20
0.0199558715031287
30
0
0
SPLINE
5
29F
100
AcDbEntity
8
1
62
256
6
ByLayer
370
18
48
1
60
0
100
AcDbSpline
70
4
71
1
72
4
73
2
40
0
40
0
40
1
40
1
41
1
10
221.875543153986
20
-14.1506328953765
30
0
41
1
10
221.96871035099
20
-14.9371875315199
30
0
0
SPLINE
5
2A0
100
AcDbEntity
8
1
62
256
6
ByLayer
370
13
48
1
60
0
100
AcDbSpline
70
4
71
3
72
22
73
18
40
0
40
0
40
0
40
0
40
0.125
40
0.125
40
0.25
40
0.25
40
0.375
40
0.375
40
0.5
40
0.5
40
0.625
40
0.625
40
0.75
40
0.75
40
0.875
40
0.875
40
1
40
1
40
1
40
1
41
1
10
222.352381499116
20
23.1594650228439
30
0
41
1
10
222.343722805412
20
23.2160944298047
30
0
41
1
10
222.329613252836
20
23.2708106665813
30
0
41
1
10
222.289352918802
20
23.3760168483477
30
0
41
1
10
222.263113707507
20
23.4272237602636
30
0
41
1
10
222.200615312498
20
23.5220712493997
30
0
41
1
10
222.164870287778
20
23.5657267078403
30
0
41
1
10
222.083875515223
20
23.6450710115583
30
0
41
1
10
222.038643391063
20
23.6806866527542
30
0
41
1
10
221.943327506442
20
23.740783940473
30
0
41
1
10
221.892605223136
20
23.7657467568849
30
0
41
1
10
221.785296634571
20
23.8048486631039
30
0
41
1
10
221.730574939982
20
23.8185696451897
30
0
41
1
10
221.619023469466
20
23.8344976037326
30
0
41
1
10
221.561855403939
20
23.8349346625779
30
0
41
1
10
221.447897041924
20
23.8368533774874
30
0
41
1
10
221.390918627441
20
23.8372156995814
30
0
41
1
10
221.333940881606
20
23.8370572214485
30
0
0
SPLINE
5
2A1
100
AcDbEntity
8
1
62
256
6
ByLayer
370
13
48
1
60
0
100
AcDbSpline
70
4
71
3
72
12
73
8
40
0
40
0
40
0
40
0
40
0.0646841035674788
40
0.0646841035674788
40
0.590998015763486
40
0.590998015763486
40
1
40
1
40
1
40
1
41
1
10
222.344375736983
20
8.15284153968145
30
0
41
1
10
222.338904515954
20
8.14701082873057
30
0
41
1
10
222.333339795176
20
8.1412579021667
30
0
41
1
10
222.281654647336
20
8.08942727615485
30
0
41
1
10
222.231011046268
20
8.04957893045173
30
0
41
1
10
222.132791632648
20
7.99000192453084
30
0
41
1
10
222.086914450309
20
7.9678732819803
30
0
41
1
10
222.039768512554
20
7.95021972704626
30
0
0
SPLINE
5
2A2
100
AcDbEntity
8
1
62
256
6
ByLayer
370
13
48
1
60
0
100
AcDbSpline
70
4
71
2
72
6
73
3
40
0
40
0
40
0
40
1
40
1
40
1
41
1
10
204.187749863994
20
14.8824352437484
30
0
41
0.997409491337352
10
204.186984981349
20
14.9401253774364
30
0
41
1
10
204.194470876453
20
14.9973250145861
30
0
0
SPLINE
5
2A3
100
AcDbEntity
8
1
62
256
6
ByLayer
370
13
48
1
60
0
100
AcDbSpline
70
4
71
1
72
4
73
2
40
0
40
0
40
1
40
1
41
1
10
205.131235920453
20
22.9954908023844
30
0
41
1
10
205.332216260919
20
22.7638656252753
30
0
0
SPLINE
5
2A4
100
AcDbEntity
8
1
62
256
6
ByLayer
370
13
48
1
60
0
100
AcDbSpline
70
4
71
1
72
4
73
2
40
0
40
0
40
1
40
1
41
1
10
221.518652942699
20
8.01220043049477
30
0
41
1
10
221.582023229892
20
8.10995160299916
30
0
0
SPLINE
5
2A5
100
AcDbEntity
8
1
62
256
6
ByLayer
370
13
48
1
60
0
100
AcDbSpline
70
4
71
2
72
6
73
3
40
0
40
0
40
0
40
1
40
1
40
1
41
0.998835603708712
10
203.965564656397
20
14.9394772899796
30
0
41
0.998293048640334
10
203.962684590943
20
14.9040998757898
30
0
41
1
10
203.963155184393
20
14.8686060661176
30
0
0
SPLINE
5
2A6
100
AcDbEntity
8
1
62
256
6
ByLayer
370
13
48
1
60
0
100
AcDbSpline
70
4
71
3
72
9
73
5
40
0
40
0
40
0
40
0
40
0.513495271763672
40
1
40
1
40
1
40
1
41
1
10
221.137282313949
20
23.8343321489688
30
0
41
1
10
221.115143946488
20
23.8337811174918
30
0
41
1
10
221.072060416011
20
23.8318033713514
30
0
41
1
10
221.028974632735
20
23.8299478262949
30
0
41
1
10
221.008013299254
20
23.8290394664995
30
0
0
SPLINE
5
2A7
100
AcDbEntity
8
1
62
256
6
ByLayer
370
13
48
1
60
0
100
AcDbSpline
70
4
71
1
72
4
73
2
40
0
40
0
40
1
40
1
41
1
10
204.197514576083
20
14.7677585055868
30
0
41
1
10
203.972280732668
20
14.7614356651233
30
0
0
SPLINE
5
2A8
100
AcDbEntity
8
1
62
256
6
ByLayer
370
13
48
1
60
0
100
AcDbSpline
70
4
71
3
72
14
73
10
40
0
40
0
40
0
40
0
40
0.0288455662552434
40
0.0288455662552434
40
0.190704638546071
40
0.190704638546071
40
0.352563710836899
40
0.352563710836899
40
1
40
1
40
1
40
1
41
1
10
204.962028669474
20
22.7469957002886
30
0
41
1
10
204.965748379305
20
22.7474328538807
30
0
41
1
10
204.969461339979
20
22.7478581917207
30
0
41
1
10
204.99381151606
20
22.7503252106773
30
0
41
1
10
205.013960038659
20
22.7515113371814
30
0
41
1
10
205.054542350641
20
22.7543830068129
30
0
41
1
10
205.074770465361
20
22.7557084752608
30
0
41
1
10
205.17530261701
20
22.7612706530504
30
0
41
1
10
205.25443250404
20
22.7631698759373
30
0
41
1
10
205.332216260919
20
22.7638656252753
30
0
0
SPLINE
5
2A9
100
AcDbEntity
8
1
62
256
6
ByLayer
370
13
48
1
60
0
100
AcDbSpline
70
4
71
3
72
26
73
22
40
0
40
0
40
0
40
0
40
0.250000000000098
40
0.250000000000098
40
0.375000000000148
40
0.375000000000148
40
0.500000000000199
40
0.500000000000199
40
0.625000000000249
40
0.625000000000249
40
0.687500000000222
40
0.687500000000222
40
0.71875000000016
40
0.71875000000016
40
0.750000000000098
40
0.750000000000098
40
0.812500000000073
40
0.812500000000073
40
0.875000000000048
40
0.875000000000048
40
1
40
1
40
1
40
1
41
1
10
222.436158767461
20
8.26133762492881
30
0
41
1
10
222.398953800936
20
8.24021483388859
30
0
41
1
10
222.357316701715
20
8.21919872089157
30
0
41
1
10
222.283538804946
20
8.18925725985281
30
0
41
1
10
222.257464535296
20
8.17973129011642
30
0
41
1
10
222.200918707224
20
8.16202829318888
30
0
41
1
10
222.170540920247
20
8.15388875844832
30
0
41
1
10
222.107950996528
20
8.14073518965023
30
0
41
1
10
222.076160712592
20
8.13598891002837
30
0
41
1
10
222.030600920773
20
8.13203996173243
30
0
41
1
10
222.015729706953
20
8.13115298208231
30
0
41
1
10
221.993778572273
20
8.13003641311042
30
0
41
1
10
221.986466216563
20
8.12966833458307
30
0
41
1
10
221.972137332756
20
8.12919153774135
30
0
41
1
10
221.965117974332
20
8.12908607840794
30
0
41
1
10
221.942825730754
20
8.12762411558302
30
0
41
1
10
221.926375777069
20
8.12516087348081
30
0
41
1
10
221.895679333172
20
8.12229933292286
30
0
41
1
10
221.880840085431
20
8.12134554040776
30
0
41
1
10
221.835917310782
20
8.11810459356138
30
0
41
1
10
221.806243223907
20
8.11620113999263
30
0
41
1
10
221.777101456475
20
8.11479654183535
30
0
0
SPLINE
5
2AA
100
AcDbEntity
8
1
62
256
6
ByLayer
370
13
48
1
60
0
100
AcDbSpline
70
4
71
1
72
4
73
2
40
0
40
0
40
1
40
1
41
1
10
203.963155184393
20
14.8686060661176
30
0
41
1
10
204.187749863994
20
14.8824352437484
30
0
0
SPLINE
5
2AB
100
AcDbEntity
8
1
62
256
6
ByLayer
370
13
48
1
60
0
100
AcDbSpline
70
4
71
3
72
24
73
20
40
0
40
0
40
0
40
0
40
0.0312499999999967
40
0.0312499999999967
40
0.0624999999999935
40
0.0624999999999935
40
0.124999999999986
40
0.124999999999986
40
0.156249999999983
40
0.156249999999983
40
0.171874999999981
40
0.171874999999981
40
0.187499999999979
40
0.187499999999979
40
0.249999999999985
40
0.249999999999985
40
0.499999999999994
40
0.499999999999994
40
1
40
1
40
1
40
1
41
1
10
219.952676705479
20
22.479252931366
30
0
41
1
10
219.896937492923
20
22.4403966520763
30
0
41
1
10
219.838602396442
20
22.4041916104488
30
0
41
1
10
219.718542587492
20
22.3383838888926
30
0
41
1
10
219.657240685796
20
22.3089693479762
30
0
41
1
10
219.469626291266
20
22.2308993352854
30
0
41
1
10
219.339575120031
20
22.1922537367347
30
0
41
1
10
219.13712332652
20
22.1552600143371
30
0
41
1
10
219.069418369505
20
22.1466927273394
30
0
41
1
10
218.967547240293
20
22.1391838352598
30
0
41
1
10
218.933529593296
20
22.1377129241804
30
0
41
1
10
218.865531855427
20
22.1341315410172
30
0
41
1
10
218.831531899314
20
22.13235936351
30
0
41
1
10
218.661533890685
20
22.1234683008453
30
0
41
1
10
218.525536063742
20
22.1163455742986
30
0
41
1
10
217.845548475394
20
22.0807056077316
30
0
41
1
10
217.301560607813
20
22.0521561168992
30
0
41
1
10
215.669589751667
20
21.9666311660001
30
0
41
1
10
214.581608312736
20
21.9096304388968
30
0
41
1
10
213.493627829447
20
21.8526117978644
30
0
0
SPLINE
5
2AC
100
AcDbEntity
8
1
62
256
6
ByLayer
370
13
48
1
60
0
100
AcDbSpline
70
4
71
3
72
12
73
8
40
0
40
0
40
0
40
0
40
0.249999999999941
40
0.249999999999941
40
0.499999999999882
40
0.499999999999882
40
1
40
1
40
1
40
1
41
1
10
221.582023229892
20
8.10995160299913
30
0
41
1
10
221.560256839814
20
8.10936598703267
30
0
41
1
10
221.539823381595
20
8.10967488648666
30
0
41
1
10
221.498475538297
20
8.10996995269375
30
0
41
1
10
221.477728239269
20
8.11006988097461
30
0
41
1
10
221.415562107812
20
8.11041882005529
30
0
41
1
10
221.374170097097
20
8.11068522896983
30
0
41
1
10
221.332751293587
20
8.11093426008438
30
0
0
SPLINE
5
2AD
100
AcDbEntity
8
1
62
256
6
ByLayer
370
13
48
1
60
0
100
AcDbSpline
70
4
71
2
72
6
73
3
40
0
40
0
40
0
40
1
40
1
40
1
41
1
10
203.969436262944
20
14.9759755554159
30
0
41
0.999116442697018
10
203.967054215957
20
14.9577743621847
30
0
41
0.998835603708712
10
203.965564656397
20
14.9394772899796
30
0
0
SPLINE
5
2AE
100
AcDbEntity
8
1
62
256
6
ByLayer
370
13
48
1
60
0
100
AcDbSpline
70
4
71
2
72
6
73
3
40
0
40
0
40
0
40
1
40
1
40
1
41
1
10
203.972280732668
20
14.7614356651233
30
0
41
0.997409491337352
10
203.963870000502
20
14.8146921262912
30
0
41
1
10
203.963155184393
20
14.8686060661176
30
0
0
SPLINE
5
2AF
100
AcDbEntity
8
1
62
256
6
ByLayer
370
13
48
1
60
0
100
AcDbSpline
70
4
71
2
72
6
73
3
40
0
40
0
40
0
40
1
40
1
40
1
41
1
10
204.187749863994
20
14.8824352437484
30
0
41
0.997409491337352
10
204.188514746639
20
14.8247451100589
30
0
41
1
10
204.197514576083
20
14.7677585055868
30
0
0
SPLINE
5
2B0
100
AcDbEntity
8
1
62
256
6
ByLayer
370
13
48
1
60
0
100
AcDbSpline
70
4
71
3
72
20
73
16
40
0
40
0
40
0
40
0
40
0.062500000000002
40
0.062500000000002
40
0.125000000000004
40
0.125000000000004
40
0.156250000000005
40
0.156250000000005
40
0.187500000000006
40
0.187500000000006
40
0.250000000000008
40
0.250000000000008
40
0.500000000000006
40
0.500000000000006
40
1
40
1
40
1
40
1
41
1
10
220.084734605263
20
22.315908022563
30
0
41
1
10
219.968506570563
20
22.234884470732
30
0
41
1
10
219.84606487107
20
22.1667580644758
30
0
41
1
10
219.58916492789
20
22.0554469127924
30
0
41
1
10
219.453057379847
20
22.0121049554001
30
0
41
1
10
219.248522236347
20
21.9687690188703
30
0
41
1
10
219.180079443699
20
21.9578035324459
30
0
41
1
10
219.042676653961
20
21.9426793039239
30
0
41
1
10
218.973639969231
20
21.9395298206513
30
0
41
1
10
218.766636586544
20
21.9286775050006
30
0
41
1
10
218.62863210436
20
21.9214719374402
30
0
41
1
10
217.938619370441
20
21.8853167440629
30
0
41
1
10
217.386613176067
20
21.8563397641619
30
0
41
1
10
215.730583867109
20
21.7695516953702
30
0
41
1
10
214.626563333235
20
21.7117119624892
30
0
41
1
10
213.522543820049
20
21.653852751518
30
0
0
SPLINE
5
2B1
100
AcDbEntity
8
1
62
256
6
ByLayer
370
13
48
1
60
0
100
AcDbSpline
70
4
71
3
72
9
73
5
40
0
40
0
40
0
40
0
40
0.513495271763381
40
1
40
1
40
1
40
1
41
1
10
206.520396944418
20
7.07844710655388
30
0
41
1
10
206.542535311879
20
7.07899813803098
30
0
41
1
10
206.585618842356
20
7.08097588417129
30
0
41
1
10
206.628704625632
20
7.08283142922781
30
0
41
1
10
206.649665959113
20
7.08373978902324
30
0
0
SPLINE
5
2B2
100
AcDbEntity
8
1
62
256
6
ByLayer
370
13
48
1
60
0
100
AcDbSpline
70
4
71
3
72
8
73
4
40
0
40
0
40
0
40
0
40
1
40
1
40
1
40
1
41
1
10
221.333940881606
20
23.8370572214485
30
0
41
1
10
221.268387093587
20
23.8368748898772
30
0
41
1
10
221.202834259759
20
23.8359493517428
30
0
41
1
10
221.137282313949
20
23.8343321489688
30
0
0
SPLINE
5
2B3
100
AcDbEntity
8
1
62
256
6
ByLayer
370
13
48
1
60
0
100
AcDbSpline
70
4
71
3
72
18
73
14
40
0
40
0
40
0
40
0
40
0.500000000000014
40
0.500000000000014
40
0.750000000000014
40
0.750000000000014
40
0.875000000000007
40
0.875000000000007
40
0.906250000000005
40
0.906250000000005
40
0.937500000000003
40
0.937500000000003
40
1
40
1
40
1
40
1
41
1
10
213.522543820049
20
21.6538527515181
30
0
41
1
10
212.513198177651
20
21.600955187871
30
0
41
1
10
211.503852212611
20
21.5480656274581
30
0
41
1
10
209.989833700359
20
21.4687163984662
30
0
41
1
10
209.485161596705
20
21.4422437603261
30
0
41
1
10
208.728151630987
20
21.4025912867457
30
0
41
1
10
208.475815901456
20
21.389344911287
30
0
41
1
10
208.160395221315
20
21.3728187130325
30
0
41
1
10
208.097326981255
20
21.3690174819501
30
0
41
1
10
207.971120360573
20
21.3636035695448
30
0
41
1
10
207.907926458573
20
21.3637232851799
30
0
41
1
10
207.718067194268
20
21.3727429009184
30
0
41
1
10
207.591129232943
20
21.3901485286099
30
0
41
1
10
207.463795474741
20
21.4199039453838
30
0
0
SPLINE
5
2B4
100
AcDbEntity
8
1
62
256
6
ByLayer
370
13
48
1
60
0
100
AcDbSpline
70
4
71
3
72
20
73
16
40
0
40
0
40
0
40
0
40
0.500000000000014
40
0.500000000000014
40
0.750000000000014
40
0.750000000000014
40
0.875000000000014
40
0.875000000000014
40
0.906250000000014
40
0.906250000000014
40
0.921875000000014
40
0.921875000000014
40
0.937500000000014
40
0.937500000000014
40
1
40
1
40
1
40
1
41
1
10
214.164051428919
20
9.06016745765828
30
0
41
1
10
215.163949880195
20
9.1125699149982
30
0
41
1
10
216.163848730299
20
9.16496476247872
30
0
41
1
10
217.66369629091
20
9.24357066735891
30
0
41
1
10
218.163644359176
20
9.26979403360468
30
0
41
1
10
218.913569041633
20
9.30907968819943
30
0
41
1
10
219.163544366219
20
9.32216643886005
30
0
41
1
10
219.476010912621
20
9.33857620824475
30
0
41
1
10
219.538507841635
20
9.34178695425936
30
0
41
1
10
219.632245610792
20
9.34675306074894
30
0
41
1
10
219.663492248896
20
9.34839436298878
30
0
41
1
10
219.72608964784
20
9.3496286520018
30
0
41
1
10
219.757427768286
20
9.34947030217165
30
0
41
1
10
219.914316397157
20
9.34478294814551
30
0
41
1
10
220.040454923777
20
9.32868637649179
30
0
41
1
10
220.167281753555
20
9.2990494190073
30
0
0
SPLINE
5
2B5
100
AcDbEntity
8
1
62
256
6
ByLayer
370
13
48
1
60
0
100
AcDbSpline
70
4
71
2
72
6
73
3
40
0
40
0
40
0
40
1
40
1
40
1
41
1
10
203.953633523856
20
15.117245605318
30
0
41
0.997409491337352
10
203.950835682605
20
15.0634017277084
30
0
41
1
10
203.955760323613
20
15.0097084154561
30
0
0
SPLINE
5
2B6
100
AcDbEntity
8
1
62
256
6
ByLayer
370
13
48
1
60
0
100
AcDbSpline
70
4
71
2
72
6
73
3
40
0
40
0
40
0
40
1
40
1
40
1
41
1
10
223.469929394373
20
16.0303440117744
30
0
41
0.997409491337352
10
223.470694277017
20
15.9726538780863
30
0
41
1
10
223.463208381914
20
15.9154542409366
30
0
0
SPLINE
5
2B7
100
AcDbEntity
8
1
62
256
6
ByLayer
370
13
48
1
60
0
100
AcDbSpline
70
4
71
3
72
20
73
16
40
0
40
0
40
0
40
0
40
0.0625000000000032
40
0.0625000000000032
40
0.125000000000006
40
0.125000000000006
40
0.156250000000008
40
0.156250000000008
40
0.187500000000009
40
0.187500000000009
40
0.250000000000012
40
0.250000000000012
40
0.500000000000012
40
0.500000000000012
40
1
40
1
40
1
40
1
41
1
10
207.609842251811
20
8.59880495416877
30
0
41
1
10
207.726070286511
20
8.67982850599984
30
0
41
1
10
207.848511986004
20
8.74795491225601
30
0
41
1
10
208.105411929183
20
8.85926606393943
30
0
41
1
10
208.241519477226
20
8.90260802133173
30
0
41
1
10
208.446054620727
20
8.94594395786152
30
0
41
1
10
208.514497413374
20
8.95690944428594
30
0
41
1
10
208.651900203113
20
8.9720336728079
30
0
41
1
10
208.720936887843
20
8.9751831560805
30
0
41
1
10
208.927940270529
20
8.98603547173127
30
0
41
1
10
209.065944752714
20
8.99324103929158
30
0
41
1
10
209.755957486633
20
9.02939623266894
30
0
41
1
10
210.307963681006
20
9.05837321256985
30
0
41
1
10
211.963992989964
20
9.14516128136162
30
0
41
1
10
213.068013523838
20
9.20300101424257
30
0
41
1
10
214.172033037024
20
9.26086022521378
30
0
0
SPLINE
5
2B8
100
AcDbEntity
8
1
62
256
6
ByLayer
370
13
48
1
60
0
100
AcDbSpline
70
4
71
3
72
24
73
20
40
0
40
0
40
0
40
0
40
0.0514081714718331
40
0.0514081714718331
40
0.102816342943666
40
0.102816342943666
40
0.154224514415499
40
0.154224514415499
40
0.205632685887332
40
0.205632685887332
40
0.30844902883099
40
0.30844902883099
40
0.411265371774647
40
0.411265371774647
40
0.616898057661963
40
0.616898057661963
40
0.822530743549278
40
0.822530743549278
40
1
40
1
40
1
40
1
41
1
10
222.587370085222
20
8.65976008670339
30
0
41
1
10
222.586024847507
20
8.64227397541728
30
0
41
1
10
222.584329161785
20
8.62334568791556
30
0
41
1
10
222.580204044437
20
8.5859906875468
30
0
41
1
10
222.577795208512
20
8.56790882829807
30
0
41
1
10
222.573105407104
20
8.53660141072243
30
0
41
1
10
222.570802429243
20
8.52302207901647
30
0
41
1
10
222.566324629281
20
8.49857887769812
30
0
41
1
10
222.564170679191
20
8.48784133080338
30
0
41
1
10
222.557860186732
20
8.45827287398623
30
0
41
1
10
222.553912537243
20
8.44230074584462
30
0
41
1
10
222.546323651817
20
8.41417062628318
30
0
41
1
10
222.542676981639
20
8.40208765622657
30
0
41
1
10
222.532092440476
20
8.36978733801695
30
0
41
1
10
222.52546800499
20
8.353308230371
30
0
41
1
10
222.512719946185
20
8.32559562857512
30
0
41
1
10
222.506600320131
20
8.31451081627648
30
0
41
1
10
222.495554508393
20
8.29742423787528
30
0
41
1
10
222.4905723344
20
8.29090427536218
30
0
41
1
10
222.485703257891
20
8.2855190466943
30
0
0
SPLINE
5
2B9
100
AcDbEntity
8
1
62
256
6
ByLayer
370
13
48
1
60
0
100
AcDbSpline
70
4
71
3
72
10
73
6
40
0
40
0
40
0
40
0
40
0.196352315104153
40
0.196352315104153
40
1
40
1
40
1
40
1
41
1
10
222.474912744814
20
8.2751935615253
30
0
41
1
10
222.472245174666
20
8.2730264640966
30
0
41
1
10
222.469608654431
20
8.27116039891328
30
0
41
1
10
222.456319302198
20
8.26294901450436
30
0
41
1
10
222.446090674719
20
8.26071007151313
30
0
41
1
10
222.436158767461
20
8.2613376249289
30
0
0
SPLINE
5
2BA
100
AcDbEntity
8
1
62
256
6
ByLayer
370
13
48
1
60
0
100
AcDbSpline
70
4
71
1
72
4
73
2
40
0
40
0
40
1
40
1
41
1
10
203.883485305688
20
15.1147386675839
30
0
41
1
10
203.953633523856
20
15.117245605318
30
0
0
SPLINE
5
2BB
100
AcDbEntity
8
1
62
256
6
ByLayer
370
13
48
1
60
0
100
AcDbSpline
70
4
71
1
72
4
73
2
40
0
40
0
40
1
40
1
41
1
10
203.875472024303
20
14.8956073499313
30
0
41
1
10
203.963827408032
20
14.902816466879
30
0
0
SPLINE
5
2BC
100
AcDbEntity
8
1
62
256
6
ByLayer
370
13
48
1
60
0
100
AcDbSpline
70
4
71
3
72
8
73
4
40
0
40
0
40
0
40
0
40
1
40
1
40
1
40
1
41
1
10
205.417076176785
20
22.9877340503641
30
0
41
1
10
205.364833019433
20
22.993069318235
30
0
41
1
10
205.31254748621
20
22.9984103209119
30
0
41
1
10
205.260350021923
20
23.0037394052392
30
0
0
SPLINE
5
2BD
100
AcDbEntity
8
1
62
256
6
ByLayer
370
13
48
1
60
0
100
AcDbSpline
70
4
71
1
72
4
73
2
40
0
40
0
40
1
40
1
41
1
10
204.194470876453
20
14.9973250145861
30
0
41
1
10
203.969436262944
20
14.9759755554159
30
0
0
SPLINE
5
2BE
100
AcDbEntity
8
1
62
256
6
ByLayer
370
13
48
1
60
0
100
AcDbSpline
70
4
71
3
72
22
73
18
40
0
40
0
40
0
40
0
40
0.124999999999993
40
0.124999999999993
40
0.249999999999987
40
0.249999999999987
40
0.37499999999998
40
0.37499999999998
40
0.499999999999974
40
0.499999999999974
40
0.624999999999967
40
0.624999999999967
40
0.687499999999964
40
0.687499999999964
40
0.74999999999996
40
0.74999999999996
40
1
40
1
40
1
40
1
41
1
10
205.30529775925
20
7.75331423267886
30
0
41
1
10
205.315201698277
20
7.6885406983811
30
0
41
1
10
205.332318017319
20
7.62629860192234
30
0
41
1
10
205.382159481662
20
7.50729287427373
30
0
41
1
10
205.415182632015
20
7.44990096474285
30
0
41
1
10
205.492634385725
20
7.34641290029057
30
0
41
1
10
205.537721445689
20
7.29940608081239
30
0
41
1
10
205.638923289096
20
7.21721868446534
30
0
41
1
10
205.693454745559
20
7.18288232996326
30
0
41
1
10
205.810396355781
20
7.1277546138401
30
0
41
1
10
205.873008430359
20
7.10715903536499
30
0
41
1
10
205.967682786985
20
7.0879169845428
30
0
41
1
10
205.999590878702
20
7.08341446360916
30
0
41
1
10
206.064098935602
20
7.07818832497495
30
0
41
1
10
206.096778362979
20
7.07787696741391
30
0
41
1
10
206.259712603734
20
7.07496737105444
30
0
41
1
10
206.390056668703
20
7.07523153983291
30
0
41
1
10
206.520396944418
20
7.07844710655388
30
0
0
SPLINE
5
2BF
100
AcDbEntity
8
1
62
256
6
ByLayer
370
13
48
1
60
0
100
AcDbSpline
70
4
71
3
72
10
73
6
40
0
40
0
40
0
40
0
40
0.437251963455254
40
0.437251963455254
40
1
40
1
40
1
40
1
41
1
10
220.23306616853
20
22.7502532702832
30
0
41
1
10
220.234859036323
20
22.7469395307675
30
0
41
1
10
220.244529750398
20
22.7383317700425
30
0
41
1
10
220.281144948735
20
22.7100137565402
30
0
41
1
10
220.312384550106
20
22.6878266743471
30
0
41
1
10
220.345066322975
20
22.6660955963195
30
0
0
SPLINE
5
2C0
100
AcDbEntity
8
1
62
256
6
ByLayer
370
13
48
1
60
0
100
AcDbSpline
70
4
71
3
72
24
73
20
40
0
40
0
40
0
40
0
40
0.0312499999999947
40
0.0312499999999947
40
0.0624999999999894
40
0.0624999999999894
40
0.124999999999979
40
0.124999999999979
40
0.156249999999974
40
0.156249999999974
40
0.171874999999971
40
0.171874999999971
40
0.187499999999969
40
0.187499999999969
40
0.249999999999971
40
0.249999999999971
40
0.499999999999981
40
0.499999999999981
40
1
40
1
40
1
40
1
41
1
10
207.705002552888
20
8.43352632415701
30
0
41
1
10
207.760741765445
20
8.4723826034467
30
0
41
1
10
207.819076861926
20
8.50858764507427
30
0
41
1
10
207.939136670876
20
8.57439536663048
30
0
41
1
10
208.000438572572
20
8.60380990754686
30
0
41
1
10
208.188052967101
20
8.68187992023769
30
0
41
1
10
208.318104138337
20
8.72052551878829
30
0
41
1
10
208.520555931848
20
8.75751924118578
30
0
41
1
10
208.588260888863
20
8.76608652818342
30
0
41
1
10
208.690132018076
20
8.77359542026301
30
0
41
1
10
208.724149665072
20
8.7750663313424
30
0
41
1
10
208.792147402941
20
8.77864771450561
30
0
41
1
10
208.826147359054
20
8.78041989201276
30
0
41
1
10
208.996145367683
20
8.78931095467746
30
0
41
1
10
209.132143194626
20
8.79643368122416
30
0
41
1
10
209.812130782975
20
8.83207364779125
30
0
41
1
10
210.356118650557
20
8.86062313862371
30
0
41
1
10
211.988089506704
20
8.94614808952284
30
0
41
1
10
213.07607094563
20
9.00314881662581
30
0
41
1
10
214.164051428919
20
9.06016745765834
30
0
0
SPLINE
5
2C1
100
AcDbEntity
8
1
62
256
6
ByLayer
370
13
48
1
60
0
100
AcDbSpline
70
4
71
3
72
12
73
8
40
0
40
0
40
0
40
0
40
0.25
40
0.25
40
0.5
40
0.5
40
1
40
1
40
1
40
1
41
1
10
205.332216260919
20
22.7638656252753
30
0
41
1
10
205.355750278049
20
22.7645438786501
30
0
41
1
10
205.378371628458
20
22.7643496417672
30
0
41
1
10
205.423943630179
20
22.7642759543223
30
0
41
1
10
205.446780881132
20
22.7642855557807
30
0
41
1
10
205.51523971584
20
22.7642664033031
30
0
41
1
10
205.560842564287
20
22.764220675043
30
0
41
1
10
205.606464128798
20
22.7641919012993
30
0
0
SPLINE
5
2C2
100
AcDbEntity
8
1
62
256
6
ByLayer
370
13
48
1
60
0
100
AcDbSpline
70
4
71
3
72
8
73
4
40
0
40
0
40
0
40
0
40
1
40
1
40
1
40
1
41
1
10
204.915780191154
20
22.9755480921782
30
0
41
1
10
204.98750966367
20
22.9830540290422
30
0
41
1
10
205.059326143828
20
22.9897217932054
30
0
41
1
10
205.131235920453
20
22.9954908023844
30
0
0
SPLINE
5
2C3
100
AcDbEntity
8
1
62
256
6
ByLayer
370
13
48
1
60
0
100
AcDbSpline
70
4
71
3
72
8
73
4
40
0
40
0
40
0
40
0
40
1
40
1
40
1
40
1
41
1
10
220.853818721818
20
23.7967394465133
30
0
41
1
10
220.905217998335
20
23.8075063841827
30
0
41
1
10
220.956658819135
20
23.8182834547272
30
0
41
1
10
221.008013299256
20
23.8290394665013
30
0
0
SPLINE
5
2C4
100
AcDbEntity
8
1
62
256
6
ByLayer
370
13
48
1
60
0
100
AcDbSpline
70
4
71
3
72
10
73
6
40
0
40
0
40
0
40
0
40
0.47034436024501
40
0.47034436024501
40
1
40
1
40
1
40
1
41
1
10
220.206971248823
20
22.6674102075791
30
0
41
1
10
220.206990114175
20
22.6672218712399
30
0
41
1
10
220.219836311939
20
22.6669700476348
30
0
41
1
10
220.26791045542
20
22.6664623839128
30
0
41
1
10
220.305868608966
20
22.6662194310945
30
0
41
1
10
220.345066322975
20
22.6660955963195
30
0
0
SPLINE
5
2C5
100
AcDbEntity
8
1
62
256
6
ByLayer
370
13
48
1
60
0
100
AcDbSpline
70
4
71
1
72
4
73
2
40
0
40
0
40
1
40
1
41
1
10
205.30529775925
20
7.75331423267886
30
0
41
1
10
205.275266580128
20
7.75247118728325
30
0
0
SPLINE
5
2C6
100
AcDbEntity
8
1
62
256
6
ByLayer
370
13
48
1
60
0
100
AcDbSpline
70
4
71
1
72
4
73
2
40
0
40
0
40
1
40
1
41
1
10
205.606464128798
20
22.7641919012993
30
0
41
1
10
205.417076176785
20
22.9877340503641
30
0
0
SPLINE
5
2C7
100
AcDbEntity
8
1
62
256
6
ByLayer
370
13
48
1
60
0
100
AcDbSpline
70
4
71
3
72
24
73
20
40
0
40
0
40
0
40
0
40
0.0453611707746437
40
0.0453611707746437
40
0.0907223415492873
40
0.0907223415492873
40
0.136083512323931
40
0.136083512323931
40
0.181444683098575
40
0.181444683098575
40
0.27216702464785
40
0.27216702464785
40
0.362889366197126
40
0.362889366197126
40
0.544334049295678
40
0.544334049295678
40
0.72577873239423
40
0.72577873239423
40
1
40
1
40
1
40
1
41
1
10
205.275266580128
20
7.75247118728328
30
0
41
1
10
205.278432244832
20
7.73522148237566
30
0
41
1
10
205.282097186215
20
7.7165741334359
30
0
41
1
10
205.290104366523
20
7.67985495984487
30
0
41
1
10
205.294390075552
20
7.66212394683075
30
0
41
1
10
205.302326701985
20
7.63147825229851
30
0
41
1
10
205.306036490569
20
7.61821403632914
30
0
41
1
10
205.313044770945
20
7.59437279497411
30
0
41
1
10
205.316309300747
20
7.58391921857759
30
0
41
1
10
205.32567596902
20
7.55517236693939
30
0
41
1
10
205.331271534883
20
7.53970037752191
30
0
41
1
10
205.341759245769
20
7.51251761223006
30
0
41
1
10
205.346648953398
20
7.50088201477737
30
0
41
1
10
205.360551813963
20
7.46986502691266
30
0
41
1
10
205.368862495896
20
7.4541686356041
30
0
41
1
10
205.38443747518
20
7.42794038133707
30
0
41
1
10
205.391682255677
20
7.41755596790722
30
0
41
1
10
205.408897628641
20
7.39620631907783
30
0
41
1
10
205.418399787517
20
7.38757010143078
30
0
41
1
10
205.42730556134
20
7.38176664660421
30
0
0
SPLINE
5
2C8
100
AcDbEntity
8
1
62
256
6
ByLayer
370
13
48
1
60
0
100
AcDbSpline
70
4
71
3
72
20
73
16
40
0
40
0
40
0
40
0
40
0.500000000000014
40
0.500000000000014
40
0.750000000000014
40
0.750000000000014
40
0.875000000000014
40
0.875000000000014
40
0.906250000000014
40
0.906250000000014
40
0.921875000000014
40
0.921875000000014
40
0.937500000000014
40
0.937500000000014
40
1
40
1
40
1
40
1
41
1
10
213.493627829447
20
21.8526117978644
30
0
41
1
10
212.493729378172
20
21.8002093405245
30
0
41
1
10
211.493830528068
20
21.747814493044
30
0
41
1
10
209.993982967457
20
21.6692085881638
30
0
41
1
10
209.494034899191
20
21.6429852219181
30
0
41
1
10
208.744110216734
20
21.6036995673233
30
0
41
1
10
208.494134892148
20
21.5906128166626
30
0
41
1
10
208.181668345746
20
21.574203047278
30
0
41
1
10
208.119171416731
20
21.5709923012633
30
0
41
1
10
208.025433647574
20
21.5660261947737
30
0
41
1
10
207.994187009471
20
21.564384892534
30
0
41
1
10
207.931589610528
20
21.5631506035209
30
0
41
1
10
207.900251490082
20
21.5633089533511
30
0
41
1
10
207.74336286121
20
21.5679963073772
30
0
41
1
10
207.61722433459
20
21.5840928790309
30
0
41
1
10
207.490397504812
20
21.6137298365154
30
0
0
SPLINE
5
2C9
100
AcDbEntity
8
1
62
256
6
ByLayer
370
13
48
1
60
0
100
AcDbSpline
70
4
71
2
72
6
73
3
40
0
40
0
40
0
40
1
40
1
40
1
41
1
10
223.469929394373
20
16.0303440117744
30
0
41
0.997409491337352
10
223.469164511728
20
16.0880341454638
30
0
41
1
10
223.460164682284
20
16.1450207499359
30
0
0
SPLINE
5
2CA
100
AcDbEntity
8
1
62
256
6
ByLayer
370
13
48
1
60
0
100
AcDbSpline
70
4
71
3
72
8
73
4
40
0
40
0
40
0
40
0
40
1
40
1
40
1
40
1
41
1
10
221.777101456475
20
8.11479654183535
30
0
41
1
10
221.710258317072
20
8.11157478287197
30
0
41
1
10
221.645349328787
20
8.11025711169836
30
0
41
1
10
221.582023229892
20
8.10995160299916
30
0
0
SPLINE
5
2CB
100
AcDbEntity
8
1
62
256
6
ByLayer
370
13
48
1
60
0
100
AcDbSpline
70
4
71
3
72
10
73
6
40
0
40
0
40
0
40
0
40
0.5
40
0.5
40
1
40
1
40
1
40
1
41
1
10
207.414949215285
20
8.16053353499152
30
0
41
1
10
207.411273613589
20
8.16034090486912
30
0
41
1
10
207.393977397777
20
8.16964810118938
30
0
41
1
10
207.342589639776
20
8.2009865342169
30
0
41
1
10
207.308397109554
20
8.22301885996652
30
0
41
1
10
207.275715336686
20
8.24474993799416
30
0
0
SPLINE
5
2CC
100
AcDbEntity
8
1
62
256
6
ByLayer
370
13
48
1
60
0
100
AcDbSpline
70
4
71
3
72
9
73
5
40
0
40
0
40
0
40
0
40
0.513495271763469
40
1
40
1
40
1
40
1
41
1
10
205.131235920453
20
22.9954908023844
30
0
41
1
10
205.153310610094
20
22.9972568790453
30
0
41
1
10
205.196364855248
20
22.9997934224382
30
0
41
1
10
205.239408567368
20
23.0024517329661
30
0
41
1
10
205.260350021925
20
23.0037394052375
30
0
0
SPLINE
5
2CD
100
AcDbEntity
8
1
62
256
6
ByLayer
370
13
48
1
60
0
100
AcDbSpline
70
4
71
3
72
18
73
14
40
0
40
0
40
0
40
0
40
0.5
40
0.5
40
0.750000000000007
40
0.750000000000007
40
0.875000000000003
40
0.875000000000003
40
0.906250000000002
40
0.906250000000002
40
0.937500000000002
40
0.937500000000002
40
1
40
1
40
1
40
1
41
1
10
214.172033037024
20
9.26086022521375
30
0
41
1
10
215.181378679422
20
9.31375778886084
30
0
41
1
10
216.190724644462
20
9.36664734927371
30
0
41
1
10
217.704743156715
20
9.44599657826558
30
0
41
1
10
218.209415260369
20
9.47246921640573
30
0
41
1
10
218.966425226087
20
9.51212168998612
30
0
41
1
10
219.218760955618
20
9.52536806544481
30
0
41
1
10
219.534181635759
20
9.54189426369933
30
0
41
1
10
219.597249875818
20
9.54569549478163
30
0
41
1
10
219.7234564965
20
9.551109407187
30
0
41
1
10
219.786650398501
20
9.55098969155193
30
0
41
1
10
219.976509662806
20
9.54197007581345
30
0
41
1
10
220.103447624131
20
9.52456444812188
30
0
41
1
10
220.230781382332
20
9.49480903134804
30
0
0
SPLINE
5
2CE
100
AcDbEntity
8
1
62
256
6
ByLayer
370
13
48
1
60
0
100
AcDbSpline
70
4
71
2
72
6
73
3
40
0
40
0
40
0
40
1
40
1
40
1
41
0.998835603708701
10
203.965564656397
20
14.9394772899803
30
0
41
0.998293048640352
10
203.959002421504
20
14.9743598541774
30
0
41
1
10
203.955760323613
20
15.0097084154561
30
0
0
SPLINE
5
2CF
100
AcDbEntity
8
1
62
256
6
ByLayer
370
13
48
1
60
0
100
AcDbSpline
70
4
71
3
72
10
73
6
40
0
40
0
40
0
40
0
40
0.5
40
0.5
40
1
40
1
40
1
40
1
41
1
10
207.440872678488
20
8.2448175511052
30
0
41
1
10
207.437196037691
20
8.24462486652578
30
0
41
1
10
207.416924840166
20
8.24453339386412
30
0
41
1
10
207.355824240236
20
8.24453791245952
30
0
41
1
10
207.314913050694
20
8.2446261032191
30
0
41
1
10
207.275715336686
20
8.24474993799416
30
0
0
SPLINE
5
2D0
100
AcDbEntity
8
SK1
62
256
6
ByLayer
370
13
48
1
60
0
100
AcDbSpline
70
4
71
3
72
24
73
20
40
0
40
0
40
0
40
0
40
0.249999999999979
40
0.249999999999979
40
0.374999999999967
40
0.374999999999967
40
0.499999999999954
40
0.499999999999954
40
0.624999999999942
40
0.624999999999942
40
0.687499999999952
40
0.687499999999952
40
0.749999999999961
40
0.749999999999961
40
0.812499999999971
40
0.812499999999971
40
0.874999999999981
40
0.874999999999981
40
1
40
1
40
1
40
1
41
1
10
-68.5162221138922
20
8.64653950086213
30
0
41
1
10
-68.4801597618136
20
8.54897747553599
30
0
41
1
10
-68.437529036499
20
8.45328392947286
30
0
41
1
10
-68.3606328317439
20
8.31846748282459
30
0
41
1
10
-68.3327841948055
20
8.27488782936956
30
0
41
1
10
-68.2709240150669
20
8.19150751116794
30
0
41
1
10
-68.2366211549992
20
8.1513917713655
30
0
41
1
10
-68.1608805969831
20
8.07960326139835
30
0
41
1
10
-68.118647042449
20
8.04728802222283
30
0
41
1
10
-68.0500006695449
20
8.01075696434805
30
0
41
1
10
-68.0262243469756
20
8.00052694473914
30
0
41
1
10
-67.9764623615226
20
7.98487745486457
30
0
41
1
10
-67.9503348341249
20
7.9795185054941
30
0
41
1
10
-67.8979814342781
20
7.97497946209535
30
0
41
1
10
-67.8712746996662
20
7.97577043506206
30
0
41
1
10
-67.8195051112143
20
7.98321207091351
30
0
41
1
10
-67.7941760244754
20
7.9897939279231
30
0
41
1
10
-67.7196976276346
20
8.01730782525888
30
0
41
1
10
-67.675026058619
20
8.04465261111196
30
0
41
1
10
-67.6338131992839
20
8.07752044937291
30
0
0
SPLINE
5
2D1
100
AcDbEntity
8
SK1
62
256
6
ByLayer
370
13
48
1
60
0
100
AcDbSpline
70
4
71
3
72
24
73
20
40
0
40
0
40
0
40
0
40
0.124999999999998
40
0.124999999999998
40
0.187499999999998
40
0.187499999999998
40
0.249999999999997
40
0.249999999999997
40
0.312499999999996
40
0.312499999999996
40
0.374999999999995
40
0.374999999999995
40
0.499999999999995
40
0.499999999999995
40
0.624999999999996
40
0.624999999999996
40
0.749999999999996
40
0.749999999999996
40
1
40
1
40
1
40
1
41
1
10
-67.6338131992802
20
-8.0775204493757
30
0
41
1
10
-67.6747533059888
20
-8.04487013519184
30
0
41
1
10
-67.7195612014526
20
-8.01749860563658
30
0
41
1
10
-67.7928268759133
20
-7.99022415829779
30
0
41
1
10
-67.8186099136469
20
-7.98341533666706
30
0
41
1
10
-67.8702377710496
20
-7.97584764333209
30
0
41
1
10
-67.8964211377289
20
-7.97495672022018
30
0
41
1
10
-67.9490497374436
20
-7.97930047589773
30
0
41
1
10
-67.9746489816421
20
-7.98443974128386
30
0
41
1
10
-68.0246006163589
20
-7.99989255190098
30
0
41
1
10
-68.0490680787129
20
-8.01031623650994
30
0
41
1
10
-68.1182248719782
20
-8.0469549457695
30
0
41
1
10
-68.1601512019842
20
-8.07899984651726
30
0
41
1
10
-68.2360566690459
20
-8.15077030465307
30
0
41
1
10
-68.2698164349815
20
-8.19015258317449
30
0
41
1
10
-68.3318488230967
20
-8.27349356792351
30
0
41
1
10
-68.3601520983357
20
-8.3176575732663
30
0
41
1
10
-68.4377912107178
20
-8.45367817332618
30
0
41
1
10
-68.4803734932244
20
-8.54955569820223
30
0
41
1
10
-68.5162221138915
20
-8.64653950086213
30
0
0
SPLINE
5
2D2
100
AcDbEntity
8
SK1
62
256
6
ByLayer
370
13
48
1
60
0
100
AcDbSpline
70
4
71
3
72
8
73
4
40
0
40
0
40
0
40
0
40
1
40
1
40
1
40
1
41
1
10
-68.5999993841625
20
8.87089623431598
30
0
41
1
10
-68.5718356096165
20
8.7962242090465
30
0
41
1
10
-68.5439078219466
20
8.72143960012821
30
0
41
1
10
-68.5162221138915
20
8.64653950086236
30
0
0
SPLINE
5
2D3
100
AcDbEntity
8
SK1
62
256
6
ByLayer
370
13
48
1
60
0
100
AcDbSpline
70
4
71
3
72
8
73
4
40
0
40
0
40
0
40
0
40
1
40
1
40
1
40
1
41
1
10
-66.6000022063888
20
-8.87089623431581
30
0
41
1
10
-66.9493175829836
20
-8.61239127382837
30
0
41
1
10
-67.2942397234117
20
-8.34833509953083
30
0
41
1
10
-67.6338131992802
20
-8.0775204493757
30
0
0
SPLINE
5
2D4
100
AcDbEntity
8
SK1
62
256
6
ByLayer
370
13
48
1
60
0
100
AcDbSpline
70
4
71
3
72
8
73
4
40
0
40
0
40
0
40
0
40
1
40
1
40
1
40
1
41
1
10
-67.6338131992845
20
8.07752044937243
30
0
41
1
10
-67.294061759835
20
8.34847702800076
30
0
41
1
10
-66.9491462783909
20
8.61251804490684
30
0
41
1
10
-66.6000022063887
20
8.87089623431601
30
0
0
SPLINE
5
2D5
100
AcDbEntity
8
SK1
62
256
6
ByLayer
370
13
48
1
60
0
100
AcDbSpline
70
4
71
3
72
8
73
4
40
0
40
0
40
0
40
0
40
1
40
1
40
1
40
1
41
1
10
-69
20
-8.87089623431584
30
0
41
1
10
-69.3685589153682
20
-8.0795925242185
30
0
41
1
10
-69.7053933622917
20
-7.27414418636064
30
0
41
1
10
-70
20
-6.44986821570788
30
0
0
SPLINE
5
2D6
100
AcDbEntity
8
SK1
62
256
6
ByLayer
370
13
48
1
60
0
100
AcDbSpline
70
4
71
3
72
12
73
8
40
0
40
0
40
0
40
0
40
0.249999999999998
40
0.249999999999998
40
0.499999999999996
40
0.499999999999996
40
1
40
1
40
1
40
1
41
1
10
-70
20
6.44986821570805
30
0
41
1
10
-69.9262294539371
20
6.65626983969923
30
0
41
1
10
-69.8494937989988
20
6.86229287290607
30
0
41
1
10
-69.6914006706146
20
7.27114448300509
30
0
41
1
10
-69.6099907274895
20
7.47414273982645
30
0
41
1
10
-69.3592184194197
20
8.07918566670864
30
0
41
1
10
-69.1833279901908
20
8.47728719990221
30
0
41
1
10
-69
20
8.87089623431598
30
0
0
SPLINE
5
2D7
100
AcDbEntity
8
SK1
62
256
6
ByLayer
370
13
48
1
60
0
100
AcDbSpline
70
4
71
3
72
8
73
4
40
0
40
0
40
0
40
0
40
1
40
1
40
1
40
1
41
1
10
-68.5162221138915
20
-8.64653950086213
30
0
41
1
10
-68.5438902081973
20
-8.72139194840918
30
0
41
1
10
-68.5718178207736
20
-8.79617704459645
30
0
41
1
10
-68.5999993841625
20
-8.87089623431586
30
0
0
SPLINE
5
2D8
100
AcDbEntity
8
1
62
256
6
ByLayer
370
13
48
1
60
0
100
AcDbSpline
70
4
71
3
72
12
73
8
40
0
40
0
40
0
40
0
40
0.25
40
0.25
40
0.5
40
0.5
40
1
40
1
40
1
40
1
41
1
10
10.1098
20
3.30389422831166
30
0
41
1
10
9.70052863792819
20
3.48978694338837
30
0
41
1
10
9.28554710201217
20
3.65798556162946
30
0
41
1
10
8.44762737081115
20
3.96972752399876
30
0
41
1
10
8.02464631095232
20
4.11313804381351
30
0
41
1
10
6.74650155244015
20
4.51485670099439
30
0
41
1
10
5.88227613198534
20
4.74508531093704
30
0
41
1
10
5.0098000000004
20
4.94974746830584
30
0
0
SPLINE
5
2D9
100
AcDbEntity
8
1
62
256
6
ByLayer
370
13
48
1
60
0
100
AcDbSpline
70
4
71
3
72
8
73
4
40
0
40
0
40
0
40
0
40
1
40
1
40
1
40
1
41
1
10
200.548851756173
20
10.8870440295921
30
0
41
1
10
200.673628028344
20
12.1484628082268
30
0
41
1
10
200.795365330554
20
13.4083365716745
30
0
41
1
10
200.91329299332
20
14.6669275544631
30
0
0
SPLINE
5
2DA
100
AcDbEntity
8
1
62
256
6
ByLayer
370
13
48
1
60
0
100
AcDbSpline
70
4
71
3
72
22
73
18
40
0
40
0
40
0
40
0
40
0.125
40
0.125
40
0.25
40
0.25
40
0.375
40
0.375
40
0.5
40
0.5
40
0.625
40
0.625
40
0.75
40
0.75
40
0.875
40
0.875
40
1
40
1
40
1
40
1
41
1
10
199.893850610268
20
8.76694013045517
30
0
41
1
10
199.915266867827
20
8.8336841965299
30
0
41
1
10
199.936149113987
20
8.90538048722422
30
0
41
1
10
199.976359046382
20
9.05454520462069
30
0
41
1
10
199.995670170139
20
9.1318634285673
30
0
41
1
10
200.033224097919
20
9.29177451596385
30
0
41
1
10
200.051460422117
20
9.37436809207867
30
0
41
1
10
200.087241496597
20
9.54492856515915
30
0
41
1
10
200.104632940769
20
9.63222881808909
30
0
41
1
10
200.138187419859
20
9.80718144026179
30
0
41
1
10
200.154453975352
20
9.8953566989199
30
0
41
1
10
200.186555293945
20
10.0730077142493
30
0
41
1
10
200.202487925811
20
10.1631157144898
30
0
41
1
10
200.234061006406
20
10.3400320717397
30
0
41
1
10
200.249720886212
20
10.4271197887174
30
0
41
1
10
200.282628371778
20
10.5982116343089
30
0
41
1
10
200.299759328911
20
10.6824748013798
30
0
41
1
10
200.320023456198
20
10.7641582281046
30
0
0
SPLINE
5
2DB
100
AcDbEntity
8
1
62
256
6
ByLayer
370
13
48
1
60
0
100
AcDbSpline
70
4
71
3
72
14
73
10
40
0
40
0
40
0
40
0
40
0.249999999999998
40
0.249999999999998
40
0.374999999999998
40
0.374999999999998
40
0.499999999999999
40
0.499999999999999
40
1
40
1
40
1
40
1
41
1
10
24.0056483599734
20
-8.90857359972924
30
0
41
1
10
24.2444550794035
20
-8.81120726591891
30
0
41
1
10
24.4888335627332
20
-8.72488697047649
30
0
41
1
10
24.8639795863973
20
-8.61262094396034
30
0
41
1
10
24.9904203610401
20
-8.57810732839855
30
0
41
1
10
25.2435449452188
20
-8.51556656135224
30
0
41
1
10
25.3705543976484
20
-8.4874370395913
30
0
41
1
10
26.0078102496257
20
-8.36232111301393
30
0
41
1
10
26.5246179137387
20
-8.31149237126641
30
0
41
1
10
27.0485982610413
20
-8.31122573084096
30
0
0
SPLINE
5
2DC
100
AcDbEntity
8
1
62
256
6
ByLayer
370
13
48
1
60
0
100
AcDbSpline
70
4
71
3
72
14
73
10
40
0
40
0
40
0
40
0
40
0.250000000000001
40
0.250000000000001
40
0.500000000000002
40
0.500000000000002
40
0.750000000000001
40
0.750000000000001
40
1
40
1
40
1
40
1
41
1
10
221.580771020944
20
0.634182069728439
30
0
41
1
10
221.581884142075
20
0.684776422077277
30
0
41
1
10
221.583866982172
20
0.731914489464742
30
0
41
1
10
221.589457341472
20
0.815859771508826
30
0
41
1
10
221.592987138992
20
0.85173668756542
30
0
41
1
10
221.601446442175
20
0.909939824439022
30
0
41
1
10
221.606182937583
20
0.931054765564625
30
0
41
1
10
221.61668981141
20
0.95699316304362
30
0
41
1
10
221.622202583611
20
0.961140007783371
30
0
41
1
10
221.627938066782
20
0.95632335159965
30
0
0
SPLINE
5
2DD
100
AcDbEntity
8
1
62
256
6
ByLayer
370
13
48
1
60
0
100
AcDbSpline
70
4
71
3
72
12
73
8
40
0
40
0
40
0
40
0
40
0.0188863870101859
40
0.0188863870101859
40
0.509443193505094
40
0.509443193505094
40
1
40
1
40
1
40
1
41
1
10
179.262038051537
20
10.396065027765
30
0
41
1
10
179.322556870877
20
10.3720005691605
30
0
41
1
10
179.383076446474
20
10.3479145382301
30
0
41
1
10
181.015559287995
20
9.69763718889831
30
0
41
1
10
182.588761100177
20
9.05659590473459
30
0
41
1
10
185.73316021464
20
7.75151820969717
30
0
41
1
10
187.304718235099
20
7.08736299548394
30
0
41
1
10
188.876671293992
20
6.41375194666148
30
0
0
SPLINE
5
2DE
100
AcDbEntity
8
1
62
256
6
ByLayer
370
13
48
1
60
0
100
AcDbSpline
70
4
71
3
72
10
73
6
40
0
40
0
40
0
40
0
40
0.5
40
0.5
40
1
40
1
40
1
40
1
41
1
10
201.952035419632
20
10.7936442821061
30
0
41
1
10
202.205984164842
20
10.745609018112
30
0
41
1
10
202.450933740462
20
10.7161109248546
30
0
41
1
10
202.93143696547
20
10.6805635004724
30
0
41
1
10
203.166854887523
20
10.6744139483172
30
0
41
1
10
203.399322451261
20
10.6759337671657
30
0
0
SPLINE
5
2DF
100
AcDbEntity
8
1
62
256
6
ByLayer
370
13
48
1
60
0
100
AcDbSpline
70
4
71
3
72
44
73
40
40
0
40
0
40
0
40
0
40
0.0625000000000013
40
0.0625000000000013
40
0.125000000000003
40
0.125000000000003
40
0.156250000000003
40
0.156250000000003
40
0.187500000000004
40
0.187500000000004
40
0.250000000000004
40
0.250000000000004
40
0.281250000000005
40
0.281250000000005
40
0.312500000000005
40
0.312500000000005
40
0.375000000000005
40
0.375000000000005
40
0.437500000000005
40
0.437500000000005
40
0.468750000000005
40
0.468750000000005
40
0.500000000000005
40
0.500000000000005
40
0.625000000000004
40
0.625000000000004
40
0.656250000000004
40
0.656250000000004
40
0.687500000000003
40
0.687500000000003
40
0.750000000000003
40
0.750000000000003
40
0.812500000000002
40
0.812500000000002
40
0.843750000000002
40
0.843750000000002
40
0.875000000000001
40
0.875000000000001
40
1
40
1
40
1
40
1
41
1
10
5.9634855016312
20
-21.0295415717695
30
0
41
1
10
5.88295552354438
20
-21.1952208962626
30
0
41
1
10
5.82242614136757
20
-21.3563730235118
30
0
41
1
10
5.74069468043344
20
-21.6691692850364
30
0
41
1
10
5.71949266884359
20
-21.8208154528868
30
0
41
1
10
5.71851510043571
20
-22.0407727369999
30
0
41
1
10
5.7234306389537
20
-22.1128901406529
30
0
41
1
10
5.74321542143284
20
-22.2525064683653
30
0
41
1
10
5.75805758595452
20
-22.3202863898404
30
0
41
1
10
5.8169100973046
20
-22.5177483988484
30
0
41
1
10
5.87530546661483
20
-22.6415487379849
30
0
41
1
10
5.99126990453965
20
-22.8160257954629
30
0
41
1
10
6.03463019138907
20
-22.8723158753933
30
0
41
1
10
6.13085136817746
20
-22.9812197749369
30
0
41
1
10
6.18382198502185
20
-23.03388935031
30
0
41
1
10
6.35470275751149
20
-23.1845717974019
30
0
41
1
10
6.48499630380056
20
-23.2760203351222
30
0
41
1
10
6.77662534877217
20
-23.442879203414
30
0
41
1
10
6.93798446285645
20
-23.5182796469867
30
0
41
1
10
7.20310380130331
20
-23.6204247395872
30
0
41
1
10
7.29560189512952
20
-23.6527203821319
30
0
41
1
10
7.48650879957326
20
-23.7132335878503
30
0
41
1
10
7.58499826968158
20
-23.7415019630846
30
0
41
1
10
8.09220765645205
20
-23.8736591904454
30
0
41
1
10
8.54450794967349
20
-23.9503396480318
30
0
41
1
10
9.16808800348315
20
-24.0181737851515
30
0
41
1
10
9.295754319975
20
-24.0303083539103
30
0
41
1
10
9.55419533328126
20
-24.0516939611693
30
0
41
1
10
9.68531053956792
20
-24.0609839339501
30
0
41
1
10
10.0843776699505
20
-24.0849636586313
30
0
41
1
10
10.3579151102507
20
-24.0958268934836
30
0
41
1
10
10.9201177198092
20
-24.1087777596388
30
0
41
1
10
11.2088966925436
20
-24.1108213469864
30
0
41
1
10
11.6541442056785
20
-24.1079937806201
30
0
41
1
10
11.8050127338636
20
-24.1060566779914
30
0
41
1
10
12.1083781243216
20
-24.1003415910629
30
0
41
1
10
12.2608430081112
20
-24.096571320688
30
0
41
1
10
13.0271303292484
20
-24.0734709843831
30
0
41
1
10
13.6526601829285
20
-24.0418092114236
30
0
41
1
10
14.2924383321104
20
-23.9979874580004
30
0
0
SPLINE
5
2E0
100
AcDbEntity
8
1
62
256
6
ByLayer
370
13
48
1
60
0
100
AcDbSpline
70
4
71
3
72
12
73
8
40
0
40
0
40
0
40
0
40
0.282839239336167
40
0.282839239336167
40
0.641419619668083
40
0.641419619668083
40
1
40
1
40
1
40
1
41
1
10
29.253578379687
20
-8.30200717411847
30
0
41
1
10
29.2535241490989
20
-8.72922086331846
30
0
41
1
10
29.2534772299719
20
-9.18865493291668
30
0
41
1
10
29.2533919991371
20
-10.2612795034377
30
0
41
1
10
29.2533593854847
20
-10.8823394534906
30
0
41
1
10
29.2533285207516
20
-12.0855119956765
30
0
41
1
10
29.2533302788951
20
-12.6672650153928
30
0
41
1
10
29.2533491117895
20
-13.1908811639443
30
0
0
SPLINE
5
2E1
100
AcDbEntity
8
1
62
256
6
ByLayer
370
13
48
1
60
0
100
AcDbSpline
70
4
71
3
72
10
73
6
40
0
40
0
40
0
40
0
40
0.5
40
0.5
40
1
40
1
40
1
40
1
41
1
10
220.665590499766
20
-4.15051768565488
30
0
41
1
10
220.719958119367
20
-4.4450730467226
30
0
41
1
10
220.75336495741
20
-4.73931894323553
30
0
41
1
10
220.780625567037
20
-5.32704376798961
30
0
41
1
10
220.774473314356
20
-5.62052314986266
30
0
41
1
10
220.748474816157
20
-5.91359633683831
30
0
0
SPLINE
5
2E2
100
AcDbEntity
8
1
62
256
6
ByLayer
370
13
48
1
60
0
100
AcDbSpline
70
4
71
3
72
24
73
20
40
0
40
0
40
0
40
0
40
0.0025490335645183
40
0.0025490335645183
40
0.113376918724016
40
0.113376918724016
40
0.335032689043012
40
0.335032689043012
40
0.44586057420251
40
0.44586057420251
40
0.501274516782258
40
0.501274516782258
40
0.556688459362007
40
0.556688459362007
40
0.667516344521505
40
0.667516344521505
40
0.778344229681003
40
0.778344229681003
40
1
40
1
40
1
40
1
41
1
10
13.4943715379816
20
-9.66988515479235
30
0
41
1
10
13.4841897684655
20
-9.67735882436443
30
0
41
1
10
13.4740172832783
20
-9.68483889109569
30
0
41
1
10
13.0219741260974
20
-10.0178245238176
30
0
41
1
10
12.597595785106
20
-10.3553814454059
30
0
41
1
10
11.3766421281656
20
-11.4037408147406
30
0
41
1
10
10.6326397180492
20
-12.1513737448733
30
0
41
1
10
9.61767548969149
20
-13.344196463133
30
0
41
1
10
9.29628359164917
20
-13.753666359262
30
0
41
1
10
8.84027673354313
20
-14.3859812645507
30
0
41
1
10
8.69231258964305
20
-14.600273447236
30
0
41
1
10
8.40723767858293
20
-15.032102396638
30
0
41
1
10
8.27010930931087
20
-15.2496073611786
30
0
41
1
10
7.87488249826902
20
-15.9068194642312
30
0
41
1
10
7.63312996942096
20
-16.3510776975816
30
0
41
1
10
7.19208437162418
20
-17.2532477290716
30
0
41
1
10
6.99249401484445
20
-17.7109663275841
30
0
41
1
10
6.45266385653073
20
-19.1025912335242
30
0
41
1
10
6.17075486797827
20
-20.054810239888
30
0
41
1
10
5.96348550163123
20
-21.0295415717694
30
0
0
SPLINE
5
2E3
100
AcDbEntity
8
1
62
256
6
ByLayer
370
13
48
1
60
0
100
AcDbSpline
70
4
71
3
72
28
73
24
40
0
40
0
40
0
40
0
40
0.12499999999999
40
0.12499999999999
40
0.24999999999998
40
0.24999999999998
40
0.312499999999975
40
0.312499999999975
40
0.37499999999997
40
0.37499999999997
40
0.437499999999965
40
0.437499999999965
40
0.49999999999996
40
0.49999999999996
40
0.562499999999955
40
0.562499999999955
40
0.62499999999995
40
0.62499999999995
40
0.749999999999967
40
0.749999999999967
40
0.874999999999983
40
0.874999999999983
40
1
40
1
40
1
40
1
41
1
10
202.995670473851
20
7.62280624257809
30
0
41
1
10
202.942494389668
20
7.57872228746314
30
0
41
1
10
202.890606356906
20
7.53475092567243
30
0
41
1
10
202.790658999881
20
7.44573549036306
30
0
41
1
10
202.742198071341
20
7.4005099810316
30
0
41
1
10
202.676414772695
20
7.33001851866712
30
0
41
1
10
202.655841763639
20
7.30624287603939
30
0
41
1
10
202.618765965186
20
7.25729188916429
30
0
41
1
10
202.602254977287
20
7.23201985665773
30
0
41
1
10
202.576660191999
20
7.18065112073765
30
0
41
1
10
202.567381322174
20
7.1539467557939
30
0
41
1
10
202.559188423576
20
7.10039995030323
30
0
41
1
10
202.560261622972
20
7.07374878200451
30
0
41
1
10
202.572212979255
20
7.02137357242248
30
0
41
1
10
202.582726681745
20
6.99658088755007
30
0
41
1
10
202.609904472176
20
6.94896356114523
30
0
41
1
10
202.626635346986
20
6.92613491366669
30
0
41
1
10
202.681237344523
20
6.86184428842833
30
0
41
1
10
202.723811833637
20
6.82349310855437
30
0
41
1
10
202.814100781871
20
6.75232710582208
30
0
41
1
10
202.862134928201
20
6.71956658171283
30
0
41
1
10
202.95994978341
20
6.65983863697679
30
0
41
1
10
203.009927480992
20
6.63276679755907
30
0
41
1
10
203.060560662671
20
6.60845501867468
30
0
0
SPLINE
5
2E4
100
AcDbEntity
8
1
62
256
6
ByLayer
370
13
48
1
60
0
100
AcDbSpline
70
4
71
1
72
4
73
2
40
0
40
0
40
1
40
1
41
1
10
28.8136
20
-22.5035999143338
30
0
41
1
10
28.8136
20
-13.1951667579438
30
0
0
SPLINE
5
2E5
100
AcDbEntity
8
1
62
256
6
ByLayer
370
13
48
1
60
0
100
AcDbSpline
70
4
71
3
72
18
73
14
40
0
40
0
40
0
40
0
40
0.249999999999999
40
0.249999999999999
40
0.375
40
0.375
40
0.500000000000001
40
0.500000000000001
40
0.75
40
0.75
40
0.875
40
0.875
40
1
40
1
40
1
40
1
41
1
10
5.96376950490311
20
-18.258569814827
30
0
41
1
10
5.84645655493257
20
-18.5130354335444
30
0
41
1
10
5.75673096847565
20
-18.7655222834909
30
0
41
1
10
5.66540290477482
20
-19.1403953622351
30
0
41
1
10
5.64226826437871
20
-19.2648865625026
30
0
41
1
10
5.61165918202649
20
-19.5080201497068
30
0
41
1
10
5.60401753810581
20
-19.6272284954621
30
0
41
1
10
5.60408161905369
20
-19.9778480183106
30
0
41
1
10
5.63430749108861
20
-20.2022900344552
30
0
41
1
10
5.7242906140591
20
-20.5251943501743
30
0
41
1
10
5.76210833455239
20
-20.6309172137892
30
0
41
1
10
5.85218293138396
20
-20.8353590592159
30
0
41
1
10
5.9043415471437
20
-20.934107256206
30
0
41
1
10
5.96348550163121
20
-21.0295415717694
30
0
0
SPLINE
5
2E6
100
AcDbEntity
8
1
62
256
6
ByLayer
370
13
48
1
60
0
100
AcDbSpline
70
4
71
3
72
8
73
4
40
0
40
0
40
0
40
0
40
1
40
1
40
1
40
1
41
1
10
199.892112954096
20
8.76107535926516
30
0
41
1
10
199.892647056489
20
8.76304115123645
30
0
41
1
10
199.89322677824
20
8.76499594921884
30
0
41
1
10
199.893850610268
20
8.76694013045517
30
0
0
SPLINE
5
2E7
100
AcDbEntity
8
1
62
256
6
ByLayer
370
13
48
1
60
0
100
AcDbSpline
70
4
71
3
72
8
73
4
40
0
40
0
40
0
40
0
40
1
40
1
40
1
40
1
41
1
10
199.742280931695
20
8.2357082574168
30
0
41
1
10
199.794797696865
20
8.41036561774814
30
0
41
1
10
199.844421864538
20
8.58554579371125
30
0
41
1
10
199.892112954096
20
8.76107535926516
30
0
0
SPLINE
5
2E8
100
AcDbEntity
8
1
62
256
6
ByLayer
370
13
48
1
60
0
100
AcDbSpline
70
4
71
3
72
34
73
30
40
0
40
0
40
0
40
0
40
0.109860008811222
40
0.109860008811222
40
0.219720017622444
40
0.219720017622444
40
0.329580026433666
40
0.329580026433666
40
0.384510030839276
40
0.384510030839276
40
0.439440035244888
40
0.439440035244888
40
0.549300044056109
40
0.549300044056109
40
0.659160052867331
40
0.659160052867331
40
0.714090057272942
40
0.714090057272942
40
0.769020061678553
40
0.769020061678553
40
0.878880070489769
40
0.878880070489769
40
0.93381007489538
40
0.93381007489538
40
0.961275077098185
40
0.961275077098185
40
0.988740079300991
40
0.988740079300991
40
1
40
1
40
1
40
1
41
1
10
199.742280931693
20
8.2357082574095
30
0
41
1
10
199.278944819524
20
8.34825734706195
30
0
41
1
10
198.810731728561
20
8.44137316363773
30
0
41
1
10
197.86546919782
20
8.59481057502961
30
0
41
1
10
197.38840700932
20
8.65507538491855
30
0
41
1
10
196.425367478567
20
8.74556935847349
30
0
41
1
10
195.939386640427
20
8.77577435633359
30
0
41
1
10
195.203129721402
20
8.79914746783402
30
0
41
1
10
194.95649108715
20
8.80326927866074
30
0
41
1
10
194.460608454317
20
8.80412771103977
30
0
41
1
10
194.210800753941
20
8.80084165529058
30
0
41
1
10
193.462647952599
20
8.77988581038224
30
0
41
1
10
192.965130847776
20
8.75123494973937
30
0
41
1
10
191.972461530802
20
8.66490911851994
30
0
41
1
10
191.477308599908
20
8.60724668547726
30
0
41
1
10
190.73632350467
20
8.4982417345812
30
0
41
1
10
190.48962000312
20
8.45814362506431
30
0
41
1
10
189.996804516752
20
8.37011073619141
30
0
41
1
10
189.749887174751
20
8.32199693165177
30
0
41
1
10
189.017724423042
20
8.16684858853895
30
0
41
1
10
188.54053310538
20
8.04916618937688
30
0
41
1
10
187.843438425179
20
7.84974813091875
30
0
41
1
10
187.614204399272
20
7.77943597807038
30
0
41
1
10
187.275562243842
20
7.66768513301665
30
0
41
1
10
187.163551666918
20
7.62938479399307
30
0
41
1
10
186.941386970444
20
7.55055140247384
30
0
41
1
10
186.83120753684
20
7.5099997937898
30
0
41
1
10
186.678705860187
20
7.4517025900482
30
0
41
1
10
186.634654209002
20
7.43460743185545
30
0
41
1
10
186.590900956424
20
7.41736307587692
30
0
0
SPLINE
5
2E9
100
AcDbEntity
8
1
62
256
6
ByLayer
370
13
48
1
60
0
100
AcDbSpline
70
4
71
3
72
18
73
14
40
0
40
0
40
0
40
0
40
0.250000000000003
40
0.250000000000003
40
0.375000000000005
40
0.375000000000005
40
0.500000000000008
40
0.500000000000008
40
0.749999999999951
40
0.749999999999951
40
0.874999999999976
40
0.874999999999976
40
1
40
1
40
1
40
1
41
1
10
209.218222874135
20
8.48052841566806
30
0
41
1
10
209.212902324299
20
8.48024957746659
30
0
41
1
10
209.21416626852
20
8.49050802959854
30
0
41
1
10
209.229431364178
20
8.51892636046298
30
0
41
1
10
209.236790018651
20
8.53043086923736
30
0
41
1
10
209.256732277839
20
8.5559292288159
30
0
41
1
10
209.269583358607
20
8.57017401371198
30
0
41
1
10
209.315666620207
20
8.61264102245917
30
0
41
1
10
209.357854314272
20
8.64133376158631
30
0
41
1
10
209.431143279667
20
8.67251903046747
30
0
41
1
10
209.457655393453
20
8.68119701274495
30
0
41
1
10
209.511800116227
20
8.6936785508
30
0
41
1
10
209.539665439594
20
8.6976333731547
30
0
41
1
10
209.568333783928
20
8.69915138376842
30
0
0
SPLINE
5
2EA
100
AcDbEntity
8
1
62
256
6
ByLayer
370
13
48
1
60
0
100
AcDbSpline
70
4
71
3
72
8
73
4
40
0
40
0
40
0
40
0
40
1
40
1
40
1
40
1
41
1
10
196.158756180663
20
2.81309627470384
30
0
41
1
10
193.712536930481
20
3.95376356403779
30
0
41
1
10
191.285867414003
20
5.15616777197883
30
0
41
1
10
188.876671293992
20
6.41375194666148
30
0
0
SPLINE
5
2EB
100
AcDbEntity
8
1
62
256
6
ByLayer
370
13
48
1
60
0
100
AcDbSpline
70
4
71
3
72
10
73
6
40
0
40
0
40
0
40
0
40
0.5
40
0.5
40
1
40
1
40
1
40
1
41
1
10
217.153042717521
20
9.0643468381287
30
0
41
1
10
217.178906601918
20
9.07607022513653
30
0
41
1
10
217.206819114757
20
9.08572250422827
30
0
41
1
10
217.264210755761
20
9.09963418077851
30
0
41
1
10
217.293817215546
20
9.10401023967873
30
0
41
1
10
217.324342502343
20
9.10562657680055
30
0
0
SPLINE
5
2EC
100
AcDbEntity
8
1
62
256
6
ByLayer
370
13
48
1
60
0
100
AcDbSpline
70
4
71
3
72
30
73
26
40
0
40
0
40
0
40
0
40
0.001996002336244
40
0.001996002336244
40
0.0545225285290739
40
0.0545225285290739
40
0.107049054721904
40
0.107049054721904
40
0.159575580914734
40
0.159575580914734
40
0.212102107107564
40
0.212102107107564
40
0.264628633300394
40
0.264628633300394
40
0.369681685686052
40
0.369681685686052
40
0.474734738071711
40
0.474734738071711
40
0.579787790457369
40
0.579787790457369
40
0.684840842843028
40
0.684840842843028
40
0.789893895228685
40
0.789893895228685
40
1
40
1
40
1
40
1
41
1
10
157.737626409711
20
-19.1367264060843
30
0
41
1
10
157.705088434244
20
-19.1446780919328
30
0
41
1
10
157.672551043252
20
-19.1526193847806
30
0
41
1
10
156.783780225521
20
-19.3692588574833
30
0
41
1
10
155.928032632911
20
-19.5708369823229
30
0
41
1
10
154.215636061
20
-19.9573752947927
30
0
41
1
10
153.359132652618
20
-20.142285149167
30
0
41
1
10
151.644436251214
20
-20.4932772407523
30
0
41
1
10
150.786111574422
20
-20.659389830072
30
0
41
1
10
149.064865979856
20
-20.9711188178117
30
0
41
1
10
148.201940550731
20
-21.1167294303277
30
0
41
1
10
146.468674482004
20
-21.3865037293878
30
0
41
1
10
145.598988223657
20
-21.5106401968388
30
0
41
1
10
142.982359413668
20
-21.8531991037644
30
0
41
1
10
141.226622713945
20
-22.0417072333468
30
0
41
1
10
137.692196014888
20
-22.3552921539712
30
0
41
1
10
135.913940400898
20
-22.4806839688021
30
0
41
1
10
132.335665761429
20
-22.6823914014941
30
0
41
1
10
130.534763839491
20
-22.7586050432712
30
0
41
1
10
126.918307867301
20
-22.8733073615318
30
0
41
1
10
125.101694788261
20
-22.9118621460997
30
0
41
1
10
121.452193757304
20
-22.9623047987884
30
0
41
1
10
119.621858054497
20
-22.9741638410313
30
0
41
1
10
114.112712082339
20
-22.9850814937598
30
0
41
1
10
110.415913787905
20
-22.9601511397005
30
0
41
1
10
106.69016
20
-22.9371555353059
30
0
0
SPLINE
5
2ED
100
AcDbEntity
8
1
62
256
6
ByLayer
370
13
48
1
60
0
100
AcDbSpline
70
4
71
3
72
18
73
14
40
0
40
0
40
0
40
0
40
0.249999999999957
40
0.249999999999957
40
0.374999999999936
40
0.374999999999936
40
0.499999999999914
40
0.499999999999914
40
0.749999999999957
40
0.749999999999957
40
0.874999999999978
40
0.874999999999978
40
1
40
1
40
1
40
1
41
1
10
219.412767032725
20
9.21507630502222
30
0
41
1
10
219.470143375315
20
9.21808327172067
30
0
41
1
10
219.52790019997
20
9.21090869215044
30
0
41
1
10
219.609198500554
20
9.18753253437384
30
0
41
1
10
219.635080972485
20
9.17776132722193
30
0
41
1
10
219.683228505424
20
9.15581691092467
30
0
41
1
10
219.705882986987
20
9.14342564016974
30
0
41
1
10
219.765871405469
20
9.10650145068104
30
0
41
1
10
219.796691628691
20
9.08163349351594
30
0
41
1
10
219.828902401286
20
9.05599380071001
30
0
41
1
10
219.837575045891
20
9.04916826788158
30
0
41
1
10
219.850658044537
20
9.04023180506724
30
0
41
1
10
219.855215172145
20
9.03798956025759
30
0
41
1
10
219.857875860781
20
9.03812900104037
30
0
0
SPLINE
5
2EE
100
AcDbEntity
8
1
62
256
6
ByLayer
370
13
48
1
60
0
100
AcDbSpline
70
4
71
3
72
8
73
4
40
0
40
0
40
0
40
0
40
1
40
1
40
1
40
1
41
1
10
200.54883539544
20
10.8870432571686
30
0
41
1
10
200.927445898701
20
10.8969771699175
30
0
41
1
10
201.291573961185
20
10.8765057995394
30
0
41
1
10
201.641349742153
20
10.8246241018325
30
0
0
SPLINE
5
2EF
100
AcDbEntity
8
1
62
256
6
ByLayer
370
13
48
1
60
0
100
AcDbSpline
70
4
71
3
72
14
73
10
40
0
40
0
40
0
40
0
40
0.124999999999982
40
0.124999999999982
40
0.249999999999964
40
0.249999999999964
40
0.499999999999999
40
0.499999999999999
40
1
40
1
40
1
40
1
41
1
10
216.282708723844
20
8.85076243082781
30
0
41
1
10
216.319334960788
20
8.85268193056956
30
0
41
1
10
216.356663465277
20
8.85550655479875
30
0
41
1
10
216.4305441693
20
8.86286195544628
30
0
41
1
10
216.467318261127
20
8.86739732513533
30
0
41
1
10
216.577213947035
20
8.88355827095421
30
0
41
1
10
216.649908900444
20
8.8977300021615
30
0
41
1
10
216.866835960251
20
8.95060082548184
30
0
41
1
10
217.009843189205
20
8.99943843287784
30
0
41
1
10
217.153042717521
20
9.0643468381287
30
0
0
SPLINE
5
2F0
100
AcDbEntity
8
1
62
256
6
ByLayer
370
13
48
1
60
0
100
AcDbSpline
70
4
71
3
72
10
73
6
40
0
40
0
40
0
40
0
40
0.5
40
0.5
40
1
40
1
40
1
40
1
41
1
10
196.449408817236
20
1.05484209256113
30
0
41
1
10
196.93941572396
20
0.748274805668103
30
0
41
1
10
197.448734298907
20
0.491717673803208
30
0
41
1
10
198.507025296444
20
0.0814964485567202
30
0
41
1
10
199.055919513683
20
-0.072371034881769
30
0
41
1
10
199.627106212144
20
-0.168324640642822
30
0
0
SPLINE
5
2F1
100
AcDbEntity
8
1
62
256
6
ByLayer
370
13
48
1
60
0
100
AcDbSpline
70
4
71
3
72
8
73
4
40
0
40
0
40
0
40
0
40
1
40
1
40
1
40
1
41
1
10
188.511079946355
20
6.537705405298
30
0
41
1
10
188.633002124385
20
6.49595492033353
30
0
41
1
10
188.754866444836
20
6.45463311532006
30
0
41
1
10
188.876671293992
20
6.41375194666151
30
0
0
SPLINE
5
2F2
100
AcDbEntity
8
1
62
256
6
ByLayer
370
13
48
1
60
0
100
AcDbSpline
70
4
71
3
72
8
73
4
40
0
40
0
40
0
40
0
40
1
40
1
40
1
40
1
41
1
10
106.69016
20
22.9788927399711
30
0
41
1
10
106.377725123136
20
22.980046015175
30
0
41
1
10
106.065199900571
20
22.9811196591871
30
0
41
1
10
105.752584585812
20
22.9821266343888
30
0
0
SPLINE
5
2F3
100
AcDbEntity
8
1
62
256
6
ByLayer
370
13
48
1
60
0
100
AcDbSpline
70
4
71
3
72
30
73
26
40
0
40
0
40
0
40
0
40
0.0671456994236118
40
0.0671456994236118
40
0.134291398847223
40
0.134291398847223
40
0.268582797694445
40
0.268582797694445
40
0.402874196541667
40
0.402874196541667
40
0.470019895965277
40
0.470019895965277
40
0.537165595388887
40
0.537165595388887
40
0.671456994236107
40
0.671456994236107
40
0.738602693659717
40
0.738602693659717
40
0.805748393083326
40
0.805748393083326
40
0.872894092506935
40
0.872894092506935
40
0.940039791930544
40
0.940039791930544
40
1
40
1
40
1
40
1
41
1
10
195.761440023704
20
22.706636487756
30
0
41
1
10
194.858534016034
20
22.7690473700957
30
0
41
1
10
193.955663972567
20
22.8208185378571
30
0
41
1
10
192.149675406544
20
22.9029187138131
30
0
41
1
10
191.246660061064
20
22.9332365246972
30
0
41
1
10
188.540161651775
20
22.9917139977392
30
0
41
1
10
186.737999560378
20
22.9873884015732
30
0
41
1
10
183.133398482186
20
22.8922028454362
30
0
41
1
10
181.330901804255
20
22.8013750266558
30
0
41
1
10
178.623875750592
20
22.6011938341496
30
0
41
1
10
177.720639751012
20
22.523769897822
30
0
41
1
10
175.914846311769
20
22.3479257008007
30
0
41
1
10
175.012432647149
20
22.2495306243559
30
0
41
1
10
172.306148589002
20
21.9232935762099
30
0
41
1
10
170.50307921395
20
21.6645523543225
30
0
41
1
10
167.799139487223
20
21.214965625744
30
0
41
1
10
166.897990152286
20
21.0548059552433
30
0
41
1
10
165.096048554343
20
20.7135687432379
30
0
41
1
10
164.19530176461
20
20.5323984266462
30
0
41
1
10
162.39159949196
20
20.1515082642542
30
0
41
1
10
161.489132822282
20
19.9519024278754
30
0
41
1
10
159.682477471623
20
19.5381838435869
30
0
41
1
10
158.778054777508
20
19.3239773017577
30
0
41
1
10
157.063057012465
20
18.9065852258339
30
0
41
1
10
156.252740135266
20
18.7047442509355
30
0
41
1
10
155.440930589416
20
18.4986222623368
30
0
0
SPLINE
5
2F4
100
AcDbEntity
8
1
62
256
6
ByLayer
370
13
48
1
60
0
100
AcDbSpline
70
4
71
3
72
18
73
14
40
0
40
0
40
0
40
0
40
0.125
40
0.125
40
0.250000000000001
40
0.250000000000001
40
0.500000000000001
40
0.500000000000001
40
0.625000000000001
40
0.625000000000001
40
0.75
40
0.75
40
1
40
1
40
1
40
1
41
1
10
201.690554965115
20
10.8152697127113
30
0
41
1
10
201.795219057487
20
10.7467228426981
30
0
41
1
10
201.89789913927
20
10.6737825761631
30
0
41
1
10
202.096436358682
20
10.5209767213611
30
0
41
1
10
202.191596624676
20
10.4417174010458
30
0
41
1
10
202.465637214225
20
10.1963605722045
30
0
41
1
10
202.633142445568
20
10.0227568774362
30
0
41
1
10
202.864497913319
20
9.75091835289157
30
0
41
1
10
202.938283075213
20
9.65838296739128
30
0
41
1
10
203.079482934428
20
9.46988250866838
30
0
41
1
10
203.1471648091
20
9.37348674357273
30
0
41
1
10
203.338083312586
20
9.08410682855009
30
0
41
1
10
203.45002494986
20
8.89047938640431
30
0
41
1
10
203.548172470368
20
8.69641375418189
30
0
0
SPLINE
5
2F5
100
AcDbEntity
8
1
62
256
6
ByLayer
370
13
48
1
60
0
100
AcDbSpline
70
4
71
3
72
8
73
4
40
0
40
0
40
0
40
0
40
1
40
1
40
1
40
1
41
1
10
28.8036
20
-23.1296922938082
30
0
41
1
10
28.2184385403299
20
-23.1296749525958
30
0
41
1
10
27.6334379813724
20
-23.1370970305113
30
0
41
1
10
27.0485981533615
20
-23.1519507973623
30
0
0
SPLINE
5
2F6
100
AcDbEntity
8
1
62
256
6
ByLayer
370
13
48
1
60
0
100
AcDbSpline
70
4
71
3
72
8
73
4
40
0
40
0
40
0
40
0
40
1
40
1
40
1
40
1
41
1
10
29.2536
20
-22.4941246939027
30
0
41
1
10
29.1069333324962
20
-22.4941771429727
30
0
41
1
10
28.9602666657938
20
-22.4942312670728
30
0
41
1
10
28.8136
20
-22.4942871191261
30
0
0
SPLINE
5
2F7
100
AcDbEntity
8
1
62
256
6
ByLayer
370
13
48
1
60
0
100
AcDbSpline
70
4
71
3
72
36
73
32
40
0
40
0
40
0
40
0
40
0.0064840002555544
40
0.0064840002555544
40
0.0587743160315781
40
0.0587743160315781
40
0.111064631807602
40
0.111064631807602
40
0.137209789695614
40
0.137209789695614
40
0.163354947583625
40
0.163354947583625
40
0.267935579135671
40
0.267935579135671
40
0.320225894911694
40
0.320225894911694
40
0.346371052799706
40
0.346371052799706
40
0.372516210687718
40
0.372516210687718
40
0.424806526463742
40
0.424806526463742
40
0.477096842239765
40
0.477096842239765
40
0.581677473791812
40
0.581677473791812
40
0.686258105343859
40
0.686258105343859
40
0.790838736895906
40
0.790838736895906
40
1
40
1
40
1
40
1
41
1
10
128.814612368414
20
-12.1798663142305
30
0
41
1
10
128.601771633795
20
-12.19482494581
30
0
41
1
10
128.388886689056
20
-12.2096215606668
30
0
41
1
10
126.458794285992
20
-12.3423672450471
30
0
41
1
10
124.738873640633
20
-12.4508488611165
30
0
41
1
10
121.292441305264
20
-12.6451858441026
30
0
41
1
10
119.565906208307
20
-12.7309237368131
30
0
41
1
10
116.970320554904
20
-12.840244854574
30
0
41
1
10
116.104151610412
20
-12.8734213185888
30
0
41
1
10
114.369796840831
20
-12.9332942875264
30
0
41
1
10
113.501789796986
20
-12.9600236734019
30
0
41
1
10
109.162918380969
20
-13.0788948173464
30
0
41
1
10
105.690842842695
20
-13.12852573333
30
0
41
1
10
100.481371195533
20
-13.1720043372681
30
0
41
1
10
98.7446515339282
20
-13.1810989822522
30
0
41
1
10
96.1392062335042
20
-13.1885519374898
30
0
41
1
10
95.2706583204605
20
-13.1900183956035
30
0
41
1
10
93.5334648132947
20
-13.1908557465331
30
0
41
1
10
92.6648318013094
20
-13.1903638061243
30
0
41
1
10
90.0589394507019
20
-13.1902868816212
30
0
41
1
10
88.3216535876059
20
-13.1909268836869
30
0
41
1
10
84.8470474300159
20
-13.190943663524
30
0
41
1
10
83.1097335189413
20
-13.1909042889492
30
0
41
1
10
77.8978169421613
20
-13.1909490609645
30
0
41
1
10
74.4232259483332
20
-13.1909133752308
30
0
41
1
10
67.4740573369261
20
-13.1907836656158
30
0
41
1
10
63.9994798032428
20
-13.1906994343714
30
0
41
1
10
57.0503133535894
20
-13.1907299170649
30
0
41
1
10
53.575725008442
20
-13.1908404675011
30
0
41
1
10
43.1519528183125
20
-13.1909890787512
30
0
41
1
10
36.2027622173019
20
-13.1908886808156
30
0
41
1
10
29.2536000000002
20
-13.1908811642157
30
0
0
SPLINE
5
2F8
100
AcDbEntity
8
1
62
256
6
ByLayer
370
13
48
1
60
0
100
AcDbSpline
70
4
71
3
72
10
73
6
40
0
40
0
40
0
40
0
40
0.462996052046375
40
0.462996052046375
40
1
40
1
40
1
40
1
41
1
10
29.2536
20
-22.4941247476125
30
0
41
1
10
29.2536
20
-21.0583363908348
30
0
41
1
10
29.2536
20
-19.622548037144
30
0
41
1
10
29.2536
20
-16.5214668416146
30
0
41
1
10
29.2536
20
-14.8561740008411
30
0
41
1
10
29.2536
20
-13.1908811642157
30
0
0
SPLINE
5
2F9
100
AcDbEntity
8
1
62
256
6
ByLayer
370
13
48
1
60
0
100
AcDbSpline
70
4
71
3
72
8
73
4
40
0
40
0
40
0
40
0
40
1
40
1
40
1
40
1
41
1
10
208.058118329176
20
8.39040475504626
30
0
41
1
10
208.009934455341
20
8.38879751294326
30
0
41
1
10
207.961792969864
20
8.38792004048116
30
0
41
1
10
207.913731423851
20
8.38819968348793
30
0
0
SPLINE
5
2FA
100
AcDbEntity
8
1
62
256
6
ByLayer
370
13
48
1
60
0
100
AcDbSpline
70
4
71
3
72
46
73
42
40
0
40
0
40
0
40
0
40
0.0432273761476956
40
0.126464157098023
40
0.215831155595057
40
0.311420532420147
40
0.413262325538027
40
0.521319825505874
40
0.530933594280939
40
0.540848518692687
40
0.551065316647198
40
0.56158468635904
40
0.572407304306924
40
0.583533822955726
40
0.594964868260987
40
0.606701036969352
40
0.618742893726424
40
0.631090968001989
40
0.64374575084145
40
0.656707691451494
40
0.669977193627529
40
0.683554612030054
40
0.697440248317082
40
0.711634347139735
40
0.726137092008333
40
0.740948601036633
40
0.756068922572257
40
0.771498030721942
40
0.787235820780772
40
0.803282104575368
40
0.819636605731672
40
0.836298954878924
40
0.853268684802265
40
0.870545225557457
40
0.888127899562221
40
0.906015916679796
40
0.924208369311523
40
0.942704227516448
40
0.961502334177209
40
0.98060140023277
40
1
40
1
40
1
40
1
41
1
10
25.4852678596738
20
-8.47333537090825
30
0
41
1
10
25.5169586653226
20
-8.54184272641623
30
0
41
1
10
25.6122470518922
20
-8.74356537028098
30
0
41
1
10
25.7873136261913
20
-9.09382152928606
30
0
41
1
10
26.026516059708
20
-9.5359904585051
30
0
41
1
10
26.3063052304443
20
-10.0130177611758
30
0
41
1
10
26.6292417920735
20
-10.5214819901906
30
0
41
1
10
26.877959716591
20
-10.8838271761826
30
0
41
1
10
27.0265701083373
20
-11.0921722495355
30
0
41
1
10
27.0613363692637
20
-11.1406918936023
30
0
41
1
10
27.0973083266941
20
-11.1906053416906
30
0
41
1
10
27.1345043087342
20
-11.2418994536187
30
0
41
1
10
27.172946571169
20
-11.2945554366881
30
0
41
1
10
27.2126556199393
20
-11.3485543753902
30
0
41
1
10
27.2536516661344
20
-11.4038756012046
30
0
41
1
10
27.2959540790484
20
-11.460497066179
30
0
41
1
10
27.3395813934947
20
-11.5183951561251
30
0
41
1
10
27.3845511568574
20
-11.5775446604237
30
0
41
1
10
27.4308798154171
20
-11.6379186984861
30
0
41
1
10
27.4785825843386
20
-11.6994886589122
30
0
41
1
10
27.5276733168898
20
-11.7622241360038
30
0
41
1
10
27.5781643686566
20
-11.8260928681925
30
0
41
1
10
27.630066458059
20
-11.8910606774165
30
0
41
1
10
27.6833885229627
20
-11.9570914100269
30
0
41
1
10
27.7381375736359
20
-12.0241468793893
30
0
41
1
10
27.7943185422052
20
-12.0921868104734
30
0
41
1
10
27.8519341288316
20
-12.161168786694
30
0
41
1
10
27.9109846448464
20
-12.2310481993156
30
0
41
1
10
27.9714678531162
20
-12.3017781996173
30
0
41
1
10
28.0333788059706
20
-12.3733096544881
30
0
41
1
10
28.0967096809415
20
-12.4455911043523
30
0
41
1
10
28.1614496150545
20
-12.5185687291531
30
0
41
1
10
28.2275845367155
20
-12.592186301946
30
0
41
1
10
28.2950970009265
20
-12.6663852101153
30
0
41
1
10
28.3639660081082
20
-12.7411042390167
30
0
41
1
10
28.4341668845678
20
-12.8162802892214
30
0
41
1
10
28.5056709283754
20
-12.8918455432102
30
0
41
1
10
28.5784459575687
20
-12.9677382492905
30
0
41
1
10
28.6524534136509
20
-13.0438614363336
30
0
41
1
10
28.7276586481928
20
-13.1202407676789
30
0
41
1
10
28.7781552519757
20
-13.170637047354
30
0
41
1
10
28.8036
20
-13.1960312430353
30
0
0
SPLINE
5
2FB
100
AcDbEntity
8
1
62
256
6
ByLayer
370
13
48
1
60
0
100
AcDbSpline
70
4
71
3
72
8
73
4
40
0
40
0
40
0
40
0
40
1
40
1
40
1
40
1
41
1
10
27.0485981485312
20
-22.5085031688946
30
0
41
1
10
27.0485981501196
20
-22.722985711737
30
0
41
1
10
27.0485981517298
20
-22.9374682545625
30
0
41
1
10
27.0485981533617
20
-23.1519507973711
30
0
0
SPLINE
5
2FC
100
AcDbEntity
8
1
62
256
6
ByLayer
370
13
48
1
60
0
100
AcDbSpline
70
4
71
3
72
14
73
10
40
0
40
0
40
0
40
0
40
0.25
40
0.25
40
0.5
40
0.5
40
0.75
40
0.75
40
1
40
1
40
1
40
1
41
1
10
208.414599543143
20
8.33786755473443
30
0
41
1
10
208.442215734162
20
8.33061472539123
30
0
41
1
10
208.467046305561
20
8.32206906547759
30
0
41
1
10
208.508786643865
20
8.30325546280869
30
0
41
1
10
208.52628097267
20
8.29270349131616
30
0
41
1
10
208.552567483606
20
8.27063877756839
30
0
41
1
10
208.561520024574
20
8.25915982637204
30
0
41
1
10
208.571601406737
20
8.235368171191
30
0
41
1
10
208.572574349004
20
8.223043909654
30
0
41
1
10
208.569832509097
20
8.21101853869789
30
0
0
SPLINE
5
2FD
100
AcDbEntity
8
1
62
256
6
ByLayer
370
13
48
1
60
0
100
AcDbSpline
70
4
71
3
72
15
73
11
40
0
40
0
40
0
40
0
40
0.500000000000002
40
0.500000000000002
40
0.750000000000002
40
0.750000000000002
40
0.812500000000002
40
0.812500000000002
40
0.875000000000001
40
1
40
1
40
1
40
1
41
1
10
14.2911060795594
20
-23.9980787080492
30
0
41
1
10
15.9137141285736
20
-23.8869442353627
30
0
41
1
10
17.5352234931976
20
-23.7652498038705
30
0
41
1
10
19.9658235793108
20
-23.5667150671686
30
0
41
1
10
20.7757192327216
20
-23.4978731909045
30
0
41
1
10
21.7878228154133
20
-23.4084606111672
30
0
41
1
10
21.9902142147347
20
-23.3901514146559
30
0
41
1
10
22.3950579476489
20
-23.3544198544217
30
0
41
1
10
23.0024922318485
20
-23.3032775403359
30
0
41
1
10
23.6104329288322
20
-23.2595055196987
30
0
41
1
10
24.0159522070469
20
-23.2336057947973
30
0
0
SPLINE
5
2FE
100
AcDbEntity
8
1
62
256
6
ByLayer
370
13
48
1
60
0
100
AcDbSpline
70
4
71
3
72
14
73
10
40
0
40
0
40
0
40
0
40
0.5
40
0.5
40
0.750000000000039
40
0.750000000000039
40
0.875000000000019
40
0.875000000000019
40
1
40
1
40
1
40
1
41
1
10
211.836566613709
20
8.78572213191649
30
0
41
1
10
211.995170997127
20
8.73663059945852
30
0
41
1
10
212.153513164593
20
8.70358604471727
30
0
41
1
10
212.392355969918
20
8.67460110789261
30
0
41
1
10
212.472180872772
20
8.66842260364865
30
0
41
1
10
212.592406325107
20
8.66432179565115
30
0
41
1
10
212.632562798394
20
8.66381818603872
30
0
41
1
10
212.713068354884
20
8.66455382645648
30
0
41
1
10
212.753657432863
20
8.66581268969153
30
0
41
1
10
212.793390009808
20
8.66789498581437
30
0
0
SPLINE
5
2FF
100
AcDbEntity
8
1
62
256
6
ByLayer
370
13
48
1
60
0
100
AcDbSpline
70
4
71
3
72
12
73
8
40
0
40
0
40
0
40
0
40
0.5
40
0.5
40
0.75
40
0.75
40
1
40
1
40
1
40
1
41
1
10
5.00980000000038
20
-4.94974746830587
30
0
41
1
10
5.88227613198528
20
-4.74508531093707
30
0
41
1
10
6.74650155244032
20
-4.51485670099433
30
0
41
1
10
8.02464631095242
20
-4.11313804381348
30
0
41
1
10
8.44762737081123
20
-3.96972752399879
30
0
41
1
10
9.28554710201223
20
-3.65798556162952
30
0
41
1
10
9.70052863792822
20
-3.48978694338837
30
0
41
1
10
10.1098
20
-3.30389422831169
30
0
0
SPLINE
5
300
100
AcDbEntity
8
1
62
256
6
ByLayer
370
13
48
1
60
0
100
AcDbSpline
70
4
71
3
72
8
73
4
40
0
40
0
40
0
40
0
40
1
40
1
40
1
40
1
41
1
10
28.8036
20
-8.3111338213501
30
0
41
1
10
28.2184349189744
20
-8.31089714701832
30
0
41
1
10
27.6334343994504
20
-8.31092812243338
30
0
41
1
10
27.0485982610413
20
-8.31122573084096
30
0
0
SPLINE
5
301
100
AcDbEntity
8
1
62
256
6
ByLayer
370
13
48
1
60
0
100
AcDbSpline
70
4
71
3
72
8
73
4
40
0
40
0
40
0
40
0
40
1
40
1
40
1
40
1
41
1
10
199.627106212145
20
-0.168324640642851
30
0
41
1
10
200.010811646212
20
-0.25700191960928
30
0
41
1
10
200.39640037077
20
-0.318513997675922
30
0
41
1
10
200.783846331968
20
-0.352489115636075
30
0
0
SPLINE
5
302
100
AcDbEntity
8
1
62
256
6
ByLayer
370
13
48
1
60
0
100
AcDbSpline
70
4
71
2
72
12
73
9
40
0
40
0
40
0
40
0.310560075400818
40
0.310560075400818
40
0.621120150801637
40
0.621120150801637
40
0.931680226202456
40
0.931680226202456
40
1
40
1
40
1
41
1
10
28.8035999999993
20
-13.1960312430353
30
0
41
1
10
25.6712290630384
20
-13.7378034667961
30
0
41
1
10
22.9353151286934
20
-15.0593052549022
30
0
41
1
10
20.1097281109521
20
-16.4241209567119
30
0
41
1
10
17.9955561916571
20
-18.4697654475292
30
0
41
1
10
15.9063108365227
20
-20.4912913280363
30
0
41
1
10
14.7335789191537
20
-22.9617917727681
30
0
41
1
10
14.4894022316123
20
-23.4761792523188
30
0
41
1
10
14.291185712748
20
-23.9978691147796
30
0
0
SPLINE
5
303
100
AcDbEntity
8
1
62
256
6
ByLayer
370
13
48
1
60
0
100
AcDbSpline
70
4
71
3
72
8
73
4
40
0
40
0
40
0
40
0
40
1
40
1
40
1
40
1
41
1
10
203.241486764566
20
6.53740297349461
30
0
41
1
10
203.301184927283
20
6.51615029214815
30
0
41
1
10
203.361653948994
20
6.49730399931406
30
0
41
1
10
203.422893699141
20
6.48083258743182
30
0
0
SPLINE
5
304
100
AcDbEntity
8
1
62
256
6
ByLayer
370
13
48
1
60
0
100
AcDbSpline
70
4
71
3
72
16
73
12
40
0
40
0
40
0
40
0
40
0.249999999999995
40
0.249999999999995
40
0.499999999999991
40
0.499999999999991
40
0.624999999999993
40
0.624999999999993
40
0.749999999999995
40
0.749999999999995
40
1
40
1
40
1
40
1
41
1
10
203.422893699141
20
6.48083258743182
30
0
41
1
10
203.981594373026
20
6.33056109062656
30
0
41
1
10
204.540219700033
20
6.22766172203478
30
0
41
1
10
205.657875750657
20
6.10708250673403
30
0
41
1
10
206.216900696951
20
6.08950131307705
30
0
41
1
10
207.055619939052
20
6.12576743810308
30
0
41
1
10
207.335679058163
20
6.14840273495048
30
0
41
1
10
207.893747055229
20
6.21474087954073
30
0
41
1
10
208.170201541252
20
6.25822217802329
30
0
41
1
10
208.991795433924
20
6.4189221400118
30
0
41
1
10
209.529227642923
20
6.5662553675873
30
0
41
1
10
210.05552408468
20
6.75385269572524
30
0
0
SPLINE
5
305
100
AcDbEntity
8
1
62
256
6
ByLayer
370
13
48
1
60
0
100
AcDbSpline
70
4
71
3
72
14
73
10
40
0
40
0
40
0
40
0
40
0.25
40
0.25
40
0.5
40
0.5
40
0.75
40
0.75
40
1
40
1
40
1
40
1
41
1
10
197.6380895606
20
2.1686765618393
30
0
41
1
10
197.859003287674
20
2.07824972595134
30
0
41
1
10
198.084047795883
20
2.00294453267762
30
0
41
1
10
198.542380412411
20
1.88219591590641
30
0
41
1
10
198.775978387097
20
1.83671258929218
30
0
41
1
10
199.250569373308
20
1.77711470660529
30
0
41
1
10
199.486804039643
20
1.76355632410534
30
0
41
1
10
199.957312715915
20
1.76778815262625
30
0
41
1
10
200.191585866279
20
1.7855836637151
30
0
41
1
10
200.424824302199
20
1.81935419783858
30
0
0
SPLINE
5
306
100
AcDbEntity
8
1
62
256
6
ByLayer
370
13
48
1
60
0
100
AcDbSpline
70
4
71
3
72
8
73
4
40
0
40
0
40
0
40
0
40
1
40
1
40
1
40
1
41
1
10
0.0999999999999801
20
-4.94974746830576
30
0
41
1
10
0.0649210758567591
20
-4.77434389911281
30
0
41
1
10
0.0315748582919468
20
-4.59865317079695
30
0
41
1
10
0
20
-4.42266887749926
30
0
0
SPLINE
5
307
100
AcDbEntity
8
1
62
256
6
ByLayer
370
13
48
1
60
0
100
AcDbSpline
70
2053
71
3
72
95
73
91
40
0
40
0
40
0
40
0
40
0.0312499999999951
40
0.0312499999999951
40
0.0468749999999926
40
0.0468749999999926
40
0.0624999999999902
40
0.0624999999999902
40
0.0937499999999795
40
0.0937499999999795
40
0.109374999999974
40
0.109374999999974
40
0.124999999999969
40
0.124999999999969
40
0.156249999999958
40
0.156249999999958
40
0.187499999999948
40
0.187499999999948
40
0.203124999999941
40
0.203124999999941
40
0.218749999999935
40
0.218749999999935
40
0.249999999999922
40
0.249999999999922
40
0.265624999999915
40
0.265624999999915
40
0.281249999999908
40
0.281249999999908
40
0.312499999999896
40
0.312499999999896
40
0.328124999999891
40
0.328124999999891
40
0.343749999999886
40
0.343749999999886
40
0.37499999999988
40
0.37499999999988
40
0.406249999999873
40
0.406249999999873
40
0.42187499999987
40
0.42187499999987
40
0.437499999999867
40
0.437499999999867
40
0.468749999999861
40
0.468749999999861
40
0.484374999999858
40
0.484374999999858
40
0.499999999999854
40
0.499999999999854
40
0.531249999999854
40
0.531249999999854
40
0.546874999999857
40
0.546874999999857
40
0.56249999999986
40
0.578124999999863
40
0.578124999999863
40
0.593749999999866
40
0.593749999999866
40
0.624999999999872
40
0.624999999999872
40
0.640624999999878
40
0.640624999999878
40
0.656249999999883
40
0.656249999999883
40
0.687499999999893
40
0.687499999999893
40
0.718749999999904
40
0.718749999999904
40
0.734374999999909
40
0.734374999999909
40
0.749999999999914
40
0.749999999999914
40
0.781249999999925
40
0.781249999999925
40
0.79687499999993
40
0.79687499999993
40
0.812499999999935
40
0.812499999999935
40
0.843749999999946
40
0.843749999999946
40
0.874999999999957
40
0.874999999999957
40
0.906249999999968
40
0.906249999999968
40
0.921874999999973
40
0.921874999999973
40
0.937499999999978
40
0.937499999999978
40
0.968749999999989
40
0.968749999999989
40
1
40
1
40
1
40
1
41
1
10
214.522789113513
20
-2.66544823563058
30
0
41
1
10
214.665277344236
20
-2.66544823563058
30
0
41
1
10
214.805252491459
20
-2.68005792025585
30
0
41
1
10
215.011603999963
20
-2.72295201152153
30
0
41
1
10
215.079781162375
20
-2.74077429026846
30
0
41
1
10
215.214891327763
20
-2.78364050794559
30
0
41
1
10
215.28166974003
20
-2.80868910240295
30
0
41
1
10
215.475562088223
20
-2.89290501742133
30
0
41
1
10
215.597852816101
20
-2.96151091910031
30
0
41
1
10
215.770890174667
20
-3.08294571240876
30
0
41
1
10
215.827082131962
20
-3.12678912272969
30
0
41
1
10
215.933711192509
20
-3.21899587977049
30
0
41
1
10
215.984355362594
20
-3.26745929513666
30
0
41
1
10
216.128513544808
20
-3.41969917521502
30
0
41
1
10
216.214629444774
20
-3.53075457117058
30
0
41
1
10
216.36445592517
20
-3.76927124737898
30
0
41
1
10
216.42648843082
20
-3.89383670277408
30
0
41
1
10
216.501270449677
20
-4.08813154183656
30
0
41
1
10
216.523131093058
20
-4.15414702852183
30
0
41
1
10
216.560638174889
20
-4.28870150919013
30
0
41
1
10
216.576184917431
20
-4.35701976943906
30
0
41
1
10
216.612719852836
20
-4.56162603362992
30
0
41
1
10
216.624069039942
20
-4.69884234329851
30
0
41
1
10
216.621979241952
20
-4.90583526961063
30
0
41
1
10
216.618034681673
20
-4.9753597306657
30
0
41
1
10
216.603737025203
20
-5.11306829469018
30
0
41
1
10
216.593438527153
20
-5.18109119734152
30
0
41
1
10
216.553377311294
20
-5.38274815592055
30
0
41
1
10
216.51453455696
20
-5.5139909729487
30
0
41
1
10
216.437627362034
20
-5.7060117532319
30
0
41
1
10
216.408779928948
20
-5.76928541673399
30
0
41
1
10
216.345920145198
20
-5.89163999450642
30
0
41
1
10
216.311790859948
20
-5.95105151453694
30
0
41
1
10
216.201363796901
20
-6.12405834151389
30
0
41
1
10
216.117114328267
20
-6.23248081025537
30
0
41
1
10
215.925711375569
20
-6.4346286970999
30
0
41
1
10
215.820975419806
20
-6.52563888535283
30
0
41
1
10
215.652095698006
20
-6.64557151987569
30
0
41
1
10
215.593734965935
20
-6.68286195514369
30
0
41
1
10
215.472706694144
20
-6.75187221866452
30
0
41
1
10
215.409664402615
20
-6.78375231287689
30
0
41
1
10
215.2164070918
20
-6.86925233010501
30
0
41
1
10
215.083489601115
20
-6.9124203805471
30
0
41
1
10
214.877969920709
20
-6.95645432995485
30
0
41
1
10
214.808432277334
20
-6.96765436266858
30
0
41
1
10
214.667196787451
20
-6.98277833759957
30
0
41
1
10
214.596028627952
20
-6.98660117394471
30
0
41
1
10
214.384570123838
20
-6.98688961505431
30
0
41
1
10
214.24483712216
20
-6.97245903420273
30
0
41
1
10
214.037104660167
20
-6.92874336150663
30
0
41
1
10
213.968214925071
20
-6.91041432849772
30
0
41
1
10
213.834351651878
20
-6.86728662634621
30
0
41
1
10
213.703538958506
20
-6.81753520975744
30
0
41
1
10
213.578635428716
20
-6.75491232587342
30
0
41
1
10
213.456678943888
20
-6.68584517859131
30
0
41
1
10
213.397090307182
20
-6.64797954762477
30
0
41
1
10
213.226434805811
20
-6.52723615097128
30
0
41
1
10
213.122067802897
20
-6.43660731307054
30
0
41
1
10
212.978977391064
20
-6.28599622333036
30
0
41
1
10
212.933346916258
20
-6.23305483550695
30
0
41
1
10
212.848092724741
20
-6.12398528594522
30
0
41
1
10
212.808354941269
20
-6.067789067777
30
0
41
1
10
212.697494012931
20
-5.89436356602488
30
0
41
1
10
212.634644345142
20
-5.77234228056938
30
0
41
1
10
212.531382472623
20
-5.51514999317297
30
0
41
1
10
212.492371115657
20
-5.38336220795208
30
0
41
1
10
212.452279118702
20
-5.18191331880331
30
0
41
1
10
212.441988799358
20
-5.11408237005699
30
0
41
1
10
212.42767508017
20
-4.97702623900352
30
0
41
1
10
212.42365504691
20
-4.90744403076678
30
0
41
1
10
212.42143645217
20
-4.69941930858482
30
0
41
1
10
212.432835360374
20
-4.56219972708595
30
0
41
1
10
212.469077262405
20
-4.35857031778679
30
0
41
1
10
212.484369631343
20
-4.29106331140369
30
0
41
1
10
212.521616040975
20
-4.1568247019768
30
0
41
1
10
212.543686676622
20
-4.08988251836362
30
0
41
1
10
212.618692889496
20
-3.89459784406279
30
0
41
1
10
212.680623581196
20
-3.77039801245678
30
0
41
1
10
212.828577526818
20
-3.53420306020163
30
0
41
1
10
212.915760806572
20
-3.42124254472924
30
0
41
1
10
213.108216777297
20
-3.21766647410897
30
0
41
1
10
213.213803182035
20
-3.12601713955061
30
0
41
1
10
213.386599291289
20
-3.00424393621921
30
0
41
1
10
213.446971897281
20
-2.96611610707325
30
0
41
1
10
213.570164081008
20
-2.89685493107521
30
0
41
1
10
213.633139974276
20
-2.86556122555177
30
0
41
1
10
213.826130173401
20
-2.78151927347054
30
0
41
1
10
213.960460658901
20
-2.73844453385851
30
0
41
1
10
214.239239155709
20
-2.68007682242219
30
0
41
1
10
214.380300882791
20
-2.66544823563058
30
0
41
1
10
214.522789113513
20
-2.66544823563058
30
0
0
SPLINE
5
308
100
AcDbEntity
8
1
62
256
6
ByLayer
370
13
48
1
60
0
100
AcDbSpline
70
4
71
3
72
14
73
10
40
0
40
0
40
0
40
0
40
0.125
40
0.125
40
0.25
40
0.25
40
0.5
40
0.5
40
1
40
1
40
1
40
1
41
1
10
24.0056483599732
20
-8.90857359972875
30
0
41
1
10
23.6005600911011
20
-8.93069590731625
30
0
41
1
10
23.1956966361089
20
-8.95561223266995
30
0
41
1
10
22.3864185428284
20
-9.01102283899931
30
0
41
1
10
21.9820882722873
20
-9.04256565392097
30
0
41
1
10
20.7688399678794
20
-9.13399394300023
30
0
41
1
10
19.9597937921753
20
-9.19265751054013
30
0
41
1
10
17.5317452094991
20
-9.36184452547027
30
0
41
1
10
15.9119390156189
20
-9.46555799980672
30
0
41
1
10
14.2910362713309
20
-9.56028042330829
30
0
0
SPLINE
5
309
100
AcDbEntity
8
1
62
256
6
ByLayer
370
13
48
1
60
0
100
AcDbSpline
70
4
71
3
72
18
73
14
40
0
40
0
40
0
40
0
40
0.124999999999988
40
0.124999999999988
40
0.249999999999976
40
0.249999999999976
40
0.374999999999963
40
0.374999999999963
40
0.499999999999951
40
0.499999999999951
40
0.749999999999976
40
0.749999999999976
40
1
40
1
40
1
40
1
41
1
10
208.074549027962
20
7.31052806865682
30
0
41
1
10
208.061587875749
20
7.29774735901299
30
0
41
1
10
208.053233985656
20
7.28870658781685
30
0
41
1
10
208.048353281614
20
7.2797750346121
30
0
41
1
10
208.051728357926
20
7.27971815805529
30
0
41
1
10
208.068059610003
20
7.28727166479564
30
0
41
1
10
208.081099549352
20
7.29489449347852
30
0
41
1
10
208.113059509066
20
7.31559336850373
30
0
41
1
10
208.132263314154
20
7.32884906594543
30
0
41
1
10
208.19532858426
20
7.3750484381238
30
0
41
1
10
208.243358883469
20
7.41335934225589
30
0
41
1
10
208.346162336557
20
7.50481644293308
30
0
41
1
10
208.398228599887
20
7.55556308450684
30
0
41
1
10
208.449956732343
20
7.61185615848902
30
0
0
SPLINE
5
30A
100
AcDbEntity
8
1
62
256
6
ByLayer
370
13
48
1
60
0
100
AcDbSpline
70
4
71
3
72
8
73
4
40
0
40
0
40
0
40
0
40
1
40
1
40
1
40
1
41
1
10
1.42E-14
20
4.42266887749923
30
0
41
1
10
0.0315947615411005
20
4.59876410270371
30
0
41
1
10
0.0649429983480019
20
4.77445351716128
30
0
41
1
10
0.0999999999999943
20
4.94974746830576
30
0
0
SPLINE
5
30B
100
AcDbEntity
8
1
62
256
6
ByLayer
370
13
48
1
60
0
100
AcDbSpline
70
4
71
3
72
12
73
8
40
0
40
0
40
0
40
0
40
0.5
40
0.5
40
0.75
40
0.75
40
1
40
1
40
1
40
1
41
1
10
203.548172470368
20
8.69641375418158
30
0
41
1
10
203.602079473917
20
9.02776098601825
30
0
41
1
10
203.625152441122
20
9.36041746866451
30
0
41
1
10
203.594996371049
20
9.86215221568321
30
0
41
1
10
203.573656370794
20
10.0308415485447
30
0
41
1
10
203.506004128271
20
10.3590362955144
30
0
41
1
10
203.459772405123
20
10.5195428022127
30
0
41
1
10
203.399322451247
20
10.6759337671616
30
0
0
SPLINE
5
30C
100
AcDbEntity
8
1
62
256
6
ByLayer
370
13
48
1
60
0
100
AcDbSpline
70
4
71
3
72
10
73
6
40
0
40
0
40
0
40
0
40
0.5
40
0.5
40
1
40
1
40
1
40
1
41
1
10
202.488908620825
20
6.8268065194905
30
0
41
1
10
202.062092551652
20
7.09962436061309
30
0
41
1
10
201.616907966743
20
7.34989285390287
30
0
41
1
10
200.699091655145
20
7.81673549327189
30
0
41
1
10
200.226362223136
20
8.03318969545944
30
0
41
1
10
199.74228093169
20
8.23570825741015
30
0
0
SPLINE
5
30D
100
AcDbEntity
8
1
62
256
6
ByLayer
370
13
48
1
60
0
100
AcDbSpline
70
4
71
3
72
26
73
22
40
0
40
0
40
0
40
0
40
0.0625000000000001
40
0.0625000000000001
40
0.125
40
0.125
40
0.1875
40
0.1875
40
0.25
40
0.25
40
0.3125
40
0.3125
40
0.375000000000001
40
0.375000000000001
40
0.500000000000001
40
0.500000000000001
40
0.625000000000001
40
0.625000000000001
40
0.750000000000001
40
0.750000000000001
40
1
40
1
40
1
40
1
41
1
10
106.69016
20
-8.91400071897743
30
0
41
1
10
105.177184327438
20
-8.78310213024349
30
0
41
1
10
103.662616897148
20
-8.67331157598042
30
0
41
1
10
100.630402654612
20
-8.49544636065608
30
0
41
1
10
99.1123612032072
20
-8.42735878549371
30
0
41
1
10
96.0751860502598
20
-8.33257983151023
30
0
41
1
10
94.5564874152683
20
-8.30751037151981
30
0
41
1
10
91.5189607053009
20
-8.28371368940742
30
0
41
1
10
90.0001385371958
20
-8.28376002818908
30
0
41
1
10
86.962465307191
20
-8.2897377423003
30
0
41
1
10
85.4436125327759
20
-8.29601185839235
30
0
41
1
10
82.4059290992041
20
-8.30406261358831
30
0
41
1
10
80.8870939418824
20
-8.30675443821838
30
0
41
1
10
76.3306065972897
20
-8.3111461603356
30
0
41
1
10
73.2929691961934
20
-8.30984047050381
30
0
41
1
10
67.2176841372927
20
-8.30931074917814
30
0
41
1
10
64.180040726142
20
-8.30911579712372
30
0
41
1
10
58.1047524399043
20
-8.30998082406066
30
0
41
1
10
55.0671077135298
20
-8.3108890500726
30
0
41
1
10
45.9541741813482
20
-8.31307867108251
30
0
41
1
10
39.8788862029953
20
-8.3136767242936
30
0
41
1
10
33.8036
20
-8.31280120131402
30
0
0
SPLINE
5
30E
100
AcDbEntity
8
1
62
256
6
ByLayer
370
13
48
1
60
0
100
AcDbSpline
70
4
71
3
72
14
73
10
40
0
40
0
40
0
40
0
40
0.5
40
0.5
40
0.750000000000001
40
0.750000000000001
40
0.875000000000001
40
0.875000000000001
40
1
40
1
40
1
40
1
41
1
10
27.0485981533615
20
-23.1519507973706
30
0
41
1
10
26.5254938490123
20
-23.1652366048745
30
0
41
1
10
26.0109192273639
20
-23.1797758263384
30
0
41
1
10
25.2513689304453
20
-23.2015233608728
30
0
41
1
10
25.0002528357363
20
-23.2087244261262
30
0
41
1
10
24.6267571718553
20
-23.2188392282358
30
0
41
1
10
24.5024409903483
20
-23.2221020163364
30
0
41
1
10
24.2567978616328
20
-23.2282070825272
30
0
41
1
10
24.1355850836087
20
-23.2310472349479
30
0
41
1
10
24.0159522070469
20
-23.2336057947973
30
0
0
SPLINE
5
30F
100
AcDbEntity
8
1
62
256
6
ByLayer
370
13
48
1
60
0
100
AcDbSpline
70
4
71
3
72
12
73
8
40
0
40
0
40
0
40
0
40
0.250000000000002
40
0.250000000000002
40
0.500000000000003
40
0.500000000000003
40
1
40
1
40
1
40
1
41
1
10
203.399322451246
20
10.6759337671637
30
0
41
1
10
203.39025329658
20
10.7436249683283
30
0
41
1
10
203.377956138758
20
10.8109215033749
30
0
41
1
10
203.346186748294
20
10.9446373255881
30
0
41
1
10
203.326572382478
20
11.0113703868785
30
0
41
1
10
203.257250441291
20
11.205937208632
30
0
41
1
10
203.196978558461
20
11.3291515857186
30
0
41
1
10
203.121922962042
20
11.4455333784175
30
0
0
SPLINE
5
310
100
AcDbEntity
8
1
62
256
6
ByLayer
370
13
48
1
60
0
100
AcDbSpline
70
4
71
3
72
8
73
4
40
0
40
0
40
0
40
0
40
1
40
1
40
1
40
1
41
1
10
33.8036
20
-8.31280120131399
30
0
41
1
10
32.1369332942074
20
-8.31235939081725
30
0
41
1
10
30.4702666166046
20
-8.31180791695243
30
0
41
1
10
28.8036
20
-8.3111338213501
30
0
0
SPLINE
5
311
100
AcDbEntity
8
1
62
256
6
ByLayer
370
13
48
1
60
0
100
AcDbSpline
70
4
71
3
72
16
73
12
40
0
40
0
40
0
40
0
40
0.249999999999969
40
0.249999999999969
40
0.374999999999974
40
0.374999999999974
40
0.49999999999998
40
0.49999999999998
40
0.74999999999999
40
0.74999999999999
40
1
40
1
40
1
40
1
41
1
10
221.678392767281
20
7.97596622967816
30
0
41
1
10
221.530657953485
20
7.99492614916053
30
0
41
1
10
221.387632739829
20
8.02514169955384
30
0
41
1
10
221.176455514723
20
8.0874207831925
30
0
41
1
10
221.106583543911
20
8.11110057673068
30
0
41
1
10
220.969678422161
20
8.16376874360094
30
0
41
1
10
220.902407775974
20
8.19281760596789
30
0
41
1
10
220.703859341633
20
8.28846802936221
30
0
41
1
10
220.575693079315
20
8.36349190274427
30
0
41
1
10
220.328122402254
20
8.54053757960355
30
0
41
1
10
220.212792302819
20
8.63966652101811
30
0
41
1
10
220.106596423833
20
8.7507521896126
30
0
0
SPLINE
5
312
100
AcDbEntity
8
1
62
256
6
ByLayer
370
13
48
1
60
0
100
AcDbSpline
70
4
71
3
72
16
73
12
40
0
40
0
40
0
40
0
40
0.25
40
0.25
40
0.5
40
0.5
40
0.75
40
0.75
40
0.875
40
0.875
40
1
40
1
40
1
40
1
41
1
10
203.548172470368
20
8.69641375418158
30
0
41
1
10
203.535225692297
20
8.59421862783816
30
0
41
1
10
203.514665517351
20
8.49367832986331
30
0
41
1
10
203.456838479993
20
8.29622905654358
30
0
41
1
10
203.419072429124
20
8.19847954588357
30
0
41
1
10
203.32720000589
20
8.01403955612642
30
0
41
1
10
203.273117778067
20
7.92675930587615
30
0
41
1
10
203.178209997301
20
7.80419781500606
30
0
41
1
10
203.144059596487
20
7.76458044886618
30
0
41
1
10
203.072519985274
20
7.6902950996045
30
0
41
1
10
203.034991204323
20
7.65540385377628
30
0
41
1
10
202.995670473851
20
7.62280624257806
30
0
0
SPLINE
5
313
100
AcDbEntity
8
1
62
256
6
ByLayer
370
13
48
1
60
0
100
AcDbSpline
70
4
71
3
72
10
73
6
40
0
40
0
40
0
40
0
40
0.5
40
0.5
40
1
40
1
40
1
40
1
41
1
10
203.060560662671
20
6.60845501867468
30
0
41
1
10
202.955549653462
20
6.6163402697201
30
0
41
1
10
202.856239136063
20
6.6434734872546
30
0
41
1
10
202.664440941352
20
6.72186358621735
30
0
41
1
10
202.574944212588
20
6.77181317200476
30
0
41
1
10
202.488908620825
20
6.8268065194905
30
0
0
SPLINE
5
314
100
AcDbEntity
8
1
62
256
6
ByLayer
370
13
48
1
60
0
100
AcDbSpline
70
4
71
3
72
32
73
28
40
0
40
0
40
0
40
0
40
0.122676676133238
40
0.122676676133238
40
0.184015014199857
40
0.184015014199857
40
0.245353352266475
40
0.245353352266475
40
0.368030028399713
40
0.368030028399713
40
0.490706704532952
40
0.490706704532952
40
0.55204504259957
40
0.55204504259957
40
0.613383380666188
40
0.613383380666188
40
0.736060056799426
40
0.736060056799426
40
0.858736732932665
40
0.858736732932665
40
0.920075070999284
40
0.920075070999284
40
0.950744240032594
40
0.950744240032594
40
0.981413409065905
40
0.981413409065905
40
1
40
1
40
1
40
1
41
1
10
195.658362406771
20
22.5429239123039
30
0
41
1
10
194.018142504923
20
22.6575157484624
30
0
41
1
10
192.378804968678
20
22.7369840519187
30
0
41
1
10
189.919135860132
20
22.8007704718509
30
0
41
1
10
189.098904499892
20
22.8128723769491
30
0
41
1
10
187.45952848295
20
22.8191342484877
30
0
41
1
10
186.640264914752
20
22.8133031992244
30
0
41
1
10
184.183201141732
20
22.7695912212549
30
0
41
1
10
182.54611513753
20
22.7055248203486
30
0
41
1
10
179.271272240669
20
22.5105662221865
30
0
41
1
10
177.633549992447
20
22.3795092496281
30
0
41
1
10
175.174653298169
20
22.1309433089827
30
0
41
1
10
174.35433524406
20
22.0393869847074
30
0
41
1
10
172.71485669523
20
21.8390139127627
30
0
41
1
10
171.895536371881
20
21.7301875328797
30
0
41
1
10
169.438354325965
20
21.3776818492136
30
0
41
1
10
167.801292266076
20
21.107873866904
30
0
41
1
10
164.526978749772
20
20.4916156418791
30
0
41
1
10
162.889368550505
20
20.1439478589444
30
0
41
1
10
160.431502156611
20
19.6044602501663
30
0
41
1
10
159.612108001412
20
19.4225463996386
30
0
41
1
10
158.38144683035
20
19.1390832534123
30
0
41
1
10
157.970938917
20
19.0427684068475
30
0
41
1
10
157.148898509076
20
18.8455529922897
30
0
41
1
10
156.737392229737
20
18.7447927677347
30
0
41
1
10
156.075839232138
20
18.5806533453542
30
0
41
1
10
155.826065709116
20
18.5182482433965
30
0
41
1
10
155.57615885264
20
18.4554244606552
30
0
0
SPLINE
5
315
100
AcDbEntity
8
1
62
256
6
ByLayer
370
13
48
1
60
0
100
AcDbSpline
70
4
71
3
72
10
73
6
40
0
40
0
40
0
40
0
40
0.806108221291024
40
0.806108221291024
40
1
40
1
40
1
40
1
41
1
10
204.37566143541
20
16.8242874421405
30
0
41
1
10
204.33925528529
20
16.7751629646856
30
0
41
1
10
204.307621083916
20
16.7273907228312
30
0
41
1
10
204.278382811686
20
16.6773875891099
30
0
41
1
10
204.273194300718
20
16.6681383156574
30
0
41
1
10
204.26867345325
20
16.6596687473534
30
0
0
SPLINE
5
316
100
AcDbEntity
8
1
62
256
6
ByLayer
370
13
48
1
60
0
100
AcDbSpline
70
4
71
3
72
18
73
14
40
0
40
0
40
0
40
0
40
0.179517086689117
40
0.179517086689117
40
0.359034173378235
40
0.359034173378235
40
0.538551260067352
40
0.538551260067352
40
0.718068346756469
40
0.718068346756469
40
0.897585433445587
40
0.897585433445587
40
1
40
1
40
1
40
1
41
1
10
28.8136
20
-13.1908811642157
30
0
41
1
10
28.8136
20
-12.9267374423736
30
0
41
1
10
28.8136
20
-12.6521703869507
30
0
41
1
10
28.8136
20
-12.0830586466808
30
0
41
1
10
28.8136
20
-11.7862030106945
30
0
41
1
10
28.8136
20
-11.1819930528583
30
0
41
1
10
28.8136
20
-10.8788990609085
30
0
41
1
10
28.8136
20
-10.2707848185967
30
0
41
1
10
28.8136
20
-9.96260891838716
30
0
41
1
10
28.8136
20
-9.36251784531794
30
0
41
1
10
28.8136
20
-9.07079973568688
30
0
41
1
10
28.8136
20
-8.62559669977281
30
0
41
1
10
28.8136
20
-8.46586547613092
30
0
41
1
10
28.8136
20
-8.31048116422446
30
0
0
SPLINE
5
317
100
AcDbEntity
8
1
62
256
6
ByLayer
370
13
48
1
60
0
100
AcDbSpline
70
4
71
3
72
10
73
6
40
0
40
0
40
0
40
0
40
0.5
40
0.5
40
1
40
1
40
1
40
1
41
1
10
213.287160737725
20
7.39198836334214
30
0
41
1
10
213.809675402573
20
7.4193721965697
30
0
41
1
10
214.314808673089
20
7.44584510951938
30
0
41
1
10
215.28716174045
20
7.49680397445883
30
0
41
1
10
215.754397988388
20
7.52129078861384
30
0
41
1
10
216.200359420521
20
7.54466263691779
30
0
0
SPLINE
5
318
100
AcDbEntity
8
1
62
256
6
ByLayer
370
13
48
1
60
0
100
AcDbSpline
70
4
71
3
72
8
73
4
40
0
40
0
40
0
40
0
40
1
40
1
40
1
40
1
41
1
10
200.783846331968
20
-0.352489115635507
30
0
41
1
10
201.398239830997
20
-0.406365252423484
30
0
41
1
10
202.01266018082
20
-0.460095151877084
30
0
41
1
10
202.627106212145
20
-0.513683810240508
30
0
0
SPLINE
5
319
100
AcDbEntity
8
1
62
256
6
ByLayer
370
13
48
1
60
0
100
AcDbSpline
70
4
71
3
72
8
73
4
40
0
40
0
40
0
40
0
40
1
40
1
40
1
40
1
41
1
10
208.058118329176
20
8.39040475504282
30
0
41
1
10
208.085910625824
20
8.39133180689126
30
0
41
1
10
208.114332477491
20
8.39114211417063
30
0
41
1
10
208.142237410308
20
8.38973223154431
30
0
0
SPLINE
5
31A
100
AcDbEntity
8
1
62
256
6
ByLayer
370
13
48
1
60
0
100
AcDbSpline
70
4
71
3
72
8
73
4
40
0
40
0
40
0
40
0
40
1
40
1
40
1
40
1
41
1
10
33.8036
20
-23.129800079467
30
0
41
1
10
32.1369333049041
20
-23.1297760369774
30
0
41
1
10
30.4702666208917
20
-23.1297416853387
30
0
41
1
10
28.8036
20
-23.1296922938085
30
0
0
SPLINE
5
31B
100
AcDbEntity
8
1
62
256
6
ByLayer
370
13
48
1
60
0
100
AcDbSpline
70
4
71
3
72
8
73
4
40
0
40
0
40
0
40
0
40
1
40
1
40
1
40
1
41
1
10
201.690554965119
20
10.8152697126964
30
0
41
1
10
201.777293125898
20
10.8157540231877
30
0
41
1
10
201.864626457225
20
10.8111286525333
30
0
41
1
10
201.952035419632
20
10.7936442821054
30
0
0
SPLINE
5
31C
100
AcDbEntity
8
1
62
256
6
ByLayer
370
13
48
1
60
0
100
AcDbSpline
70
4
71
3
72
40
73
36
40
0
40
0
40
0
40
0
40
0.125
40
0.125
40
0.1875
40
0.1875
40
0.25
40
0.25
40
0.3125
40
0.3125
40
0.34375
40
0.34375
40
0.375
40
0.375
40
0.500000000000001
40
0.500000000000001
40
0.562500000000002
40
0.562500000000002
40
0.593750000000001
40
0.593750000000001
40
0.625000000000001
40
0.625000000000001
40
0.750000000000001
40
0.750000000000001
40
0.781250000000002
40
0.781250000000002
40
0.812500000000002
40
0.812500000000002
40
0.875000000000001
40
0.875000000000001
40
0.937500000000001
40
0.937500000000001
40
0.96875
40
0.96875
40
1
40
1
40
1
40
1
41
1
10
14.2924317822632
20
-9.56019887010868
30
0
41
1
10
13.6518702603611
20
-9.59763588331163
30
0
41
1
10
13.0268677409853
20
-9.70435101104448
30
0
41
1
10
12.1096073742015
20
-9.95421256431732
30
0
41
1
10
11.806840443561
20
-10.0528048352113
30
0
41
1
10
11.2098316038282
20
-10.2791325778114
30
0
41
1
10
10.9198228921289
20
-10.4052303709639
30
0
41
1
10
10.3557335621778
20
-10.6811933523747
30
0
41
1
10
10.0815804338605
20
-10.8309463954087
30
0
41
1
10
9.6820648949265
20
-11.0726523175382
30
0
41
1
10
9.55087497733922
20
-11.1561121429461
30
0
41
1
10
9.29245428401006
20
-11.3287313176364
30
0
41
1
10
9.16498543054402
20
-11.4180567730441
30
0
41
1
10
8.54033862954921
20
-11.8770137990512
30
0
41
1
10
8.08889398613201
20
-12.2765413587663
30
0
41
1
10
7.48305422605689
20
-12.9190370818689
30
0
41
1
10
7.29312020343905
20
-13.1404895295911
30
0
41
1
10
7.02727471683868
20
-13.4836710256654
30
0
41
1
10
6.94180445685426
20
-13.600016641766
30
0
41
1
10
6.77971424366467
20
-13.8331225794259
30
0
41
1
10
6.7027779813554
20
-13.9502738160313
30
0
41
1
10
6.33853622155719
20
-14.5387744048291
30
0
41
1
10
6.11148144462747
20
-15.018118945265
30
0
41
1
10
5.91622841078365
20
-15.6263473843735
30
0
41
1
10
5.88151144114782
20
-15.7489504731112
30
0
41
1
10
5.82225831767359
20
-15.9923723595731
30
0
41
1
10
5.79766317925373
20
-16.1130032483848
30
0
41
1
10
5.73855909100715
20
-16.471658731201
30
0
41
1
10
5.71859735869138
20
-16.7064501728021
30
0
41
1
10
5.71904605346576
20
-17.167326908129
30
0
41
1
10
5.73938611932321
20
-17.3934131497432
30
0
41
1
10
5.80083345851835
20
-17.7258970102471
30
0
41
1
10
5.82651905661851
20
-17.8355496637318
30
0
41
1
10
5.8877076653351
20
-18.0501065512181
30
0
41
1
10
5.9232625179808
20
-18.1553391252922
30
0
41
1
10
5.96376950490313
20
-18.258569814827
30
0
0
SPLINE
5
31D
100
AcDbEntity
8
1
62
256
6
ByLayer
370
13
48
1
60
0
100
AcDbSpline
70
4
71
3
72
10
73
6
40
0
40
0
40
0
40
0
40
0.5
40
0.5
40
1
40
1
40
1
40
1
41
1
10
208.142237410308
20
8.38973223154125
30
0
41
1
10
208.192552968057
20
8.38719006341739
30
0
41
1
10
208.240980192396
20
8.3797925656956
30
0
41
1
10
208.333185285844
20
8.36000926106894
30
0
41
1
10
208.375975529441
20
8.34801136420231
30
0
41
1
10
208.414599543143
20
8.33786755473386
30
0
0
SPLINE
5
31E
100
AcDbEntity
8
1
62
256
6
ByLayer
370
13
48
1
60
0
100
AcDbSpline
70
4
71
3
72
23
73
19
40
0
40
0
40
0
40
0
40
0.125000000000003
40
0.125000000000003
40
0.250000000000006
40
0.250000000000006
40
0.375000000000009
40
0.375000000000009
40
0.500000000000012
40
0.625000000000015
40
0.625000000000015
40
0.750000000000018
40
0.750000000000018
40
0.875000000000021
40
0.875000000000021
40
0.93750000000001
40
0.93750000000001
40
1
40
1
40
1
40
1
41
1
10
208.519476950795
20
7.4324303494945
30
0
41
1
10
208.418530937841
20
7.33997502553936
30
0
41
1
10
208.311019925729
20
7.25568178652784
30
0
41
1
10
208.081841690486
20
7.10383575563458
30
0
41
1
10
207.962509459987
20
7.03787091063029
30
0
41
1
10
207.715284459864
20
6.92579807288553
30
0
41
1
10
207.586759108206
20
6.87943574651302
30
0
41
1
10
207.321510842867
20
6.80751017698302
30
0
41
1
10
207.053451422067
20
6.75771173439426
30
0
41
1
10
206.77974126077
20
6.7505078354092
30
0
41
1
10
206.503221481745
20
6.7654267223138
30
0
41
1
10
206.366428035536
20
6.78386160565989
30
0
41
1
10
206.09852294798
20
6.8415423319621
30
0
41
1
10
205.96694923978
20
6.88080986821257
30
0
41
1
10
205.773410457198
20
6.95595928930413
30
0
41
1
10
205.709749884026
20
6.98368097667006
30
0
41
1
10
205.586104068819
20
7.04354010985878
30
0
41
1
10
205.525837835592
20
7.07578237999908
30
0
41
1
10
205.467151413128
20
7.11028939380338
30
0
0
SPLINE
5
31F
100
AcDbEntity
8
1
62
256
6
ByLayer
370
13
48
1
60
0
100
AcDbSpline
70
4
71
3
72
10
73
6
40
0
40
0
40
0
40
0
40
0.5
40
0.5
40
1
40
1
40
1
40
1
41
1
10
211.656758314409
20
8.80860111199542
30
0
41
1
10
211.687337119694
20
8.81020367927357
30
0
41
1
10
211.718275052232
20
8.80893313533377
30
0
41
1
10
211.778456623205
20
8.80111261259168
30
0
41
1
10
211.807865549188
20
8.79460574036511
30
0
41
1
10
211.836566613709
20
8.78572213191649
30
0
0
SPLINE
5
320
100
AcDbEntity
8
1
62
256
6
ByLayer
370
13
48
1
60
0
100
AcDbSpline
70
4
71
1
72
4
73
2
40
0
40
0
40
1
40
1
41
1
10
29.2536
20
-13.1908811644105
30
0
41
1
10
28.8036
20
-13.1908811644105
30
0
0
SPLINE
5
321
100
AcDbEntity
8
1
62
256
6
ByLayer
370
13
48
1
60
0
100
AcDbSpline
70
4
71
3
72
8
73
4
40
0
40
0
40
0
40
0
40
1
40
1
40
1
40
1
41
1
10
28.8136
20
-22.5078296931632
30
0
41
1
10
28.2252660493441
20
-22.5080538646214
30
0
41
1
10
27.6369320990167
20
-22.5082786691008
30
0
41
1
10
27.0485981485312
20
-22.5085031688946
30
0
0
SPLINE
5
322
100
AcDbEntity
8
1
62
256
6
ByLayer
370
13
48
1
60
0
100
AcDbSpline
70
4
71
3
72
58
73
54
40
0
40
0
40
0
40
0
40
0.0312500000000011
40
0.0312500000000011
40
0.0625000000000023
40
0.0625000000000023
40
0.0937500000000034
40
0.0937500000000034
40
0.125000000000005
40
0.125000000000005
40
0.156250000000006
40
0.156250000000006
40
0.164062500000006
40
0.164062500000006
40
0.171875000000007
40
0.171875000000007
40
0.187500000000008
40
0.187500000000008
40
0.203125000000008
40
0.203125000000008
40
0.218750000000009
40
0.218750000000009
40
0.250000000000009
40
0.250000000000009
40
0.281250000000009
40
0.281250000000009
40
0.31250000000001
40
0.31250000000001
40
0.375000000000009
40
0.375000000000009
40
0.437500000000009
40
0.437500000000009
40
0.468750000000009
40
0.468750000000009
40
0.500000000000009
40
0.500000000000009
40
0.562500000000008
40
0.562500000000008
40
0.625000000000007
40
0.625000000000007
40
0.687500000000006
40
0.687500000000006
40
0.718750000000005
40
0.718750000000005
40
0.750000000000005
40
0.750000000000005
40
0.812500000000003
40
0.812500000000003
40
0.875000000000002
40
0.875000000000002
40
0.937500000000001
40
0.937500000000001
40
1
40
1
40
1
40
1
41
1
10
191.831213086612
20
-22.8625154477263
30
0
41
1
10
190.91213386982
20
-22.8514729087562
30
0
41
1
10
189.991577883221
20
-22.8410136793235
30
0
41
1
10
188.149938054632
20
-22.8195676294449
30
0
41
1
10
187.228781455027
20
-22.8086606322595
30
0
41
1
10
185.388823026081
20
-22.7829976502583
30
0
41
1
10
184.469765128424
20
-22.7682122303016
30
0
41
1
10
182.638941606563
20
-22.7288878788253
30
0
41
1
10
181.729929404935
20
-22.7045691568343
30
0
41
1
10
179.933368674415
20
-22.6368932091975
30
0
41
1
10
179.04585007907
20
-22.5936890458404
30
0
41
1
10
177.956355685537
20
-22.5167818431039
30
0
41
1
10
177.739504685926
20
-22.500178685929
30
0
41
1
10
177.308367582659
20
-22.4639335847756
30
0
41
1
10
177.094573245531
20
-22.4444757967198
30
0
41
1
10
176.453638915027
20
-22.3842573572891
30
0
41
1
10
176.027725116861
20
-22.3413056490252
30
0
41
1
10
175.17724200955
20
-22.250233382268
30
0
41
1
10
174.75262808658
20
-22.2021306515491
30
0
41
1
10
173.902502773251
20
-22.1020340689972
30
0
41
1
10
173.477079031098
20
-22.0500096618579
30
0
41
1
10
172.200309671592
20
-21.887781068111
30
0
41
1
10
171.348657076958
20
-21.7713116505773
30
0
41
1
10
169.64591505436
20
-21.5207248434271
30
0
41
1
10
168.794658262709
20
-21.3867127168795
30
0
41
1
10
167.092566007207
20
-21.1008678546453
30
0
41
1
10
166.241643759559
20
-20.9488610524931
30
0
41
1
10
163.690179004536
20
-20.4667634670027
30
0
41
1
10
161.991194740704
20
-20.1109958401017
30
0
41
1
10
158.5834811717
20
-19.3482922308974
30
0
41
1
10
156.874677342335
20
-18.941541897318
30
0
41
1
10
154.295866296597
20
-18.3097631785966
30
0
41
1
10
153.433807002797
20
-18.0954644457483
30
0
41
1
10
151.706345587016
20
-17.6621365024608
30
0
41
1
10
150.840652168568
20
-17.4430596278023
30
0
41
1
10
148.236927096272
20
-16.7816388450173
30
0
41
1
10
146.492308473818
20
-16.3349867478713
30
0
41
1
10
142.982226215403
20
-15.4456134778782
30
0
41
1
10
141.216198435204
20
-15.0028597304483
30
0
41
1
10
137.66866137752
20
-14.1390584993767
30
0
41
1
10
135.886290583796
20
-13.7174867612897
30
0
41
1
10
133.198694007746
20
-13.1094701748552
30
0
41
1
10
132.30048717716
20
-12.9108554251694
30
0
41
1
10
130.499184731751
20
-12.5232348715556
30
0
41
1
10
129.595999746433
20
-12.3342596679003
30
0
41
1
10
126.881908986992
20
-11.7842764625059
30
0
41
1
10
125.065551155656
20
-11.4397908681423
30
0
41
1
10
121.419248432415
20
-10.7988776105331
30
0
41
1
10
119.588812337247
20
-10.5020562542454
30
0
41
1
10
115.917950687129
20
-9.95676091562007
30
0
41
1
10
114.078475179269
20
-9.70871830931893
30
0
41
1
10
110.391007164457
20
-9.26753576396501
30
0
41
1
10
108.542969416138
20
-9.07470177180315
30
0
41
1
10
106.69016
20
-8.91400071897743
30
0
0
SPLINE
5
323
100
AcDbEntity
8
1
62
256
6
ByLayer
370
13
48
1
60
0
100
AcDbSpline
70
4
71
3
72
8
73
4
40
0
40
0
40
0
40
0
40
1
40
1
40
1
40
1
41
1
10
206.109973300189
20
22.8942005503574
30
0
41
1
10
206.029151287302
20
22.8875629363317
30
0
41
1
10
205.946626245697
20
22.881771699001
30
0
41
1
10
205.862429701903
20
22.8768756804427
30
0
0
SPLINE
5
324
100
AcDbEntity
8
1
62
256
6
ByLayer
370
13
48
1
60
0
100
AcDbSpline
70
4
71
3
72
12
73
8
40
0
40
0
40
0
40
0
40
0.25
40
0.25
40
0.5
40
0.5
40
1
40
1
40
1
40
1
41
1
10
210.05552408468
20
6.75385269572527
30
0
41
1
10
210.33861469475
20
6.85475978506989
30
0
41
1
10
210.617899939522
20
6.94110978609228
30
0
41
1
10
211.169809642858
20
7.08939129096322
30
0
41
1
10
211.442422625824
20
7.15129061839707
30
0
41
1
10
212.250495688272
20
7.30509226298139
30
0
41
1
10
212.776369570278
20
7.36521893257824
30
0
41
1
10
213.287160737725
20
7.39198836334216
30
0
0
SPLINE
5
325
100
AcDbEntity
8
1
62
256
6
ByLayer
370
13
48
1
60
0
100
AcDbSpline
70
4
71
3
72
8
73
4
40
0
40
0
40
0
40
0
40
1
40
1
40
1
40
1
41
1
10
203.060560662671
20
6.60845501867468
30
0
41
1
10
203.119930629578
20
6.58288292695147
30
0
41
1
10
203.180240472852
20
6.55920679227603
30
0
41
1
10
203.241486764566
20
6.53740297349469
30
0
0
SPLINE
5
326
100
AcDbEntity
8
1
62
256
6
ByLayer
370
13
48
1
60
0
100
AcDbSpline
70
4
71
3
72
12
73
8
40
0
40
0
40
0
40
0
40
0.499812438312607
40
0.499812438312607
40
0.749906219156303
40
0.749906219156303
40
1
40
1
40
1
40
1
41
1
10
179.218158331826
20
10.4329652885691
30
0
41
1
10
182.732940460589
20
10.6407694765015
30
0
41
1
10
186.246630802034
20
10.7751332414016
30
0
41
1
10
191.521820813953
20
10.8597886278415
30
0
41
1
10
193.281814711897
20
10.8685154088651
30
0
41
1
10
196.8008862575
20
10.8462250246838
30
0
41
1
10
198.560307250564
20
10.8152174967078
30
0
41
1
10
200.320023456196
20
10.7641582281054
30
0
0
SPLINE
5
327
100
AcDbEntity
8
1
62
256
6
ByLayer
370
13
48
1
60
0
100
AcDbSpline
70
4
71
3
72
14
73
10
40
0
40
0
40
0
40
0
40
0.499999999999997
40
0.499999999999997
40
0.624999999999998
40
0.624999999999998
40
0.749999999999998
40
0.749999999999998
40
1
40
1
40
1
40
1
41
1
10
27.0485981485312
20
-22.5085031688946
30
0
41
1
10
26.5120362175347
20
-22.5087079132286
30
0
41
1
10
25.9893566007646
20
-22.5736339207535
30
0
41
1
10
25.3518177101423
20
-22.7285027689738
30
0
41
1
10
25.2251087265889
20
-22.7632006290563
30
0
41
1
10
24.9732808513287
20
-22.8400095766717
30
0
41
1
10
24.8484639818193
20
-22.8820582136003
30
0
41
1
10
24.4814542997616
20
-23.017197563833
30
0
41
1
10
24.2449831319234
20
-23.1197503207136
30
0
41
1
10
24.0159522070469
20
-23.2336057947973
30
0
0
SPLINE
5
328
100
AcDbEntity
8
1
62
256
6
ByLayer
370
13
48
1
60
0
100
AcDbSpline
70
4
71
3
72
52
73
48
40
0
40
0
40
0
40
0
40
0.124999999999995
40
0.124999999999995
40
0.24999999999999
40
0.24999999999999
40
0.281249999999988
40
0.281249999999988
40
0.312499999999985
40
0.312499999999985
40
0.374999999999985
40
0.374999999999985
40
0.406249999999984
40
0.406249999999984
40
0.437499999999984
40
0.437499999999984
40
0.499999999999983
40
0.499999999999983
40
0.562499999999982
40
0.562499999999982
40
0.578124999999983
40
0.578124999999983
40
0.593749999999984
40
0.593749999999984
40
0.624999999999987
40
0.624999999999987
40
0.656249999999989
40
0.656249999999989
40
0.67187499999999
40
0.67187499999999
40
0.687499999999991
40
0.687499999999991
40
0.749999999999992
40
0.749999999999992
40
0.781249999999994
40
0.781249999999994
40
0.796874999999994
40
0.796874999999994
40
0.812499999999995
40
0.812499999999995
40
0.874999999999996
40
0.874999999999996
40
0.906249999999997
40
0.906249999999997
40
0.937499999999998
40
0.937499999999998
40
1
40
1
40
1
40
1
41
1
10
200.978095754492
20
1.92627544497625
30
0
41
1
10
201.880941719019
20
1.74019152257492
30
0
41
1
10
202.790682716943
20
1.57403313024531
30
0
41
1
10
204.632881523411
20
1.30736424995976
30
0
41
1
10
205.565232447594
20
1.20654488350652
30
0
41
1
10
206.752184032495
20
1.14268955881116
30
0
41
1
10
206.990848050111
20
1.13307705334853
30
0
41
1
10
207.466322939844
20
1.12092067834359
30
0
41
1
10
207.703623516231
20
1.11834347768536
30
0
41
1
10
208.414115680087
20
1.1219078830936
30
0
41
1
10
208.885904331614
20
1.13929237003961
30
0
41
1
10
209.590292187711
20
1.19177561972663
30
0
41
1
10
209.824537541008
20
1.21368243731229
30
0
41
1
10
210.291821453048
20
1.2671671109062
30
0
41
1
10
210.524814006267
20
1.29878886637249
30
0
41
1
10
211.211713584999
20
1.40781086495596
30
0
41
1
10
211.65689715888
20
1.49963146988324
30
0
41
1
10
212.518972030243
20
1.72574450195734
30
0
41
1
10
212.935909369554
20
1.85996781199157
30
0
41
1
10
213.436415719778
20
2.05876933709399
30
0
41
1
10
213.535744826282
20
2.10021336347768
30
0
41
1
10
213.730586383966
20
2.18566251642318
30
0
41
1
10
213.826111841234
20
2.22965831106919
30
0
41
1
10
214.106966457234
20
2.36548335509391
30
0
41
1
10
214.286582799342
20
2.46114426893124
30
0
41
1
10
214.630184533209
20
2.66294998937258
30
0
41
1
10
214.794172164349
20
2.76909329399365
30
0
41
1
10
215.027905416159
20
2.93652328322114
30
0
41
1
10
215.103772493435
20
2.99370422292964
30
0
41
1
10
215.251294593837
20
3.11089118483099
30
0
41
1
10
215.323148921616
20
3.17108144770106
30
0
41
1
10
215.668264779443
20
3.47639969503697
30
0
41
1
10
215.900293477024
20
3.73492749075106
30
0
41
1
10
216.183490532845
20
4.14372408379526
30
0
41
1
10
216.26702529847
20
4.28350876132598
30
0
41
1
10
216.375663523289
20
4.49858355221815
30
0
41
1
10
216.409177256717
20
4.57139148058914
30
0
41
1
10
216.469986383595
20
4.71745596177578
30
0
41
1
10
216.497324086863
20
4.79075059200051
30
0
41
1
10
216.619101067402
20
5.15849952100862
30
0
41
1
10
216.6691163053
20
5.45675458235175
30
0
41
1
10
216.677067171927
20
5.90987561492312
30
0
41
1
10
216.66833801184
20
6.06257970485234
30
0
41
1
10
216.629224506346
20
6.36509263036786
30
0
41
1
10
216.598961914485
20
6.51515115305824
30
0
41
1
10
216.47812005202
20
6.96196379044392
30
0
41
1
10
216.357634283134
20
7.25537148902109
30
0
41
1
10
216.200359420518
20
7.54466263690506
30
0
0
SPLINE
5
329
100
AcDbEntity
8
1
62
256
6
ByLayer
370
13
48
1
60
0
100
AcDbSpline
70
4
71
3
72
8
73
4
40
0
40
0
40
0
40
0
40
1
40
1
40
1
40
1
41
1
10
208.449956732343
20
7.61185615848888
30
0
41
1
10
208.471391865019
20
7.6351829142061
30
0
41
1
10
208.492435739481
20
7.65893510833837
30
0
41
1
10
208.513058048494
20
7.68308441372798
30
0
0
SPLINE
5
32A
100
AcDbEntity
8
1
62
256
6
ByLayer
370
13
48
1
60
0
100
AcDbSpline
70
4
71
3
72
14
73
10
40
0
40
0
40
0
40
0
40
0.500000000000003
40
0.500000000000003
40
0.750000000000004
40
0.750000000000004
40
0.875000000000002
40
0.875000000000002
40
1
40
1
40
1
40
1
41
1
10
195.658362406789
20
22.5429239123027
30
0
41
1
10
196.328311636823
20
21.1005476704559
30
0
41
1
10
197.086675069189
20
19.7133551882224
30
0
41
1
10
198.390541826974
20
17.7363761635452
30
0
41
1
10
198.852896627107
20
17.0946924359153
30
0
41
1
10
199.592018117158
20
16.1606214178952
30
0
41
1
10
199.846155211304
20
15.8538115690931
30
0
41
1
10
200.369502387715
20
15.2508830776022
30
0
41
1
10
200.637960245685
20
14.9556149645179
30
0
41
1
10
200.913262068091
20
14.6665975037579
30
0
0
SPLINE
5
32B
100
AcDbEntity
8
1
62
256
6
ByLayer
370
13
48
1
60
0
100
AcDbSpline
70
4
71
3
72
24
73
20
40
0
40
0
40
0
40
0
40
0.0625000000000002
40
0.0625000000000002
40
0.125
40
0.125
40
0.187500000000001
40
0.187500000000001
40
0.250000000000001
40
0.250000000000001
40
0.312500000000001
40
0.312500000000001
40
0.375000000000001
40
0.375000000000001
40
0.500000000000001
40
0.500000000000001
40
0.75
40
0.75
40
1
40
1
40
1
40
1
41
1
10
106.69016
20
-22.9371555353059
30
0
41
1
10
105.178158295673
20
-22.9328591138411
30
0
41
1
10
103.664143401037
20
-22.9288963051826
30
0
41
1
10
100.632494875711
20
-22.9239594807791
30
0
41
1
10
99.1145134593444
20
-22.9229483849886
30
0
41
1
10
96.0774656249997
20
-22.9243702893326
30
0
41
1
10
94.5587976900391
20
-22.9268100923294
30
0
41
1
10
91.5212658732868
20
-22.9343730479456
30
0
41
1
10
90.0024084119109
20
-22.9393888090158
30
0
41
1
10
86.9646603093249
20
-22.9498774558488
30
0
41
1
10
85.4457654817169
20
-22.9554023260334
30
0
41
1
10
82.4079873355856
20
-22.9662909685773
30
0
41
1
10
80.889107154002
20
-22.9716214441964
30
0
41
1
10
76.3324529790142
20
-22.9873669597116
30
0
41
1
10
73.2946781404521
20
-22.9975646416464
30
0
41
1
10
64.1813540158695
20
-23.0281789747883
30
0
41
1
10
58.1058022364299
20
-23.0484407604326
30
0
41
1
10
45.954700859021
20
-23.0891019159646
30
0
41
1
10
39.8791512714605
20
-23.1095214371186
30
0
41
1
10
33.8036
20
-23.1298000794669
30
0
0
SPLINE
5
32C
100
AcDbEntity
8
1
62
256
6
ByLayer
370
13
48
1
60
0
100
AcDbSpline
70
4
71
3
72
8
73
4
40
0
40
0
40
0
40
0
40
1
40
1
40
1
40
1
41
1
10
197.63756699615
20
2.16889049517747
30
0
41
1
10
197.136482578296
20
2.37406031261602
30
0
41
1
10
196.642873759124
20
2.58735318732485
30
0
41
1
10
196.158756180644
20
2.81309627471285
30
0
0
SPLINE
5
32D
100
AcDbEntity
8
1
62
256
6
ByLayer
370
13
48
1
60
0
100
AcDbSpline
70
4
71
3
72
50
73
46
40
0
40
0
40
0
40
0
40
0.125
40
0.125
40
0.156250000000001
40
0.156250000000001
40
0.187500000000001
40
0.187500000000001
40
0.250000000000001
40
0.250000000000001
40
0.312500000000002
40
0.312500000000002
40
0.343750000000002
40
0.343750000000002
40
0.375000000000002
40
0.375000000000002
40
0.406250000000003
40
0.406250000000003
40
0.437500000000003
40
0.437500000000003
40
0.500000000000003
40
0.500000000000003
40
0.531250000000003
40
0.531250000000003
40
0.562500000000003
40
0.562500000000003
40
0.593750000000002
40
0.593750000000002
40
0.625000000000002
40
0.625000000000002
40
0.687500000000001
40
0.687500000000001
40
0.718750000000001
40
0.718750000000001
40
0.75
40
0.75
40
0.8125
40
0.8125
40
0.84375
40
0.84375
40
0.875
40
0.875
40
0.9375
40
0.9375
40
1
40
1
40
1
40
1
41
1
10
188.511079946355
20
6.53770540529803
30
0
41
1
10
185.191305664311
20
7.96866896646929
30
0
41
1
10
181.875676263815
20
9.35571070459721
30
0
41
1
10
177.724328248473
20
11.0095995495805
30
0
41
1
10
176.893392767629
20
11.3365197384094
30
0
41
1
10
175.232408634426
20
11.9809498945474
30
0
41
1
10
174.402404008659
20
12.298438545096
30
0
41
1
10
171.913254685812
20
13.2356162284662
30
0
41
1
10
170.254985881051
20
13.8400174901529
30
0
41
1
10
166.937258385795
20
15.0019213339015
30
0
41
1
10
165.277575969243
20
15.5590897027785
30
0
41
1
10
162.786027336901
20
16.3578672580099
30
0
41
1
10
161.954866597591
20
16.6180865514906
30
0
41
1
10
160.293673688641
20
17.1255473898276
30
0
41
1
10
159.463728566775
20
17.3727694038943
30
0
41
1
10
157.805145356755
20
17.8540852918879
30
0
41
1
10
156.976618237827
20
18.0883261395132
30
0
41
1
10
155.320191628533
20
18.5425478628285
30
0
41
1
10
154.49220763784
20
18.7624016094221
30
0
41
1
10
152.006330894644
20
19.3969629491223
30
0
41
1
10
150.346556153543
20
19.7864182759062
30
0
41
1
10
147.841413495572
20
20.3107878598259
30
0
41
1
10
147.003349981879
20
20.4757324024789
30
0
41
1
10
145.322293159713
20
20.7846936859658
30
0
41
1
10
144.47948898725
20
20.9286984589733
30
0
41
1
10
142.787524562743
20
21.1957257708956
30
0
41
1
10
141.938177934625
20
21.3185658727216
30
0
41
1
10
140.232386138216
20
21.5449084223069
30
0
41
1
10
139.376091040528
20
21.6485842202541
30
0
41
1
10
136.798267088394
20
21.9353893955077
30
0
41
1
10
135.068140295517
20
22.0946838095129
30
0
41
1
10
132.457527234208
20
22.2966262948489
30
0
41
1
10
131.584472525345
20
22.3577329686343
30
0
41
1
10
129.834817823101
20
22.4689861961143
30
0
41
1
10
128.958379453786
20
22.5191381131728
30
0
41
1
10
126.324810543022
20
22.6553588479154
30
0
41
1
10
124.563978484754
20
22.7274582874678
30
0
41
1
10
121.912326350217
20
22.8120500422237
30
0
41
1
10
121.026677208132
20
22.8363182515439
30
0
41
1
10
119.251101020271
20
22.8778661824572
30
0
41
1
10
118.361098317662
20
22.8951395749879
30
0
41
1
10
115.686942293163
20
22.9379882261386
30
0
41
1
10
113.897195595332
20
22.9545967192002
30
0
41
1
10
110.303750222991
20
22.9746395628588
30
0
41
1
10
108.500168708952
20
22.9781143301015
30
0
41
1
10
106.69016
20
22.9788927399711
30
0
0
SPLINE
5
32E
100
AcDbEntity
8
1
62
256
6
ByLayer
370
13
48
1
60
0
100
AcDbSpline
70
4
71
3
72
8
73
4
40
0
40
0
40
0
40
0
40
1
40
1
40
1
40
1
41
1
10
202.627106212144
20
-23.0993180166999
30
0
41
1
10
201.627106211416
20
-23.0203838361654
30
0
41
1
10
200.627106211409
20
-22.9414496466021
30
0
41
1
10
199.627106212144
20
-22.8625154477263
30
0
0
SPLINE
5
32F
100
AcDbEntity
8
1
62
256
6
ByLayer
370
13
48
1
60
0
100
AcDbSpline
70
4
71
3
72
10
73
6
40
0
40
0
40
0
40
0
40
0.628832043352182
40
0.628832043352182
40
1
40
1
40
1
40
1
41
1
10
199.893850610268
20
8.76694013045511
30
0
41
1
10
196.369187094728
20
8.89007517035782
30
0
41
1
10
192.847360235872
20
8.94727257301707
30
0
41
1
10
187.247652779556
20
8.93567534877926
30
0
41
1
10
185.16940786155
20
8.90892777924316
30
0
41
1
10
183.090894734873
20
8.86032979466816
30
0
0
SPLINE
5
330
100
AcDbEntity
8
1
62
256
6
ByLayer
370
13
48
1
60
0
100
AcDbSpline
70
4
71
3
72
40
73
36
40
0
40
0
40
0
40
0
40
0.0312499999999998
40
0.0312499999999998
40
0.0624999999999995
40
0.0624999999999995
40
0.125
40
0.125
40
0.1875
40
0.1875
40
0.25
40
0.25
40
0.3125
40
0.3125
40
0.375
40
0.375
40
0.5
40
0.5
40
0.625
40
0.625
40
0.6875
40
0.6875
40
0.75
40
0.75
40
0.8125
40
0.8125
40
0.875
40
0.875
40
0.90625
40
0.90625
40
0.9375
40
0.9375
40
0.96875
40
0.96875
40
1
40
1
40
1
40
1
41
1
10
10.1098
20
3.30389422831166
30
0
41
1
10
10.1793124100124
20
3.27232140933086
30
0
41
1
10
10.2392281681268
20
3.22767451146305
30
0
41
1
10
10.3486430946814
20
3.12417318499155
30
0
41
1
10
10.3968453144785
20
3.06600013255829
30
0
41
1
10
10.5268563795688
20
2.88381984684838
30
0
41
1
10
10.5965123618019
20
2.7493259614692
30
0
41
1
10
10.7146211308534
20
2.47667569406477
30
0
41
1
10
10.7633946582066
20
2.33708087936748
30
0
41
1
10
10.8480494986812
20
2.05371379638331
30
0
41
1
10
10.88377173365
20
1.90989237410696
30
0
41
1
10
10.9453415268231
20
1.61899701751057
30
0
41
1
10
10.9711354678067
20
1.47178128361295
30
0
41
1
10
11.0140564799192
20
1.17810311563872
30
0
41
1
10
11.0312774484313
20
1.03115969652515
30
0
41
1
10
11.0720484216872
20
0.590057381724989
30
0
41
1
10
11.0848880823601
20
0.295630511565378
30
0
41
1
10
11.0849401385239
20
-0.293872364041277
30
0
41
1
10
11.0721596988429
20
-0.588948202322882
30
0
41
1
10
11.0311854792298
20
-1.03210728523945
30
0
41
1
10
11.0137955367468
20
-1.18023234551939
30
0
41
1
10
10.9706375102743
20
-1.47483857043105
30
0
41
1
10
10.9449100340883
20
-1.62130240389445
30
0
41
1
10
10.8832261395658
20
-1.91219911340485
30
0
41
1
10
10.8471891667105
20
-2.05703019179845
30
0
41
1
10
10.7619844369293
20
-2.34135295680332
30
0
41
1
10
10.7129711155896
20
-2.48098840339176
30
0
41
1
10
10.6244276880068
20
-2.68462193373855
30
0
41
1
10
10.5923775780976
20
-2.75151788339855
30
0
41
1
10
10.5212149262349
20
-2.88259646069898
30
0
41
1
10
10.4821416731457
20
-2.94668470763469
30
0
41
1
10
10.3953754709921
20
-3.06784525347408
30
0
41
1
10
10.3470447809876
20
-3.12586725916731
30
0
41
1
10
10.2384563644273
20
-3.22821843558245
30
0
41
1
10
10.178963606275
20
-3.27247983740523
30
0
41
1
10
10.1098
20
-3.30389422831172
30
0
0
SPLINE
5
331
100
AcDbEntity
8
1
62
256
6
ByLayer
370
13
48
1
60
0
100
AcDbSpline
70
4
71
3
72
8
73
4
40
0
40
0
40
0
40
0
40
1
40
1
40
1
40
1
41
1
10
204.420809752592
20
16.8965914661932
30
0
41
1
10
204.406940997104
20
16.8698512298705
30
0
41
1
10
204.391597586549
20
16.8457908171131
30
0
41
1
10
204.37566143541
20
16.8242874421405
30
0
0
SPLINE
5
332
100
AcDbEntity
8
1
62
256
6
ByLayer
370
13
48
1
60
0
100
AcDbSpline
70
4
71
3
72
16
73
12
40
0
40
0
40
0
40
0
40
0.414099033351772
40
0.414099033351772
40
0.621148550027658
40
0.621148550027658
40
0.724673308365601
40
0.724673308365601
40
0.828198066703544
40
0.828198066703544
40
1
40
1
40
1
40
1
41
1
10
5.96376950490311
20
-18.258569814827
30
0
41
1
10
6.1709020316225
20
-17.3124154698713
30
0
41
1
10
6.45296331286394
20
-16.38033958578
30
0
41
1
10
6.99500989123422
20
-15.003181333672
30
0
41
1
10
7.19567384819327
20
-14.5476565120615
30
0
41
1
10
7.52883689657028
20
-13.8699363832669
30
0
41
1
10
7.64527569453372
20
-13.6449296213493
30
0
41
1
10
7.88931188550049
20
-13.1969990067579
30
0
41
1
10
8.01711766039962
20
-12.9738105431406
30
0
41
1
10
8.36919888682954
20
-12.3873719779057
30
0
41
1
10
8.60175578643052
20
-12.0279046527396
30
0
41
1
10
8.84690999712447
20
-11.674704110217
30
0
0
SPLINE
5
333
100
AcDbEntity
8
1
62
256
6
ByLayer
370
13
48
1
60
0
100
AcDbSpline
70
4
71
3
72
8
73
4
40
0
40
0
40
0
40
0
40
1
40
1
40
1
40
1
41
1
10
201.690554965117
20
10.8152697127198
30
0
41
1
10
201.674233438144
20
10.8188911952869
30
0
41
1
10
201.657833668087
20
10.8220216928282
30
0
41
1
10
201.641349742153
20
10.8246241018321
30
0
0
SPLINE
5
334
100
AcDbEntity
8
1
62
256
6
ByLayer
370
13
48
1
60
0
100
AcDbSpline
70
4
71
3
72
8
73
4
40
0
40
0
40
0
40
0
40
1
40
1
40
1
40
1
41
1
10
195.658362406785
20
22.5429239122957
30
0
41
1
10
195.692835997086
20
22.5974207667302
30
0
41
1
10
195.727194744365
20
22.6519919217695
30
0
41
1
10
195.761440023711
20
22.7066364877665
30
0
0
SPLINE
5
335
100
AcDbEntity
8
1
62
256
6
ByLayer
370
13
48
1
60
0
100
AcDbSpline
70
4
71
3
72
12
73
8
40
0
40
0
40
0
40
0
40
0.249999999999939
40
0.249999999999939
40
0.499999999999878
40
0.499999999999878
40
1
40
1
40
1
40
1
41
1
10
200.320023456186
20
10.7641582281086
30
0
41
1
10
200.325465508003
20
10.7860947978162
30
0
41
1
10
200.338389754775
20
10.8056228769394
30
0
41
1
10
200.37110526507
20
10.8369130612215
30
0
41
1
10
200.390889435325
20
10.8490981948253
30
0
41
1
10
200.453811861671
20
10.8773327462145
30
0
41
1
10
200.500993395693
20
10.8857880983791
30
0
41
1
10
200.548851722139
20
10.8870436855265
30
0
0
SPLINE
5
336
100
AcDbEntity
8
1
62
256
6
ByLayer
370
13
48
1
60
0
100
AcDbSpline
70
4
71
3
72
8
73
4
40
0
40
0
40
0
40
0
40
1
40
1
40
1
40
1
41
1
10
221.609532531495
20
0.597487434530819
30
0
41
1
10
221.739757639452
20
0.614936862951396
30
0
41
1
10
221.869170568808
20
0.621407033018954
30
0
41
1
10
221.998737105257
20
0.618288882494255
30
0
0
SPLINE
5
337
100
AcDbEntity
8
1
62
256
6
ByLayer
370
13
48
1
60
0
100
AcDbSpline
70
4
71
3
72
8
73
4
40
0
40
0
40
0
40
0
40
1
40
1
40
1
40
1
41
1
10
221.581638806795
20
0.493418270339873
30
0
41
1
10
221.580054100133
20
0.541433807518303
30
0
41
1
10
221.579782848589
20
0.589266975695438
30
0
41
1
10
221.580771020944
20
0.634182069728439
30
0
0
SPLINE
5
338
100
AcDbEntity
8
1
62
256
6
ByLayer
370
13
48
1
60
0
100
AcDbSpline
70
4
71
3
72
62
73
58
40
0
40
0
40
0
40
0
40
0.0356216924400784
40
0.0356216924400784
40
0.0456672998104941
40
0.0456672998104941
40
0.0557129071809098
40
0.0557129071809098
40
0.0758041219217413
40
0.0758041219217413
40
0.0958953366625728
40
0.0958953366625728
40
0.115986551403404
40
0.115986551403404
40
0.156168980885067
40
0.156168980885067
40
0.19635141036673
40
0.19635141036673
40
0.216442625107562
40
0.216442625107562
40
0.236533839848394
40
0.236533839848394
40
0.276716269330057
40
0.276716269330057
40
0.316898698811721
40
0.316898698811721
40
0.357081128293384
40
0.357081128293384
40
0.397263557775048
40
0.397263557775048
40
0.417354772515879
40
0.417354772515879
40
0.437445987256711
40
0.437445987256711
40
0.477628416738374
40
0.477628416738374
40
0.48767402410879
40
0.48767402410879
40
0.497719631479206
40
0.497719631479206
40
0.507765238849622
40
0.507765238849622
40
0.517810846220038
40
0.517810846220038
40
0.53790206096087
40
0.53790206096087
40
0.557993275701702
40
0.557993275701702
40
0.598175705183365
40
0.598175705183365
40
0.678540564146692
40
0.678540564146692
40
0.758905423110019
40
0.758905423110019
40
0.839270282073346
40
0.839270282073346
40
1
40
1
40
1
40
1
41
1
10
157.20115411332
20
-19.0047871954071
30
0
41
1
10
155.781583846407
20
-19.338846126197
30
0
41
1
10
154.362881473182
20
-19.6552691559217
30
0
41
1
10
152.54151683913
20
-20.0218837554413
30
0
41
1
10
152.140670646531
20
-20.1000632628096
30
0
41
1
10
151.338795196426
20
-20.2509217891681
30
0
41
1
10
150.937688815499
20
-20.3237405157826
30
0
41
1
10
149.732888538048
20
-20.5369876276297
30
0
41
1
10
148.92749596503
20
-20.6735052114108
30
0
41
1
10
147.311150227678
20
-20.930713880355
30
0
41
1
10
146.500150589089
20
-21.0506751739628
30
0
41
1
10
144.872098249635
20
-21.2728799638637
30
0
41
1
10
144.055028116795
20
-21.3752767473426
30
0
41
1
10
141.598172056889
20
-21.656940665607
30
0
41
1
10
139.951362468853
20
-21.8098387657871
30
0
41
1
10
136.639776641939
20
-22.0689594570864
30
0
41
1
10
134.975197868798
20
-22.1757095018048
30
0
41
1
10
132.46549789753
20
-22.3056090906109
30
0
41
1
10
131.626782492086
20
-22.3438249118003
30
0
41
1
10
129.94503675433
20
-22.4105728200551
30
0
41
1
10
129.101722226062
20
-22.4391108310585
30
0
41
1
10
126.567909474912
20
-22.5108544347343
30
0
41
1
10
124.873457086707
20
-22.5395067907303
30
0
41
1
10
121.472435670106
20
-22.5756249407978
30
0
41
1
10
119.765838423956
20
-22.583584451155
30
0
41
1
10
116.33957158507
20
-22.5889854021441
30
0
41
1
10
114.619709977775
20
-22.5864516214739
30
0
41
1
10
111.166824588154
20
-22.5784110688767
30
0
41
1
10
109.436362085043
20
-22.5729952315791
30
0
41
1
10
106.834459972698
20
-22.5590310256853
30
0
41
1
10
105.966122206451
20
-22.553395206889
30
0
41
1
10
104.227328813628
20
-22.5395901429437
30
0
41
1
10
103.357470908391
20
-22.5314946926998
30
0
41
1
10
100.747333496097
20
-22.506718523683
30
0
41
1
10
99.0061502373114
20
-22.4897331433943
30
0
41
1
10
96.8284204512192
20
-22.4848286944437
30
0
41
1
10
96.3928121977996
20
-22.4846728530639
30
0
41
1
10
95.5214744893498
20
-22.4864562821104
30
0
41
1
10
95.0857428258568
20
-22.4886033070431
30
0
41
1
10
94.2141790645869
20
-22.4938171791078
30
0
41
1
10
93.7783477527248
20
-22.4967474999584
30
0
41
1
10
92.9066234458953
20
-22.501389913742
30
0
41
1
10
92.4707321803733
20
-22.5029513903698
30
0
41
1
10
91.1629960693811
20
-22.5055554384446
30
0
41
1
10
90.2910863073836
20
-22.5047518636293
30
0
41
1
10
88.5471962919185
20
-22.5024408360997
30
0
41
1
10
87.6752225183136
20
-22.5011997392151
30
0
41
1
10
85.0593318361635
20
-22.4981142810273
30
0
41
1
10
83.3154049433202
20
-22.4970343114614
30
0
41
1
10
78.0836213625727
20
-22.4951511708536
30
0
41
1
10
74.5957635528449
20
-22.4943606514997
30
0
41
1
10
67.6200477382341
20
-22.4914246828968
30
0
41
1
10
64.1321894900991
20
-22.4896078588561
30
0
41
1
10
57.1564718308844
20
-22.4890078117422
30
0
41
1
10
53.6686127851551
20
-22.4901351687841
30
0
41
1
10
43.20503603876
20
-22.4929318508426
30
0
41
1
10
36.2293180406457
20
-22.4942898089134
30
0
41
1
10
29.2536
20
-22.4941247476125
30
0
0
SPLINE
5
339
100
AcDbEntity
8
1
62
256
6
ByLayer
370
13
48
1
60
0
100
AcDbSpline
70
4
71
1
72
4
73
2
40
0
40
0
40
1
40
1
41
1
10
179.28189268913
20
10.3881724164169
30
0
41
1
10
179.221087051181
20
10.4124537777936
30
0
0
SPLINE
5
33A
100
AcDbEntity
8
1
62
256
6
ByLayer
370
13
48
1
60
0
100
AcDbSpline
70
4
71
3
72
12
73
8
40
0
40
0
40
0
40
0
40
0.280002922082702
40
0.560019751988724
40
0.706685777960362
40
0.853341605887405
40
1
40
1
40
1
40
1
41
1
10
5.00980000000035
20
-24.75
30
0
41
1
10
7.23345918589723
20
-24.6456781201139
30
0
41
1
10
11.677730222259
20
-24.3928779339697
30
0
41
1
10
17.2811116278534
20
-23.9810009205144
30
0
41
1
10
21.818349447899
20
-23.5550160228067
30
0
41
1
10
25.305659103781
20
-23.2686302075756
30
0
41
1
10
27.6367190421811
20
-23.217321975249
30
0
41
1
10
28.8036
20
-23.2171874999998
30
0
0
SPLINE
5
33B
100
AcDbEntity
8
1
62
256
6
ByLayer
370
13
48
1
60
0
100
AcDbSpline
70
4
71
3
72
11
73
7
40
0
40
0
40
0
40
0
40
0.186654094077258
40
0.373309613716308
40
0.559987553265171
40
1
40
1
40
1
40
1
41
1
10
28.8036
20
23.2171874999997
30
0
41
1
10
27.3182705673481
20
23.2239198680775
30
0
41
1
10
24.3513370118676
20
23.3015508500817
30
0
41
1
10
19.9202811586137
20
23.7509958401508
30
0
41
1
10
13.476577263123
20
24.275288537842
30
0
41
1
10
8.50458006738955
20
24.5860338925584
30
0
41
1
10
5.00980000000041
20
24.75
30
0
0
SPLINE
5
33C
100
AcDbEntity
8
1
62
256
6
ByLayer
370
13
48
1
60
0
100
AcDbSpline
70
4
71
2
72
6
73
3
40
0
40
0
40
0
40
1
40
1
40
1
41
1
10
222.341210170497
20
8.14952503206712
30
0
41
1
10
222.409138076597
20
8.22051674967028
30
0
41
1
10
222.478380134285
20
8.27639163994897
30
0
0
SPLINE
5
33D
100
AcDbEntity
8
1
62
256
6
ByLayer
370
13
48
1
60
0
100
AcDbSpline
70
4
71
2
72
6
73
3
40
0
40
0
40
0
40
1
40
1
40
1
41
1
10
205.423732387315
20
7.38259542507575
30
0
41
1
10
205.498435646182
20
7.33426438917598
30
0
41
1
10
205.573412091251
20
7.27076197126755
30
0
0
LINE
5
7F
100
AcDbEntity
8
SK1
62
256
6
ByLayer
370
13
48
1
60
0
100
AcDbLine
10
-1.375195
20
-18.796
30
0
11
-1.375195
21
18.796
31
0
39
0
210
0
220
0
230
1
0
LINE
5
81
100
AcDbEntity
8
1
62
256
6
ByLayer
370
18
48
1
60
0
100
AcDbLine
10
213.330761
20
16.87768
30
0
11
213.195051
21
16.870568
31
0
39
0
210
0
220
0
230
1
0
LINE
5
82
100
AcDbEntity
8
1
62
256
6
ByLayer
370
18
48
1
60
0
100
AcDbLine
10
215.074101
20
15.908744
30
0
11
215.054191
21
15.90814
31
0
39
0
210
0
220
0
230
1
0
LINE
5
83
100
AcDbEntity
8
1
62
256
6
ByLayer
370
18
48
1
60
0
100
AcDbLine
10
214.899503
20
14.4522
30
0
11
214.763793
21
14.445088
31
0
39
0
210
0
220
0
230
1
0
LINE
5
84
100
AcDbEntity
8
1
62
256
6
ByLayer
370
18
48
1
60
0
100
AcDbLine
10
214.887997
20
14.469161
30
0
11
214.753309
21
14.462103
31
0
39
0
210
0
220
0
230
1
0
LINE
5
85
100
AcDbEntity
8
1
62
256
6
ByLayer
370
18
48
1
60
0
100
AcDbLine
10
214.788671
20
16.566993
30
0
11
214.652962
21
16.559881
31
0
39
0
210
0
220
0
230
1
0
LINE
5
86
100
AcDbEntity
8
1
62
256
6
ByLayer
370
18
48
1
60
0
100
AcDbLine
10
214.779001
20
16.548922
30
0
11
214.644314
21
16.541863
31
0
39
0
210
0
220
0
230
1
0
LINE
5
87
100
AcDbEntity
8
1
62
256
6
ByLayer
370
18
48
1
60
0
100
AcDbLine
10
213.206268
20
16.854031
30
0
11
213.195051
21
16.870568
31
0
39
0
210
0
220
0
230
1
0
LINE
5
88
100
AcDbEntity
8
1
62
256
6
ByLayer
370
18
48
1
60
0
100
AcDbLine
10
214.644314
20
16.541863
30
0
11
214.652962
21
16.559881
31
0
39
0
210
0
220
0
230
1
0
LINE
5
89
100
AcDbEntity
8
1
62
256
6
ByLayer
370
18
48
1
60
0
100
AcDbLine
10
213.490459
20
14.008387
30
0
11
213.355771
21
14.001328
31
0
39
0
210
0
220
0
230
1
0
LINE
5
8A
100
AcDbEntity
8
1
62
256
6
ByLayer
370
18
48
1
60
0
100
AcDbLine
10
213.340955
20
16.861089
30
0
11
213.206268
21
16.854031
31
0
39
0
210
0
220
0
230
1
0
LINE
5
8B
100
AcDbEntity
8
1
62
256
6
ByLayer
370
18
48
1
60
0
100
AcDbLine
10
215.229386
20
15.142257
30
0
11
215.094699
21
15.135198
31
0
39
0
210
0
220
0
230
1
0
LINE
5
8C
100
AcDbEntity
8
1
62
256
6
ByLayer
370
18
48
1
60
0
100
AcDbLine
10
215.094699
20
15.135198
30
0
11
215.114563
21
15.136679
31
0
39
0
210
0
220
0
230
1
0
LINE
5
8D
100
AcDbEntity
8
1
62
256
6
ByLayer
370
18
48
1
60
0
100
AcDbLine
10
213.482055
20
13.990822
30
0
11
213.346345
21
13.98371
31
0
39
0
210
0
220
0
230
1
0
LINE
5
8E
100
AcDbEntity
8
1
62
256
6
ByLayer
370
18
48
1
60
0
100
AcDbLine
10
212.374915
20
14.9931
30
0
11
212.3066
21
14.98952
31
0
39
0
210
0
220
0
230
1
0
LINE
5
8F
100
AcDbEntity
8
1
62
256
6
ByLayer
370
18
48
1
60
0
100
AcDbLine
10
215.188878
20
15.915198
30
0
11
215.054191
21
15.90814
31
0
39
0
210
0
220
0
230
1
0
LINE
5
90
100
AcDbEntity
8
1
62
256
6
ByLayer
370
18
48
1
60
0
100
AcDbLine
10
213.346345
20
13.98371
30
0
11
213.355771
21
14.001328
31
0
39
0
210
0
220
0
230
1
0
LINE
5
91
100
AcDbEntity
8
1
62
256
6
ByLayer
370
18
48
1
60
0
100
AcDbLine
10
212.334452
20
15.765165
30
0
11
212.266727
21
15.761616
31
0
39
0
210
0
220
0
230
1
0
LINE
5
92
100
AcDbEntity
8
1
62
256
6
ByLayer
370
18
48
1
60
0
100
AcDbLine
10
214.763793
20
14.445088
30
0
11
214.753309
21
14.462103
31
0
39
0
210
0
220
0
230
1
0
LINE
5
93
100
AcDbEntity
8
1
62
256
6
ByLayer
370
18
48
1
60
0
100
AcDbLine
10
221.940025
20
0.207435
30
0
11
221.956048
21
0.151869
31
0
39
0
210
0
220
0
230
1
0
LINE
5
94
100
AcDbEntity
8
1
62
256
6
ByLayer
370
18
48
1
60
0
100
AcDbLine
10
223.078963
20
-7.070003
30
0
11
222.181953
21
-13.84556
31
0
39
0
210
0
220
0
230
1
0
LINE
5
95
100
AcDbEntity
8
1
62
256
6
ByLayer
370
18
48
1
60
0
100
AcDbLine
10
221.582624
20
0.465298
30
0
11
221.649268
21
0.456573
31
0
39
0
210
0
220
0
230
1
0
LINE
5
96
100
AcDbEntity
8
1
62
256
6
ByLayer
370
18
48
1
60
0
100
AcDbLine
10
221.780181
20
-14.171657
30
0
11
221.74918
21
-14.176539
31
0
39
0
210
0
220
0
230
1
0
LINE
5
97
100
AcDbEntity
8
1
62
256
6
ByLayer
370
18
48
1
60
0
100
AcDbLine
10
221.977189
20
0.057037
30
0
11
223.075958
21
-6.841712
31
0
39
0
210
0
220
0
230
1
0
LINE
5
98
100
AcDbEntity
8
1
62
256
6
ByLayer
370
18
48
1
60
0
100
AcDbLine
10
221.93142
20
-14.1347
30
0
11
221.875543
21
-14.150633
31
0
39
0
210
0
220
0
230
1
0
LINE
5
99
100
AcDbEntity
8
1
62
256
6
ByLayer
370
13
48
1
60
0
100
AcDbLine
10
207.463795
20
21.419904
30
0
11
206.621819
21
14.986369
31
0
39
0
210
0
220
0
230
1
0
LINE
5
9A
100
AcDbEntity
8
1
62
256
6
ByLayer
370
13
48
1
60
0
100
AcDbLine
10
204.02719
20
14.413752
30
0
11
205.275267
21
7.752471
31
0
39
0
210
0
220
0
230
1
0
LINE
5
9B
100
AcDbEntity
8
1
62
256
6
ByLayer
370
13
48
1
60
0
100
AcDbLine
10
222.090629
20
9.39858
30
0
11
222.433235
21
9.453
31
0
39
0
210
0
220
0
230
1
0
LINE
5
9C
100
AcDbEntity
8
1
62
256
6
ByLayer
370
13
48
1
60
0
100
AcDbLine
10
223.463208
20
15.915454
30
0
11
222.647307
21
9.681162
31
0
39
0
210
0
220
0
230
1
0
LINE
5
9D
100
AcDbEntity
8
1
62
256
6
ByLayer
370
13
48
1
60
0
100
AcDbLine
10
223.359871
20
15.928287
30
0
11
222.542243
21
9.680794
31
0
39
0
210
0
220
0
230
1
0
LINE
5
9E
100
AcDbEntity
8
1
62
256
6
ByLayer
370
13
48
1
60
0
100
AcDbLine
10
222.480626
20
9.29436
30
0
11
222.401235
21
8.548724
31
0
39
0
210
0
220
0
230
1
0
LINE
5
9F
100
AcDbEntity
8
1
62
256
6
ByLayer
370
13
48
1
60
0
100
AcDbLine
10
221.139794
20
23.734364
30
0
11
221.135182
21
23.734122
31
0
39
0
210
0
220
0
230
1
0
LINE
5
A0
100
AcDbEntity
8
1
62
256
6
ByLayer
370
13
48
1
60
0
100
AcDbLine
10
203.971899
20
15.468764
30
0
11
203.977301
21
16.02568
31
0
39
0
210
0
220
0
230
1
0
LINE
5
A1
100
AcDbEntity
8
1
62
256
6
ByLayer
370
13
48
1
60
0
100
AcDbLine
10
205.125537
20
22.402169
30
0
11
204.982462
21
22.379443
31
0
39
0
210
0
220
0
230
1
0
LINE
5
A2
100
AcDbEntity
8
1
62
256
6
ByLayer
370
13
48
1
60
0
100
AcDbLine
10
205.010372
20
21.231617
30
0
11
204.987982
21
21.44495
31
0
39
0
210
0
220
0
230
1
0
LINE
5
A3
100
AcDbEntity
8
1
62
256
6
ByLayer
370
13
48
1
60
0
100
AcDbLine
10
206.623721
20
14.84289
30
0
11
207.609842
21
8.598805
31
0
39
0
210
0
220
0
230
1
0
LINE
5
A4
100
AcDbEntity
8
1
62
256
6
ByLayer
370
13
48
1
60
0
100
AcDbLine
10
203.971899
20
15.468764
30
0
11
204.051873
21
16.219871
31
0
39
0
210
0
220
0
230
1
0
LINE
5
A5
100
AcDbEntity
8
1
62
256
6
ByLayer
370
13
48
1
60
0
100
AcDbLine
10
206.405921
20
15.011552
30
0
11
207.247897
21
21.445086
31
0
39
0
210
0
220
0
230
1
0
LINE
5
A6
100
AcDbEntity
8
1
62
256
6
ByLayer
370
13
48
1
60
0
100
AcDbLine
10
207.26191
20
21.55216
30
0
11
207.257298
21
21.551919
31
0
39
0
210
0
220
0
230
1
0
LINE
5
A7
100
AcDbEntity
8
1
62
256
6
ByLayer
370
13
48
1
60
0
100
AcDbLine
10
220.534095
20
9.406423
30
0
11
222.380319
21
9.699681
31
0
39
0
210
0
220
0
230
1
0
LINE
5
A8
100
AcDbEntity
8
1
62
256
6
ByLayer
370
13
48
1
60
0
100
AcDbLine
10
204.194471
20
14.997325
30
0
11
205.010372
21
21.231617
31
0
39
0
210
0
220
0
230
1
0
LINE
5
A9
100
AcDbEntity
8
1
62
256
6
ByLayer
370
13
48
1
60
0
100
AcDbLine
10
205.403642
20
7.768935
30
0
11
204.295859
21
14.78338
31
0
39
0
210
0
220
0
230
1
0
LINE
5
AA
100
AcDbEntity
8
1
62
256
6
ByLayer
370
13
48
1
60
0
100
AcDbLine
10
222.380319
20
9.699681
30
0
11
223.197948
21
15.947174
31
0
39
0
210
0
220
0
230
1
0
LINE
5
AB
100
AcDbEntity
8
1
62
256
6
ByLayer
370
13
48
1
60
0
100
AcDbLine
10
206.781534
20
7.189586
30
0
11
206.553111
21
7.179622
31
0
39
0
210
0
220
0
230
1
0
LINE
5
AC
100
AcDbEntity
8
1
62
256
6
ByLayer
370
13
48
1
60
0
100
AcDbLine
10
223.364484
20
15.928529
30
0
11
223.359871
21
15.928287
31
0
39
0
210
0
220
0
230
1
0
LINE
5
AD
100
AcDbEntity
8
1
62
256
6
ByLayer
370
13
48
1
60
0
100
AcDbLine
10
207.275715
20
8.24475
30
0
11
206.242619
21
14.786282
31
0
39
0
210
0
220
0
230
1
0
LINE
5
AE
100
AcDbEntity
8
1
62
256
6
ByLayer
370
13
48
1
60
0
100
AcDbLine
10
220.510092
20
9.248773
30
0
11
220.50548
21
9.248531
31
0
39
0
210
0
220
0
230
1
0
LINE
5
AF
100
AcDbEntity
8
1
62
256
6
ByLayer
370
13
48
1
60
0
100
AcDbLine
10
221.978678
20
8.481604
30
0
11
222.433235
21
9.453
31
0
39
0
210
0
220
0
230
1
0
LINE
5
B0
100
AcDbEntity
8
1
62
256
6
ByLayer
370
13
48
1
60
0
100
AcDbLine
10
204.02719
20
14.413752
30
0
11
203.972281
21
14.761436
31
0
39
0
210
0
220
0
230
1
0
LINE
5
B1
100
AcDbEntity
8
1
62
256
6
ByLayer
370
13
48
1
60
0
100
AcDbLine
10
222.417554
20
9.552249
30
0
11
220.50548
21
9.248531
31
0
39
0
210
0
220
0
230
1
0
LINE
5
B2
100
AcDbEntity
8
1
62
256
6
ByLayer
370
13
48
1
60
0
100
AcDbLine
10
205.92944
20
22.763988
30
0
11
205.606464
21
22.764192
31
0
39
0
210
0
220
0
230
1
0
LINE
5
B3
100
AcDbEntity
8
1
62
256
6
ByLayer
370
13
48
1
60
0
100
AcDbLine
10
220.407464
20
9.449982
30
0
11
220.395769
21
9.360619
31
0
39
0
210
0
220
0
230
1
0
LINE
5
B4
100
AcDbEntity
8
1
62
256
6
ByLayer
370
13
48
1
60
0
100
AcDbLine
10
222.254037
20
23.143844
30
0
11
223.36182
21
16.1294
31
0
39
0
210
0
220
0
230
1
0
LINE
5
B5
100
AcDbEntity
8
1
62
256
6
ByLayer
370
13
48
1
60
0
100
AcDbLine
10
206.403972
20
14.810439
30
0
11
207.440873
21
8.244818
31
0
39
0
210
0
220
0
230
1
0
LINE
5
B6
100
AcDbEntity
8
1
62
256
6
ByLayer
370
13
48
1
60
0
100
AcDbLine
10
220.437165
20
23.591237
30
0
11
220.595912
21
23.599557
31
0
39
0
210
0
220
0
230
1
0
LINE
5
B7
100
AcDbEntity
8
1
62
256
6
ByLayer
370
13
48
1
60
0
100
AcDbLine
10
220.876146
20
23.723193
30
0
11
220.871533
21
23.722951
31
0
39
0
210
0
220
0
230
1
0
LINE
5
B8
100
AcDbEntity
8
1
62
256
6
ByLayer
370
13
48
1
60
0
100
AcDbLine
10
222.249425
20
23.143602
30
0
11
223.357208
21
16.129158
31
0
39
0
210
0
220
0
230
1
0
LINE
5
B9
100
AcDbEntity
8
1
62
256
6
ByLayer
370
13
48
1
60
0
100
AcDbLine
10
206.965446
20
7.338613
30
0
11
206.960833
21
7.338372
31
0
39
0
210
0
220
0
230
1
0
LINE
5
BA
100
AcDbEntity
8
1
62
256
6
ByLayer
370
13
48
1
60
0
100
AcDbLine
10
220.743505
20
23.773631
30
0
11
220.776217
21
23.775346
31
0
39
0
210
0
220
0
230
1
0
LINE
5
BB
100
AcDbEntity
8
1
62
256
6
ByLayer
370
13
48
1
60
0
100
AcDbLine
10
206.408584
20
14.810681
30
0
11
206.403972
21
14.810439
31
0
39
0
210
0
220
0
230
1
0
LINE
5
BC
100
AcDbEntity
8
1
62
256
6
ByLayer
370
13
48
1
60
0
100
AcDbLine
10
206.405921
20
15.011552
30
0
11
206.401308
21
15.01131
31
0
39
0
210
0
220
0
230
1
0
LINE
5
BD
100
AcDbEntity
8
1
62
256
6
ByLayer
370
13
48
1
60
0
100
AcDbLine
10
223.460165
20
16.145021
30
0
11
222.352381
21
23.159465
31
0
39
0
210
0
220
0
230
1
0
LINE
5
BE
100
AcDbEntity
8
1
62
256
6
ByLayer
370
13
48
1
60
0
100
AcDbLine
10
220.872147
20
23.722978
30
0
11
221.099956
21
23.732916
31
0
39
0
210
0
220
0
230
1
0
LINE
5
BF
100
AcDbEntity
8
1
62
256
6
ByLayer
370
13
48
1
60
0
100
AcDbLine
10
222.422166
20
9.552491
30
0
11
220.510092
21
9.248773
31
0
39
0
210
0
220
0
230
1
0
LINE
5
C0
100
AcDbEntity
8
1
62
256
6
ByLayer
370
13
48
1
60
0
100
AcDbLine
10
207.445485
20
8.245059
30
0
11
207.440873
21
8.244818
31
0
39
0
210
0
220
0
230
1
0
LINE
5
C1
100
AcDbEntity
8
1
62
256
6
ByLayer
370
13
48
1
60
0
100
AcDbLine
10
206.239385
20
15.030197
30
0
11
207.086687
21
21.504423
31
0
39
0
210
0
220
0
230
1
0
LINE
5
C2
100
AcDbEntity
8
1
62
256
6
ByLayer
370
13
48
1
60
0
100
AcDbLine
10
207.247897
20
21.445086
30
0
11
207.26191
21
21.55216
31
0
39
0
210
0
220
0
230
1
0
LINE
5
C3
100
AcDbEntity
8
1
62
256
6
ByLayer
370
13
48
1
60
0
100
AcDbLine
10
220.344666
20
9.121247
30
0
11
222.090629
21
9.39858
31
0
39
0
210
0
220
0
230
1
0
LINE
5
C4
100
AcDbEntity
8
1
62
256
6
ByLayer
370
13
48
1
60
0
100
AcDbLine
10
204.424926
20
14.805845
30
0
11
205.53271
21
7.7914
31
0
39
0
210
0
220
0
230
1
0
LINE
5
C5
100
AcDbEntity
8
1
62
256
6
ByLayer
370
13
48
1
60
0
100
AcDbLine
10
222.422166
20
9.552491
30
0
11
222.417554
21
9.552249
31
0
39
0
210
0
220
0
230
1
0
LINE
5
C6
100
AcDbEntity
8
1
62
256
6
ByLayer
370
13
48
1
60
0
100
AcDbLine
10
222.546855
20
9.681036
30
0
11
222.542243
21
9.680794
31
0
39
0
210
0
220
0
230
1
0
LINE
5
C7
100
AcDbEntity
8
1
62
256
6
ByLayer
370
13
48
1
60
0
100
AcDbLine
10
220.345066
20
22.666096
30
0
11
221.378163
21
16.124563
31
0
39
0
210
0
220
0
230
1
0
LINE
5
C8
100
AcDbEntity
8
1
62
256
6
ByLayer
370
13
48
1
60
0
100
AcDbLine
10
222.254037
20
23.143844
30
0
11
222.249425
21
23.143602
31
0
39
0
210
0
220
0
230
1
0
LINE
5
C9
100
AcDbEntity
8
1
62
256
6
ByLayer
370
13
48
1
60
0
100
AcDbLine
10
205.417076
20
22.987734
30
0
11
205.529201
21
22.976283
31
0
39
0
210
0
220
0
230
1
0
LINE
5
CA
100
AcDbEntity
8
1
62
256
6
ByLayer
370
13
48
1
60
0
100
AcDbLine
10
204.161625
20
16.444486
30
0
11
203.969436
21
14.975976
31
0
39
0
210
0
220
0
230
1
0
LINE
5
CB
100
AcDbEntity
8
1
62
256
6
ByLayer
370
13
48
1
60
0
100
AcDbLine
10
223.36182
20
16.1294
30
0
11
223.357208
21
16.129158
31
0
39
0
210
0
220
0
230
1
0
LINE
5
CC
100
AcDbEntity
8
1
62
256
6
ByLayer
370
13
48
1
60
0
100
AcDbLine
10
206.881463
20
7.137434
30
0
11
206.649666
21
7.08374
31
0
39
0
210
0
220
0
230
1
0
LINE
5
CD
100
AcDbEntity
8
1
62
256
6
ByLayer
370
13
48
1
60
0
100
AcDbLine
10
222.436159
20
8.261338
30
0
11
222.401235
21
8.548724
31
0
39
0
210
0
220
0
230
1
0
LINE
5
CE
100
AcDbEntity
8
1
62
256
6
ByLayer
370
13
48
1
60
0
100
AcDbLine
10
221.381397
20
15.880649
30
0
11
220.534095
21
9.406423
31
0
39
0
210
0
220
0
230
1
0
LINE
5
CF
100
AcDbEntity
8
1
62
256
6
ByLayer
370
13
48
1
60
0
100
AcDbLine
10
223.195855
20
16.105001
30
0
11
222.088072
21
23.119445
31
0
39
0
210
0
220
0
230
1
0
LINE
5
D0
100
AcDbEntity
8
1
62
256
6
ByLayer
370
13
48
1
60
0
100
AcDbLine
10
222.090629
20
9.39858
30
0
11
221.777101
21
8.114797
31
0
39
0
210
0
220
0
230
1
0
LINE
5
D1
100
AcDbEntity
8
1
62
256
6
ByLayer
370
13
48
1
60
0
100
AcDbLine
10
220.212194
20
22.66772
30
0
11
220.260135
21
22.364159
31
0
39
0
210
0
220
0
230
1
0
LINE
5
D2
100
AcDbEntity
8
1
62
256
6
ByLayer
370
13
48
1
60
0
100
AcDbLine
10
205.240463
20
21.211165
30
0
11
204.422834
21
14.963672
31
0
39
0
210
0
220
0
230
1
0
LINE
5
D3
100
AcDbEntity
8
1
62
256
6
ByLayer
370
13
48
1
60
0
100
AcDbLine
10
221.582897
20
23.734265
30
0
11
221.578284
21
23.734023
31
0
39
0
210
0
220
0
230
1
0
LINE
5
D4
100
AcDbEntity
8
1
62
256
6
ByLayer
370
13
48
1
60
0
100
AcDbLine
10
223.364484
20
15.928529
30
0
11
222.546855
21
9.681036
31
0
39
0
210
0
220
0
230
1
0
LINE
5
D5
100
AcDbEntity
8
1
62
256
6
ByLayer
370
13
48
1
60
0
100
AcDbLine
10
207.394705
20
8.566596
30
0
11
206.408584
21
14.810681
31
0
39
0
210
0
220
0
230
1
0
LINE
5
D6
100
AcDbEntity
8
1
62
256
6
ByLayer
370
13
48
1
60
0
100
AcDbLine
10
204.293196
20
14.98425
30
0
11
205.110825
21
21.231744
31
0
39
0
210
0
220
0
230
1
0
LINE
5
D7
100
AcDbEntity
8
1
62
256
6
ByLayer
370
13
48
1
60
0
100
AcDbLine
10
219.639312
20
9.226949
30
0
11
208.701351
21
8.653715
31
0
39
0
210
0
220
0
230
1
0
LINE
5
D8
100
AcDbEntity
8
1
62
256
6
ByLayer
370
13
48
1
60
0
100
AcDbLine
10
207.313014
20
21.791532
30
0
11
205.224444
21
21.459779
31
0
39
0
210
0
220
0
230
1
0
LINE
5
D9
100
AcDbEntity
8
1
62
256
6
ByLayer
370
13
48
1
60
0
100
AcDbLine
10
221.104568
20
23.733157
30
0
11
221.099956
21
23.732916
31
0
39
0
210
0
220
0
230
1
0
LINE
5
DA
100
AcDbEntity
8
1
62
256
6
ByLayer
370
13
48
1
60
0
100
AcDbLine
10
205.235513
20
21.360289
30
0
11
207.147587
21
21.664006
31
0
39
0
210
0
220
0
230
1
0
LINE
5
DB
100
AcDbEntity
8
1
62
256
6
ByLayer
370
13
48
1
60
0
100
AcDbLine
10
207.086687
20
21.504423
30
0
11
205.240463
21
21.211165
31
0
39
0
210
0
220
0
230
1
0
LINE
5
DC
100
AcDbEntity
8
1
62
256
6
ByLayer
370
13
48
1
60
0
100
AcDbLine
10
206.528114
20
7.328512
30
0
11
206.756536
21
7.338477
31
0
39
0
210
0
220
0
230
1
0
LINE
5
DD
100
AcDbEntity
8
1
62
256
6
ByLayer
370
13
48
1
60
0
100
AcDbLine
10
204.264505
20
12.291049
30
0
11
205.003892
21
9.200849
31
0
39
0
210
0
220
0
230
1
0
LINE
5
DE
100
AcDbEntity
8
1
62
256
6
ByLayer
370
13
48
1
60
0
100
AcDbLine
10
203.971899
20
15.468764
30
0
11
203.953634
21
15.117246
31
0
39
0
210
0
220
0
230
1
0
LINE
5
DF
100
AcDbEntity
8
1
62
256
6
ByLayer
370
13
48
1
60
0
100
AcDbLine
10
221.978678
20
8.481604
30
0
11
222.401235
21
8.548724
31
0
39
0
210
0
220
0
230
1
0
LINE
5
E0
100
AcDbEntity
8
1
62
256
6
ByLayer
370
13
48
1
60
0
100
AcDbLine
10
220.853819
20
23.796739
30
0
11
220.743505
21
23.773631
31
0
39
0
210
0
220
0
230
1
0
LINE
5
E1
100
AcDbEntity
8
1
62
256
6
ByLayer
370
13
48
1
60
0
100
AcDbLine
10
222.705862
20
10.128605
30
0
11
222.58737
21
8.65976
31
0
39
0
210
0
220
0
230
1
0
LINE
5
E2
100
AcDbEntity
8
1
62
256
6
ByLayer
370
13
48
1
60
0
100
AcDbLine
10
204.197515
20
14.767759
30
0
11
205.305298
21
7.753314
31
0
39
0
210
0
220
0
230
1
0
LINE
5
E3
100
AcDbEntity
8
1
62
256
6
ByLayer
370
13
48
1
60
0
100
AcDbLine
10
208.018367
20
21.68583
30
0
11
218.956328
21
22.259064
31
0
39
0
210
0
220
0
230
1
0
LINE
5
E4
100
AcDbEntity
8
1
62
256
6
ByLayer
370
13
48
1
60
0
100
AcDbLine
10
221.070856
20
16.071823
30
0
11
220.084735
21
22.315908
31
0
39
0
210
0
220
0
230
1
0
LINE
5
E5
100
AcDbEntity
8
1
62
256
6
ByLayer
370
13
48
1
60
0
100
AcDbLine
10
207.257298
20
21.551919
30
0
11
206.401308
21
15.01131
31
0
39
0
210
0
220
0
230
1
0
LINE
5
E6
100
AcDbEntity
8
1
62
256
6
ByLayer
370
13
48
1
60
0
100
AcDbLine
10
205.125537
20
22.402169
30
0
11
205.224444
21
21.459779
31
0
39
0
210
0
220
0
230
1
0
LINE
5
E7
100
AcDbEntity
8
1
62
256
6
ByLayer
370
13
48
1
60
0
100
AcDbLine
10
207.445485
20
8.245059
30
0
11
207.394705
21
8.566596
31
0
39
0
210
0
220
0
230
1
0
LINE
5
E8
100
AcDbEntity
8
1
62
256
6
ByLayer
370
13
48
1
60
0
100
AcDbLine
10
220.230781
20
9.494809
30
0
11
221.072758
21
15.928344
31
0
39
0
210
0
220
0
230
1
0
LINE
5
E9
100
AcDbEntity
8
1
62
256
6
ByLayer
370
13
48
1
60
0
100
AcDbLine
10
220.776217
20
23.775346
30
0
11
221.008013
21
23.829039
31
0
39
0
210
0
220
0
230
1
0
LINE
5
EA
100
AcDbEntity
8
1
62
256
6
ByLayer
370
13
48
1
60
0
100
AcDbLine
10
221.092668
20
23.582334
30
0
11
220.864245
21
23.572369
31
0
39
0
210
0
220
0
230
1
0
LINE
5
EB
100
AcDbEntity
8
1
62
256
6
ByLayer
370
13
48
1
60
0
100
AcDbLine
10
207.419561
20
8.160775
30
0
11
207.414949
21
8.160534
31
0
39
0
210
0
220
0
230
1
0
LINE
5
EC
100
AcDbEntity
8
1
62
256
6
ByLayer
370
13
48
1
60
0
100
AcDbLine
10
221.124508
20
8.112186
30
0
11
221.332751
21
8.110934
31
0
39
0
210
0
220
0
230
1
0
LINE
5
ED
100
AcDbEntity
8
1
62
256
6
ByLayer
370
13
48
1
60
0
100
AcDbLine
10
220.876146
20
23.723193
30
0
11
221.104568
21
23.733157
31
0
39
0
210
0
220
0
230
1
0
LINE
5
EE
100
AcDbEntity
8
SK1
62
256
6
ByLayer
370
13
48
1
60
0
100
AcDbLine
10
-68.516222
20
18.942544
30
0
11
-68.516222
21
8.64654
31
0
39
0
210
0
220
0
230
1
0
LINE
5
EF
100
AcDbEntity
8
SK1
62
256
6
ByLayer
370
13
48
1
60
0
100
AcDbLine
10
-68.516222
20
-8.64654
30
0
11
-68.516222
21
-18.942544
31
0
39
0
210
0
220
0
230
1
0
LINE
5
F0
100
AcDbEntity
8
SK1
62
256
6
ByLayer
370
13
48
1
60
0
100
AcDbLine
10
-68.599999
20
-8.870896
30
0
11
-69
21
-8.870896
31
0
39
0
210
0
220
0
230
1
0
LINE
5
F1
100
AcDbEntity
8
SK1
62
256
6
ByLayer
370
13
48
1
60
0
100
AcDbLine
10
-66.600002
20
8.870896
30
0
11
-6.5
21
8.870896
31
0
39
0
210
0
220
0
230
1
0
LINE
5
F2
100
AcDbEntity
8
SK1
62
256
6
ByLayer
370
13
48
1
60
0
100
AcDbLine
10
-2
20
-19.046
30
0
11
-2
21
19.046
31
0
39
0
210
0
220
0
230
1
0
LINE
5
F3
100
AcDbEntity
8
SK1
62
256
6
ByLayer
370
13
48
1
60
0
100
AcDbLine
10
-1.544243
20
-18.833477
30
0
11
-1.544243
21
18.833477
31
0
39
0
210
0
220
0
230
1
0
LINE
5
F4
100
AcDbEntity
8
SK1
62
256
6
ByLayer
370
13
48
1
60
0
100
AcDbLine
10
-6.5
20
-8.870896
30
0
11
-6.5
21
8.870896
31
0
39
0
210
0
220
0
230
1
0
LINE
5
F5
100
AcDbEntity
8
SK1
62
256
6
ByLayer
370
13
48
1
60
0
100
AcDbLine
10
-70
20
6.449868
30
0
11
-70
21
-6.449868
31
0
39
0
210
0
220
0
230
1
0
LINE
5
F6
100
AcDbEntity
8
SK1
62
256
6
ByLayer
370
13
48
1
60
0
100
AcDbLine
10
-66.600002
20
19.046
30
0
11
-66.600002
21
8.870896
31
0
39
0
210
0
220
0
230
1
0
LINE
5
F7
100
AcDbEntity
8
SK1
62
256
6
ByLayer
370
13
48
1
60
0
100
AcDbLine
10
-66.600002
20
-8.870896
30
0
11
-66.600002
21
-19.046
31
0
39
0
210
0
220
0
230
1
0
LINE
5
F8
100
AcDbEntity
8
SK1
62
256
6
ByLayer
370
13
48
1
60
0
100
AcDbLine
10
-69
20
-19.046
30
0
11
-69
21
-8.870896
31
0
39
0
210
0
220
0
230
1
0
LINE
5
F9
100
AcDbEntity
8
SK1
62
256
6
ByLayer
370
13
48
1
60
0
100
AcDbLine
10
-69
20
8.870896
30
0
11
-69
21
19.046
31
0
39
0
210
0
220
0
230
1
0
LINE
5
FA
100
AcDbEntity
8
SK1
62
256
6
ByLayer
370
13
48
1
60
0
100
AcDbLine
10
-0.15
20
-18.796
30
0
11
-0.15
21
18.796
31
0
39
0
210
0
220
0
230
1
0
LINE
5
FB
100
AcDbEntity
8
SK1
62
256
6
ByLayer
370
13
48
1
60
0
100
AcDbLine
10
-69
20
8.870896
30
0
11
-68.599999
21
8.870896
31
0
39
0
210
0
220
0
230
1
0
LINE
5
FC
100
AcDbEntity
8
SK1
62
256
6
ByLayer
370
13
48
1
60
0
100
AcDbLine
10
-68.599999
20
-19.046
30
0
11
-68.599999
21
-8.870896
31
0
39
0
210
0
220
0
230
1
0
LINE
5
FD
100
AcDbEntity
8
SK1
62
256
6
ByLayer
370
13
48
1
60
0
100
AcDbLine
10
-68.599999
20
8.870896
30
0
11
-68.599999
21
19.046
31
0
39
0
210
0
220
0
230
1
0
LINE
5
FE
100
AcDbEntity
8
SK1
62
256
6
ByLayer
370
13
48
1
60
0
100
AcDbLine
10
-70
20
-18.046
30
0
11
-70
21
-6.449868
31
0
39
0
210
0
220
0
230
1
0
LINE
5
FF
100
AcDbEntity
8
SK1
62
256
6
ByLayer
370
13
48
1
60
0
100
AcDbLine
10
-70
20
6.449868
30
0
11
-70
21
18.046
31
0
39
0
210
0
220
0
230
1
0
LINE
5
100
100
AcDbEntity
8
SK1
62
256
6
ByLayer
370
13
48
1
60
0
100
AcDbLine
10
-6.5
20
-8.870896
30
0
11
-66.600002
21
-8.870896
31
0
39
0
210
0
220
0
230
1
0
LINE
5
101
100
AcDbEntity
8
SK1
62
256
6
ByLayer
370
13
48
1
60
0
100
AcDbLine
10
-67.633813
20
18.689667
30
0
11
-67.633813
21
8.07752
31
0
39
0
210
0
220
0
230
1
0
LINE
5
102
100
AcDbEntity
8
SK1
62
256
6
ByLayer
370
13
48
1
60
0
100
AcDbLine
10
-67.633813
20
-8.07752
30
0
11
-67.633813
21
-18.689667
31
0
39
0
210
0
220
0
230
1
0
LINE
5
103
100
AcDbEntity
8
1
62
256
6
ByLayer
370
13
48
1
60
0
100
AcDbLine
10
219.943424
20
1.457408
30
0
11
220.089276
21
-0.917785
31
0
39
0
210
0
220
0
230
1
0
LINE
5
104
100
AcDbEntity
8
1
62
256
6
ByLayer
370
13
48
1
60
0
100
AcDbLine
10
217.153043
20
9.064347
30
0
11
216.970907
21
9.054802
31
0
39
0
210
0
220
0
230
1
0
LINE
5
105
100
AcDbEntity
8
1
62
256
6
ByLayer
370
13
48
1
60
0
100
AcDbLine
10
0.1
20
4.949747
30
0
11
5.0098
21
4.949747
31
0
39
0
210
0
220
0
230
1
0
LINE
5
106
100
AcDbEntity
8
1
62
256
6
ByLayer
370
13
48
1
60
0
100
AcDbLine
10
222.324219
20
7.423394
30
0
11
222.328278
21
0.893509
31
0
39
0
210
0
220
0
230
1
0
LINE
5
107
100
AcDbEntity
8
1
62
256
6
ByLayer
370
13
48
1
60
0
100
AcDbLine
10
0.1
20
24.75
30
0
11
0.1
21
4.949747
31
0
39
0
210
0
220
0
230
1
0
LINE
5
108
100
AcDbEntity
8
1
62
256
6
ByLayer
370
13
48
1
60
0
100
AcDbLine
10
199.627106
20
22.979062
30
0
11
199.627106
21
22.759427
31
0
39
0
210
0
220
0
230
1
0
LINE
5
109
100
AcDbEntity
8
1
62
256
6
ByLayer
370
13
48
1
60
0
100
AcDbLine
10
222.024087
20
0.618985
30
0
11
222.000432
21
0.622082
31
0
39
0
210
0
220
0
230
1
0
LINE
5
10A
100
AcDbEntity
8
1
62
256
6
ByLayer
370
13
48
1
60
0
100
AcDbLine
10
202.627106
20
23.217187
30
0
11
202.627106
21
23.036585
31
0
39
0
210
0
220
0
230
1
0
LINE
5
10B
100
AcDbEntity
8
1
62
256
6
ByLayer
370
13
48
1
60
0
100
AcDbLine
10
219.961715
20
2.243035
30
0
11
221.580771
21
0.634182
31
0
39
0
210
0
220
0
230
1
0
LINE
5
10C
100
AcDbEntity
8
1
62
256
6
ByLayer
370
13
48
1
60
0
100
AcDbLine
10
106.69016
20
-8.914001
30
0
11
106.69016
21
22.978893
31
0
39
0
210
0
220
0
230
1
0
LINE
5
10D
100
AcDbEntity
8
1
62
256
6
ByLayer
370
13
48
1
60
0
100
AcDbLine
10
204.498929
20
10.806662
30
0
11
203.87128
21
14.780918
31
0
39
0
210
0
220
0
230
1
0
LINE
5
10E
100
AcDbEntity
8
1
62
256
6
ByLayer
370
13
48
1
60
0
100
AcDbLine
10
209.178567
20
8.388004
30
0
11
208.944077
21
8.375715
31
0
39
0
210
0
220
0
230
1
0
LINE
5
10F
100
AcDbEntity
8
1
62
256
6
ByLayer
370
13
48
1
60
0
100
AcDbLine
10
5.0098
20
-4.949747
30
0
11
5.0098
21
-24.75
31
0
39
0
210
0
220
0
230
1
0
LINE
5
110
100
AcDbEntity
8
1
62
256
6
ByLayer
370
13
48
1
60
0
100
AcDbLine
10
199.627106
20
-22.862515
30
0
11
191.831213
21
-22.862515
31
0
39
0
210
0
220
0
230
1
0
LINE
5
111
100
AcDbEntity
8
1
62
256
6
ByLayer
370
13
48
1
60
0
100
AcDbLine
10
204.992728
20
22.18356
30
0
11
204.946663
21
23.062543
31
0
39
0
210
0
220
0
230
1
0
LINE
5
112
100
AcDbEntity
8
1
62
256
6
ByLayer
370
13
48
1
60
0
100
AcDbLine
10
222.599658
20
-7.753114
30
0
11
221.735161
21
-14.283082
31
0
39
0
210
0
220
0
230
1
0
LINE
5
113
100
AcDbEntity
8
1
62
256
6
ByLayer
370
13
48
1
60
0
100
AcDbLine
10
203.121923
20
11.445533
30
0
11
201.64135
21
13.726611
31
0
39
0
210
0
220
0
230
1
0
LINE
5
114
100
AcDbEntity
8
1
62
256
6
ByLayer
370
13
48
1
60
0
100
AcDbLine
10
222.328278
20
0.893509
30
0
11
222.03184
21
0.777311
31
0
39
0
210
0
220
0
230
1
0
LINE
5
115
100
AcDbEntity
8
1
62
256
6
ByLayer
370
13
48
1
60
0
100
AcDbLine
10
106.69016
20
-22.937156
30
0
11
106.69016
21
-22.979063
31
0
39
0
210
0
220
0
230
1
0
LINE
5
116
100
AcDbEntity
8
1
62
256
6
ByLayer
370
13
48
1
60
0
100
AcDbLine
10
222.324219
20
7.423394
30
0
11
222.161136
21
6.807548
31
0
39
0
210
0
220
0
230
1
0
LINE
5
117
100
AcDbEntity
8
1
62
256
6
ByLayer
370
13
48
1
60
0
100
AcDbLine
10
209.568334
20
8.699151
30
0
11
211.656758
21
8.808601
31
0
39
0
210
0
220
0
230
1
0
LINE
5
118
100
AcDbEntity
8
1
62
256
6
ByLayer
370
13
48
1
60
0
100
AcDbLine
10
220.66559
20
-4.150518
30
0
11
222.577238
21
-6.050119
31
0
39
0
210
0
220
0
230
1
0
LINE
5
119
100
AcDbEntity
8
1
62
256
6
ByLayer
370
13
48
1
60
0
100
AcDbLine
10
33.8036
20
23.217187
30
0
11
33.8036
21
-8.312801
31
0
39
0
210
0
220
0
230
1
0
LINE
5
11A
100
AcDbEntity
8
1
62
256
6
ByLayer
370
13
48
1
60
0
100
AcDbLine
10
28.8036
20
-23.129692
30
0
11
28.8036
21
-23.217187
31
0
39
0
210
0
220
0
230
1
0
LINE
5
11B
100
AcDbEntity
8
1
62
256
6
ByLayer
370
13
48
1
60
0
100
AcDbLine
10
221.067478
20
-23.099318
30
0
11
202.627106
21
-23.099318
31
0
39
0
210
0
220
0
230
1
0
LINE
5
11C
100
AcDbEntity
8
1
62
256
6
ByLayer
370
13
48
1
60
0
100
AcDbLine
10
222.599658
20
-7.753114
30
0
11
220.748475
21
-5.913596
31
0
39
0
210
0
220
0
230
1
0
LINE
5
11D
100
AcDbEntity
8
1
62
256
6
ByLayer
370
13
48
1
60
0
100
AcDbLine
10
199.627106
20
-22.862515
30
0
11
199.627106
21
-0.168325
31
0
39
0
210
0
220
0
230
1
0
LINE
5
11E
100
AcDbEntity
8
1
62
256
6
ByLayer
370
13
48
1
60
0
100
AcDbLine
10
212.64676
20
7.358426
30
0
11
213.287161
21
7.391988
31
0
39
0
210
0
220
0
230
1
0
LINE
5
11F
100
AcDbEntity
8
1
62
256
6
ByLayer
370
13
48
1
60
0
100
AcDbLine
10
220.553293
20
7.77279
30
0
11
219.961715
21
2.243035
31
0
39
0
210
0
220
0
230
1
0
LINE
5
120
100
AcDbEntity
8
1
62
256
6
ByLayer
370
13
48
1
60
0
100
AcDbLine
10
200.424824
20
1.819354
30
0
11
200.783846
21
-0.352489
31
0
39
0
210
0
220
0
230
1
0
LINE
5
121
100
AcDbEntity
8
1
62
256
6
ByLayer
370
13
48
1
60
0
100
AcDbLine
10
196.158756
20
2.813096
30
0
11
196.449409
21
1.054842
31
0
39
0
210
0
220
0
230
1
0
LINE
5
122
100
AcDbEntity
8
1
62
256
6
ByLayer
370
13
48
1
60
0
100
AcDbLine
10
222.088068
20
7.102965
30
0
11
222.039118
21
7.950796
31
0
39
0
210
0
220
0
230
1
0
LINE
5
123
100
AcDbEntity
8
1
62
256
6
ByLayer
370
13
48
1
60
0
100
AcDbLine
10
204.263922
20
16.61476
30
0
11
204.992728
21
22.18356
31
0
39
0
210
0
220
0
230
1
0
LINE
5
124
100
AcDbEntity
8
1
62
256
6
ByLayer
370
13
48
1
60
0
100
AcDbLine
10
0
20
-4.422669
30
0
11
0
21
4.422669
31
0
39
0
210
0
220
0
230
1
0
LINE
5
125
100
AcDbEntity
8
1
62
256
6
ByLayer
370
13
48
1
60
0
100
AcDbLine
10
5.0098
20
-4.949747
30
0
11
0.1
21
-4.949747
31
0
39
0
210
0
220
0
230
1
0
LINE
5
126
100
AcDbEntity
8
1
62
256
6
ByLayer
370
13
48
1
60
0
100
AcDbLine
10
209.218223
20
8.480528
30
0
11
209.227447
21
8.481012
31
0
39
0
210
0
220
0
230
1
0
LINE
5
127
100
AcDbEntity
8
1
62
256
6
ByLayer
370
13
48
1
60
0
100
AcDbLine
10
204.994018
20
21.27647
30
0
11
204.42081
21
16.896591
31
0
39
0
210
0
220
0
230
1
0
LINE
5
128
100
AcDbEntity
8
1
62
256
6
ByLayer
370
13
48
1
60
0
100
AcDbLine
10
222.117398
20
-15.168764
30
0
11
221.720702
21
-14.84145
31
0
39
0
210
0
220
0
230
1
0
LINE
5
129
100
AcDbEntity
8
1
62
256
6
ByLayer
370
13
48
1
60
0
100
AcDbLine
10
222.116044
20
1.133773
30
0
11
222.328278
21
0.893509
31
0
39
0
210
0
220
0
230
1
0
LINE
5
12A
100
AcDbEntity
8
1
62
256
6
ByLayer
370
13
48
1
60
0
100
AcDbLine
10
216.200359
20
7.544663
30
0
11
220.553293
21
7.77279
31
0
39
0
210
0
220
0
230
1
0
LINE
5
12B
100
AcDbEntity
8
1
62
256
6
ByLayer
370
13
48
1
60
0
100
AcDbLine
10
222.111938
20
7.832438
30
0
11
222.046146
21
7.82899
31
0
39
0
210
0
220
0
230
1
0
LINE
5
12C
100
AcDbEntity
8
1
62
256
6
ByLayer
370
13
48
1
60
0
100
AcDbLine
10
212.50218
20
8.352222
30
0
11
220.106596
21
8.750752
31
0
39
0
210
0
220
0
230
1
0
LINE
5
12D
100
AcDbEntity
8
1
62
256
6
ByLayer
370
13
48
1
60
0
100
AcDbLine
10
222.039118
20
7.950796
30
0
11
221.932127
21
7.945189
31
0
39
0
210
0
220
0
230
1
0
LINE
5
12E
100
AcDbEntity
8
1
62
256
6
ByLayer
370
13
48
1
60
0
100
AcDbLine
10
222.161136
20
6.807548
30
0
11
222.125238
21
6.805666
31
0
39
0
210
0
220
0
230
1
0
LINE
5
12F
100
AcDbEntity
8
1
62
256
6
ByLayer
370
13
48
1
60
0
100
AcDbLine
10
221.067478
20
-23.099318
30
0
11
222.117398
21
-15.168764
31
0
39
0
210
0
220
0
230
1
0
LINE
5
130
100
AcDbEntity
8
1
62
256
6
ByLayer
370
13
48
1
60
0
100
AcDbLine
10
0.1
20
-24.75
30
0
11
0.1
21
-4.949747
31
0
39
0
210
0
220
0
230
1
0
LINE
5
131
100
AcDbEntity
8
1
62
256
6
ByLayer
370
13
48
1
60
0
100
AcDbLine
10
208.939656
20
8.365385
30
0
11
208.4146
21
8.337868
31
0
39
0
210
0
220
0
230
1
0
LINE
5
132
100
AcDbEntity
8
1
62
256
6
ByLayer
370
13
48
1
60
0
100
AcDbLine
10
0
20
24.65
30
0
11
0
21
4.422669
31
0
39
0
210
0
220
0
230
1
0
LINE
5
133
100
AcDbEntity
8
1
62
256
6
ByLayer
370
13
48
1
60
0
100
AcDbLine
10
5.0098
20
24.75
30
0
11
5.0098
21
4.949747
31
0
39
0
210
0
220
0
230
1
0
LINE
5
134
100
AcDbEntity
8
1
62
256
6
ByLayer
370
13
48
1
60
0
100
AcDbLine
10
222.111938
20
7.832438
30
0
11
222.324219
21
7.423394
31
0
39
0
210
0
220
0
230
1
0
LINE
5
135
100
AcDbEntity
8
1
62
256
6
ByLayer
370
13
48
1
60
0
100
AcDbLine
10
202.627106
20
-23.099318
30
0
11
202.627106
21
-0.513684
31
0
39
0
210
0
220
0
230
1
0
LINE
5
136
100
AcDbEntity
8
1
62
256
6
ByLayer
370
13
48
1
60
0
100
AcDbLine
10
28.8036
20
23.217187
30
0
11
28.8036
21
-8.311134
31
0
39
0
210
0
220
0
230
1
0
LINE
5
137
100
AcDbEntity
8
1
62
256
6
ByLayer
370
13
48
1
60
0
100
AcDbLine
10
221.651906
20
-0.240307
30
0
11
222.577238
21
-6.050119
31
0
39
0
210
0
220
0
230
1
0
LINE
5
138
100
AcDbEntity
8
1
62
256
6
ByLayer
370
13
48
1
60
0
100
AcDbLine
10
219.8671
20
9.038612
30
0
11
209.227447
21
8.481012
31
0
39
0
210
0
220
0
230
1
0
LINE
5
139
100
AcDbEntity
8
1
62
256
6
ByLayer
370
13
48
1
60
0
100
AcDbLine
10
217.324343
20
9.105627
30
0
11
219.412767
21
9.215076
31
0
39
0
210
0
220
0
230
1
0
LINE
5
13A
100
AcDbEntity
8
1
62
256
6
ByLayer
370
13
48
1
60
0
100
AcDbLine
10
10.1098
20
-3.303894
30
0
11
10.1098
21
3.303894
31
0
39
0
210
0
220
0
230
1
0
LINE
5
13B
100
AcDbEntity
8
1
62
256
6
ByLayer
370
13
48
1
60
0
100
AcDbLine
10
202.99567
20
7.622806
30
0
11
203.448431
21
7.4837
31
0
39
0
210
0
220
0
230
1
0
LINE
5
13C
100
AcDbEntity
8
1
62
256
6
ByLayer
370
13
48
1
60
0
100
AcDbLine
10
222.116044
20
1.133773
30
0
11
222.094265
21
1.136624
31
0
39
0
210
0
220
0
230
1
0
LINE
5
13D
100
AcDbEntity
8
1
62
256
6
ByLayer
370
13
48
1
60
0
100
AcDbLine
10
209.664499
20
6.73336
30
0
11
210.055524
21
6.753853
31
0
39
0
210
0
220
0
230
1
0
LINE
5
13E
100
AcDbEntity
8
1
62
256
6
ByLayer
370
13
48
1
60
0
100
AcDbLine
10
222.016301
20
0.627799
30
0
11
222.024087
21
0.618985
31
0
39
0
210
0
220
0
230
1
0
LINE
5
13F
100
AcDbEntity
8
1
62
256
6
ByLayer
370
13
48
1
60
0
100
AcDbLine
10
220.553293
20
7.77279
30
0
11
221.626933
21
7.829057
31
0
39
0
210
0
220
0
230
1
0
LINE
5
140
100
AcDbEntity
8
1
62
256
6
ByLayer
370
13
48
1
60
0
100
AcDbLine
10
201.64135
20
10.824624
30
0
11
201.64135
21
13.726611
31
0
39
0
210
0
220
0
230
1
0
LINE
5
141
100
AcDbEntity
8
1
62
256
6
ByLayer
370
13
48
1
60
0
100
AcDbLine
10
33.8036
20
-23.1298
30
0
11
33.8036
21
-23.217188
31
0
39
0
210
0
220
0
230
1
0
LINE
5
142
100
AcDbEntity
8
1
62
256
6
ByLayer
370
13
48
1
60
0
100
AcDbLine
10
201.952035
20
10.793644
30
0
11
203.121923
21
11.445533
31
0
39
0
210
0
220
0
230
1
0
LINE
5
143
100
AcDbEntity
8
1
62
256
6
ByLayer
370
13
48
1
60
0
100
AcDbLine
10
206.070462
20
22.592294
30
0
11
206.109973
21
22.894201
31
0
39
0
210
0
220
0
230
1
0
LINE
5
144
100
AcDbEntity
8
1
62
256
6
ByLayer
370
13
48
1
60
0
100
AcDbLine
10
0
20
-24.65
30
0
11
0
21
-4.422669
31
0
39
0
210
0
220
0
230
1
0
LINE
5
145
100
AcDbEntity
8
1
62
256
6
ByLayer
370
13
48
1
60
0
100
AcDbLine
10
222.016301
20
0.627799
30
0
11
222.005454
21
0.62922
31
0
39
0
210
0
220
0
230
1
0
LINE
5
146
100
AcDbEntity
8
1
62
256
6
ByLayer
370
13
48
1
60
0
100
AcDbLine
10
221.651906
20
-0.240307
30
0
11
219.943424
21
1.457408
31
0
39
0
210
0
220
0
230
1
0
LINE
5
147
100
AcDbEntity
8
4
62
256
6
ByLayer
370
18
48
0.05
60
0
100
AcDbLine
10
223.52
20
0
30
0
11
0
21
0
31
0
39
0
210
0
220
0
230
1
0
LINE
5
149
100
AcDbEntity
8
SK4
62
256
6
ByLayer
370
13
48
0.05
60
0
100
AcDbLine
10
223.52
20
0
30
0
11
-70
21
0
31
0
39
0
210
0
220
0
230
1
0
LINE
5
14B
100
AcDbEntity
8
SK1
62
256
6
ByLayer
370
13
48
1
60
0
100
AcDbLine
10
-68.516222
20
18.942544
30
0
11
-68.599999
21
19.046
31
0
39
0
210
0
220
0
230
1
0
LINE
5
14C
100
AcDbEntity
8
SK1
62
256
6
ByLayer
370
13
48
1
60
0
100
AcDbLine
10
-68.599999
20
-19.046
30
0
11
-68.516222
21
-18.942544
31
0
39
0
210
0
220
0
230
1
0
LINE
5
14D
100
AcDbEntity
8
SK1
62
256
6
ByLayer
370
13
48
1
60
0
100
AcDbLine
10
-68.599999
20
19.046
30
0
11
-69
21
19.046
31
0
39
0
210
0
220
0
230
1
0
LINE
5
14E
100
AcDbEntity
8
SK1
62
256
6
ByLayer
370
13
48
1
60
0
100
AcDbLine
10
-69
20
-19.046
30
0
11
-68.599999
21
-19.046
31
0
39
0
210
0
220
0
230
1
0
LINE
5
14F
100
AcDbEntity
8
SK1
62
256
6
ByLayer
370
13
48
1
60
0
100
AcDbLine
10
-70
20
-18.046
30
0
11
-69
21
-19.046
31
0
39
0
210
0
220
0
230
1
0
LINE
5
150
100
AcDbEntity
8
SK1
62
256
6
ByLayer
370
13
48
1
60
0
100
AcDbLine
10
-69
20
19.046
30
0
11
-70
21
18.046
31
0
39
0
210
0
220
0
230
1
0
LINE
5
151
100
AcDbEntity
8
SK1
62
256
6
ByLayer
370
13
48
1
60
0
100
AcDbLine
10
-67.633813
20
-18.689667
30
0
11
-66.600002
21
-19.046
31
0
39
0
210
0
220
0
230
1
0
LINE
5
152
100
AcDbEntity
8
SK1
62
256
6
ByLayer
370
13
48
1
60
0
100
AcDbLine
10
-66.600002
20
19.046
30
0
11
-67.633813
21
18.689667
31
0
39
0
210
0
220
0
230
1
0
LINE
5
153
100
AcDbEntity
8
SK1
62
256
6
ByLayer
370
13
48
1
60
0
100
AcDbLine
10
-0.15
20
18.796
30
0
11
-1.375195
21
18.796
31
0
39
0
210
0
220
0
230
1
0
LINE
5
154
100
AcDbEntity
8
SK1
62
256
6
ByLayer
370
13
48
1
60
0
100
AcDbLine
10
-1.375195
20
-18.796
30
0
11
-0.15
21
-18.796
31
0
39
0
210
0
220
0
230
1
0
LINE
5
155
100
AcDbEntity
8
SK1
62
256
6
ByLayer
370
13
48
1
60
0
100
AcDbLine
10
-1.544243
20
18.833477
30
0
11
-2
21
19.046
31
0
39
0
210
0
220
0
230
1
0
LINE
5
156
100
AcDbEntity
8
SK1
62
256
6
ByLayer
370
13
48
1
60
0
100
AcDbLine
10
-2
20
-19.046
30
0
11
-1.544243
21
-18.833477
31
0
39
0
210
0
220
0
230
1
0
LINE
5
157
100
AcDbEntity
8
SK1
62
256
6
ByLayer
370
13
48
1
60
0
100
AcDbLine
10
-2
20
19.046
30
0
11
-66.600002
21
19.046
31
0
39
0
210
0
220
0
230
1
0
LINE
5
158
100
AcDbEntity
8
SK1
62
256
6
ByLayer
370
13
48
1
60
0
100
AcDbLine
10
-66.600002
20
-19.046
30
0
11
-2
21
-19.046
31
0
39
0
210
0
220
0
230
1
0
LINE
5
159
100
AcDbEntity
8
1
62
256
6
ByLayer
370
13
48
1
60
0
100
AcDbLine
10
28.8036
20
-23.217188
30
0
11
33.8036
21
-23.217188
31
0
39
0
210
0
220
0
230
1
0
LINE
5
15A
100
AcDbEntity
8
1
62
256
6
ByLayer
370
13
48
1
60
0
100
AcDbLine
10
33.8036
20
-23.217188
30
0
11
106.69016
21
-22.979063
31
0
39
0
210
0
220
0
230
1
0
LINE
5
15B
100
AcDbEntity
8
1
62
256
6
ByLayer
370
13
48
1
60
0
100
AcDbLine
10
204.690043
20
23.217187
30
0
11
202.627106
21
23.217187
31
0
39
0
210
0
220
0
230
1
0
LINE
5
15C
100
AcDbEntity
8
1
62
256
6
ByLayer
370
13
48
1
60
0
100
AcDbLine
10
202.627106
20
23.217187
30
0
11
199.627106
21
22.979062
31
0
39
0
210
0
220
0
230
1
0
LINE
5
15D
100
AcDbEntity
8
1
62
256
6
ByLayer
370
13
48
1
60
0
100
AcDbLine
10
106.69016
20
-22.979063
30
0
11
116.405835
21
-22.979063
31
0
39
0
210
0
220
0
230
1
0
LINE
5
15E
100
AcDbEntity
8
1
62
256
6
ByLayer
370
13
48
1
60
0
100
AcDbLine
10
199.627106
20
22.979062
30
0
11
187.908962
21
22.979062
31
0
39
0
210
0
220
0
230
1
0
LINE
5
15F
100
AcDbEntity
8
1
62
256
6
ByLayer
370
13
48
1
60
0
100
AcDbLine
10
33.8036
20
23.217187
30
0
11
28.8036
21
23.217187
31
0
39
0
210
0
220
0
230
1
0
LINE
5
160
100
AcDbEntity
8
1
62
256
6
ByLayer
370
13
48
1
60
0
100
AcDbLine
10
105.753219
20
22.982124
30
0
11
33.8036
21
23.217187
31
0
39
0
210
0
220
0
230
1
0
LINE
5
161
100
AcDbEntity
8
1
62
256
6
ByLayer
370
13
48
1
60
0
100
AcDbLine
10
0.1
20
24.75
30
0
11
0
21
24.65
31
0
39
0
210
0
220
0
230
1
0
LINE
5
162
100
AcDbEntity
8
1
62
256
6
ByLayer
370
13
48
1
60
0
100
AcDbLine
10
0
20
-24.65
30
0
11
0.1
21
-24.75
31
0
39
0
210
0
220
0
230
1
0
LINE
5
163
100
AcDbEntity
8
1
62
256
6
ByLayer
370
13
48
1
60
0
100
AcDbLine
10
0.1
20
-24.75
30
0
11
5.0098
21
-24.75
31
0
39
0
210
0
220
0
230
1
0
LINE
5
164
100
AcDbEntity
8
1
62
256
6
ByLayer
370
13
48
1
60
0
100
AcDbLine
10
5.0098
20
24.75
30
0
11
0.1
21
24.75
31
0
39
0
210
0
220
0
230
1
0
LINE
5
165
100
AcDbEntity
8
1
62
256
6
ByLayer
370
13
48
1
60
0
100
AcDbLine
10
222.169065
20
8.6285
30
0
11
222.623622
21
9.599897
31
0
39
0
210
0
220
0
230
1
0
LINE
5
166
100
AcDbEntity
8
1
62
256
6
ByLayer
370
13
48
1
60
0
100
AcDbLine
10
221.249959
20
16.102055
30
0
11
220.263837
21
22.34614
31
0
39
0
210
0
220
0
230
1
0
LINE
5
167
100
AcDbEntity
8
1
62
256
6
ByLayer
370
13
48
1
60
0
100
AcDbLine
10
220.410641
20
9.467889
30
0
11
221.252618
21
15.901424
31
0
39
0
210
0
220
0
230
1
0
LINE
5
168
100
AcDbEntity
8
1
62
256
6
ByLayer
370
18
48
1
60
0
100
AcDbLine
10
213.589124
20
16.735897
30
0
11
213.713846
21
16.742434
31
0
39
0
210
0
220
0
230
1
0
LINE
5
169
100
AcDbEntity
8
1
62
256
6
ByLayer
370
18
48
1
60
0
100
AcDbLine
10
213.848904
20
14.16537
30
0
11
213.724182
21
14.158834
31
0
39
0
210
0
220
0
230
1
0
LINE
5
16A
100
AcDbEntity
8
1
62
256
6
ByLayer
370
18
48
1
60
0
100
AcDbLine
10
213.8773
20
12.605018
30
0
11
213.943789
21
12.608503
31
0
39
0
210
0
220
0
230
1
0
LINE
5
16B
100
AcDbEntity
8
1
62
256
6
ByLayer
370
18
48
1
60
0
100
AcDbLine
10
213.645474
20
18.300691
30
0
11
213.578985
21
18.297206
31
0
39
0
210
0
220
0
230
1
0
LINE
5
16C
100
AcDbEntity
8
81
62
256
6
ByLayer
370
18
48
1
60
0
100
AcDbLine
10
223.52
20
0
30
0
11
230.52
21
0
31
0
39
0
210
0
220
0
230
1
0
LINE
5
16D
100
AcDbEntity
8
80
62
256
6
ByLayer
370
18
48
1
60
0
100
AcDbLine
10
0
20
0
30
0
11
-7
21
0
31
0
39
0
210
0
220
0
230
1
0
LINE
5
16E
100
AcDbEntity
8
SK2
62
256
6
ByLayer
370
13
48
1
60
0
100
AcDbLine
10
-90.725
20
19.05
30
0
11
-90.725
21
-19.05
31
0
39
0
210
0
220
0
230
1
0
LINE
5
170
100
AcDbEntity
8
SK2
62
256
6
ByLayer
370
13
48
1
60
0
100
AcDbLine
10
-71.5875
20
-19.05
30
0
11
-93.9
21
-19.05
31
0
39
0
210
0
220
0
230
1
0
LINE
5
171
100
AcDbEntity
8
SK2
62
256
6
ByLayer
370
13
48
1
60
0
100
AcDbLine
10
-71.5875
20
19.05
30
0
11
-93.9
21
19.05
31
0
39
0
210
0
220
0
230
1
0
LINE
5
172
100
AcDbEntity
8
1
62
256
6
ByLayer
370
18
48
1
60
1
100
AcDbLine
10
-90.725
20
-19.05
30
0
11
-91.650575
21
-14.875003
31
0
39
0
210
0
220
0
230
1
0
LINE
5
173
100
AcDbEntity
8
1
62
256
6
ByLayer
370
18
48
1
60
1
100
AcDbLine
10
-91.650575
20
-14.875003
30
0
11
-89.799425
21
-14.874997
31
0
39
0
210
0
220
0
230
1
0
LINE
5
174
100
AcDbEntity
8
1
62
256
6
ByLayer
370
18
48
1
60
1
100
AcDbLine
10
-89.799425
20
-14.874997
30
0
11
-90.725
21
-19.05
31
0
39
0
210
0
220
0
230
1
0
LINE
5
175
100
AcDbEntity
8
1
62
256
6
ByLayer
370
18
48
1
60
1
100
AcDbLine
10
-90.725
20
19.05
30
0
11
-89.799425
21
14.875003
31
0
39
0
210
0
220
0
230
1
0
LINE
5
176
100
AcDbEntity
8
1
62
256
6
ByLayer
370
18
48
1
60
1
100
AcDbLine
10
-89.799425
20
14.875003
30
0
11
-91.650575
21
14.874997
31
0
39
0
210
0
220
0
230
1
0
LINE
5
177
100
AcDbEntity
8
1
62
256
6
ByLayer
370
18
48
1
60
1
100
AcDbLine
10
-91.650575
20
14.874997
30
0
11
-90.725
21
19.05
31
0
39
0
210
0
220
0
230
1
0
LINE
5
178
100
AcDbEntity
8
SK2
62
256
6
ByLayer
370
13
48
1
60
0
100
AcDbLine
10
-100.725
20
-24.75
30
0
11
-100.725
21
24.75
31
0
39
0
210
0
220
0
230
1
0
LINE
5
179
100
AcDbEntity
8
SK2
62
256
6
ByLayer
370
13
48
1
60
0
100
AcDbLine
10
-1.5875
20
24.75
30
0
11
-103.9
21
24.75
31
0
39
0
210
0
220
0
230
1
0
LINE
5
17A
100
AcDbEntity
8
SK2
62
256
6
ByLayer
370
13
48
1
60
0
100
AcDbLine
10
-1.5875
20
-24.75
30
0
11
-103.9
21
-24.75
31
0
39
0
210
0
220
0
230
1
0
LINE
5
17B
100
AcDbEntity
8
1
62
256
6
ByLayer
370
18
48
1
60
1
100
AcDbLine
10
-100.725
20
24.75
30
0
11
-99.799425
21
20.575003
31
0
39
0
210
0
220
0
230
1
0
LINE
5
17C
100
AcDbEntity
8
1
62
256
6
ByLayer
370
18
48
1
60
1
100
AcDbLine
10
-99.799425
20
20.575003
30
0
11
-101.650575
21
20.574997
31
0
39
0
210
0
220
0
230
1
0
LINE
5
17D
100
AcDbEntity
8
1
62
256
6
ByLayer
370
18
48
1
60
1
100
AcDbLine
10
-101.650575
20
20.574997
30
0
11
-100.725
21
24.75
31
0
39
0
210
0
220
0
230
1
0
LINE
5
17E
100
AcDbEntity
8
1
62
256
6
ByLayer
370
18
48
1
60
1
100
AcDbLine
10
-100.725
20
-24.75
30
0
11
-101.650575
21
-20.575003
31
0
39
0
210
0
220
0
230
1
0
LINE
5
17F
100
AcDbEntity
8
1
62
256
6
ByLayer
370
18
48
1
60
1
100
AcDbLine
10
-101.650575
20
-20.575003
30
0
11
-99.799425
21
-20.574997
31
0
39
0
210
0
220
0
230
1
0
LINE
5
180
100
AcDbEntity
8
1
62
256
6
ByLayer
370
18
48
1
60
1
100
AcDbLine
10
-99.799425
20
-20.574997
30
0
11
-100.725
21
-24.75
31
0
39
0
210
0
220
0
230
1
0
LINE
5
181
100
AcDbEntity
8
2
62
256
6
ByLayer
370
13
48
1
60
0
100
AcDbLine
10
250.495
20
23.8125
30
0
11
250.495
21
-23.8125
31
0
39
0
210
0
220
0
230
1
0
LINE
5
183
100
AcDbEntity
8
2
62
256
6
ByLayer
370
13
48
1
60
0
100
AcDbLine
10
225.1075
20
-23.8125
30
0
11
253.67
21
-23.8125
31
0
39
0
210
0
220
0
230
1
0
LINE
5
184
100
AcDbEntity
8
2
62
256
6
ByLayer
370
13
48
1
60
0
100
AcDbLine
10
225.1075
20
23.8125
30
0
11
253.67
21
23.8125
31
0
39
0
210
0
220
0
230
1
0
LINE
5
185
100
AcDbEntity
8
1
62
256
6
ByLayer
370
18
48
1
60
1
100
AcDbLine
10
250.495
20
-23.8125
30
0
11
249.569425
21
-19.637503
31
0
39
0
210
0
220
0
230
1
0
LINE
5
186
100
AcDbEntity
8
1
62
256
6
ByLayer
370
18
48
1
60
1
100
AcDbLine
10
249.569425
20
-19.637503
30
0
11
251.420575
21
-19.637497
31
0
39
0
210
0
220
0
230
1
0
LINE
5
187
100
AcDbEntity
8
1
62
256
6
ByLayer
370
18
48
1
60
1
100
AcDbLine
10
251.420575
20
-19.637497
30
0
11
250.495
21
-23.8125
31
0
39
0
210
0
220
0
230
1
0
LINE
5
188
100
AcDbEntity
8
1
62
256
6
ByLayer
370
18
48
1
60
1
100
AcDbLine
10
250.495
20
23.8125
30
0
11
251.420575
21
19.637503
31
0
39
0
210
0
220
0
230
1
0
LINE
5
189
100
AcDbEntity
8
1
62
256
6
ByLayer
370
18
48
1
60
1
100
AcDbLine
10
251.420575
20
19.637503
30
0
11
249.569425
21
19.637497
31
0
39
0
210
0
220
0
230
1
0
LINE
5
18A
100
AcDbEntity
8
1
62
256
6
ByLayer
370
18
48
1
60
1
100
AcDbLine
10
249.569425
20
19.637497
30
0
11
250.495
21
23.8125
31
0
39
0
210
0
220
0
230
1
0
LINE
5
342
100
AcDbEntity
8
1
62
256
6
ByLayer
370
18
48
1
60
1
100
AcDbLine
10
-90.725
20
-19.05
30
0
11
-91.650575
21
-14.875003
31
0
39
0
210
0
220
0
230
1
0
LINE
5
343
100
AcDbEntity
8
1
62
256
6
ByLayer
370
18
48
1
60
1
100
AcDbLine
10
-91.650575
20
-14.875003
30
0
11
-89.799425
21
-14.874997
31
0
39
0
210
0
220
0
230
1
0
LINE
5
344
100
AcDbEntity
8
1
62
256
6
ByLayer
370
18
48
1
60
1
100
AcDbLine
10
-89.799425
20
-14.874997
30
0
11
-90.725
21
-19.05
31
0
39
0
210
0
220
0
230
1
0
LINE
5
346
100
AcDbEntity
8
1
62
256
6
ByLayer
370
18
48
1
60
1
100
AcDbLine
10
-90.725
20
19.05
30
0
11
-89.799425
21
14.875003
31
0
39
0
210
0
220
0
230
1
0
LINE
5
347
100
AcDbEntity
8
1
62
256
6
ByLayer
370
18
48
1
60
1
100
AcDbLine
10
-89.799425
20
14.875003
30
0
11
-91.650575
21
14.874997
31
0
39
0
210
0
220
0
230
1
0
LINE
5
348
100
AcDbEntity
8
1
62
256
6
ByLayer
370
18
48
1
60
1
100
AcDbLine
10
-91.650575
20
14.874997
30
0
11
-90.725
21
19.05
31
0
39
0
210
0
220
0
230
1
0
LINE
5
34C
100
AcDbEntity
8
1
62
256
6
ByLayer
370
18
48
1
60
1
100
AcDbLine
10
-100.725
20
24.75
30
0
11
-99.799425
21
20.575003
31
0
39
0
210
0
220
0
230
1
0
LINE
5
34D
100
AcDbEntity
8
1
62
256
6
ByLayer
370
18
48
1
60
1
100
AcDbLine
10
-99.799425
20
20.575003
30
0
11
-101.650575
21
20.574997
31
0
39
0
210
0
220
0
230
1
0
LINE
5
34E
100
AcDbEntity
8
1
62
256
6
ByLayer
370
18
48
1
60
1
100
AcDbLine
10
-101.650575
20
20.574997
30
0
11
-100.725
21
24.75
31
0
39
0
210
0
220
0
230
1
0
LINE
5
350
100
AcDbEntity
8
1
62
256
6
ByLayer
370
18
48
1
60
1
100
AcDbLine
10
-100.725
20
-24.75
30
0
11
-101.650575
21
-20.575003
31
0
39
0
210
0
220
0
230
1
0
LINE
5
351
100
AcDbEntity
8
1
62
256
6
ByLayer
370
18
48
1
60
1
100
AcDbLine
10
-101.650575
20
-20.575003
30
0
11
-99.799425
21
-20.574997
31
0
39
0
210
0
220
0
230
1
0
LINE
5
352
100
AcDbEntity
8
1
62
256
6
ByLayer
370
18
48
1
60
1
100
AcDbLine
10
-99.799425
20
-20.574997
30
0
11
-100.725
21
-24.75
31
0
39
0
210
0
220
0
230
1
0
LINE
5
356
100
AcDbEntity
8
1
62
256
6
ByLayer
370
18
48
1
60
1
100
AcDbLine
10
250.495
20
-23.8125
30
0
11
249.569425
21
-19.637503
31
0
39
0
210
0
220
0
230
1
0
LINE
5
357
100
AcDbEntity
8
1
62
256
6
ByLayer
370
18
48
1
60
1
100
AcDbLine
10
249.569425
20
-19.637503
30
0
11
251.420575
21
-19.637497
31
0
39
0
210
0
220
0
230
1
0
LINE
5
358
100
AcDbEntity
8
1
62
256
6
ByLayer
370
18
48
1
60
1
100
AcDbLine
10
251.420575
20
-19.637497
30
0
11
250.495
21
-23.8125
31
0
39
0
210
0
220
0
230
1
0
LINE
5
35A
100
AcDbEntity
8
1
62
256
6
ByLayer
370
18
48
1
60
1
100
AcDbLine
10
250.495
20
23.8125
30
0
11
251.420575
21
19.637503
31
0
39
0
210
0
220
0
230
1
0
LINE
5
35B
100
AcDbEntity
8
1
62
256
6
ByLayer
370
18
48
1
60
1
100
AcDbLine
10
251.420575
20
19.637503
30
0
11
249.569425
21
19.637497
31
0
39
0
210
0
220
0
230
1
0
LINE
5
35C
100
AcDbEntity
8
1
62
256
6
ByLayer
370
18
48
1
60
1
100
AcDbLine
10
249.569425
20
19.637497
30
0
11
250.495
21
23.8125
31
0
39
0
210
0
220
0
230
1
0
MTEXT
5
33E
100
AcDbEntity
8
SK2
62
256
6
ByLayer
370
18
48
1
60
0
100
AcDbMText
10
-92.736672
20
-8.979241
30
0
210
0
220
0
230
1
1
%%c
40
4.5
41
0
44
1.084337
50
90
71
7
72
5
7
iso_b_vert
0
MTEXT
5
341
100
AcDbEntity
8
SK2
62
256
6
ByLayer
370
18
48
1
60
0
100
AcDbMText
10
-92.736672
20
2.235603
30
0
210
0
220
0
230
1
1
\W0.7208;38.1
40
4.5
41
0
44
1.084337
50
90
71
7
72
5
7
iso_b_vert
0
MTEXT
5
34A
100
AcDbEntity
8
SK2
62
256
6
ByLayer
370
18
48
1
60
0
100
AcDbMText
10
-102.736672
20
-9.778569
30
0
210
0
220
0
230
1
1
%%c
40
4.5
41
0
44
1.084337
50
90
71
7
72
5
7
iso_b_vert
0
MTEXT
5
34B
100
AcDbEntity
8
SK2
62
256
6
ByLayer
370
18
48
1
60
0
100
AcDbMText
10
-102.736672
20
1.436275
30
0
210
0
220
0
230
1
1
\W0.7640;49.5
40
4.5
41
0
44
1.084337
50
90
71
7
72
5
7
iso_b_vert
0
MTEXT
5
354
100
AcDbEntity
8
2
62
256
6
ByLayer
370
18
48
1
60
0
100
AcDbMText
10
248.483328
20
-11.459597
30
0
210
0
220
0
230
1
1
%%c
40
4.5
41
0
44
1.084337
50
90
71
7
72
5
7
iso_b_vert
0
MTEXT
5
355
100
AcDbEntity
8
2
62
256
6
ByLayer
370
18
48
1
60
0
100
AcDbMText
10
248.483328
20
-0.244753
30
0
210
0
220
0
230
1
1
\W0.7694;47.62
40
4.5
41
0
44
1.084337
50
90
71
7
72
5
7
iso_b_vert
0
MTEXT
5
35E
100
AcDbEntity
8
SK6
62
256
6
ByLayer
370
18
48
1
60
0
100
AcDbMText
10
9.308916
20
-94.592562
30
0
210
0
220
0
230
1
1
\W0.7907;DS20-D4763LX38-04
40
3.5
41
0
44
1.084337
50
0
71
7
72
5
7
iso_b_vert
0
HATCH
5
345
100
AcDbEntity
8
SK2
62
256
6
ByLayer
370
13
48
1
60
0
100
AcDbHatch
10
0
20
0
30
0
210
0
220
0
230
1
2
ANSI31
70
0
71
0
91
1
92
5
93
3
72
1
10
-90.725
20
-19.0499999999999
11
-91.650575216528
21
-14.8750033998275
72
1
10
-91.650575216528
20
-14.8750033998275
11
-89.799424783472
21
-14.8749966001723
72
1
10
-89.799424783472
20
-14.8749966001723
11
-90.725
21
-19.0499999999999
97
0
75
0
76
1
52
0
41
0.0062
77
0
78
1
53
45
43
0
44
0
45
-0.0139193969876572
46
0.0139193969876572
79
0
47
0
98
1
10
0
20
0
0
HATCH
5
349
100
AcDbEntity
8
SK2
62
256
6
ByLayer
370
13
48
1
60
0
100
AcDbHatch
10
0
20
0
30
0
210
0
220
0
230
1
2
ANSI31
70
0
71
0
91
1
92
5
93
3
72
1
10
-90.725
20
19.0500000000001
11
-89.799424783472
21
14.8750033998277
72
1
10
-89.799424783472
20
14.8750033998277
11
-91.650575216528
21
14.8749966001725
72
1
10
-91.650575216528
20
14.8749966001725
11
-90.725
21
19.0500000000001
97
0
75
0
76
1
52
0
41
0.0062
77
0
78
1
53
45
43
0
44
0
45
-0.0139193969876572
46
0.0139193969876572
79
0
47
0
98
1
10
0
20
0
0
HATCH
5
34F
100
AcDbEntity
8
SK2
62
256
6
ByLayer
370
13
48
1
60
0
100
AcDbHatch
10
0
20
0
30
0
210
0
220
0
230
1
2
ANSI31
70
0
71
0
91
1
92
5
93
3
72
1
10
-100.725
20
24.75
11
-99.799424783472
21
20.5750033998276
72
1
10
-99.799424783472
20
20.5750033998276
11
-101.650575216528
21
20.5749966001724
72
1
10
-101.650575216528
20
20.5749966001724
11
-100.725
21
24.75
97
0
75
0
76
1
52
0
41
0.0062
77
0
78
1
53
45
43
0
44
0
45
-0.0139193969876572
46
0.0139193969876572
79
0
47
0
98
1
10
0
20
0
0
HATCH
5
353
100
AcDbEntity
8
SK2
62
256
6
ByLayer
370
13
48
1
60
0
100
AcDbHatch
10
0
20
0
30
0
210
0
220
0
230
1
2
ANSI31
70
0
71
0
91
1
92
5
93
3
72
1
10
-100.725
20
-24.75
11
-101.650575216528
21
-20.5750033998276
72
1
10
-101.650575216528
20
-20.5750033998276
11
-99.799424783472
21
-20.5749966001724
72
1
10
-99.799424783472
20
-20.5749966001724
11
-100.725
21
-24.75
97
0
75
0
76
1
52
0
41
0.0062
77
0
78
1
53
45
43
0
44
0
45
-0.0139193969876572
46
0.0139193969876572
79
0
47
0
98
1
10
0
20
0
0
HATCH
5
359
100
AcDbEntity
8
2
62
256
6
ByLayer
370
13
48
1
60
0
100
AcDbHatch
10
0
20
0
30
0
210
0
220
0
230
1
2
ANSI31
70
0
71
0
91
1
92
5
93
3
72
1
10
250.495
20
-23.8125000000003
11
249.569424783472
21
-19.6375033998279
72
1
10
249.569424783472
20
-19.6375033998279
11
251.420575216528
21
-19.6374966001726
72
1
10
251.420575216528
20
-19.6374966001726
11
250.495
21
-23.8125000000003
97
0
75
0
76
1
52
0
41
0.0062
77
0
78
1
53
45
43
0
44
0
45
-0.0139193969876572
46
0.0139193969876572
79
0
47
0
98
1
10
0
20
0
0
HATCH
5
35D
100
AcDbEntity
8
2
62
256
6
ByLayer
370
13
48
1
60
0
100
AcDbHatch
10
0
20
0
30
0
210
0
220
0
230
1
2
ANSI31
70
0
71
0
91
1
92
5
93
3
72
1
10
250.495
20
23.8124999999997
11
251.420575216528
21
19.6375033998273
72
1
10
251.420575216528
20
19.6375033998273
11
249.569424783472
21
19.6374966001721
72
1
10
249.569424783472
20
19.6374966001721
11
250.495
21
23.8124999999997
97
0
75
0
76
1
52
0
41
0.0062
77
0
78
1
53
45
43
0
44
0
45
-0.0139193969876572
46
0.0139193969876572
79
0
47
0
98
1
10
0
20
0
0
DIMENSION
5
361
100
AcDbEntity
8
2
62
256
6
ByLayer
370
18
48
1
60
0
100
AcDbDimension
2
_U0
10
223.52
20
-73.610915
30
0
11
111.76
21
-73.610915
31
0
70
32
71
1
72
1
41
1
210
0
220
0
230
1
3
Standard
100
AcDbAlignedDimension
13
0
23
-24.75
33
0
14
223.52
24
-23.8125
34
0
50
0
100
AcDbRotatedDimension
1001
ACAD
1000
DSTYLE
1002
{
1070
   371
1070
    13
1070
   372
1070
    13
1070
   170
1070
     0
1070
   144
1040
1.0
1070
   277
1070
     2
1070
   284
1070
     8
1070
   278
1070
    46
1070
   146
1040
0.777778
1070
   345
1005
16
1070
   347
1005
16
1070
   346
1005
16
1070
   344
1005
0
1070
   343
1005
0
1070
   172
1070
     1
1070
    76
1070
     0
1070
    75
1070
     0
1070
   282
1070
     0
1070
   281
1070
     0
1070
    71
1070
     0
1070
    74
1070
     0
1070
   279
1070
     0
1070
   173
1070
     1
1070
   340
1005
33F
1070
   271
1070
     1
1070
   272
1070
     2
1070
    77
1070
     1
1070
    73
1070
     1
1070
   171
1070
     3
1070
   274
1070
     4
1070
   177
1070
   150
1070
   176
1070
     9
1070
   178
1070
    43
1070
    78
1070
     8
1070
    48
1040
-0.1
1070
    41
1040
4.175
1070
   147
1040
2.25
1070
    42
1040
1.5875
1070
    44
1040
3.175
1070
   140
1040
4.5
1002
}
1001
ACAD_DSTYLE_DIM_LINETYPE
1070
   380
1005
16
1001
ACAD_DSTYLE_DIM_EXT1_LINETYPE
1070
   381
1005
16
1001
ACAD_DSTYLE_DIM_EXT2_LINETYPE
1070
   382
1005
16
0
DIMENSION
5
37A
100
AcDbEntity
8
SK2
62
256
6
ByLayer
370
18
48
1
60
0
100
AcDbDimension
2
_U1
10
0
20
-73.610915
30
0
11
-35
21
-73.610915
31
0
70
32
71
1
72
1
41
1
210
0
220
0
230
1
3
Standard
100
AcDbAlignedDimension
13
-70
23
-19.05
33
0
14
0
24
-24.75
34
0
50
0
100
AcDbRotatedDimension
1001
ACAD
1000
DSTYLE
1002
{
1070
   371
1070
    13
1070
   372
1070
    13
1070
   170
1070
     0
1070
   144
1040
1.0
1070
   277
1070
     2
1070
   284
1070
     8
1070
   278
1070
    46
1070
   146
1040
0.777778
1070
   345
1005
16
1070
   347
1005
16
1070
   346
1005
16
1070
   344
1005
0
1070
   343
1005
0
1070
   172
1070
     1
1070
    76
1070
     0
1070
    75
1070
     0
1070
   282
1070
     0
1070
   281
1070
     0
1070
    71
1070
     0
1070
    74
1070
     0
1070
   279
1070
     0
1070
   173
1070
     1
1070
   340
1005
33F
1070
   271
1070
     1
1070
   272
1070
     2
1070
    77
1070
     1
1070
    73
1070
     1
1070
   171
1070
     3
1070
   274
1070
     4
1070
   177
1070
   150
1070
   176
1070
     9
1070
   178
1070
    43
1070
    78
1070
     8
1070
    48
1040
-0.1
1070
    41
1040
4.175
1070
   147
1040
2.25
1070
    42
1040
1.5875
1070
    44
1040
3.175
1070
   140
1040
4.5
1002
}
1001
ACAD_DSTYLE_DIM_LINETYPE
1070
   380
1005
16
1001
ACAD_DSTYLE_DIM_EXT1_LINETYPE
1070
   381
1005
16
1001
ACAD_DSTYLE_DIM_EXT2_LINETYPE
1070
   382
1005
16
0
DIMENSION
5
392
100
AcDbEntity
8
SK2
62
256
6
ByLayer
370
18
48
1
60
0
100
AcDbDimension
2
_U2
10
5.5098
20
-63.610915
30
0
11
114.5149
21
-63.610915
31
0
70
32
71
1
72
1
41
1
210
0
220
0
230
1
3
Standard
100
AcDbAlignedDimension
13
223.52
23
-23.8125
33
0
14
5.5098
24
-24.75
34
0
50
0
100
AcDbRotatedDimension
1001
ACAD
1000
DSTYLE
1002
{
1070
   371
1070
    13
1070
   372
1070
    13
1070
   170
1070
     0
1070
   144
1040
1.0
1070
   277
1070
     2
1070
   284
1070
     8
1070
   278
1070
    46
1070
   146
1040
0.777778
1070
   345
1005
16
1070
   347
1005
16
1070
   346
1005
16
1070
   344
1005
0
1070
   343
1005
0
1070
   172
1070
     1
1070
    76
1070
     0
1070
    75
1070
     0
1070
   282
1070
     0
1070
   281
1070
     0
1070
    71
1070
     0
1070
    74
1070
     0
1070
   279
1070
     0
1070
   173
1070
     1
1070
   340
1005
33F
1070
   271
1070
     1
1070
   272
1070
     2
1070
    77
1070
     1
1070
    73
1070
     1
1070
   171
1070
     3
1070
   274
1070
     4
1070
   177
1070
   150
1070
   176
1070
     9
1070
   178
1070
    43
1070
    78
1070
     8
1070
    48
1040
-0.1
1070
    41
1040
4.175
1070
   147
1040
2.25
1070
    42
1040
1.5875
1070
    44
1040
3.175
1070
   140
1040
4.5
1002
}
1001
ACAD_DSTYLE_DIM_LINETYPE
1070
   380
1005
16
1001
ACAD_DSTYLE_DIM_EXT1_LINETYPE
1070
   381
1005
16
1001
ACAD_DSTYLE_DIM_EXT2_LINETYPE
1070
   382
1005
16
0
DIMENSION
5
3AA
100
AcDbEntity
8
SK2
62
256
6
ByLayer
370
18
48
1
60
0
100
AcDbDimension
2
_U3
10
223.52
20
-53.610915
30
0
11
126.1618
21
-53.610915
31
0
70
32
71
1
72
1
41
1
210
0
220
0
230
1
3
Standard
100
AcDbAlignedDimension
13
28.8036
23
-23.8125
33
0
14
223.52
24
-23.8125
34
0
50
0
100
AcDbRotatedDimension
1001
ACAD
1000
DSTYLE
1002
{
1070
   371
1070
    13
1070
   372
1070
    13
1070
   170
1070
     0
1070
   144
1040
1.0
1070
   277
1070
     2
1070
   284
1070
     8
1070
   278
1070
    46
1070
   146
1040
0.777778
1070
   345
1005
16
1070
   347
1005
16
1070
   346
1005
16
1070
   344
1005
0
1070
   343
1005
0
1070
   172
1070
     1
1070
    76
1070
     0
1070
    75
1070
     0
1070
   282
1070
     0
1070
   281
1070
     0
1070
    71
1070
     0
1070
    74
1070
     0
1070
   279
1070
     0
1070
   173
1070
     1
1070
   340
1005
33F
1070
   271
1070
     1
1070
   272
1070
     2
1070
    77
1070
     1
1070
    73
1070
     1
1070
   171
1070
     3
1070
   274
1070
     4
1070
   177
1070
   150
1070
   176
1070
     9
1070
   178
1070
    43
1070
    78
1070
     8
1070
    48
1040
-0.1
1070
    41
1040
4.175
1070
   147
1040
2.25
1070
    42
1040
1.5875
1070
    44
1040
3.175
1070
   140
1040
4.5
1002
}
1001
ACAD_DSTYLE_DIM_LINETYPE
1070
   380
1005
16
1001
ACAD_DSTYLE_DIM_EXT1_LINETYPE
1070
   381
1005
16
1001
ACAD_DSTYLE_DIM_EXT2_LINETYPE
1070
   382
1005
16
0
DIMENSION
5
3C2
100
AcDbEntity
8
2
62
256
6
ByLayer
370
18
48
1
60
0
100
AcDbDimension
2
_U4
10
223.52
20
-43.610915
30
0
11
245.549464
21
-43.610915
31
0
70
32
71
1
72
1
41
1
210
0
220
0
230
1
3
Standard
100
AcDbAlignedDimension
13
222.2434
23
-11.90625
33
0
14
223.52
24
0
34
0
50
0
100
AcDbRotatedDimension
1001
ACAD
1000
DSTYLE
1002
{
1070
   371
1070
    13
1070
   372
1070
    13
1070
   170
1070
     0
1070
   144
1040
1.0
1070
   277
1070
     2
1070
   284
1070
     8
1070
   278
1070
    46
1070
   146
1040
0.777778
1070
   345
1005
16
1070
   347
1005
16
1070
   346
1005
16
1070
   344
1005
0
1070
   343
1005
0
1070
   172
1070
     1
1070
    76
1070
     0
1070
    75
1070
     0
1070
   282
1070
     0
1070
   281
1070
     0
1070
    71
1070
     0
1070
    74
1070
     0
1070
   279
1070
     0
1070
   173
1070
     1
1070
   340
1005
33F
1070
   271
1070
     2
1070
   272
1070
     2
1070
    77
1070
     1
1070
    73
1070
     1
1070
   171
1070
     3
1070
   274
1070
     4
1070
   177
1070
   150
1070
   176
1070
     9
1070
   178
1070
    43
1070
    78
1070
     8
1070
    48
1040
-0.1
1070
    41
1040
4.175
1070
   147
1040
2.25
1070
    42
1040
1.5875
1070
    44
1040
3.175
1070
   140
1040
4.5
1002
}
1001
ACAD_DSTYLE_DIM_LINETYPE
1070
   380
1005
16
1001
ACAD_DSTYLE_DIM_EXT1_LINETYPE
1070
   381
1005
16
1001
ACAD_DSTYLE_DIM_EXT2_LINETYPE
1070
   382
1005
16
0
ENDSEC
0
SECTION
2
OBJECTS
0
DICTIONARY
5
44c
330
0
100
AcDbDictionary
280
0
281
1
3
ACAD_GROUP
350
44d
3
ACAD_MLINESTYLE
350
44e
0
DICTIONARY
5
44d
330
0
100
AcDbDictionary
280
0
281
1
0
DICTIONARY
5
44e
330
0
100
AcDbDictionary
280
0
281
1
3
Standard
350
18
0
MLINESTYLE
5
18
330
44e
100
AcDbMlineStyle
2
Standard
70
0
3

62
256
51
90
52
90
71
2
49
-0.5
62
256
6
ByLayer
49
0.5
62
256
6
ByLayer
0
RASTERVARIABLES
5
43a
330

100
AcDbRasterVariables
90
0
70
1
71
1
72
1
0
ENDSEC
0
EOF
