0
SECTION
2
HEADER
9
$ACADVER
1
AC1015
9
$DWGCODEPAGE
3
ANSI_1252
9
$HANDSEED
5
43d
9
$ANGBASE
50
0
9
$ANGDIR
70
0
9
$ATTMODE
70
1
9
$AUNITS
70
0
9
$AUPREC
70
0
9
$CECOLOR
62
256
9
$CELTSCALE
40
1
9
$CELTYPE
6
ByLayer
9
$CELWEIGHT
370
18
9
$CLAYER
8
0
9
$CMLJUST
70
0
9
$CMLSCALE
40
1
9
$CMLSTYLE
2
Standard
9
$DIMSTYLE
2
Standard
9
$TEXTSIZE
40
0.2
9
$TEXTSTYLE
7
Standard
9
$LUNITS
70
2
9
$LUPREC
70
4
9
$EXTNAMES
290
1
9
$INSUNITS
70
4
9
$LTSCALE
40
1
9
$LWDISPLAY
290
1
9
$PDMODE
70
0
9
$PDSIZE
40
0
9
$PLINEGEN
70
0
0
ENDSEC
0
SECTION
2
CLASSES
0
CLASS
1
RASTERVARIABLES
2
AcDbRasterVariables
3
ISM
90
0
280
0
281
0
0
ENDSEC
0
SECTION
2
TABLES
0
TABLE
2
VPORT
5
433
100
AcDbSymbolTable
0
VPORT
5
1
100
AcDbSymbolTableRecord
100
AcDbViewportTableRecord
2
*Active
70
0
10
0
20
0
11
1
21
1
12
-1
22
1
13
0
23
0
14
0.5
24
0.5
15
10
25
10
16
0
26
0
36
1
17
0
27
0
37
0
0
ENDTAB
0
TABLE
2
LTYPE
5
434
100
AcDbSymbolTable
0
LTYPE
5
14
100
AcDbSymbolTableRecord
100
AcDbLinetypeTableRecord
70
0
2
ByBlock
3

72
65
73
0
40
0
0
LTYPE
5
15
100
AcDbSymbolTableRecord
100
AcDbLinetypeTableRecord
70
0
2
ByLayer
3

72
65
73
0
40
0
0
LTYPE
5
16
100
AcDbSymbolTableRecord
100
AcDbLinetypeTableRecord
70
0
2
Continuous
3
Solid line
72
65
73
0
40
0
0
LTYPE
5
6E
100
AcDbSymbolTableRecord
100
AcDbLinetypeTableRecord
70
0
2
CENTER
3
____ _ ____ _ ____ _ ____
72
65
73
4
40
47.5
49
22
74
0
49
-8.5
74
0
49
8.5
74
0
49
-8.5
74
0
0
LTYPE
5
6F
100
AcDbSymbolTableRecord
100
AcDbLinetypeTableRecord
70
0
2
DASHED
3
__ __ __ __ __ __ __ __ __
72
65
73
2
40
25.72
49
12.86
74
0
49
-12.86
74
0
0
ENDTAB
0
TABLE
2
LAYER
5
435
100
AcDbSymbolTable
0
LAYER
5
10
100
AcDbSymbolTableRecord
100
AcDbLayerTableRecord
2
0
70
0
62
7
6
Continuous
290
1
370
-3
390
0
0
LAYER
5
71
100
AcDbSymbolTableRecord
100
AcDbLayerTableRecord
2
1
70
0
62
4
6
Continuous
290
1
370
-3
390
0
0
LAYER
5
73
100
AcDbSymbolTableRecord
100
AcDbLayerTableRecord
2
80
70
0
62
-6
6
Continuous
290
1
370
-3
390
0
0
LAYER
5
75
100
AcDbSymbolTableRecord
100
AcDbLayerTableRecord
2
81
70
0
62
-3
6
Continuous
290
1
370
-3
390
0
0
LAYER
5
13F
100
AcDbSymbolTableRecord
100
AcDbLayerTableRecord
2
4
70
0
62
-2
6
CENTER
290
1
370
-3
390
0
0
LAYER
5
172
100
AcDbSymbolTableRecord
100
AcDbLayerTableRecord
2
2
70
0
62
7
6
Continuous
290
1
370
-3
390
0
0
LAYER
5
348
100
AcDbSymbolTableRecord
100
AcDbLayerTableRecord
2
Defpoints
70
0
62
7
6
Continuous
290
0
370
-3
390
0
0
LAYER
5
41f
100
AcDbSymbolTableRecord
100
AcDbLayerTableRecord
2
SK1
70
0
62
4
6
Continuous
290
1
370
-3
390
0
0
LAYER
5
420
100
AcDbSymbolTableRecord
100
AcDbLayerTableRecord
2
SK4
70
0
62
2
6
CENTER
290
1
370
-3
390
0
0
LAYER
5
421
100
AcDbSymbolTableRecord
100
AcDbLayerTableRecord
2
SK2
70
0
62
7
6
Continuous
290
1
370
-3
390
0
0
LAYER
5
422
100
AcDbSymbolTableRecord
100
AcDbLayerTableRecord
2
SK6
70
0
62
5
6
Continuous
290
1
370
-3
390
0
0
ENDTAB
0
TABLE
2
STYLE
5
436
100
AcDbSymbolTable
0
STYLE
5
11
100
AcDbSymbolTableRecord
100
AcDbTextStyleTableRecord
2
Standard
3
txt
70
0
71
0
40
0
41
1
42
0
50
0
0
STYLE
5
323
100
AcDbSymbolTableRecord
100
AcDbTextStyleTableRecord
2
iso_b_vert
3
simplex.shx
70
0
71
0
40
0
41
1
42
0
50
0
0
STYLE
5
324
100
AcDbSymbolTableRecord
100
AcDbTextStyleTableRecord
2
DWGDirectTextStyle
3
simplex
70
0
71
0
40
0
41
1
42
0
50
0
0
ENDTAB
0
TABLE
2
DIMSTYLE
5
437
100
AcDbSymbolTable
100
AcDbDimStyleTable
0
DIMSTYLE
105
27
100
AcDbSymbolTableRecord
100
AcDbDimStyleTableRecord
2
Standard
70
0
3
<>
41
0.18
42
0.0625
44
0.18
140
0.18
147
0.09
73
0
74
0
77
1
271
2
275
0
278
52
280
0
340
11
0
ENDTAB
0
TABLE
2
VIEW
5
438
100
AcDbSymbolTable
0
ENDTAB
0
TABLE
2
UCS
5
439
100
AcDbSymbolTable
0
ENDTAB
0
TABLE
2
APPID
5
43a
100
AcDbSymbolTable
0
APPID
5
12
100
AcDbSymbolTableRecord
100
AcDbRegAppTableRecord
2
ACAD
70
0
0
APPID
5
344
100
AcDbSymbolTableRecord
100
AcDbRegAppTableRecord
2
ACAD_DSTYLE_DIMBREAK
70
0
0
APPID
5
3DE
100
AcDbSymbolTableRecord
100
AcDbRegAppTableRecord
2
ACAD_DSTYLE_DIM_LINETYPE
70
0
0
APPID
5
3DF
100
AcDbSymbolTableRecord
100
AcDbRegAppTableRecord
2
ACAD_DSTYLE_DIM_EXT1_LINETYPE
70
0
0
APPID
5
3E0
100
AcDbSymbolTableRecord
100
AcDbRegAppTableRecord
2
ACAD_DSTYLE_DIM_EXT2_LINETYPE
70
0
0
APPID
5
41B
100
AcDbSymbolTableRecord
100
AcDbRegAppTableRecord
2
ACAD_MLEADERVER
70
0
0
ENDTAB
0
TABLE
2
BLOCK_RECORD
5
43b
100
AcDbSymbolTable
0
BLOCK_RECORD
5
1F
100
AcDbSymbolTableRecord
100
AcDbBlockTableRecord
2
*Model_Space
340
0
70
0
0
BLOCK_RECORD
5
1B
100
AcDbSymbolTableRecord
100
AcDbBlockTableRecord
2
*Paper_Space
340
0
70
0
0
BLOCK_RECORD
5
23
100
AcDbSymbolTableRecord
100
AcDbBlockTableRecord
2
*Paper_Space0
340
0
70
0
0
BLOCK_RECORD
5
349
100
AcDbSymbolTableRecord
100
AcDbBlockTableRecord
2
*D1
340
0
70
0
0
BLOCK_RECORD
5
355
100
AcDbSymbolTableRecord
100
AcDbBlockTableRecord
2
_U0
340
0
70
0
0
BLOCK_RECORD
5
361
100
AcDbSymbolTableRecord
100
AcDbBlockTableRecord
2
*D3
340
0
70
0
0
BLOCK_RECORD
5
36D
100
AcDbSymbolTableRecord
100
AcDbBlockTableRecord
2
_U1
340
0
70
0
0
BLOCK_RECORD
5
379
100
AcDbSymbolTableRecord
100
AcDbBlockTableRecord
2
*D5
340
0
70
0
0
BLOCK_RECORD
5
385
100
AcDbSymbolTableRecord
100
AcDbBlockTableRecord
2
_U2
340
0
70
0
0
BLOCK_RECORD
5
391
100
AcDbSymbolTableRecord
100
AcDbBlockTableRecord
2
*D7
340
0
70
0
0
BLOCK_RECORD
5
39D
100
AcDbSymbolTableRecord
100
AcDbBlockTableRecord
2
_U3
340
0
70
0
0
BLOCK_RECORD
5
3A9
100
AcDbSymbolTableRecord
100
AcDbBlockTableRecord
2
*D9
340
0
70
0
0
BLOCK_RECORD
5
3B7
100
AcDbSymbolTableRecord
100
AcDbBlockTableRecord
2
_U4
340
0
70
0
0
ENDTAB
0
ENDSEC
0
SECTION
2
BLOCKS
0
BLOCK
5
20
100
AcDbEntity
8
0
100
AcDbBlockBegin
2
*Model_Space
70
0
10
0
20
0
30
0
3
*Model_Space
0
ENDBLK
5
21
100
AcDbEntity
8
0
100
AcDbBlockEnd
0
BLOCK
5
1C
100
AcDbEntity
8
0
100
AcDbBlockBegin
2
*Paper_Space
70
0
10
0
20
0
30
0
3
*Paper_Space
0
ENDBLK
5
1D
100
AcDbEntity
8
0
100
AcDbBlockEnd
0
BLOCK
5
24
100
AcDbEntity
8
0
100
AcDbBlockBegin
2
*Paper_Space0
70
0
10
0
20
0
30
0
3
*Paper_Space0
0
ENDBLK
5
25
100
AcDbEntity
8
0
100
AcDbBlockEnd
0
BLOCK
5
34A
100
AcDbEntity
8
0
100
AcDbBlockBegin
2
*D1
70
1
10
0
20
0
30
0
3
*D1
0
LINE
5
34C
100
AcDbEntity
8
0
62
256
6
ByLayer
370
-2
48
1
60
0
100
AcDbLine
10
0
20
-32.8375
30
0
11
0
21
-83.275
31
0
39
0
210
0
220
0
230
1
0
LINE
5
34D
100
AcDbEntity
8
0
62
256
6
ByLayer
370
-2
48
1
60
0
100
AcDbLine
10
340
20
-31.5875
30
0
11
340
21
-83.275
31
0
39
0
210
0
220
0
230
1
0
LINE
5
34E
100
AcDbEntity
8
0
62
256
6
ByLayer
370
-2
48
1
60
0
100
AcDbLine
10
4.175
20
-80.1
30
0
11
335.825
21
-80.1
31
0
39
0
210
0
220
0
230
1
0
SOLID
5
34F
100
AcDbEntity
8
0
62
256
6
ByLayer
370
-1
48
1
60
0
100
AcDbTrace
10
4.175
20
-79.404167
30
0
11
4.175
21
-80.795833
31
0
12
0
22
-80.1
32
0
13
0
23
-80.1
33
0
39
0
210
0
220
0
230
1
0
SOLID
5
350
100
AcDbEntity
8
0
62
256
6
ByLayer
370
-1
48
1
60
0
100
AcDbTrace
10
335.825
20
-80.795833
30
0
11
335.825
21
-79.404167
31
0
12
340
22
-80.1
32
0
13
340
23
-80.1
33
0
39
0
210
0
220
0
230
1
0
MTEXT
5
351
100
AcDbEntity
8
0
62
256
6
ByLayer
370
18
48
1
60
0
100
AcDbMText
10
170
20
-70.70625
30
0
210
0
220
0
230
1
1
\A1;340
40
4.5
41
0
44
1
50
0
71
5
72
5
7
iso_b_vert
0
POINT
5
352
100
AcDbEntity
8
Defpoints
62
0
6
ByLayer
370
-1
48
1
60
0
100
AcDbPoint
10
0
20
-31.25
30
0
39
0
210
0
220
0
230
1
50
360
0
POINT
5
353
100
AcDbEntity
8
Defpoints
62
0
6
ByLayer
370
-1
48
1
60
0
100
AcDbPoint
10
340
20
-30
30
0
39
0
210
0
220
0
230
1
50
360
0
POINT
5
354
100
AcDbEntity
8
Defpoints
62
0
6
ByLayer
370
-1
48
1
60
0
100
AcDbPoint
10
340
20
-80.1
30
0
39
0
210
0
220
0
230
1
50
360
0
ENDBLK
5
34B
100
AcDbEntity
8
0
100
AcDbBlockEnd
0
BLOCK
5
35C
100
AcDbEntity
8
0
100
AcDbBlockBegin
2
_U0
70
0
10
0
20
0
30
0
3
_U0
0
MTEXT
5
356
100
AcDbEntity
8
2
62
256
6
ByLayer
370
18
48
1
60
0
100
AcDbMText
10
165.632472
20
-78.772328
30
0
210
0
220
0
230
1
1
\W0.7541;340
40
4.5
41
0
44
1.084337
50
0
71
7
72
5
7
iso_b_vert
0
LINE
5
357
100
AcDbEntity
8
2
62
256
6
ByLayer
370
13
48
1
60
0
100
AcDbLine
10
0
20
-32.8375
30
0
11
0
21
-83.275
31
0
39
0
210
0
220
0
230
1
0
LINE
5
358
100
AcDbEntity
8
2
62
256
6
ByLayer
370
13
48
1
60
0
100
AcDbLine
10
340
20
-31.5875
30
0
11
340
21
-83.275
31
0
39
0
210
0
220
0
230
1
0
LINE
5
359
100
AcDbEntity
8
2
62
256
6
ByLayer
370
13
48
1
60
0
100
AcDbLine
10
0
20
-80.1
30
0
11
340
21
-80.1
31
0
39
0
210
0
220
0
230
1
0
SOLID
5
35A
100
AcDbEntity
8
2
62
256
6
ByLayer
370
18
48
1
60
0
100
AcDbTrace
10
0
20
-80.1
30
0
11
4.174997
21
-79.174425
31
0
12
4.175003
22
-81.025575
32
0
13
4.175003
23
-81.025575
33
0
39
0
210
0
220
0
230
1
0
SOLID
5
35B
100
AcDbEntity
8
2
62
256
6
ByLayer
370
18
48
1
60
0
100
AcDbTrace
10
340
20
-80.1
30
0
11
335.825003
21
-81.025575
31
0
12
335.824997
22
-79.174425
32
0
13
335.824997
23
-79.174425
33
0
39
0
210
0
220
0
230
1
0
ENDBLK
5
35D
100
AcDbEntity
8
0
100
AcDbBlockEnd
0
BLOCK
5
362
100
AcDbEntity
8
0
100
AcDbBlockBegin
2
*D3
70
1
10
0
20
0
30
0
3
*D3
0
LINE
5
364
100
AcDbEntity
8
0
62
256
6
ByLayer
370
-2
48
1
60
0
100
AcDbLine
10
-80
20
-26.5875
30
0
11
-80
21
-83.275
31
0
39
0
210
0
220
0
230
1
0
LINE
5
365
100
AcDbEntity
8
0
62
256
6
ByLayer
370
-2
48
1
60
0
100
AcDbLine
10
0
20
-32.8375
30
0
11
0
21
-83.275
31
0
39
0
210
0
220
0
230
1
0
LINE
5
366
100
AcDbEntity
8
0
62
256
6
ByLayer
370
-2
48
1
60
0
100
AcDbLine
10
-75.825
20
-80.1
30
0
11
-4.175
21
-80.1
31
0
39
0
210
0
220
0
230
1
0
SOLID
5
367
100
AcDbEntity
8
0
62
256
6
ByLayer
370
-1
48
1
60
0
100
AcDbTrace
10
-75.825
20
-79.404167
30
0
11
-75.825
21
-80.795833
31
0
12
-80
22
-80.1
32
0
13
-80
23
-80.1
33
0
39
0
210
0
220
0
230
1
0
SOLID
5
368
100
AcDbEntity
8
0
62
256
6
ByLayer
370
-1
48
1
60
0
100
AcDbTrace
10
-4.175
20
-80.795833
30
0
11
-4.175
21
-79.404167
31
0
12
0
22
-80.1
32
0
13
0
23
-80.1
33
0
39
0
210
0
220
0
230
1
0
MTEXT
5
369
100
AcDbEntity
8
0
62
256
6
ByLayer
370
18
48
1
60
0
100
AcDbMText
10
-40
20
-70.70625
30
0
210
0
220
0
230
1
1
\A1;80
40
4.5
41
0
44
1
50
0
71
5
72
5
7
iso_b_vert
0
POINT
5
36A
100
AcDbEntity
8
Defpoints
62
0
6
ByLayer
370
-1
48
1
60
0
100
AcDbPoint
10
-80
20
-25
30
0
39
0
210
0
220
0
230
1
50
360
0
POINT
5
36B
100
AcDbEntity
8
Defpoints
62
0
6
ByLayer
370
-1
48
1
60
0
100
AcDbPoint
10
0
20
-31.25
30
0
39
0
210
0
220
0
230
1
50
360
0
POINT
5
36C
100
AcDbEntity
8
Defpoints
62
0
6
ByLayer
370
-1
48
1
60
0
100
AcDbPoint
10
0
20
-80.1
30
0
39
0
210
0
220
0
230
1
50
360
0
ENDBLK
5
363
100
AcDbEntity
8
0
100
AcDbBlockEnd
0
BLOCK
5
374
100
AcDbEntity
8
0
100
AcDbBlockBegin
2
_U1
70
0
10
0
20
0
30
0
3
_U1
0
MTEXT
5
36E
100
AcDbEntity
8
SK2
62
256
6
ByLayer
370
18
48
1
60
0
100
AcDbMText
10
-42.449242
20
-78.772328
30
0
210
0
220
0
230
1
1
\W0.6740;80
40
4.5
41
0
44
1.084337
50
0
71
7
72
5
7
iso_b_vert
0
LINE
5
36F
100
AcDbEntity
8
SK2
62
256
6
ByLayer
370
13
48
1
60
0
100
AcDbLine
10
-80
20
-26.5875
30
0
11
-80
21
-83.275
31
0
39
0
210
0
220
0
230
1
0
LINE
5
370
100
AcDbEntity
8
SK2
62
256
6
ByLayer
370
13
48
1
60
0
100
AcDbLine
10
0
20
-32.8375
30
0
11
0
21
-83.275
31
0
39
0
210
0
220
0
230
1
0
LINE
5
371
100
AcDbEntity
8
SK2
62
256
6
ByLayer
370
13
48
1
60
0
100
AcDbLine
10
-80
20
-80.1
30
0
11
0
21
-80.1
31
0
39
0
210
0
220
0
230
1
0
SOLID
5
372
100
AcDbEntity
8
SK2
62
256
6
ByLayer
370
18
48
1
60
0
100
AcDbTrace
10
-80
20
-80.1
30
0
11
-75.825003
21
-79.174425
31
0
12
-75.824997
22
-81.025575
32
0
13
-75.824997
23
-81.025575
33
0
39
0
210
0
220
0
230
1
0
SOLID
5
373
100
AcDbEntity
8
SK2
62
256
6
ByLayer
370
18
48
1
60
0
100
AcDbTrace
10
0
20
-80.1
30
0
11
-4.174997
21
-81.025575
31
0
12
-4.175003
22
-79.174425
32
0
13
-4.175003
23
-79.174425
33
0
39
0
210
0
220
0
230
1
0
ENDBLK
5
375
100
AcDbEntity
8
0
100
AcDbBlockEnd
0
BLOCK
5
37A
100
AcDbEntity
8
0
100
AcDbBlockBegin
2
*D5
70
1
10
0
20
0
30
0
3
*D5
0
LINE
5
37C
100
AcDbEntity
8
0
62
256
6
ByLayer
370
-2
48
1
60
0
100
AcDbLine
10
340
20
-31.5875
30
0
11
340
21
-73.275
31
0
39
0
210
0
220
0
230
1
0
LINE
5
37D
100
AcDbEntity
8
0
62
256
6
ByLayer
370
-2
48
1
60
0
100
AcDbLine
10
5.5783
20
-32.8375
30
0
11
5.5783
21
-73.275
31
0
39
0
210
0
220
0
230
1
0
LINE
5
37E
100
AcDbEntity
8
0
62
256
6
ByLayer
370
-2
48
1
60
0
100
AcDbLine
10
335.825
20
-70.1
30
0
11
9.7533
21
-70.1
31
0
39
0
210
0
220
0
230
1
0
SOLID
5
37F
100
AcDbEntity
8
0
62
256
6
ByLayer
370
-1
48
1
60
0
100
AcDbTrace
10
335.825
20
-70.795833
30
0
11
335.825
21
-69.404167
31
0
12
340
22
-70.1
32
0
13
340
23
-70.1
33
0
39
0
210
0
220
0
230
1
0
SOLID
5
380
100
AcDbEntity
8
0
62
256
6
ByLayer
370
-1
48
1
60
0
100
AcDbTrace
10
9.7533
20
-69.404167
30
0
11
9.7533
21
-70.795833
31
0
12
5.5783
22
-70.1
32
0
13
5.5783
23
-70.1
33
0
39
0
210
0
220
0
230
1
0
MTEXT
5
381
100
AcDbEntity
8
0
62
256
6
ByLayer
370
18
48
1
60
0
100
AcDbMText
10
172.78915
20
-60.70625
30
0
210
0
220
0
230
1
1
\A1;334.4
40
4.5
41
0
44
1
50
0
71
5
72
5
7
iso_b_vert
0
POINT
5
382
100
AcDbEntity
8
Defpoints
62
0
6
ByLayer
370
-1
48
1
60
0
100
AcDbPoint
10
340
20
-30
30
0
39
0
210
0
220
0
230
1
50
360
0
POINT
5
383
100
AcDbEntity
8
Defpoints
62
0
6
ByLayer
370
-1
48
1
60
0
100
AcDbPoint
10
5.5783
20
-31.25
30
0
39
0
210
0
220
0
230
1
50
360
0
POINT
5
384
100
AcDbEntity
8
Defpoints
62
0
6
ByLayer
370
-1
48
1
60
0
100
AcDbPoint
10
5.5783
20
-70.1
30
0
39
0
210
0
220
0
230
1
50
360
0
ENDBLK
5
37B
100
AcDbEntity
8
0
100
AcDbBlockEnd
0
BLOCK
5
38C
100
AcDbEntity
8
0
100
AcDbBlockBegin
2
_U2
70
0
10
0
20
0
30
0
3
_U2
0
MTEXT
5
386
100
AcDbEntity
8
SK2
62
256
6
ByLayer
370
18
48
1
60
0
100
AcDbMText
10
165.591766
20
-68.772328
30
0
210
0
220
0
230
1
1
\W0.7868;334.4
40
4.5
41
0
44
1.084337
50
0
71
7
72
5
7
iso_b_vert
0
LINE
5
387
100
AcDbEntity
8
SK2
62
256
6
ByLayer
370
13
48
1
60
0
100
AcDbLine
10
340
20
-31.5875
30
0
11
340
21
-73.275
31
0
39
0
210
0
220
0
230
1
0
LINE
5
388
100
AcDbEntity
8
SK2
62
256
6
ByLayer
370
13
48
1
60
0
100
AcDbLine
10
5.5783
20
-32.8375
30
0
11
5.5783
21
-73.275
31
0
39
0
210
0
220
0
230
1
0
LINE
5
389
100
AcDbEntity
8
SK2
62
256
6
ByLayer
370
13
48
1
60
0
100
AcDbLine
10
340
20
-70.1
30
0
11
5.5783
21
-70.1
31
0
39
0
210
0
220
0
230
1
0
SOLID
5
38A
100
AcDbEntity
8
SK2
62
256
6
ByLayer
370
18
48
1
60
0
100
AcDbTrace
10
340
20
-70.1
30
0
11
335.825003
21
-71.025575
31
0
12
335.824997
22
-69.174425
32
0
13
335.824997
23
-69.174425
33
0
39
0
210
0
220
0
230
1
0
SOLID
5
38B
100
AcDbEntity
8
SK2
62
256
6
ByLayer
370
18
48
1
60
0
100
AcDbTrace
10
5.5783
20
-70.1
30
0
11
9.753297
21
-69.174425
31
0
12
9.753303
22
-71.025575
32
0
13
9.753303
23
-71.025575
33
0
39
0
210
0
220
0
230
1
0
ENDBLK
5
38D
100
AcDbEntity
8
0
100
AcDbBlockEnd
0
BLOCK
5
392
100
AcDbEntity
8
0
100
AcDbBlockBegin
2
*D7
70
1
10
0
20
0
30
0
3
*D7
0
LINE
5
394
100
AcDbEntity
8
0
62
256
6
ByLayer
370
-2
48
1
60
0
100
AcDbLine
10
35
20
-31.5875
30
0
11
35
21
-63.275
31
0
39
0
210
0
220
0
230
1
0
LINE
5
395
100
AcDbEntity
8
0
62
256
6
ByLayer
370
-2
48
1
60
0
100
AcDbLine
10
340
20
-31.5875
30
0
11
340
21
-63.275
31
0
39
0
210
0
220
0
230
1
0
LINE
5
396
100
AcDbEntity
8
0
62
256
6
ByLayer
370
-2
48
1
60
0
100
AcDbLine
10
39.175
20
-60.1
30
0
11
335.825
21
-60.1
31
0
39
0
210
0
220
0
230
1
0
SOLID
5
397
100
AcDbEntity
8
0
62
256
6
ByLayer
370
-1
48
1
60
0
100
AcDbTrace
10
39.175
20
-59.404167
30
0
11
39.175
21
-60.795833
31
0
12
35
22
-60.1
32
0
13
35
23
-60.1
33
0
39
0
210
0
220
0
230
1
0
SOLID
5
398
100
AcDbEntity
8
0
62
256
6
ByLayer
370
-1
48
1
60
0
100
AcDbTrace
10
335.825
20
-60.795833
30
0
11
335.825
21
-59.404167
31
0
12
340
22
-60.1
32
0
13
340
23
-60.1
33
0
39
0
210
0
220
0
230
1
0
MTEXT
5
399
100
AcDbEntity
8
0
62
256
6
ByLayer
370
18
48
1
60
0
100
AcDbMText
10
187.5
20
-50.70625
30
0
210
0
220
0
230
1
1
\A1;305
40
4.5
41
0
44
1
50
0
71
5
72
5
7
iso_b_vert
0
POINT
5
39A
100
AcDbEntity
8
Defpoints
62
0
6
ByLayer
370
-1
48
1
60
0
100
AcDbPoint
10
35
20
-30
30
0
39
0
210
0
220
0
230
1
50
360
0
POINT
5
39B
100
AcDbEntity
8
Defpoints
62
0
6
ByLayer
370
-1
48
1
60
0
100
AcDbPoint
10
340
20
-30
30
0
39
0
210
0
220
0
230
1
50
360
0
POINT
5
39C
100
AcDbEntity
8
Defpoints
62
0
6
ByLayer
370
-1
48
1
60
0
100
AcDbPoint
10
340
20
-60.1
30
0
39
0
210
0
220
0
230
1
50
360
0
ENDBLK
5
393
100
AcDbEntity
8
0
100
AcDbBlockEnd
0
BLOCK
5
3A4
100
AcDbEntity
8
0
100
AcDbBlockBegin
2
_U3
70
0
10
0
20
0
30
0
3
_U3
0
MTEXT
5
39E
100
AcDbEntity
8
SK2
62
256
6
ByLayer
370
18
48
1
60
0
100
AcDbMText
10
183.369387
20
-58.772328
30
0
210
0
220
0
230
1
1
\W0.7138;305
40
4.5
41
0
44
1.084337
50
0
71
7
72
5
7
iso_b_vert
0
LINE
5
39F
100
AcDbEntity
8
SK2
62
256
6
ByLayer
370
13
48
1
60
0
100
AcDbLine
10
35
20
-31.5875
30
0
11
35
21
-63.275
31
0
39
0
210
0
220
0
230
1
0
LINE
5
3A0
100
AcDbEntity
8
SK2
62
256
6
ByLayer
370
13
48
1
60
0
100
AcDbLine
10
340
20
-31.5875
30
0
11
340
21
-63.275
31
0
39
0
210
0
220
0
230
1
0
LINE
5
3A1
100
AcDbEntity
8
SK2
62
256
6
ByLayer
370
13
48
1
60
0
100
AcDbLine
10
35
20
-60.1
30
0
11
340
21
-60.1
31
0
39
0
210
0
220
0
230
1
0
SOLID
5
3A2
100
AcDbEntity
8
SK2
62
256
6
ByLayer
370
18
48
1
60
0
100
AcDbTrace
10
35
20
-60.1
30
0
11
39.174997
21
-59.174425
31
0
12
39.175003
22
-61.025575
32
0
13
39.175003
23
-61.025575
33
0
39
0
210
0
220
0
230
1
0
SOLID
5
3A3
100
AcDbEntity
8
SK2
62
256
6
ByLayer
370
18
48
1
60
0
100
AcDbTrace
10
340
20
-60.1
30
0
11
335.825003
21
-61.025575
31
0
12
335.824997
22
-59.174425
32
0
13
335.824997
23
-59.174425
33
0
39
0
210
0
220
0
230
1
0
ENDBLK
5
3A5
100
AcDbEntity
8
0
100
AcDbBlockEnd
0
BLOCK
5
3AA
100
AcDbEntity
8
0
100
AcDbBlockBegin
2
*D9
70
1
10
0
20
0
30
0
3
*D9
0
LINE
5
3AC
100
AcDbEntity
8
0
62
256
6
ByLayer
370
-2
48
1
60
0
100
AcDbLine
10
338.4109
20
-16.5875
30
0
11
338.4109
21
-53.275
31
0
39
0
210
0
220
0
230
1
0
LINE
5
3AD
100
AcDbEntity
8
0
62
256
6
ByLayer
370
-2
48
1
60
0
100
AcDbLine
10
340
20
-1.5875
30
0
11
340
21
-53.275
31
0
39
0
210
0
220
0
230
1
0
LINE
5
3AE
100
AcDbEntity
8
0
62
256
6
ByLayer
370
-2
48
1
60
0
100
AcDbLine
10
340
20
-50.1
30
0
11
375.494643
21
-50.1
31
0
39
0
210
0
220
0
230
1
0
LINE
5
3AF
100
AcDbEntity
8
0
62
256
6
ByLayer
370
-2
48
1
60
0
100
AcDbLine
10
334.2359
20
-50.1
30
0
11
330.0609
21
-50.1
31
0
39
0
210
0
220
0
230
1
0
LINE
5
3B0
100
AcDbEntity
8
0
62
256
6
ByLayer
370
-2
48
1
60
0
100
AcDbLine
10
344.175
20
-50.1
30
0
11
348.35
21
-50.1
31
0
39
0
210
0
220
0
230
1
0
SOLID
5
3B1
100
AcDbEntity
8
0
62
256
6
ByLayer
370
-1
48
1
60
0
100
AcDbTrace
10
334.2359
20
-50.795833
30
0
11
334.2359
21
-49.404167
31
0
12
338.4109
22
-50.1
32
0
13
338.4109
23
-50.1
33
0
39
0
210
0
220
0
230
1
0
SOLID
5
3B2
100
AcDbEntity
8
0
62
256
6
ByLayer
370
-1
48
1
60
0
100
AcDbTrace
10
344.175
20
-49.404167
30
0
11
344.175
21
-50.795833
31
0
12
340
22
-50.1
32
0
13
340
23
-50.1
33
0
39
0
210
0
220
0
230
1
0
MTEXT
5
3B3
100
AcDbEntity
8
0
62
256
6
ByLayer
370
18
48
1
60
0
100
AcDbMText
10
361.922321
20
-40.70625
30
0
210
0
220
0
230
1
1
\A1;1.59
40
4.5
41
0
44
1
50
0
71
5
72
5
7
iso_b_vert
0
POINT
5
3B4
100
AcDbEntity
8
Defpoints
62
0
6
ByLayer
370
-1
48
1
60
0
100
AcDbPoint
10
338.4109
20
-15
30
0
39
0
210
0
220
0
230
1
50
360
0
POINT
5
3B5
100
AcDbEntity
8
Defpoints
62
0
6
ByLayer
370
-1
48
1
60
0
100
AcDbPoint
10
340
20
0
30
0
39
0
210
0
220
0
230
1
50
360
0
POINT
5
3B6
100
AcDbEntity
8
Defpoints
62
0
6
ByLayer
370
-1
48
1
60
0
100
AcDbPoint
10
340
20
-50.1
30
0
39
0
210
0
220
0
230
1
50
360
0
ENDBLK
5
3AB
100
AcDbEntity
8
0
100
AcDbBlockEnd
0
BLOCK
5
3BE
100
AcDbEntity
8
0
100
AcDbBlockBegin
2
_U4
70
0
10
0
20
0
30
0
3
_U4
0
MTEXT
5
3B8
100
AcDbEntity
8
2
62
256
6
ByLayer
370
18
48
1
60
0
100
AcDbMText
10
352.351
20
-48.772328
30
0
210
0
220
0
230
1
1
\W0.6662;1.59
40
4.5
41
0
44
1.084337
50
0
71
7
72
5
7
iso_b_vert
0
LINE
5
3B9
100
AcDbEntity
8
2
62
256
6
ByLayer
370
13
48
1
60
0
100
AcDbLine
10
338.4109
20
-16.5875
30
0
11
338.4109
21
-53.275
31
0
39
0
210
0
220
0
230
1
0
LINE
5
3BA
100
AcDbEntity
8
2
62
256
6
ByLayer
370
13
48
1
60
0
100
AcDbLine
10
340
20
-1.5875
30
0
11
340
21
-53.275
31
0
39
0
210
0
220
0
230
1
0
LINE
5
3BB
100
AcDbEntity
8
2
62
256
6
ByLayer
370
13
48
1
60
0
100
AcDbLine
10
361.549041
20
-50.1
30
0
11
327.1609
21
-50.1
31
0
39
0
210
0
220
0
230
1
0
SOLID
5
3BC
100
AcDbEntity
8
2
62
256
6
ByLayer
370
18
48
1
60
0
100
AcDbTrace
10
338.4109
20
-50.1
30
0
11
334.235903
21
-51.025575
31
0
12
334.235897
22
-49.174425
32
0
13
334.235897
23
-49.174425
33
0
39
0
210
0
220
0
230
1
0
SOLID
5
3BD
100
AcDbEntity
8
2
62
256
6
ByLayer
370
18
48
1
60
0
100
AcDbTrace
10
340
20
-50.1
30
0
11
344.174997
21
-49.174425
31
0
12
344.175003
22
-51.025575
32
0
13
344.175003
23
-51.025575
33
0
39
0
210
0
220
0
230
1
0
ENDBLK
5
3BF
100
AcDbEntity
8
0
100
AcDbBlockEnd
0
ENDSEC
0
SECTION
2
ENTITIES
0
ARC
5
17B
100
AcDbEntity
8
SK1
62
256
6
ByLayer
370
13
48
1
60
0
100
AcDbCircle
39
0
10
-0.15
20
25.146
30
0
40
0.399999999999999
210
0
220
0
230
1
100
AcDbArc
50
270
51
292.024313
0
ARC
5
17C
100
AcDbEntity
8
SK1
62
256
6
ByLayer
370
13
48
1
60
0
100
AcDbCircle
39
0
10
-0.15
20
-25.146
30
0
40
0.399999999999999
210
0
220
0
230
1
100
AcDbArc
50
67.975687
51
90
0
ARC
5
17D
100
AcDbEntity
8
SK1
62
256
6
ByLayer
370
13
48
1
60
0
100
AcDbCircle
39
0
10
-1.375195
20
25.146
30
0
40
0.400000000000004
210
0
220
0
230
1
100
AcDbArc
50
245
51
270
0
ARC
5
17E
100
AcDbEntity
8
SK1
62
256
6
ByLayer
370
13
48
1
60
0
100
AcDbCircle
39
0
10
-1.375195
20
-25.146
30
0
40
0.400000000000004
210
0
220
0
230
1
100
AcDbArc
50
90
51
115
0
ARC
5
17F
100
AcDbEntity
8
1
62
256
6
ByLayer
370
13
48
1
60
0
100
AcDbCircle
39
0
10
336.075268
20
28.192383
30
0
40
0.2
210
0
220
0
230
1
100
AcDbArc
50
8.973565
51
93
0
ARC
5
180
100
AcDbEntity
8
1
62
256
6
ByLayer
370
13
48
1
60
0
100
AcDbCircle
39
0
10
336.266338
20
11.936634
30
0
40
0.2
210
0
220
0
230
1
100
AcDbArc
50
273
51
352.54557
0
ARC
5
181
100
AcDbEntity
8
1
62
256
6
ByLayer
370
13
48
1
60
0
100
AcDbCircle
39
0
10
321.869
20
27.182146
30
0
40
0.2
210
0
220
0
230
1
100
AcDbArc
50
79.98854
51
93
0
ARC
5
182
100
AcDbEntity
8
1
62
256
6
ByLayer
370
13
48
1
60
0
100
AcDbCircle
39
0
10
322.060069
20
10.926396
30
0
40
0.2
210
0
220
0
230
1
100
AcDbArc
50
273
51
303.773583
0
ELLIPSE
5
183
100
AcDbEntity
8
1
62
256
6
ByLayer
370
18
48
1
60
0
100
AcDbEllipse
10
329.04026
20
19.557953
30
0
11
-0.0942047212372795
21
1.79753316255823
31
0
210
0
220
0
230
1
40
0.995562
41
0
42
6.28318530717959
0
ELLIPSE
5
184
100
AcDbEntity
8
1
62
256
6
ByLayer
370
18
48
1
60
0
100
AcDbEllipse
10
328.892243
20
19.550196
30
0
11
0.0675290843402685
21
-1.28853168869383
31
0
210
0
220
0
230
1
40
0.995562
41
1.0471975511966
42
2.0943951023932
0
ELLIPSE
5
185
100
AcDbEntity
8
1
62
256
6
ByLayer
370
18
48
1
60
0
100
AcDbEllipse
10
328.969873
20
18.068929
30
0
11
-0.391813266879191
21
-0.0205340632119299
31
0
210
0
220
0
230
1
40
0.491907
41
-1.5707963267949
42
-0.288932900934977
0
ELLIPSE
5
186
100
AcDbEntity
8
1
62
256
6
ByLayer
370
18
48
1
60
0
100
AcDbEllipse
10
328.814613
20
21.031463
30
0
11
-0.391813266885096
21
-0.0205340632131927
31
0
210
0
220
0
230
1
40
0.491907
41
0.288932900933171
42
1.5707963267949
0
ELLIPSE
5
187
100
AcDbEntity
8
1
62
256
6
ByLayer
370
18
48
1
60
0
100
AcDbEllipse
10
329.04026
20
19.557953
30
0
11
0.0877359970456684
21
-1.67410255206257
31
0
210
0
220
0
230
1
40
0.995562
41
-1.5707963267949
42
-0.523598775598303
0
ELLIPSE
5
188
100
AcDbEntity
8
1
62
256
6
ByLayer
370
18
48
1
60
0
100
AcDbEllipse
10
329.04026
20
19.557953
30
0
11
0.0877359970456684
21
-1.67410255206257
31
0
210
0
220
0
230
1
40
0.995562
41
-2.61799387799149
42
-1.5707963267949
0
ELLIPSE
5
189
100
AcDbEntity
8
1
62
256
6
ByLayer
370
18
48
1
60
0
100
AcDbEllipse
10
329.04026
20
19.557953
30
0
11
0.0877359970456684
21
-1.67410255206257
31
0
210
0
220
0
230
1
40
0.995562
41
1.5707963267949
42
2.61799387799147
0
ELLIPSE
5
18A
100
AcDbEntity
8
1
62
256
6
ByLayer
370
18
48
1
60
0
100
AcDbEllipse
10
330.13055
20
20.357761
30
0
11
-0.213369888118312
21
0.330824637130103
31
0
210
0
220
0
230
1
40
0.48863
41
1.57326889138836
42
2.8551323172434
0
ELLIPSE
5
18B
100
AcDbEntity
8
1
62
256
6
ByLayer
370
18
48
1
60
0
100
AcDbEllipse
10
328.892243
20
19.550196
30
0
11
0.0675290843402685
21
-1.28853168869383
31
0
210
0
220
0
230
1
40
0.995562
41
2.0943951023932
42
3.14159265358975
0
ELLIPSE
5
18C
100
AcDbEntity
8
1
62
256
6
ByLayer
370
18
48
1
60
0
100
AcDbEllipse
10
329.032817
20
19.557563
30
0
11
-0.149157475292359
21
2.84609417405054
31
0
210
0
220
0
230
1
40
0.995562
41
0
42
6.28318530717959
0
ELLIPSE
5
18D
100
AcDbEntity
8
1
62
256
6
ByLayer
370
18
48
1
60
0
100
AcDbEllipse
10
329.04026
20
19.557953
30
0
11
0.0877359970456684
21
-1.67410255206257
31
0
210
0
220
0
230
1
40
0.995562
41
0.523598775598307
42
1.5707963267949
0
ELLIPSE
5
18E
100
AcDbEntity
8
1
62
256
6
ByLayer
370
18
48
1
60
0
100
AcDbEllipse
10
330.20818
20
18.876493
30
0
11
-0.177620434620853
21
-0.351315571666497
31
0
210
0
220
0
230
1
40
0.48863
41
-1.57326889136307
42
-0.291405465515646
0
ELLIPSE
5
18F
100
AcDbEntity
8
1
62
256
6
ByLayer
370
18
48
1
60
0
100
AcDbEllipse
10
329.04026
20
19.557953
30
0
11
0.0877359970456684
21
-1.67410255206257
31
0
210
0
220
0
230
1
40
0.995562
41
-0.523598775598303
42
0.523598775598307
0
ELLIPSE
5
190
100
AcDbEntity
8
1
62
256
6
ByLayer
370
18
48
1
60
0
100
AcDbEllipse
10
330.20818
20
18.876493
30
0
11
-0.177620434615501
21
-0.351315571673433
31
0
210
0
220
0
230
1
40
0.48863
41
-2.85513231724542
42
-1.57326889140868
0
ELLIPSE
5
191
100
AcDbEntity
8
1
62
256
6
ByLayer
370
18
48
1
60
0
100
AcDbEllipse
10
329.04026
20
19.557953
30
0
11
0.0877359970456684
21
-1.67410255206257
31
0
210
0
220
0
230
1
40
0.995562
41
2.61799387799147
42
-2.61799387799149
0
ELLIPSE
5
192
100
AcDbEntity
8
1
62
256
6
ByLayer
370
18
48
1
60
0
100
AcDbEllipse
10
330.13055
20
20.357761
30
0
11
-0.213369888114997
21
0.330824637125413
31
0
210
0
220
0
230
1
40
0.48863
41
0.291405465521676
42
1.57326889139013
0
ELLIPSE
5
193
100
AcDbEntity
8
1
62
256
6
ByLayer
370
13
48
1
60
0
100
AcDbEllipse
10
336.983564
20
29.68378
30
0
11
0.012664488842562
21
-0.241652842685142
31
0
210
0
220
0
230
1
40
0.995562
41
-2.96705972838901
42
-1.82037975281565
0
ELLIPSE
5
194
100
AcDbEntity
8
1
62
256
6
ByLayer
370
13
48
1
60
0
100
AcDbEllipse
10
336.764536
20
29.672301
30
0
11
-0.279576450840615
21
-0.214084669593398
31
0
210
0
220
0
230
1
40
0.473311
41
-2.36298044736857
42
-1.21630047179996
0
ELLIPSE
5
195
100
AcDbEntity
8
1
62
256
6
ByLayer
370
13
48
1
60
0
100
AcDbEllipse
10
338.132933
20
11.04785
30
0
11
-0.0433887755056297
21
-0.26170936330673
31
0
210
0
220
0
230
1
40
0.938419
41
0.31157436673311
42
0.505433114932142
0
ELLIPSE
5
196
100
AcDbEntity
8
1
62
256
6
ByLayer
370
13
48
1
60
0
100
AcDbEllipse
10
321.869
20
27.182146
30
0
11
-0.0347690313672594
21
-0.196954599991426
31
0
210
0
220
0
230
1
40
0.091713
41
1.59198601757343
42
-3.12040296277841
0
ELLIPSE
5
197
100
AcDbEntity
8
1
62
256
6
ByLayer
370
13
48
1
60
0
100
AcDbEllipse
10
323.340668
20
8.995184
30
0
11
-0.10990550811016
21
2.09712202298461
31
0
210
0
220
0
230
1
40
0.995562
41
0.718961233327938
42
1.32121290077032
0
ELLIPSE
5
198
100
AcDbEntity
8
1
62
256
6
ByLayer
370
13
48
1
60
0
100
AcDbEllipse
10
337.033324
20
29.722105
30
0
11
-0.00653707867981082
21
0.149857487641873
31
0
210
0
220
0
230
1
40
0.094105
41
0.000824900290362992
42
1.57162122708202
0
ELLIPSE
5
199
100
AcDbEntity
8
1
62
256
6
ByLayer
370
13
48
1
60
0
100
AcDbEllipse
10
321.518229
20
27.223144
30
0
11
-0.0420204304825349
21
-0.159048282703175
31
0
210
0
220
0
230
1
40
0.081731
41
-3.1153588118889
42
-1.54456248512982
0
ELLIPSE
5
19A
100
AcDbEntity
8
1
62
256
6
ByLayer
370
13
48
1
60
0
100
AcDbEllipse
10
337.489618
20
20.984448
30
0
11
-0.457939617125663
21
8.73800842910252
31
0
210
0
220
0
230
1
40
0.995562
41
-0.0801412288236125
42
-0.0245785262960335
0
ELLIPSE
5
19B
100
AcDbEntity
8
1
62
256
6
ByLayer
370
13
48
1
60
0
100
AcDbEllipse
10
319.716819
20
28.778868
30
0
11
-0.300422843314147
21
0.183688194603208
31
0
210
0
220
0
230
1
40
0.473311
41
-1.92529218178256
42
-0.778612206223158
0
ELLIPSE
5
19C
100
AcDbEntity
8
1
62
256
6
ByLayer
370
13
48
1
60
0
100
AcDbEllipse
10
321.869
20
27.182146
30
0
11
0.19830967214623
21
-0.0259475226804972
31
0
210
0
220
0
230
1
40
0.01715
41
1.47811763731447
42
3.04891396411863
0
ELLIPSE
5
19D
100
AcDbEntity
8
1
62
256
6
ByLayer
370
13
48
1
60
0
100
AcDbEllipse
10
334.79467
20
30.123596
30
0
11
-0.104671912485866
21
1.99725906950915
31
0
210
0
220
0
230
1
40
0.995562
41
-3.14159265358877
42
-1.82037975281705
0
ELLIPSE
5
19E
100
AcDbEntity
8
1
62
256
6
ByLayer
370
13
48
1
60
0
100
AcDbEllipse
10
321.139249
20
9.436326
30
0
11
-0.147123305935866
21
0.0292358145174964
31
0
210
0
220
0
230
1
40
0.023245
41
1.4794523034201
42
3.05024863021027
0
ELLIPSE
5
19F
100
AcDbEntity
8
1
62
256
6
ByLayer
370
13
48
1
60
0
100
AcDbEllipse
10
334.672296
20
30.117182
30
0
11
-1.74911089441103
21
-1.53532677658622
31
0
210
0
220
0
230
1
40
0.758703
41
1.05561565777892
42
2.06133695402031
0
ELLIPSE
5
1A0
100
AcDbEntity
8
1
62
256
6
ByLayer
370
13
48
1
60
0
100
AcDbEllipse
10
337.728584
20
29.18187
30
0
11
0.0366351693700604
21
-0.699040674328219
31
0
210
0
220
0
230
1
40
0.995562
41
1.67551608191472
42
3.06145142476627
0
ELLIPSE
5
1A1
100
AcDbEntity
8
1
62
256
6
ByLayer
370
13
48
1
60
0
100
AcDbEllipse
10
321.314152
20
18.961541
30
0
11
-0.0261679781214666
21
0.49931476737729
31
0
210
0
220
0
230
1
40
0.995562
41
1.38753675533548
42
1.67551608191459
0
ELLIPSE
5
1A2
100
AcDbEntity
8
1
62
256
6
ByLayer
370
13
48
1
60
0
100
AcDbEllipse
10
337.743666
20
29.731647
30
0
11
0.00422000339726409
21
0.149940626820509
31
0
210
0
220
0
230
1
40
0.093806
41
0.00756732553151094
42
1.57836365232731
0
ELLIPSE
5
1A3
100
AcDbEntity
8
1
62
256
6
ByLayer
370
13
48
1
60
0
100
AcDbEllipse
10
336.321831
20
28.54588
30
0
11
0.00523359562429353
21
-0.0998629534754442
31
0
210
0
220
0
230
1
40
0.995562
41
-2.42263142026082
42
-1.46607657167474
0
ELLIPSE
5
1A4
100
AcDbEntity
8
1
62
256
6
ByLayer
370
13
48
1
60
0
100
AcDbEllipse
10
328.981192
20
19.554858
30
0
11
0.156043507061189
21
-2.97748748746712
31
0
210
0
220
0
230
1
40
0.995562
41
0
42
6.28318530717959
0
ELLIPSE
5
1A5
100
AcDbEntity
8
1
62
256
6
ByLayer
370
13
48
1
60
0
100
AcDbEllipse
10
338.661203
20
12.239838
30
0
11
0.148732254109672
21
-0.019460642010373
31
0
210
0
220
0
230
1
40
0.01715
41
-1.66347501628007
42
-0.0926786894822609
0
ELLIPSE
5
1A6
100
AcDbEntity
8
1
62
256
6
ByLayer
370
13
48
1
60
0
100
AcDbEllipse
10
337.714487
20
29.181131
30
0
11
-0.028784775933614
21
0.549246244115033
31
0
210
0
220
0
230
1
40
0.995562
41
-1.46607657167512
42
-0.0801412288235379
0
ELLIPSE
5
1A7
100
AcDbEntity
8
1
62
256
6
ByLayer
370
13
48
1
60
0
100
AcDbEllipse
10
336.858777
20
20.159209
30
0
11
-0.0261679781214666
21
0.49931476737729
31
0
210
0
220
0
230
1
40
0.995562
41
-1.75405589825431
42
-1.46607657167509
0
ELLIPSE
5
1A8
100
AcDbEntity
8
1
62
256
6
ByLayer
370
13
48
1
60
0
100
AcDbEllipse
10
339.689646
20
20.273771
30
0
11
0.148164061728345
21
0.0233968120084578
31
0
210
0
220
0
230
1
40
0.009837
41
0.0937345075274513
42
1.66453083432158
0
ELLIPSE
5
1A9
100
AcDbEntity
8
1
62
256
6
ByLayer
370
13
48
1
60
0
100
AcDbEllipse
10
320.402055
20
9.936663
30
0
11
0.0366351693700604
21
-0.699040674328219
31
0
210
0
220
0
230
1
40
0.995562
41
-1.4660765716763
42
-0.0801412288248316
0
ELLIPSE
5
1AA
100
AcDbEntity
8
1
62
256
6
ByLayer
370
13
48
1
60
0
100
AcDbEllipse
10
323.340668
20
8.995184
30
0
11
-0.104671912485866
21
1.99725906950915
31
0
210
0
220
0
230
1
40
0.995562
41
0
42
1.32121290077037
0
ELLIPSE
5
1AB
100
AcDbEntity
8
1
62
256
6
ByLayer
370
13
48
1
60
0
100
AcDbEllipse
10
334.775874
20
30.122611
30
0
11
0.11775590154662
21
-2.2469164531978
31
0
210
0
220
0
230
1
40
0.995562
41
0.730529197227424
42
1.32121290077155
0
ELLIPSE
5
1AC
100
AcDbEntity
8
1
62
256
6
ByLayer
370
13
48
1
60
0
100
AcDbEllipse
10
337.308508
20
27.982445
30
0
11
0.0994383168615901
21
-1.89739611603369
31
0
210
0
220
0
230
1
40
0.995562
41
3.11701412729395
42
3.13286600732986
0
ELLIPSE
5
1AD
100
AcDbEntity
8
1
62
256
6
ByLayer
370
13
48
1
60
0
100
AcDbEllipse
10
336.266338
20
11.936634
30
0
11
0.0347690313672874
21
0.196954599991421
31
0
210
0
220
0
230
1
40
0.091713
41
-3.1204029628404
42
-1.54960663601579
0
ELLIPSE
5
1AE
100
AcDbEntity
8
1
62
256
6
ByLayer
370
13
48
1
60
0
100
AcDbEllipse
10
339.134745
20
20.18712
30
0
11
-0.0287847759336122
21
0.549246244114998
31
0
210
0
220
0
230
1
40
0.995562
41
-1.75405589825453
42
-1.46607657167521
0
ELLIPSE
5
1AF
100
AcDbEntity
8
1
62
256
6
ByLayer
370
13
48
1
60
0
100
AcDbEllipse
10
338.665902
20
12.240084
30
0
11
0.00785039343644174
21
-0.149794430213194
31
0
210
0
220
0
230
1
40
0.995562
41
0.113446401375773
42
1.38753675533664
0
ELLIPSE
5
1B0
100
AcDbEntity
8
1
62
256
6
ByLayer
370
13
48
1
60
0
100
AcDbEllipse
10
321.518229
20
27.223144
30
0
11
-0.157457627840971
21
-0.0472734989313711
31
0
210
0
220
0
230
1
40
0.020424
41
-3.05807782800935
42
-1.4872815014458
0
ELLIPSE
5
1B1
100
AcDbEntity
8
1
62
256
6
ByLayer
370
13
48
1
60
0
100
AcDbEllipse
10
321.581048
20
27.283842
30
0
11
0.00523359562429548
21
-0.0998629534754815
31
0
210
0
220
0
230
1
40
0.995562
41
1.38753675533553
42
-3.02814625221219
0
ELLIPSE
5
1B2
100
AcDbEntity
8
1
62
256
6
ByLayer
370
13
48
1
60
0
100
AcDbEllipse
10
337.040205
20
29.672399
30
0
11
0.0104671912485885
21
-0.199725906950916
31
0
210
0
220
0
230
1
40
0.995562
41
3.13286600733367
42
-1.82037975281638
0
ELLIPSE
5
1B3
100
AcDbEntity
8
1
62
256
6
ByLayer
370
13
48
1
60
0
100
AcDbEllipse
10
321.751095
20
29.440011
30
0
11
-1.90001443048938
21
1.34408422198191
31
0
210
0
220
0
230
1
40
0.758703
41
1.080255699569
42
2.08597699581049
0
ELLIPSE
5
1B4
100
AcDbEntity
8
1
62
256
6
ByLayer
370
13
48
1
60
0
100
AcDbEllipse
10
339.153541
20
20.188105
30
0
11
0.0366351693700586
21
-0.699040674328184
31
0
210
0
220
0
230
1
40
0.995562
41
1.38753675533638
42
1.6755160819157
0
ELLIPSE
5
1B5
100
AcDbEntity
8
1
62
256
6
ByLayer
370
13
48
1
60
0
100
AcDbEllipse
10
320.383259
20
9.935678
30
0
11
-0.028784775933614
21
0.549246244115033
31
0
210
0
220
0
230
1
40
0.995562
41
1.67551608191468
42
3.06145142476627
0
ELLIPSE
5
1B6
100
AcDbEntity
8
1
62
256
6
ByLayer
370
13
48
1
60
0
100
AcDbEllipse
10
337.259707
20
29.73176
30
0
11
-0.00415024464891743
21
0.149942573905326
31
0
210
0
220
0
230
1
40
0.09408
41
0.0023231166844657
42
1.57311944348265
0
ELLIPSE
5
1B7
100
AcDbEntity
8
1
62
256
6
ByLayer
370
13
48
1
60
0
100
AcDbEllipse
10
321.438433
20
29.42363
30
0
11
-2.48300749992028
21
1.51818492839065
31
0
210
0
220
0
230
1
40
0.473312
41
1.21629836226025
42
1.24195610333512
0
ELLIPSE
5
1B8
100
AcDbEntity
8
1
62
256
6
ByLayer
370
13
48
1
60
0
100
AcDbEllipse
10
321.290657
20
18.960309
30
0
11
-0.0366351693700532
21
0.699040674328205
31
0
210
0
220
0
230
1
40
0.995562
41
1.3875367553354
42
1.67551608191464
0
ELLIPSE
5
1B9
100
AcDbEntity
8
1
62
256
6
ByLayer
370
13
48
1
60
0
100
AcDbEllipse
10
320.608127
20
18.132362
30
0
11
-0.457939617125663
21
8.73800842910252
31
0
210
0
220
0
230
1
40
0.995562
41
3.06145142476617
42
3.11701412729375
0
ELLIPSE
5
1BA
100
AcDbEntity
8
1
62
256
6
ByLayer
370
13
48
1
60
0
100
AcDbEllipse
10
336.986691
20
29.681961
30
0
11
0.147123305935867
21
-0.0292358145174926
31
0
210
0
220
0
230
1
40
0.023245
41
3.05024863022255
42
-1.66214035016899
0
ELLIPSE
5
1BB
100
AcDbEntity
8
1
62
256
6
ByLayer
370
13
48
1
60
0
100
AcDbEllipse
10
339.69174
20
20.115944
30
0
11
0.148732254109672
21
-0.019460642010373
31
0
210
0
220
0
230
1
40
0.01715
41
-1.66347501627592
42
-0.0926786894787881
0
ELLIPSE
5
1BC
100
AcDbEntity
8
1
62
256
6
ByLayer
370
13
48
1
60
0
100
AcDbEllipse
10
322.060069
20
10.926396
30
0
11
0.19755208230446
21
0.0311957493446105
31
0
210
0
220
0
230
1
40
0.009837
41
-3.04785814606447
42
-1.47706181926692
0
ELLIPSE
5
1BD
100
AcDbEntity
8
1
62
256
6
ByLayer
370
13
48
1
60
0
100
AcDbEllipse
10
338.661203
20
12.239838
30
0
11
0.00785039343644174
21
-0.149794430213194
31
0
210
0
220
0
230
1
40
0.995562
41
0.113446401374651
42
1.38753675533549
0
ELLIPSE
5
1BE
100
AcDbEntity
8
1
62
256
6
ByLayer
370
13
48
1
60
0
100
AcDbEllipse
10
338.26377
20
11.342993
30
0
11
-0.223427017961475
21
-1.0987308700688
31
0
210
0
220
0
230
1
40
0.060635
41
1.06536317937885
42
1.25922192399725
0
ELLIPSE
5
1BF
100
AcDbEntity
8
1
62
256
6
ByLayer
370
13
48
1
60
0
100
AcDbEllipse
10
318.963001
20
18.929689
30
0
11
-0.0287847759336122
21
0.549246244114998
31
0
210
0
220
0
230
1
40
0.995562
41
1.38753675533526
42
1.67551608191448
0
ELLIPSE
5
1C0
100
AcDbEntity
8
1
62
256
6
ByLayer
370
13
48
1
60
0
100
AcDbEllipse
10
335.867557
20
9.65169
30
0
11
-0.104671912485866
21
1.99725906950915
31
0
210
0
220
0
230
1
40
0.995562
41
-0.289833749671527
42
1.19903310499694E-12
0
ELLIPSE
5
1C1
100
AcDbEntity
8
1
62
256
6
ByLayer
370
13
48
1
60
0
100
AcDbEllipse
10
320.451633
20
19.071451
30
0
11
-0.148732254109673
21
0.0194606420103707
31
0
210
0
220
0
230
1
40
0.01715
41
1.47811763730973
42
3.04891396411101
0
ELLIPSE
5
1C2
100
AcDbEntity
8
1
62
256
6
ByLayer
370
13
48
1
60
0
100
AcDbEllipse
10
336.075268
20
28.192383
30
0
11
-0.111182483439489
21
0.166248174053815
31
0
210
0
220
0
230
1
40
0.080951
41
-1.61896516661963
42
-0.0481688398286488
0
ELLIPSE
5
1C3
100
AcDbEntity
8
1
62
256
6
ByLayer
370
13
48
1
60
0
100
AcDbEllipse
10
321.276561
20
18.959571
30
0
11
0.044485562806501
21
-0.848835104541391
31
0
210
0
220
0
230
1
40
0.995562
41
-1.75405589825431
42
-1.46607657167519
0
ELLIPSE
5
1C4
100
AcDbEntity
8
1
62
256
6
ByLayer
370
13
48
1
60
0
100
AcDbEllipse
10
338.269388
20
29.267782
30
0
11
0.148164061728345
21
0.0233968120084578
31
0
210
0
220
0
230
1
40
0.009837
41
0.0937345075274513
42
1.66453083432158
0
ELLIPSE
5
1C5
100
AcDbEntity
8
1
62
256
6
ByLayer
370
13
48
1
60
0
100
AcDbEllipse
10
321.076336
20
9.445395
30
0
11
-0.00261679781214674
21
0.0499314767377304
31
0
210
0
220
0
230
1
40
0.995562
41
3.13286600733336
42
-1.82037975281812
0
ELLIPSE
5
1C6
100
AcDbEntity
8
1
62
256
6
ByLayer
370
13
48
1
60
0
100
AcDbEllipse
10
320.626923
20
18.133347
30
0
11
0.465790010562185
21
-8.8878028593157
31
0
210
0
220
0
230
1
40
0.995562
41
-0.0801412288248214
42
-0.0245785262972284
0
ELLIPSE
5
1C7
100
AcDbEntity
8
1
62
256
6
ByLayer
370
13
48
1
60
0
100
AcDbEllipse
10
319.469436
20
26.878695
30
0
11
0.00785039343644174
21
-0.149794430213194
31
0
210
0
220
0
230
1
40
0.995562
41
-3.02814625221709
42
-1.75405589825585
0
ELLIPSE
5
1C8
100
AcDbEntity
8
1
62
256
6
ByLayer
370
13
48
1
60
0
100
AcDbEllipse
10
321.095132
20
9.44638
30
0
11
0.0104671912485885
21
-0.199725906950916
31
0
210
0
220
0
230
1
40
0.995562
41
-0.00872664625898387
42
1.32121290077078
0
ELLIPSE
5
1C9
100
AcDbEntity
8
1
62
256
6
ByLayer
370
13
48
1
60
0
100
AcDbEllipse
10
322.267781
20
29.467089
30
0
11
-0.104671912485866
21
1.99725906950915
31
0
210
0
220
0
230
1
40
0.995562
41
2.85175890391586
42
3.14159265358862
0
ELLIPSE
5
1CA
100
AcDbEntity
8
1
62
256
6
ByLayer
370
13
48
1
60
0
100
AcDbEllipse
10
320.454869
20
18.827537
30
0
11
-0.148164061728342
21
-0.023396812008481
31
0
210
0
220
0
230
1
40
0.009837
41
-3.04785814605511
42
-1.47706181927123
0
ELLIPSE
5
1CB
100
AcDbEntity
8
1
62
256
6
ByLayer
370
13
48
1
60
0
100
AcDbEllipse
10
318.981797
20
18.930674
30
0
11
0.0366351693700586
21
-0.699040674328184
31
0
210
0
220
0
230
1
40
0.995562
41
-1.75405589825572
42
-1.46607657167646
0
ELLIPSE
5
1CC
100
AcDbEntity
8
1
62
256
6
ByLayer
370
13
48
1
60
0
100
AcDbEllipse
10
329.482693
20
11.640257
30
0
11
0.0104671912485884
21
-0.199725906950915
31
0
210
0
220
0
230
1
40
0.094108
41
0
42
1.5707963267949
0
ELLIPSE
5
1CD
100
AcDbEntity
8
1
62
256
6
ByLayer
370
13
48
1
60
0
100
AcDbEllipse
10
328.652645
20
27.478522
30
0
11
0.0104671912485884
21
-0.199725906950915
31
0
210
0
220
0
230
1
40
0.094108
41
1.5707963267949
42
3.14159265358979
0
ELLIPSE
5
1CE
100
AcDbEntity
8
1
62
256
6
ByLayer
370
13
48
1
60
0
100
AcDbEllipse
10
320.803334
20
11.135103
30
0
11
-0.091587923425133
21
1.74760168582051
31
0
210
0
220
0
230
1
40
0.995562
41
3.1170141272939
42
3.13286600732976
0
ELLIPSE
5
1CF
100
AcDbEntity
8
1
62
256
6
ByLayer
370
13
48
1
60
0
100
AcDbEllipse
10
337.02141
20
29.671414
30
0
11
-0.00261679781214674
21
0.0499314767377304
31
0
210
0
220
0
230
1
40
0.995562
41
-0.00872664625753618
42
1.32121290077166
0
ELLIPSE
5
1D0
100
AcDbEntity
8
1
62
256
6
ByLayer
370
13
48
1
60
0
100
AcDbEllipse
10
321.295356
20
18.960556
30
0
11
0.0366351693700597
21
-0.699040674328205
31
0
210
0
220
0
230
1
40
0.995562
41
-1.75405589825431
42
-1.46607657167524
0
ELLIPSE
5
1D1
100
AcDbEntity
8
1
62
256
6
ByLayer
370
13
48
1
60
0
100
AcDbEllipse
10
337.733283
20
29.182116
30
0
11
0.0366351693700604
21
-0.699040674328219
31
0
210
0
220
0
230
1
40
0.995562
41
1.67551608191586
42
3.06145142476742
0
ELLIPSE
5
1D2
100
AcDbEntity
8
1
62
256
6
ByLayer
370
13
48
1
60
0
100
AcDbEllipse
10
320.803716
20
18.882454
30
0
11
-0.197552082304455
21
-0.0311957493446414
31
0
210
0
220
0
230
1
40
0.009837
41
0.0937345075316729
42
1.66453083432523
0
ELLIPSE
5
1D3
100
AcDbEntity
8
1
62
256
6
ByLayer
370
13
48
1
60
0
100
AcDbEllipse
10
337.294412
20
27.981706
30
0
11
-0.091587923425133
21
1.74760168582051
31
0
210
0
220
0
230
1
40
0.995562
41
-0.0245785262959225
42
-0.0087266462600049
0
ELLIPSE
5
1D4
100
AcDbEntity
8
1
62
256
6
ByLayer
370
13
48
1
60
0
100
AcDbEllipse
10
339.148842
20
20.187859
30
0
11
0.0366351693700586
21
-0.699040674328184
31
0
210
0
220
0
230
1
40
0.995562
41
1.38753675533523
42
1.67551608191456
0
ELLIPSE
5
1D5
100
AcDbEntity
8
1
62
256
6
ByLayer
370
13
48
1
60
0
100
AcDbEllipse
10
338.661203
20
12.239838
30
0
11
-0.0248313114065695
21
0.147930409226196
31
0
210
0
220
0
230
1
40
0.093503
41
1.56009588091868
42
3.1308922077277
0
ELLIPSE
5
1D6
100
AcDbEntity
8
1
62
256
6
ByLayer
370
13
48
1
60
0
100
AcDbEllipse
10
336.55429
20
11.834937
30
0
11
0.00523359562429548
21
-0.0998629534754815
31
0
210
0
220
0
230
1
40
0.995562
41
-1.75405589825196
42
0.113446401380544
0
ELLIPSE
5
1D7
100
AcDbEntity
8
1
62
256
6
ByLayer
370
13
48
1
60
0
100
AcDbEllipse
10
321.808807
20
10.572653
30
0
11
0.00523359562429353
21
-0.0998629534754442
31
0
210
0
220
0
230
1
40
0.995562
41
0.718961233327339
42
1.67551608191334
0
ELLIPSE
5
1D8
100
AcDbEntity
8
1
62
256
6
ByLayer
370
13
48
1
60
0
100
AcDbEllipse
10
337.503715
20
20.985186
30
0
11
0.465790010562185
21
-8.8878028593157
31
0
210
0
220
0
230
1
40
0.995562
41
3.06145142476618
42
3.11701412729377
0
ELLIPSE
5
1D9
100
AcDbEntity
8
1
62
256
6
ByLayer
370
13
48
1
60
0
100
AcDbEllipse
10
320.893833
20
9.387511
30
0
11
0.0065370786798103
21
-0.149857487641873
31
0
210
0
220
0
230
1
40
0.094105
41
-1.56997142650778
42
0.000824900286336043
0
ELLIPSE
5
1DA
100
AcDbEntity
8
1
62
256
6
ByLayer
370
13
48
1
60
0
100
AcDbEllipse
10
336.821185
20
20.157238
30
0
11
0.044485562806501
21
-0.848835104541391
31
0
210
0
220
0
230
1
40
0.995562
41
1.38753675533548
42
1.67551608191461
0
ELLIPSE
5
1DB
100
AcDbEntity
8
1
62
256
6
ByLayer
370
13
48
1
60
0
100
AcDbEllipse
10
336.607711
20
11.895143
30
0
11
-0.0420204304798999
21
-0.159048282693392
31
0
210
0
220
0
230
1
40
0.081731
41
-1.544562485132
42
0.0262338416978837
0
ELLIPSE
5
1DC
100
AcDbEntity
8
1
62
256
6
ByLayer
370
13
48
1
60
0
100
AcDbEllipse
10
334.155611
20
30.090104
30
0
11
0.104671912485884
21
-1.99725906950915
31
0
210
0
220
0
230
1
40
0.995562
41
0
42
0.289833749673912
0
ELLIPSE
5
1DD
100
AcDbEntity
8
1
62
256
6
ByLayer
370
13
48
1
60
0
100
AcDbEllipse
10
337.508414
20
20.985433
30
0
11
0.465790010562185
21
-8.8878028593157
31
0
210
0
220
0
230
1
40
0.995562
41
3.06145142476737
42
3.11701412729495
0
ELLIPSE
5
1DE
100
AcDbEntity
8
1
62
256
6
ByLayer
370
13
48
1
60
0
100
AcDbEllipse
10
337.313207
20
27.982692
30
0
11
0.0994383168615901
21
-1.89739611603369
31
0
210
0
220
0
230
1
40
0.995562
41
3.11701412729512
42
3.13286600733106
0
ELLIPSE
5
1DF
100
AcDbEntity
8
1
62
256
6
ByLayer
370
13
48
1
60
0
100
AcDbEllipse
10
321.813506
20
10.572899
30
0
11
0.00523359562429353
21
-0.0998629534754442
31
0
210
0
220
0
230
1
40
0.995562
41
0.718961233326468
42
1.67551608191277
0
ELLIPSE
5
1E0
100
AcDbEntity
8
1
62
256
6
ByLayer
370
13
48
1
60
0
100
AcDbEllipse
10
319.467627
20
26.864578
30
0
11
-0.0433887818318998
21
-0.261709360240029
31
0
210
0
220
0
230
1
40
0.938419
41
-2.8300182619414
42
-1.5343633603088
0
ELLIPSE
5
1E1
100
AcDbEntity
8
1
62
256
6
ByLayer
370
13
48
1
60
0
100
AcDbEllipse
10
334.79467
20
30.123596
30
0
11
-0.10990550811016
21
2.09712202298461
31
0
210
0
220
0
230
1
40
0.995562
41
-2.42263142025947
42
-1.8203797528171
0
ELLIPSE
5
1E2
100
AcDbEntity
8
1
62
256
6
ByLayer
370
13
48
1
60
0
100
AcDbEllipse
10
321.151774
20
9.434999
30
0
11
0.012664488842562
21
-0.241652842685142
31
0
210
0
220
0
230
1
40
0.995562
41
0.17453292519867
42
1.32121290077196
0
ELLIPSE
5
1E3
100
AcDbEntity
8
1
62
256
6
ByLayer
370
13
48
1
60
0
100
AcDbEllipse
10
338.667711
20
12.254201
30
0
11
-0.0433887818480525
21
-0.261709360234681
31
0
210
0
220
0
230
1
40
0.938419
41
0.311574391708489
42
1.60722929335019
0
ELLIPSE
5
1E4
100
AcDbEntity
8
1
62
256
6
ByLayer
370
13
48
1
60
0
100
AcDbEllipse
10
323.321872
20
8.994199
30
0
11
0.11775590154662
21
-2.2469164531978
31
0
210
0
220
0
230
1
40
0.995562
41
-2.41106345636237
42
-1.82037975281824
0
ELLIPSE
5
1E5
100
AcDbEntity
8
1
62
256
6
ByLayer
370
13
48
1
60
0
100
AcDbEllipse
10
323.335969
20
8.994937
30
0
11
-0.10990550811016
21
2.09712202298461
31
0
210
0
220
0
230
1
40
0.995562
41
0.718961233329135
42
1.32121290077152
0
ELLIPSE
5
1E6
100
AcDbEntity
8
1
62
256
6
ByLayer
370
13
48
1
60
0
100
AcDbEllipse
10
320.801813
20
19.025933
30
0
11
-0.19830967214623
21
0.0259475226804943
31
0
210
0
220
0
230
1
40
0.01715
41
-1.66347501627305
42
-0.0926786894794932
0
ELLIPSE
5
1E7
100
AcDbEntity
8
1
62
256
6
ByLayer
370
13
48
1
60
0
100
AcDbEllipse
10
320.82213
20
11.136088
30
0
11
0.0994383168615901
21
-1.89739611603369
31
0
210
0
220
0
230
1
40
0.995562
41
-0.0245785262970494
42
-0.00872664626119256
0
ELLIPSE
5
1E8
100
AcDbEntity
8
1
62
256
6
ByLayer
370
13
48
1
60
0
100
AcDbEllipse
10
329.086465
20
19.560375
30
0
11
0.164592752017133
21
-3.14061679904836
31
0
210
0
220
0
230
1
40
0.995562
41
0
42
6.28318530717959
0
ELLIPSE
5
1E9
100
AcDbEntity
8
1
62
256
6
ByLayer
370
13
48
1
60
0
100
AcDbEllipse
10
334.98499
20
30.133564
30
0
11
-2.31067765159445
21
-1.76940175729327
31
0
210
0
220
0
230
1
40
0.473308
41
1.89963121621594
42
1.92528922707924
0
ELLIPSE
5
1EA
100
AcDbEntity
8
1
62
256
6
ByLayer
370
13
48
1
60
0
100
AcDbEllipse
10
337.232107
20
29.730776
30
0
11
-0.00653707867981082
21
0.149857487641873
31
0
210
0
220
0
230
1
40
0.094105
41
0.000824900290362992
42
1.57162122708202
0
ELLIPSE
5
1EB
100
AcDbEntity
8
1
62
256
6
ByLayer
370
13
48
1
60
0
100
AcDbEllipse
10
336.839981
20
20.158224
30
0
11
0.0366351693700597
21
-0.699040674328205
31
0
210
0
220
0
230
1
40
0.995562
41
1.3875367553354
42
1.67551608191464
0
ELLIPSE
5
1EC
100
AcDbEntity
8
1
62
256
6
ByLayer
370
13
48
1
60
0
100
AcDbEllipse
10
338.343498
20
9.467874
30
0
11
-0.00956196146812002
21
0.500181998797399
31
0
210
0
220
0
230
1
40
0.105005
41
1.9233543667149
42
-2.78903461365664
0
ELLIPSE
5
1ED
100
AcDbEntity
8
1
62
256
6
ByLayer
370
13
48
1
60
0
100
AcDbEllipse
10
327.634149
20
-0.493116
30
0
11
0.575695518672363
21
-10.9849248823003
31
0
210
0
220
0
230
1
40
0.995562
41
-3.14159265358978
42
-2.82366807128865
0
ELLIPSE
5
1EE
100
AcDbEntity
8
1
62
256
6
ByLayer
370
13
48
1
60
0
100
AcDbEllipse
10
338.132606
20
0
30
0
11
-4.96941991901828
21
29.246918242919
31
0
210
0
220
0
230
1
40
0.085438
41
1.58499003534728
42
1.74573823867913
0
ELLIPSE
5
1EF
100
AcDbEntity
8
1
62
256
6
ByLayer
370
13
48
1
60
0
100
AcDbEllipse
10
312
20
1.596838
30
0
11
-0.604569252743
21
16.6899269002224
31
0
210
0
220
0
230
1
40
0.357669
41
-0.53895182761259
42
-0.364484621013425
0
ELLIPSE
5
1F0
100
AcDbEntity
8
1
62
256
6
ByLayer
370
13
48
1
60
0
100
AcDbEllipse
10
335.60901
20
11.140199
30
0
11
-0.0261679781214666
21
0.499314767377289
31
0
210
0
220
0
230
1
40
0.995562
41
-0.998377754701853
42
-0.927295218001449
0
ELLIPSE
5
1F1
100
AcDbEntity
8
1
62
256
6
ByLayer
370
13
48
1
60
0
100
AcDbEllipse
10
338.24949
20
-2.540322
30
0
11
-2.65327639995357
21
4.25259673191405
31
0
210
0
220
0
230
1
40
0.376984
41
-0.995228996616758
42
-0.858882359802911
0
ELLIPSE
5
1F2
100
AcDbEntity
8
1
62
256
6
ByLayer
370
13
48
1
60
0
100
AcDbEllipse
10
337.956018
20
-18.108894
30
0
11
-0.0640163259265375
21
-0.515978325147108
31
0
210
0
220
0
230
1
40
0.113152
41
-1.6430873527752
42
-0.0722910259835825
0
ELLIPSE
5
1F3
100
AcDbEntity
8
1
62
256
6
ByLayer
370
13
48
1
60
0
100
AcDbEllipse
10
320.855876
20
11.899119
30
0
11
0.162241464353121
21
-3.09575155773918
31
0
210
0
220
0
230
1
40
0.995562
41
0.615809199294362
42
1.13183444118518
0
ELLIPSE
5
1F4
100
AcDbEntity
8
1
62
256
6
ByLayer
370
13
48
1
60
0
100
AcDbEllipse
10
319.847889
20
11.846293
30
0
11
-2.74310165301648
21
2.20554169019644
31
0
210
0
220
0
230
1
40
0.772244
41
3.13694524728956
42
-2.77548048002974
0
ELLIPSE
5
1F5
100
AcDbEntity
8
1
62
256
6
ByLayer
370
13
48
1
60
0
100
AcDbEllipse
10
327.152433
20
10.496734
30
0
11
0.0523359562429422
21
-0.998629534754574
31
0
210
0
220
0
230
1
40
0.094108
41
-1.5707963267949
42
0
0
ELLIPSE
5
1F6
100
AcDbEntity
8
1
62
256
6
ByLayer
370
13
48
1
60
0
100
AcDbEllipse
10
338.171008
20
13.227143
30
0
11
-0.0958184389366402
21
3.09903565854514
31
0
210
0
220
0
230
1
40
0.525119
41
2.8533093157738
42
3.13084790141837
0
ELLIPSE
5
1F7
100
AcDbEntity
8
1
62
256
6
ByLayer
370
13
48
1
60
0
100
AcDbEllipse
10
320.586953
20
11.885026
30
0
11
-1.97200940050443
21
-2.45265018881694
31
0
210
0
220
0
230
1
40
0.965978
41
1.55736417594164
42
1.84422629198042
0
ELLIPSE
5
1F8
100
AcDbEntity
8
1
62
256
6
ByLayer
370
13
48
1
60
0
100
AcDbEllipse
10
320.090465
20
10.326906
30
0
11
-4.04277876097696
21
-0.708917706171008
31
0
210
0
220
0
230
1
40
0.014774
41
-3.0203630328336
42
-2.66133983557691
0
ELLIPSE
5
1F9
100
AcDbEntity
8
1
62
256
6
ByLayer
370
13
48
1
60
0
100
AcDbEllipse
10
338.515532
20
13.245199
30
0
11
0.162241464353121
21
-3.09575155773918
31
0
210
0
220
0
230
1
40
0.995562
41
-0.998377754702073
42
-0.804393367027665
0
ELLIPSE
5
1FA
100
AcDbEntity
8
1
62
256
6
ByLayer
370
13
48
1
60
0
100
AcDbEllipse
10
312
20
8.245567
30
0
11
-4
21
4.04255622032945E-15
31
0
210
0
220
0
230
1
40
0.761028
41
-2.6840794054843
42
-1.69793709252877
0
ELLIPSE
5
1FB
100
AcDbEntity
8
1
62
256
6
ByLayer
370
13
48
1
60
0
100
AcDbEllipse
10
331.067166
20
14.306837
30
0
11
-1.97200939615882
21
-2.45265019268309
31
0
210
0
220
0
230
1
40
0.965978
41
0.712391848980607
42
1.04314259672603
0
ELLIPSE
5
1FC
100
AcDbEntity
8
1
62
256
6
ByLayer
370
13
48
1
60
0
100
AcDbEllipse
10
348.613006
20
0
30
0
11
-59.2181368893293
21
25.0100683798065
31
0
210
0
220
0
230
1
40
0.246221
41
0.873861559929737
42
1.00117117209173
0
ELLIPSE
5
1FD
100
AcDbEntity
8
1
62
256
6
ByLayer
370
13
48
1
60
0
100
AcDbEllipse
10
333.032672
20
-8.889498
30
0
11
-6.03299243441683
21
-0.0259857672949558
31
0
210
0
220
0
230
1
40
0.988933
41
3.00714063971872
42
-2.98962132304481
0
ELLIPSE
5
1FE
100
AcDbEntity
8
1
62
256
6
ByLayer
370
13
48
1
60
0
100
AcDbEllipse
10
312
20
8.245567
30
0
11
-4
21
4.04255622032945E-15
31
0
210
0
220
0
230
1
40
0.761028
41
-3.08380063981287
42
-2.78170425738147
0
ELLIPSE
5
1FF
100
AcDbEntity
8
1
62
256
6
ByLayer
370
13
48
1
60
0
100
AcDbEllipse
10
323.762681
20
9.767077
30
0
11
0.363113722374517
21
-0.931744828063629
31
0
210
0
220
0
230
1
40
0.089392
41
-1.60033673645362
42
-0.0295404096592328
0
ELLIPSE
5
200
100
AcDbEntity
8
1
62
256
6
ByLayer
370
13
48
1
60
0
100
AcDbEllipse
10
328.541145
20
10.769788
30
0
11
-4.04277875721435
21
-0.708917705494581
31
0
210
0
220
0
230
1
40
0.014774
41
-3.02036303269417
42
-2.68601592120431
0
ELLIPSE
5
201
100
AcDbEntity
8
1
62
256
6
ByLayer
370
13
48
1
60
0
100
AcDbEllipse
10
1275.383776
20
0
30
0
11
-1547.57912834215
21
22.7245301659331
31
0
210
0
220
0
230
1
40
0.0119
41
0.902767244127005
42
0.918448107651106
0
ELLIPSE
5
202
100
AcDbEntity
8
1
62
256
6
ByLayer
370
13
48
1
60
0
100
AcDbEllipse
10
340.84384
20
0
30
0
11
-3.55277850770622
21
-29.2470648789227
31
0
210
0
220
0
230
1
40
0.11663
41
-1.30536922439617
42
-0.089168321254496
0
ELLIPSE
5
203
100
AcDbEntity
8
1
62
256
6
ByLayer
370
13
48
1
60
0
100
AcDbEllipse
10
337.7231
20
11.050719
30
0
11
-0.0191239229519803
21
1.00036399792758
31
0
210
0
220
0
230
1
40
0.105005
41
-3.13810046405856
42
-2.51479957453928
0
ELLIPSE
5
204
100
AcDbEntity
8
1
62
256
6
ByLayer
370
13
48
1
60
0
100
AcDbEllipse
10
323.85448
20
10.52417
30
0
11
-0.318066032193253
21
-0.395588740227049
31
0
210
0
220
0
230
1
40
0.965978
41
-2.06962855881893
42
-1.29736636195454
0
ELLIPSE
5
205
100
AcDbEntity
8
1
62
256
6
ByLayer
370
13
48
1
60
0
100
AcDbEllipse
10
324.175737
20
10.541006
30
0
11
-0.0261679781214665
21
0.499314767377287
31
0
210
0
220
0
230
1
40
0.995562
41
0.927295216956085
42
1.13183444118519
0
ELLIPSE
5
206
100
AcDbEntity
8
1
62
256
6
ByLayer
370
13
48
1
60
0
100
AcDbEllipse
10
354.593296
20
15.532765
30
0
11
-25.0110391835729
21
-4.38542809559135
31
0
210
0
220
0
230
1
40
0.014785
41
0.451901395923105
42
0.456051776303128
0
ELLIPSE
5
207
100
AcDbEntity
8
1
62
256
6
ByLayer
370
13
48
1
60
0
100
AcDbEllipse
10
350.762525
20
-6.8E-05
30
0
11
-309.861485532929
21
0.146012486566034
31
0
210
0
220
0
230
1
40
0.094396
41
-1.46853968260071
42
-1.46007878111281
0
ELLIPSE
5
208
100
AcDbEntity
8
1
62
256
6
ByLayer
370
13
48
1
60
0
100
AcDbEllipse
10
320.855876
20
11.899119
30
0
11
0.162241464353121
21
-3.09575155773918
31
0
210
0
220
0
230
1
40
0.995562
41
-2.31498441521961
42
-0.582560016270444
0
ELLIPSE
5
209
100
AcDbEntity
8
1
62
256
6
ByLayer
370
13
48
1
60
0
100
AcDbEllipse
10
320.424245
20
18.152825
30
0
11
-0.471023606186397
21
8.98766581279117
31
0
210
0
220
0
230
1
40
0.995562
41
2.79252680319579
42
2.96271820098506
0
ELLIPSE
5
20A
100
AcDbEntity
8
1
62
256
6
ByLayer
370
13
48
1
60
0
100
AcDbEllipse
10
318.095321
20
14.196341
30
0
11
-0.0261679781214665
21
0.499314767377288
31
0
210
0
220
0
230
1
40
0.995562
41
-2.31498441521962
42
-1.46607657167521
0
ELLIPSE
5
20B
100
AcDbEntity
8
1
62
256
6
ByLayer
370
13
48
1
60
0
100
AcDbEllipse
10
312
20
7.147527
30
0
11
-5.81110285489549
21
1.96331489898819
31
0
210
0
220
0
230
1
40
0.760796
41
1.41275325292712
42
1.70054613947786
0
ELLIPSE
5
20C
100
AcDbEntity
8
1
62
256
6
ByLayer
370
13
48
1
60
0
100
AcDbEllipse
10
320.883294
20
19.519808
30
0
11
0.162241464353121
21
-3.09575155773918
31
0
210
0
220
0
230
1
40
0.995562
41
-2.23430559079025
42
-1.46607657167525
0
ELLIPSE
5
20D
100
AcDbEntity
8
1
62
256
6
ByLayer
370
13
48
1
60
0
100
AcDbEllipse
10
327.728129
20
-0.488191
30
0
11
-0.52335956242933
21
9.98629534754575
31
0
210
0
220
0
230
1
40
0.995562
41
0
42
0.31792458230113
0
ELLIPSE
5
20E
100
AcDbEntity
8
1
62
256
6
ByLayer
370
13
48
1
60
0
100
AcDbEllipse
10
338.175075
20
0.128935
30
0
11
-0.0107125818965849
21
0.505607419335547
31
0
210
0
220
0
230
1
40
0.102254
41
-0.120764223667091
42
0.2873580189313
0
ELLIPSE
5
20F
100
AcDbEntity
8
1
62
256
6
ByLayer
370
13
48
1
60
0
100
AcDbEllipse
10
320.424245
20
18.152825
30
0
11
-0.471023606186397
21
8.98766581279117
31
0
210
0
220
0
230
1
40
0.995562
41
-2.9294690179611
42
-2.82366807128866
0
ELLIPSE
5
210
100
AcDbEntity
8
1
62
256
6
ByLayer
370
13
48
1
60
0
100
AcDbEllipse
10
319.420843
20
9.084532
30
0
11
-3.83466559997157
21
0.491804336280511
31
0
210
0
220
0
230
1
40
0.198036
41
-0.0183778678825673
42
0.314142626195312
0
ELLIPSE
5
211
100
AcDbEntity
8
1
62
256
6
ByLayer
370
13
48
1
60
0
100
AcDbEllipse
10
341.605535
20
2.848845
30
0
11
-5.84618986143463
21
-1.98257539501241
31
0
210
0
220
0
230
1
40
0.847504
41
-0.375032240686997
42
-0.227480171725442
0
ELLIPSE
5
212
100
AcDbEntity
8
1
62
256
6
ByLayer
370
13
48
1
60
0
100
AcDbEllipse
10
336.998347
20
-18.970346
30
0
11
-0.294958113139804
21
-2.49684295536655
31
0
210
0
220
0
230
1
40
0.117014
41
0
42
6.28318530717959
0
ELLIPSE
5
213
100
AcDbEntity
8
1
62
256
6
ByLayer
370
13
48
1
60
0
100
AcDbEllipse
10
343.713316
20
0.743892
30
0
11
-6.03299236877061
21
-0.0259854802901693
31
0
210
0
220
0
230
1
40
0.988933
41
0.0310672940867436
42
0.151971378387397
0
ELLIPSE
5
214
100
AcDbEntity
8
1
62
256
6
ByLayer
370
13
48
1
60
0
100
AcDbEllipse
10
338.279229
20
0.131766
30
0
11
-0.021425163779718
21
1.01121483821646
31
0
210
0
220
0
230
1
40
0.102254
41
-0.120764223694076
42
1.06237186277385
0
ELLIPSE
5
215
100
AcDbEntity
8
1
62
256
6
ByLayer
370
13
48
1
60
0
100
AcDbEllipse
10
350.762444
20
2E-06
30
0
11
-306.683044770733
21
0.144507184170574
31
0
210
0
220
0
230
1
40
0.094396
41
-1.44907808686492
42
-1.42461310090511
0
ELLIPSE
5
216
100
AcDbEntity
8
1
62
256
6
ByLayer
370
13
48
1
60
0
100
AcDbEllipse
10
338.132933
20
11.04785
30
0
11
-0.0433887818815821
21
-0.261709360223518
31
0
210
0
220
0
230
1
40
0.938419
41
0.505433140830051
42
1.30197962227918
0
ELLIPSE
5
217
100
AcDbEntity
8
1
62
256
6
ByLayer
370
13
48
1
60
0
100
AcDbEllipse
10
337.671071
20
20.29075
30
0
11
0.148164061728345
21
0.0233968120084578
31
0
210
0
220
0
230
1
40
0.009837
41
1.66453083432611
42
2.85269002802483
0
ELLIPSE
5
218
100
AcDbEntity
8
1
62
256
6
ByLayer
370
13
48
1
60
0
100
AcDbEllipse
10
337.674306
20
20.046836
30
0
11
0.148732254109672
21
-0.019460642010373
31
0
210
0
220
0
230
1
40
0.01715
41
-2.85472889771877
42
-1.66347501627252
0
ELLIPSE
5
219
100
AcDbEntity
8
1
62
256
6
ByLayer
370
13
48
1
60
0
100
AcDbEllipse
10
336.607711
20
11.895143
30
0
11
-0.157457627783476
21
-0.0472734989139481
31
0
210
0
220
0
230
1
40
0.020424
41
-1.48728150141031
42
-0.275077962971321
0
ELLIPSE
5
21A
100
AcDbEntity
8
1
62
256
6
ByLayer
370
13
48
1
60
0
100
AcDbEllipse
10
336.549591
20
11.834691
30
0
11
0.00523359562429548
21
-0.0998629534754815
31
0
210
0
220
0
230
1
40
0.995562
41
-4.94053536696358E-06
42
0.113446401384047
0
ELLIPSE
5
21B
100
AcDbEntity
8
1
62
256
6
ByLayer
370
13
48
1
60
0
100
AcDbEllipse
10
335.350872
20
9.624612
30
0
11
-1.52607791222827
21
-1.67412290957686
31
0
210
0
220
0
230
1
40
0.751206
41
2.58226134362803
42
-2.78125477170174
0
ELLIPSE
5
21C
100
AcDbEntity
8
1
62
256
6
ByLayer
370
13
48
1
60
0
100
AcDbEllipse
10
335.228498
20
9.618198
30
0
11
0.104671912485884
21
-1.99725906950915
31
0
210
0
220
0
230
1
40
0.995562
41
2.04166241492005
42
2.70662470115582
0
ELLIPSE
5
21D
100
AcDbEntity
8
1
62
256
6
ByLayer
370
13
48
1
60
0
100
AcDbEllipse
10
337.331622
20
20.236325
30
0
11
0.19755208230446
21
0.0311957493446105
31
0
210
0
220
0
230
1
40
0.009837
41
-1.47706181927125
42
8.34919515471783E-05
0
ELLIPSE
5
21E
100
AcDbEntity
8
1
62
256
6
ByLayer
370
13
48
1
60
0
100
AcDbEllipse
10
336.075268
20
28.192383
30
0
11
-0.197552082304455
21
-0.0311957493446414
31
0
210
0
220
0
230
1
40
0.009837
41
1.66453083432081
42
-3.14150916141794
0
ELLIPSE
5
21F
100
AcDbEntity
8
1
62
256
6
ByLayer
370
13
48
1
60
0
100
AcDbEllipse
10
337.333525
20
20.092846
30
0
11
0.19830967214623
21
-0.0259475226804972
31
0
210
0
220
0
230
1
40
0.01715
41
0.000128612607540087
42
1.4781176373107
0
ELLIPSE
5
220
100
AcDbEntity
8
1
62
256
6
ByLayer
370
13
48
1
60
0
100
AcDbEllipse
10
336.266338
20
11.936634
30
0
11
-0.19830967214623
21
0.0259475226804943
31
0
210
0
220
0
230
1
40
0.01715
41
-3.14146404085382
42
-1.66347501627678
0
ELLIPSE
5
221
100
AcDbEntity
8
1
62
256
6
ByLayer
370
13
48
1
60
0
100
AcDbEllipse
10
329.006755
20
19.556197
30
0
11
0.161488764830063
21
-3.08138919525492
31
0
210
0
220
0
230
1
40
0.995562
41
-0.832617303636146
42
0
0
ELLIPSE
5
222
100
AcDbEntity
8
1
62
256
6
ByLayer
370
13
48
1
60
0
100
AcDbEllipse
10
329.006755
20
19.556197
30
0
11
0.161488764830063
21
-3.08138919525492
31
0
210
0
220
0
230
1
40
0.995562
41
0
42
-2.30896949140972
0
ELLIPSE
5
223
100
AcDbEntity
8
1
62
256
6
ByLayer
370
13
48
1
60
0
100
AcDbEllipse
10
321.576349
20
27.283596
30
0
11
0.00523359562429548
21
-0.0998629534754815
31
0
210
0
220
0
230
1
40
0.995562
41
1.38753675533668
42
3.1179545793415
0
ELLIPSE
5
224
100
AcDbEntity
8
1
62
256
6
ByLayer
370
13
48
1
60
0
100
AcDbEllipse
10
321.092616
20
9.396182
30
0
11
0.0065370786798103
21
-0.149857487641873
31
0
210
0
220
0
230
1
40
0.094105
41
-1.56997142650778
42
-0.0234595020663775
0
ELLIPSE
5
225
100
AcDbEntity
8
1
62
256
6
ByLayer
370
13
48
1
60
0
100
AcDbEllipse
10
321.090433
20
9.446134
30
0
11
0.0104671912485885
21
-0.199725906950916
31
0
210
0
220
0
230
1
40
0.995562
41
0.0115983514806595
42
1.32121290077195
0
ELLIPSE
5
226
100
AcDbEntity
8
1
62
256
6
ByLayer
370
13
48
1
60
0
100
AcDbEllipse
10
320.866233
20
9.386527
30
0
11
0.00415024464891671
21
-0.149942573905326
31
0
210
0
220
0
230
1
40
0.09408
41
-1.56847321010714
42
-0.0396676110922191
0
ELLIPSE
5
227
100
AcDbEntity
8
1
62
256
6
ByLayer
370
13
48
1
60
0
100
AcDbEllipse
10
319.464737
20
26.878449
30
0
11
0.0248313114065447
21
-0.147930409226201
31
0
210
0
220
0
230
1
40
0.093503
41
-3.04696247434603
42
-1.58149677264269
0
ELLIPSE
5
228
100
AcDbEntity
8
1
62
256
6
ByLayer
370
13
48
1
60
0
100
AcDbEllipse
10
320.382273
20
9.386639
30
0
11
-0.00422000339726424
21
-0.149940626820509
31
0
210
0
220
0
230
1
40
0.093806
41
-1.56322900126248
42
-0.0736942388979068
0
ELLIPSE
5
229
100
AcDbEntity
8
1
62
256
6
ByLayer
370
13
48
1
60
0
100
AcDbEllipse
10
319.363346
20
28.037437
30
0
11
-0.043388781849533
21
-0.26170936023442
31
0
210
0
220
0
230
1
40
0.938419
41
-2.83001826187736
42
-2.21164798398161
0
ELLIPSE
5
22A
100
AcDbEntity
8
1
62
256
6
ByLayer
370
13
48
1
60
0
100
AcDbEllipse
10
319.464737
20
26.878449
30
0
11
-0.148732254109673
21
0.0194606420103707
31
0
210
0
220
0
230
1
40
0.01715
41
0.265915951164324
42
1.47811763731765
0
ELLIPSE
5
22B
100
AcDbEntity
8
1
62
256
6
ByLayer
370
13
48
1
60
0
100
AcDbEllipse
10
319.856552
20
9.850505
30
0
11
-0.148164061728342
21
-0.023396812008481
31
0
210
0
220
0
230
1
40
0.009837
41
-1.47706181926783
42
0.0937345075201889
0
ELLIPSE
5
22C
100
AcDbEntity
8
1
62
256
6
ByLayer
370
13
48
1
60
0
100
AcDbEllipse
10
318.4342
20
19.002343
30
0
11
-0.148732254109673
21
0.0194606420103707
31
0
210
0
220
0
230
1
40
0.01715
41
-0.0926786894801983
42
1.47811763731388
0
ELLIPSE
5
22D
100
AcDbEntity
8
1
62
256
6
ByLayer
370
13
48
1
60
0
100
AcDbEllipse
10
318.436294
20
18.844516
30
0
11
-0.148164061728342
21
-0.023396812008481
31
0
210
0
220
0
230
1
40
0.009837
41
-1.47706181926745
42
-0.267630172928025
0
ELLIPSE
5
22E
100
AcDbEntity
8
1
62
256
6
ByLayer
370
13
48
1
60
0
100
AcDbEllipse
10
336.075268
20
28.192383
30
0
11
0.0104671912485884
21
-0.199725906950915
31
0
210
0
220
0
230
1
40
0.995562
41
3.14156912557307
42
-2.60644555906619
0
ELLIPSE
5
22F
100
AcDbEntity
8
1
62
256
6
ByLayer
370
13
48
1
60
0
100
AcDbEllipse
10
336.266338
20
11.936634
30
0
11
0.0104671912485884
21
-0.199725906950915
31
0
210
0
220
0
230
1
40
0.995562
41
-0.226119054301845
42
1.75822145931725E-05
0
ELLIPSE
5
230
100
AcDbEntity
8
1
62
256
6
ByLayer
370
13
48
1
60
0
100
AcDbEllipse
10
322.060069
20
10.926396
30
0
11
0.0104671912485884
21
-0.199725906950915
31
0
210
0
220
0
230
1
40
0.995562
41
-1.46607657167646
42
-2.46857417971509E-05
0
ELLIPSE
5
231
100
AcDbEntity
8
1
62
256
6
ByLayer
370
13
48
1
60
0
100
AcDbEllipse
10
321.869
20
27.182146
30
0
11
0.0104671912485884
21
-0.199725906950915
31
0
210
0
220
0
230
1
40
0.995562
41
-3.1415704625021
42
-1.75405589825547
0
ELLIPSE
5
232
100
AcDbEntity
8
1
62
256
6
ByLayer
370
13
48
1
60
0
100
AcDbEllipse
10
322.060069
20
10.926396
30
0
11
0.111182483439468
21
-0.16624817405383
31
0
210
0
220
0
230
1
40
0.080951
41
-1.97154976710796E-05
42
1.52262748696987
0
ELLIPSE
5
233
100
AcDbEntity
8
1
62
256
6
ByLayer
370
18
48
1
60
0
100
AcDbEllipse
10
328.892243
20
19.550196
30
0
11
0.0675290843402685
21
-1.28853168869383
31
0
210
0
220
0
230
1
40
0.995562
41
3.14159265358975
42
-2.35315137984992
0
ELLIPSE
5
234
100
AcDbEntity
8
1
62
256
6
ByLayer
370
18
48
1
60
0
100
AcDbEllipse
10
328.892243
20
19.550196
30
0
11
0.0675290843402685
21
-1.28853168869383
31
0
210
0
220
0
230
1
40
0.995562
41
-0.771408608870112
42
0
0
ELLIPSE
5
235
100
AcDbEntity
8
1
62
256
6
ByLayer
370
18
48
1
60
0
100
AcDbEllipse
10
328.892243
20
19.550196
30
0
11
-0.0675290843402566
21
1.28853168869383
31
0
210
0
220
0
230
1
40
0.995562
41
-3.03775684415657
42
-2.0943951023932
0
ELLIPSE
5
236
100
AcDbEntity
8
1
62
256
6
ByLayer
370
18
48
1
60
0
100
AcDbEllipse
10
328.892243
20
19.550196
30
0
11
0.0675290843402685
21
-1.28853168869383
31
0
210
0
220
0
230
1
40
0.995562
41
-1.89285840703661
42
-1.23277995487282
0
ELLIPSE
5
237
100
AcDbEntity
8
1
62
256
6
ByLayer
370
18
48
1
60
0
100
AcDbEllipse
10
330.367036
20
19.627487
30
0
11
-0.0206256003553378
21
0.393559899646792
31
0
210
0
220
0
230
1
40
0.48755
41
-2.94566518558227
42
-0.320418374792229
0
ELLIPSE
5
238
100
AcDbEntity
8
1
62
256
6
ByLayer
370
18
48
1
60
0
100
AcDbEllipse
10
329.696873
20
18.30594
30
0
11
-0.328745690776158
21
-0.214965491791413
31
0
210
0
220
0
230
1
40
0.490808
41
0.673312264881094
42
-2.94818767871623
0
ELLIPSE
5
239
100
AcDbEntity
8
1
62
256
6
ByLayer
370
18
48
1
60
0
100
AcDbEllipse
10
329.562405
20
20.871743
30
0
11
-0.349414799997407
21
0.179424606472513
31
0
210
0
220
0
230
1
40
0.490808
41
2.94818767871599
42
-0.625002372328984
0
ELLIPSE
5
23A
100
AcDbEntity
8
1
62
256
6
ByLayer
370
18
48
1
60
0
100
AcDbEllipse
10
328.222081
20
18.228649
30
0
11
-0.349414799997441
21
0.179424606472427
31
0
210
0
220
0
230
1
40
0.490808
41
2.51659138569052
42
-2.94320654539757
0
ELLIPSE
5
23B
100
AcDbEntity
8
1
62
256
6
ByLayer
370
18
48
1
60
0
100
AcDbEllipse
10
328.087613
20
20.794452
30
0
11
-0.328745690776212
21
-0.214965491791421
31
0
210
0
220
0
230
1
40
0.490808
41
2.94320654539724
42
-2.46828145615028
0
ELLIPSE
5
23C
100
AcDbEntity
8
1
62
256
6
ByLayer
370
18
48
1
60
0
100
AcDbEllipse
10
328.965077
20
19.554013
30
0
11
-0.149157475292359
21
2.84609417405054
31
0
210
0
220
0
230
1
40
0.995562
41
0
42
3.1414943057158
0
ELLIPSE
5
23D
100
AcDbEntity
8
1
62
256
6
ByLayer
370
18
48
1
60
0
100
AcDbEllipse
10
329.0001
20
-8.129079
30
0
11
2
21
0
31
0
210
0
220
0
230
1
40
0.99438
41
0.553214630409393
42
2.79591891313201
0
ELLIPSE
5
23E
100
AcDbEntity
8
1
62
256
6
ByLayer
370
18
48
1
60
0
100
AcDbEllipse
10
329.0001
20
-8.076143
30
0
11
-1.5
21
1.51595858262354E-15
31
0
210
0
220
0
230
1
40
0.99438
41
-2.77039382815803
42
-0.150502137119553
0
ELLIPSE
5
23F
100
AcDbEntity
8
1
62
256
6
ByLayer
370
13
48
1
60
0
100
AcDbEllipse
10
338.440778
20
10.500441
30
0
11
-0.0190934195944981
21
-0.501606840107131
31
0
210
0
220
0
230
1
40
0.197189
41
-0.688891549972312
42
-0.331191944130178
0
ELLIPSE
5
240
100
AcDbEntity
8
1
62
256
6
ByLayer
370
13
48
1
60
0
100
AcDbEllipse
10
320.179224
20
11.863658
30
0
11
-0.136073486231626
21
2.59643679036189
31
0
210
0
220
0
230
1
40
0.995562
41
2.40144888609819
42
2.97998013990121
0
ELLIPSE
5
241
100
AcDbEntity
8
1
62
256
6
ByLayer
370
13
48
1
60
0
100
AcDbEllipse
10
320.179224
20
11.863658
30
0
11
-0.136073486231626
21
2.59643679036189
31
0
210
0
220
0
230
1
40
0.995562
41
-2.68543658663366
42
-2.07675099364108
0
ELLIPSE
5
242
100
AcDbEntity
8
1
62
256
6
ByLayer
370
13
48
1
60
0
100
AcDbEllipse
10
322.516814
20
10.140199
30
0
11
1.49975373857972
21
0.0271794707662129
31
0
210
0
220
0
230
1
40
0.340502
41
-1.53279213818914
42
-1.51222596037206
0
ELLIPSE
5
243
100
AcDbEntity
8
1
62
256
6
ByLayer
370
13
48
1
60
0
100
AcDbEllipse
10
320.402837
20
0
30
0
11
-1.54672891539354
21
29.24963553927
31
0
210
0
220
0
230
1
40
0.094396
41
-0.102256511242076
42
-0.00499342285317107
0
ELLIPSE
5
244
100
AcDbEntity
8
1
62
256
6
ByLayer
370
13
48
1
60
0
100
AcDbEllipse
10
274.149865
20
0
30
0
11
-309.861119844407
21
0.14600491655402
31
0
210
0
220
0
230
1
40
0.094396
41
-1.7705574313171
42
-1.71869019150741
0
ELLIPSE
5
245
100
AcDbEntity
8
1
62
256
6
ByLayer
370
13
48
1
60
0
100
AcDbEllipse
10
320.226214
20
11.86612
30
0
11
0.162241464353121
21
-3.09575155773918
31
0
210
0
220
0
230
1
40
0.995562
41
0.0839997461782257
42
1.07850402440023
0
ELLIPSE
5
246
100
AcDbEntity
8
1
62
256
6
ByLayer
370
13
48
1
60
0
100
AcDbEllipse
10
317.900521
20
9.551722
30
0
11
-0.293740802135514
21
-0.955885108766104
31
0
210
0
220
0
230
1
40
0.088433
41
-1.53847716189235
42
-7.17550769121946E-06
0
ELLIPSE
5
247
100
AcDbEntity
8
1
62
256
6
ByLayer
370
13
48
1
60
0
100
AcDbEllipse
10
320.518224
20
18.15775
30
0
11
0.523359562429422
21
-9.98629534754574
31
0
210
0
220
0
230
1
40
0.995562
41
-5.96902167155878E-07
42
0.317924582301141
0
ELLIPSE
5
248
100
AcDbEntity
8
1
62
256
6
ByLayer
370
13
48
1
60
0
100
AcDbEllipse
10
328.798362
20
-8.407483
30
0
11
2
21
0
31
0
210
0
220
0
230
1
40
0.99438
41
2.43080738052991
42
2.59839173598379
0
ELLIPSE
5
249
100
AcDbEntity
8
1
62
256
6
ByLayer
370
13
48
1
60
0
100
AcDbEllipse
10
328.798362
20
-7.888714
30
0
11
2
21
0
31
0
210
0
220
0
230
1
40
0.99438
41
0.387103351634007
42
2.76136175241961
0
ELLIPSE
5
24A
100
AcDbEntity
8
1
62
256
6
ByLayer
370
13
48
1
60
0
100
AcDbEllipse
10
328.798362
20
-7.888714
30
0
11
-2.09999999999999
21
2.12234201567295E-15
31
0
210
0
220
0
230
1
40
0.99438
41
-2.73043686627651
42
-0.423329812787361
0
POINT
5
70
100
AcDbEntity
8
1
62
256
6
ByLayer
370
18
48
1
60
0
100
AcDbPoint
10
0
20
0
30
0
39
0
210
0
220
0
230
1
50
360
0
POINT
5
72
100
AcDbEntity
8
80
62
256
6
ByLayer
370
18
48
1
60
0
100
AcDbPoint
10
0
20
0
30
0
39
0
210
0
220
0
230
1
50
360
0
POINT
5
74
100
AcDbEntity
8
81
62
256
6
ByLayer
370
18
48
1
60
0
100
AcDbPoint
10
340
20
0
30
0
39
0
210
0
220
0
230
1
50
360
0
POINT
5
76
100
AcDbEntity
8
1
62
256
6
ByLayer
370
18
48
1
60
1
100
AcDbPoint
10
0
20
-31.25
30
0
39
0
210
0
220
0
230
1
50
360
0
POINT
5
77
100
AcDbEntity
8
1
62
256
6
ByLayer
370
18
48
1
60
1
100
AcDbPoint
10
340
20
-30
30
0
39
0
210
0
220
0
230
1
50
360
0
POINT
5
78
100
AcDbEntity
8
1
62
256
6
ByLayer
370
18
48
1
60
1
100
AcDbPoint
10
-80
20
-25
30
0
39
0
210
0
220
0
230
1
50
360
0
POINT
5
79
100
AcDbEntity
8
1
62
256
6
ByLayer
370
18
48
1
60
1
100
AcDbPoint
10
0
20
-31.25
30
0
39
0
210
0
220
0
230
1
50
360
0
POINT
5
7A
100
AcDbEntity
8
1
62
256
6
ByLayer
370
18
48
1
60
1
100
AcDbPoint
10
340
20
-30
30
0
39
0
210
0
220
0
230
1
50
360
0
POINT
5
7B
100
AcDbEntity
8
1
62
256
6
ByLayer
370
18
48
1
60
1
100
AcDbPoint
10
5.5783
20
-31.25
30
0
39
0
210
0
220
0
230
1
50
360
0
POINT
5
7C
100
AcDbEntity
8
1
62
256
6
ByLayer
370
18
48
1
60
1
100
AcDbPoint
10
35
20
-30
30
0
39
0
210
0
220
0
230
1
50
360
0
POINT
5
7D
100
AcDbEntity
8
1
62
256
6
ByLayer
370
18
48
1
60
1
100
AcDbPoint
10
340
20
-30
30
0
39
0
210
0
220
0
230
1
50
360
0
POINT
5
7E
100
AcDbEntity
8
1
62
256
6
ByLayer
370
18
48
1
60
1
100
AcDbPoint
10
338.4109
20
-15
30
0
39
0
210
0
220
0
230
1
50
360
0
SPLINE
5
24B
100
AcDbEntity
8
SK1
62
256
6
ByLayer
370
13
48
1
60
0
100
AcDbSpline
70
4
71
3
72
74
73
70
40
0
40
0
40
0
40
0
40
0.0156249999999999
40
0.0156249999999999
40
0.0234374999999999
40
0.0234374999999999
40
0.0312499999999998
40
0.0312499999999998
40
0.0468749999999997
40
0.0468749999999997
40
0.0624999999999996
40
0.0624999999999996
40
0.0781249999999995
40
0.0781249999999995
40
0.0937499999999994
40
0.0937499999999994
40
0.124999999999999
40
0.124999999999999
40
0.140624999999999
40
0.140624999999999
40
0.156249999999999
40
0.156249999999999
40
0.187499999999999
40
0.187499999999999
40
0.249999999999999
40
0.249999999999999
40
0.281249999999999
40
0.281249999999999
40
0.312499999999999
40
0.312499999999999
40
0.374999999999999
40
0.374999999999999
40
0.437499999999999
40
0.437499999999999
40
0.499999999999999
40
0.499999999999999
40
0.562499999999999
40
0.562499999999999
40
0.593749999999999
40
0.593749999999999
40
0.624999999999999
40
0.624999999999999
40
0.687499999999999
40
0.687499999999999
40
0.749999999999999
40
0.749999999999999
40
0.781249999999999
40
0.781249999999999
40
0.812499999999999
40
0.812499999999999
40
0.84375
40
0.84375
40
0.875
40
0.875
40
0.90625
40
0.90625
40
0.9375
40
0.9375
40
0.9453125
40
0.9453125
40
0.953125
40
0.953125
40
0.96875
40
0.96875
40
0.984375
40
0.984375
40
0.9921875
40
0.9921875
40
1
40
1
40
1
40
1
41
1
10
-6.50000000009537
20
10.670482650752
30
0
41
1
10
-6.37048388891068
20
10.6704826507608
30
0
41
1
10
-6.24446776465052
20
10.6528697557375
30
0
41
1
10
-6.06010517952292
20
10.6029156441243
30
0
41
1
10
-5.99927461449791
20
10.5821925812253
30
0
41
1
10
-5.88223506583903
20
10.5345394314587
30
0
41
1
10
-5.82559748012396
20
10.5075199899682
30
0
41
1
10
-5.66065779452136
20
10.417975973631
30
0
41
1
10
-5.55712762892129
20
10.3466184036529
30
0
41
1
10
-5.36736536971404
20
10.1913586531549
30
0
41
1
10
-5.27997153671004
20
10.1068512703449
30
0
41
1
10
-5.11666218977226
20
9.92704332772249
30
0
41
1
10
-5.04055810401205
20
9.83130794393438
30
0
41
1
10
-4.90046448763794
20
9.63491798753748
30
0
41
1
10
-4.83603834410379
20
9.53382715843213
30
0
41
1
10
-4.65598112089407
20
9.22347109153861
30
0
41
1
10
-4.55339976152399
20
9.00719880738419
30
0
41
1
10
-4.41750582616753
20
8.67228763084432
30
0
41
1
10
-4.37530268897782
20
8.55891791867154
30
0
41
1
10
-4.29686000058593
20
8.33134323345735
30
0
41
1
10
-4.26049265592715
20
8.21682554312125
30
0
41
1
10
-4.1585724311424
20
7.87130398108656
30
0
41
1
10
-4.10013853486055
20
7.63834185023578
30
0
41
1
10
-3.94578977994675
20
6.93282891322849
30
0
41
1
10
-3.87048459563748
20
6.45370790232082
30
0
41
1
10
-3.78175631324948
20
5.72457369042985
30
0
41
1
10
-3.75634074966133
20
5.47976683985843
30
0
41
1
10
-3.71200672711989
20
4.98691048522593
30
0
41
1
10
-3.6930864822361
20
4.73862820397792
30
0
41
1
10
-3.64424139462162
20
3.99444565639502
30
0
41
1
10
-3.62191393829291
20
3.49753056604814
30
0
41
1
10
-3.58913059568964
20
2.50225576491911
30
0
41
1
10
-3.57872244966511
20
2.00389538867495
30
0
41
1
10
-3.56529013292472
20
1.00580199142325
30
0
41
1
10
-3.56228022077386
20
0.506068785393097
30
0
41
1
10
-3.56223334097642
20
-0.494754197166372
30
0
41
1
10
-3.56519357916225
20
-0.995843898846687
30
0
41
1
10
-3.57526735092096
20
-1.74852495498422
30
0
41
1
10
-3.57958751937886
20
-1.99959349362723
30
0
41
1
10
-3.59064705878916
20
-2.50209075145548
30
0
41
1
10
-3.59739709579894
20
-2.75385038007658
30
0
41
1
10
-3.62227132036486
20
-3.50710000839359
30
0
41
1
10
-3.64484459181701
20
-4.00580366741292
30
0
41
1
10
-3.71010606722081
20
-4.99571816607528
30
0
41
1
10
-3.75268745857275
20
-5.48693664959626
30
0
41
1
10
-3.8418018670106
20
-6.21737273914593
30
0
41
1
10
-3.87576317934641
20
-6.45978205407948
30
0
41
1
10
-3.95487127334194
20
-6.94225537606115
30
0
41
1
10
-3.99994180570393
20
-7.18182085753699
30
0
41
1
10
-4.1041668337169
20
-7.65518824089065
30
0
41
1
10
-4.16332953330694
20
-7.88926779084468
30
0
41
1
10
-4.30073575990994
20
-8.35126379883343
30
0
41
1
10
-4.37869000461004
20
-8.57819056735369
30
0
41
1
10
-4.55882768232693
20
-9.01890405609001
30
0
41
1
10
-4.66096064418578
20
-9.23316248710555
30
0
41
1
10
-4.9012460930548
20
-9.6450662502447
30
0
41
1
10
-5.04044720826909
20
-9.84412891865716
30
0
41
1
10
-5.24436673816899
20
-10.0673788314332
30
0
41
1
10
-5.28672193295479
20
-10.1108128419076
30
0
41
1
10
-5.37506018490618
20
-10.1949099292502
30
0
41
1
10
-5.42113974977889
20
-10.2356293471388
30
0
41
1
10
-5.56352602684599
20
-10.3512474104622
30
0
41
1
10
-5.66447995477703
20
-10.4202823836625
30
0
41
1
10
-5.88197798496885
20
-10.5378913469096
30
0
41
1
10
-6.00024980803648
20
-10.5867345345007
30
0
41
1
10
-6.18283559041274
20
-10.6361515407661
30
0
41
1
10
-6.24478714200797
20
-10.6488401790656
30
0
41
1
10
-6.37105473569075
20
-10.6660269221224
30
0
41
1
10
-6.43557318110056
20
-10.6704826507564
30
0
41
1
10
-6.50000000009538
20
-10.6704826507521
30
0
0
SPLINE
5
24C
100
AcDbEntity
8
1
62
256
6
ByLayer
370
18
48
1
60
0
100
AcDbSpline
70
4
71
3
72
18
73
14
40
0
40
0
40
0
40
0
40
0.125000000000022
40
0.125000000000022
40
0.250000000000044
40
0.250000000000044
40
0.500000000000088
40
0.500000000000088
40
0.750000000000133
40
0.750000000000133
40
0.875000000000066
40
0.875000000000066
40
1
40
1
40
1
40
1
41
1
10
328.579140052454
20
20.9640556516865
30
0
41
1
10
328.595388166816
20
20.9375580459661
30
0
41
1
10
328.620492680186
20
20.9174773875459
30
0
41
1
10
328.67716058001
20
20.8853675232235
30
0
41
1
10
328.708737764999
20
20.8735742825386
30
0
41
1
10
328.807720811087
20
20.847266947634
30
0
41
1
10
328.879596034659
20
20.8415972322859
30
0
41
1
10
329.024114107685
20
20.8491844148331
30
0
41
1
10
329.096487493506
20
20.862363155062
30
0
41
1
10
329.197483174777
20
20.8992212014696
30
0
41
1
10
329.229829859739
20
20.9144150092099
30
0
41
1
10
329.287768651469
20
20.9524667579662
30
0
41
1
10
329.313561272449
20
20.9751825206369
30
0
41
1
10
329.330284066841
20
21.0034214414022
30
0
0
SPLINE
5
24D
100
AcDbEntity
8
1
62
256
6
ByLayer
370
18
48
1
60
0
100
AcDbSpline
70
4
71
3
72
8
73
4
40
0
40
0
40
0
40
0
40
1
40
1
40
1
40
1
41
1
10
328.034368971562
20
18.4449361913872
30
0
41
1
10
328.036903314789
20
18.4509229090749
30
0
41
1
10
328.039438170456
20
18.4569104013771
30
0
41
1
10
328.041973558791
20
18.4628986985046
30
0
0
SPLINE
5
24E
100
AcDbEntity
8
1
62
256
6
ByLayer
370
18
48
1
60
0
100
AcDbSpline
70
4
71
3
72
8
73
4
40
0
40
0
40
0
40
0
40
1
40
1
40
1
40
1
41
1
10
330.026642208376
20
20.6699477709695
30
0
41
1
10
330.023413150011
20
20.6639246448042
30
0
41
1
10
330.020183867889
20
20.6579007591536
30
0
41
1
10
330.016954353535
20
20.6518760844229
30
0
0
SPLINE
5
24F
100
AcDbEntity
8
1
62
256
6
ByLayer
370
18
48
1
60
0
100
AcDbSpline
70
4
71
3
72
16
73
12
40
0
40
0
40
0
40
0
40
0.250000000000003
40
0.250000000000003
40
0.500000000000006
40
0.500000000000006
40
0.750000000000009
40
0.750000000000009
40
0.875000000000005
40
0.875000000000005
40
1
40
1
40
1
40
1
41
1
10
327.373587563661
20
19.4706065869655
30
0
41
1
10
327.371271423236
20
19.5148011790148
30
0
41
1
10
327.372407501275
20
19.5592354894702
30
0
41
1
10
327.382520446237
20
19.6471456344957
30
0
41
1
10
327.391407291943
20
19.6906294576004
30
0
41
1
10
327.420383506409
20
19.7731042346666
30
0
41
1
10
327.44024721615
20
19.8124536722909
30
0
41
1
10
327.484290198764
20
19.8552609058799
30
0
41
1
10
327.501300020746
20
19.8660815532863
30
0
41
1
10
327.537082904702
20
19.8757748922199
30
0
41
1
10
327.555641302417
20
19.8745262043663
30
0
41
1
10
327.572830301093
20
19.8681412986117
30
0
0
SPLINE
5
250
100
AcDbEntity
8
1
62
256
6
ByLayer
370
18
48
1
60
0
100
AcDbSpline
70
4
71
3
72
18
73
14
40
0
40
0
40
0
40
0
40
0.124999999999996
40
0.124999999999996
40
0.249999999999992
40
0.249999999999992
40
0.499999999999991
40
0.499999999999991
40
0.74999999999999
40
0.74999999999999
40
0.874999999999995
40
0.874999999999995
40
1
40
1
40
1
40
1
41
1
10
330.426770109632
20
20.0181493257502
30
0
41
1
10
330.393280638529
20
20.0170966520981
30
0
41
1
10
330.360047969452
20
20.0268850629555
30
0
41
1
10
330.296897293633
20
20.056138827035
30
0
41
1
10
330.267182824586
20
20.0757435894131
30
0
41
1
10
330.183816470686
20
20.1428641388691
30
0
41
1
10
330.135632487232
20
20.1987304800114
30
0
41
1
10
330.056795670404
20
20.3208266603292
30
0
41
1
10
330.026369829482
20
20.3866220076826
30
0
41
1
10
330.000785310678
20
20.4876722844748
30
0
41
1
10
329.995609726893
20
20.522163465766
30
0
41
1
10
329.996028779963
20
20.5893122156773
30
0
41
1
10
330.001385459357
20
20.6228322366298
30
0
41
1
10
330.016954353535
20
20.6518760844229
30
0
0
SPLINE
5
251
100
AcDbEntity
8
1
62
256
6
ByLayer
370
18
48
1
60
0
100
AcDbSpline
70
4
71
3
72
18
73
14
40
0
40
0
40
0
40
0
40
0.125
40
0.125
40
0.25
40
0.25
40
0.5
40
0.5
40
0.75
40
0.75
40
0.875
40
0.875
40
1
40
1
40
1
40
1
41
1
10
328.041973558791
20
18.4628986985046
30
0
41
1
10
328.054119530704
20
18.4915860943206
30
0
41
1
10
328.056595639897
20
18.524620641022
30
0
41
1
10
328.051994819127
20
18.5919676796215
30
0
41
1
10
328.044726701382
20
18.6261644741251
30
0
41
1
10
328.013936404288
20
18.7274271399569
30
0
41
1
10
327.98151539874
20
18.7934689541265
30
0
41
1
10
327.902658290759
20
18.9153886883681
30
0
41
1
10
327.856416181565
20
18.9710754747384
30
0
41
1
10
327.778048431653
20
19.0384917240098
30
0
41
1
10
327.750402415977
20
19.0581983193502
30
0
41
1
10
327.692522889423
20
19.0875790327715
30
0
41
1
10
327.662302614252
20
19.0975032173418
30
0
41
1
10
327.632157802695
20
19.0966254571774
30
0
0
SPLINE
5
252
100
AcDbEntity
8
1
62
256
6
ByLayer
370
18
48
1
60
0
100
AcDbSpline
70
4
71
3
72
8
73
4
40
0
40
0
40
0
40
0
40
1
40
1
40
1
40
1
41
1
10
328.728643845485
20
18.1113533415253
30
0
41
1
10
328.725848910192
20
18.1054979211653
30
0
41
1
10
328.723054542004
20
18.0996432880003
30
0
41
1
10
328.720260719401
20
18.0937894124809
30
0
0
SPLINE
5
253
100
AcDbEntity
8
1
62
256
6
ByLayer
370
18
48
1
60
0
100
AcDbSpline
70
4
71
3
72
8
73
4
40
0
40
0
40
0
40
0
40
1
40
1
40
1
40
1
41
1
10
330.125949998954
20
18.5721152758117
30
0
41
1
10
330.129791571682
20
18.5664611810521
30
0
41
1
10
330.133632830969
20
18.5608078467751
30
0
41
1
10
330.137473788336
20
18.5551552444337
30
0
0
SPLINE
5
254
100
AcDbEntity
8
1
62
256
6
ByLayer
370
18
48
1
60
0
100
AcDbSpline
70
4
71
3
72
8
73
4
40
0
40
0
40
0
40
0
40
1
40
1
40
1
40
1
41
1
10
330.467278257244
20
19.2452078242002
30
0
41
1
10
330.474246517044
20
19.2457194942691
30
0
41
1
10
330.481214048549
20
19.2462311067344
30
0
41
1
10
330.488180878845
20
19.246742663745
30
0
0
SPLINE
5
255
100
AcDbEntity
8
1
62
256
6
ByLayer
370
18
48
1
60
0
100
AcDbSpline
70
4
71
3
72
8
73
4
40
0
40
0
40
0
40
0
40
1
40
1
40
1
40
1
41
1
10
330.447718658904
20
20.0188078131312
30
0
41
1
10
330.440736521365
20
20.0185883357144
30
0
41
1
10
330.433753680662
20
20.0183688401521
30
0
41
1
10
330.426770109632
20
20.0181493257502
30
0
0
SPLINE
5
256
100
AcDbEntity
8
1
62
256
6
ByLayer
370
18
48
1
60
0
100
AcDbSpline
70
4
71
3
72
16
73
12
40
0
40
0
40
0
40
0
40
0.25
40
0.25
40
0.5
40
0.5
40
0.75
40
0.75
40
0.875
40
0.875
40
1
40
1
40
1
40
1
41
1
10
329.797615199911
20
21.0514418579699
30
0
41
1
10
329.836877049782
20
21.0313414964194
30
0
41
1
10
329.874477892118
20
21.0080249745204
30
0
41
1
10
329.944569817439
20
20.9548123609062
30
0
41
1
10
329.977122117244
20
20.9249966787055
30
0
41
1
10
330.032064130495
20
20.8574175414096
30
0
41
1
10
330.054909553839
20
20.8196930915324
30
0
41
1
10
330.066816231699
20
20.7580055817709
30
0
41
1
10
330.066428752105
20
20.7369996722883
30
0
41
1
10
330.054139032063
20
20.6992161599074
30
0
41
1
10
330.042252053172
20
20.6826942869398
30
0
41
1
10
330.026642208376
20
20.6699477709695
30
0
0
SPLINE
5
257
100
AcDbEntity
8
1
62
256
6
ByLayer
370
18
48
1
60
0
100
AcDbSpline
70
4
71
3
72
16
73
12
40
0
40
0
40
0
40
0
40
0.12499999999999
40
0.12499999999999
40
0.24999999999998
40
0.24999999999998
40
0.499999999999987
40
0.499999999999987
40
0.749999999999993
40
0.749999999999993
40
1
40
1
40
1
40
1
41
1
10
330.137473788336
20
18.5551552444338
30
0
41
1
10
330.154393389677
20
18.5440690175031
30
0
41
1
10
330.168006368874
20
18.5287831941167
30
0
41
1
10
330.184169888393
20
18.492214087307
30
0
41
1
10
330.186640306172
20
18.4710900332389
30
0
41
1
10
330.181086510712
20
18.4090102735446
30
0
41
1
10
330.162365948466
20
18.3691142942939
30
0
41
1
10
330.114877928212
20
18.2963344195441
30
0
41
1
10
330.085604704618
20
18.263252662565
30
0
41
1
10
330.021533503406
20
18.2030714245647
30
0
41
1
10
329.986498562457
20
18.1758887477874
30
0
41
1
10
329.949578404447
20
18.1518111807168
30
0
0
SPLINE
5
258
100
AcDbEntity
8
1
62
256
6
ByLayer
370
18
48
1
60
0
100
AcDbSpline
70
4
71
3
72
16
73
12
40
0
40
0
40
0
40
0
40
0.250000000000071
40
0.250000000000071
40
0.500000000000142
40
0.500000000000142
40
0.750000000000213
40
0.750000000000213
40
0.875000000000106
40
0.875000000000106
40
1
40
1
40
1
40
1
41
1
10
329.949578404447
20
18.1518111807168
30
0
41
1
10
329.912632695002
20
18.1277169502179
30
0
41
1
10
329.873600862987
20
18.1065837059976
30
0
41
1
10
329.792050974888
20
18.0718156851894
30
0
41
1
10
329.749581019091
20
18.0580935218073
30
0
41
1
10
329.662173644713
20
18.043015023609
30
0
41
1
10
329.617076070631
20
18.0412648629732
30
0
41
1
10
329.554942274469
20
18.0598210423277
30
0
41
1
10
329.535805486164
20
18.0698745278771
30
0
41
1
10
329.506598025698
20
18.097665227732
30
0
41
1
10
329.496752889563
20
18.1152694610769
30
0
41
1
10
329.492044260438
20
18.1342368739538
30
0
0
SPLINE
5
259
100
AcDbEntity
8
1
62
256
6
ByLayer
370
18
48
1
60
0
100
AcDbSpline
70
4
71
3
72
8
73
4
40
0
40
0
40
0
40
0
40
1
40
1
40
1
40
1
41
1
10
328.5689669195
20
20.9806470884029
30
0
41
1
10
328.572357333862
20
20.9751173150094
30
0
41
1
10
328.575748370017
20
20.9695868451499
30
0
41
1
10
328.579140052454
20
20.9640556516865
30
0
0
SPLINE
5
25A
100
AcDbEntity
8
1
62
256
6
ByLayer
370
18
48
1
60
0
100
AcDbSpline
70
4
71
3
72
8
73
4
40
0
40
0
40
0
40
0
40
1
40
1
40
1
40
1
41
1
10
329.492044260438
20
18.1342368739538
30
0
41
1
10
329.487959130938
20
18.1397302388697
30
0
41
1
10
329.483873668328
20
18.1452243153808
30
0
41
1
10
329.479787859872
20
18.1507191312411
30
0
0
SPLINE
5
25B
100
AcDbEntity
8
1
62
256
6
ByLayer
370
18
48
1
60
0
100
AcDbSpline
70
4
71
3
72
16
73
12
40
0
40
0
40
0
40
0
40
0.124999999999997
40
0.124999999999997
40
0.249999999999994
40
0.249999999999994
40
0.499999999999996
40
0.499999999999996
40
0.749999999999998
40
0.749999999999998
40
1
40
1
40
1
40
1
41
1
10
329.340750460537
20
21.0210945498758
30
0
41
1
10
329.343460735676
20
21.0405224623658
30
0
41
1
10
329.351472391609
20
21.0591589420411
30
0
41
1
10
329.377872808966
20
21.0899741285355
30
0
41
1
10
329.396154161762
20
21.1020088181896
30
0
41
1
10
329.455607577007
20
21.1265805385111
30
0
41
1
10
329.500607292203
20
21.1295966259058
30
0
41
1
10
329.588913933
20
21.1237314257677
30
0
41
1
10
329.63261738297
20
21.1145229457286
30
0
41
1
10
329.717259513298
20
21.0885016252233
30
0
41
1
10
329.758380503305
20
21.0715283182284
30
0
41
1
10
329.797615199911
20
21.0514418579699
30
0
0
SPLINE
5
25C
100
AcDbEntity
8
1
62
256
6
ByLayer
370
18
48
1
60
0
100
AcDbSpline
70
4
71
3
72
8
73
4
40
0
40
0
40
0
40
0
40
1
40
1
40
1
40
1
41
1
10
329.330284066841
20
21.0034214414022
30
0
41
1
10
329.333773128153
20
21.0093132393654
30
0
41
1
10
329.337261922796
20
21.0152042658788
30
0
41
1
10
329.340750460537
20
21.0210945498758
30
0
0
SPLINE
5
25D
100
AcDbEntity
8
1
62
256
6
ByLayer
370
18
48
1
60
0
100
AcDbSpline
70
4
71
3
72
16
73
12
40
0
40
0
40
0
40
0
40
0.124999999999911
40
0.124999999999911
40
0.249999999999821
40
0.249999999999821
40
0.499999999999881
40
0.499999999999881
40
0.74999999999994
40
0.74999999999994
40
1
40
1
40
1
40
1
41
1
10
330.488180878845
20
19.246742663745
30
0
41
1
10
330.507528113768
20
19.2404436820372
30
0
41
1
10
330.528320760924
20
19.2393160213161
30
0
41
1
10
330.568135799656
20
19.2493872408026
30
0
41
1
10
330.58697988605
20
19.260551736149
30
0
41
1
10
330.634626218996
20
19.3033815733998
30
0
41
1
10
330.656108360969
20
19.3427645286583
30
0
41
1
10
330.687322985055
20
19.4251847059318
30
0
41
1
10
330.69690951314
20
19.4687336077169
30
0
41
1
10
330.707909221677
20
19.5565907132325
30
0
41
1
10
330.709247753615
20
19.6011358028068
30
0
41
1
10
330.706933215018
20
19.6452998301359
30
0
0
SPLINE
5
25E
100
AcDbEntity
8
1
62
256
6
ByLayer
370
18
48
1
60
0
100
AcDbSpline
70
4
71
3
72
18
73
14
40
0
40
0
40
0
40
0
40
0.125000000000001
40
0.125000000000001
40
0.250000000000002
40
0.250000000000002
40
0.500000000000002
40
0.500000000000002
40
0.750000000000001
40
0.750000000000001
40
0.875
40
0.875
40
1
40
1
40
1
40
1
41
1
10
329.479787859872
20
18.1507191312411
30
0
41
1
10
329.460214481679
20
18.1770424672685
30
0
41
1
10
329.432165936971
20
18.1969688355441
30
0
41
1
10
329.370413532282
20
18.2288122322578
30
0
41
1
10
329.336720675928
20
18.2404945953048
30
0
41
1
10
329.232637717771
20
18.2665346551433
30
0
41
1
10
329.159024775319
20
18.2721133005038
30
0
41
1
10
329.014509044511
20
18.2645262407072
30
0
41
1
10
328.943865063843
20
18.2514381347618
30
0
41
1
10
328.847980543296
20
18.2148479529373
30
0
41
1
10
328.81775667198
20
18.199765397146
30
0
41
1
10
328.764892363344
20
18.1619795907797
30
0
41
1
10
328.742039748872
20
18.1394179073211
30
0
41
1
10
328.728643845485
20
18.1113533415253
30
0
0
SPLINE
5
25F
100
AcDbEntity
8
1
62
256
6
ByLayer
370
18
48
1
60
0
100
AcDbSpline
70
4
71
3
72
8
73
4
40
0
40
0
40
0
40
0
40
1
40
1
40
1
40
1
41
1
10
327.932977913372
20
20.5426595071158
30
0
41
1
10
327.929830466663
20
20.5483499794786
30
0
41
1
10
327.926683633831
20
20.554039707104
30
0
41
1
10
327.923537391602
20
20.5597287179229
30
0
0
SPLINE
5
260
100
AcDbEntity
8
1
62
256
6
ByLayer
370
18
48
1
60
0
100
AcDbSpline
70
4
71
3
72
16
73
12
40
0
40
0
40
0
40
0
40
0.249999999999942
40
0.249999999999942
40
0.499999999999883
40
0.499999999999883
40
0.749999999999825
40
0.749999999999825
40
0.874999999999913
40
0.874999999999913
40
1
40
1
40
1
40
1
41
1
10
330.706933215018
20
19.6452998301359
30
0
41
1
10
330.704617074593
20
19.6894944221852
30
0
41
1
10
330.69864596216
20
19.733556260571
30
0
41
1
10
330.67850262606
20
19.8198807410967
30
0
41
1
10
330.664431959361
20
19.8621614119585
30
0
41
1
10
330.624667420151
20
19.9410336387782
30
0
41
1
10
330.599207095646
20
19.9780077444196
30
0
41
1
10
330.54680805363
20
20.015760665668
30
0
41
1
10
330.52708405031
20
20.0246561748659
30
0
41
1
10
330.486674427879
20
20.0303564337417
30
0
41
1
10
330.46623240689
20
20.0270638205527
30
0
41
1
10
330.447718658904
20
20.0188078131312
30
0
0
SPLINE
5
261
100
AcDbEntity
8
1
62
256
6
ByLayer
370
18
48
1
60
0
100
AcDbSpline
70
4
71
3
72
16
73
12
40
0
40
0
40
0
40
0
40
0.250000000000066
40
0.250000000000066
40
0.500000000000133
40
0.500000000000133
40
0.750000000000199
40
0.750000000000199
40
0.875000000000099
40
0.875000000000099
40
1
40
1
40
1
40
1
41
1
10
328.130942374233
20
20.9640952363847
30
0
41
1
10
328.167888083678
20
20.9881894668835
30
0
41
1
10
328.206723307933
20
21.0093124073279
30
0
41
1
10
328.287376517488
20
21.0440334352048
30
0
41
1
10
328.329159266428
20
21.0577195836015
30
0
41
1
10
328.414240543032
20
21.0726761761812
30
0
41
1
10
328.457745823116
20
21.0743428882245
30
0
41
1
10
328.515756862153
20
21.0555706443246
30
0
41
1
10
328.533217353179
20
21.0454293077574
30
0
41
1
10
328.558615282611
20
21.0174389588409
30
0
41
1
10
328.566344607205
20
20.9997238405117
30
0
41
1
10
328.5689669195
20
20.9806470884029
30
0
0
SPLINE
5
262
100
AcDbEntity
8
1
62
256
6
ByLayer
370
18
48
1
60
0
100
AcDbSpline
70
4
71
3
72
8
73
4
40
0
40
0
40
0
40
0
40
1
40
1
40
1
40
1
41
1
10
327.572830301093
20
19.8681412986117
30
0
41
1
10
327.579102416251
20
19.8686164471447
30
0
41
1
10
327.585375521301
20
19.8690916662616
30
0
41
1
10
327.591649655083
20
19.8695669587273
30
0
0
SPLINE
5
263
100
AcDbEntity
8
1
62
256
6
ByLayer
370
18
48
1
60
0
100
AcDbSpline
70
4
71
3
72
8
73
4
40
0
40
0
40
0
40
0
40
1
40
1
40
1
40
1
41
1
10
327.632157802695
20
19.0966254571774
30
0
41
1
10
327.625868357683
20
19.0964423203786
30
0
41
1
10
327.619579943435
20
19.0962592181647
30
0
41
1
10
327.613292521034
20
19.0960761492255
30
0
0
SPLINE
5
264
100
AcDbEntity
8
1
62
256
6
ByLayer
370
18
48
1
60
0
100
AcDbSpline
70
4
71
3
72
16
73
12
40
0
40
0
40
0
40
0
40
0.124999999999996
40
0.124999999999996
40
0.249999999999992
40
0.249999999999992
40
0.499999999999994
40
0.499999999999994
40
0.749999999999997
40
0.749999999999997
40
1
40
1
40
1
40
1
41
1
10
327.613292521034
20
19.0960761492255
30
0
41
1
10
327.596803796393
20
19.0878990844584
30
0
41
1
10
327.578370456003
20
19.0847156768399
30
0
41
1
10
327.541549359111
20
19.0907705666455
30
0
41
1
10
327.523329308087
20
19.0999926128589
30
0
41
1
10
327.475541772401
20
19.1378209729862
30
0
41
1
10
327.451656777269
20
19.1748263373367
30
0
41
1
10
327.41431737361
20
19.2536537502551
30
0
41
1
10
327.400919490776
20
19.2959980901058
30
0
41
1
10
327.381692291382
20
19.3822710705022
30
0
41
1
10
327.375902102258
20
19.4264425596364
30
0
41
1
10
327.373587563661
20
19.4706065869655
30
0
0
SPLINE
5
265
100
AcDbEntity
8
1
62
256
6
ByLayer
370
18
48
1
60
0
100
AcDbSpline
70
4
71
3
72
16
73
12
40
0
40
0
40
0
40
0
40
0.124999999999997
40
0.124999999999997
40
0.249999999999995
40
0.249999999999995
40
0.499999999999996
40
0.499999999999996
40
0.749999999999998
40
0.749999999999998
40
1
40
1
40
1
40
1
41
1
10
328.720260719401
20
18.0937894124809
30
0
41
1
10
328.719644545488
20
18.0744712471858
30
0
41
1
10
328.713760419381
20
18.0559462666241
30
0
41
1
10
328.691188562014
20
18.0253317264565
30
0
41
1
10
328.674595022252
20
18.0133854913354
30
0
41
1
10
328.61921632974
20
17.9890273181834
30
0
41
1
10
328.575812719756
20
17.9860948791185
30
0
41
1
10
328.489825556882
20
17.9920816379435
30
0
41
1
10
328.446810335939
20
18.0013261865377
30
0
41
1
10
328.363064025426
20
18.0273944549701
30
0
41
1
10
328.322140275375
20
18.044378098873
30
0
41
1
10
328.282905578769
20
18.0644645591316
30
0
0
SPLINE
5
266
100
AcDbEntity
8
1
62
256
6
ByLayer
370
18
48
1
60
0
100
AcDbSpline
70
4
71
3
72
16
73
12
40
0
40
0
40
0
40
0
40
0.25
40
0.25
40
0.5
40
0.5
40
0.75
40
0.75
40
0.875
40
0.875
40
1
40
1
40
1
40
1
41
1
10
328.282905578769
20
18.0644645591316
30
0
41
1
10
328.243643728898
20
18.0845649206821
30
0
41
1
10
328.205846278802
20
18.107871138805
30
0
41
1
10
328.134857674937
20
18.161036759488
30
0
41
1
10
328.101618168275
20
18.1908164267034
30
0
41
1
10
328.04435005725
20
18.2582736583805
30
0
41
1
10
328.019912339907
20
18.2959146596653
30
0
41
1
10
328.003882904923
20
18.3573861048814
30
0
41
1
10
328.002594087239
20
18.3783041633462
30
0
41
1
10
328.011074276246
20
18.4158880266655
30
0
41
1
10
328.020845443596
20
18.4322990146489
30
0
41
1
10
328.034368971562
20
18.4449361913872
30
0
0
SPLINE
5
267
100
AcDbEntity
8
1
62
256
6
ByLayer
370
18
48
1
60
0
100
AcDbSpline
70
4
71
3
72
18
73
14
40
0
40
0
40
0
40
0
40
0.125
40
0.125
40
0.25
40
0.25
40
0.5
40
0.5
40
0.75
40
0.75
40
0.875
40
0.875
40
1
40
1
40
1
40
1
41
1
10
327.591649655083
20
19.8695669587273
30
0
41
1
10
327.621706373273
20
19.8718438836694
30
0
41
1
10
327.650759011504
20
19.8848749170229
30
0
41
1
10
327.705368342991
20
19.9202453251043
30
0
41
1
10
327.730735245917
20
19.942704317742
30
0
41
1
10
327.801477950946
20
20.0177932862022
30
0
41
1
10
327.84180102841
20
20.0782109200175
30
0
41
1
10
327.907460822347
20
20.207717775431
30
0
41
1
10
327.932727396396
20
20.2765379848885
30
0
41
1
10
327.952799747394
20
20.3806783482759
30
0
41
1
10
327.956439009856
20
20.4155231253822
30
0
41
1
10
327.953961033485
20
20.4828226163647
30
0
41
1
10
327.948063376041
20
20.5153855239997
30
0
41
1
10
327.932977913372
20
20.5426595071158
30
0
0
SPLINE
5
268
100
AcDbEntity
8
1
62
256
6
ByLayer
370
18
48
1
60
0
100
AcDbSpline
70
4
71
3
72
20
73
16
40
0
40
0
40
0
40
0
40
0.125000000000021
40
0.125000000000021
40
0.250000000000043
40
0.250000000000043
40
0.375000000000064
40
0.375000000000064
40
0.500000000000086
40
0.500000000000086
40
0.750000000000043
40
0.750000000000043
40
0.875000000000021
40
0.875000000000021
40
1
40
1
40
1
40
1
41
1
10
330.125949998954
20
18.5721152758117
30
0
41
1
10
330.107464932066
20
18.5993219245549
30
0
41
1
10
330.09860243763
20
18.632004043338
30
0
41
1
10
330.091134339819
20
18.6992669437942
30
0
41
1
10
330.092697118066
20
18.7337289971819
30
0
41
1
10
330.102670361392
20
18.802754372388
30
0
41
1
10
330.111226002272
20
18.8374122927697
30
0
41
1
10
330.133501051588
20
18.9047225672222
30
0
41
1
10
330.147296483195
20
18.937747050406
30
0
41
1
10
330.196506972891
20
19.035020390813
30
0
41
1
10
330.238581297132
20
19.0956711152321
30
0
41
1
10
330.314642702759
20
19.1713044136944
30
0
41
1
10
330.342223428129
20
19.1939426174116
30
0
41
1
10
330.401848798
20
19.229543328067
30
0
41
1
10
330.433841232014
20
19.2427525878154
30
0
41
1
10
330.467278257244
20
19.2452078242002
30
0
0
SPLINE
5
269
100
AcDbEntity
8
1
62
256
6
ByLayer
370
18
48
1
60
0
100
AcDbSpline
70
4
71
3
72
16
73
12
40
0
40
0
40
0
40
0
40
0.124999999999983
40
0.124999999999983
40
0.249999999999966
40
0.249999999999966
40
0.499999999999977
40
0.499999999999977
40
0.749999999999989
40
0.749999999999989
40
1
40
1
40
1
40
1
41
1
10
327.923537391602
20
20.5597287179229
30
0
41
1
10
327.908711891487
20
20.5709246920485
30
0
41
1
10
327.897226442117
20
20.5863220145484
30
0
41
1
10
327.884891482587
20
20.623091767685
30
0
41
1
10
327.884108877842
20
20.644304276286
30
0
41
1
10
327.893737396034
20
20.7065975831499
30
0
41
1
10
327.914054063493
20
20.7465772107304
30
0
41
1
10
327.963861561669
20
20.8194786441672
30
0
41
1
10
327.993823014291
20
20.8525964697013
30
0
41
1
10
328.058790035318
20
20.9128246556288
30
0
41
1
10
328.094022216223
20
20.9400176693141
30
0
41
1
10
328.130942374233
20
20.9640952363847
30
0
0
SPLINE
5
26A
100
AcDbEntity
8
1
62
256
6
ByLayer
370
18
48
1
60
0
100
AcDbSpline
70
4
71
1
72
4
73
2
40
0
40
0
40
1
40
1
41
1
10
338.552045438335
20
-18.6633061073504
30
0
41
1
10
338.107138951167
20
-17.8586195411509
30
0
0
SPLINE
5
26B
100
AcDbEntity
8
1
62
256
6
ByLayer
370
18
48
1
60
0
100
AcDbSpline
70
4
71
1
72
4
73
2
40
0
40
0
40
1
40
1
41
1
10
339.964700645018
20
-8.99361277886774
30
0
41
1
10
339.915156809562
20
-8.68256333989928
30
0
0
SPLINE
5
26C
100
AcDbEntity
8
1
62
256
6
ByLayer
370
18
48
1
60
0
100
AcDbSpline
70
4
71
3
72
12
73
8
40
0
40
0
40
0
40
0
40
0.500000000000155
40
0.500000000000155
40
0.750000000000078
40
0.750000000000078
40
1
40
1
40
1
40
1
41
1
10
338.154124004962
20
0.475741041341877
30
0
41
1
10
338.221249435526
20
0.466891224733587
30
0
41
1
10
338.285500339737
20
0.43801823142752
30
0
41
1
10
338.362472678846
20
0.372209906761782
30
0
41
1
10
338.384884950979
20
0.346481061065504
30
0
41
1
10
338.421266529623
20
0.289788971820371
30
0
41
1
10
338.43472743051
20
0.25873917022713
30
0
41
1
10
338.444881431258
20
0.226615575720274
30
0
0
SPLINE
5
26D
100
AcDbEntity
8
1
62
256
6
ByLayer
370
18
48
1
60
0
100
AcDbSpline
70
4
71
2
72
12
73
9
40
0
40
0
40
0
40
0.25
40
0.5
40
0.5
40
0.75
40
0.75
40
0.875
40
1
40
1
40
1
41
1
10
338.061525475784
20
0.20773615641815
30
0
41
1
10
338.047622878051
20
0.255947788190838
30
0
41
1
10
337.993210900427
20
0.341195950841893
30
0
41
1
10
337.95377596051
20
0.375268900046166
30
0
41
1
10
337.916061777421
20
0.407855064685492
30
0
41
1
10
337.868450775636
20
0.429300550629023
30
0
41
1
10
337.846339406429
20
0.439260203644693
30
0
41
1
10
337.796723060581
20
0.453462912859209
30
0
41
1
10
337.770768049499
20
0.456860750578727
30
0
0
SPLINE
5
26E
100
AcDbEntity
8
1
62
256
6
ByLayer
370
18
48
1
60
0
100
AcDbSpline
70
4
71
1
72
4
73
2
40
0
40
0
40
1
40
1
41
1
10
337.770768049499
20
0.456860750578755
30
0
41
1
10
338.154124004962
20
0.475781661743923
30
0
0
SPLINE
5
26F
100
AcDbEntity
8
1
62
256
6
ByLayer
370
18
48
1
60
0
100
AcDbSpline
70
4
71
3
72
8
73
4
40
0
40
0
40
0
40
0
40
1
40
1
40
1
40
1
41
1
10
339.991114580225
20
-9.15326991436339
30
0
41
1
10
339.996050494163
20
-9.19118130358294
30
0
41
1
10
339.999429899271
20
-9.22920495230474
30
0
41
1
10
339.999933060269
20
-9.26742540650443
30
0
0
SPLINE
5
270
100
AcDbEntity
8
1
62
256
6
ByLayer
370
18
48
1
60
0
100
AcDbSpline
70
4
71
2
72
6
73
3
40
0
40
0
40
0
40
1
40
1
40
1
41
1
10
337.998200600032
20
-17.8835130272316
30
0
41
1
10
338.046528285475
20
-17.875901692499
30
0
41
1
10
338.093562912654
20
-17.8624905290297
30
0
0
SPLINE
5
271
100
AcDbEntity
8
1
62
256
6
ByLayer
370
18
48
1
60
0
100
AcDbSpline
70
4
71
1
72
4
73
2
40
0
40
0
40
1
40
1
41
1
10
338.566951992658
20
-0.218173208261504
30
0
41
1
10
338.08655965792
20
0.0994100558773425
30
0
0
SPLINE
5
272
100
AcDbEntity
8
1
62
256
6
ByLayer
370
18
48
1
60
0
100
AcDbSpline
70
4
71
3
72
8
73
4
40
0
40
0
40
0
40
0
40
1
40
1
40
1
40
1
41
1
10
338.545810676959
20
-0.123346846840747
30
0
41
1
10
338.554801985135
20
-0.154527036815779
30
0
41
1
10
338.561849090368
20
-0.186135823955965
30
0
41
1
10
338.566951992658
20
-0.218173208261334
30
0
0
SPLINE
5
273
100
AcDbEntity
8
1
62
256
6
ByLayer
370
18
48
1
60
0
100
AcDbSpline
70
4
71
2
72
7
73
4
40
0
40
0
40
0
40
0.5
40
1
40
1
40
1
41
1
10
339.496924283937
20
-8.96464673008452
30
0
41
1
10
339.504416423647
20
-8.90805811360053
30
0
41
1
10
339.502990374579
20
-8.79332050688782
30
0
41
1
10
339.493919067277
20
-8.73636841551777
30
0
0
SPLINE
5
274
100
AcDbEntity
8
1
62
256
6
ByLayer
370
18
48
1
60
0
100
AcDbSpline
70
4
71
3
72
8
73
4
40
0
40
0
40
0
40
0
40
1
40
1
40
1
40
1
41
1
10
338.200063329235
20
-18.7636681147627
30
0
41
1
10
338.168706911116
20
-18.7726088904046
30
0
41
1
10
338.136919473575
20
-18.7796163898052
30
0
41
1
10
338.104701016613
20
-18.7846906129646
30
0
0
SPLINE
5
275
100
AcDbEntity
8
1
62
256
6
ByLayer
370
18
48
1
60
0
100
AcDbSpline
70
4
71
3
72
8
73
4
40
0
40
0
40
0
40
0
40
1
40
1
40
1
40
1
41
1
10
339.999933060269
20
-9.26742540650443
30
0
41
1
10
340.000436224146
20
-9.305646079383
30
0
41
1
10
339.998063746241
20
-9.34374498286115
30
0
41
1
10
339.994132053527
20
-9.38177216233734
30
0
0
SPLINE
5
276
100
AcDbEntity
8
1
62
256
6
ByLayer
370
18
48
1
60
0
100
AcDbSpline
70
4
71
1
72
4
73
2
40
0
40
0
40
1
40
1
41
1
10
339.493919067277
20
-8.73636841551797
30
0
41
1
10
339.990150541476
20
-9.15339403000118
30
0
0
SPLINE
5
277
100
AcDbEntity
8
1
62
256
6
ByLayer
370
18
48
1
60
0
100
AcDbSpline
70
4
71
1
72
4
73
2
40
0
40
0
40
1
40
1
41
1
10
339.97182780282
20
-9.54276377243562
30
0
41
1
10
339.993155758102
20
-9.38167234457808
30
0
0
SPLINE
5
278
100
AcDbEntity
8
1
62
256
6
ByLayer
370
18
48
1
60
0
100
AcDbSpline
70
4
71
1
72
4
73
2
40
0
40
0
40
1
40
1
41
1
10
339.930382905217
20
-9.85579976880555
30
0
41
1
10
339.97182780282
20
-9.54276377243562
30
0
0
SPLINE
5
279
100
AcDbEntity
8
1
62
256
6
ByLayer
370
18
48
1
60
0
100
AcDbSpline
70
4
71
1
72
4
73
2
40
0
40
0
40
1
40
1
41
1
10
338.357671578105
20
-17.5694962173357
30
0
41
1
10
338.802578065258
20
-18.3741827835335
30
0
0
SPLINE
5
27A
100
AcDbEntity
8
1
62
256
6
ByLayer
370
18
48
1
60
0
100
AcDbSpline
70
4
71
1
72
4
73
2
40
0
40
0
40
1
40
1
41
1
10
339.915156809562
20
-8.68256333989928
30
0
41
1
10
339.824553116131
20
-8.11372913981631
30
0
0
SPLINE
5
27B
100
AcDbEntity
8
1
62
256
6
ByLayer
370
18
48
1
60
0
100
AcDbSpline
70
4
71
3
72
10
73
6
40
0
40
0
40
0
40
0
40
0.507963657877219
40
0.507963657877219
40
1
40
1
40
1
40
1
41
1
10
338.200063329225
20
-18.7637083592483
30
0
41
1
10
338.260029427873
20
-18.7466094024971
30
0
41
1
10
338.319995526935
20
-18.729512094227
30
0
41
1
10
338.438047473915
20
-18.6958521431846
30
0
41
1
10
338.496133322412
20
-18.6792894779076
30
0
41
1
10
338.554219170416
20
-18.6627278146636
30
0
0
SPLINE
5
27C
100
AcDbEntity
8
1
62
256
6
ByLayer
370
18
48
1
60
0
100
AcDbSpline
70
4
71
1
72
4
73
2
40
0
40
0
40
1
40
1
41
1
10
339.990150541476
20
-9.15339403000115
30
0
41
1
10
339.964700645018
20
-8.99361277886774
30
0
0
SPLINE
5
27D
100
AcDbEntity
8
1
62
256
6
ByLayer
370
18
48
1
60
0
100
AcDbSpline
70
4
71
1
72
4
73
2
40
0
40
0
40
1
40
1
41
1
10
338.093562912654
20
-17.8624905290297
30
0
41
1
10
338.200063329235
20
-18.7636681147627
30
0
0
SPLINE
5
27E
100
AcDbEntity
8
1
62
256
6
ByLayer
370
18
48
1
60
0
100
AcDbSpline
70
4
71
1
72
4
73
2
40
0
40
0
40
1
40
1
41
1
10
339.824553116131
20
-8.11372913981631
30
0
41
1
10
338.566951992658
20
-0.218173208261362
30
0
0
SPLINE
5
27F
100
AcDbEntity
8
1
62
256
6
ByLayer
370
18
48
1
60
0
100
AcDbSpline
70
4
71
1
72
4
73
2
40
0
40
0
40
1
40
1
41
1
10
338.802578065258
20
-18.3741827835333
30
0
41
1
10
339.854591960258
20
-10.4282536857712
30
0
0
SPLINE
5
280
100
AcDbEntity
8
1
62
256
6
ByLayer
370
18
48
1
60
0
100
AcDbSpline
70
4
71
1
72
4
73
2
40
0
40
0
40
1
40
1
41
1
10
338.444881431258
20
0.226657067583318
30
0
41
1
10
338.061525475784
20
0.207736156418179
30
0
0
SPLINE
5
281
100
AcDbEntity
8
1
62
256
6
ByLayer
370
18
48
1
60
0
100
AcDbSpline
70
4
71
1
72
4
73
2
40
0
40
0
40
1
40
1
41
1
10
339.993155758102
20
-9.38167234457808
30
0
41
1
10
339.496924283937
20
-8.9646467300843
30
0
0
SPLINE
5
282
100
AcDbEntity
8
1
62
256
6
ByLayer
370
18
48
1
60
0
100
AcDbSpline
70
4
71
1
72
4
73
2
40
0
40
0
40
1
40
1
41
1
10
338.065418342207
20
0.194236417299464
30
0
41
1
10
338.545810676959
20
-0.123346846840604
30
0
0
SPLINE
5
283
100
AcDbEntity
8
1
62
256
6
ByLayer
370
18
48
1
60
0
100
AcDbSpline
70
4
71
3
72
12
73
8
40
0
40
0
40
0
40
0
40
0.250320940059445
40
0.250320940059445
40
0.500642180879668
40
0.500642180879668
40
1
40
1
40
1
40
1
41
1
10
338.104701016613
20
-18.7847329377895
30
0
41
1
10
338.112756568407
20
-18.7834639335308
30
0
41
1
10
338.120793615864
20
-18.7820727192908
30
0
41
1
10
338.136819285017
20
-18.7790467888678
30
0
41
1
10
338.144809777503
20
-18.7774117186008
30
0
41
1
10
338.168650849005
20
-18.7721533565905
30
0
41
1
10
338.184428971293
20
-18.7681663983091
30
0
41
1
10
338.200063329235
20
-18.7637083592455
30
0
0
SPLINE
5
284
100
AcDbEntity
8
1
62
256
6
ByLayer
370
18
48
1
60
0
100
AcDbSpline
70
4
71
2
72
12
73
9
40
0
40
0
40
0
40
0.25
40
0.5
40
0.5
40
0.75
40
0.75
40
0.875
40
1
40
1
40
1
41
1
10
338.107138951167
20
-17.8586195411511
30
0
41
1
10
338.155623071321
20
-17.8447950782009
30
0
41
1
10
338.241353049935
20
-17.7906889044505
30
0
41
1
10
338.275618576797
20
-17.7514755950946
30
0
41
1
10
338.308388915894
20
-17.7139733716536
30
0
41
1
10
338.329955610055
20
-17.6666299511823
30
0
41
1
10
338.339971554251
20
-17.6446428513526
30
0
41
1
10
338.354254536072
20
-17.5953053571725
30
0
41
1
10
338.357671578105
20
-17.569496217336
30
0
0
SPLINE
5
285
100
AcDbEntity
8
1
62
256
6
ByLayer
370
18
48
1
60
0
100
AcDbSpline
70
4
71
1
72
4
73
2
40
0
40
0
40
1
40
1
41
1
10
338.104701016613
20
-18.7846906129646
30
0
41
1
10
337.998200600032
20
-17.8835130272317
30
0
0
SPLINE
5
286
100
AcDbEntity
8
1
62
256
6
ByLayer
370
18
48
1
60
0
100
AcDbSpline
70
4
71
1
72
4
73
2
40
0
40
0
40
1
40
1
41
1
10
339.854591960258
20
-10.4282536857712
30
0
41
1
10
339.930382905217
20
-9.85579976880555
30
0
0
SPLINE
5
287
100
AcDbEntity
8
1
62
256
6
ByLayer
370
18
48
1
60
0
100
AcDbSpline
70
4
71
3
72
12
73
8
40
0
40
0
40
0
40
0
40
0.500000000000134
40
0.500000000000134
40
0.750000000000067
40
0.750000000000067
40
1
40
1
40
1
40
1
41
1
10
338.802578065257
20
-18.3742234039353
30
0
41
1
10
338.793678272139
20
-18.4409716207393
30
0
41
1
10
338.764643241095
20
-18.5048625684599
30
0
41
1
10
338.698462089783
20
-18.5814014327442
30
0
41
1
10
338.672587931339
20
-18.6036878484743
30
0
41
1
10
338.615575711449
20
-18.639865243923
30
0
41
1
10
338.584350504091
20
-18.6532505772429
30
0
41
1
10
338.552045438336
20
-18.6633475992142
30
0
0
SPLINE
5
288
100
AcDbEntity
8
1
62
256
6
ByLayer
370
18
48
1
60
0
100
AcDbSpline
70
4
71
2
72
6
73
3
40
0
40
0
40
0
40
1
40
1
40
1
41
1
10
338.08655965792
20
0.0994100558773994
30
0
41
1
10
338.078905304555
20
0.147466132148168
30
0
41
1
10
338.065418342208
20
0.194236417299351
30
0
0
SPLINE
5
289
100
AcDbEntity
8
1
62
256
6
ByLayer
370
13
48
1
60
0
100
AcDbSpline
70
4
71
3
72
8
73
4
40
0
40
0
40
0
40
0
40
1
40
1
40
1
40
1
41
1
10
319.448819731773
20
29.0212204634069
30
0
41
1
10
319.387742251337
20
29.0274377078857
30
0
41
1
10
319.326731781405
20
29.0336458783829
30
0
41
1
10
319.265614185608
20
29.0398685469642
30
0
0
SPLINE
5
28A
100
AcDbEntity
8
1
62
256
6
ByLayer
370
13
48
1
60
0
100
AcDbSpline
70
4
71
3
72
20
73
16
40
0
40
0
40
0
40
0
40
0.0625000000000484
40
0.0625000000000484
40
0.125000000000097
40
0.125000000000097
40
0.140625000000098
40
0.140625000000098
40
0.156250000000099
40
0.156250000000099
40
0.187500000000101
40
0.187500000000101
40
0.250000000000083
40
0.500000000000055
40
1
40
1
40
1
40
1
41
1
10
335.964862827611
20
28.3588720630515
30
0
41
1
10
335.834463352087
20
28.2716642629623
30
0
41
1
10
335.696866120497
20
28.2004778702016
30
0
41
1
10
335.407825414917
20
28.0889252857966
30
0
41
1
10
335.254697804382
20
28.0486139264533
30
0
41
1
10
335.063624159511
20
28.0204411270261
30
0
41
1
10
335.025339894969
20
28.0158583381838
30
0
41
1
10
334.948628921205
20
28.0088473296526
30
0
41
1
10
334.910183931526
20
28.006695613848
30
0
41
1
10
334.794816340413
20
28.000733896756
30
0
41
1
10
334.717910958469
20
27.996663439387
30
0
41
1
10
334.487186903111
20
27.9845717040185
30
0
41
1
10
333.718106718585
20
27.9442659194569
30
0
41
1
10
331.718498238814
20
27.8394708795966
30
0
41
1
10
329.872705795964
20
27.7427369966494
30
0
41
1
10
328.642177500723
20
27.6782477413509
30
0
0
SPLINE
5
28B
100
AcDbEntity
8
1
62
256
6
ByLayer
370
13
48
1
60
0
100
AcDbSpline
70
4
71
3
72
20
73
16
40
0
40
0
40
0
40
0
40
0.124999999999987
40
0.124999999999987
40
0.249999999999974
40
0.249999999999974
40
0.374999999999961
40
0.374999999999961
40
0.499999999999948
40
0.499999999999948
40
0.624999999999935
40
0.624999999999935
40
0.749999999999922
40
0.749999999999922
40
1
40
1
40
1
40
1
41
1
10
319.615430367333
20
9.8117004956336
30
0
41
1
10
319.625293573938
20
9.74455778539053
30
0
41
1
10
319.643746437041
20
9.68041381999626
30
0
41
1
10
319.696318786879
20
9.55759528218522
30
0
41
1
10
319.731061374142
20
9.49869894279104
30
0
41
1
10
319.814026867592
20
9.39190733886898
30
0
41
1
10
319.861706500047
20
9.34450678590181
30
0
41
1
10
319.967483604298
20
9.26300216245255
30
0
41
1
10
320.026379822802
20
9.22842746731024
30
0
41
1
10
320.148865592662
20
9.17585610109853
30
0
41
1
10
320.21383132185
20
9.15713341413684
30
0
41
1
10
320.346216568483
20
9.13599198156618
30
0
41
1
10
320.412673453022
20
9.13594290438226
30
0
41
1
10
320.611958725924
20
9.13239621439786
30
0
41
1
10
320.744895589321
20
9.13321756725315
30
0
41
1
10
320.877903579957
20
9.13687087231196
30
0
0
SPLINE
5
28C
100
AcDbEntity
8
1
62
256
6
ByLayer
370
13
48
1
60
0
100
AcDbSpline
70
4
71
3
72
8
73
4
40
0
40
0
40
0
40
0
40
1
40
1
40
1
40
1
41
1
10
337.528786202938
20
29.9852866537063
30
0
41
1
10
337.438369970163
20
29.9855333208638
30
0
41
1
10
337.347918919547
20
29.9843937053497
30
0
41
1
10
337.257434069999
20
29.9819083752803
30
0
0
SPLINE
5
28D
100
AcDbEntity
8
1
62
256
6
ByLayer
370
13
48
1
60
0
100
AcDbSpline
70
4
71
2
72
6
73
3
40
0
40
0
40
0
40
1
40
1
40
1
41
1
10
318.185408335082
20
18.9203882383902
30
0
41
0.997409491337352
10
318.184643084332
20
18.978078352787
30
0
41
1
10
318.19212727077
20
19.0352779003888
30
0
0
SPLINE
5
28E
100
AcDbEntity
8
1
62
256
6
ByLayer
370
13
48
1
60
0
100
AcDbSpline
70
4
71
3
72
8
73
4
40
0
40
0
40
0
40
0
40
1
40
1
40
1
40
1
41
1
10
337.005734699259
20
29.941339387914
30
0
41
1
10
337.065827711855
20
29.9539069088472
30
0
41
1
10
337.125855029528
20
29.966458401002
30
0
41
1
10
337.185987370756
20
29.979035509521
30
0
0
SPLINE
5
28F
100
AcDbEntity
8
1
62
256
6
ByLayer
370
13
48
1
60
0
100
AcDbSpline
70
4
71
1
72
4
73
2
40
0
40
0
40
1
40
1
41
1
10
319.638995237126
20
28.8007576910832
30
0
41
1
10
319.448819731773
20
29.0212204634069
30
0
0
SPLINE
5
290
100
AcDbEntity
8
1
62
256
6
ByLayer
370
13
48
1
60
0
100
AcDbSpline
70
4
71
3
72
9
73
5
40
0
40
0
40
0
40
0
40
0.806009473587334
40
1
40
1
40
1
40
1
41
1
10
319.194258582616
20
29.0352574611869
30
0
41
1
10
319.21341291418
20
29.0367361899679
30
0
41
1
10
319.237207570513
20
29.0381415591249
30
0
41
1
10
319.260998965793
20
29.0395870776599
30
0
41
1
10
319.265614185608
20
29.0398685469642
30
0
0
SPLINE
5
291
100
AcDbEntity
8
1
62
256
6
ByLayer
370
13
48
1
60
0
100
AcDbSpline
70
4
71
3
72
10
73
6
40
0
40
0
40
0
40
0
40
0.5
40
0.5
40
1
40
1
40
1
40
1
41
1
10
321.907135535841
20
10.58827310432
30
0
41
1
10
321.903386919157
20
10.5880766476442
30
0
41
1
10
321.883000894353
20
10.5881282494717
30
0
41
1
10
321.821690327672
20
10.5886211077014
30
0
41
1
10
321.780756841818
20
10.5890548044238
30
0
41
1
10
321.741532311568
20
10.5895245084307
30
0
0
SPLINE
5
292
100
AcDbEntity
8
1
62
256
6
ByLayer
370
13
48
1
60
0
100
AcDbSpline
70
4
71
3
72
20
73
16
40
0
40
0
40
0
40
0
40
0.0624999999999984
40
0.0624999999999984
40
0.124999999999997
40
0.124999999999997
40
0.140624999999997
40
0.140624999999997
40
0.156249999999996
40
0.156249999999996
40
0.187499999999995
40
0.187499999999995
40
0.249999999999994
40
0.499999999999989
40
1
40
1
40
1
40
1
41
1
10
322.170474822347
20
10.7599071845422
30
0
41
1
10
322.300874297871
20
10.8471149846311
30
0
41
1
10
322.438471529461
20
10.9183013773916
30
0
41
1
10
322.72751223504
20
11.0298539617963
30
0
41
1
10
322.880639845576
20
11.0701653211393
30
0
41
1
10
323.071713490447
20
11.0983381205664
30
0
41
1
10
323.109997754988
20
11.1029209094086
30
0
41
1
10
323.186708728752
20
11.1099319179398
30
0
41
1
10
323.225153718431
20
11.1120836337443
30
0
41
1
10
323.340521309544
20
11.1180453508363
30
0
41
1
10
323.417426691489
20
11.1221158082054
30
0
41
1
10
323.648150746846
20
11.1342075435738
30
0
41
1
10
324.417230931371
20
11.1745133281354
30
0
41
1
10
326.416839411139
20
11.2793083679955
30
0
41
1
10
328.262631853993
20
11.3760422509429
30
0
41
1
10
329.493160149233
20
11.4405315062413
30
0
0
SPLINE
5
293
100
AcDbEntity
8
1
62
256
6
ByLayer
370
13
48
1
60
0
100
AcDbSpline
70
4
71
3
72
24
73
20
40
0
40
0
40
0
40
0
40
0.12500000000003
40
0.12500000000003
40
0.250000000000061
40
0.250000000000061
40
0.375000000000091
40
0.375000000000091
40
0.500000000000122
40
0.500000000000122
40
0.625000000000152
40
0.625000000000152
40
0.750000000000183
40
0.750000000000183
40
0.812500000000137
40
0.812500000000137
40
0.875000000000091
40
0.875000000000091
40
1
40
1
40
1
40
1
41
1
10
338.519907282623
20
29.3070787519586
30
0
41
1
10
338.511721551862
20
29.3628022271514
30
0
41
1
10
338.497654013588
20
29.4164722977648
30
0
41
1
10
338.45842322215
20
29.5199388012185
30
0
41
1
10
338.433179888664
20
29.5702484125212
30
0
41
1
10
338.372216245982
20
29.6643585571125
30
0
41
1
10
338.33663251293
20
29.7083693767394
30
0
41
1
10
338.258178011296
20
29.786904761684
30
0
41
1
10
338.215132113955
20
29.8217155316571
30
0
41
1
10
338.121563263661
20
29.8826102472711
30
0
41
1
10
338.071591174821
20
29.9080223843642
30
0
41
1
10
337.968456472261
20
29.9478150733743
30
0
41
1
10
337.91430116859
20
29.9625031496633
30
0
41
1
10
337.831909322844
20
29.9760851322899
30
0
41
1
10
337.804407767
20
29.9791151155138
30
0
41
1
10
337.749337181477
20
29.982488591175
30
0
41
1
10
337.721765925022
20
29.9827434238086
30
0
41
1
10
337.639074223896
20
29.9843865753304
30
0
41
1
10
337.583937737627
20
29.9851361931986
30
0
41
1
10
337.528786202938
20
29.9852866537063
30
0
0
SPLINE
5
294
100
AcDbEntity
8
1
62
256
6
ByLayer
370
13
48
1
60
0
100
AcDbSpline
70
4
71
2
72
6
73
3
40
0
40
0
40
0
40
1
40
1
40
1
41
1
10
317.915426832951
20
19.1525881644518
30
0
41
0.997409491337352
10
317.912656027601
20
19.0992471726116
30
0
41
1
10
317.91753433748
20
19.0460552746155
30
0
0
SPLINE
5
295
100
AcDbEntity
8
1
62
256
6
ByLayer
370
13
48
1
60
0
100
AcDbSpline
70
4
71
3
72
9
73
5
40
0
40
0
40
0
40
0
40
0.806009473587755
40
1
40
1
40
1
40
1
41
1
10
320.877903579957
20
9.13687087231193
30
0
41
1
10
320.897107551336
20
9.13740241700521
30
0
41
1
10
320.92091875913
20
9.13849196546798
30
0
41
1
10
320.944730920489
20
9.13954124362235
30
0
41
1
10
320.9493502792
20
9.13974373807125
30
0
0
SPLINE
5
296
100
AcDbEntity
8
1
62
256
6
ByLayer
370
13
48
1
60
0
100
AcDbSpline
70
4
71
2
72
6
73
3
40
0
40
0
40
0
40
1
40
1
40
1
41
0.998850556413384
10
317.927420910473
20
18.975553969935
30
0
41
0.998270163111919
10
317.92078906694
20
19.0105665004845
30
0
41
1
10
317.91753433748
20
19.0460552746155
30
0
0
SPLINE
5
297
100
AcDbEntity
8
1
62
256
6
ByLayer
370
13
48
1
60
0
100
AcDbSpline
70
4
71
2
72
6
73
3
40
0
40
0
40
0
40
1
40
1
40
1
41
1
10
317.931178388186
20
19.0107721348204
30
0
41
0.999139328225429
10
317.928880286603
20
18.9932083859803
30
0
41
0.998850556413382
10
317.927420910473
20
18.9755539699339
30
0
0
SPLINE
5
298
100
AcDbEntity
8
1
62
256
6
ByLayer
370
13
48
1
60
0
100
AcDbSpline
70
4
71
1
72
4
73
2
40
0
40
0
40
1
40
1
41
1
10
318.19212727077
20
19.0352779003888
30
0
41
1
10
317.931178388186
20
19.0107721348204
30
0
0
SPLINE
5
299
100
AcDbEntity
8
1
62
256
6
ByLayer
370
13
48
1
60
0
100
AcDbSpline
70
4
71
3
72
18
73
14
40
0
40
0
40
0
40
0
40
0.500000000000049
40
0.500000000000049
40
0.750000000000061
40
0.750000000000061
40
0.875000000000055
40
0.875000000000055
40
0.906250000000041
40
0.906250000000041
40
0.937500000000027
40
0.937500000000027
40
1
40
1
40
1
40
1
41
1
10
328.6714405602
20
27.4795068841135
30
0
41
1
10
327.54122836596
20
27.4202749728948
30
0
41
1
10
326.411015942599
20
27.3610480945451
30
0
41
1
10
324.715697604798
20
27.2722001703785
30
0
41
1
10
324.15059199636
20
27.2425716494094
30
0
41
1
10
323.302932758198
20
27.1981494109128
30
0
41
1
10
323.020378706321
20
27.1833661988188
30
0
41
1
10
322.667188009067
20
27.1648407080424
30
0
41
1
10
322.596550384052
20
27.1611228079925
30
0
41
1
10
322.455273268188
20
27.1537334397548
30
0
41
1
10
322.384674836653
20
27.1490401973241
30
0
41
1
10
322.172405900472
20
27.1467471931156
30
0
41
1
10
322.030381288655
20
27.1579595022242
30
0
41
1
10
321.887795752773
20
27.1831305871813
30
0
0
SPLINE
5
29A
100
AcDbEntity
8
1
62
256
6
ByLayer
370
13
48
1
60
0
100
AcDbSpline
70
4
71
1
72
4
73
2
40
0
40
0
40
1
40
1
41
1
10
317.924957890198
20
18.9044054504952
30
0
41
1
10
318.185408335082
20
18.9203882383902
30
0
0
SPLINE
5
29B
100
AcDbEntity
8
1
62
256
6
ByLayer
370
13
48
1
60
0
100
AcDbSpline
70
4
71
1
72
4
73
2
40
0
40
0
40
1
40
1
41
1
10
318.195172435203
20
18.8057114681567
30
0
41
1
10
317.933997650062
20
18.7982358647665
30
0
0
SPLINE
5
29C
100
AcDbEntity
8
1
62
256
6
ByLayer
370
13
48
1
60
0
100
AcDbSpline
70
4
71
3
72
12
73
8
40
0
40
0
40
0
40
0
40
0.25
40
0.25
40
0.499999999999999
40
0.499999999999999
40
1
40
1
40
1
40
1
41
1
10
319.4015222825
20
28.7997449522981
30
0
41
1
10
319.421721186658
20
28.8002814039579
30
0
41
1
10
319.441368851601
20
28.8002101242629
30
0
41
1
10
319.480863054127
20
28.8002868120767
30
0
41
1
10
319.500644262183
20
28.8003611842726
30
0
41
1
10
319.559952954152
20
28.8005474006627
30
0
41
1
10
319.599467877657
20
28.8006459799748
30
0
41
1
10
319.638995237126
20
28.8007576910832
30
0
0
SPLINE
5
29D
100
AcDbEntity
8
1
62
256
6
ByLayer
370
13
48
1
60
0
100
AcDbSpline
70
4
71
2
72
6
73
3
40
0
40
0
40
0
40
1
40
1
40
1
41
1
10
318.185408335082
20
18.9203882383902
30
0
41
0.997409491337352
10
318.186173585832
20
18.8626981239923
30
0
41
1
10
318.195172435203
20
18.8057114681567
30
0
0
SPLINE
5
29E
100
AcDbEntity
8
1
62
256
6
ByLayer
370
13
48
1
60
0
100
AcDbSpline
70
4
71
2
72
6
73
3
40
0
40
0
40
0
40
1
40
1
40
1
41
0.998850556413382
10
317.927420910473
20
18.9755539699339
30
0
41
0.998270163111922
10
317.924485202886
20
18.940040025277
30
0
41
1
10
317.924957890198
20
18.9044054504952
30
0
0
SPLINE
5
29F
100
AcDbEntity
8
1
62
256
6
ByLayer
370
13
48
1
60
0
100
AcDbSpline
70
4
71
3
72
22
73
18
40
0
40
0
40
0
40
0
40
0.0625000000000344
40
0.0625000000000344
40
0.0937500000000517
40
0.0937500000000517
40
0.125000000000069
40
0.125000000000069
40
0.156250000000086
40
0.156250000000086
40
0.171875000000095
40
0.171875000000095
40
0.187500000000103
40
0.187500000000103
40
0.250000000000094
40
0.500000000000055
40
1
40
1
40
1
40
1
41
1
10
322.078865173501
20
10.9273809479692
30
0
41
1
10
322.211923485958
20
11.0163669095016
30
0
41
1
10
322.352090061535
20
11.0902588436896
30
0
41
1
10
322.572701324787
20
11.1790948507585
30
0
41
1
10
322.648347691613
20
11.2051272353528
30
0
41
1
10
322.801480822443
20
11.2490641619557
30
0
41
1
10
322.878371817327
20
11.2668194727567
30
0
41
1
10
323.032773034724
20
11.2942885916615
30
0
41
1
10
323.110276154019
20
11.3040946446146
30
0
41
1
10
323.227003657231
20
11.3126634656702
30
0
41
1
10
323.265994495996
20
11.3144591313483
30
0
41
1
10
323.343938854903
20
11.3185350951437
30
0
41
1
10
323.382910396916
20
11.3205813550573
30
0
41
1
10
323.577769582563
20
11.3307934922499
30
0
41
1
10
324.357206325148
20
11.3716420410204
30
0
41
1
10
326.383741855871
20
11.4778482678238
30
0
41
1
10
328.254390038076
20
11.575884784873
30
0
41
1
10
329.501488826213
20
11.6412424629058
30
0
0
SPLINE
5
2A0
100
AcDbEntity
8
1
62
256
6
ByLayer
370
13
48
1
60
0
100
AcDbSpline
70
4
71
3
72
18
73
14
40
0
40
0
40
0
40
0
40
0.499999999999988
40
0.499999999999988
40
0.749999999999969
40
0.749999999999969
40
0.87499999999996
40
0.87499999999996
40
0.90624999999997
40
0.90624999999997
40
0.93749999999998
40
0.93749999999998
40
1
40
1
40
1
40
1
41
1
10
329.501488826214
20
11.6412424629059
30
0
41
1
10
330.631701020454
20
11.7004743741246
30
0
41
1
10
331.761913443815
20
11.7597012524743
30
0
41
1
10
333.457231781616
20
11.8485491766409
30
0
41
1
10
334.022337390054
20
11.8781776976101
30
0
41
1
10
334.869996628216
20
11.9225999361066
30
0
41
1
10
335.152550680093
20
11.9373831482007
30
0
41
1
10
335.505741377347
20
11.955908638977
30
0
41
1
10
335.576379002362
20
11.9596265390269
30
0
41
1
10
335.717656118226
20
11.9670159072646
30
0
41
1
10
335.788254549761
20
11.9717091496953
30
0
41
1
10
336.000523485942
20
11.9740021539038
30
0
41
1
10
336.142548097759
20
11.9627898447952
30
0
41
1
10
336.285133633641
20
11.9376187598382
30
0
0
SPLINE
5
2A1
100
AcDbEntity
8
1
62
256
6
ByLayer
370
13
48
1
60
0
100
AcDbSpline
70
4
71
3
72
10
73
6
40
0
40
0
40
0
40
0
40
0.5
40
0.5
40
1
40
1
40
1
40
1
41
1
10
336.247715829493
20
28.617348299733
30
0
41
1
10
336.243968284356
20
28.6171518992146
30
0
41
1
10
336.253714624294
20
28.6069766929901
30
0
41
1
10
336.293829011785
20
28.5734613095844
30
0
41
1
10
336.324274372972
20
28.5501571046432
30
0
41
1
10
336.356213601929
20
28.5272846397344
30
0
0
SPLINE
5
2A2
100
AcDbEntity
8
1
62
256
6
ByLayer
370
13
48
1
60
0
100
AcDbSpline
70
4
71
3
72
10
73
6
40
0
40
0
40
0
40
0
40
0.5
40
0.5
40
1
40
1
40
1
40
1
41
1
10
321.878223886348
20
10.5009384230025
30
0
41
1
10
321.87447634121
20
10.5007420224841
30
0
41
1
10
321.857399510896
20
10.5105330539868
30
0
41
1
10
321.80691688065
20
10.5435050608148
30
0
41
1
10
321.773471540526
20
10.566652043522
30
0
41
1
10
321.741532311568
20
10.5895245084307
30
0
0
SPLINE
5
2A3
100
AcDbEntity
8
1
62
256
6
ByLayer
370
13
48
1
60
0
100
AcDbSpline
70
4
71
1
72
4
73
2
40
0
40
0
40
1
40
1
41
1
10
319.194258582616
20
29.0352574611868
30
0
41
1
10
319.4015222825
20
28.7997449522981
30
0
0
SPLINE
5
2A4
100
AcDbEntity
8
1
62
256
6
ByLayer
370
13
48
1
60
0
100
AcDbSpline
70
4
71
3
72
9
73
5
40
0
40
0
40
0
40
0
40
0.806009473586846
40
1
40
1
40
1
40
1
41
1
10
337.257434069999
20
29.9819083752803
30
0
41
1
10
337.23823009862
20
29.981376830587
30
0
41
1
10
337.214418890825
20
29.9802872821243
30
0
41
1
10
337.190606729467
20
29.9792380039699
30
0
41
1
10
337.185987370756
20
29.979035509521
30
0
0
SPLINE
5
2A5
100
AcDbEntity
8
1
62
256
6
ByLayer
370
13
48
1
60
0
100
AcDbSpline
70
4
71
2
72
6
73
3
40
0
40
0
40
0
40
1
40
1
40
1
41
1
10
339.949929314873
20
20.1983910092021
30
0
41
0.997409491337352
10
339.950694565623
20
20.1407008948052
30
0
41
1
10
339.943210379185
20
20.0835013472034
30
0
0
SPLINE
5
2A6
100
AcDbEntity
8
1
62
256
6
ByLayer
370
13
48
1
60
0
100
AcDbSpline
70
4
71
2
72
6
73
3
40
0
40
0
40
0
40
1
40
1
40
1
41
1
10
339.949929314873
20
20.1983910092021
30
0
41
0.997409491337352
10
339.949164064123
20
20.2560811235999
30
0
41
1
10
339.940165214752
20
20.3130677794355
30
0
0
SPLINE
5
2A7
100
AcDbEntity
8
1
62
256
6
ByLayer
370
13
48
1
60
0
100
AcDbSpline
70
4
71
3
72
20
73
16
40
0
40
0
40
0
40
0
40
0.5
40
0.5
40
0.750000000000012
40
0.750000000000012
40
0.875000000000018
40
0.875000000000018
40
0.906250000000032
40
0.906250000000032
40
0.921875000000027
40
0.921875000000027
40
0.937500000000021
40
0.937500000000021
40
1
40
1
40
1
40
1
41
1
10
328.642177500723
20
27.6782477413508
30
0
41
1
10
327.519734204561
20
27.6194229808279
30
0
41
1
10
326.397290624053
20
27.5606030553336
30
0
41
1
10
324.713625717881
20
27.4723661521654
30
0
41
1
10
324.152404981479
20
27.4429421621262
30
0
41
1
10
323.310572529674
20
27.3988236938979
30
0
41
1
10
323.029960034859
20
27.3841393498933
30
0
41
1
10
322.6791972391
20
27.3657472173285
30
0
41
1
10
322.609045268928
20
27.3620611326907
30
0
41
1
10
322.50381653122
20
27.3565421794256
30
0
41
1
10
322.468739294765
20
27.3547154078696
30
0
41
1
10
322.39858592231
20
27.3510475562187
30
0
41
1
10
322.363530050724
20
27.3489429907315
30
0
41
1
10
322.187818291779
20
27.3440424012718
30
0
41
1
10
322.046188241718
20
27.3539128012415
30
0
41
1
10
321.903378384816
20
27.3791234863121
30
0
0
SPLINE
5
2A8
100
AcDbEntity
8
1
62
256
6
ByLayer
370
13
48
1
60
0
100
AcDbSpline
70
4
71
2
72
6
73
3
40
0
40
0
40
0
40
1
40
1
40
1
41
1
10
317.933997650062
20
18.7982358647665
30
0
41
0.997409491337352
10
317.925666371566
20
18.8509950210469
30
0
41
1
10
317.924957890198
20
18.9044054504952
30
0
0
SPLINE
5
2A9
100
AcDbEntity
8
1
62
256
6
ByLayer
370
13
48
1
60
0
100
AcDbSpline
70
4
71
3
72
22
73
18
40
0
40
0
40
0
40
0
40
0.0624999999999638
40
0.0624999999999638
40
0.093749999999946
40
0.093749999999946
40
0.124999999999928
40
0.124999999999928
40
0.15624999999991
40
0.15624999999991
40
0.171874999999901
40
0.171874999999901
40
0.187499999999893
40
0.187499999999893
40
0.249999999999901
40
0.499999999999934
40
1
40
1
40
1
40
1
41
1
10
336.094064212913
20
28.1933683990502
30
0
41
1
10
335.961005900456
20
28.1043824375178
30
0
41
1
10
335.820839324879
20
28.0304905033299
30
0
41
1
10
335.600228061627
20
27.941654496261
30
0
41
1
10
335.524581694802
20
27.9156221116667
30
0
41
1
10
335.371448563971
20
27.8716851850638
30
0
41
1
10
335.294557569087
20
27.8539298742627
30
0
41
1
10
335.14015635169
20
27.8264607553579
30
0
41
1
10
335.062653232396
20
27.816654702405
30
0
41
1
10
334.945925729183
20
27.8080858813492
30
0
41
1
10
334.906934890419
20
27.8062902156711
30
0
41
1
10
334.828990531511
20
27.8022142518758
30
0
41
1
10
334.790018989498
20
27.8001679919621
30
0
41
1
10
334.595159803851
20
27.7899558547695
30
0
41
1
10
333.815723061266
20
27.749107305999
30
0
41
1
10
331.789187530543
20
27.6429010791956
30
0
41
1
10
329.918539348338
20
27.5448645621464
30
0
41
1
10
328.671440560201
20
27.4795068841136
30
0
0
SPLINE
5
2AA
100
AcDbEntity
8
1
62
256
6
ByLayer
370
13
48
1
60
0
100
AcDbSpline
70
4
71
3
72
20
73
16
40
0
40
0
40
0
40
0
40
0.5
40
0.5
40
0.750000000000012
40
0.750000000000012
40
0.875000000000018
40
0.875000000000018
40
0.906250000000032
40
0.906250000000032
40
0.921875000000027
40
0.921875000000027
40
0.937500000000021
40
0.937500000000021
40
1
40
1
40
1
40
1
41
1
10
329.493160149233
20
11.4405315062414
30
0
41
1
10
330.615603445395
20
11.4993562667644
30
0
41
1
10
331.738047025903
20
11.5581761922587
30
0
41
1
10
333.421711932074
20
11.6464130954268
30
0
41
1
10
333.982932668475
20
11.675837085466
30
0
41
1
10
334.824765120281
20
11.7199555536943
30
0
41
1
10
335.105377615095
20
11.7346398976989
30
0
41
1
10
335.456140410854
20
11.7530320302637
30
0
41
1
10
335.526292381027
20
11.7567181149015
30
0
41
1
10
335.631521118735
20
11.7622370681666
30
0
41
1
10
335.66659835519
20
11.7640638397226
30
0
41
1
10
335.736751727644
20
11.7677316913735
30
0
41
1
10
335.771807599231
20
11.7698362568607
30
0
41
1
10
335.947519358176
20
11.7747368463203
30
0
41
1
10
336.089149408238
20
11.7648664463507
30
0
41
1
10
336.23195926514
20
11.7396557612802
30
0
0
SPLINE
5
2AB
100
AcDbEntity
8
1
62
256
6
ByLayer
370
13
48
1
60
0
100
AcDbSpline
70
4
71
1
72
4
73
2
40
0
40
0
40
1
40
1
41
1
10
319.615430367333
20
9.81170049563363
30
0
41
1
10
319.584703922022
20
9.81082101288106
30
0
0
SPLINE
5
2AC
100
AcDbEntity
8
1
62
256
6
ByLayer
370
13
48
1
60
0
100
AcDbSpline
70
4
71
3
72
8
73
4
40
0
40
0
40
0
40
0
40
1
40
1
40
1
40
1
41
1
10
338.099151700739
20
10.2803030594534
30
0
41
1
10
338.007159633021
20
10.2743789342293
30
0
41
1
10
337.918638184617
20
10.2721891078705
30
0
41
1
10
337.832443851762
20
10.2717954158477
30
0
0
SPLINE
5
2AD
100
AcDbEntity
8
1
62
256
6
ByLayer
370
13
48
1
60
0
100
AcDbSpline
70
4
71
3
72
28
73
24
40
0
40
0
40
0
40
0
40
0.124999999999898
40
0.124999999999898
40
0.249999999999796
40
0.249999999999796
40
0.374999999999694
40
0.374999999999694
40
0.499999999999592
40
0.499999999999592
40
0.62499999999949
40
0.62499999999949
40
0.687499999999439
40
0.687499999999439
40
0.749999999999388
40
0.749999999999388
40
0.781249999999464
40
0.781249999999464
40
0.812499999999541
40
0.812499999999541
40
0.874999999999694
40
0.874999999999694
40
1
40
1
40
1
40
1
41
1
10
338.737304815315
20
10.427357258533
30
0
41
1
10
338.718607248923
20
10.4166095408446
30
0
41
1
10
338.698778985871
20
10.4060011190906
30
0
41
1
10
338.656248346211
20
10.3851383513901
30
0
41
1
10
338.633349298499
20
10.3748194630379
30
0
41
1
10
338.584848893951
20
10.3552591221881
30
0
41
1
10
338.559217785604
20
10.3459602800569
30
0
41
1
10
338.504192918086
20
10.3286741044773
30
0
41
1
10
338.475164664655
20
10.3208815695448
30
0
41
1
10
338.415790725437
20
10.3081580748841
30
0
41
1
10
338.385541022067
20
10.3032568483684
30
0
41
1
10
338.342051050461
20
10.2986557256632
30
0
41
1
10
338.32769166557
20
10.2975432809831
30
0
41
1
10
338.299502478503
20
10.2957633341669
30
0
41
1
10
338.285546434423
20
10.2950113865878
30
0
41
1
10
338.265021582165
20
10.2942911325248
30
0
41
1
10
338.258147997223
20
10.2940192011295
30
0
41
1
10
338.243814828186
20
10.2928915538759
30
0
41
1
10
338.236398516221
20
10.2920772226144
30
0
41
1
10
338.213887857705
20
10.2893641378949
30
0
41
1
10
338.199078594612
20
10.2877565301796
30
0
41
1
10
338.15593917476
20
10.2842433894802
30
0
41
1
10
338.127396658903
20
10.2821219844244
30
0
41
1
10
338.099151700739
20
10.2803030594534
30
0
0
SPLINE
5
2AE
100
AcDbEntity
8
1
62
256
6
ByLayer
370
13
48
1
60
0
100
AcDbSpline
70
4
71
3
72
12
73
8
40
0
40
0
40
0
40
0
40
0.500000000000049
40
0.500000000000049
40
0.750000000000024
40
0.750000000000024
40
1
40
1
40
1
40
1
41
1
10
316.553942415444
20
8.91991752870592
30
0
41
1
10
316.718902244585
20
8.87318520764288
30
0
41
1
10
316.871875997796
20
8.83066480684707
30
0
41
1
10
317.083624992312
20
8.77310809378196
30
0
41
1
10
317.15152817257
20
8.7548909266452
30
0
41
1
10
317.279463851052
20
8.72108024063422
30
0
41
1
10
317.339391898877
20
8.70551126444468
30
0
41
1
10
317.395289564343
20
8.69127554254629
30
0
0
SPLINE
5
2AF
100
AcDbEntity
8
1
62
256
6
ByLayer
370
13
48
1
60
0
100
AcDbSpline
70
4
71
3
72
46
73
42
40
0
40
0
40
0
40
0
40
0.0624999999999996
40
0.0624999999999996
40
0.124999999999999
40
0.124999999999999
40
0.156249999999999
40
0.156249999999999
40
0.187499999999999
40
0.187499999999999
40
0.249999999999998
40
0.249999999999998
40
0.312499999999998
40
0.312499999999998
40
0.343749999999997
40
0.343749999999997
40
0.374999999999997
40
0.374999999999997
40
0.437499999999997
40
0.437499999999997
40
0.499999999999996
40
0.499999999999996
40
0.562499999999996
40
0.562499999999996
40
0.593749999999996
40
0.593749999999996
40
0.624999999999996
40
0.624999999999996
40
0.749999999999997
40
0.749999999999997
40
0.781249999999997
40
0.781249999999997
40
0.812499999999997
40
0.812499999999997
40
0.874999999999998
40
0.874999999999998
40
0.937499999999999
40
0.937499999999999
40
0.968749999999999
40
0.968749999999999
40
1
40
1
40
1
40
1
41
1
10
16.5477523470234
20
-12.123607217264
30
0
41
1
10
16.1467135617718
20
-12.1481634427322
30
0
41
1
10
15.7506411751502
20
-12.1946631331755
30
0
41
1
10
14.967474679095
20
-12.3272812019428
30
0
41
1
10
14.5803940570626
20
-12.4134591345266
30
0
41
1
10
14.0061856934083
20
-12.5709513018998
30
0
41
1
10
13.8158546672133
20
-12.6281658445454
30
0
41
1
10
13.4373219349518
20
-12.7519509684311
30
0
41
1
10
13.2488079831239
20
-12.8186414382954
30
0
41
1
10
12.6885385473961
20
-13.0319493864708
30
0
41
1
10
12.3257435642957
20
-13.1903269763671
30
0
41
1
10
11.6201520348527
20
-13.5366597681472
30
0
41
1
10
11.2772580907231
20
-13.7244647171473
30
0
41
1
10
10.7776725981827
20
-14.0275066252573
30
0
41
1
10
10.6136451071155
20
-14.1321400089801
30
0
41
1
10
10.2905719982272
20
-14.3485219121233
30
0
41
1
10
10.1311698797867
20
-14.4605325758534
30
0
41
1
10
9.66310576775878
20
-14.8054072172767
30
0
41
1
10
9.36647586233167
20
-15.0455767041505
30
0
41
1
10
8.80282152658286
20
-15.5446427428959
30
0
41
1
10
8.53591788420856
20
-15.8036347415943
30
0
41
1
10
8.0324217724996
20
-16.3399271899389
30
0
41
1
10
7.79580138624235
20
-16.6172100147263
30
0
41
1
10
7.46490279067001
20
-17.0469873973792
30
0
41
1
10
7.35874719866531
20
-17.1924660966917
30
0
41
1
10
7.15751994249925
20
-17.4839723249733
30
0
41
1
10
7.06205912826613
20
-17.6304917798865
30
0
41
1
10
6.6104133696203
20
-18.3666362806893
30
0
41
1
10
6.3299024234102
20
-18.9666150698818
30
0
41
1
10
6.09075990281454
20
-19.7287280061028
30
0
41
1
10
6.04842342922089
20
-19.8823959466308
30
0
41
1
10
5.97665336833124
20
-20.1868579515818
30
0
41
1
10
5.94704380487597
20
-20.3377961523891
30
0
41
1
10
5.87660134939884
20
-20.7867352069478
30
0
41
1
10
5.85416915553439
20
-21.0808639864732
30
0
41
1
10
5.85932545112445
20
-21.6587147164777
30
0
41
1
10
5.88673932518256
20
-21.9424379862776
30
0
41
1
10
5.96732269111685
20
-22.3600657872199
30
0
41
1
10
6.00071369681237
20
-22.4976009411534
30
0
41
1
10
6.07991859615674
20
-22.7668753470136
30
0
41
1
10
6.1258843186082
20
-22.8989707934426
30
0
41
1
10
6.17806571245129
20
-23.0286026718848
30
0
0
SPLINE
5
2B0
100
AcDbEntity
8
1
62
256
6
ByLayer
370
13
48
1
60
0
100
AcDbSpline
70
4
71
3
72
16
73
12
40
0
40
0
40
0
40
0
40
0.249999999999994
40
0.249999999999994
40
0.374999999999979
40
0.374999999999979
40
0.499999999999964
40
0.499999999999964
40
0.749999999999982
40
0.749999999999982
40
1
40
1
40
1
40
1
41
1
10
316.601869819814
20
11.2782096996515
30
0
41
1
10
316.600611207089
20
11.1644686034224
30
0
41
1
10
316.589884827431
20
11.0521949268462
30
0
41
1
10
316.557933332617
20
10.8862428693059
30
0
41
1
10
316.54462286539
20
10.8313377883186
30
0
41
1
10
316.512119236079
20
10.7224393917163
30
0
41
1
10
316.49290955976
20
10.668549142291
30
0
41
1
10
316.427130960134
20
10.5122331717539
30
0
41
1
10
316.372209611023
20
10.4138268685645
30
0
41
1
10
316.236218826206
20
10.2307258151345
30
0
41
1
10
316.157718895874
20
10.1497571172212
30
0
41
1
10
316.069151636708
20
10.0806920448813
30
0
0
SPLINE
5
2B1
100
AcDbEntity
8
1
62
256
6
ByLayer
370
13
48
1
60
0
100
AcDbSpline
70
4
71
3
72
42
73
38
40
0
40
0
40
0
40
0
40
0.0156250000000001
40
0.0156250000000001
40
0.0312500000000002
40
0.0312500000000002
40
0.0625000000000003
40
0.0625000000000003
40
0.0937500000000004
40
0.0937500000000004
40
0.125000000000001
40
0.125000000000001
40
0.187500000000001
40
0.187500000000001
40
0.25
40
0.25
40
0.375000000000001
40
0.375000000000001
40
0.500000000000001
40
0.500000000000001
40
0.625000000000001
40
0.625000000000001
40
0.750000000000001
40
0.750000000000001
40
0.812500000000001
40
0.812500000000001
40
0.875000000000001
40
0.875000000000001
40
0.906250000000001
40
0.906250000000001
40
0.937500000000001
40
0.937500000000001
40
0.968750000000001
40
0.968750000000001
40
0.984375
40
0.984375
40
1
40
1
40
1
40
1
41
1
10
10.1783
20
4.11914994909455
30
0
41
1
10
10.2221979737839
20
4.10147667909868
30
0
41
1
10
10.2622910753829
20
4.07812751118732
30
0
41
1
10
10.3374698126221
20
4.02395591050015
30
0
41
1
10
10.3727693990372
20
3.99279882865841
30
0
41
1
10
10.4709497988047
20
3.89313330312149
30
0
41
1
10
10.5263962904664
20
3.81912734609406
30
0
41
1
10
10.6266569915659
20
3.66304581491056
30
0
41
1
10
10.6710266685219
20
3.58099333480578
30
0
41
1
10
10.7508276091715
20
3.41507249881488
30
0
41
1
10
10.7865436878232
20
3.33059702278783
30
0
41
1
10
10.8848750217296
20
3.07394730579105
30
0
41
1
10
10.938823308541
20
2.89860285564271
30
0
41
1
10
11.0322526937368
20
2.54251171492336
30
0
41
1
10
11.0714878617691
20
2.36173913373239
30
0
41
1
10
11.1715884669277
20
1.82056225965238
30
0
41
1
10
11.2160110380153
20
1.45835680158325
30
0
41
1
10
11.2747099007364
20
0.731940752479943
30
0
41
1
10
11.2886424525564
20
0.367710271642011
30
0
41
1
10
11.2887741442847
20
-0.362619185198241
30
0
41
1
10
11.2749895538108
20
-0.728741813362205
30
0
41
1
10
11.2156148019891
20
-1.46299797470147
30
0
41
1
10
11.1705937332881
20
-1.82784775580322
30
0
41
1
10
11.0697057000519
20
-2.37038750939979
30
0
41
1
10
11.0305074004936
20
-2.54996801165447
30
0
41
1
10
10.9369171543115
20
-2.90503141533839
30
0
41
1
10
10.882458122453
20
-3.08120232660735
30
0
41
1
10
10.7837645297245
20
-3.33734805275779
30
0
41
1
10
10.7479859800116
20
-3.42144061545955
30
0
41
1
10
10.6683601099797
20
-3.5860447736668
30
0
41
1
10
10.6246057723128
20
-3.66659688343202
30
0
41
1
10
10.5242770100981
20
-3.82205353434645
30
0
41
1
10
10.4688002493472
20
-3.89566104445387
30
0
41
1
10
10.371059600057
20
-3.99435415774613
30
0
41
1
10
10.3360943950987
20
-4.02505148730262
30
0
41
1
10
10.2615532997663
20
-4.07855163443691
30
0
41
1
10
10.2218066917053
20
-4.1016342087803
30
0
41
1
10
10.1783000000002
20
-4.1191499490948
30
0
0
SPLINE
5
2B2
100
AcDbEntity
8
1
62
256
6
ByLayer
370
13
48
1
60
0
100
AcDbSpline
70
4
71
3
72
8
73
4
40
0
40
0
40
0
40
0
40
1
40
1
40
1
40
1
41
1
10
317.395289564343
20
8.69127554254629
30
0
41
1
10
317.500557483716
20
8.66102920677017
30
0
41
1
10
317.605615068095
20
8.63086348376234
30
0
41
1
10
317.710460043837
20
8.60077924491654
30
0
0
SPLINE
5
2B3
100
AcDbEntity
8
1
62
256
6
ByLayer
370
13
48
1
60
0
100
AcDbSpline
70
4
71
3
72
8
73
4
40
0
40
0
40
0
40
0
40
1
40
1
40
1
40
1
41
1
10
35
20
-10.5322019037422
30
0
41
1
10
34.0466664586569
20
-10.5322693209951
30
0
41
1
10
33.0938095766046
20
-10.5329229140906
30
0
41
1
10
32.1414284401661
20
-10.5341619167508
30
0
0
SPLINE
5
2B4
100
AcDbEntity
8
1
62
256
6
ByLayer
370
13
48
1
60
0
100
AcDbSpline
70
4
71
3
72
12
73
8
40
0
40
0
40
0
40
0
40
0.500000000000003
40
0.500000000000003
40
0.750000000000002
40
0.750000000000002
40
1
40
1
40
1
40
1
41
1
10
306.037072371379
20
28.5603709822072
30
0
41
1
10
306.951360483589
20
26.4700591751925
30
0
41
1
10
308.007229679395
20
24.4633186332146
30
0
41
1
10
309.872769320922
20
21.6195084347806
30
0
41
1
10
310.541650701609
20
20.6993350191972
30
0
41
1
10
311.984849209049
20
18.9212238939235
30
0
41
1
10
312.751386221504
20
18.0730471729748
30
0
41
1
10
313.563755417977
20
17.2667628254859
30
0
0
SPLINE
5
2B5
100
AcDbEntity
8
1
62
256
6
ByLayer
370
13
48
1
60
0
100
AcDbSpline
70
4
71
3
72
8
73
4
40
0
40
0
40
0
40
0
40
1
40
1
40
1
40
1
41
1
10
318.49854280623
20
21.5509369168999
30
0
41
1
10
318.486759801547
20
21.530312814292
30
0
41
1
10
318.474199875524
20
21.5115121490312
30
0
41
1
10
318.461358086286
20
21.4944475686785
30
0
0
SPLINE
5
2B6
100
AcDbEntity
8
1
62
256
6
ByLayer
370
13
48
1
60
0
100
AcDbSpline
70
4
71
3
72
14
73
10
40
0
40
0
40
0
40
0
40
0.5
40
0.5
40
0.625
40
0.625
40
0.75
40
0.75
40
1
40
1
40
1
40
1
41
1
10
316.601869819814
20
11.2782096996515
30
0
41
1
10
316.616419749228
20
11.6271838007733
30
0
41
1
10
316.597866035167
20
11.9737869584602
30
0
41
1
10
316.518461845811
20
12.4030148960641
30
0
41
1
10
316.499641552602
20
12.4889594766866
30
0
41
1
10
316.456103575767
20
12.6588126058626
30
0
41
1
10
316.431455768656
20
12.7425428427615
30
0
41
1
10
316.348508888394
20
12.9899920579498
30
0
41
1
10
316.281245857834
20
13.1499859560618
30
0
41
1
10
316.200651379799
20
13.3044398110358
30
0
0
SPLINE
5
2B7
100
AcDbEntity
8
1
62
256
6
ByLayer
370
13
48
1
60
0
100
AcDbSpline
70
4
71
3
72
8
73
4
40
0
40
0
40
0
40
0
40
1
40
1
40
1
40
1
41
1
10
316.539169144042
20
-29.0939713129759
30
0
41
1
10
315.539169143658
20
-28.9945329567502
30
0
41
1
10
314.539169143654
20
-28.895094596748
30
0
41
1
10
313.539169144042
20
-28.7956562328507
30
0
0
SPLINE
5
2B8
100
AcDbEntity
8
1
62
256
6
ByLayer
370
13
48
1
60
0
100
AcDbSpline
70
4
71
3
72
15
73
11
40
0
40
0
40
0
40
0
40
0.499999999999998
40
0.499999999999998
40
0.749999999999998
40
0.749999999999998
40
0.812499999999998
40
0.812499999999998
40
0.874999999999999
40
1
40
1
40
1
40
1
41
1
10
16.5477615047026
20
-30.3599783955507
30
0
41
1
10
18.5374170086336
20
-30.2171970315946
30
0
41
1
10
20.524724638306
20
-30.0540752275708
30
0
41
1
10
23.5021313199672
20
-29.7785963916363
30
0
41
1
10
24.4939708326728
20
-29.6816396717345
30
0
41
1
10
25.7331244842271
20
-29.5539730361197
30
0
41
1
10
25.9809705022644
20
-29.5286481098578
30
0
41
1
10
26.4768614657876
20
-29.4807100177615
30
0
41
1
10
27.2209209592502
20
-29.4118434515758
30
0
41
1
10
27.9656500412492
20
-29.3521046538736
30
0
41
1
10
28.4624342159499
20
-29.3163427332491
30
0
0
SPLINE
5
2B9
100
AcDbEntity
8
1
62
256
6
ByLayer
370
13
48
1
60
0
100
AcDbSpline
70
4
71
3
72
14
73
10
40
0
40
0
40
0
40
0
40
0.12500000000005
40
0.12500000000005
40
0.2500000000001
40
0.2500000000001
40
0.500000000000066
40
0.500000000000066
40
1
40
1
40
1
40
1
41
1
10
331.424967649591
20
11.2213340966182
30
0
41
1
10
331.465658114935
20
11.2234665935449
30
0
41
1
10
331.507114571246
20
11.226534988843
30
0
41
1
10
331.588916168713
20
11.2343908260738
30
0
41
1
10
331.629667993412
20
11.2391977551742
30
0
41
1
10
331.75154932817
20
11.2562450141862
30
0
41
1
10
331.832304212869
20
11.2711038272826
30
0
41
1
10
332.073641151445
20
11.3263577342955
30
0
41
1
10
332.233219567449
20
11.377229948037
30
0
41
1
10
332.393438565166
20
11.4445480773034
30
0
0
SPLINE
5
2BA
100
AcDbEntity
8
1
62
256
6
ByLayer
370
13
48
1
60
0
100
AcDbSpline
70
4
71
3
72
24
73
20
40
0
40
0
40
0
40
0
40
0.124999999999989
40
0.124999999999989
40
0.249999999999978
40
0.249999999999978
40
0.374999999999967
40
0.374999999999967
40
0.499999999999956
40
0.499999999999956
40
0.624999999999945
40
0.624999999999945
40
0.68749999999994
40
0.68749999999994
40
0.749999999999934
40
0.749999999999934
40
0.874999999999967
40
0.874999999999967
40
1
40
1
40
1
40
1
41
1
10
322.76854414633
20
9.46533581447457
30
0
41
1
10
322.647874541019
20
9.36968219093976
30
0
41
1
10
322.520289913449
20
9.28286065753966
30
0
41
1
10
322.252114252458
20
9.1286089467298
30
0
41
1
10
322.113975934332
20
9.06251807416248
30
0
41
1
10
321.829133499698
20
8.95158446653852
30
0
41
1
10
321.682046219437
20
8.90665875410812
30
0
41
1
10
321.38004818898
20
8.83922107801317
30
0
41
1
10
321.228125409137
20
8.8173190836832
30
0
41
1
10
320.922389134892
20
8.79624084049047
30
0
41
1
10
320.76857568002
20
8.79706578471186
30
0
41
1
10
320.53648474418
20
8.81584519925522
30
0
41
1
10
320.458773169932
20
8.82508720737823
30
0
41
1
10
320.305544477614
20
8.84916146971233
30
0
41
1
10
320.229702311492
20
8.86400800766714
30
0
41
1
10
320.004479409822
20
8.91682517980021
30
0
41
1
10
319.857385677806
20
8.96302164992971
30
0
41
1
10
319.569629179865
20
9.07782334707912
30
0
41
1
10
319.428669404933
20
9.14684364701304
30
0
41
1
10
319.295745705764
20
9.22512735882236
30
0
0
SPLINE
5
2BB
100
AcDbEntity
8
1
62
256
6
ByLayer
370
13
48
1
60
0
100
AcDbSpline
70
4
71
3
72
8
73
4
40
0
40
0
40
0
40
0
40
1
40
1
40
1
40
1
41
1
10
314.148479059774
20
2.55568034629854
30
0
41
1
10
314.27307424359
20
2.5184862314625
30
0
41
1
10
314.398249152172
20
2.48292599515716
30
0
41
1
10
314.524021966227
20
2.4490435723518
30
0
0
SPLINE
5
2BC
100
AcDbEntity
8
1
62
256
6
ByLayer
370
13
48
1
60
0
100
AcDbSpline
70
4
71
3
72
8
73
4
40
0
40
0
40
0
40
0
40
1
40
1
40
1
40
1
41
1
10
314.52505117671
20
2.44876635044008
30
0
41
1
10
314.819261775138
20
2.37476994499354
30
0
41
1
10
315.114898406258
20
2.31081348466734
30
0
41
1
10
315.411782163082
20
2.2565864744837
30
0
0
SPLINE
5
2BD
100
AcDbEntity
8
1
62
256
6
ByLayer
370
13
48
1
60
0
100
AcDbSpline
70
4
71
3
72
8
73
4
40
0
40
0
40
0
40
0
40
1
40
1
40
1
40
1
41
1
10
35.0099999999995
20
-28.4666770330948
30
0
41
1
10
34.0538094789467
20
-28.4666065512789
30
0
41
1
10
33.0976189579189
20
-28.4665358201223
30
0
41
1
10
32.1414284368786
20
-28.466465214163
30
0
0
SPLINE
5
2BE
100
AcDbEntity
8
1
62
256
6
ByLayer
370
13
48
1
60
0
100
AcDbSpline
70
4
71
3
72
10
73
6
40
0
40
0
40
0
40
0
40
0.48768339439087
40
0.48768339439087
40
1
40
1
40
1
40
1
41
1
10
35.45
20
-28.4529508299221
30
0
41
1
10
35.45
20
-26.4943329626194
30
0
41
1
10
35.45
20
-24.5357150955158
30
0
41
1
10
35.45
20
-20.5195482761577
30
0
41
1
10
35.45
20
-18.4619993239237
30
0
41
1
10
35.45
20
-16.4044503719096
30
0
0
SPLINE
5
2BF
100
AcDbEntity
8
1
62
256
6
ByLayer
370
13
48
1
60
0
100
AcDbSpline
70
4
71
3
72
16
73
12
40
0
40
0
40
0
40
0
40
0.25
40
0.25
40
0.374999999999993
40
0.374999999999993
40
0.499999999999986
40
0.499999999999986
40
0.749999999999993
40
0.749999999999993
40
1
40
1
40
1
40
1
41
1
10
337.683134311846
20
0.688905583987179
30
0
41
1
10
337.68439233542
20
0.737269191489162
30
0
41
1
10
337.686503744615
20
0.782904045732721
30
0
41
1
10
337.690744340213
20
0.842521203296741
30
0
41
1
10
337.692332457138
20
0.860971549656824
30
0
41
1
10
337.69586199763
20
0.894994470382613
30
0
41
1
10
337.697820521286
20
0.910648136051577
30
0
41
1
10
337.704051536752
20
0.951657864707215
30
0
41
1
10
337.708771541792
20
0.97186096208199
30
0
41
1
10
337.718987153635
20
0.995999393110935
30
0
41
1
10
337.724331783035
20
0.999821819706483
30
0
41
1
10
337.729920957245
20
0.99512858123029
30
0
0
SPLINE
5
2C0
100
AcDbEntity
8
1
62
256
6
ByLayer
370
13
48
1
60
0
100
AcDbSpline
70
4
71
3
72
16
73
12
40
0
40
0
40
0
40
0
40
0.125
40
0.125
40
0.25
40
0.25
40
0.5
40
0.5
40
0.75
40
0.75
40
1
40
1
40
1
40
1
41
1
10
157
20
-28.8252805161912
30
0
41
1
10
152.125011703822
20
-28.8388447465433
30
0
41
1
10
147.250011013245
20
-28.851807955777
30
0
41
1
10
137.500010249558
20
-28.8774963735631
30
0
41
1
10
132.625009264192
20
-28.8902723993356
30
0
41
1
10
118.000006288171
20
-28.928597057192
30
0
41
1
10
108.250004028377
20
-28.9541155655388
30
0
41
1
10
88.7500024335368
20
-29.0054600064018
30
0
41
1
10
79.0000025445561
20
-29.0312248274231
30
0
41
1
10
59.5000014603936
20
-29.0826151605313
30
0
41
1
10
49.7500003905752
20
-29.1082553221513
30
0
41
1
10
39.9999999999999
20
-29.1339594993755
30
0
0
SPLINE
5
2C1
100
AcDbEntity
8
1
62
256
6
ByLayer
370
13
48
1
60
0
100
AcDbSpline
70
4
71
3
72
19
73
15
40
0
40
0
40
0
40
0
40
0.25
40
0.25
40
0.375
40
0.375
40
0.5
40
0.5
40
0.625
40
0.625
40
0.75
40
0.875
40
0.875
40
1
40
1
40
1
40
1
41
1
10
35.0050000318131
20
-16.4086858048023
30
0
41
1
10
32.9335339777322
20
-16.7872075984809
30
0
41
1
10
30.8722144291125
20
-17.390572901341
30
0
41
1
10
27.9436928632687
20
-18.6293094789978
30
0
41
1
10
26.9949287488369
20
-19.0985757154826
30
0
41
1
10
25.1755150465596
20
-20.1421541284811
30
0
41
1
10
24.3047091457066
20
-20.7157071763247
30
0
41
1
10
22.6629704471941
20
-21.9527352646434
30
0
41
1
10
21.8920511261958
20
-22.6162188801958
30
0
41
1
10
20.4721015784611
20
-24.0194672844756
30
0
41
1
10
19.1734840628473
20
-25.4986424080546
30
0
41
1
10
18.1351399886245
20
-27.085576841996
30
0
41
1
10
17.235737323802
20
-28.704343867484
30
0
41
1
10
16.8565533541594
20
-29.52953645663
30
0
41
1
10
16.5477615047026
20
-30.3599783955506
30
0
0
SPLINE
5
2C2
100
AcDbEntity
8
1
62
256
6
ByLayer
370
13
48
1
60
0
100
AcDbSpline
70
4
71
3
72
8
73
4
40
0
40
0
40
0
40
0
40
1
40
1
40
1
40
1
41
1
10
1.42E-14
20
4.97594212184995
30
0
41
1
10
0.031571657597965
20
5.1735845200318
30
0
41
1
10
0.0649171506606621
20
5.37085605809409
30
0
41
1
10
0.0999999999999801
20
5.56776436282993
30
0
0
SPLINE
5
2C3
100
AcDbEntity
8
1
62
256
6
ByLayer
370
13
48
1
60
0
100
AcDbSpline
70
4
71
3
72
8
73
4
40
0
40
0
40
0
40
0
40
1
40
1
40
1
40
1
41
1
10
312.263694124463
20
10.3498961039664
30
0
41
1
10
312.35048653411
20
10.6540366560174
30
0
41
1
10
312.430728124554
20
10.9592608826283
30
0
41
1
10
312.507194035383
20
11.2651097040909
30
0
0
SPLINE
5
2C4
100
AcDbEntity
8
1
62
256
6
ByLayer
370
13
48
1
60
0
100
AcDbSpline
70
4
71
3
72
8
73
4
40
0
40
0
40
0
40
0
40
1
40
1
40
1
40
1
41
1
10
337.684032732152
20
0.532594735062418
30
0
41
1
10
337.682118008563
20
0.586172706540253
30
0
41
1
10
337.681852173626
20
0.639614910182047
30
0
41
1
10
337.683134311846
20
0.688905583987179
30
0
0
SPLINE
5
2C5
100
AcDbEntity
8
1
62
256
6
ByLayer
370
13
48
1
60
0
100
AcDbSpline
70
4
71
3
72
14
73
10
40
0
40
0
40
0
40
0
40
0.500000000000004
40
0.500000000000004
40
0.625000000000004
40
0.625000000000004
40
0.750000000000003
40
0.750000000000003
40
1
40
1
40
1
40
1
41
1
10
28.4651511133679
20
-11.2329872720649
30
0
41
1
10
29.0445976933233
20
-11.0053392721393
30
0
41
1
10
29.6434483944314
20
-10.8314330968059
30
0
41
1
10
30.4168230198203
20
-10.6837263166833
30
0
41
1
10
30.5728626452213
20
-10.6576971527215
30
0
41
1
10
30.8849391636769
20
-10.6131412963962
30
0
41
1
10
31.041281019388
20
-10.594549159013
30
0
41
1
10
31.5112139891658
20
-10.5497755737436
30
0
41
1
10
31.8257106592541
20
-10.5345726506004
30
0
41
1
10
32.1414284401662
20
-10.5341619167508
30
0
0
SPLINE
5
2C6
100
AcDbEntity
8
1
62
256
6
ByLayer
370
13
48
1
60
0
100
AcDbSpline
70
4
71
3
72
64
73
60
40
0
40
0
40
0
40
0
40
0.0312500000000011
40
0.0312500000000011
40
0.0468750000000016
40
0.0468750000000016
40
0.0625000000000022
40
0.0625000000000022
40
0.0937500000000044
40
0.0937500000000044
40
0.109375000000005
40
0.109375000000005
40
0.117187500000006
40
0.117187500000006
40
0.125000000000007
40
0.125000000000007
40
0.156250000000006
40
0.156250000000006
40
0.187500000000005
40
0.187500000000005
40
0.218750000000004
40
0.218750000000004
40
0.250000000000003
40
0.250000000000003
40
0.281250000000002
40
0.281250000000002
40
0.312500000000001
40
0.312500000000001
40
0.375
40
0.375
40
0.4375
40
0.4375
40
0.5
40
0.5
40
0.562499999999999
40
0.562499999999999
40
0.624999999999999
40
0.624999999999999
40
0.656249999999999
40
0.656249999999999
40
0.687499999999999
40
0.687499999999999
40
0.718749999999999
40
0.718749999999999
40
0.749999999999999
40
0.749999999999999
40
0.781249999999999
40
0.781249999999999
40
0.812499999999999
40
0.812499999999999
40
0.84375
40
0.84375
40
0.875
40
0.875
40
0.90625
40
0.90625
40
0.9375
40
0.9375
40
1
40
1
40
1
40
1
41
1
10
298.476038365268
20
-28.7956562328507
30
0
41
1
10
296.954825505916
20
-28.7780688301104
30
0
41
1
10
295.431057768164
20
-28.7616291233328
30
0
41
1
10
293.146772381867
20
-28.7338513860614
30
0
41
1
10
292.385552911051
20
-28.7240648505713
30
0
41
1
10
290.864655883347
20
-28.7019109969787
30
0
41
1
10
290.104672856865
20
-28.6895334325504
30
0
41
1
10
287.832252739685
20
-28.6455027817702
30
0
41
1
10
286.326872046807
20
-28.6076979734369
30
0
41
1
10
284.098090854796
20
-28.5167317212869
30
0
41
1
10
283.358592698439
20
-28.4804519048425
30
0
41
1
10
282.268551764598
20
-28.413628486846
30
0
41
1
10
281.90799660112
20
-28.3893348958188
30
0
41
1
10
281.195185471134
20
-28.3347033620808
30
0
41
1
10
280.843476155113
20
-28.3040272564859
30
0
41
1
10
279.089804754994
20
-28.1420453863006
30
0
41
1
10
277.695033296575
20
-27.9890319248325
30
0
41
1
10
274.901426018241
20
-27.6468604512352
30
0
41
1
10
273.502620748455
20
-27.4583175545376
30
0
41
1
10
270.705697471657
20
-27.0437105499842
30
0
41
1
10
269.307841547367
20
-26.8176067269753
30
0
41
1
10
266.513992133099
20
-26.3288697026881
30
0
41
1
10
265.117731446504
20
-26.0661844323961
30
0
41
1
10
262.325228324086
20
-25.5052552687718
30
0
41
1
10
260.928820084666
20
-25.2070868383267
30
0
41
1
10
258.12999622326
20
-24.5824804806966
30
0
41
1
10
256.728287617469
20
-24.256254496535
30
0
41
1
10
252.511759457166
20
-23.249863401204
30
0
41
1
10
249.684915041389
20
-22.5409287718401
30
0
41
1
10
243.983484589673
20
-21.0977443440219
30
0
41
1
10
241.114789903154
20
-20.364396343849
30
0
41
1
10
235.338195007248
20
-18.9107468283636
30
0
41
1
10
232.42785864395
20
-18.1908007144984
30
0
41
1
10
226.56947916858
20
-16.8204789638623
30
0
41
1
10
223.620424871881
20
-16.1681177678478
30
0
41
1
10
217.684739791104
20
-14.9483905508159
30
0
41
1
10
214.70276194689
20
-14.3820435970585
30
0
41
1
10
210.208007263953
20
-13.610648301566
30
0
41
1
10
208.705817005938
20
-13.3663385004246
30
0
41
1
10
205.695866867081
20
-12.9046107002813
30
0
41
1
10
204.189026976428
20
-12.6873248587848
30
0
41
1
10
201.171663536762
20
-12.2805851290171
30
0
41
1
10
199.661140091013
20
-12.0911297265115
30
0
41
1
10
196.636434552843
20
-11.7407347944783
30
0
41
1
10
195.122281934168
20
-11.5795499201914
30
0
41
1
10
192.090150954767
20
-11.2878274088698
30
0
41
1
10
190.572138423185
20
-11.1575719213256
30
0
41
1
10
187.531692100087
20
-10.9333342260763
30
0
41
1
10
186.00920027215
20
-10.8398418314217
30
0
41
1
10
182.959596362452
20
-10.6913385641859
30
0
41
1
10
181.432281153064
20
-10.6364062611195
30
0
41
1
10
178.378728397548
20
-10.5582629605388
30
0
41
1
10
176.851832444816
20
-10.5347165249063
30
0
41
1
10
173.797897946485
20
-10.5061920514206
30
0
41
1
10
172.270862787026
20
-10.5007695839573
30
0
41
1
10
169.216741549999
20
-10.4965589090865
30
0
41
1
10
167.689657919934
20
-10.4974508508224
30
0
41
1
10
163.108391110896
20
-10.5022000686176
30
0
41
1
10
160.0541859311
20
-10.5089223826843
30
0
41
1
10
157
20
-10.5131372701092
30
0
0
SPLINE
5
2C7
100
AcDbEntity
8
1
62
256
6
ByLayer
370
13
48
1
60
0
100
AcDbSpline
70
4
71
3
72
8
73
4
40
0
40
0
40
0
40
0
40
1
40
1
40
1
40
1
41
1
10
327.085172465964
20
11.1941695377007
30
0
41
1
10
327.141760801968
20
11.1971352067239
30
0
41
1
10
327.198283604011
20
11.1903057017786
30
0
41
1
10
327.252115878552
20
11.1751027727203
30
0
0
SPLINE
5
2C8
100
AcDbEntity
8
1
62
256
6
ByLayer
370
13
48
1
60
0
100
AcDbSpline
70
4
71
3
72
10
73
6
40
0
40
0
40
0
40
0
40
0.5
40
0.5
40
1
40
1
40
1
40
1
41
1
10
336.536892609688
20
-5.50854819656726
30
0
41
1
10
336.591454016047
20
-5.8026963922367
30
0
41
1
10
336.625105957053
20
-6.09678597863751
30
0
41
1
10
336.652626620107
20
-6.6847209103216
30
0
41
1
10
336.646491766035
20
-6.978566558106
30
0
41
1
10
336.62022627764
20
-7.27228071687813
30
0
0
SPLINE
5
2C9
100
AcDbEntity
8
1
62
256
6
ByLayer
370
13
48
1
60
0
100
AcDbSpline
70
4
71
3
72
8
73
4
40
0
40
0
40
0
40
0
40
1
40
1
40
1
40
1
41
1
10
40
20
-10.5320546875796
30
0
41
1
10
38.3333333325595
20
-10.5320419163541
30
0
41
1
10
36.6666666627084
20
-10.5320840414381
30
0
41
1
10
35
20
-10.5322019037423
30
0
0
SPLINE
5
2CA
100
AcDbEntity
8
1
62
256
6
ByLayer
370
13
48
1
60
0
100
AcDbSpline
70
4
71
3
72
18
73
14
40
0
40
0
40
0
40
0
40
0.250000000000032
40
0.250000000000032
40
0.375000000000026
40
0.375000000000026
40
0.500000000000021
40
0.500000000000021
40
0.75000000000001
40
0.75000000000001
40
0.875000000000005
40
0.875000000000005
40
1
40
1
40
1
40
1
41
1
10
323.752959616462
20
10.8192611929603
30
0
41
1
10
323.747539013916
20
10.8189771112235
30
0
41
1
10
323.74870306217
20
10.8292301523673
30
0
41
1
10
323.763828497669
20
10.8576408137644
30
0
41
1
10
323.771142838907
20
10.8691428336024
30
0
41
1
10
323.791002901156
20
10.8946366110199
30
0
41
1
10
323.803815423087
20
10.9088792377051
30
0
41
1
10
323.849796732582
20
10.9513405971263
30
0
41
1
10
323.89193227746
20
10.9800305764562
30
0
41
1
10
323.965166391344
20
11.011213284092
30
0
41
1
10
323.991663651511
20
11.0198906486572
30
0
41
1
10
324.045785704977
20
11.0323714118678
30
0
41
1
10
324.073642941838
20
11.0363260643088
30
0
41
1
10
324.102306336354
20
11.037844110174
30
0
0
SPLINE
5
2CB
100
AcDbEntity
8
1
62
256
6
ByLayer
370
13
48
1
60
0
100
AcDbSpline
70
2053
71
3
72
96
73
92
40
0
40
0
40
0
40
0
40
0.0312499999999875
40
0.0312499999999875
40
0.0468749999999873
40
0.0468749999999873
40
0.0624999999999871
40
0.0624999999999871
40
0.0937499999999867
40
0.0937499999999867
40
0.109374999999981
40
0.109374999999981
40
0.124999999999976
40
0.140624999999971
40
0.140624999999971
40
0.156249999999966
40
0.156249999999966
40
0.187499999999961
40
0.187499999999961
40
0.203124999999961
40
0.203124999999961
40
0.218749999999961
40
0.218749999999961
40
0.249999999999961
40
0.249999999999961
40
0.265624999999961
40
0.265624999999961
40
0.281249999999961
40
0.281249999999961
40
0.312499999999963
40
0.312499999999963
40
0.328124999999966
40
0.328124999999966
40
0.34374999999997
40
0.34374999999997
40
0.374999999999976
40
0.374999999999976
40
0.406249999999982
40
0.406249999999982
40
0.421874999999986
40
0.421874999999986
40
0.437499999999989
40
0.437499999999989
40
0.468749999999984
40
0.468749999999984
40
0.484374999999988
40
0.484374999999988
40
0.499999999999992
40
0.499999999999992
40
0.531250000000011
40
0.531250000000011
40
0.546875000000015
40
0.546875000000015
40
0.562500000000019
40
0.578125000000023
40
0.578125000000023
40
0.593750000000027
40
0.593750000000027
40
0.625000000000035
40
0.625000000000035
40
0.640625000000035
40
0.640625000000035
40
0.656250000000034
40
0.656250000000034
40
0.687500000000034
40
0.687500000000034
40
0.718750000000034
40
0.718750000000034
40
0.734375000000033
40
0.734375000000033
40
0.750000000000032
40
0.750000000000032
40
0.781250000000029
40
0.781250000000029
40
0.796875000000029
40
0.796875000000029
40
0.812500000000029
40
0.812500000000029
40
0.843750000000024
40
0.843750000000024
40
0.87500000000002
40
0.87500000000002
40
0.906250000000015
40
0.906250000000015
40
0.921875000000012
40
0.921875000000012
40
0.93750000000001
40
0.93750000000001
40
0.968750000000005
40
0.968750000000005
40
1
40
1
40
1
40
1
41
1
10
328.798361855951
20
-3.9932388386752
30
0
41
1
10
328.940898857976
20
-3.99323883867521
30
0
41
1
10
329.080904206385
20
-4.00789544875329
30
0
41
1
10
329.287277372495
20
-4.05091049255634
30
0
41
1
10
329.355457782495
20
-4.06878159404309
30
0
41
1
10
329.490566919363
20
-4.11175961399061
30
0
41
1
10
329.557304764137
20
-4.13685815104026
30
0
41
1
10
329.751076624033
20
-4.22122353683355
30
0
41
1
10
329.873269673545
20
-4.28992760025173
30
0
41
1
10
330.046153106344
20
-4.41147964720059
30
0
41
1
10
330.102271328047
20
-4.45534273445281
30
0
41
1
10
330.208715810219
20
-4.54752367377685
30
0
41
1
10
330.309841217199
20
-4.64440986403534
30
0
41
1
10
330.400644571623
20
-4.75040213678574
30
0
41
1
10
330.486295856135
20
-4.86092715398914
30
0
41
1
10
330.526697244873
20
-4.91870307882618
30
0
41
1
10
330.638897553874
20
-5.09725591401502
30
0
41
1
10
330.700919053678
20
-5.22160451153087
30
0
41
1
10
330.775800376442
20
-5.41560786145874
30
0
41
1
10
330.797713587135
20
-5.48153179106606
30
0
41
1
10
330.835359619968
20
-5.61591857795173
30
0
41
1
10
330.850981451091
20
-5.68411250440161
30
0
41
1
10
330.887803403637
20
-5.88844233736691
30
0
41
1
10
330.899407317403
20
-6.02554376365308
30
0
41
1
10
330.897729429571
20
-6.23247602974885
30
0
41
1
10
330.893928386997
20
-6.30199722765093
30
0
41
1
10
330.87991009577
20
-6.43976190428563
30
0
41
1
10
330.86974809347
20
-6.50782925011319
30
0
41
1
10
330.830074344019
20
-6.70966252864162
30
0
41
1
10
330.791460524288
20
-6.841080181775
30
0
41
1
10
330.714808333295
20
-7.03342710708563
30
0
41
1
10
330.686013710839
20
-7.09685988074125
30
0
41
1
10
330.623217048546
20
-7.21953054995171
30
0
41
1
10
330.589102819022
20
-7.279094610718
30
0
41
1
10
330.478674703067
20
-7.45253763148168
30
0
41
1
10
330.394362336986
20
-7.56122235770084
30
0
41
1
10
330.202735794864
20
-7.76381086171608
30
0
41
1
10
330.097729430742
20
-7.85508792594649
30
0
41
1
10
329.928528717073
20
-7.97522168290507
30
0
41
1
10
329.870061164838
20
-8.01256118611747
30
0
41
1
10
329.748829497245
20
-8.08163844090612
30
0
41
1
10
329.685690769667
20
-8.11353604368986
30
0
41
1
10
329.492184163384
20
-8.19905006388936
30
0
41
1
10
329.359117903746
20
-8.24219394041756
30
0
41
1
10
329.153421025974
20
-8.28617944335957
30
0
41
1
10
329.083831964022
20
-8.29736123808547
30
0
41
1
10
328.942512408741
20
-8.31245100308621
30
0
41
1
10
328.871361706913
20
-8.31625594268678
30
0
41
1
10
328.659867877907
20
-8.31651759917392
30
0
41
1
10
328.52008510783
20
-8.3020921464819
30
0
41
1
10
328.312241857406
20
-8.25838879029061
30
0
41
1
10
328.243309506042
20
-8.24006486354068
30
0
41
1
10
328.109341145604
20
-8.1969383469405
30
0
41
1
10
327.978407055382
20
-8.14717974250306
30
0
41
1
10
327.853361447102
20
-8.08451996425657
30
0
41
1
10
327.731258239167
20
-8.01539496212823
30
0
41
1
10
327.671561908163
20
-7.9774701215882
30
0
41
1
10
327.500601534342
20
-7.85650312004381
30
0
41
1
10
327.396076333359
20
-7.76568538039973
30
0
41
1
10
327.252837699261
20
-7.61474661905314
30
0
41
1
10
327.207163647073
20
-7.56167975926604
30
0
41
1
10
327.121816099503
20
-7.45228919226719
30
0
41
1
10
327.08205815604
20
-7.39593441257961
30
0
41
1
10
326.971207828234
20
-7.22204965410657
30
0
41
1
10
326.908460275647
20
-7.09974360416857
30
0
41
1
10
326.805548576009
20
-6.84208653932265
30
0
41
1
10
326.766750323397
20
-6.71002236735143
30
0
41
1
10
326.727064482067
20
-6.50835780138641
30
0
41
1
10
326.716918852991
20
-6.44047502854903
30
0
41
1
10
326.702901773315
20
-6.30335961543673
30
0
41
1
10
326.699034684556
20
-6.23377177881989
30
0
41
1
10
326.697259381455
20
-6.02581093197341
30
0
41
1
10
326.708931368226
20
-5.8886902609041
30
0
41
1
10
326.745503832133
20
-5.68528239890782
30
0
41
1
10
326.760893203776
20
-5.61786146155393
30
0
41
1
10
326.798298683657
20
-5.48381765921079
30
0
41
1
10
326.820426835631
20
-5.41699775758306
30
0
41
1
10
326.89554649142
20
-5.22206881918547
30
0
41
1
10
326.957482147354
20
-5.09808717271056
30
0
41
1
10
327.105308576553
20
-4.86227686553866
30
0
41
1
10
327.192363979389
20
-4.74946614145148
30
0
41
1
10
327.384549347
20
-4.54603603512956
30
0
41
1
10
327.48996447484
20
-4.45442039395326
30
0
41
1
10
327.662467167037
20
-4.33264881207123
30
0
41
1
10
327.722755506558
20
-4.2944973194594
30
0
41
1
10
327.84589225762
20
-4.22512586147951
30
0
41
1
10
327.908835662013
20
-4.19378146794716
30
0
41
1
10
328.101714418223
20
-4.10959974845932
30
0
41
1
10
328.235778379837
20
-4.06648358924031
30
0
41
1
10
328.514709566226
20
-4.0079131914182
30
0
41
1
10
328.655824853925
20
-3.99323883867518
30
0
41
1
10
328.798361855951
20
-3.9932388386752
30
0
0
SPLINE
5
2CC
100
AcDbEntity
8
1
62
256
6
ByLayer
370
13
48
1
60
0
100
AcDbSpline
70
4
71
3
72
18
73
14
40
0
40
0
40
0
40
0
40
0.250000000000007
40
0.250000000000007
40
0.500000000000014
40
0.500000000000014
40
0.62500000000001
40
0.62500000000001
40
0.750000000000007
40
0.750000000000007
40
0.875000000000004
40
0.875000000000004
40
1
40
1
40
1
40
1
41
1
10
312.509231750606
20
11.2724115256127
30
0
41
1
10
312.550672100217
20
11.4069018162442
30
0
41
1
10
312.588933002049
20
11.5553499405961
30
0
41
1
10
312.663050676244
20
11.8803252414663
30
0
41
1
10
312.697216658557
20
12.0499575529383
30
0
41
1
10
312.746622421179
20
12.3134132421388
30
0
41
1
10
312.762880767754
20
12.4033486872606
30
0
41
1
10
312.794520764044
20
12.5812794259498
30
0
41
1
10
312.809988119834
20
12.6697715087154
30
0
41
1
10
312.841242404762
20
12.8456317067007
30
0
41
1
10
312.857003532435
20
12.9330933246667
30
0
41
1
10
312.890776027314
20
13.1061274149793
30
0
41
1
10
312.908326707757
20
13.1900607351835
30
0
41
1
10
312.929133099587
20
13.2707814941445
30
0
0
SPLINE
5
2CD
100
AcDbEntity
8
1
62
256
6
ByLayer
370
13
48
1
60
0
100
AcDbSpline
70
4
71
1
72
4
73
2
40
0
40
0
40
1
40
1
41
1
10
35.0100000001504
20
-28.452919680087
30
0
41
1
10
35.0099999998495
20
-28.4666770330771
30
0
0
SPLINE
5
2CE
100
AcDbEntity
8
1
62
256
6
ByLayer
370
13
48
1
60
0
100
AcDbSpline
70
4
71
3
72
8
73
4
40
0
40
0
40
0
40
0
40
1
40
1
40
1
40
1
41
1
10
311.490007686765
20
1.20982407968418
30
0
41
1
10
312.134044705871
20
0.809610997067864
30
0
41
1
10
312.815558580858
20
0.490081890872659
30
0
41
1
10
313.539169144042
20
0.261426929553522
30
0
0
SPLINE
5
2CF
100
AcDbEntity
8
1
62
256
6
ByLayer
370
13
48
1
60
0
100
AcDbSpline
70
4
71
3
72
14
73
10
40
0
40
0
40
0
40
0
40
0.499999999999956
40
0.499999999999956
40
0.749999999999956
40
0.749999999999956
40
0.874999999999978
40
0.874999999999978
40
1
40
1
40
1
40
1
41
1
10
311.270749932568
20
2.50960283056205
30
0
41
1
10
311.751798535527
20
2.39855624714391
30
0
41
1
10
312.235448786855
20
2.34709019972311
30
0
41
1
10
312.959658378458
20
2.35812471227035
30
0
41
1
10
313.200835462413
20
2.37660917891444
30
0
41
1
10
313.561382404851
20
2.42729131727933
30
0
41
1
10
313.680905075871
20
2.44797295425647
30
0
41
1
10
313.916734302207
20
2.49646575900317
30
0
41
1
10
314.033309327642
20
2.52431298261081
30
0
41
1
10
314.148479059774
20
2.5556803462986
30
0
0
SPLINE
5
2D0
100
AcDbEntity
8
1
62
256
6
ByLayer
370
13
48
1
60
0
100
AcDbSpline
70
4
71
3
72
20
73
16
40
0
40
0
40
0
40
0
40
0.125
40
0.125
40
0.25
40
0.25
40
0.375
40
0.375
40
0.5
40
0.5
40
0.625
40
0.625
40
0.75
40
0.75
40
1
40
1
40
1
40
1
41
1
10
317.395289564343
20
8.69127554254629
30
0
41
1
10
317.353866183343
20
8.63368472378804
30
0
41
1
10
317.309007328117
20
8.57914870006181
30
0
41
1
10
317.211130528923
20
8.47738794172506
30
0
41
1
10
317.157623856702
20
8.42989106883144
30
0
41
1
10
317.044820242662
20
8.34755759613228
30
0
41
1
10
316.985224147795
20
8.31226734678791
30
0
41
1
10
316.858431020879
20
8.25586549501685
30
0
41
1
10
316.793741372852
20
8.23595157222314
30
0
41
1
10
316.662527036601
20
8.21290346263908
30
0
41
1
10
316.59507225244
20
8.20992729627054
30
0
41
1
10
316.464411562332
20
8.22007383401436
30
0
41
1
10
316.400472112498
20
8.23295631685539
30
0
41
1
10
316.213844303766
20
8.29005748169249
30
0
41
1
10
316.100938131271
20
8.35027341350957
30
0
41
1
10
315.993322025258
20
8.42139474828591
30
0
0
SPLINE
5
2D1
100
AcDbEntity
8
1
62
256
6
ByLayer
370
13
48
1
60
0
100
AcDbSpline
70
4
71
3
72
8
73
4
40
0
40
0
40
0
40
0
40
1
40
1
40
1
40
1
41
1
10
313.539169144042
20
28.7530005133328
30
0
41
1
10
314.539103982505
20
28.8648123474705
30
0
41
1
10
315.539105061016
20
28.9760304695932
30
0
41
1
10
316.539169144042
20
29.0866748423295
30
0
0
SPLINE
5
2D2
100
AcDbEntity
8
1
62
256
6
ByLayer
370
13
48
1
60
0
100
AcDbSpline
70
4
71
3
72
12
73
8
40
0
40
0
40
0
40
0
40
0.499999999999999
40
0.499999999999999
40
0.749999999999999
40
0.749999999999999
40
1
40
1
40
1
40
1
41
1
10
32.1414284371486
20
-29.1828621970915
30
0
41
1
10
31.508157900714
20
-29.2045194415875
30
0
41
1
10
30.8847571543574
20
-29.2276433479234
30
0
41
1
10
29.9638904078464
20
-29.2624586930857
30
0
41
1
10
29.6593235949664
20
-29.274043481762
30
0
41
1
10
29.055067111564
20
-29.296284644897
30
0
41
1
10
28.7543156378908
20
-29.306968851365
30
0
41
1
10
28.4624342159499
20
-29.3163427332491
30
0
0
SPLINE
5
2D3
100
AcDbEntity
8
1
62
256
6
ByLayer
370
13
48
1
60
0
100
AcDbSpline
70
4
71
3
72
16
73
12
40
0
40
0
40
0
40
0
40
0.249999999999956
40
0.249999999999956
40
0.499999999999912
40
0.499999999999912
40
0.624999999999935
40
0.624999999999935
40
0.749999999999957
40
0.749999999999957
40
1
40
1
40
1
40
1
41
1
10
322.717701577094
20
9.72126340183468
30
0
41
1
10
322.690107789464
20
9.69542749842773
30
0
41
1
10
322.664394051734
20
9.67277459092088
30
0
41
1
10
322.618609168725
20
9.63474964935023
30
0
41
1
10
322.599216294077
20
9.61995580519627
30
0
41
1
10
322.578650480832
20
9.60623613565875
30
0
41
1
10
322.573297702032
20
9.6031281406313
30
0
41
1
10
322.565916922272
20
9.60006987581181
30
0
41
1
10
322.563951400937
20
9.6001751324178
30
0
41
1
10
322.563502567872
20
9.60538404440436
30
0
41
1
10
322.570602023581
20
9.61564366321258
30
0
41
1
10
322.583045292629
20
9.63093044404195
30
0
0
SPLINE
5
2D4
100
AcDbEntity
8
1
62
256
6
ByLayer
370
13
48
1
60
0
100
AcDbSpline
70
4
71
3
72
10
73
6
40
0
40
0
40
0
40
0
40
0.5
40
0.5
40
1
40
1
40
1
40
1
41
1
10
315.993322025258
20
8.42139474828622
30
0
41
1
10
315.417923371748
20
8.80166422450475
30
0
41
1
10
314.814469889779
20
9.14620026225009
30
0
41
1
10
313.567460856538
20
9.78419432711587
30
0
41
1
10
312.923700836532
20
10.0773919223843
30
0
41
1
10
312.263694124463
20
10.3498961039664
30
0
0
SPLINE
5
2D5
100
AcDbEntity
8
1
62
256
6
ByLayer
370
13
48
1
60
0
100
AcDbSpline
70
4
71
3
72
10
73
6
40
0
40
0
40
0
40
0
40
0.5
40
0.5
40
1
40
1
40
1
40
1
41
1
10
324.63874462449
20
8.86179926757939
30
0
41
1
10
325.211409441389
20
9.07273777773065
30
0
41
1
10
325.774161746077
20
9.22601065880158
30
0
41
1
10
326.883143205945
20
9.4448181566317
30
0
41
1
10
327.429253987021
20
9.50986909791524
30
0
41
1
10
327.965555172176
20
9.53797545205603
30
0
0
SPLINE
5
2D6
100
AcDbEntity
8
1
62
256
6
ByLayer
370
13
48
1
60
0
100
AcDbSpline
70
4
71
3
72
8
73
4
40
0
40
0
40
0
40
0
40
1
40
1
40
1
40
1
41
1
10
40
20
-29.1339594993756
30
0
41
1
10
38.3333333323383
20
-29.1339651382923
30
0
41
1
10
36.666666665239
20
-29.1339725736773
30
0
41
1
10
35
20
-29.1339823575802
30
0
0
SPLINE
5
2D7
100
AcDbEntity
8
1
62
256
6
ByLayer
370
13
48
1
60
0
100
AcDbSpline
70
4
71
3
72
8
73
4
40
0
40
0
40
0
40
0
40
1
40
1
40
1
40
1
41
1
10
314.544877894958
20
13.3398135915793
30
0
41
1
10
314.498895909242
20
13.3341289406178
30
0
41
1
10
314.45210768251
20
13.3316029939123
30
0
41
1
10
314.404595180455
20
13.3316170000287
30
0
0
SPLINE
5
2D8
100
AcDbEntity
8
1
62
256
6
ByLayer
370
13
48
1
60
0
100
AcDbSpline
70
4
71
3
72
8
73
4
40
0
40
0
40
0
40
0
40
1
40
1
40
1
40
1
41
1
10
313.206215826368
20
13.405799360752
30
0
41
1
10
313.619749035875
20
13.4126879416541
30
0
41
1
10
314.019146519309
20
13.3882160259349
30
0
41
1
10
314.404595180455
20
13.3316170000289
30
0
0
SPLINE
5
2D9
100
AcDbEntity
8
1
62
256
6
ByLayer
370
13
48
1
60
0
100
AcDbSpline
70
4
71
3
72
12
73
8
40
0
40
0
40
0
40
0
40
0.5
40
0.5
40
0.75
40
0.75
40
1
40
1
40
1
40
1
41
1
10
337.800201734613
20
10.2416894064699
30
0
41
1
10
337.547676960112
20
10.3027815070038
30
0
41
1
10
337.304354568207
20
10.3920583442895
30
0
41
1
10
336.94766381618
20
10.5782827195159
30
0
41
1
10
336.833185216433
20
10.6477606309346
30
0
41
1
10
336.613441845264
20
10.8023621714929
30
0
41
1
10
336.508119972051
20
10.8874704405571
30
0
41
1
10
336.407741221223
20
10.9817840211785
30
0
0
SPLINE
5
2DA
100
AcDbEntity
8
1
62
256
6
ByLayer
370
13
48
1
60
0
100
AcDbSpline
70
4
71
3
72
18
73
14
40
0
40
0
40
0
40
0
40
0.125000000000001
40
0.125000000000001
40
0.250000000000001
40
0.250000000000001
40
0.500000000000001
40
0.500000000000001
40
0.75
40
0.75
40
0.875
40
0.875
40
1
40
1
40
1
40
1
41
1
10
316.601869819814
20
11.2782096996516
30
0
41
1
10
316.536489009165
20
11.3770555932978
30
0
41
1
10
316.467608490439
20
11.4755215394852
30
0
41
1
10
316.32224707817
20
11.6713621731582
30
0
41
1
10
316.246029926712
20
11.7683341250532
30
0
41
1
10
316.009030826328
20
12.0527139017322
30
0
41
1
10
315.838987890031
20
12.2349211661827
30
0
41
1
10
315.473318165468
20
12.5822526757406
30
0
41
1
10
315.277676641395
20
12.7473423340292
30
0
41
1
10
314.963212769011
20
12.9799436596408
30
0
41
1
10
314.854345463115
20
13.0553091633066
30
0
41
1
10
314.632442818032
20
13.1987954337014
30
0
41
1
10
314.519483654616
20
13.2669319299253
30
0
41
1
10
314.404595180455
20
13.3316170000286
30
0
0
SPLINE
5
2DB
100
AcDbEntity
8
1
62
256
6
ByLayer
370
13
48
1
60
0
100
AcDbSpline
70
4
71
3
72
14
73
10
40
0
40
0
40
0
40
0
40
0.25
40
0.25
40
0.5
40
0.5
40
0.75
40
0.75
40
1
40
1
40
1
40
1
41
1
10
322.863019877619
20
10.6720766807742
30
0
41
1
10
322.838189913335
20
10.6785854085784
30
0
41
1
10
322.811463401323
20
10.6859013255379
30
0
41
1
10
322.755744850538
20
10.6998009159486
30
0
41
1
10
322.726563757483
20
10.7064352212417
30
0
41
1
10
322.66508514717
20
10.7172433621672
30
0
41
1
10
322.633782163179
20
10.7212025439581
30
0
41
1
10
322.570407159337
20
10.7253288799991
30
0
41
1
10
322.537888888429
20
10.7254696950773
30
0
41
1
10
322.506226946961
20
10.7238103630373
30
0
0
SPLINE
5
2DC
100
AcDbEntity
8
1
62
256
6
ByLayer
370
13
48
1
60
0
100
AcDbSpline
70
4
71
3
72
10
73
6
40
0
40
0
40
0
40
0
40
0.5
40
0.5
40
1
40
1
40
1
40
1
41
1
10
327.965555172176
20
9.53797545205597
30
0
41
1
10
328.890369779417
20
9.58644293186998
30
0
41
1
10
329.779410567479
20
9.63303558526434
30
0
41
1
10
331.478118986491
20
9.72206112115416
30
0
41
1
10
332.287854860497
20
9.7644975801166
30
0
41
1
10
333.051345824787
20
9.80451044605769
30
0
0
SPLINE
5
2DD
100
AcDbEntity
8
1
62
256
6
ByLayer
370
13
48
1
60
0
100
AcDbSpline
70
4
71
3
72
12
73
8
40
0
40
0
40
0
40
0
40
0.250000000000032
40
0.250000000000032
40
0.500000000000065
40
0.500000000000065
40
1
40
1
40
1
40
1
41
1
10
315.743744531958
20
9.31761186279604
30
0
41
1
10
315.802642420147
20
9.27047329998754
30
0
41
1
10
315.867677516126
20
9.22800346976541
30
0
41
1
10
316.000462743949
20
9.14943873066406
30
0
41
1
10
316.068368907889
20
9.11352149481237
30
0
41
1
10
316.273888238898
20
9.0144747412165
30
0
41
1
10
316.413200163411
20
8.95978912739847
30
0
41
1
10
316.55394241544
20
8.91991752869967
30
0
0
SPLINE
5
2DE
100
AcDbEntity
8
1
62
256
6
ByLayer
370
13
48
1
60
0
100
AcDbSpline
70
4
71
3
72
8
73
4
40
0
40
0
40
0
40
0
40
1
40
1
40
1
40
1
41
1
10
0.0999999999999659
20
-5.56776436282993
30
0
41
1
10
0.0648944344305846
20
-5.37072855948901
30
0
41
1
10
0.03155109950454
20
-5.17345582387856
30
0
41
1
10
0
20
-4.97594212184998
30
0
0
SPLINE
5
2DF
100
AcDbEntity
8
1
62
256
6
ByLayer
370
13
48
1
60
0
100
AcDbSpline
70
4
71
3
72
15
73
11
40
0
40
0
40
0
40
0
40
0.125000000000001
40
0.187500000000001
40
0.187500000000001
40
0.250000000000001
40
0.250000000000001
40
0.5
40
0.5
40
1
40
1
40
1
40
1
41
1
10
28.4651511133679
20
-11.2329872720649
30
0
41
1
10
27.9682543904526
20
-11.26349431757
30
0
41
1
10
27.2233561255597
20
-11.31445844157
30
0
41
1
10
26.4791269115429
20
-11.3732141764651
30
0
41
1
10
25.9831226818406
20
-11.4141149903513
30
0
41
1
10
25.7352196861055
20
-11.4357197154656
30
0
41
1
10
24.4957851363489
20
-11.5446799975251
30
0
41
1
10
23.5037177795395
20
-11.6274296557888
30
0
41
1
10
20.525629526539
20
-11.8625401005004
30
0
41
1
10
18.5378657486037
20
-12.0017550830423
30
0
41
1
10
16.5477523470234
20
-12.1236072172641
30
0
0
SPLINE
5
2E0
100
AcDbEntity
8
1
62
256
6
ByLayer
370
13
48
1
60
0
100
AcDbSpline
70
4
71
3
72
10
73
6
40
0
40
0
40
0
40
0
40
0.5
40
0.5
40
1
40
1
40
1
40
1
41
1
10
313.539169144042
20
0.261426929553551
30
0
41
1
10
313.912723801772
20
0.114384321348467
30
0
41
1
10
314.291570700822
20
-0.0071387081743239
30
0
41
1
10
315.059898491091
20
-0.197944196140781
30
0
41
1
10
315.449373447907
20
-0.267256211883279
30
0
41
1
10
315.844491242065
20
-0.30855001634427
30
0
0
SPLINE
5
2E1
100
AcDbEntity
8
1
62
256
6
ByLayer
370
13
48
1
60
0
100
AcDbSpline
70
4
71
3
72
12
73
8
40
0
40
0
40
0
40
0
40
0.25
40
0.25
40
0.5
40
0.5
40
1
40
1
40
1
40
1
41
1
10
10.1783
20
4.11914994909449
30
0
41
1
10
9.76614322774067
20
4.28508375625881
30
0
41
1
10
9.34974312808409
20
4.43607848127621
30
0
41
1
10
8.51039787068551
20
4.7150253632411
30
0
41
1
10
8.08743575212436
20
4.84291780783389
30
0
41
1
10
6.81045432722192
20
5.19809559568372
30
0
41
1
10
5.94843583306528
20
5.39721895361777
30
0
41
1
10
5.07830000000007
20
5.56776436282991
30
0
0
SPLINE
5
2E2
100
AcDbEntity
8
1
62
256
6
ByLayer
370
13
48
1
60
0
100
AcDbSpline
70
4
71
3
72
10
73
6
40
0
40
0
40
0
40
0
40
0.5
40
0.5
40
1
40
1
40
1
40
1
41
1
10
314.54487789496
20
13.3398135915733
30
0
41
1
10
314.619078727804
20
13.3481005754792
30
0
41
1
10
314.693702711276
20
13.3540982073664
30
0
41
1
10
314.84430854061
20
13.3587470918644
30
0
41
1
10
314.920255311404
20
13.3575881094752
30
0
41
1
10
314.99750557469
20
13.3493769027222
30
0
0
SPLINE
5
2E3
100
AcDbEntity
8
1
62
256
6
ByLayer
370
13
48
1
60
0
100
AcDbSpline
70
4
71
3
72
42
73
38
40
0
40
0
40
0
40
0
40
0.125
40
0.125
40
0.15625
40
0.15625
40
0.1875
40
0.1875
40
0.25
40
0.25
40
0.281250000000001
40
0.281250000000001
40
0.312500000000001
40
0.312500000000001
40
0.375000000000001
40
0.375000000000001
40
0.437500000000001
40
0.437500000000001
40
0.468750000000001
40
0.468750000000001
40
0.500000000000001
40
0.500000000000001
40
0.562500000000001
40
0.562500000000001
40
0.625000000000001
40
0.625000000000001
40
0.750000000000001
40
0.750000000000001
40
0.8125
40
0.8125
40
0.84375
40
0.84375
40
0.875
40
0.875
40
0.9375
40
0.9375
40
1
40
1
40
1
40
1
41
1
10
6.17792163694156
20
-26.5965020732174
30
0
41
1
10
5.97023225343121
20
-27.0080930776609
30
0
41
1
10
5.86289597174572
20
-27.3989973341486
30
0
41
1
10
5.85530627261855
20
-27.8585019021704
30
0
41
1
10
5.86020177644778
20
-27.948403576688
30
0
41
1
10
5.88257238588618
20
-28.1229868053775
30
0
41
1
10
5.8999715628859
20
-28.2078864278515
30
0
41
1
10
5.97017785678811
20
-28.4556249746844
30
0
41
1
10
6.04101516908644
20
-28.6115055422673
30
0
41
1
10
6.18320840172757
20
-28.8319219245179
30
0
41
1
10
6.23655244381357
20
-28.9031628692492
30
0
41
1
10
6.35529926144946
20
-29.0412358458506
30
0
41
1
10
6.42047948284606
20
-29.1077603616879
30
0
41
1
10
6.63124508403182
20
-29.2985941781034
30
0
41
1
10
6.79247556059977
20
-29.414912211202
30
0
41
1
10
7.15436619875227
20
-29.627967740709
30
0
41
1
10
7.35506410101166
20
-29.7246922522831
30
0
41
1
10
7.68558180301653
20
-29.8562755703581
30
0
41
1
10
7.80072343468862
20
-29.8978683408413
30
0
41
1
10
8.03812226638155
20
-29.9758722182151
30
0
41
1
10
8.16069067214045
20
-30.0124150893419
30
0
41
1
10
8.53970929257316
20
-30.1151910654513
30
0
41
1
10
8.80744918341384
20
-30.174587929918
30
0
41
1
10
9.37240277447832
20
-30.2773777995073
30
0
41
1
10
9.66956649780364
20
-30.3207772584682
30
0
41
1
10
10.6067614817115
20
-30.4292599916628
30
0
41
1
10
11.2720369491738
20
-30.4707494922921
30
0
41
1
10
12.3278873980168
20
-30.4990019537734
30
0
41
1
10
12.6898138440033
20
-30.5026265187381
30
0
41
1
10
13.2485553562131
20
-30.500181466631
30
0
41
1
10
13.4374768575158
20
-30.4980415375996
30
0
41
1
10
13.8162967459461
20
-30.4913241677299
30
0
41
1
10
14.0067358418478
20
-30.4867468536448
30
0
41
1
10
14.5811821596663
20
-30.4695826396628
30
0
41
1
10
14.9683085429356
20
-30.4535871641676
30
0
41
1
10
15.751279948042
20
-30.413161780697
30
0
41
1
10
16.147133259641
20
-30.3887283764724
30
0
41
1
10
16.5477615047026
20
-30.3599783955506
30
0
0
SPLINE
5
2E4
100
AcDbEntity
8
1
62
256
6
ByLayer
370
13
48
1
60
0
100
AcDbSpline
70
4
71
3
72
14
73
10
40
0
40
0
40
0
40
0
40
0.499999999999927
40
0.499999999999927
40
0.749999999999964
40
0.749999999999964
40
0.874999999999982
40
0.874999999999982
40
1
40
1
40
1
40
1
41
1
10
327.252115878552
20
11.1751027727203
30
0
41
1
10
327.428094872949
20
11.12540403362
30
0
41
1
10
327.60345890345
20
11.0920854096875
30
0
41
1
10
327.867370356775
20
11.0633104488804
30
0
41
1
10
327.955473112969
20
11.0573010897583
30
0
41
1
10
328.087996003557
20
11.0535865912369
30
0
41
1
10
328.132231659223
20
11.0532336672493
30
0
41
1
10
328.220854336184
20
11.0543093877772
30
0
41
1
10
328.265679991534
20
11.055762846343
30
0
41
1
10
328.309581836172
20
11.0580636445269
30
0
0
SPLINE
5
2E5
100
AcDbEntity
8
1
62
256
6
ByLayer
370
13
48
1
60
0
100
AcDbSpline
70
4
71
3
72
10
73
6
40
0
40
0
40
0
40
0
40
0.5
40
0.5
40
1
40
1
40
1
40
1
41
1
10
322.929458131622
20
9.94733636767089
30
0
41
1
10
322.893998060842
20
9.90438683384261
30
0
41
1
10
322.857776562227
20
9.86346337580883
30
0
41
1
10
322.786685914892
20
9.78791023258566
30
0
41
1
10
322.751589834791
20
9.75299278108
30
0
41
1
10
322.717701577099
20
9.72126340184079
30
0
0
SPLINE
5
2E6
100
AcDbEntity
8
1
62
256
6
ByLayer
370
13
48
1
60
0
100
AcDbSpline
70
4
71
3
72
14
73
10
40
0
40
0
40
0
40
0
40
0.25
40
0.25
40
0.5
40
0.5
40
0.75
40
0.75
40
1
40
1
40
1
40
1
41
1
10
312.929133099584
20
13.2707814941361
30
0
41
1
10
312.935801552016
20
13.2966525123271
30
0
41
1
10
312.952558518639
20
13.3189934981073
30
0
41
1
10
312.993368513506
20
13.3536165076601
30
0
41
1
10
313.017661698705
20
13.3666734751821
30
0
41
1
10
313.068360611855
20
13.3865545445434
30
0
41
1
10
313.09542244483
20
13.3935767347845
30
0
41
1
10
313.150129843493
20
13.4029300928791
30
0
41
1
10
313.177984665841
20
13.4053292627343
30
0
41
1
10
313.206265603788
20
13.4058001897852
30
0
0
SPLINE
5
2E7
100
AcDbEntity
8
1
62
256
6
ByLayer
370
13
48
1
60
0
100
AcDbSpline
70
4
71
3
72
10
73
6
40
0
40
0
40
0
40
0
40
0.5
40
0.5
40
1
40
1
40
1
40
1
41
1
10
332.393438565164
20
11.4445480773034
30
0
41
1
10
332.417895995673
20
11.4548241899494
30
0
41
1
10
332.443960152749
20
11.4632170304884
30
0
41
1
10
332.497295542494
20
11.4753687191321
30
0
41
1
10
332.524744011712
20
11.4792297371791
30
0
41
1
10
332.55298577924
20
11.4807254532084
30
0
0
SPLINE
5
2E8
100
AcDbEntity
8
1
62
256
6
ByLayer
370
13
48
1
60
0
100
AcDbSpline
70
4
71
3
72
16
73
12
40
0
40
0
40
0
40
0
40
0.25
40
0.25
40
0.375
40
0.375
40
0.5
40
0.5
40
0.75
40
0.75
40
1
40
1
40
1
40
1
41
1
10
157
20
-10.5131372701091
30
0
41
1
10
147.249995152919
20
-10.527499987492
30
0
41
1
10
137.499990403552
20
-10.5291689533161
30
0
41
1
10
122.874994404228
20
-10.5271925416445
30
0
41
1
10
117.999996455441
20
-10.5257867572554
30
0
41
1
10
108.24999963004
20
-10.5239163252454
30
0
41
1
10
103.375000498874
20
-10.5237070552339
30
0
41
1
10
88.75000050747
20
-10.525719793324
30
0
41
1
10
78.9999979913138
20
-10.5297014233826
30
0
41
1
10
59.4999978141174
20
-10.5322320377935
30
0
41
1
10
49.7499998347326
20
-10.5312061867115
30
0
41
1
10
40
20
-10.5320546875797
30
0
0
SPLINE
5
2E9
100
AcDbEntity
8
1
62
256
6
ByLayer
370
13
48
1
60
0
100
AcDbSpline
70
4
71
3
72
8
73
4
40
0
40
0
40
0
40
0
40
1
40
1
40
1
40
1
41
1
10
315.844491242065
20
-0.308550016344895
30
0
41
1
10
316.076045305635
20
-0.332749757193255
30
0
41
1
10
316.307604634429
20
-0.356926334312334
30
0
41
1
10
316.539169144042
20
-0.381080041088552
30
0
0
SPLINE
5
2EA
100
AcDbEntity
8
1
62
256
6
ByLayer
370
13
48
1
60
0
100
AcDbSpline
70
4
71
3
72
14
73
10
40
0
40
0
40
0
40
0
40
0.499999999999998
40
0.499999999999998
40
0.624999999999998
40
0.624999999999998
40
0.749999999999999
40
0.749999999999999
40
1
40
1
40
1
40
1
41
1
10
32.1414284368786
20
-28.4664652141879
30
0
41
1
10
31.4927468564439
20
-28.4664173149626
30
0
41
1
10
30.8599937334395
20
-28.5421043962515
30
0
41
1
10
30.0872597100467
20
-28.7232838152435
30
0
41
1
10
29.9336321687538
20
-28.7638905174285
30
0
41
1
10
29.6282065223626
20
-28.8538023356384
30
0
41
1
10
29.4764504911014
20
-28.9031356131364
30
0
41
1
10
29.0299685702715
20
-29.0618006455779
30
0
41
1
10
28.7418613949568
20
-29.1823544337234
30
0
41
1
10
28.4624342159499
20
-29.3163427332491
30
0
0
SPLINE
5
2EB
100
AcDbEntity
8
1
62
256
6
ByLayer
370
13
48
1
60
0
100
AcDbSpline
70
4
71
3
72
8
73
4
40
0
40
0
40
0
40
0
40
1
40
1
40
1
40
1
41
1
10
306.037072371373
20
28.560370982198
30
0
41
1
10
306.059259347798
20
28.5941963594091
30
0
41
1
10
306.081410295358
20
28.6280457439682
30
0
41
1
10
306.1035254211
20
28.6619189979135
30
0
0
SPLINE
5
2EC
100
AcDbEntity
8
1
62
256
6
ByLayer
370
13
48
1
60
0
100
AcDbSpline
70
4
71
3
72
8
73
4
40
0
40
0
40
0
40
0
40
1
40
1
40
1
40
1
41
1
10
309.610299138414
20
3.09058694004602
30
0
41
1
10
308.431236846517
20
3.65503289586027
30
0
41
1
10
307.255634106119
20
4.23019499428921
30
0
41
1
10
306.083308476301
20
4.81550811499943
30
0
0
SPLINE
5
2ED
100
AcDbEntity
8
1
62
256
6
ByLayer
370
13
48
1
60
0
100
AcDbSpline
70
4
71
3
72
8
73
4
40
0
40
0
40
0
40
0
40
1
40
1
40
1
40
1
41
1
10
35
20
-29.133982357578
30
0
41
1
10
34.0466695285132
20
-29.1339879539537
30
0
41
1
10
33.093812640581
20
-29.1502915714883
30
0
41
1
10
32.1414284371486
20
-29.1828621970915
30
0
0
SPLINE
5
2EE
100
AcDbEntity
8
1
62
256
6
ByLayer
370
13
48
1
60
0
100
AcDbSpline
70
4
71
3
72
12
73
8
40
0
40
0
40
0
40
0
40
0.5
40
0.5
40
0.75
40
0.75
40
1
40
1
40
1
40
1
41
1
10
5.07830000000007
20
-5.56776436282993
30
0
41
1
10
5.94843583306525
20
-5.3972189536178
30
0
41
1
10
6.81045432722195
20
-5.1980955956837
30
0
41
1
10
8.08743575212438
20
-4.84291780783386
30
0
41
1
10
8.51039787068554
20
-4.71502536324115
30
0
41
1
10
9.3497431280841
20
-4.43607848127627
30
0
41
1
10
9.76614322774066
20
-4.28508375625881
30
0
41
1
10
10.1783
20
-4.11914994909449
30
0
0
SPLINE
5
2EF
100
AcDbEntity
8
1
62
256
6
ByLayer
370
13
48
1
60
0
100
AcDbSpline
70
4
71
3
72
12
73
8
40
0
40
0
40
0
40
0
40
0.500000000000005
40
0.500000000000005
40
0.750000000000002
40
0.750000000000002
40
1
40
1
40
1
40
1
41
1
10
323.018925842043
20
10.5452629350944
30
0
41
1
10
323.024244869616
20
10.5694606659677
30
0
41
1
10
323.014461052575
20
10.5939345214447
30
0
41
1
10
322.974680658669
20
10.6270926292368
30
0
41
1
10
322.957238452054
20
10.6375510678076
30
0
41
1
10
322.915436284573
20
10.656325821782
30
0
41
1
10
322.890447553605
20
10.6648870096479
30
0
41
1
10
322.863019877619
20
10.6720766807746
30
0
0
SPLINE
5
2F0
100
AcDbEntity
8
1
62
256
6
ByLayer
370
13
48
1
60
0
100
AcDbSpline
70
4
71
3
72
8
73
4
40
0
40
0
40
0
40
0
40
1
40
1
40
1
40
1
41
1
10
35.45
20
-28.4529508266325
30
0
41
1
10
35.3033333332936
20
-28.4529408646232
30
0
41
1
10
35.156666666625
20
-28.4529304856216
30
0
41
1
10
35.01
20
-28.452919680087
30
0
0
SPLINE
5
2F1
100
AcDbEntity
8
1
62
256
6
ByLayer
370
13
48
1
60
0
100
AcDbSpline
70
4
71
3
72
8
73
4
40
0
40
0
40
0
40
0
40
1
40
1
40
1
40
1
41
1
10
312.507194035382
20
11.2651097040909
30
0
41
1
10
312.507804415121
20
11.2675511047318
30
0
41
1
10
312.508484065953
20
11.2699849938087
30
0
41
1
10
312.509231750606
20
11.2724115256127
30
0
0
SPLINE
5
2F2
100
AcDbEntity
8
1
62
256
6
ByLayer
370
13
48
1
60
0
100
AcDbSpline
70
4
71
3
72
18
73
14
40
0
40
0
40
0
40
0
40
0.25000000000017
40
0.25000000000017
40
0.375000000000143
40
0.375000000000143
40
0.500000000000116
40
0.500000000000116
40
0.750000000000057
40
0.750000000000057
40
0.875000000000029
40
0.875000000000029
40
1
40
1
40
1
40
1
41
1
10
335.535851908977
20
11.6370508807418
30
0
41
1
10
335.593218874437
20
11.6400573560059
30
0
41
1
10
335.650978754446
20
11.6328829365526
30
0
41
1
10
335.732306124869
20
11.6095083022462
30
0
41
1
10
335.75820243134
20
11.5997378201247
30
0
41
1
10
335.806386965567
20
11.5777953429708
30
0
41
1
10
335.829065104019
20
11.5654053120148
30
0
41
1
10
335.889137596937
20
11.5284855286672
30
0
41
1
10
335.920033886236
20
11.503621557955
30
0
41
1
10
335.952375108359
20
11.4779887017319
30
0
41
1
10
335.961094706919
20
11.4711656296634
30
0
41
1
10
335.974273120033
20
11.4622341673329
30
0
41
1
10
335.978879126339
20
11.4599944841661
30
0
41
1
10
335.981589869297
20
11.4601365481847
30
0
0
SPLINE
5
2F3
100
AcDbEntity
8
1
62
256
6
ByLayer
370
13
48
1
60
0
100
AcDbSpline
70
4
71
3
72
54
73
50
40
0
40
0
40
0
40
0
40
0.124999999999973
40
0.124999999999973
40
0.187499999999963
40
0.187499999999963
40
0.218749999999958
40
0.218749999999958
40
0.249999999999953
40
0.249999999999953
40
0.312499999999949
40
0.312499999999949
40
0.374999999999945
40
0.374999999999945
40
0.406249999999939
40
0.406249999999939
40
0.437499999999935
40
0.437499999999935
40
0.49999999999993
40
0.49999999999993
40
0.531249999999928
40
0.531249999999928
40
0.546874999999929
40
0.546874999999929
40
0.56249999999993
40
0.56249999999993
40
0.62499999999994
40
0.62499999999994
40
0.656249999999947
40
0.656249999999947
40
0.687499999999954
40
0.687499999999954
40
0.749999999999964
40
0.749999999999964
40
0.765624999999967
40
0.765624999999967
40
0.781249999999969
40
0.781249999999969
40
0.812499999999974
40
0.812499999999974
40
0.874999999999983
40
0.874999999999983
40
0.906249999999987
40
0.906249999999987
40
0.937499999999991
40
0.937499999999991
40
0.968749999999996
40
0.968749999999996
40
1
40
1
40
1
40
1
41
1
10
315.411782163071
20
2.25658647448549
30
0
41
1
10
316.519398505324
20
2.05427590244966
30
0
41
1
10
317.635138332281
20
1.88131335143876
30
0
41
1
10
319.327410535772
20
1.68929211240481
30
0
41
1
10
319.894621984953
20
1.63655935692461
30
0
41
1
10
320.751118838955
20
1.57797941969744
30
0
41
1
10
321.037566232827
20
1.56187924825116
30
0
41
1
10
321.612554376106
20
1.53724165023218
30
0
41
1
10
321.901633590053
20
1.5286970841307
30
0
41
1
10
322.768475166669
20
1.5156752386701
30
0
41
1
10
323.343032297925
20
1.52375826783484
30
0
41
1
10
324.484521457862
20
1.57822804245058
30
0
41
1
10
325.051461018069
20
1.62457695426215
30
0
41
1
10
325.895202216311
20
1.72759687096797
30
0
41
1
10
326.175374449166
20
1.76754206542577
30
0
41
1
10
326.733115447175
20
1.85968259557515
30
0
41
1
10
327.007851646126
20
1.91141330151237
30
0
41
1
10
327.819154368232
20
2.08427538517239
30
0
41
1
10
328.342887806256
20
2.22297706947893
30
0
41
1
10
329.099745023023
20
2.47038274192869
30
0
41
1
10
329.347224527266
20
2.55943171370566
30
0
41
1
10
329.710655101514
20
2.70366897756139
30
0
41
1
10
329.830783672866
20
2.75365630271372
30
0
41
1
10
330.066561392081
20
2.85657070426524
30
0
41
1
10
330.182240425941
20
2.90949524699999
30
0
41
1
10
330.749524234896
20
3.18149599275841
30
0
41
1
10
331.167996174222
20
3.42257266356279
30
0
41
1
10
331.739223622033
20
3.82169114743951
30
0
41
1
10
331.920342892842
20
3.96114535829218
30
0
41
1
10
332.261856082332
20
4.25280869223946
30
0
41
1
10
332.419661840731
20
4.40278351272912
30
0
41
1
10
332.855124666793
20
4.86485013283294
30
0
41
1
10
333.095071052092
20
5.18900610668643
30
0
41
1
10
333.331316218885
20
5.61457569591067
30
0
41
1
10
333.37536143811
20
5.70071455866528
30
0
41
1
10
333.456945566173
20
5.8750737437839
30
0
41
1
10
333.494406330783
20
5.96317902872289
30
0
41
1
10
333.595878120523
20
6.22767062194569
30
0
41
1
10
333.649455230107
20
6.40517259088091
30
0
41
1
10
333.76983687919
20
6.94104578172494
30
0
41
1
10
333.796517838397
20
7.30276541910033
30
0
41
1
10
333.758838414448
20
7.85182921102623
30
0
41
1
10
333.733363258261
20
8.03403824148998
30
0
41
1
10
333.658506880531
20
8.39515228326474
30
0
41
1
10
333.609101066915
20
8.57435939141851
30
0
41
1
10
333.48760987007
20
8.93021755504861
30
0
41
1
10
333.415521002608
20
9.10686821784191
30
0
41
1
10
333.249534516036
20
9.4577116344386
30
0
41
1
10
333.155396677901
20
9.63226978196548
30
0
41
1
10
333.051345824785
20
9.80451044604658
30
0
0
SPLINE
5
2F4
100
AcDbEntity
8
1
62
256
6
ByLayer
370
13
48
1
60
0
100
AcDbSpline
70
4
71
3
72
10
73
6
40
0
40
0
40
0
40
0
40
0.5
40
0.5
40
1
40
1
40
1
40
1
41
1
10
314.99750557469
20
13.349376902722
30
0
41
1
10
315.207256450684
20
13.3290085944681
30
0
41
1
10
315.411161709332
20
13.3163850640732
30
0
41
1
10
315.811194996617
20
13.3026007921381
30
0
41
1
10
316.00730073503
20
13.3014097604553
30
0
41
1
10
316.200651379799
20
13.3044398110361
30
0
0
SPLINE
5
2F5
100
AcDbEntity
8
1
62
256
6
ByLayer
370
13
48
1
60
0
100
AcDbSpline
70
4
71
3
72
10
73
6
40
0
40
0
40
0
40
0
40
0.5
40
0.5
40
1
40
1
40
1
40
1
41
1
10
316.200651379799
20
13.3044398110358
30
0
41
1
10
316.173457661804
20
13.4050790603591
30
0
41
1
10
316.139114575008
20
13.5033051759891
30
0
41
1
10
316.054948127637
20
13.6945323347586
30
0
41
1
10
316.004736337933
20
13.7880744188745
30
0
41
1
10
315.947127364979
20
13.8771661048276
30
0
0
SPLINE
5
2F6
100
AcDbEntity
8
1
62
256
6
ByLayer
370
13
48
1
60
0
100
AcDbSpline
70
4
71
1
72
4
73
2
40
0
40
0
40
1
40
1
41
1
10
35.45
20
-16.4044503719202
30
0
41
1
10
35.01
20
-16.4044503719202
30
0
0
SPLINE
5
2F7
100
AcDbEntity
8
1
62
256
6
ByLayer
370
13
48
1
60
0
100
AcDbSpline
70
4
71
3
72
16
73
12
40
0
40
0
40
0
40
0
40
0.250000000000005
40
0.250000000000005
40
0.500000000000009
40
0.500000000000009
40
0.625000000000011
40
0.625000000000011
40
0.750000000000014
40
0.750000000000014
40
1
40
1
40
1
40
1
41
1
10
317.710460043837
20
8.60077924491674
30
0
41
1
10
318.289849291733
20
8.43452917527941
30
0
41
1
10
318.870001821727
20
8.31948825083808
30
0
41
1
10
320.032716190686
20
8.1813460711397
30
0
41
1
10
320.615271499524
20
8.15835732640457
30
0
41
1
10
321.491092124585
20
8.19202577766256
30
0
41
1
10
321.783359392359
20
8.21466780819125
30
0
41
1
10
322.368524049333
20
8.28334473478375
30
0
41
1
10
322.658636473401
20
8.32905924892918
30
0
41
1
10
323.520969870392
20
8.49971831853446
30
0
41
1
10
324.085518369847
20
8.6580208644223
30
0
41
1
10
324.63874462449
20
8.86179926757944
30
0
0
SPLINE
5
2F8
100
AcDbEntity
8
1
62
256
6
ByLayer
370
13
48
1
60
0
100
AcDbSpline
70
4
71
3
72
14
73
10
40
0
40
0
40
0
40
0
40
0.25
40
0.25
40
0.5
40
0.5
40
0.75
40
0.75
40
1
40
1
40
1
40
1
41
1
10
316.069151636708
20
10.0806920448812
30
0
41
1
10
316.020120551925
20
10.042457425798
30
0
41
1
10
315.971655241883
20
10.0040440193709
30
0
41
1
10
315.876381229371
20
9.92626125547514
30
0
41
1
10
315.829437751406
20
9.88683198892116
30
0
41
1
10
315.741176785066
20
9.80723069219584
30
0
41
1
10
315.699214960289
20
9.76670867620541
30
0
41
1
10
315.628781087793
20
9.68261752540664
30
0
41
1
10
315.599269446707
20
9.63783150232919
30
0
41
1
10
315.58861485848
20
9.59020821271693
30
0
0
SPLINE
5
2F9
100
AcDbEntity
8
1
62
256
6
ByLayer
370
13
48
1
60
0
100
AcDbSpline
70
4
71
3
72
8
73
4
40
0
40
0
40
0
40
0
40
1
40
1
40
1
40
1
41
1
10
305.880598212274
20
4.87248746997963
30
0
41
1
10
305.948212707592
20
4.85333024299391
30
0
41
1
10
306.015783040053
20
4.83433622128558
30
0
41
1
10
306.083308476301
20
4.81550811499943
30
0
0
SPLINE
5
2FA
100
AcDbEntity
8
1
62
256
6
ByLayer
370
13
48
1
60
0
100
AcDbSpline
70
4
71
3
72
8
73
4
40
0
40
0
40
0
40
0
40
1
40
1
40
1
40
1
41
1
10
32.1414284368786
20
-28.4664652141843
30
0
41
1
10
32.1414284369675
20
-28.7052642084872
30
0
41
1
10
32.1414284370575
20
-28.9440632027897
30
0
41
1
10
32.1414284371486
20
-29.1828621970915
30
0
0
SPLINE
5
2FB
100
AcDbEntity
8
1
62
256
6
ByLayer
370
13
48
1
60
0
100
AcDbSpline
70
4
71
3
72
8
73
4
40
0
40
0
40
0
40
0
40
1
40
1
40
1
40
1
41
1
10
313.206251297624
20
13.4056487315414
30
0
41
1
10
313.327940190026
20
14.6939586402794
30
0
41
1
10
313.447289590226
20
15.981033611405
30
0
41
1
10
313.563780293257
20
17.2670374366817
30
0
0
SPLINE
5
2FC
100
AcDbEntity
8
1
62
256
6
ByLayer
370
13
48
1
60
0
100
AcDbSpline
70
4
71
3
72
20
73
16
40
0
40
0
40
0
40
0
40
0.249999999999998
40
0.249999999999998
40
0.374999999999998
40
0.374999999999998
40
0.499999999999998
40
0.499999999999998
40
0.749999999999997
40
0.749999999999997
40
0.812499999999998
40
0.812499999999998
40
0.874999999999999
40
0.874999999999999
40
1
40
1
40
1
40
1
41
1
10
6.17806571245127
20
-23.0286026718848
30
0
41
1
10
6.02194704407688
20
-23.3553519369071
30
0
41
1
10
5.90219403885158
20
-23.680443317697
30
0
41
1
10
5.78101647245568
20
-24.1645989455056
30
0
41
1
10
5.75084822433577
20
-24.3237387875799
30
0
41
1
10
5.71088628988076
20
-24.6358760978041
30
0
41
1
10
5.70101838929541
20
-24.789149680862
30
0
41
1
10
5.70104112940645
20
-25.2406512116361
30
0
41
1
10
5.74102146719785
20
-25.5305530532004
30
0
41
1
10
5.84118758435318
20
-25.8790223508641
30
0
41
1
10
5.86381809323692
20
-25.948118991015
30
0
41
1
10
5.91389587254103
20
-26.0837707646911
30
0
41
1
10
5.94135287835745
20
-26.1504566609611
30
0
41
1
10
6.0307202106727
20
-26.3472133115243
30
0
41
1
10
6.09970157837344
20
-26.4739685933474
30
0
41
1
10
6.17792163694158
20
-26.5965020732174
30
0
0
SPLINE
5
2FD
100
AcDbEntity
8
1
62
256
6
ByLayer
370
13
48
1
60
0
100
AcDbSpline
70
4
71
3
72
16
73
12
40
0
40
0
40
0
40
0
40
0.407268573261788
40
0.407268573261788
40
0.610902859892681
40
0.610902859892681
40
0.712720003208128
40
0.712720003208128
40
0.814537146523574
40
0.814537146523574
40
1
40
1
40
1
40
1
41
1
10
6.17806571245127
20
-23.0286026718848
30
0
41
1
10
6.443663139519
20
-21.8413617202396
30
0
41
1
10
6.80131956244273
20
-20.6709749318071
30
0
41
1
10
7.48524332290559
20
-18.9405923342879
30
0
41
1
10
7.73797936511956
20
-18.3680383714987
30
0
41
1
10
8.15708051688185
20
-17.5158981197423
30
0
41
1
10
8.30347875588886
20
-17.2329272865067
30
0
41
1
10
8.61015302287365
20
-16.6695257725333
30
0
41
1
10
8.77011294713085
20
-16.3897837866029
30
0
41
1
10
9.23735144351646
20
-15.6097747650489
30
0
41
1
10
9.55824455531888
20
-15.1155918727078
30
0
41
1
10
9.89800798466199
20
-14.6304865573471
30
0
0
SPLINE
5
2FE
100
AcDbEntity
8
1
62
256
6
ByLayer
370
13
48
1
60
0
100
AcDbSpline
70
4
71
3
72
8
73
4
40
0
40
0
40
0
40
0
40
1
40
1
40
1
40
1
41
1
10
319.119253361445
20
29.0291459778168
30
0
41
1
10
319.144241856704
20
29.0312845837648
30
0
41
1
10
319.169243699511
20
29.0333209604825
30
0
41
1
10
319.194258582616
20
29.0352574611868
30
0
0
SPLINE
5
2FF
100
AcDbEntity
8
1
62
256
6
ByLayer
370
13
48
1
60
0
100
AcDbSpline
70
4
71
3
72
12
73
8
40
0
40
0
40
0
40
0
40
0.483530700229593
40
0.483530700229593
40
0.967061400459185
40
0.967061400459185
40
1
40
1
40
1
40
1
41
1
10
337.832443851761
20
10.2717954158477
30
0
41
1
10
337.813777200487
20
10.2713392661588
30
0
41
1
10
337.795938379866
20
10.2715053433677
30
0
41
1
10
337.759962082444
20
10.2716130211481
30
0
41
1
10
337.741923558346
20
10.2716299791486
30
0
41
1
10
337.722674601497
20
10.2716615412104
30
0
41
1
10
337.721447012049
20
10.2716635844882
30
0
41
1
10
337.720219461936
20
10.2716656565609
30
0
0
SPLINE
5
300
100
AcDbEntity
8
1
62
256
6
ByLayer
370
13
48
1
60
0
100
AcDbSpline
70
4
71
1
72
4
73
2
40
0
40
0
40
1
40
1
41
1
10
317.837431349627
20
19.1497805503502
30
0
41
1
10
317.915426832951
20
19.1525881644518
30
0
0
SPLINE
5
301
100
AcDbEntity
8
1
62
256
6
ByLayer
370
13
48
1
60
0
100
AcDbSpline
70
4
71
1
72
4
73
2
40
0
40
0
40
1
40
1
41
1
10
317.91753433748
20
19.0460552746155
30
0
41
1
10
317.861536318056
20
19.0427752355004
30
0
0
SPLINE
5
302
100
AcDbEntity
8
1
62
256
6
ByLayer
370
13
48
1
60
0
100
AcDbSpline
70
4
71
3
72
24
73
20
40
0
40
0
40
0
40
0
40
0.0612470953010915
40
0.0612470953010915
40
0.122494190602183
40
0.122494190602183
40
0.183741285903275
40
0.183741285903275
40
0.244988381204366
40
0.244988381204366
40
0.367482571806552
40
0.367482571806552
40
0.489976762408738
40
0.489976762408738
40
0.734965143613107
40
0.734965143613107
40
0.979953524817476
40
0.979953524817476
40
1
40
1
40
1
40
1
41
1
10
338.878628430143
20
10.8219727500062
30
0
41
1
10
338.877378751968
20
10.8046531492904
30
0
41
1
10
338.87565363583
20
10.7856493789458
30
0
41
1
10
338.871632945899
20
10.7482508328648
30
0
41
1
10
338.869404039446
20
10.7307401466261
30
0
41
1
10
338.865046226659
20
10.7004178948907
30
0
41
1
10
338.862882897152
20
10.6871554110373
30
0
41
1
10
338.858729906827
20
10.663513039102
30
0
41
1
10
338.856709599938
20
10.6529653624671
30
0
41
1
10
338.850850702832
20
10.6240974261012
30
0
41
1
10
338.847178314922
20
10.6083666852481
30
0
41
1
10
338.84008906334
20
10.5805777020006
30
0
41
1
10
338.836700838002
20
10.5686889821058
30
0
41
1
10
338.82682589246
20
10.5367384969989
30
0
41
1
10
338.820656014937
20
10.5204260461126
30
0
41
1
10
338.808771195501
20
10.4929500868639
30
0
41
1
10
338.803074131046
20
10.481946349313
30
0
41
1
10
338.79708981266
20
10.4720361337226
30
0
41
1
10
338.796638316678
20
10.4712987301668
30
0
41
1
10
338.796187941811
20
10.4705732896413
30
0
0
SPLINE
5
303
100
AcDbEntity
8
1
62
256
6
ByLayer
370
13
48
1
60
0
100
AcDbSpline
70
4
71
3
72
10
73
6
40
0
40
0
40
0
40
0
40
0.121795174054986
40
0.121795174054986
40
1
40
1
40
1
40
1
41
1
10
338.770289539039
20
10.43964122853
30
0
41
1
10
338.768888621853
20
10.4385172544956
30
0
41
1
10
338.767496080969
20
10.4374815148233
30
0
41
1
10
338.756125135292
20
10.4296336897592
30
0
41
1
10
338.746570804232
20
10.427054968044
30
0
41
1
10
338.737304815315
20
10.427357258533
30
0
0
SPLINE
5
304
100
AcDbEntity
8
1
62
256
6
ByLayer
370
13
48
1
60
0
100
AcDbSpline
70
4
71
3
72
10
73
6
40
0
40
0
40
0
40
0
40
0.381050048120724
40
0.381050048120724
40
1
40
1
40
1
40
1
41
1
10
336.221680114193
20
28.529689935497
30
0
41
1
10
336.226925883219
20
28.5294700098066
30
0
41
1
10
336.237901481099
20
28.5291822557558
30
0
41
1
10
336.279055682205
20
28.5283452688526
30
0
41
1
10
336.316989071679
20
28.5277543437413
30
0
41
1
10
336.356213601929
20
28.5272846397344
30
0
0
SPLINE
5
305
100
AcDbEntity
8
1
62
256
6
ByLayer
370
13
48
1
60
0
100
AcDbSpline
70
4
71
3
72
8
73
4
40
0
40
0
40
0
40
0
40
1
40
1
40
1
40
1
41
1
10
319.163226817669
20
28.7929745480456
30
0
41
1
10
319.243709352993
20
28.7971253963564
30
0
41
1
10
319.323177855132
20
28.7990667745971
30
0
41
1
10
319.4015222825
20
28.7997449522981
30
0
0
SPLINE
5
306
100
AcDbEntity
8
1
62
256
6
ByLayer
370
13
48
1
60
0
100
AcDbSpline
70
4
71
3
72
24
73
20
40
0
40
0
40
0
40
0
40
0.0436863032251694
40
0.0436863032251694
40
0.0873726064503388
40
0.0873726064503388
40
0.131058909675508
40
0.131058909675508
40
0.174745212900678
40
0.174745212900678
40
0.262117819351035
40
0.262117819351035
40
0.349490425801392
40
0.349490425801392
40
0.524235638702106
40
0.524235638702106
40
0.69898085160282
40
0.69898085160282
40
1
40
1
40
1
40
1
41
1
10
319.584703922022
20
9.81082101288106
30
0
41
1
10
319.587757145576
20
9.79372691768933
30
0
41
1
10
319.591459246258
20
9.77500757572557
30
0
41
1
10
319.599367122979
20
9.73823417933332
30
0
41
1
10
319.603414184373
20
9.72105240263286
30
0
41
1
10
319.610917662981
20
9.69135177483821
30
0
41
1
10
319.6144554486
20
9.67838807376734
30
0
41
1
10
319.621056989216
20
9.65530932291622
30
0
41
1
10
319.624168761082
20
9.64503060713227
30
0
41
1
10
319.633013083562
20
9.61693323385308
30
0
41
1
10
319.638309663915
20
9.60167253670912
30
0
41
1
10
319.64826481955
20
9.57477681299295
30
0
41
1
10
319.652877193455
20
9.56330738673748
30
0
41
1
10
319.666037778121
20
9.53256414261313
30
0
41
1
10
319.673878971834
20
9.51698598085588
30
0
41
1
10
319.688570704782
20
9.49090283969861
30
0
41
1
10
319.695386763898
20
9.48055488716616
30
0
41
1
10
319.712971947651
20
9.45732487755882
30
0
41
1
10
319.723031338217
20
9.44794131298991
30
0
41
1
10
319.732413692025
20
9.44190854140729
30
0
0
SPLINE
5
307
100
AcDbEntity
8
1
62
256
6
ByLayer
370
18
48
1
60
0
100
AcDbSpline
70
4
71
1
72
4
73
2
40
0
40
0
40
1
40
1
41
1
10
338.154124004962
20
0.475781661743923
30
0
41
1
10
337.683913149631
20
0.537338182583767
30
0
0
SPLINE
5
308
100
AcDbEntity
8
1
62
256
6
ByLayer
370
18
48
1
60
0
100
AcDbSpline
70
4
71
3
72
29
73
25
40
0
40
0
40
0
40
0
40
0.0028990666688838
40
0.0106094047629685
40
0.0260300809511381
40
0.0568714333274771
40
0.118554138080155
40
0.241919547585511
40
0.365284957090868
40
0.426967661843546
40
0.484795197549181
40
0.488650366596224
40
0.496360704690309
40
0.504071042784393
40
0.519491718972563
40
0.550333071348902
40
0.61201577610158
40
0.735381185606936
40
0.858746595112293
40
0.978256835570606
40
0.982112004617649
40
0.989822342711734
40
0.997532680805818
40
1
40
1
40
1
40
1
41
1
10
337.949111175637
20
-17.6881432308987
30
0
41
1
10
337.969949396307
20
-17.6790285004553
30
0
41
1
10
338.045827116048
20
-17.6400522086147
30
0
41
1
10
338.203912298447
20
-17.489055893399
30
0
41
1
10
338.221436994441
20
-17.1047590565522
30
0
41
1
10
338.32330005276
20
-16.4780819824387
30
0
41
1
10
338.482926719392
20
-15.1765188300203
30
0
41
1
10
338.734168104086
20
-13.3384058577097
30
0
41
1
10
338.972399151132
20
-11.4931633936575
30
0
41
1
10
339.173213606244
20
-10.0422650937387
30
0
41
1
10
339.269990981303
20
-9.30399010675328
30
0
41
1
10
339.323738627909
20
-8.8781182065745
30
0
41
1
10
339.316425230235
20
-8.74264500326512
30
0
41
1
10
339.272451801722
20
-8.55437709060811
30
0
41
1
10
339.230451521249
20
-8.23669747773727
30
0
41
1
10
339.122295761838
20
-7.59240326793793
30
0
41
1
10
338.921268209844
20
-6.30719624302046
30
0
41
1
10
338.626933134518
20
-4.470287619309
30
0
41
1
10
338.279492452626
20
-2.28925256210309
30
0
41
1
10
338.045802387032
20
-0.820065068752655
30
0
41
1
10
337.922305911505
20
-0.0287480144612857
30
0
41
1
10
337.869790043811
20
0.117713474767214
30
0
41
1
10
337.765438299813
20
0.22573965159097
30
0
41
1
10
337.7001237137
20
0.26160492215115
30
0
41
1
10
337.684024321108
20
0.269048836404409
30
0
0
SPLINE
5
309
100
AcDbEntity
8
1
62
256
6
ByLayer
370
18
48
1
60
0
100
AcDbSpline
70
4
71
3
72
26
73
22
40
0
40
0
40
0
40
0
40
0.0032712693580895
40
0.0189984964763475
40
0.0504529507128635
40
0.113361859185896
40
0.23917967613196
40
0.364997493078024
40
0.427906401551056
40
0.486883503244523
40
0.490815310024088
40
0.498678923583217
40
0.506542537142346
40
0.522269764260604
40
0.55372421849712
40
0.616633126970152
40
0.742450943916216
40
0.86826876086228
40
0.99015477102878
40
0.994086577808344
40
1
40
1
40
1
40
1
41
1
10
337.990289241768
20
-17.4776064244821
30
0
41
1
10
338.00214772482
20
-17.4650233707035
30
0
41
1
10
338.063069188237
20
-17.3853014836894
30
0
41
1
10
338.077074434112
20
-17.0781822223499
30
0
41
1
10
338.179817856303
20
-16.4460890153922
30
0
41
1
10
338.339223859717
20
-15.1463251056701
30
0
41
1
10
338.590526984394
20
-13.3077604360268
30
0
41
1
10
338.828773542473
20
-11.462397829706
30
0
41
1
10
339.029607127546
20
-10.0113613145038
30
0
41
1
10
339.126272831568
20
-9.273938220161
30
0
41
1
10
339.178363153979
20
-8.86119820292694
30
0
41
1
10
339.172424334616
20
-8.75118765531292
30
0
41
1
10
339.129720348695
20
-8.56835473636048
30
0
41
1
10
339.087126261434
20
-8.24618371751524
30
0
41
1
10
338.979251845866
20
-7.60356549990928
30
0
41
1
10
338.778141974521
20
-6.31783219187361
30
0
41
1
10
338.483838807016
20
-4.48112270090243
30
0
41
1
10
338.136385227825
20
-2.30000668178332
30
0
41
1
10
337.902659614216
20
-0.830595701407645
30
0
41
1
10
337.783003052201
20
-0.063883309205039
30
0
41
1
10
337.765860846363
20
-0.0107249575497121
30
0
41
1
10
337.751730860526
20
0.0184533320380922
30
0
0
SPLINE
5
30A
100
AcDbEntity
8
1
62
256
6
ByLayer
370
13
48
1
60
0
100
AcDbSpline
70
4
71
3
72
20
73
16
40
0
40
0
40
0
40
0
40
0.179002967774577
40
0.179002967774577
40
0.358005935549153
40
0.358005935549153
40
0.53700890332373
40
0.53700890332373
40
0.626510387211017
40
0.626510387211017
40
0.716011871098305
40
0.716011871098305
40
0.895014838872881
40
0.895014838872881
40
1
40
1
40
1
40
1
41
1
10
35.01
20
-16.4044503719096
30
0
41
1
10
35.01
20
-16.0874795870253
30
0
41
1
10
35.01
20
-15.7580006330469
30
0
41
1
10
35.01
20
-15.0750692465676
30
0
41
1
10
35.01
20
-14.7188437170003
30
0
41
1
10
35.01
20
-13.9937936567454
30
0
41
1
10
35.01
20
-13.6300815970693
30
0
41
1
10
35.01
20
-13.082779563086
30
0
41
1
10
35.01
20
-12.9000547406973
30
0
41
1
10
35.01
20
-12.5340090467976
30
0
41
1
10
35.01
20
-12.3505074542444
30
0
41
1
10
35.01
20
-11.8104254264217
30
0
41
1
10
35.01
20
-11.4603634230864
30
0
41
1
10
35.01
20
-10.920676471559
30
0
41
1
10
35.01
20
-10.7236921371173
30
0
41
1
10
35.01
20
-10.5323043718932
30
0
0
SPLINE
5
30B
100
AcDbEntity
8
1
62
256
6
ByLayer
370
13
48
1
60
0
100
AcDbSpline
70
4
71
3
72
8
73
4
40
0
40
0
40
0
40
0
40
1
40
1
40
1
40
1
41
1
10
337.684369639322
20
0.580457824785469
30
0
41
1
10
337.840723433059
20
0.604308117104324
30
0
41
1
10
337.995550026563
20
0.614714978311127
30
0
41
1
10
338.150148748322
20
0.613499852876572
30
0
0
SPLINE
5
30C
100
AcDbEntity
8
1
62
256
6
ByLayer
370
13
48
1
60
0
100
AcDbSpline
70
4
71
3
72
10
73
6
40
0
40
0
40
0
40
0
40
0.831982487579426
40
0.831982487579426
40
1
40
1
40
1
40
1
41
1
10
318.461358086286
20
21.4944475686785
30
0
41
1
10
318.425887053883
20
21.4473125260935
30
0
41
1
10
318.395054038124
20
21.4021362268131
30
0
41
1
10
318.367673478873
20
21.3570397397766
30
0
41
1
10
318.363434019059
20
21.3498225881017
30
0
41
1
10
318.359650573211
20
21.3431225338728
30
0
0
SPLINE
5
30D
100
AcDbEntity
8
1
62
256
6
ByLayer
370
13
48
1
60
0
100
AcDbSpline
70
4
71
3
72
14
73
10
40
0
40
0
40
0
40
0
40
0.0145581563097584
40
0.0145581563097584
40
0.343038770873172
40
0.343038770873172
40
0.671519385436586
40
0.671519385436586
40
1
40
1
40
1
40
1
41
1
10
319.191890710356
20
27.6972217194456
30
0
41
1
10
319.191899997023
20
27.6940486900933
30
0
41
1
10
319.19191178338
20
27.6908668533308
30
0
41
1
10
319.192240074466
20
27.6157476244276
30
0
41
1
10
319.193704453329
20
27.5390688379898
30
0
41
1
10
319.197343052513
20
27.3844855798403
30
0
41
1
10
319.199589420293
20
27.3060773147292
30
0
41
1
10
319.204543214699
20
27.1483702955721
30
0
41
1
10
319.207258979334
20
27.0690650331305
30
0
41
1
10
319.210137023227
20
26.9894528635502
30
0
0
SPLINE
5
30E
100
AcDbEntity
8
1
62
256
6
ByLayer
370
13
48
1
60
0
100
AcDbSpline
70
4
71
3
72
48
73
44
40
0
40
0
40
0
40
0
40
0.049134676373908
40
0.132177262789099
40
0.221148386530061
40
0.316146007297365
40
0.417205583761808
40
0.524294288737728
40
0.533308429588319
40
0.542587536980034
40
0.552132240387973
40
0.561943153910491
40
0.572020874598678
40
0.582365980623256
40
0.59297902928888
40
0.603860554904243
40
0.615011066515241
40
0.626431045507493
40
0.638120943083829
40
0.650081177621852
40
0.662312131916349
40
0.674814150311044
40
0.6875875357242
40
0.700632546572434
40
0.713949393597297
40
0.727538236599271
40
0.741399181084072
40
0.755532274826423
40
0.769937504356836
40
0.784614791377256
40
0.799563989111955
40
0.814784878600447
40
0.830277164939814
40
0.846040473484302
40
0.862074346010725
40
0.878378236858797
40
0.894951509056238
40
0.911793430439133
40
0.928903169778827
40
0.946279792927374
40
0.963922258994348
40
0.98182941656868
40
1
40
1
40
1
40
1
41
1
10
30.6280961192029
20
-10.6457134677504
30
0
41
1
10
30.6751311260983
20
-10.7414601251224
30
0
41
1
10
30.8057849706774
20
-11.0008340196487
30
0
41
1
10
31.0423301509323
20
-11.442183463951
30
0
41
1
10
31.3565026551156
20
-11.9827681278554
30
0
41
1
10
31.7233906892607
20
-12.5639923376905
30
0
41
1
10
32.1462681630008
20
-13.1814933601911
30
0
41
1
10
32.4710488086771
20
-13.6193517299055
30
0
41
1
10
32.6638901904159
20
-13.8691837103611
30
0
41
1
10
32.7068528205131
20
-13.9245873724604
30
0
41
1
10
32.7512211227923
20
-13.9814793576452
30
0
41
1
10
32.7970149557686
20
-14.0398458392301
30
0
41
1
10
32.8442582241827
20
-14.0996668231668
30
0
41
1
10
32.8929730774696
20
-14.1609223793888
30
0
41
1
10
32.9431814030241
20
-14.2235908278429
30
0
41
1
10
32.9949042777398
20
-14.2876491706443
30
0
41
1
10
33.0481619841074
20
-14.3530728976767
30
0
41
1
10
33.1029738640485
20
-14.4198359669458
30
0
41
1
10
33.1593582129954
20
-14.4879107366453
30
0
41
1
10
33.2173321578786
20
-14.5572679112392
30
0
41
1
10
33.2769115347413
20
-14.6278764844598
30
0
41
1
10
33.3381107616835
20
-14.6997036842111
30
0
41
1
10
33.4009427084225
20
-14.77271491824
30
0
41
1
10
33.4654185622312
20
-14.8468737211475
30
0
41
1
10
33.5315476904614
20
-14.9221417028479
30
0
41
1
10
33.5993374997662
20
-14.9984784987231
30
0
41
1
10
33.668793292186
20
-15.0758417216875
30
0
41
1
10
33.739918118282
20
-15.1541869164007
30
0
41
1
10
33.812712627526
20
-15.2334675158587
30
0
41
1
10
33.8871749161806
20
-15.3136348006373
30
0
41
1
10
33.9633003729296
20
-15.3946378609304
30
0
41
1
10
34.0410815225716
20
-15.4764235620572
30
0
41
1
10
34.1205078680023
20
-15.5589365121014
30
0
41
1
10
34.2015657312108
20
-15.6421190380775
30
0
41
1
10
34.2842380922387
20
-15.725911147416
30
0
41
1
10
34.3685044320171
20
-15.8102505649445
30
0
41
1
10
34.4543405584846
20
-15.89507250156
30
0
41
1
10
34.5417184969938
20
-15.9803104711033
30
0
41
1
10
34.6306061376432
20
-16.0658931230026
30
0
41
1
10
34.7209678167725
20
-16.1517563250875
30
0
41
1
10
34.8127613381776
20
-16.2377970205589
30
0
41
1
10
34.9059485985538
20
-16.3240494214873
30
0
41
1
10
34.9684972972982
20
-16.3809443105129
30
0
41
1
10
35
20
-16.409599467378
30
0
0
SPLINE
5
30F
100
AcDbEntity
8
1
62
256
6
ByLayer
370
13
48
1
60
0
100
AcDbSpline
70
4
71
3
72
48
73
44
40
0
40
0
40
0
40
0
40
0.0341272053819288
40
0.0341272053819288
40
0.0801211479827895
40
0.0801211479827895
40
0.12611509058365
40
0.12611509058365
40
0.14911206188408
40
0.14911206188408
40
0.17210903318451
40
0.17210903318451
40
0.21810297578537
40
0.21810297578537
40
0.264096918386231
40
0.264096918386231
40
0.310090860987092
40
0.310090860987092
40
0.356084803587953
40
0.356084803587953
40
0.448072688789674
40
0.448072688789674
40
0.494066631390534
40
0.494066631390534
40
0.540060573991395
40
0.540060573991395
40
0.586054516592256
40
0.586054516592256
40
0.632048459193116
40
0.632048459193116
40
0.678042401793977
40
0.678042401793977
40
0.724036344394837
40
0.724036344394837
40
0.747033315695267
40
0.747033315695267
40
0.770030286995697
40
0.770030286995697
40
0.816024229596558
40
0.816024229596558
40
0.908012114798279
40
0.908012114798279
40
1
40
1
40
1
40
1
41
1
10
256.28747892935
20
-24.1658662971814
30
0
41
1
10
255.222290807705
20
-24.4242731152407
30
0
41
1
10
254.157840578015
20
-24.6735793603074
30
0
41
1
10
251.659753236415
20
-25.2363284686345
30
0
41
1
10
250.226005626395
20
-25.5412947763572
30
0
41
1
10
247.352011691236
20
-26.1083946444936
30
0
41
1
10
245.911701770667
20
-26.3704366955569
30
0
41
1
10
243.739977212358
20
-26.7279341506534
30
0
41
1
10
243.013987769453
20
-26.8412065378804
30
0
41
1
10
241.558794215453
20
-27.0555669964121
30
0
41
1
10
240.829523861351
20
-27.1567511274528
30
0
41
1
10
238.636652489238
20
-27.4435649308149
30
0
41
1
10
237.167990842506
20
-27.6124757377115
30
0
41
1
10
234.216996262312
20
-27.9118544043692
30
0
41
1
10
232.734600907762
20
-28.0422847918376
30
0
41
1
10
229.756585365364
20
-28.2706439162968
30
0
41
1
10
228.260395497
20
-28.3686164404072
30
0
41
1
10
225.258631731165
20
-28.537161580267
30
0
41
1
10
223.75345343886
20
-28.6077274855602
30
0
41
1
10
219.224342176997
20
-28.7847728215495
30
0
41
1
10
216.186822246883
20
-28.8566628821613
30
0
41
1
10
211.600434909707
20
-28.9195872876304
30
0
41
1
10
210.067009017535
20
-28.9330490549654
30
0
41
1
10
206.994356002759
20
-28.9487780380213
30
0
41
1
10
205.454567436472
20
-28.9510459256232
30
0
41
1
10
202.367390789998
20
-28.9481207338225
30
0
41
1
10
200.81996627346
20
-28.9429394619411
30
0
41
1
10
197.717012316143
20
-28.9286638145918
30
0
41
1
10
196.160849430745
20
-28.9195679492755
30
0
41
1
10
193.044687416988
20
-28.9002539130757
30
0
41
1
10
191.484946136592
20
-28.8900266458208
30
0
41
1
10
188.362210824274
20
-28.8705421561671
30
0
41
1
10
186.799242600847
20
-28.8612505315564
30
0
41
1
10
184.452142012374
20
-28.8494524819405
30
0
41
1
10
183.669321287606
20
-28.8458869893922
30
0
41
1
10
182.102737677381
20
-28.8396867121786
30
0
41
1
10
181.318989418986
20
-28.8370364669419
30
0
41
1
10
178.96658357568
20
-28.8303526102921
30
0
41
1
10
177.397249545758
20
-28.8276394869431
30
0
41
1
10
172.690356142941
20
-28.822613591655
30
0
41
1
10
169.552291578073
20
-28.8229478220378
30
0
41
1
10
163.27614666981
20
-28.8240929685526
30
0
41
1
10
160.138068433683
20
-28.8248219800949
30
0
41
1
10
157
20
-28.8252805161911
30
0
0
SPLINE
5
310
100
AcDbEntity
8
1
62
256
6
ByLayer
370
13
48
1
60
0
100
AcDbSpline
70
4
71
3
72
18
73
14
40
0
40
0
40
0
40
0
40
0.106286240435289
40
0.106286240435289
40
0.285028992348231
40
0.285028992348231
40
0.463771744261174
40
0.463771744261174
40
0.642514496174116
40
0.642514496174116
40
0.821257248087058
40
0.821257248087058
40
1
40
1
40
1
40
1
41
1
10
35.4500089949573
20
-10.5211323723687
30
0
41
1
10
35.4500133403088
20
-10.71402381933
30
0
41
1
10
35.4500174185665
20
-10.9124364036945
30
0
41
1
10
35.4500275712386
20
-11.4562314935086
30
0
41
1
10
35.4500331109275
20
-11.8095839381556
30
0
41
1
10
35.4500423510127
20
-12.5291542986672
30
0
41
1
10
35.4500460512356
20
-12.8953587095543
30
0
41
1
10
35.4500514883961
20
-13.6283690042168
30
0
41
1
10
35.4500532252318
20
-13.9951611307725
30
0
41
1
10
35.4500546773763
20
-14.7170627150093
30
0
41
1
10
35.4500543926579
20
-15.0721586239602
30
0
41
1
10
35.4500518111538
20
-15.7587748858741
30
0
41
1
10
35.4500495144165
20
-16.0902823523457
30
0
41
1
10
35.4500462500676
20
-16.4044503720392
30
0
0
SPLINE
5
311
100
AcDbEntity
8
1
62
256
6
ByLayer
370
13
48
1
60
0
100
AcDbSpline
70
4
71
3
72
71
73
67
40
0
40
0
40
0
40
0
40
0.0091092230688365
40
0.0091092230688365
40
0.0281648149328967
40
0.0281648149328967
40
0.0472204067969573
40
0.0472204067969573
40
0.0567482027289878
40
0.0567482027289878
40
0.0662759986610183
40
0.0662759986610183
40
0.0853315905250789
40
0.0853315905250789
40
0.104387182389139
40
0.104387182389139
40
0.1234427742532
40
0.1234427742532
40
0.142498366117261
40
0.142498366117261
40
0.161553957981321
40
0.161553957981321
40
0.199665141709442
40
0.199665141709442
40
0.218720733573503
40
0.218720733573503
40
0.237776325437564
40
0.237776325437564
40
0.256831917301625
40
0.256831917301625
40
0.275887509165686
40
0.275887509165686
40
0.294943101029746
40
0.294943101029746
40
0.313998692893807
40
0.313998692893807
40
0.333054284757868
40
0.333054284757868
40
0.352109876621929
40
0.352109876621929
40
0.361637672553959
40
0.361637672553959
40
0.371165468485989
40
0.371165468485989
40
0.38069326441802
40
0.38069326441802
40
0.39022106035005
40
0.409276652214111
40
0.409276652214111
40
0.428332244078172
40
0.428332244078172
40
0.466443427806294
40
0.466443427806294
40
0.504554611534416
40
0.504554611534416
40
0.542665795262538
40
0.542665795262538
40
0.58077697899066
40
0.58077697899066
40
0.618888162718782
40
0.618888162718782
40
0.695110530175026
40
0.695110530175026
40
0.847555265087513
40
0.847555265087513
40
1
40
1
40
1
40
1
41
1
10
255.802607872138
20
-24.027533613786
30
0
41
1
10
255.180659457028
20
-24.1739717791747
30
0
41
1
10
254.558782482387
20
-24.3176640212593
30
0
41
1
10
252.636748868503
20
-24.7531120385115
30
0
41
1
10
251.337941796439
20
-25.0322065140261
30
0
41
1
10
248.73768083117
20
-25.5535928739234
30
0
41
1
10
247.436151964841
20
-25.7963223440516
30
0
41
1
10
245.476986776266
20
-26.1336812747215
30
0
41
1
10
244.822784194895
20
-26.2417071888372
30
0
41
1
10
243.511290289001
20
-26.4492151972742
30
0
41
1
10
242.853965032261
20
-26.5487797375771
30
0
41
1
10
240.876701755504
20
-26.8328602061973
30
0
41
1
10
239.55094716517
20
-27.0034333356041
30
0
41
1
10
236.889697401637
20
-27.3107887998816
30
0
41
1
10
235.554143994721
20
-27.4477529751763
30
0
41
1
10
232.873160799268
20
-27.691133956873
30
0
41
1
10
231.527741193911
20
-27.7976516711987
30
0
41
1
10
228.827396557079
20
-27.9856899428885
30
0
41
1
10
227.472473310441
20
-28.0672144916153
30
0
41
1
10
224.753522994842
20
-28.210293231227
30
0
41
1
10
223.389114214419
20
-28.2717569741841
30
0
41
1
10
219.287145584641
20
-28.4277890084821
30
0
41
1
10
216.539609505479
20
-28.4935511677543
30
0
41
1
10
212.397105583759
20
-28.5471254058334
30
0
41
1
10
211.01267300407
20
-28.5581284565978
30
0
41
1
10
208.235958795025
20
-28.5735171791557
30
0
41
1
10
206.843547100361
20
-28.5782688952892
30
0
41
1
10
204.054626785008
20
-28.581994857236
30
0
41
1
10
202.65762507037
20
-28.580882579865
30
0
41
1
10
199.858276905892
20
-28.5722967260619
30
0
41
1
10
198.45591400494
20
-28.5646438777067
30
0
41
1
10
195.645848505917
20
-28.5467459947195
30
0
41
1
10
194.238146763841
20
-28.5365415691162
30
0
41
1
10
191.417477368827
20
-28.517653738168
30
0
41
1
10
190.004952243066
20
-28.5089099416036
30
0
41
1
10
187.179120497459
20
-28.4938284901946
30
0
41
1
10
185.765318643654
20
-28.4879079078512
30
0
41
1
10
182.935798551688
20
-28.473301364416
30
0
41
1
10
181.520050503153
20
-28.4630641680571
30
0
41
1
10
179.395128972367
20
-28.4521250193073
30
0
41
1
10
178.686601521819
20
-28.4495031239852
30
0
41
1
10
177.269124474554
20
-28.4502300694027
30
0
41
1
10
176.560174803356
20
-28.4536953199952
30
0
41
1
10
175.142052478019
20
-28.4607097481313
30
0
41
1
10
174.432932381274
20
-28.463894575667
30
0
41
1
10
173.014743363292
20
-28.4671731585223
30
0
41
1
10
170.887459979559
20
-28.4686463512976
30
0
41
1
10
168.760176306083
20
-28.4632423287386
30
0
41
1
10
165.923796519438
20
-28.4561172184962
30
0
41
1
10
164.505605702274
20
-28.4530679545547
30
0
41
1
10
160.251030842905
20
-28.447221166408
30
0
41
1
10
157.414644753988
20
-28.4472362980954
30
0
41
1
10
151.741873379845
20
-28.4509741355243
30
0
41
1
10
148.905487134428
20
-28.4531177460065
30
0
41
1
10
143.232713677022
20
-28.4546656088968
30
0
41
1
10
140.396326543691
20
-28.4544951858554
30
0
41
1
10
134.723552079237
20
-28.4527880735366
30
0
41
1
10
131.887164728207
20
-28.4514034113997
30
0
41
1
10
126.214390172196
20
-28.449837447319
30
0
41
1
10
123.3780029872
20
-28.4497768267108
30
0
41
1
10
114.868841565726
20
-28.4507895588586
30
0
41
1
10
109.196067459036
20
-28.4529823500293
30
0
41
1
10
92.177744558427
20
-28.4555755164339
30
0
41
1
10
80.8321955952521
20
-28.4529937894139
30
0
41
1
10
58.1410978474765
20
-28.4516910983041
30
0
41
1
10
46.7955489260794
20
-28.4528501823897
30
0
41
1
10
35.45
20
-28.4529508299221
30
0
0
SPLINE
5
312
100
AcDbEntity
8
1
62
256
6
ByLayer
370
13
48
1
60
0
100
AcDbSpline
70
4
71
3
72
40
73
36
40
0
40
0
40
0
40
0
40
0.0101288877721607
40
0.0101288877721607
40
0.0331491461960641
40
0.0331491461960641
40
0.0561694046199675
40
0.0561694046199675
40
0.0791896630438709
40
0.0791896630438709
40
0.102209921467774
40
0.102209921467774
40
0.125230179891678
40
0.125230179891678
40
0.171270696739485
40
0.171270696739485
40
0.194290955163389
40
0.194290955163389
40
0.217311213587292
40
0.217311213587292
40
0.240331472011195
40
0.240331472011195
40
0.263351730435099
40
0.263351730435099
40
0.355432764130711
40
0.355432764130711
40
0.447513797826324
40
0.447513797826324
40
0.539594831521937
40
0.539594831521937
40
0.63167586521755
40
0.63167586521755
40
0.815837932608775
40
0.815837932608775
40
1
40
1
40
1
40
1
41
1
10
218.620522883184
20
-15.1935355203888
30
0
41
1
10
218.008216281688
20
-15.2358657499131
30
0
41
1
10
217.395624820696
20
-15.2772406385327
30
0
41
1
10
215.389850237316
20
-15.409813151808
30
0
41
1
10
213.99543434195
20
-15.4971643795064
30
0
41
1
10
211.202975366494
20
-15.6588649404102
30
0
41
1
10
209.80490742184
20
-15.7330117229203
30
0
41
1
10
207.0047257048
20
-15.8663552289775
30
0
41
1
10
205.602654443302
20
-15.9259134916541
30
0
41
1
10
202.794543431319
20
-16.0323029691539
30
0
41
1
10
201.389532947109
20
-16.0790931736456
30
0
41
1
10
198.579968886685
20
-16.1612072746125
30
0
41
1
10
197.175047271959
20
-16.1965457294151
30
0
41
1
10
192.959855858085
20
-16.2872635894628
30
0
41
1
10
190.149149199118
20
-16.3266319822281
30
0
41
1
10
185.932277172141
20
-16.3661836545572
30
0
41
1
10
184.526519729644
20
-16.3762434298942
30
0
41
1
10
181.714748005532
20
-16.3917846674854
30
0
41
1
10
180.308734596644
20
-16.3969194220971
30
0
41
1
10
177.496413753061
20
-16.4026812336626
30
0
41
1
10
176.090086694212
20
-16.404064094203
30
0
41
1
10
173.277384934591
20
-16.4053433866867
30
0
41
1
10
171.871010556115
20
-16.4051177410219
30
0
41
1
10
164.839099812134
20
-16.405189110512
30
0
41
1
10
159.213399271388
20
-16.4049122541683
30
0
41
1
10
147.962072643197
20
-16.4049503035857
30
0
41
1
10
142.336460189563
20
-16.4043794801546
30
0
41
1
10
131.085269140435
20
-16.4035322106577
30
0
41
1
10
125.459681010911
20
-16.4034080124705
30
0
41
1
10
114.208480088073
20
-16.4039031146962
30
0
41
1
10
108.582873870952
20
-16.4043733060361
30
0
41
1
10
91.7060567275185
20
-16.4050424661214
30
0
41
1
10
80.4548454167135
20
-16.4047328343626
30
0
41
1
10
57.9524227088439
20
-16.4044643525244
30
0
41
1
10
46.7012113539601
20
-16.4044819052254
30
0
41
1
10
35.450000000021
20
-16.4044503719096
30
0
0
SPLINE
5
313
100
AcDbEntity
8
1
62
256
6
ByLayer
370
13
48
1
60
0
100
AcDbSpline
70
4
71
3
72
28
73
24
40
0
40
0
40
0
40
0
40
0.0896861346250906
40
0.0896861346250906
40
0.179372269250181
40
0.179372269250181
40
0.358744538500362
40
0.358744538500362
40
0.448430673125454
40
0.448430673125454
40
0.538116807750546
40
0.538116807750546
40
0.627802942375638
40
0.627802942375638
40
0.71748907700073
40
0.71748907700073
40
0.807175211625822
40
0.807175211625822
40
0.896861346250915
40
0.896861346250915
40
0.986547480876006
40
0.986547480876006
40
1
40
1
40
1
40
1
41
1
10
306.103525421093
20
28.6619189979025
30
0
41
1
10
304.6165240795
20
28.7562519792843
30
0
41
1
10
303.13004234109
20
28.8275081200288
30
0
41
1
10
300.156825680177
20
28.9235840401455
30
0
41
1
10
298.669594432958
20
28.9483994623928
30
0
41
1
10
294.210543911271
20
28.9529760028652
30
0
41
1
10
291.241073620654
20
28.8630059992354
30
0
41
1
10
286.785740593088
20
28.5888064195446
30
0
41
1
10
285.300054002999
20
28.4741809998729
30
0
41
1
10
282.327363446019
20
28.1992204167997
30
0
41
1
10
280.841704179544
20
28.0390867123433
30
0
41
1
10
277.87070738766
20
27.6743881181344
30
0
41
1
10
276.385448074617
20
27.4697906943802
30
0
41
1
10
273.41497348428
20
27.0163267291262
30
0
41
1
10
271.929892502021
20
26.7673245259474
30
0
41
1
10
268.958176421288
20
26.2259967257751
30
0
41
1
10
267.471985520121
20
25.9337950550596
30
0
41
1
10
264.500923880163
20
25.3094352526817
30
0
41
1
10
263.015693807725
20
24.9768448801435
30
0
41
1
10
260.039712642193
20
24.278892146983
30
0
41
1
10
258.548909554352
20
23.913600989114
30
0
41
1
10
256.827951826124
20
23.4806335557261
30
0
41
1
10
256.603349699612
20
23.4239064348835
30
0
41
1
10
256.378619644773
20
23.3669335057109
30
0
0
SPLINE
5
314
100
AcDbEntity
8
1
62
256
6
ByLayer
370
13
48
1
60
0
100
AcDbSpline
70
4
71
3
72
34
73
30
40
0
40
0
40
0
40
0
40
0.0799041143992271
40
0.0799041143992271
40
0.159808228798454
40
0.159808228798454
40
0.319616457596906
40
0.319616457596906
40
0.399520571996131
40
0.399520571996131
40
0.479424686395357
40
0.479424686395357
40
0.639232915193808
40
0.639232915193808
40
0.719137029593034
40
0.719137029593034
40
0.79904114399226
40
0.79904114399226
40
0.878945258391486
40
0.878945258391486
40
0.918897315591098
40
0.918897315591098
40
0.938873344190905
40
0.938873344190905
40
0.958849372790711
40
0.958849372790711
40
0.998801429990327
40
0.998801429990327
40
1
40
1
40
1
40
1
41
1
10
306.037072371356
20
28.5603709822087
30
0
41
1
10
304.717033114593
20
28.6439880095565
30
0
41
1
10
303.397268521142
20
28.7096982358248
30
0
41
1
10
300.757453226827
20
28.8052454809254
30
0
41
1
10
299.437169618168
20
28.8350760199869
30
0
41
1
10
295.479102760802
20
28.8704093861762
30
0
41
1
10
292.842836836633
20
28.8218154650953
30
0
41
1
10
288.886909847575
20
28.6345175051037
30
0
41
1
10
287.567991017393
20
28.5529056582571
30
0
41
1
10
284.9286740689
20
28.3535498621265
30
0
41
1
10
283.608741396493
20
28.2358509514262
30
0
41
1
10
279.649825712606
20
27.8323511348804
30
0
41
1
10
277.009783732093
20
27.4968375500647
30
0
41
1
10
273.050876876479
20
26.8828082060663
30
0
41
1
10
271.731001174815
20
26.6592676121929
30
0
41
1
10
269.09111737285
20
26.177926154998
30
0
41
1
10
267.771786589946
20
25.9203654511865
30
0
41
1
10
265.1333659653
20
25.3750746290035
30
0
41
1
10
263.814281100702
20
25.0864468146342
30
0
41
1
10
261.835227224058
20
24.6394037576267
30
0
41
1
10
261.175478327247
20
24.4881128639594
30
0
41
1
10
260.185749208005
20
24.2589834819219
30
0
41
1
10
259.855873330106
20
24.182370955677
30
0
41
1
10
259.195257645658
20
24.0262772152549
30
0
41
1
10
258.864440038128
20
23.9465875703025
30
0
41
1
10
257.869834109954
20
23.7017379750608
30
0
41
1
10
257.204268878484
20
23.5320693920289
30
0
41
1
10
256.518054299319
20
23.3568414312252
30
0
41
1
10
256.49806665456
20
23.3517366286457
30
0
41
1
10
256.47807833776
20
23.3466307822842
30
0
0
SPLINE
5
315
100
AcDbEntity
8
1
62
256
6
ByLayer
370
13
48
1
60
0
100
AcDbSpline
70
4
71
3
72
12
73
8
40
0
40
0
40
0
40
0
40
0.339062231839144
40
0.339062231839144
40
0.669531115919572
40
0.669531115919572
40
1
40
1
40
1
40
1
41
1
10
287.02078997614
20
12.8805859904766
30
0
41
1
10
289.948120597887
20
13.0460327346554
30
0
41
1
10
292.875023899329
20
13.171721120277
30
0
41
1
10
298.655998191733
20
13.3383853003293
30
0
41
1
10
301.510643604034
20
13.3813847905406
30
0
41
1
10
307.220175062932
20
13.3867251912644
30
0
41
1
10
310.074411332348
20
13.3490810356144
30
0
41
1
10
312.929133099587
20
13.2707814941445
30
0
0
SPLINE
5
316
100
AcDbEntity
8
1
62
256
6
ByLayer
370
13
48
1
60
0
100
AcDbSpline
70
4
71
3
72
54
73
50
40
0
40
0
40
0
40
0
40
0.0410660671844455
40
0.0410660671844455
40
0.082132134368891
40
0.082132134368891
40
0.123198201553336
40
0.123198201553336
40
0.164264268737782
40
0.164264268737782
40
0.246396403106673
40
0.246396403106673
40
0.287462470291118
40
0.287462470291118
40
0.328528537475564
40
0.328528537475564
40
0.410660671844455
40
0.410660671844455
40
0.4517267390289
40
0.4517267390289
40
0.492792806213346
40
0.492792806213346
40
0.533858873397791
40
0.533858873397791
40
0.554391906990014
40
0.554391906990014
40
0.574924940582237
40
0.574924940582237
40
0.615991007766683
40
0.615991007766683
40
0.657057074951128
40
0.657057074951128
40
0.698123142135574
40
0.698123142135574
40
0.739189209320019
40
0.739189209320019
40
0.780255276504465
40
0.780255276504465
40
0.82132134368891
40
0.82132134368891
40
0.862387410873356
40
0.862387410873356
40
0.903453478057801
40
0.903453478057801
40
0.944519545242246
40
0.944519545242246
40
0.985585612426692
40
0.985585612426692
40
1
40
1
40
1
40
1
41
1
10
305.880598212274
20
4.87248746997966
30
0
41
1
10
304.391585210513
20
5.53284428330633
30
0
41
1
10
302.902740870632
20
6.18932561220328
30
0
41
1
10
299.926984412785
20
7.49062419022295
30
0
41
1
10
298.439657477194
20
8.13562344161514
30
0
41
1
10
295.464834584417
20
9.4116023065165
30
0
41
1
10
293.977334818417
20
10.0425738458201
30
0
41
1
10
291.000888305473
20
11.2877990818972
30
0
41
1
10
289.511391748671
20
11.9023065405302
30
0
41
1
10
285.046339376506
20
13.714234332716
30
0
41
1
10
282.072526377999
20
14.8808075423005
30
0
41
1
10
277.608658367282
20
16.5542370761927
30
0
41
1
10
276.119740850181
20
17.0994152841656
30
0
41
1
10
273.141547656197
20
18.1615192786849
30
0
41
1
10
271.653376446116
20
18.6780900528236
30
0
41
1
10
267.190090630621
20
20.1817754014618
30
0
41
1
10
264.216213780008
20
21.1228797219525
30
0
41
1
10
259.751424706877
20
22.4316500070923
30
0
41
1
10
258.263065324906
20
22.8505656648904
30
0
41
1
10
255.288410774869
20
23.6500924097165
30
0
41
1
10
253.801655427867
20
24.0310192049574
30
0
41
1
10
250.826674324937
20
24.7521329236509
30
0
41
1
10
249.337980351781
20
25.0915677191341
30
0
41
1
10
247.094750527285
20
25.5615004675426
30
0
41
1
10
246.345297893353
20
25.7116360343794
30
0
41
1
10
244.841476240253
20
25.9980256404767
30
0
41
1
10
244.087471527743
20
26.1341061812311
30
0
41
1
10
241.819960294426
20
26.5217142335632
30
0
41
1
10
240.300522373824
20
26.7528331799105
30
0
41
1
10
237.244616799749
20
27.1668000505337
30
0
41
1
10
235.707848415605
20
27.3494029488777
30
0
41
1
10
232.61765085344
20
27.6740988819465
30
0
41
1
10
231.064147665651
20
27.8164230711356
30
0
41
1
10
227.944916058035
20
28.0687606811692
30
0
41
1
10
226.380301320085
20
28.1787544660398
30
0
41
1
10
223.241983727829
20
28.3717641816672
30
0
41
1
10
221.667962053876
20
28.4547634628726
30
0
41
1
10
218.513926238263
20
28.5980362222391
30
0
41
1
10
216.933766270818
20
28.6582738690401
30
0
41
1
10
213.765057236296
20
28.7585475513439
30
0
41
1
10
212.176500964897
20
28.7985850738904
30
0
41
1
10
208.988753596616
20
28.8619839564522
30
0
41
1
10
207.38913254649
20
28.8853746076582
30
0
41
1
10
204.179234079052
20
28.9197496780259
30
0
41
1
10
202.570623666391
20
28.93071732604
30
0
41
1
10
199.34559245457
20
28.9448627278163
30
0
41
1
10
197.729334567572
20
28.9481175420206
30
0
41
1
10
195.541458254782
20
28.9498178847774
30
0
41
1
10
194.972649389222
20
28.9500099734923
30
0
41
1
10
194.403464926005
20
28.9500040901359
30
0
0
SPLINE
5
317
100
AcDbEntity
8
1
62
256
6
ByLayer
370
13
48
1
60
0
100
AcDbSpline
70
4
71
3
72
10
73
6
40
0
40
0
40
0
40
0
40
0.795861017336781
40
0.795861017336781
40
1
40
1
40
1
40
1
41
1
10
312.509231750606
20
11.2724115256127
30
0
41
1
10
306.790410689886
20
11.4558140009101
30
0
41
1
10
301.077322111091
20
11.499647265087
30
0
41
1
10
293.898591971219
20
11.3842123328628
30
0
41
1
10
292.433128061362
20
11.3517654286934
30
0
41
1
10
290.967559621794
20
11.3105664394538
30
0
0
SPLINE
5
318
100
AcDbEntity
8
1
62
256
6
ByLayer
370
13
48
1
60
0
100
AcDbSpline
70
4
71
3
72
26
73
22
40
0
40
0
40
0
40
0
40
0.0089452677924154
40
0.0089452677924154
40
0.119062460259925
40
0.119062460259925
40
0.229179652727434
40
0.229179652727434
40
0.339296845194943
40
0.339296845194943
40
0.449414037662452
40
0.449414037662452
40
0.504472633896207
40
0.504472633896207
40
0.559531230129962
40
0.559531230129962
40
0.669648422597471
40
0.669648422597471
40
0.779765615064981
40
0.779765615064981
40
1
40
1
40
1
40
1
41
1
10
15.7177759675581
20
-12.2445775266908
30
0
41
1
10
15.672418640523
20
-12.277910214768
30
0
41
1
10
15.6272121072753
20
-12.3113395942578
30
0
41
1
10
15.0276719471495
20
-12.7574620450717
30
0
41
1
10
14.4957321746874
20
-13.1847063247762
30
0
41
1
10
13.4763754206414
20
-14.0678602372467
30
0
41
1
10
12.9891546027427
20
-14.5239668957408
30
0
41
1
10
12.0582878553688
20
-15.4654602390927
30
0
41
1
10
11.6145554706754
20
-15.950624803151
30
0
41
1
10
10.7699239404106
20
-16.9492156571696
30
0
41
1
10
10.3690206337103
20
-17.4626399936536
30
0
41
1
10
9.80042408912759
20
-18.2541825273089
30
0
41
1
10
9.61636303322982
20
-18.5216045315893
30
0
41
1
10
9.25944048240216
20
-19.063722476908
30
0
41
1
10
9.08700768271291
20
-19.3378140190557
30
0
41
1
10
8.59077170517504
20
-20.1644553517568
30
0
41
1
10
8.28704636064177
20
-20.7229965991044
30
0
41
1
10
7.7324547683623
20
-21.8568235261174
30
0
41
1
10
7.48121338521774
20
-22.4318709689236
30
0
41
1
10
6.80054595111908
20
-24.1795275023209
30
0
41
1
10
6.44344258536276
20
-25.3744621954179
30
0
41
1
10
6.17792163694159
20
-26.5965020732173
30
0
0
SPLINE
5
319
100
AcDbEntity
8
1
62
256
6
ByLayer
370
13
48
1
60
0
100
AcDbSpline
70
4
71
3
72
30
73
26
40
0
40
0
40
0
40
0
40
0.112592808140498
40
0.112592808140498
40
0.225185616280995
40
0.225185616280995
40
0.337778424421492
40
0.337778424421492
40
0.394074828491746
40
0.394074828491746
40
0.450371232562
40
0.450371232562
40
0.562964040702507
40
0.562964040702507
40
0.675556848843014
40
0.675556848843014
40
0.731853252913272
40
0.731853252913272
40
0.78814965698353
40
0.78814965698353
40
0.900742465124047
40
0.900742465124047
40
0.957038869194305
40
0.957038869194305
40
1
40
1
40
1
40
1
41
1
10
312.263694124464
20
10.349896103967
30
0
41
1
10
311.667665714411
20
10.4920008950337
30
0
41
1
10
311.065485701769
20
10.6088075953777
30
0
41
1
10
309.850005309105
20
10.7999229212824
30
0
41
1
10
309.23668804612
20
10.8741535638448
30
0
41
1
10
307.998821518814
20
10.983753227676
30
0
41
1
10
307.37426773642
20
11.0190894839956
30
0
41
1
10
306.428231372783
20
11.0437085807577
30
0
41
1
10
306.111344676461
20
11.0471661253448
30
0
41
1
10
305.474272721593
20
11.0445170659489
30
0
41
1
10
305.153402113967
20
11.0383751555247
30
0
41
1
10
304.193178174989
20
11.0056458691973
30
0
41
1
10
303.554851340781
20
10.964884316372
30
0
41
1
10
302.281712446024
20
10.8458522297791
30
0
41
1
10
301.646898885838
20
10.7676005117003
30
0
41
1
10
300.697337186433
20
10.6210255796715
30
0
41
1
10
300.38126107661
20
10.5672856922107
30
0
41
1
10
299.750024278449
20
10.4496052770115
30
0
41
1
10
299.434069464059
20
10.3854656040848
30
0
41
1
10
298.499511538287
20
10.1794782654084
30
0
41
1
10
297.891031967967
20
10.0237565787209
30
0
41
1
10
297.00350809308
20
9.76021712113541
30
0
41
1
10
296.711888532591
20
9.66734417927168
30
0
41
1
10
296.206054650298
20
9.49381653438402
30
0
41
1
10
295.989362050889
20
9.41524736577722
30
0
41
1
10
295.777876054011
20
9.33394439325554
30
0
0
SPLINE
5
31A
100
AcDbEntity
8
1
62
256
6
ByLayer
370
13
48
1
60
0
100
AcDbSpline
70
4
71
1
72
4
73
2
40
0
40
0
40
1
40
1
41
1
10
317.851138158451
20
18.9341303172498
30
0
41
1
10
317.92565030073
20
18.9401759521981
30
0
0
SPLINE
5
31B
100
AcDbEntity
8
1
62
256
6
ByLayer
370
13
48
1
60
0
100
AcDbSpline
70
4
71
3
72
14
73
10
40
0
40
0
40
0
40
0
40
0.19257165863159
40
0.19257165863159
40
0.394428743973693
40
0.394428743973693
40
0.596285829315795
40
0.596285829315795
40
1
40
1
40
1
40
1
41
1
10
286.425146723506
20
13.1508089395785
30
0
41
1
10
287.686982038749
20
12.647201736968
30
0
41
1
10
288.948508426445
20
12.1361001548872
30
0
41
1
10
291.532526019754
20
11.0753702799512
30
0
41
1
10
292.855023302633
20
10.5250680559666
30
0
41
1
10
295.50105369621
20
9.41122755825947
30
0
41
1
10
296.824846629709
20
8.84759124374415
30
0
41
1
10
300.793597854279
20
7.14212739522787
30
0
41
1
10
303.437646559832
20
5.98508512747162
30
0
41
1
10
306.083308476301
20
4.8155081149994
30
0
0
SPLINE
5
31C
100
AcDbEntity
8
1
62
256
6
ByLayer
370
13
48
1
60
0
100
AcDbSpline
70
4
71
3
72
14
73
10
40
0
40
0
40
0
40
0
40
0.0764435740497719
40
0.0764435740497719
40
0.48832024268291
40
0.48832024268291
40
0.900196911316049
40
0.900196911316049
40
1
40
1
40
1
40
1
41
1
10
338.629849285383
20
10.309467677116
30
0
41
1
10
338.621288260402
20
10.3005063136113
30
0
41
1
10
338.612519004894
20
10.2917491378634
30
0
41
1
10
338.555208317601
20
10.2371435366011
30
0
41
1
10
338.500248778496
20
10.1966019140439
30
0
41
1
10
338.383929202622
20
10.1315152899813
30
0
41
1
10
338.321276416192
20
10.1061044000207
30
0
41
1
10
338.240867614488
20
10.0844486202087
30
0
41
1
10
338.225103877936
20
10.080837440672
30
0
41
1
10
338.20928160879
20
10.0776745638959
30
0
0
SPLINE
5
31D
100
AcDbEntity
8
1
62
256
6
ByLayer
370
13
48
1
60
0
100
AcDbSpline
70
4
71
1
72
4
73
2
40
0
40
0
40
1
40
1
41
1
10
338.628979123819
20
10.3086014810582
30
0
41
1
10
338.773654116804
20
10.438165993897
30
0
0
SPLINE
5
31E
100
AcDbEntity
8
1
62
256
6
ByLayer
370
13
48
1
60
0
100
AcDbSpline
70
4
71
1
72
4
73
2
40
0
40
0
40
1
40
1
41
1
10
319.729221905496
20
9.44008959399605
30
0
41
1
10
319.886647533153
20
9.3263575038053
30
0
0
SPLINE
5
31F
100
AcDbEntity
8
1
62
256
6
ByLayer
370
13
48
1
60
0
100
AcDbSpline
70
4
71
1
72
4
73
2
40
0
40
0
40
1
40
1
41
1
10
286.434460067807
20
13.1470930168036
30
0
41
1
10
286.404661771822
20
13.159029221929
30
0
0
SPLINE
5
320
100
AcDbEntity
8
1
62
256
6
ByLayer
370
13
48
1
60
0
100
AcDbSpline
70
4
71
3
72
12
73
8
40
0
40
0
40
0
40
0
40
0.279997461893745
40
0.560024210389509
40
0.706674447353495
40
0.853343843860764
40
1
40
1
40
1
40
1
41
1
10
5.07830000000003
20
-31.25
30
0
41
1
10
7.87728611458013
20
-31.1522375149283
30
0
41
1
10
13.4688362583918
20
-30.8654832195401
30
0
41
1
10
20.5163868332015
20
-30.3203577381594
30
0
41
1
10
26.2130204089443
20
-29.6777360497365
30
0
41
1
10
30.6003037292784
20
-29.3209496886202
30
0
41
1
10
33.5321288860333
20
-29.2500492886978
30
0
41
1
10
35
20
-29.2499999999979
30
0
0
SPLINE
5
321
100
AcDbEntity
8
1
62
256
6
ByLayer
370
13
48
1
60
0
100
AcDbSpline
70
4
71
3
72
12
73
8
40
0
40
0
40
0
40
0
40
0.186652836182138
40
0.373296135738848
40
0.559971769421262
40
0.780003502425039
40
1
40
1
40
1
40
1
41
1
10
35
20
29.2499999999978
30
0
41
1
10
33.1310774492137
20
29.2542086875071
30
0
41
1
10
29.3992240139117
20
29.3553958250971
30
0
41
1
10
23.830111014311
20
29.9699400712225
30
0
41
1
10
17.9239265838274
20
30.5251394997291
30
0
41
1
10
11.6718751474221
20
30.9667429853442
30
0
41
1
10
7.27717525935222
20
31.1732060624267
30
0
41
1
10
5.07830000000011
20
31.25
30
0
0
LINE
5
7F
100
AcDbEntity
8
SK1
62
256
6
ByLayer
370
13
48
1
60
0
100
AcDbLine
10
-6.5
20
-10.670483
30
0
11
-76.600002
21
-10.670483
31
0
39
0
210
0
220
0
230
1
0
LINE
5
81
100
AcDbEntity
8
SK1
62
256
6
ByLayer
370
13
48
1
60
0
100
AcDbLine
10
-76.600002
20
10.670483
30
0
11
-6.5
21
10.670483
31
0
39
0
210
0
220
0
230
1
0
LINE
5
82
100
AcDbEntity
8
1
62
256
6
ByLayer
370
18
48
1
60
0
100
AcDbLine
10
329.999211
20
18.547909
30
0
11
329.988729
21
18.564924
31
0
39
0
210
0
220
0
230
1
0
LINE
5
83
100
AcDbEntity
8
1
62
256
6
ByLayer
370
18
48
1
60
0
100
AcDbLine
10
330.42677
20
20.018149
30
0
11
330.289549
21
20.010958
31
0
39
0
210
0
220
0
230
1
0
LINE
5
84
100
AcDbEntity
8
1
62
256
6
ByLayer
370
18
48
1
60
0
100
AcDbLine
10
330.016954
20
20.651876
30
0
11
329.879733
21
20.644685
31
0
39
0
210
0
220
0
230
1
0
LINE
5
85
100
AcDbEntity
8
1
62
256
6
ByLayer
370
18
48
1
60
0
100
AcDbLine
10
330.12595
20
18.572115
30
0
11
329.988729
21
18.564924
31
0
39
0
210
0
220
0
230
1
0
LINE
5
86
100
AcDbEntity
8
1
62
256
6
ByLayer
370
18
48
1
60
0
100
AcDbLine
10
328.728644
20
18.111353
30
0
11
328.591423
21
18.104162
31
0
39
0
210
0
220
0
230
1
0
LINE
5
87
100
AcDbEntity
8
1
62
256
6
ByLayer
370
18
48
1
60
0
100
AcDbLine
10
330.467278
20
19.245208
30
0
11
330.330057
21
19.238016
31
0
39
0
210
0
220
0
230
1
0
LINE
5
88
100
AcDbEntity
8
1
62
256
6
ByLayer
370
18
48
1
60
0
100
AcDbLine
10
330.137474
20
18.555155
30
0
11
329.999211
21
18.547909
31
0
39
0
210
0
220
0
230
1
0
LINE
5
89
100
AcDbEntity
8
1
62
256
6
ByLayer
370
18
48
1
60
0
100
AcDbLine
10
330.026642
20
20.669948
30
0
11
329.88838
21
20.662702
31
0
39
0
210
0
220
0
230
1
0
LINE
5
8A
100
AcDbEntity
8
1
62
256
6
ByLayer
370
18
48
1
60
0
100
AcDbLine
10
328.568967
20
20.980647
30
0
11
328.430704
21
20.973401
31
0
39
0
210
0
220
0
230
1
0
LINE
5
8B
100
AcDbEntity
8
1
62
256
6
ByLayer
370
18
48
1
60
0
100
AcDbLine
10
330.309456
20
20.011562
30
0
11
330.289549
21
20.010958
31
0
39
0
210
0
220
0
230
1
0
LINE
5
8C
100
AcDbEntity
8
1
62
256
6
ByLayer
370
18
48
1
60
0
100
AcDbLine
10
328.720261
20
18.093789
30
0
11
328.581998
21
18.086543
31
0
39
0
210
0
220
0
230
1
0
LINE
5
8D
100
AcDbEntity
8
1
62
256
6
ByLayer
370
18
48
1
60
0
100
AcDbLine
10
329.879733
20
20.644685
30
0
11
329.88838
21
20.662702
31
0
39
0
210
0
220
0
230
1
0
LINE
5
8E
100
AcDbEntity
8
1
62
256
6
ByLayer
370
18
48
1
60
0
100
AcDbLine
10
328.581998
20
18.086543
30
0
11
328.591423
21
18.104162
31
0
39
0
210
0
220
0
230
1
0
LINE
5
8F
100
AcDbEntity
8
1
62
256
6
ByLayer
370
18
48
1
60
0
100
AcDbLine
10
330.330057
20
19.238016
30
0
11
330.349918
21
19.239497
31
0
39
0
210
0
220
0
230
1
0
LINE
5
90
100
AcDbEntity
8
1
62
256
6
ByLayer
370
18
48
1
60
0
100
AcDbLine
10
328.57914
20
20.964056
30
0
11
328.441919
21
20.956864
31
0
39
0
210
0
220
0
230
1
0
LINE
5
91
100
AcDbEntity
8
1
62
256
6
ByLayer
370
18
48
1
60
0
100
AcDbLine
10
328.441919
20
20.956864
30
0
11
328.430704
21
20.973401
31
0
39
0
210
0
220
0
230
1
0
LINE
5
92
100
AcDbEntity
8
1
62
256
6
ByLayer
370
18
48
1
60
0
100
AcDbLine
10
338.545811
20
-0.123347
30
0
11
338.444881
21
0.226657
31
0
39
0
210
0
220
0
230
1
0
LINE
5
93
100
AcDbEntity
8
1
62
256
6
ByLayer
370
18
48
1
60
0
100
AcDbLine
10
338.08656
20
0.09941
30
0
11
339.493919
21
-8.736368
31
0
39
0
210
0
220
0
230
1
0
LINE
5
94
100
AcDbEntity
8
1
62
256
6
ByLayer
370
18
48
1
60
0
100
AcDbLine
10
338.107139
20
-17.85862
30
0
11
338.093563
21
-17.862491
31
0
39
0
210
0
220
0
230
1
0
LINE
5
95
100
AcDbEntity
8
1
62
256
6
ByLayer
370
18
48
1
60
0
100
AcDbLine
10
339.496924
20
-8.964647
30
0
11
338.357672
21
-17.569496
31
0
39
0
210
0
220
0
230
1
0
LINE
5
96
100
AcDbEntity
8
1
62
256
6
ByLayer
370
18
48
1
60
0
100
AcDbLine
10
338.200063
20
-18.763668
30
0
11
338.552045
21
-18.663306
31
0
39
0
210
0
220
0
230
1
0
LINE
5
97
100
AcDbEntity
8
1
62
256
6
ByLayer
370
18
48
1
60
0
100
AcDbLine
10
338.061525
20
0.207736
30
0
11
338.065418
21
0.194236
31
0
39
0
210
0
220
0
230
1
0
LINE
5
98
100
AcDbEntity
8
1
62
256
6
ByLayer
370
13
48
1
60
0
100
AcDbLine
10
321.799817
20
27.523351
30
0
11
319.433638
21
27.126169
31
0
39
0
210
0
220
0
230
1
0
LINE
5
99
100
AcDbEntity
8
1
62
256
6
ByLayer
370
13
48
1
60
0
100
AcDbLine
10
337.260223
20
29.881948
30
0
11
337.255524
21
29.881701
31
0
39
0
210
0
220
0
230
1
0
LINE
5
9A
100
AcDbEntity
8
1
62
256
6
ByLayer
370
13
48
1
60
0
100
AcDbLine
10
320.604395
20
19.052084
30
0
11
320.599696
21
19.051838
31
0
39
0
210
0
220
0
230
1
0
LINE
5
9B
100
AcDbEntity
8
1
62
256
6
ByLayer
370
13
48
1
60
0
100
AcDbLine
10
338.473748
20
11.954347
30
0
11
338.258691
21
10.993274
31
0
39
0
210
0
220
0
230
1
0
LINE
5
9C
100
AcDbEntity
8
1
62
256
6
ByLayer
370
13
48
1
60
0
100
AcDbLine
10
338.690584
20
12.092138
30
0
11
338.685885
21
12.091891
31
0
39
0
210
0
220
0
230
1
0
LINE
5
9D
100
AcDbEntity
8
1
62
256
6
ByLayer
370
13
48
1
60
0
100
AcDbLine
10
337.21801
20
29.730037
30
0
11
337.019227
21
29.721366
31
0
39
0
210
0
220
0
230
1
0
LINE
5
9E
100
AcDbEntity
8
1
62
256
6
ByLayer
370
13
48
1
60
0
100
AcDbLine
10
321.887796
20
27.183131
30
0
11
320.820609
21
19.026918
31
0
39
0
210
0
220
0
230
1
0
LINE
5
9F
100
AcDbEntity
8
1
62
256
6
ByLayer
370
13
48
1
60
0
100
AcDbLine
10
339.844502
20
20.096577
30
0
11
339.839803
21
20.096331
31
0
39
0
210
0
220
0
230
1
0
LINE
5
A0
100
AcDbEntity
8
1
62
256
6
ByLayer
370
13
48
1
60
0
100
AcDbLine
10
336.285134
20
11.937619
30
0
11
337.352321
21
20.093831
31
0
39
0
210
0
220
0
230
1
0
LINE
5
A1
100
AcDbEntity
8
1
62
256
6
ByLayer
370
13
48
1
60
0
100
AcDbLine
10
318.422197
20
18.843777
30
0
11
319.842455
21
9.849766
31
0
39
0
210
0
220
0
230
1
0
LINE
5
A2
100
AcDbEntity
8
1
62
256
6
ByLayer
370
13
48
1
60
0
100
AcDbLine
10
317.944309
20
19.708607
30
0
11
317.915427
21
19.152588
31
0
39
0
210
0
220
0
230
1
0
LINE
5
A3
100
AcDbEntity
8
1
62
256
6
ByLayer
370
13
48
1
60
0
100
AcDbLine
10
320.437536
20
19.070712
30
0
11
321.504132
21
27.222405
31
0
39
0
210
0
220
0
230
1
0
LINE
5
A4
100
AcDbEntity
8
1
62
256
6
ByLayer
370
13
48
1
60
0
100
AcDbLine
10
338.813965
20
12.220471
30
0
11
338.809266
21
12.220225
31
0
39
0
210
0
220
0
230
1
0
LINE
5
A5
100
AcDbEntity
8
1
62
256
6
ByLayer
370
13
48
1
60
0
100
AcDbLine
10
338.685885
20
12.091891
30
0
11
336.566046
21
11.736059
31
0
39
0
210
0
220
0
230
1
0
LINE
5
A6
100
AcDbEntity
8
1
62
256
6
ByLayer
370
13
48
1
60
0
100
AcDbLine
10
318.195172
20
18.805711
30
0
11
319.61543
21
9.8117
31
0
39
0
210
0
220
0
230
1
0
LINE
5
A7
100
AcDbEntity
8
1
62
256
6
ByLayer
370
13
48
1
60
0
100
AcDbLine
10
336.33552
20
11.595428
30
0
11
338.473748
21
11.954347
31
0
39
0
210
0
220
0
230
1
0
LINE
5
A8
100
AcDbEntity
8
1
62
256
6
ByLayer
370
13
48
1
60
0
100
AcDbLine
10
337.031474
20
29.872208
30
0
11
337.026775
21
29.871962
31
0
39
0
210
0
220
0
230
1
0
LINE
5
A9
100
AcDbEntity
8
1
62
256
6
ByLayer
370
13
48
1
60
0
100
AcDbLine
10
320.602361
20
18.850967
30
0
11
321.907136
21
10.588273
31
0
39
0
210
0
220
0
230
1
0
LINE
5
AA
100
AcDbEntity
8
1
62
256
6
ByLayer
370
13
48
1
60
0
100
AcDbLine
10
319.956484
20
28.801655
30
0
11
319.638995
21
28.800758
31
0
39
0
210
0
220
0
230
1
0
LINE
5
AB
100
AcDbEntity
8
1
62
256
6
ByLayer
370
13
48
1
60
0
100
AcDbLine
10
336.593614
20
11.894404
30
0
11
338.647106
21
12.239099
31
0
39
0
210
0
220
0
230
1
0
LINE
5
AC
100
AcDbEntity
8
1
62
256
6
ByLayer
370
13
48
1
60
0
100
AcDbLine
10
338.647106
20
12.239099
30
0
11
339.677643
21
20.115205
31
0
39
0
210
0
220
0
230
1
0
LINE
5
AD
100
AcDbEntity
8
1
62
256
6
ByLayer
370
13
48
1
60
0
100
AcDbLine
10
337.660209
20
20.046097
30
0
11
336.593614
21
11.894404
31
0
39
0
210
0
220
0
230
1
0
LINE
5
AE
100
AcDbEntity
8
1
62
256
6
ByLayer
370
13
48
1
60
0
100
AcDbLine
10
321.103864
20
9.246571
30
0
11
320.905081
21
9.2379
31
0
39
0
210
0
220
0
230
1
0
LINE
5
AF
100
AcDbEntity
8
1
62
256
6
ByLayer
370
13
48
1
60
0
100
AcDbLine
10
321.741532
20
10.589525
30
0
11
320.440772
21
18.826798
31
0
39
0
210
0
220
0
230
1
0
LINE
5
B0
100
AcDbEntity
8
1
62
256
6
ByLayer
370
13
48
1
60
0
100
AcDbLine
10
338.737305
20
10.427357
30
0
11
338.695374
21
10.874965
31
0
39
0
210
0
220
0
230
1
0
LINE
5
B1
100
AcDbEntity
8
1
62
256
6
ByLayer
370
13
48
1
60
0
100
AcDbLine
10
318.020842
20
18.248282
30
0
11
317.933998
21
18.798236
31
0
39
0
210
0
220
0
230
1
0
LINE
5
B2
100
AcDbEntity
8
1
62
256
6
ByLayer
370
13
48
1
60
0
100
AcDbLine
10
338.690584
20
12.092138
30
0
11
336.570745
21
11.736306
31
0
39
0
210
0
220
0
230
1
0
LINE
5
B3
100
AcDbEntity
8
1
62
256
6
ByLayer
370
13
48
1
60
0
100
AcDbLine
10
319.45064
20
26.87771
30
0
11
318.420103
21
19.001604
31
0
39
0
210
0
220
0
230
1
0
LINE
5
B4
100
AcDbEntity
8
1
62
256
6
ByLayer
370
13
48
1
60
0
100
AcDbLine
10
337.752479
20
29.881833
30
0
11
337.74778
21
29.881587
31
0
39
0
210
0
220
0
230
1
0
LINE
5
B5
100
AcDbEntity
8
1
62
256
6
ByLayer
370
13
48
1
60
0
100
AcDbLine
10
336.929315
20
29.919572
30
0
11
337.185987
21
29.979036
31
0
39
0
210
0
220
0
230
1
0
LINE
5
B6
100
AcDbEntity
8
1
62
256
6
ByLayer
370
13
48
1
60
0
100
AcDbLine
10
337.230257
20
29.880879
30
0
11
337.225558
21
29.880633
31
0
39
0
210
0
220
0
230
1
0
LINE
5
B7
100
AcDbEntity
8
1
62
256
6
ByLayer
370
13
48
1
60
0
100
AcDbLine
10
338.421579
20
29.291458
30
0
11
338.41688
21
29.291212
31
0
39
0
210
0
220
0
230
1
0
LINE
5
B8
100
AcDbEntity
8
1
62
256
6
ByLayer
370
13
48
1
60
0
100
AcDbLine
10
319.44882
20
29.02122
30
0
11
319.56401
21
29.009495
31
0
39
0
210
0
220
0
230
1
0
LINE
5
B9
100
AcDbEntity
8
1
62
256
6
ByLayer
370
13
48
1
60
0
100
AcDbLine
10
338.214142
20
10.794186
30
0
11
338.695374
21
10.874965
31
0
39
0
210
0
220
0
230
1
0
LINE
5
BA
100
AcDbEntity
8
1
62
256
6
ByLayer
370
13
48
1
60
0
100
AcDbLine
10
321.504132
20
27.222405
30
0
11
319.45064
21
26.87771
31
0
39
0
210
0
220
0
230
1
0
LINE
5
BB
100
AcDbEntity
8
1
62
256
6
ByLayer
370
13
48
1
60
0
100
AcDbLine
10
338.473748
20
11.954347
30
0
11
338.701699
21
11.99261
31
0
39
0
210
0
220
0
230
1
0
LINE
5
BC
100
AcDbEntity
8
1
62
256
6
ByLayer
370
13
48
1
60
0
100
AcDbLine
10
321.671582
20
27.208296
30
0
11
321.679756
21
27.270767
31
0
39
0
210
0
220
0
230
1
0
LINE
5
BD
100
AcDbEntity
8
1
62
256
6
ByLayer
370
13
48
1
60
0
100
AcDbLine
10
321.679756
20
27.270767
30
0
11
321.675057
21
27.270521
31
0
39
0
210
0
220
0
230
1
0
LINE
5
BE
100
AcDbEntity
8
1
62
256
6
ByLayer
370
13
48
1
60
0
100
AcDbLine
10
319.713758
20
9.827321
30
0
11
318.293501
21
18.821332
31
0
39
0
210
0
220
0
230
1
0
LINE
5
BF
100
AcDbEntity
8
1
62
256
6
ByLayer
370
13
48
1
60
0
100
AcDbLine
10
338.258691
20
10.993274
30
0
11
338.701699
21
11.99261
31
0
39
0
210
0
220
0
230
1
0
LINE
5
C0
100
AcDbEntity
8
1
62
256
6
ByLayer
370
13
48
1
60
0
100
AcDbLine
10
338.166921
20
10.78626
30
0
11
338.214142
21
10.794186
31
0
39
0
210
0
220
0
230
1
0
LINE
5
C1
100
AcDbEntity
8
1
62
256
6
ByLayer
370
13
48
1
60
0
100
AcDbLine
10
320.60706
20
18.851213
30
0
11
320.602361
21
18.850967
31
0
39
0
210
0
220
0
230
1
0
LINE
5
C2
100
AcDbEntity
8
1
62
256
6
ByLayer
370
13
48
1
60
0
100
AcDbLine
10
319.329357
20
28.299028
30
0
11
319.433638
21
27.126169
31
0
39
0
210
0
220
0
230
1
0
LINE
5
C3
100
AcDbEntity
8
1
62
256
6
ByLayer
370
13
48
1
60
0
100
AcDbLine
10
319.444754
20
27.026642
30
0
11
321.564593
21
27.382474
31
0
39
0
210
0
220
0
230
1
0
LINE
5
C4
100
AcDbEntity
8
1
62
256
6
ByLayer
370
13
48
1
60
0
100
AcDbLine
10
336.570745
20
11.736306
30
0
11
336.566046
21
11.736059
31
0
39
0
210
0
220
0
230
1
0
LINE
5
C5
100
AcDbEntity
8
1
62
256
6
ByLayer
370
13
48
1
60
0
100
AcDbLine
10
318.192127
20
19.035278
30
0
11
319.220617
21
26.895735
31
0
39
0
210
0
220
0
230
1
0
LINE
5
C6
100
AcDbEntity
8
1
62
256
6
ByLayer
370
13
48
1
60
0
100
AcDbLine
10
321.882923
20
10.501185
30
0
11
321.878224
21
10.500938
31
0
39
0
210
0
220
0
230
1
0
LINE
5
C7
100
AcDbEntity
8
1
62
256
6
ByLayer
370
13
48
1
60
0
100
AcDbLine
10
321.675057
20
27.270521
30
0
11
320.599696
21
19.051838
31
0
39
0
210
0
220
0
230
1
0
LINE
5
C8
100
AcDbEntity
8
1
62
256
6
ByLayer
370
13
48
1
60
0
100
AcDbLine
10
338.166921
20
10.78626
30
0
11
338.258691
21
10.993274
31
0
39
0
210
0
220
0
230
1
0
LINE
5
C9
100
AcDbEntity
8
1
62
256
6
ByLayer
370
13
48
1
60
0
100
AcDbLine
10
339.844502
20
20.096577
30
0
11
338.813965
21
12.220471
31
0
39
0
210
0
220
0
230
1
0
LINE
5
CA
100
AcDbEntity
8
1
62
256
6
ByLayer
370
13
48
1
60
0
100
AcDbLine
10
320.604395
20
19.052084
30
0
11
321.671582
21
27.208296
31
0
39
0
210
0
220
0
230
1
0
LINE
5
CB
100
AcDbEntity
8
1
62
256
6
ByLayer
370
13
48
1
60
0
100
AcDbLine
10
337.031474
20
29.872208
30
0
11
337.230257
21
29.880879
31
0
39
0
210
0
220
0
230
1
0
LINE
5
CC
100
AcDbEntity
8
1
62
256
6
ByLayer
370
13
48
1
60
0
100
AcDbLine
10
320.879736
20
9.386772
30
0
11
321.078519
21
9.395443
31
0
39
0
210
0
220
0
230
1
0
LINE
5
CD
100
AcDbEntity
8
1
62
256
6
ByLayer
370
13
48
1
60
0
100
AcDbLine
10
321.206022
20
9.199207
30
0
11
320.94935
21
9.139744
31
0
39
0
210
0
220
0
230
1
0
LINE
5
CE
100
AcDbEntity
8
1
62
256
6
ByLayer
370
13
48
1
60
0
100
AcDbLine
10
336.892401
20
29.917637
30
0
11
336.929315
21
29.919572
31
0
39
0
210
0
220
0
230
1
0
LINE
5
CF
100
AcDbEntity
8
1
62
256
6
ByLayer
370
13
48
1
60
0
100
AcDbLine
10
322.372452
20
27.46983
30
0
11
334.899342
21
28.126337
31
0
39
0
210
0
220
0
230
1
0
LINE
5
D0
100
AcDbEntity
8
1
62
256
6
ByLayer
370
13
48
1
60
0
100
AcDbLine
10
318.020842
20
18.248282
30
0
11
319.584704
21
9.810821
31
0
39
0
210
0
220
0
230
1
0
LINE
5
D1
100
AcDbEntity
8
1
62
256
6
ByLayer
370
13
48
1
60
0
100
AcDbLine
10
338.214142
20
10.794186
30
0
11
338.099152
21
10.280303
31
0
39
0
210
0
220
0
230
1
0
LINE
5
D2
100
AcDbEntity
8
1
62
256
6
ByLayer
370
13
48
1
60
0
100
AcDbLine
10
339.94321
20
20.083501
30
0
11
338.914721
21
12.223044
31
0
39
0
210
0
220
0
230
1
0
LINE
5
D3
100
AcDbEntity
8
1
62
256
6
ByLayer
370
13
48
1
60
0
100
AcDbLine
10
339.940165
20
20.313068
30
0
11
338.519907
21
29.307079
31
0
39
0
210
0
220
0
230
1
0
LINE
5
D4
100
AcDbEntity
8
1
62
256
6
ByLayer
370
13
48
1
60
0
100
AcDbLine
10
336.572462
20
29.722087
30
0
11
336.74731
21
29.731251
31
0
39
0
210
0
220
0
230
1
0
LINE
5
D5
100
AcDbEntity
8
1
62
256
6
ByLayer
370
13
48
1
60
0
100
AcDbLine
10
339.839803
20
20.096331
30
0
11
338.809266
21
12.220225
31
0
39
0
210
0
220
0
230
1
0
LINE
5
D6
100
AcDbEntity
8
1
62
256
6
ByLayer
370
13
48
1
60
0
100
AcDbLine
10
321.911835
20
10.588519
30
0
11
321.863413
21
10.895155
31
0
39
0
210
0
220
0
230
1
0
LINE
5
D7
100
AcDbEntity
8
1
62
256
6
ByLayer
370
13
48
1
60
0
100
AcDbLine
10
339.675549
20
20.273032
30
0
11
338.255291
21
29.267043
31
0
39
0
210
0
220
0
230
1
0
LINE
5
D8
100
AcDbEntity
8
1
62
256
6
ByLayer
370
13
48
1
60
0
100
AcDbLine
10
336.356214
20
28.527285
30
0
11
337.656974
21
20.290011
31
0
39
0
210
0
220
0
230
1
0
LINE
5
D9
100
AcDbEntity
8
1
62
256
6
ByLayer
370
13
48
1
60
0
100
AcDbLine
10
339.841837
20
20.297447
30
0
11
339.837138
21
20.297201
31
0
39
0
210
0
220
0
230
1
0
LINE
5
DA
100
AcDbEntity
8
1
62
256
6
ByLayer
370
13
48
1
60
0
100
AcDbLine
10
337.005735
20
29.941339
30
0
11
336.892401
21
29.917637
31
0
39
0
210
0
220
0
230
1
0
LINE
5
DB
100
AcDbEntity
8
1
62
256
6
ByLayer
370
13
48
1
60
0
100
AcDbLine
10
338.421579
20
29.291458
30
0
11
339.841837
21
20.297447
31
0
39
0
210
0
220
0
230
1
0
LINE
5
DC
100
AcDbEntity
8
1
62
256
6
ByLayer
370
13
48
1
60
0
100
AcDbLine
10
320.822512
20
18.883439
30
0
11
322.078865
21
10.927381
31
0
39
0
210
0
220
0
230
1
0
LINE
5
DD
100
AcDbEntity
8
1
62
256
6
ByLayer
370
13
48
1
60
0
100
AcDbLine
10
321.863413
20
10.895155
30
0
11
320.60706
21
18.851213
31
0
39
0
210
0
220
0
230
1
0
LINE
5
DE
100
AcDbEntity
8
1
62
256
6
ByLayer
370
13
48
1
60
0
100
AcDbLine
10
335.762885
20
11.648949
30
0
11
323.235996
21
10.992443
31
0
39
0
210
0
220
0
230
1
0
LINE
5
DF
100
AcDbEntity
8
1
62
256
6
ByLayer
370
13
48
1
60
0
100
AcDbLine
10
321.290396
20
9.407146
30
0
11
321.285697
21
9.4069
31
0
39
0
210
0
220
0
230
1
0
LINE
5
E0
100
AcDbEntity
8
1
62
256
6
ByLayer
370
13
48
1
60
0
100
AcDbLine
10
318.290836
20
19.022202
30
0
11
319.321373
21
26.898308
31
0
39
0
210
0
220
0
230
1
0
LINE
5
E1
100
AcDbEntity
8
1
62
256
6
ByLayer
370
13
48
1
60
0
100
AcDbLine
10
338.41688
20
29.291212
30
0
11
339.837138
21
20.297201
31
0
39
0
210
0
220
0
230
1
0
LINE
5
E2
100
AcDbEntity
8
1
62
256
6
ByLayer
370
13
48
1
60
0
100
AcDbLine
10
321.911835
20
10.588519
30
0
11
321.907136
21
10.588273
31
0
39
0
210
0
220
0
230
1
0
LINE
5
E3
100
AcDbEntity
8
1
62
256
6
ByLayer
370
13
48
1
60
0
100
AcDbLine
10
337.350417
20
20.23731
30
0
11
336.094064
21
28.193368
31
0
39
0
210
0
220
0
230
1
0
LINE
5
E4
100
AcDbEntity
8
SK1
62
256
6
ByLayer
370
13
48
1
60
0
100
AcDbLine
10
-6.5
20
-10.670483
30
0
11
-6.5
21
10.670483
31
0
39
0
210
0
220
0
230
1
0
LINE
5
E5
100
AcDbEntity
8
1
62
256
6
ByLayer
370
13
48
1
60
0
100
AcDbLine
10
338.558238
20
9.707295
30
0
11
338.370607
21
8.998804
31
0
39
0
210
0
220
0
230
1
0
LINE
5
E6
100
AcDbEntity
8
1
62
256
6
ByLayer
370
13
48
1
60
0
100
AcDbLine
10
327.058454
20
10.491809
30
0
11
336.407741
21
10.981784
31
0
39
0
210
0
220
0
230
1
0
LINE
5
E7
100
AcDbEntity
8
1
62
256
6
ByLayer
370
13
48
1
60
0
100
AcDbLine
10
5.0783
20
-5.567764
30
0
11
0.1
21
-5.567764
31
0
39
0
210
0
220
0
230
1
0
LINE
5
E8
100
AcDbEntity
8
1
62
256
6
ByLayer
370
13
48
1
60
0
100
AcDbLine
10
313.539169
20
-28.795656
30
0
11
298.476038
21
-28.795656
31
0
39
0
210
0
220
0
230
1
0
LINE
5
E9
100
AcDbEntity
8
1
62
256
6
ByLayer
370
13
48
1
60
0
100
AcDbLine
10
338.270417
20
1.13588
30
0
11
338.565023
21
0.800908
31
0
39
0
210
0
220
0
230
1
0
LINE
5
EA
100
AcDbEntity
8
1
62
256
6
ByLayer
370
13
48
1
60
0
100
AcDbLine
10
339.014661
20
-9.663503
30
0
11
336.620226
21
-7.272281
31
0
39
0
210
0
220
0
230
1
0
LINE
5
EB
100
AcDbEntity
8
1
62
256
6
ByLayer
370
13
48
1
60
0
100
AcDbLine
10
338.558238
20
9.707295
30
0
11
338.565023
21
0.800908
31
0
39
0
210
0
220
0
230
1
0
LINE
5
EC
100
AcDbEntity
8
1
62
256
6
ByLayer
370
13
48
1
60
0
100
AcDbLine
10
338.390559
20
10.027318
30
0
11
338.558238
21
9.707295
31
0
39
0
210
0
220
0
230
1
0
LINE
5
ED
100
AcDbEntity
8
1
62
256
6
ByLayer
370
13
48
1
60
0
100
AcDbLine
10
311.27075
20
2.509603
30
0
11
311.490008
21
1.209824
31
0
39
0
210
0
220
0
230
1
0
LINE
5
EE
100
AcDbEntity
8
1
62
256
6
ByLayer
370
13
48
1
60
0
100
AcDbLine
10
338.297508
20
9.294219
30
0
11
338.249335
21
10.127746
31
0
39
0
210
0
220
0
230
1
0
LINE
5
EF
100
AcDbEntity
8
1
62
256
6
ByLayer
370
13
48
1
60
0
100
AcDbLine
10
0.1
20
5.567764
30
0
11
5.0783
21
5.567764
31
0
39
0
210
0
220
0
230
1
0
LINE
5
F0
100
AcDbEntity
8
1
62
256
6
ByLayer
370
13
48
1
60
0
100
AcDbLine
10
313.539169
20
-28.795656
30
0
11
313.539169
21
0.261427
31
0
39
0
210
0
220
0
230
1
0
LINE
5
F1
100
AcDbEntity
8
1
62
256
6
ByLayer
370
13
48
1
60
0
100
AcDbLine
10
337.753747
20
-0.185003
30
0
11
338.992241
21
-7.960603
31
0
39
0
210
0
220
0
230
1
0
LINE
5
F2
100
AcDbEntity
8
1
62
256
6
ByLayer
370
13
48
1
60
0
100
AcDbLine
10
324.102307
20
11.037844
30
0
11
327.085172
21
11.19417
31
0
39
0
210
0
220
0
230
1
0
LINE
5
F3
100
AcDbEntity
8
1
62
256
6
ByLayer
370
13
48
1
60
0
100
AcDbLine
10
319.210137
20
26.989453
30
0
11
318.498543
21
21.550937
31
0
39
0
210
0
220
0
230
1
0
LINE
5
F4
100
AcDbEntity
8
1
62
256
6
ByLayer
370
13
48
1
60
0
100
AcDbLine
10
336.536893
20
-5.508548
30
0
11
338.992241
21
-7.960603
31
0
39
0
210
0
220
0
230
1
0
LINE
5
F5
100
AcDbEntity
8
1
62
256
6
ByLayer
370
13
48
1
60
0
100
AcDbLine
10
319.212221
20
27.848763
30
0
11
319.146031
21
29.11175
31
0
39
0
210
0
220
0
230
1
0
LINE
5
F6
100
AcDbEntity
8
1
62
256
6
ByLayer
370
13
48
1
60
0
100
AcDbLine
10
323.75296
20
10.819261
30
0
11
323.762358
21
10.819754
31
0
39
0
210
0
220
0
230
1
0
LINE
5
F7
100
AcDbEntity
8
1
62
256
6
ByLayer
370
13
48
1
60
0
100
AcDbLine
10
318.586961
20
14.274442
30
0
11
317.835123
21
19.035577
31
0
39
0
210
0
220
0
230
1
0
LINE
5
F8
100
AcDbEntity
8
1
62
256
6
ByLayer
370
13
48
1
60
0
100
AcDbLine
10
337.001417
20
-29.093971
30
0
11
338.338256
21
-18.996741
31
0
39
0
210
0
220
0
230
1
0
LINE
5
F9
100
AcDbEntity
8
1
62
256
6
ByLayer
370
13
48
1
60
0
100
AcDbLine
10
10.1783
20
-4.11915
30
0
11
10.1783
21
4.11915
31
0
39
0
210
0
220
0
230
1
0
LINE
5
FA
100
AcDbEntity
8
1
62
256
6
ByLayer
370
13
48
1
60
0
100
AcDbLine
10
333.051346
20
9.80451
30
0
11
336.325417
21
9.976097
31
0
39
0
210
0
220
0
230
1
0
LINE
5
FB
100
AcDbEntity
8
1
62
256
6
ByLayer
370
13
48
1
60
0
100
AcDbLine
10
336.325417
20
9.976097
30
0
11
337.742591
21
10.050368
31
0
39
0
210
0
220
0
230
1
0
LINE
5
FC
100
AcDbEntity
8
1
62
256
6
ByLayer
370
13
48
1
60
0
100
AcDbLine
10
324.123176
20
8.834779
30
0
11
324.638745
21
8.861799
31
0
39
0
210
0
220
0
230
1
0
LINE
5
FD
100
AcDbEntity
8
1
62
256
6
ByLayer
370
13
48
1
60
0
100
AcDbLine
10
335.531023
20
2.034739
30
0
11
335.704604
21
-0.839641
31
0
39
0
210
0
220
0
230
1
0
LINE
5
FE
100
AcDbEntity
8
1
62
256
6
ByLayer
370
13
48
1
60
0
100
AcDbLine
10
335.990988
20
11.460629
30
0
11
323.762358
21
10.819754
31
0
39
0
210
0
220
0
230
1
0
LINE
5
FF
100
AcDbEntity
8
1
62
256
6
ByLayer
370
13
48
1
60
0
100
AcDbLine
10
314.544878
20
13.339814
30
0
11
314.544878
21
16.0319
31
0
39
0
210
0
220
0
230
1
0
LINE
5
100
100
AcDbEntity
8
1
62
256
6
ByLayer
370
13
48
1
60
0
100
AcDbLine
10
316.069152
20
10.080692
30
0
11
317.806542
21
9.546797
31
0
39
0
210
0
220
0
230
1
0
LINE
5
101
100
AcDbEntity
8
1
62
256
6
ByLayer
370
13
48
1
60
0
100
AcDbLine
10
332.552986
20
11.480726
30
0
11
335.535852
21
11.637051
31
0
39
0
210
0
220
0
230
1
0
LINE
5
102
100
AcDbEntity
8
1
62
256
6
ByLayer
370
13
48
1
60
0
100
AcDbLine
10
323.714645
20
10.729633
30
0
11
323.400657
21
10.713178
31
0
39
0
210
0
220
0
230
1
0
LINE
5
103
100
AcDbEntity
8
1
62
256
6
ByLayer
370
13
48
1
60
0
100
AcDbLine
10
322.341632
20
10.715184
30
0
11
322.506227
21
10.72381
31
0
39
0
210
0
220
0
230
1
0
LINE
5
104
100
AcDbEntity
8
1
62
256
6
ByLayer
370
13
48
1
60
0
100
AcDbLine
10
315.947127
20
13.877166
30
0
11
314.544878
21
16.0319
31
0
39
0
210
0
220
0
230
1
0
LINE
5
105
100
AcDbEntity
8
1
62
256
6
ByLayer
370
13
48
1
60
0
100
AcDbLine
10
315.411782
20
2.256586
30
0
11
315.844491
21
-0.30855
31
0
39
0
210
0
220
0
230
1
0
LINE
5
106
100
AcDbEntity
8
1
62
256
6
ByLayer
370
13
48
1
60
0
100
AcDbLine
10
332.393439
20
11.444548
30
0
11
332.166982
21
11.43268
31
0
39
0
210
0
220
0
230
1
0
LINE
5
107
100
AcDbEntity
8
1
62
256
6
ByLayer
370
13
48
1
60
0
100
AcDbLine
10
339.014661
20
-9.663503
30
0
11
337.902411
21
-18.064402
31
0
39
0
210
0
220
0
230
1
0
LINE
5
108
100
AcDbEntity
8
1
62
256
6
ByLayer
370
13
48
1
60
0
100
AcDbLine
10
0
20
-4.975942
30
0
11
0
21
4.975942
31
0
39
0
210
0
220
0
230
1
0
LINE
5
109
100
AcDbEntity
8
1
62
256
6
ByLayer
370
13
48
1
60
0
100
AcDbLine
10
318.355252
20
21.299184
30
0
11
319.212221
21
27.848763
31
0
39
0
210
0
220
0
230
1
0
LINE
5
10A
100
AcDbEntity
8
1
62
256
6
ByLayer
370
13
48
1
60
0
100
AcDbLine
10
337.001417
20
-29.093971
30
0
11
316.539169
21
-29.093971
31
0
39
0
210
0
220
0
230
1
0
LINE
5
10B
100
AcDbEntity
8
1
62
256
6
ByLayer
370
13
48
1
60
0
100
AcDbLine
10
327.204769
20
9.498104
30
0
11
327.965555
21
9.537975
31
0
39
0
210
0
220
0
230
1
0
LINE
5
10C
100
AcDbEntity
8
1
62
256
6
ByLayer
370
13
48
1
60
0
100
AcDbLine
10
338.170669
20
0.630992
30
0
11
338.178477
21
0.622114
31
0
39
0
210
0
220
0
230
1
0
LINE
5
10D
100
AcDbEntity
8
1
62
256
6
ByLayer
370
13
48
1
60
0
100
AcDbLine
10
337.753747
20
-0.185003
30
0
11
335.531023
21
2.034739
31
0
39
0
210
0
220
0
230
1
0
LINE
5
10E
100
AcDbEntity
8
1
62
256
6
ByLayer
370
13
48
1
60
0
100
AcDbLine
10
35.01
20
-16.40445
30
0
11
35.01
21
-28.45292
31
0
39
0
210
0
220
0
230
1
0
LINE
5
10F
100
AcDbEntity
8
1
62
256
6
ByLayer
370
13
48
1
60
0
100
AcDbLine
10
316.539169
20
-29.093971
30
0
11
316.539169
21
-0.38108
31
0
39
0
210
0
220
0
230
1
0
LINE
5
110
100
AcDbEntity
8
1
62
256
6
ByLayer
370
13
48
1
60
0
100
AcDbLine
10
336.325417
20
9.976097
30
0
11
335.550204
21
2.818975
31
0
39
0
210
0
220
0
230
1
0
LINE
5
111
100
AcDbEntity
8
1
62
256
6
ByLayer
370
13
48
1
60
0
100
AcDbLine
10
335.550204
20
2.818975
30
0
11
337.683134
21
0.688906
31
0
39
0
210
0
220
0
230
1
0
LINE
5
112
100
AcDbEntity
8
1
62
256
6
ByLayer
370
13
48
1
60
0
100
AcDbLine
10
338.338256
20
-18.996741
30
0
11
337.887952
21
-18.623002
31
0
39
0
210
0
220
0
230
1
0
LINE
5
113
100
AcDbEntity
8
1
62
256
6
ByLayer
370
13
48
1
60
0
100
AcDbLine
10
314.997506
20
13.349377
30
0
11
315.947127
21
13.877166
31
0
39
0
210
0
220
0
230
1
0
LINE
5
114
100
AcDbEntity
8
1
62
256
6
ByLayer
370
13
48
1
60
0
100
AcDbLine
10
339.100915
20
13.646096
30
0
11
338.878628
21
10.821973
31
0
39
0
210
0
220
0
230
1
0
LINE
5
115
100
AcDbEntity
8
1
62
256
6
ByLayer
370
13
48
1
60
0
100
AcDbLine
10
338.802917
20
11.942328
30
0
11
338.695374
21
10.874965
31
0
39
0
210
0
220
0
230
1
0
LINE
5
116
100
AcDbEntity
8
1
62
256
6
ByLayer
370
13
48
1
60
0
100
AcDbLine
10
318.431691
20
15.257774
30
0
11
319.068417
21
12.596296
31
0
39
0
210
0
220
0
230
1
0
LINE
5
117
100
AcDbEntity
8
1
62
256
6
ByLayer
370
13
48
1
60
0
100
AcDbLine
10
317.944309
20
19.708607
30
0
11
317.954454
21
20.49865
31
0
39
0
210
0
220
0
230
1
0
LINE
5
118
100
AcDbEntity
8
1
62
256
6
ByLayer
370
13
48
1
60
0
100
AcDbLine
10
317.944309
20
19.708607
30
0
11
318.049055
21
20.748208
31
0
39
0
210
0
220
0
230
1
0
LINE
5
119
100
AcDbEntity
8
1
62
256
6
ByLayer
370
13
48
1
60
0
100
AcDbLine
10
337.027436
20
29.871991
30
0
11
337.225558
21
29.880633
31
0
39
0
210
0
220
0
230
1
0
LINE
5
11A
100
AcDbEntity
8
1
62
256
6
ByLayer
370
13
48
1
60
0
100
AcDbLine
10
319.329357
20
28.299028
30
0
11
319.189845
21
28.27561
31
0
39
0
210
0
220
0
230
1
0
LINE
5
11B
100
AcDbEntity
8
1
62
256
6
ByLayer
370
13
48
1
60
0
100
AcDbLine
10
319.220617
20
26.895735
30
0
11
319.166768
21
27.50137
31
0
39
0
210
0
220
0
230
1
0
LINE
5
11C
100
AcDbEntity
8
1
62
256
6
ByLayer
370
13
48
1
60
0
100
AcDbLine
10
318.197857
20
21.048924
30
0
11
317.931178
21
19.010772
31
0
39
0
210
0
220
0
230
1
0
LINE
5
11D
100
AcDbEntity
8
1
62
256
6
ByLayer
370
13
48
1
60
0
100
AcDbLine
10
336.223503
20
28.53026
30
0
11
336.269033
21
28.241936
31
0
39
0
210
0
220
0
230
1
0
LINE
5
11E
100
AcDbEntity
8
1
62
256
6
ByLayer
370
13
48
1
60
0
100
AcDbLine
10
336.461395
20
11.892444
30
0
11
336.455581
21
11.848012
31
0
39
0
210
0
220
0
230
1
0
LINE
5
11F
100
AcDbEntity
8
1
62
256
6
ByLayer
370
18
48
1
60
0
100
AcDbLine
10
327.613293
20
19.096076
30
0
11
327.545058
21
19.0925
31
0
39
0
210
0
220
0
230
1
0
LINE
5
120
100
AcDbEntity
8
1
62
256
6
ByLayer
370
18
48
1
60
0
100
AcDbLine
10
327.57283
20
19.868141
30
0
11
327.505185
21
19.864596
31
0
39
0
210
0
220
0
230
1
0
LINE
5
121
100
AcDbEntity
8
1
62
256
6
ByLayer
370
18
48
1
60
0
100
AcDbLine
10
337.998201
20
-17.883513
30
0
11
337.924755
21
-17.89508
31
0
39
0
210
0
220
0
230
1
0
LINE
5
122
100
AcDbEntity
8
1
62
256
6
ByLayer
370
18
48
1
60
0
100
AcDbLine
10
337.686667
20
0.467871
30
0
11
337.770768
21
0.456861
31
0
39
0
210
0
220
0
230
1
0
LINE
5
123
100
AcDbEntity
8
1
62
256
6
ByLayer
370
13
48
1
60
0
100
AcDbLine
10
322.33997
20
10.724706
30
0
11
322.341632
21
10.715184
31
0
39
0
210
0
220
0
230
1
0
LINE
5
124
100
AcDbEntity
8
1
62
256
6
ByLayer
370
13
48
1
60
0
100
AcDbLine
10
338.390559
20
10.027318
30
0
11
338.255545
21
10.020242
31
0
39
0
210
0
220
0
230
1
0
LINE
5
125
100
AcDbEntity
8
1
62
256
6
ByLayer
370
13
48
1
60
0
100
AcDbLine
10
338.370607
20
8.998804
30
0
11
338.3347
21
8.996922
31
0
39
0
210
0
220
0
230
1
0
LINE
5
126
100
AcDbEntity
8
1
62
256
6
ByLayer
370
13
48
1
60
0
100
AcDbLine
10
323.394886
20
10.699951
30
0
11
322.86302
21
10.672077
31
0
39
0
210
0
220
0
230
1
0
LINE
5
127
100
AcDbEntity
8
1
62
256
6
ByLayer
370
13
48
1
60
0
100
AcDbLine
10
338.270417
20
1.13588
30
0
11
338.248548
21
1.138743
31
0
39
0
210
0
220
0
230
1
0
LINE
5
128
100
AcDbEntity
8
1
62
256
6
ByLayer
370
13
48
1
60
0
100
AcDbLine
10
40
20
-29.133959
30
0
11
40
21
-29.25
31
0
39
0
210
0
220
0
230
1
0
LINE
5
129
100
AcDbEntity
8
1
62
256
6
ByLayer
370
13
48
1
60
0
100
AcDbLine
10
316.539169
20
29.25
30
0
11
316.539169
21
29.086675
31
0
39
0
210
0
220
0
230
1
0
LINE
5
12A
100
AcDbEntity
8
1
62
256
6
ByLayer
370
13
48
1
60
0
100
AcDbLine
10
338.170669
20
0.630992
30
0
11
338.159687
21
0.632429
31
0
39
0
210
0
220
0
230
1
0
LINE
5
12B
100
AcDbEntity
8
1
62
256
6
ByLayer
370
13
48
1
60
0
100
AcDbLine
10
338.178477
20
0.622114
30
0
11
338.154678
21
0.625229
31
0
39
0
210
0
220
0
230
1
0
LINE
5
12C
100
AcDbEntity
8
1
62
256
6
ByLayer
370
13
48
1
60
0
100
AcDbLine
10
157
20
-28.825281
30
0
11
157
21
-28.95
31
0
39
0
210
0
220
0
230
1
0
LINE
5
12D
100
AcDbEntity
8
1
62
256
6
ByLayer
370
13
48
1
60
0
100
AcDbLine
10
313.539169
20
28.95
30
0
11
313.539169
21
28.753001
31
0
39
0
210
0
220
0
230
1
0
LINE
5
12E
100
AcDbEntity
8
SK1
62
256
6
ByLayer
370
13
48
1
60
0
100
AcDbLine
10
-1.375195
20
-24.746
30
0
11
-1.375195
21
24.746
31
0
39
0
210
0
220
0
230
1
0
LINE
5
12F
100
AcDbEntity
8
SK1
62
256
6
ByLayer
370
13
48
1
60
0
100
AcDbLine
10
-2
20
-24.996
30
0
11
-2
21
24.996
31
0
39
0
210
0
220
0
230
1
0
LINE
5
130
100
AcDbEntity
8
SK1
62
256
6
ByLayer
370
13
48
1
60
0
100
AcDbLine
10
-1.544243
20
-24.783477
30
0
11
-1.544243
21
24.783477
31
0
39
0
210
0
220
0
230
1
0
LINE
5
131
100
AcDbEntity
8
SK1
62
256
6
ByLayer
370
13
48
1
60
0
100
AcDbLine
10
-0.15
20
-24.746
30
0
11
-0.15
21
24.746
31
0
39
0
210
0
220
0
230
1
0
LINE
5
132
100
AcDbEntity
8
1
62
256
6
ByLayer
370
13
48
1
60
0
100
AcDbLine
10
338.565023
20
0.800908
30
0
11
338.179533
21
0.65061
31
0
39
0
210
0
220
0
230
1
0
LINE
5
133
100
AcDbEntity
8
1
62
256
6
ByLayer
370
13
48
1
60
0
100
AcDbLine
10
338.062828
20
0.605107
30
0
11
337.837456
21
0.517237
31
0
39
0
210
0
220
0
230
1
0
LINE
5
134
100
AcDbEntity
8
1
62
256
6
ByLayer
370
13
48
1
60
0
100
AcDbLine
10
157
20
28.95
30
0
11
157
21
-10.513137
31
0
39
0
210
0
220
0
230
1
0
LINE
5
135
100
AcDbEntity
8
1
62
256
6
ByLayer
370
13
48
1
60
0
100
AcDbLine
10
40
20
29.25
30
0
11
40
21
-10.532055
31
0
39
0
210
0
220
0
230
1
0
LINE
5
136
100
AcDbEntity
8
1
62
256
6
ByLayer
370
13
48
1
60
0
100
AcDbLine
10
0
20
31.15
30
0
11
0
21
4.975942
31
0
39
0
210
0
220
0
230
1
0
LINE
5
137
100
AcDbEntity
8
1
62
256
6
ByLayer
370
13
48
1
60
0
100
AcDbLine
10
0
20
-31.15
30
0
11
0
21
-4.975942
31
0
39
0
210
0
220
0
230
1
0
LINE
5
138
100
AcDbEntity
8
1
62
256
6
ByLayer
370
13
48
1
60
0
100
AcDbLine
10
0.1
20
-31.25
30
0
11
0.1
21
-5.567764
31
0
39
0
210
0
220
0
230
1
0
LINE
5
139
100
AcDbEntity
8
1
62
256
6
ByLayer
370
13
48
1
60
0
100
AcDbLine
10
0.1
20
31.25
30
0
11
0.1
21
5.567764
31
0
39
0
210
0
220
0
230
1
0
LINE
5
13A
100
AcDbEntity
8
1
62
256
6
ByLayer
370
13
48
1
60
0
100
AcDbLine
10
5.0783
20
31.25
30
0
11
5.0783
21
5.567764
31
0
39
0
210
0
220
0
230
1
0
LINE
5
13B
100
AcDbEntity
8
1
62
256
6
ByLayer
370
13
48
1
60
0
100
AcDbLine
10
5.0783
20
-5.567764
30
0
11
5.0783
21
-31.25
31
0
39
0
210
0
220
0
230
1
0
LINE
5
13C
100
AcDbEntity
8
1
62
256
6
ByLayer
370
13
48
1
60
0
100
AcDbLine
10
35
20
29.25
30
0
11
35
21
-10.532202
31
0
39
0
210
0
220
0
230
1
0
LINE
5
13D
100
AcDbEntity
8
1
62
256
6
ByLayer
370
13
48
1
60
0
100
AcDbLine
10
35
20
-29.133982
30
0
11
35
21
-29.25
31
0
39
0
210
0
220
0
230
1
0
LINE
5
13E
100
AcDbEntity
8
4
62
256
6
ByLayer
370
18
48
0.05
60
0
100
AcDbLine
10
340
20
0
30
0
11
0
21
0
31
0
39
0
210
0
220
0
230
1
0
LINE
5
140
100
AcDbEntity
8
SK4
62
256
6
ByLayer
370
13
48
0.05
60
0
100
AcDbLine
10
340
20
0
30
0
11
-80
21
0
31
0
39
0
210
0
220
0
230
1
0
LINE
5
142
100
AcDbEntity
8
SK1
62
256
6
ByLayer
370
13
48
1
60
0
100
AcDbLine
10
-0.15
20
24.746
30
0
11
-1.375195
21
24.746
31
0
39
0
210
0
220
0
230
1
0
LINE
5
143
100
AcDbEntity
8
SK1
62
256
6
ByLayer
370
13
48
1
60
0
100
AcDbLine
10
-1.375195
20
-24.746
30
0
11
-0.15
21
-24.746
31
0
39
0
210
0
220
0
230
1
0
LINE
5
144
100
AcDbEntity
8
SK1
62
256
6
ByLayer
370
13
48
1
60
0
100
AcDbLine
10
-1.544243
20
24.783477
30
0
11
-2
21
24.996
31
0
39
0
210
0
220
0
230
1
0
LINE
5
145
100
AcDbEntity
8
SK1
62
256
6
ByLayer
370
13
48
1
60
0
100
AcDbLine
10
-2
20
-24.996
30
0
11
-1.544243
21
-24.783477
31
0
39
0
210
0
220
0
230
1
0
LINE
5
146
100
AcDbEntity
8
SK1
62
256
6
ByLayer
370
13
48
1
60
0
100
AcDbLine
10
-2
20
24.996
30
0
11
-76.600002
21
24.996
31
0
39
0
210
0
220
0
230
1
0
LINE
5
147
100
AcDbEntity
8
SK1
62
256
6
ByLayer
370
13
48
1
60
0
100
AcDbLine
10
-76.600002
20
-24.996
30
0
11
-2
21
-24.996
31
0
39
0
210
0
220
0
230
1
0
LINE
5
148
100
AcDbEntity
8
1
62
256
6
ByLayer
370
13
48
1
60
0
100
AcDbLine
10
338.358182
20
10.93909
30
0
11
338.89296
21
12.14544
31
0
39
0
210
0
220
0
230
1
0
LINE
5
149
100
AcDbEntity
8
1
62
256
6
ByLayer
370
13
48
1
60
0
100
AcDbLine
10
337.529174
20
20.267521
30
0
11
336.27282
21
28.223579
31
0
39
0
210
0
220
0
230
1
0
LINE
5
14A
100
AcDbEntity
8
1
62
256
6
ByLayer
370
13
48
1
60
0
100
AcDbLine
10
336.464647
20
11.910686
30
0
11
337.531834
21
20.066899
31
0
39
0
210
0
220
0
230
1
0
LINE
5
14B
100
AcDbEntity
8
1
62
256
6
ByLayer
370
18
48
1
60
0
100
AcDbLine
10
329.08684
20
18.268324
30
0
11
328.959772
21
18.261664
31
0
39
0
210
0
220
0
230
1
0
LINE
5
14C
100
AcDbEntity
8
1
62
256
6
ByLayer
370
18
48
1
60
0
100
AcDbLine
10
328.824714
20
20.838728
30
0
11
328.951782
21
20.845387
31
0
39
0
210
0
220
0
230
1
0
LINE
5
14D
100
AcDbEntity
8
1
62
256
6
ByLayer
370
18
48
1
60
0
100
AcDbLine
10
329.114234
20
16.707919
30
0
11
329.181975
21
16.711469
31
0
39
0
210
0
220
0
230
1
0
LINE
5
14E
100
AcDbEntity
8
1
62
256
6
ByLayer
370
18
48
1
60
0
100
AcDbLine
10
328.88366
20
22.403657
30
0
11
328.815919
21
22.400107
31
0
39
0
210
0
220
0
230
1
0
LINE
5
14F
100
AcDbEntity
8
1
62
256
6
ByLayer
370
13
48
1
60
0
100
AcDbLine
10
35
20
-29.25
30
0
11
40
21
-29.25
31
0
39
0
210
0
220
0
230
1
0
LINE
5
150
100
AcDbEntity
8
1
62
256
6
ByLayer
370
13
48
1
60
0
100
AcDbLine
10
40
20
-29.25
30
0
11
157
21
-28.95
31
0
39
0
210
0
220
0
230
1
0
LINE
5
151
100
AcDbEntity
8
1
62
256
6
ByLayer
370
13
48
1
60
0
100
AcDbLine
10
318.869909
20
29.25
30
0
11
316.539169
21
29.25
31
0
39
0
210
0
220
0
230
1
0
LINE
5
152
100
AcDbEntity
8
1
62
256
6
ByLayer
370
13
48
1
60
0
100
AcDbLine
10
316.539169
20
29.25
30
0
11
313.539169
21
28.95
31
0
39
0
210
0
220
0
230
1
0
LINE
5
153
100
AcDbEntity
8
1
62
256
6
ByLayer
370
13
48
1
60
0
100
AcDbLine
10
157
20
-28.95
30
0
11
204.737635
21
-28.95
31
0
39
0
210
0
220
0
230
1
0
LINE
5
154
100
AcDbEntity
8
1
62
256
6
ByLayer
370
13
48
1
60
0
100
AcDbLine
10
313.539169
20
28.95
30
0
11
297.038325
21
28.95
31
0
39
0
210
0
220
0
230
1
0
LINE
5
155
100
AcDbEntity
8
1
62
256
6
ByLayer
370
13
48
1
60
0
100
AcDbLine
10
194.40335
20
28.95
30
0
11
157
21
28.95
31
0
39
0
210
0
220
0
230
1
0
LINE
5
156
100
AcDbEntity
8
1
62
256
6
ByLayer
370
13
48
1
60
0
100
AcDbLine
10
40
20
29.25
30
0
11
35
21
29.25
31
0
39
0
210
0
220
0
230
1
0
LINE
5
157
100
AcDbEntity
8
1
62
256
6
ByLayer
370
13
48
1
60
0
100
AcDbLine
10
157
20
28.95
30
0
11
40
21
29.25
31
0
39
0
210
0
220
0
230
1
0
LINE
5
158
100
AcDbEntity
8
1
62
256
6
ByLayer
370
13
48
1
60
0
100
AcDbLine
10
0.1
20
31.25
30
0
11
0
21
31.15
31
0
39
0
210
0
220
0
230
1
0
LINE
5
159
100
AcDbEntity
8
1
62
256
6
ByLayer
370
13
48
1
60
0
100
AcDbLine
10
0.1
20
-31.25
30
0
11
5.0783
21
-31.25
31
0
39
0
210
0
220
0
230
1
0
LINE
5
15A
100
AcDbEntity
8
1
62
256
6
ByLayer
370
13
48
1
60
0
100
AcDbLine
10
0
20
-31.15
30
0
11
0.1
21
-31.25
31
0
39
0
210
0
220
0
230
1
0
LINE
5
15B
100
AcDbEntity
8
1
62
256
6
ByLayer
370
13
48
1
60
0
100
AcDbLine
10
5.0783
20
31.25
30
0
11
0.1
21
31.25
31
0
39
0
210
0
220
0
230
1
0
LINE
5
15C
100
AcDbEntity
8
81
62
256
6
ByLayer
370
18
48
1
60
0
100
AcDbLine
10
340
20
0
30
0
11
347
21
0
31
0
39
0
210
0
220
0
230
1
0
LINE
5
15D
100
AcDbEntity
8
80
62
256
6
ByLayer
370
18
48
1
60
0
100
AcDbLine
10
0
20
0
30
0
11
-7
21
0
31
0
39
0
210
0
220
0
230
1
0
LINE
5
15E
100
AcDbEntity
8
SK2
62
256
6
ByLayer
370
13
48
1
60
0
100
AcDbLine
10
-100.725
20
25
30
0
11
-100.725
21
-25
31
0
39
0
210
0
220
0
230
1
0
LINE
5
160
100
AcDbEntity
8
SK2
62
256
6
ByLayer
370
13
48
1
60
0
100
AcDbLine
10
-81.5875
20
-25
30
0
11
-103.9
21
-25
31
0
39
0
210
0
220
0
230
1
0
LINE
5
161
100
AcDbEntity
8
SK2
62
256
6
ByLayer
370
13
48
1
60
0
100
AcDbLine
10
-81.5875
20
25
30
0
11
-103.9
21
25
31
0
39
0
210
0
220
0
230
1
0
LINE
5
162
100
AcDbEntity
8
1
62
256
6
ByLayer
370
18
48
1
60
1
100
AcDbLine
10
-100.725
20
-25
30
0
11
-101.650575
21
-20.825003
31
0
39
0
210
0
220
0
230
1
0
LINE
5
163
100
AcDbEntity
8
1
62
256
6
ByLayer
370
18
48
1
60
1
100
AcDbLine
10
-101.650575
20
-20.825003
30
0
11
-99.799425
21
-20.824997
31
0
39
0
210
0
220
0
230
1
0
LINE
5
164
100
AcDbEntity
8
1
62
256
6
ByLayer
370
18
48
1
60
1
100
AcDbLine
10
-99.799425
20
-20.824997
30
0
11
-100.725
21
-25
31
0
39
0
210
0
220
0
230
1
0
LINE
5
165
100
AcDbEntity
8
1
62
256
6
ByLayer
370
18
48
1
60
1
100
AcDbLine
10
-100.725
20
25
30
0
11
-99.799425
21
20.825003
31
0
39
0
210
0
220
0
230
1
0
LINE
5
166
100
AcDbEntity
8
1
62
256
6
ByLayer
370
18
48
1
60
1
100
AcDbLine
10
-99.799425
20
20.825003
30
0
11
-101.650575
21
20.824997
31
0
39
0
210
0
220
0
230
1
0
LINE
5
167
100
AcDbEntity
8
1
62
256
6
ByLayer
370
18
48
1
60
1
100
AcDbLine
10
-101.650575
20
20.824997
30
0
11
-100.725
21
25
31
0
39
0
210
0
220
0
230
1
0
LINE
5
168
100
AcDbEntity
8
SK2
62
256
6
ByLayer
370
13
48
1
60
0
100
AcDbLine
10
-110.725
20
-31.25
30
0
11
-110.725
21
31.25
31
0
39
0
210
0
220
0
230
1
0
LINE
5
169
100
AcDbEntity
8
SK2
62
256
6
ByLayer
370
13
48
1
60
0
100
AcDbLine
10
-1.5875
20
31.25
30
0
11
-113.9
21
31.25
31
0
39
0
210
0
220
0
230
1
0
LINE
5
16A
100
AcDbEntity
8
SK2
62
256
6
ByLayer
370
13
48
1
60
0
100
AcDbLine
10
-1.5875
20
-31.25
30
0
11
-113.9
21
-31.25
31
0
39
0
210
0
220
0
230
1
0
LINE
5
16B
100
AcDbEntity
8
1
62
256
6
ByLayer
370
18
48
1
60
1
100
AcDbLine
10
-110.725
20
31.25
30
0
11
-109.799425
21
27.075003
31
0
39
0
210
0
220
0
230
1
0
LINE
5
16C
100
AcDbEntity
8
1
62
256
6
ByLayer
370
18
48
1
60
1
100
AcDbLine
10
-109.799425
20
27.075003
30
0
11
-111.650575
21
27.074997
31
0
39
0
210
0
220
0
230
1
0
LINE
5
16D
100
AcDbEntity
8
1
62
256
6
ByLayer
370
18
48
1
60
1
100
AcDbLine
10
-111.650575
20
27.074997
30
0
11
-110.725
21
31.25
31
0
39
0
210
0
220
0
230
1
0
LINE
5
16E
100
AcDbEntity
8
1
62
256
6
ByLayer
370
18
48
1
60
1
100
AcDbLine
10
-110.725
20
-31.25
30
0
11
-111.650575
21
-27.075003
31
0
39
0
210
0
220
0
230
1
0
LINE
5
16F
100
AcDbEntity
8
1
62
256
6
ByLayer
370
18
48
1
60
1
100
AcDbLine
10
-111.650575
20
-27.075003
30
0
11
-109.799425
21
-27.074997
31
0
39
0
210
0
220
0
230
1
0
LINE
5
170
100
AcDbEntity
8
1
62
256
6
ByLayer
370
18
48
1
60
1
100
AcDbLine
10
-109.799425
20
-27.074997
30
0
11
-110.725
21
-31.25
31
0
39
0
210
0
220
0
230
1
0
LINE
5
171
100
AcDbEntity
8
2
62
256
6
ByLayer
370
13
48
1
60
0
100
AcDbLine
10
366.975
20
30
30
0
11
366.975
21
-30
31
0
39
0
210
0
220
0
230
1
0
LINE
5
173
100
AcDbEntity
8
2
62
256
6
ByLayer
370
13
48
1
60
0
100
AcDbLine
10
341.5875
20
-30
30
0
11
370.15
21
-30
31
0
39
0
210
0
220
0
230
1
0
LINE
5
174
100
AcDbEntity
8
2
62
256
6
ByLayer
370
13
48
1
60
0
100
AcDbLine
10
341.5875
20
30
30
0
11
370.15
21
30
31
0
39
0
210
0
220
0
230
1
0
LINE
5
175
100
AcDbEntity
8
1
62
256
6
ByLayer
370
18
48
1
60
1
100
AcDbLine
10
366.975
20
-30
30
0
11
366.049425
21
-25.825003
31
0
39
0
210
0
220
0
230
1
0
LINE
5
176
100
AcDbEntity
8
1
62
256
6
ByLayer
370
18
48
1
60
1
100
AcDbLine
10
366.049425
20
-25.825003
30
0
11
367.900575
21
-25.824997
31
0
39
0
210
0
220
0
230
1
0
LINE
5
177
100
AcDbEntity
8
1
62
256
6
ByLayer
370
18
48
1
60
1
100
AcDbLine
10
367.900575
20
-25.824997
30
0
11
366.975
21
-30
31
0
39
0
210
0
220
0
230
1
0
LINE
5
178
100
AcDbEntity
8
1
62
256
6
ByLayer
370
18
48
1
60
1
100
AcDbLine
10
366.975
20
30
30
0
11
367.900575
21
25.825003
31
0
39
0
210
0
220
0
230
1
0
LINE
5
179
100
AcDbEntity
8
1
62
256
6
ByLayer
370
18
48
1
60
1
100
AcDbLine
10
367.900575
20
25.825003
30
0
11
366.049425
21
25.824997
31
0
39
0
210
0
220
0
230
1
0
LINE
5
17A
100
AcDbEntity
8
1
62
256
6
ByLayer
370
18
48
1
60
1
100
AcDbLine
10
366.049425
20
25.824997
30
0
11
366.975
21
30
31
0
39
0
210
0
220
0
230
1
0
LINE
5
326
100
AcDbEntity
8
1
62
256
6
ByLayer
370
18
48
1
60
1
100
AcDbLine
10
-100.725
20
-25
30
0
11
-101.650575
21
-20.825003
31
0
39
0
210
0
220
0
230
1
0
LINE
5
327
100
AcDbEntity
8
1
62
256
6
ByLayer
370
18
48
1
60
1
100
AcDbLine
10
-101.650575
20
-20.825003
30
0
11
-99.799425
21
-20.824997
31
0
39
0
210
0
220
0
230
1
0
LINE
5
328
100
AcDbEntity
8
1
62
256
6
ByLayer
370
18
48
1
60
1
100
AcDbLine
10
-99.799425
20
-20.824997
30
0
11
-100.725
21
-25
31
0
39
0
210
0
220
0
230
1
0
LINE
5
32A
100
AcDbEntity
8
1
62
256
6
ByLayer
370
18
48
1
60
1
100
AcDbLine
10
-100.725
20
25
30
0
11
-99.799425
21
20.825003
31
0
39
0
210
0
220
0
230
1
0
LINE
5
32B
100
AcDbEntity
8
1
62
256
6
ByLayer
370
18
48
1
60
1
100
AcDbLine
10
-99.799425
20
20.825003
30
0
11
-101.650575
21
20.824997
31
0
39
0
210
0
220
0
230
1
0
LINE
5
32C
100
AcDbEntity
8
1
62
256
6
ByLayer
370
18
48
1
60
1
100
AcDbLine
10
-101.650575
20
20.824997
30
0
11
-100.725
21
25
31
0
39
0
210
0
220
0
230
1
0
LINE
5
330
100
AcDbEntity
8
1
62
256
6
ByLayer
370
18
48
1
60
1
100
AcDbLine
10
-110.725
20
31.25
30
0
11
-109.799425
21
27.075003
31
0
39
0
210
0
220
0
230
1
0
LINE
5
331
100
AcDbEntity
8
1
62
256
6
ByLayer
370
18
48
1
60
1
100
AcDbLine
10
-109.799425
20
27.075003
30
0
11
-111.650575
21
27.074997
31
0
39
0
210
0
220
0
230
1
0
LINE
5
332
100
AcDbEntity
8
1
62
256
6
ByLayer
370
18
48
1
60
1
100
AcDbLine
10
-111.650575
20
27.074997
30
0
11
-110.725
21
31.25
31
0
39
0
210
0
220
0
230
1
0
LINE
5
334
100
AcDbEntity
8
1
62
256
6
ByLayer
370
18
48
1
60
1
100
AcDbLine
10
-110.725
20
-31.25
30
0
11
-111.650575
21
-27.075003
31
0
39
0
210
0
220
0
230
1
0
LINE
5
335
100
AcDbEntity
8
1
62
256
6
ByLayer
370
18
48
1
60
1
100
AcDbLine
10
-111.650575
20
-27.075003
30
0
11
-109.799425
21
-27.074997
31
0
39
0
210
0
220
0
230
1
0
LINE
5
336
100
AcDbEntity
8
1
62
256
6
ByLayer
370
18
48
1
60
1
100
AcDbLine
10
-109.799425
20
-27.074997
30
0
11
-110.725
21
-31.25
31
0
39
0
210
0
220
0
230
1
0
LINE
5
33A
100
AcDbEntity
8
1
62
256
6
ByLayer
370
18
48
1
60
1
100
AcDbLine
10
366.975
20
-30
30
0
11
366.049425
21
-25.825003
31
0
39
0
210
0
220
0
230
1
0
LINE
5
33B
100
AcDbEntity
8
1
62
256
6
ByLayer
370
18
48
1
60
1
100
AcDbLine
10
366.049425
20
-25.825003
30
0
11
367.900575
21
-25.824997
31
0
39
0
210
0
220
0
230
1
0
LINE
5
33C
100
AcDbEntity
8
1
62
256
6
ByLayer
370
18
48
1
60
1
100
AcDbLine
10
367.900575
20
-25.824997
30
0
11
366.975
21
-30
31
0
39
0
210
0
220
0
230
1
0
LINE
5
33E
100
AcDbEntity
8
1
62
256
6
ByLayer
370
18
48
1
60
1
100
AcDbLine
10
366.975
20
30
30
0
11
367.900575
21
25.825003
31
0
39
0
210
0
220
0
230
1
0
LINE
5
33F
100
AcDbEntity
8
1
62
256
6
ByLayer
370
18
48
1
60
1
100
AcDbLine
10
367.900575
20
25.825003
30
0
11
366.049425
21
25.824997
31
0
39
0
210
0
220
0
230
1
0
LINE
5
340
100
AcDbEntity
8
1
62
256
6
ByLayer
370
18
48
1
60
1
100
AcDbLine
10
366.049425
20
25.824997
30
0
11
366.975
21
30
31
0
39
0
210
0
220
0
230
1
0
MTEXT
5
322
100
AcDbEntity
8
SK2
62
256
6
ByLayer
370
18
48
1
60
0
100
AcDbMText
10
-102.736672
20
-6.949399
30
0
210
0
220
0
230
1
1
%%c
40
4.5
41
0
44
1.084337
50
90
71
7
72
5
7
iso_b_vert
0
MTEXT
5
325
100
AcDbEntity
8
SK2
62
256
6
ByLayer
370
18
48
1
60
0
100
AcDbMText
10
-102.736672
20
4.265444
30
0
210
0
220
0
230
1
1
\W0.6740;50
40
4.5
41
0
44
1.084337
50
90
71
7
72
5
7
iso_b_vert
0
MTEXT
5
32E
100
AcDbEntity
8
SK2
62
256
6
ByLayer
370
18
48
1
60
0
100
AcDbMText
10
-112.736672
20
-9.541655
30
0
210
0
220
0
230
1
1
%%c
40
4.5
41
0
44
1.084337
50
90
71
7
72
5
7
iso_b_vert
0
MTEXT
5
32F
100
AcDbEntity
8
SK2
62
256
6
ByLayer
370
18
48
1
60
0
100
AcDbMText
10
-112.736672
20
1.673189
30
0
210
0
220
0
230
1
1
\W0.7346;62.5
40
4.5
41
0
44
1.084337
50
90
71
7
72
5
7
iso_b_vert
0
MTEXT
5
338
100
AcDbEntity
8
2
62
256
6
ByLayer
370
18
48
1
60
0
100
AcDbMText
10
364.963328
20
-6.949399
30
0
210
0
220
0
230
1
1
%%c
40
4.5
41
0
44
1.084337
50
90
71
7
72
5
7
iso_b_vert
0
MTEXT
5
339
100
AcDbEntity
8
2
62
256
6
ByLayer
370
18
48
1
60
0
100
AcDbMText
10
364.963328
20
4.265444
30
0
210
0
220
0
230
1
1
\W0.6740;60
40
4.5
41
0
44
1.084337
50
90
71
7
72
5
7
iso_b_vert
0
MTEXT
5
342
100
AcDbEntity
8
SK6
62
256
6
ByLayer
370
18
48
1
60
0
100
AcDbMText
10
9.308916
20
-94.592562
30
0
210
0
220
0
230
1
1
\W0.7663;DS20-D6000L50-05
40
3.5
41
0
44
1.084337
50
0
71
7
72
5
7
iso_b_vert
0
HATCH
5
329
100
AcDbEntity
8
SK2
62
256
6
ByLayer
370
13
48
1
60
0
100
AcDbHatch
10
0
20
0
30
0
210
0
220
0
230
1
2
ANSI31
70
0
71
0
91
1
92
5
93
3
72
1
10
-100.725
20
-24.9999999999999
11
-101.650575216528
21
-20.8250033998275
72
1
10
-101.650575216528
20
-20.8250033998275
11
-99.7994247834721
21
-20.8249966001723
72
1
10
-99.7994247834721
20
-20.8249966001723
11
-100.725
21
-24.9999999999999
97
0
75
0
76
1
52
0
41
0.0062
77
0
78
1
53
45
43
0
44
0
45
-0.0139193969876572
46
0.0139193969876572
79
0
47
0
98
1
10
0
20
0
0
HATCH
5
32D
100
AcDbEntity
8
SK2
62
256
6
ByLayer
370
13
48
1
60
0
100
AcDbHatch
10
0
20
0
30
0
210
0
220
0
230
1
2
ANSI31
70
0
71
0
91
1
92
5
93
3
72
1
10
-100.725
20
25.0000000000001
11
-99.7994247834721
21
20.8250033998277
72
1
10
-99.7994247834721
20
20.8250033998277
11
-101.650575216528
21
20.8249966001725
72
1
10
-101.650575216528
20
20.8249966001725
11
-100.725
21
25.0000000000001
97
0
75
0
76
1
52
0
41
0.0062
77
0
78
1
53
45
43
0
44
0
45
-0.0139193969876572
46
0.0139193969876572
79
0
47
0
98
1
10
0
20
0
0
HATCH
5
333
100
AcDbEntity
8
SK2
62
256
6
ByLayer
370
13
48
1
60
0
100
AcDbHatch
10
0
20
0
30
0
210
0
220
0
230
1
2
ANSI31
70
0
71
0
91
1
92
5
93
3
72
1
10
-110.725
20
31.25
11
-109.799424783472
21
27.0750033998276
72
1
10
-109.799424783472
20
27.0750033998276
11
-111.650575216528
21
27.0749966001724
72
1
10
-111.650575216528
20
27.0749966001724
11
-110.725
21
31.25
97
0
75
0
76
1
52
0
41
0.0062
77
0
78
1
53
45
43
0
44
0
45
-0.0139193969876572
46
0.0139193969876572
79
0
47
0
98
1
10
0
20
0
0
HATCH
5
337
100
AcDbEntity
8
SK2
62
256
6
ByLayer
370
13
48
1
60
0
100
AcDbHatch
10
0
20
0
30
0
210
0
220
0
230
1
2
ANSI31
70
0
71
0
91
1
92
5
93
3
72
1
10
-110.725
20
-31.25
11
-111.650575216528
21
-27.0750033998276
72
1
10
-111.650575216528
20
-27.0750033998276
11
-109.799424783472
21
-27.0749966001724
72
1
10
-109.799424783472
20
-27.0749966001724
11
-110.725
21
-31.25
97
0
75
0
76
1
52
0
41
0.0062
77
0
78
1
53
45
43
0
44
0
45
-0.0139193969876572
46
0.0139193969876572
79
0
47
0
98
1
10
0
20
0
0
HATCH
5
33D
100
AcDbEntity
8
2
62
256
6
ByLayer
370
13
48
1
60
0
100
AcDbHatch
10
0
20
0
30
0
210
0
220
0
230
1
2
ANSI31
70
0
71
0
91
1
92
5
93
3
72
1
10
366.975
20
-30.0000000000004
11
366.049424783472
21
-25.825003399828
72
1
10
366.049424783472
20
-25.825003399828
11
367.900575216528
21
-25.8249966001728
72
1
10
367.900575216528
20
-25.8249966001728
11
366.975
21
-30.0000000000004
97
0
75
0
76
1
52
0
41
0.0062
77
0
78
1
53
45
43
0
44
0
45
-0.0139193969876572
46
0.0139193969876572
79
0
47
0
98
1
10
0
20
0
0
HATCH
5
341
100
AcDbEntity
8
2
62
256
6
ByLayer
370
13
48
1
60
0
100
AcDbHatch
10
0
20
0
30
0
210
0
220
0
230
1
2
ANSI31
70
0
71
0
91
1
92
5
93
3
72
1
10
366.975
20
29.9999999999996
11
367.900575216528
21
25.8250033998272
72
1
10
367.900575216528
20
25.8250033998272
11
366.049424783472
21
25.824996600172
72
1
10
366.049424783472
20
25.824996600172
11
366.975
21
29.9999999999996
97
0
75
0
76
1
52
0
41
0.0062
77
0
78
1
53
45
43
0
44
0
45
-0.0139193969876572
46
0.0139193969876572
79
0
47
0
98
1
10
0
20
0
0
DIMENSION
5
345
100
AcDbEntity
8
2
62
256
6
ByLayer
370
18
48
1
60
0
100
AcDbDimension
2
_U0
10
340
20
-80.1
30
0
11
170
21
-80.1
31
0
70
32
71
1
72
1
41
1
210
0
220
0
230
1
3
Standard
100
AcDbAlignedDimension
13
0
23
-31.25
33
0
14
340
24
-30
34
0
50
0
100
AcDbRotatedDimension
1001
ACAD
1000
DSTYLE
1002
{
1070
   371
1070
    13
1070
   372
1070
    13
1070
   170
1070
     0
1070
   144
1040
1.0
1070
   277
1070
     2
1070
   284
1070
     8
1070
   278
1070
    46
1070
   146
1040
0.777778
1070
   345
1005
16
1070
   347
1005
16
1070
   346
1005
16
1070
   344
1005
0
1070
   343
1005
0
1070
   172
1070
     1
1070
    76
1070
     0
1070
    75
1070
     0
1070
   282
1070
     0
1070
   281
1070
     0
1070
    71
1070
     0
1070
    74
1070
     0
1070
   279
1070
     0
1070
   173
1070
     1
1070
   340
1005
323
1070
   271
1070
     1
1070
   272
1070
     2
1070
    77
1070
     1
1070
    73
1070
     1
1070
   171
1070
     3
1070
   274
1070
     4
1070
   177
1070
   150
1070
   176
1070
     9
1070
   178
1070
    43
1070
    78
1070
     8
1070
    48
1040
-0.1
1070
    41
1040
4.175
1070
   147
1040
2.25
1070
    42
1040
1.5875
1070
    44
1040
3.175
1070
   140
1040
4.5
1002
}
1001
ACAD_DSTYLE_DIM_LINETYPE
1070
   380
1005
16
1001
ACAD_DSTYLE_DIM_EXT1_LINETYPE
1070
   381
1005
16
1001
ACAD_DSTYLE_DIM_EXT2_LINETYPE
1070
   382
1005
16
0
DIMENSION
5
35E
100
AcDbEntity
8
SK2
62
256
6
ByLayer
370
18
48
1
60
0
100
AcDbDimension
2
_U1
10
0
20
-80.1
30
0
11
-40
21
-80.1
31
0
70
32
71
1
72
1
41
1
210
0
220
0
230
1
3
Standard
100
AcDbAlignedDimension
13
-80
23
-25
33
0
14
0
24
-31.25
34
0
50
0
100
AcDbRotatedDimension
1001
ACAD
1000
DSTYLE
1002
{
1070
   371
1070
    13
1070
   372
1070
    13
1070
   170
1070
     0
1070
   144
1040
1.0
1070
   277
1070
     2
1070
   284
1070
     8
1070
   278
1070
    46
1070
   146
1040
0.777778
1070
   345
1005
16
1070
   347
1005
16
1070
   346
1005
16
1070
   344
1005
0
1070
   343
1005
0
1070
   172
1070
     1
1070
    76
1070
     0
1070
    75
1070
     0
1070
   282
1070
     0
1070
   281
1070
     0
1070
    71
1070
     0
1070
    74
1070
     0
1070
   279
1070
     0
1070
   173
1070
     1
1070
   340
1005
323
1070
   271
1070
     1
1070
   272
1070
     2
1070
    77
1070
     1
1070
    73
1070
     1
1070
   171
1070
     3
1070
   274
1070
     4
1070
   177
1070
   150
1070
   176
1070
     9
1070
   178
1070
    43
1070
    78
1070
     8
1070
    48
1040
-0.1
1070
    41
1040
4.175
1070
   147
1040
2.25
1070
    42
1040
1.5875
1070
    44
1040
3.175
1070
   140
1040
4.5
1002
}
1001
ACAD_DSTYLE_DIM_LINETYPE
1070
   380
1005
16
1001
ACAD_DSTYLE_DIM_EXT1_LINETYPE
1070
   381
1005
16
1001
ACAD_DSTYLE_DIM_EXT2_LINETYPE
1070
   382
1005
16
0
DIMENSION
5
376
100
AcDbEntity
8
SK2
62
256
6
ByLayer
370
18
48
1
60
0
100
AcDbDimension
2
_U2
10
5.5783
20
-70.1
30
0
11
172.78915
21
-70.1
31
0
70
32
71
1
72
1
41
1
210
0
220
0
230
1
3
Standard
100
AcDbAlignedDimension
13
340
23
-30
33
0
14
5.5783
24
-31.25
34
0
50
0
100
AcDbRotatedDimension
1001
ACAD
1000
DSTYLE
1002
{
1070
   371
1070
    13
1070
   372
1070
    13
1070
   170
1070
     0
1070
   144
1040
1.0
1070
   277
1070
     2
1070
   284
1070
     8
1070
   278
1070
    46
1070
   146
1040
0.777778
1070
   345
1005
16
1070
   347
1005
16
1070
   346
1005
16
1070
   344
1005
0
1070
   343
1005
0
1070
   172
1070
     1
1070
    76
1070
     0
1070
    75
1070
     0
1070
   282
1070
     0
1070
   281
1070
     0
1070
    71
1070
     0
1070
    74
1070
     0
1070
   279
1070
     0
1070
   173
1070
     1
1070
   340
1005
323
1070
   271
1070
     1
1070
   272
1070
     2
1070
    77
1070
     1
1070
    73
1070
     1
1070
   171
1070
     3
1070
   274
1070
     4
1070
   177
1070
   150
1070
   176
1070
     9
1070
   178
1070
    43
1070
    78
1070
     8
1070
    48
1040
-0.1
1070
    41
1040
4.175
1070
   147
1040
2.25
1070
    42
1040
1.5875
1070
    44
1040
3.175
1070
   140
1040
4.5
1002
}
1001
ACAD_DSTYLE_DIM_LINETYPE
1070
   380
1005
16
1001
ACAD_DSTYLE_DIM_EXT1_LINETYPE
1070
   381
1005
16
1001
ACAD_DSTYLE_DIM_EXT2_LINETYPE
1070
   382
1005
16
0
DIMENSION
5
38E
100
AcDbEntity
8
SK2
62
256
6
ByLayer
370
18
48
1
60
0
100
AcDbDimension
2
_U3
10
340
20
-60.1
30
0
11
187.5
21
-60.1
31
0
70
32
71
1
72
1
41
1
210
0
220
0
230
1
3
Standard
100
AcDbAlignedDimension
13
35
23
-30
33
0
14
340
24
-30
34
0
50
0
100
AcDbRotatedDimension
1001
ACAD
1000
DSTYLE
1002
{
1070
   371
1070
    13
1070
   372
1070
    13
1070
   170
1070
     0
1070
   144
1040
1.0
1070
   277
1070
     2
1070
   284
1070
     8
1070
   278
1070
    46
1070
   146
1040
0.777778
1070
   345
1005
16
1070
   347
1005
16
1070
   346
1005
16
1070
   344
1005
0
1070
   343
1005
0
1070
   172
1070
     1
1070
    76
1070
     0
1070
    75
1070
     0
1070
   282
1070
     0
1070
   281
1070
     0
1070
    71
1070
     0
1070
    74
1070
     0
1070
   279
1070
     0
1070
   173
1070
     1
1070
   340
1005
323
1070
   271
1070
     1
1070
   272
1070
     2
1070
    77
1070
     1
1070
    73
1070
     1
1070
   171
1070
     3
1070
   274
1070
     4
1070
   177
1070
   150
1070
   176
1070
     9
1070
   178
1070
    43
1070
    78
1070
     8
1070
    48
1040
-0.1
1070
    41
1040
4.175
1070
   147
1040
2.25
1070
    42
1040
1.5875
1070
    44
1040
3.175
1070
   140
1040
4.5
1002
}
1001
ACAD_DSTYLE_DIM_LINETYPE
1070
   380
1005
16
1001
ACAD_DSTYLE_DIM_EXT1_LINETYPE
1070
   381
1005
16
1001
ACAD_DSTYLE_DIM_EXT2_LINETYPE
1070
   382
1005
16
0
DIMENSION
5
3A6
100
AcDbEntity
8
2
62
256
6
ByLayer
370
18
48
1
60
0
100
AcDbDimension
2
_U4
10
340
20
-50.1
30
0
11
361.922321
21
-50.1
31
0
70
32
71
1
72
1
41
1
210
0
220
0
230
1
3
Standard
100
AcDbAlignedDimension
13
338.4109
23
-15
33
0
14
340
24
0
34
0
50
0
100
AcDbRotatedDimension
1001
ACAD
1000
DSTYLE
1002
{
1070
   371
1070
    13
1070
   372
1070
    13
1070
   170
1070
     0
1070
   144
1040
1.0
1070
   277
1070
     2
1070
   284
1070
     8
1070
   278
1070
    46
1070
   146
1040
0.777778
1070
   345
1005
16
1070
   347
1005
16
1070
   346
1005
16
1070
   344
1005
0
1070
   343
1005
0
1070
   172
1070
     1
1070
    76
1070
     0
1070
    75
1070
     0
1070
   282
1070
     0
1070
   281
1070
     0
1070
    71
1070
     0
1070
    74
1070
     0
1070
   279
1070
     0
1070
   173
1070
     1
1070
   340
1005
323
1070
   271
1070
     2
1070
   272
1070
     2
1070
    77
1070
     1
1070
    73
1070
     1
1070
   171
1070
     3
1070
   274
1070
     4
1070
   177
1070
   150
1070
   176
1070
     9
1070
   178
1070
    43
1070
    78
1070
     8
1070
    48
1040
-0.1
1070
    41
1040
4.175
1070
   147
1040
2.25
1070
    42
1040
1.5875
1070
    44
1040
3.175
1070
   140
1040
4.5
1002
}
1001
ACAD_DSTYLE_DIM_LINETYPE
1070
   380
1005
16
1001
ACAD_DSTYLE_DIM_EXT1_LINETYPE
1070
   381
1005
16
1001
ACAD_DSTYLE_DIM_EXT2_LINETYPE
1070
   382
1005
16
0
ENDSEC
0
SECTION
2
OBJECTS
0
DICTIONARY
5
430
330
0
100
AcDbDictionary
280
0
281
1
3
ACAD_GROUP
350
431
3
ACAD_MLINESTYLE
350
432
0
DICTIONARY
5
431
330
0
100
AcDbDictionary
280
0
281
1
0
DICTIONARY
5
432
330
0
100
AcDbDictionary
280
0
281
1
3
Standard
350
18
0
MLINESTYLE
5
18
330
432
100
AcDbMlineStyle
2
Standard
70
0
3

62
256
51
90
52
90
71
2
49
-0.5
62
256
6
ByLayer
49
0.5
62
256
6
ByLayer
0
RASTERVARIABLES
5
41e
330

100
AcDbRasterVariables
90
0
70
1
71
1
72
1
0
ENDSEC
0
EOF
