0
SECTION
2
HEADER
9
$ACADVER
1
AC1015
9
$DWGCODEPAGE
3
ANSI_1252
9
$HANDSEED
5
458
9
$ANGBASE
50
0
9
$ANGDIR
70
0
9
$ATTMODE
70
1
9
$AUNITS
70
0
9
$AUPREC
70
0
9
$CECOLOR
62
256
9
$CELTSCALE
40
1
9
$CELTYPE
6
ByLayer
9
$CELWEIGHT
370
18
9
$CLAYER
8
0
9
$CMLJUST
70
0
9
$CMLSCALE
40
1
9
$CMLSTYLE
2
Standard
9
$DIMSTYLE
2
Standard
9
$TEXTSIZE
40
0.2
9
$TEXTSTYLE
7
Standard
9
$LUNITS
70
2
9
$LUPREC
70
4
9
$EXTNAMES
290
1
9
$INSUNITS
70
4
9
$LTSCALE
40
1
9
$LWDISPLAY
290
1
9
$PDMODE
70
0
9
$PDSIZE
40
0
9
$PLINEGEN
70
0
0
ENDSEC
0
SECTION
2
CLASSES
0
CLASS
1
RASTERVARIABLES
2
AcDbRasterVariables
3
ISM
90
0
280
0
281
0
0
ENDSEC
0
SECTION
2
TABLES
0
TABLE
2
VPORT
5
44e
100
AcDbSymbolTable
0
VPORT
5
1
100
AcDbSymbolTableRecord
100
AcDbViewportTableRecord
2
*Active
70
0
10
0
20
0
11
1
21
1
12
-1
22
1
13
0
23
0
14
0.5
24
0.5
15
10
25
10
16
0
26
0
36
1
17
0
27
0
37
0
0
ENDTAB
0
TABLE
2
LTYPE
5
44f
100
AcDbSymbolTable
0
LTYPE
5
14
100
AcDbSymbolTableRecord
100
AcDbLinetypeTableRecord
70
0
2
ByBlock
3

72
65
73
0
40
0
0
LTYPE
5
15
100
AcDbSymbolTableRecord
100
AcDbLinetypeTableRecord
70
0
2
ByLayer
3

72
65
73
0
40
0
0
LTYPE
5
16
100
AcDbSymbolTableRecord
100
AcDbLinetypeTableRecord
70
0
2
Continuous
3
Solid line
72
65
73
0
40
0
0
LTYPE
5
6E
100
AcDbSymbolTableRecord
100
AcDbLinetypeTableRecord
70
0
2
CENTER
3
____ _ ____ _ ____ _ ____
72
65
73
4
40
47.5
49
22
74
0
49
-8.5
74
0
49
8.5
74
0
49
-8.5
74
0
0
LTYPE
5
6F
100
AcDbSymbolTableRecord
100
AcDbLinetypeTableRecord
70
0
2
DASHED
3
__ __ __ __ __ __ __ __ __
72
65
73
2
40
25.72
49
12.86
74
0
49
-12.86
74
0
0
ENDTAB
0
TABLE
2
LAYER
5
450
100
AcDbSymbolTable
0
LAYER
5
10
100
AcDbSymbolTableRecord
100
AcDbLayerTableRecord
2
0
70
0
62
7
6
Continuous
290
1
370
-3
390
0
0
LAYER
5
71
100
AcDbSymbolTableRecord
100
AcDbLayerTableRecord
2
1
70
0
62
4
6
Continuous
290
1
370
-3
390
0
0
LAYER
5
73
100
AcDbSymbolTableRecord
100
AcDbLayerTableRecord
2
80
70
0
62
-6
6
Continuous
290
1
370
-3
390
0
0
LAYER
5
75
100
AcDbSymbolTableRecord
100
AcDbLayerTableRecord
2
81
70
0
62
-3
6
Continuous
290
1
370
-3
390
0
0
LAYER
5
148
100
AcDbSymbolTableRecord
100
AcDbLayerTableRecord
2
4
70
0
62
-2
6
CENTER
290
1
370
-3
390
0
0
LAYER
5
183
100
AcDbSymbolTableRecord
100
AcDbLayerTableRecord
2
2
70
0
62
7
6
Continuous
290
1
370
-3
390
0
0
LAYER
5
363
100
AcDbSymbolTableRecord
100
AcDbLayerTableRecord
2
Defpoints
70
0
62
7
6
Continuous
290
0
370
-3
390
0
0
LAYER
5
43a
100
AcDbSymbolTableRecord
100
AcDbLayerTableRecord
2
SK1
70
0
62
4
6
Continuous
290
1
370
-3
390
0
0
LAYER
5
43b
100
AcDbSymbolTableRecord
100
AcDbLayerTableRecord
2
SK4
70
0
62
2
6
CENTER
290
1
370
-3
390
0
0
LAYER
5
43c
100
AcDbSymbolTableRecord
100
AcDbLayerTableRecord
2
SK2
70
0
62
7
6
Continuous
290
1
370
-3
390
0
0
LAYER
5
43d
100
AcDbSymbolTableRecord
100
AcDbLayerTableRecord
2
SK6
70
0
62
5
6
Continuous
290
1
370
-3
390
0
0
ENDTAB
0
TABLE
2
STYLE
5
451
100
AcDbSymbolTable
0
STYLE
5
11
100
AcDbSymbolTableRecord
100
AcDbTextStyleTableRecord
2
Standard
3
txt
70
0
71
0
40
0
41
1
42
0
50
0
0
STYLE
5
33E
100
AcDbSymbolTableRecord
100
AcDbTextStyleTableRecord
2
iso_b_vert
3
simplex.shx
70
0
71
0
40
0
41
1
42
0
50
0
0
STYLE
5
33F
100
AcDbSymbolTableRecord
100
AcDbTextStyleTableRecord
2
DWGDirectTextStyle
3
simplex
70
0
71
0
40
0
41
1
42
0
50
0
0
ENDTAB
0
TABLE
2
DIMSTYLE
5
452
100
AcDbSymbolTable
100
AcDbDimStyleTable
0
DIMSTYLE
105
27
100
AcDbSymbolTableRecord
100
AcDbDimStyleTableRecord
2
Standard
70
0
3
<>
41
0.18
42
0.0625
44
0.18
140
0.18
147
0.09
73
0
74
0
77
1
271
2
275
0
278
52
280
0
340
11
0
ENDTAB
0
TABLE
2
VIEW
5
453
100
AcDbSymbolTable
0
ENDTAB
0
TABLE
2
UCS
5
454
100
AcDbSymbolTable
0
ENDTAB
0
TABLE
2
APPID
5
455
100
AcDbSymbolTable
0
APPID
5
12
100
AcDbSymbolTableRecord
100
AcDbRegAppTableRecord
2
ACAD
70
0
0
APPID
5
35F
100
AcDbSymbolTableRecord
100
AcDbRegAppTableRecord
2
ACAD_DSTYLE_DIMBREAK
70
0
0
APPID
5
3F9
100
AcDbSymbolTableRecord
100
AcDbRegAppTableRecord
2
ACAD_DSTYLE_DIM_LINETYPE
70
0
0
APPID
5
3FA
100
AcDbSymbolTableRecord
100
AcDbRegAppTableRecord
2
ACAD_DSTYLE_DIM_EXT1_LINETYPE
70
0
0
APPID
5
3FB
100
AcDbSymbolTableRecord
100
AcDbRegAppTableRecord
2
ACAD_DSTYLE_DIM_EXT2_LINETYPE
70
0
0
APPID
5
436
100
AcDbSymbolTableRecord
100
AcDbRegAppTableRecord
2
ACAD_MLEADERVER
70
0
0
ENDTAB
0
TABLE
2
BLOCK_RECORD
5
456
100
AcDbSymbolTable
0
BLOCK_RECORD
5
1F
100
AcDbSymbolTableRecord
100
AcDbBlockTableRecord
2
*Model_Space
340
0
70
0
0
BLOCK_RECORD
5
1B
100
AcDbSymbolTableRecord
100
AcDbBlockTableRecord
2
*Paper_Space
340
0
70
0
0
BLOCK_RECORD
5
23
100
AcDbSymbolTableRecord
100
AcDbBlockTableRecord
2
*Paper_Space0
340
0
70
0
0
BLOCK_RECORD
5
364
100
AcDbSymbolTableRecord
100
AcDbBlockTableRecord
2
*D1
340
0
70
0
0
BLOCK_RECORD
5
370
100
AcDbSymbolTableRecord
100
AcDbBlockTableRecord
2
_U0
340
0
70
0
0
BLOCK_RECORD
5
37C
100
AcDbSymbolTableRecord
100
AcDbBlockTableRecord
2
*D3
340
0
70
0
0
BLOCK_RECORD
5
388
100
AcDbSymbolTableRecord
100
AcDbBlockTableRecord
2
_U1
340
0
70
0
0
BLOCK_RECORD
5
394
100
AcDbSymbolTableRecord
100
AcDbBlockTableRecord
2
*D5
340
0
70
0
0
BLOCK_RECORD
5
3A0
100
AcDbSymbolTableRecord
100
AcDbBlockTableRecord
2
_U2
340
0
70
0
0
BLOCK_RECORD
5
3AC
100
AcDbSymbolTableRecord
100
AcDbBlockTableRecord
2
*D7
340
0
70
0
0
BLOCK_RECORD
5
3B8
100
AcDbSymbolTableRecord
100
AcDbBlockTableRecord
2
_U3
340
0
70
0
0
BLOCK_RECORD
5
3C4
100
AcDbSymbolTableRecord
100
AcDbBlockTableRecord
2
*D9
340
0
70
0
0
BLOCK_RECORD
5
3D2
100
AcDbSymbolTableRecord
100
AcDbBlockTableRecord
2
_U4
340
0
70
0
0
ENDTAB
0
ENDSEC
0
SECTION
2
BLOCKS
0
BLOCK
5
20
100
AcDbEntity
8
0
100
AcDbBlockBegin
2
*Model_Space
70
0
10
0
20
0
30
0
3
*Model_Space
0
ENDBLK
5
21
100
AcDbEntity
8
0
100
AcDbBlockEnd
0
BLOCK
5
1C
100
AcDbEntity
8
0
100
AcDbBlockBegin
2
*Paper_Space
70
0
10
0
20
0
30
0
3
*Paper_Space
0
ENDBLK
5
1D
100
AcDbEntity
8
0
100
AcDbBlockEnd
0
BLOCK
5
24
100
AcDbEntity
8
0
100
AcDbBlockBegin
2
*Paper_Space0
70
0
10
0
20
0
30
0
3
*Paper_Space0
0
ENDBLK
5
25
100
AcDbEntity
8
0
100
AcDbBlockEnd
0
BLOCK
5
365
100
AcDbEntity
8
0
100
AcDbBlockBegin
2
*D1
70
1
10
0
20
0
30
0
3
*D1
0
LINE
5
367
100
AcDbEntity
8
0
62
256
6
ByLayer
370
-2
48
1
60
0
100
AcDbLine
10
0
20
-32.8375
30
0
11
0
21
-83.275
31
0
39
0
210
0
220
0
230
1
0
LINE
5
368
100
AcDbEntity
8
0
62
256
6
ByLayer
370
-2
48
1
60
0
100
AcDbLine
10
301
20
-27.5875
30
0
11
301
21
-83.275
31
0
39
0
210
0
220
0
230
1
0
LINE
5
369
100
AcDbEntity
8
0
62
256
6
ByLayer
370
-2
48
1
60
0
100
AcDbLine
10
4.175
20
-80.1
30
0
11
296.825
21
-80.1
31
0
39
0
210
0
220
0
230
1
0
SOLID
5
36A
100
AcDbEntity
8
0
62
256
6
ByLayer
370
-1
48
1
60
0
100
AcDbTrace
10
4.175
20
-79.404167
30
0
11
4.175
21
-80.795833
31
0
12
0
22
-80.1
32
0
13
0
23
-80.1
33
0
39
0
210
0
220
0
230
1
0
SOLID
5
36B
100
AcDbEntity
8
0
62
256
6
ByLayer
370
-1
48
1
60
0
100
AcDbTrace
10
296.825
20
-80.795833
30
0
11
296.825
21
-79.404167
31
0
12
301
22
-80.1
32
0
13
301
23
-80.1
33
0
39
0
210
0
220
0
230
1
0
MTEXT
5
36C
100
AcDbEntity
8
0
62
256
6
ByLayer
370
18
48
1
60
0
100
AcDbMText
10
150.5
20
-70.70625
30
0
210
0
220
0
230
1
1
\A1;301
40
4.5
41
0
44
1
50
0
71
5
72
5
7
iso_b_vert
0
POINT
5
36D
100
AcDbEntity
8
Defpoints
62
0
6
ByLayer
370
-1
48
1
60
0
100
AcDbPoint
10
0
20
-31.25
30
0
39
0
210
0
220
0
230
1
50
360
0
POINT
5
36E
100
AcDbEntity
8
Defpoints
62
0
6
ByLayer
370
-1
48
1
60
0
100
AcDbPoint
10
301
20
-26
30
0
39
0
210
0
220
0
230
1
50
360
0
POINT
5
36F
100
AcDbEntity
8
Defpoints
62
0
6
ByLayer
370
-1
48
1
60
0
100
AcDbPoint
10
301
20
-80.1
30
0
39
0
210
0
220
0
230
1
50
360
0
ENDBLK
5
366
100
AcDbEntity
8
0
100
AcDbBlockEnd
0
BLOCK
5
377
100
AcDbEntity
8
0
100
AcDbBlockBegin
2
_U0
70
0
10
0
20
0
30
0
3
_U0
0
MTEXT
5
371
100
AcDbEntity
8
2
62
256
6
ByLayer
370
18
48
1
60
0
100
AcDbMText
10
146.931801
20
-78.772328
30
0
210
0
220
0
230
1
1
\W0.6949;301
40
4.5
41
0
44
1.084337
50
0
71
7
72
5
7
iso_b_vert
0
LINE
5
372
100
AcDbEntity
8
2
62
256
6
ByLayer
370
13
48
1
60
0
100
AcDbLine
10
0
20
-32.8375
30
0
11
0
21
-83.275
31
0
39
0
210
0
220
0
230
1
0
LINE
5
373
100
AcDbEntity
8
2
62
256
6
ByLayer
370
13
48
1
60
0
100
AcDbLine
10
301
20
-27.5875
30
0
11
301
21
-83.275
31
0
39
0
210
0
220
0
230
1
0
LINE
5
374
100
AcDbEntity
8
2
62
256
6
ByLayer
370
13
48
1
60
0
100
AcDbLine
10
0
20
-80.1
30
0
11
301
21
-80.1
31
0
39
0
210
0
220
0
230
1
0
SOLID
5
375
100
AcDbEntity
8
2
62
256
6
ByLayer
370
18
48
1
60
0
100
AcDbTrace
10
0
20
-80.1
30
0
11
4.174997
21
-79.174425
31
0
12
4.175003
22
-81.025575
32
0
13
4.175003
23
-81.025575
33
0
39
0
210
0
220
0
230
1
0
SOLID
5
376
100
AcDbEntity
8
2
62
256
6
ByLayer
370
18
48
1
60
0
100
AcDbTrace
10
301
20
-80.1
30
0
11
296.825003
21
-81.025575
31
0
12
296.824997
22
-79.174425
32
0
13
296.824997
23
-79.174425
33
0
39
0
210
0
220
0
230
1
0
ENDBLK
5
378
100
AcDbEntity
8
0
100
AcDbBlockEnd
0
BLOCK
5
37D
100
AcDbEntity
8
0
100
AcDbBlockBegin
2
*D3
70
1
10
0
20
0
30
0
3
*D3
0
LINE
5
37F
100
AcDbEntity
8
0
62
256
6
ByLayer
370
-2
48
1
60
0
100
AcDbLine
10
-80
20
-26.5875
30
0
11
-80
21
-83.275
31
0
39
0
210
0
220
0
230
1
0
LINE
5
380
100
AcDbEntity
8
0
62
256
6
ByLayer
370
-2
48
1
60
0
100
AcDbLine
10
0
20
-32.8375
30
0
11
0
21
-83.275
31
0
39
0
210
0
220
0
230
1
0
LINE
5
381
100
AcDbEntity
8
0
62
256
6
ByLayer
370
-2
48
1
60
0
100
AcDbLine
10
-75.825
20
-80.1
30
0
11
-4.175
21
-80.1
31
0
39
0
210
0
220
0
230
1
0
SOLID
5
382
100
AcDbEntity
8
0
62
256
6
ByLayer
370
-1
48
1
60
0
100
AcDbTrace
10
-75.825
20
-79.404167
30
0
11
-75.825
21
-80.795833
31
0
12
-80
22
-80.1
32
0
13
-80
23
-80.1
33
0
39
0
210
0
220
0
230
1
0
SOLID
5
383
100
AcDbEntity
8
0
62
256
6
ByLayer
370
-1
48
1
60
0
100
AcDbTrace
10
-4.175
20
-80.795833
30
0
11
-4.175
21
-79.404167
31
0
12
0
22
-80.1
32
0
13
0
23
-80.1
33
0
39
0
210
0
220
0
230
1
0
MTEXT
5
384
100
AcDbEntity
8
0
62
256
6
ByLayer
370
18
48
1
60
0
100
AcDbMText
10
-40
20
-70.70625
30
0
210
0
220
0
230
1
1
\A1;80
40
4.5
41
0
44
1
50
0
71
5
72
5
7
iso_b_vert
0
POINT
5
385
100
AcDbEntity
8
Defpoints
62
0
6
ByLayer
370
-1
48
1
60
0
100
AcDbPoint
10
-80
20
-25
30
0
39
0
210
0
220
0
230
1
50
360
0
POINT
5
386
100
AcDbEntity
8
Defpoints
62
0
6
ByLayer
370
-1
48
1
60
0
100
AcDbPoint
10
0
20
-31.25
30
0
39
0
210
0
220
0
230
1
50
360
0
POINT
5
387
100
AcDbEntity
8
Defpoints
62
0
6
ByLayer
370
-1
48
1
60
0
100
AcDbPoint
10
0
20
-80.1
30
0
39
0
210
0
220
0
230
1
50
360
0
ENDBLK
5
37E
100
AcDbEntity
8
0
100
AcDbBlockEnd
0
BLOCK
5
38F
100
AcDbEntity
8
0
100
AcDbBlockBegin
2
_U1
70
0
10
0
20
0
30
0
3
_U1
0
MTEXT
5
389
100
AcDbEntity
8
SK2
62
256
6
ByLayer
370
18
48
1
60
0
100
AcDbMText
10
-42.449242
20
-78.772328
30
0
210
0
220
0
230
1
1
\W0.6740;80
40
4.5
41
0
44
1.084337
50
0
71
7
72
5
7
iso_b_vert
0
LINE
5
38A
100
AcDbEntity
8
SK2
62
256
6
ByLayer
370
13
48
1
60
0
100
AcDbLine
10
-80
20
-26.5875
30
0
11
-80
21
-83.275
31
0
39
0
210
0
220
0
230
1
0
LINE
5
38B
100
AcDbEntity
8
SK2
62
256
6
ByLayer
370
13
48
1
60
0
100
AcDbLine
10
0
20
-32.8375
30
0
11
0
21
-83.275
31
0
39
0
210
0
220
0
230
1
0
LINE
5
38C
100
AcDbEntity
8
SK2
62
256
6
ByLayer
370
13
48
1
60
0
100
AcDbLine
10
-80
20
-80.1
30
0
11
0
21
-80.1
31
0
39
0
210
0
220
0
230
1
0
SOLID
5
38D
100
AcDbEntity
8
SK2
62
256
6
ByLayer
370
18
48
1
60
0
100
AcDbTrace
10
-80
20
-80.1
30
0
11
-75.825003
21
-79.174425
31
0
12
-75.824997
22
-81.025575
32
0
13
-75.824997
23
-81.025575
33
0
39
0
210
0
220
0
230
1
0
SOLID
5
38E
100
AcDbEntity
8
SK2
62
256
6
ByLayer
370
18
48
1
60
0
100
AcDbTrace
10
0
20
-80.1
30
0
11
-4.174997
21
-81.025575
31
0
12
-4.175003
22
-79.174425
32
0
13
-4.175003
23
-79.174425
33
0
39
0
210
0
220
0
230
1
0
ENDBLK
5
390
100
AcDbEntity
8
0
100
AcDbBlockEnd
0
BLOCK
5
395
100
AcDbEntity
8
0
100
AcDbBlockBegin
2
*D5
70
1
10
0
20
0
30
0
3
*D5
0
LINE
5
397
100
AcDbEntity
8
0
62
256
6
ByLayer
370
-2
48
1
60
0
100
AcDbLine
10
301
20
-27.5875
30
0
11
301
21
-73.275
31
0
39
0
210
0
220
0
230
1
0
LINE
5
398
100
AcDbEntity
8
0
62
256
6
ByLayer
370
-2
48
1
60
0
100
AcDbLine
10
5.9541
20
-32.8375
30
0
11
5.9541
21
-73.275
31
0
39
0
210
0
220
0
230
1
0
LINE
5
399
100
AcDbEntity
8
0
62
256
6
ByLayer
370
-2
48
1
60
0
100
AcDbLine
10
296.825
20
-70.1
30
0
11
10.1291
21
-70.1
31
0
39
0
210
0
220
0
230
1
0
SOLID
5
39A
100
AcDbEntity
8
0
62
256
6
ByLayer
370
-1
48
1
60
0
100
AcDbTrace
10
296.825
20
-70.795833
30
0
11
296.825
21
-69.404167
31
0
12
301
22
-70.1
32
0
13
301
23
-70.1
33
0
39
0
210
0
220
0
230
1
0
SOLID
5
39B
100
AcDbEntity
8
0
62
256
6
ByLayer
370
-1
48
1
60
0
100
AcDbTrace
10
10.1291
20
-69.404167
30
0
11
10.1291
21
-70.795833
31
0
12
5.9541
22
-70.1
32
0
13
5.9541
23
-70.1
33
0
39
0
210
0
220
0
230
1
0
MTEXT
5
39C
100
AcDbEntity
8
0
62
256
6
ByLayer
370
18
48
1
60
0
100
AcDbMText
10
153.47705
20
-60.70625
30
0
210
0
220
0
230
1
1
\A1;295
40
4.5
41
0
44
1
50
0
71
5
72
5
7
iso_b_vert
0
POINT
5
39D
100
AcDbEntity
8
Defpoints
62
0
6
ByLayer
370
-1
48
1
60
0
100
AcDbPoint
10
301
20
-26
30
0
39
0
210
0
220
0
230
1
50
360
0
POINT
5
39E
100
AcDbEntity
8
Defpoints
62
0
6
ByLayer
370
-1
48
1
60
0
100
AcDbPoint
10
5.9541
20
-31.25
30
0
39
0
210
0
220
0
230
1
50
360
0
POINT
5
39F
100
AcDbEntity
8
Defpoints
62
0
6
ByLayer
370
-1
48
1
60
0
100
AcDbPoint
10
5.9541
20
-70.1
30
0
39
0
210
0
220
0
230
1
50
360
0
ENDBLK
5
396
100
AcDbEntity
8
0
100
AcDbBlockEnd
0
BLOCK
5
3A7
100
AcDbEntity
8
0
100
AcDbBlockBegin
2
_U2
70
0
10
0
20
0
30
0
3
_U2
0
MTEXT
5
3A1
100
AcDbEntity
8
SK2
62
256
6
ByLayer
370
18
48
1
60
0
100
AcDbMText
10
149.346437
20
-68.772328
30
0
210
0
220
0
230
1
1
\W0.7138;295
40
4.5
41
0
44
1.084337
50
0
71
7
72
5
7
iso_b_vert
0
LINE
5
3A2
100
AcDbEntity
8
SK2
62
256
6
ByLayer
370
13
48
1
60
0
100
AcDbLine
10
301
20
-27.5875
30
0
11
301
21
-73.275
31
0
39
0
210
0
220
0
230
1
0
LINE
5
3A3
100
AcDbEntity
8
SK2
62
256
6
ByLayer
370
13
48
1
60
0
100
AcDbLine
10
5.9541
20
-32.8375
30
0
11
5.9541
21
-73.275
31
0
39
0
210
0
220
0
230
1
0
LINE
5
3A4
100
AcDbEntity
8
SK2
62
256
6
ByLayer
370
13
48
1
60
0
100
AcDbLine
10
301
20
-70.1
30
0
11
5.9541
21
-70.1
31
0
39
0
210
0
220
0
230
1
0
SOLID
5
3A5
100
AcDbEntity
8
SK2
62
256
6
ByLayer
370
18
48
1
60
0
100
AcDbTrace
10
301
20
-70.1
30
0
11
296.825003
21
-71.025575
31
0
12
296.824997
22
-69.174425
32
0
13
296.824997
23
-69.174425
33
0
39
0
210
0
220
0
230
1
0
SOLID
5
3A6
100
AcDbEntity
8
SK2
62
256
6
ByLayer
370
18
48
1
60
0
100
AcDbTrace
10
5.9541
20
-70.1
30
0
11
10.129097
21
-69.174425
31
0
12
10.129103
22
-71.025575
32
0
13
10.129103
23
-71.025575
33
0
39
0
210
0
220
0
230
1
0
ENDBLK
5
3A8
100
AcDbEntity
8
0
100
AcDbBlockEnd
0
BLOCK
5
3AD
100
AcDbEntity
8
0
100
AcDbBlockBegin
2
*D7
70
1
10
0
20
0
30
0
3
*D7
0
LINE
5
3AF
100
AcDbEntity
8
0
62
256
6
ByLayer
370
-2
48
1
60
0
100
AcDbLine
10
36
20
-27.5875
30
0
11
36
21
-63.275
31
0
39
0
210
0
220
0
230
1
0
LINE
5
3B0
100
AcDbEntity
8
0
62
256
6
ByLayer
370
-2
48
1
60
0
100
AcDbLine
10
301
20
-27.5875
30
0
11
301
21
-63.275
31
0
39
0
210
0
220
0
230
1
0
LINE
5
3B1
100
AcDbEntity
8
0
62
256
6
ByLayer
370
-2
48
1
60
0
100
AcDbLine
10
40.175
20
-60.1
30
0
11
296.825
21
-60.1
31
0
39
0
210
0
220
0
230
1
0
SOLID
5
3B2
100
AcDbEntity
8
0
62
256
6
ByLayer
370
-1
48
1
60
0
100
AcDbTrace
10
40.175
20
-59.404167
30
0
11
40.175
21
-60.795833
31
0
12
36
22
-60.1
32
0
13
36
23
-60.1
33
0
39
0
210
0
220
0
230
1
0
SOLID
5
3B3
100
AcDbEntity
8
0
62
256
6
ByLayer
370
-1
48
1
60
0
100
AcDbTrace
10
296.825
20
-60.795833
30
0
11
296.825
21
-59.404167
31
0
12
301
22
-60.1
32
0
13
301
23
-60.1
33
0
39
0
210
0
220
0
230
1
0
MTEXT
5
3B4
100
AcDbEntity
8
0
62
256
6
ByLayer
370
18
48
1
60
0
100
AcDbMText
10
168.5
20
-50.70625
30
0
210
0
220
0
230
1
1
\A1;265
40
4.5
41
0
44
1
50
0
71
5
72
5
7
iso_b_vert
0
POINT
5
3B5
100
AcDbEntity
8
Defpoints
62
0
6
ByLayer
370
-1
48
1
60
0
100
AcDbPoint
10
36
20
-26
30
0
39
0
210
0
220
0
230
1
50
360
0
POINT
5
3B6
100
AcDbEntity
8
Defpoints
62
0
6
ByLayer
370
-1
48
1
60
0
100
AcDbPoint
10
301
20
-26
30
0
39
0
210
0
220
0
230
1
50
360
0
POINT
5
3B7
100
AcDbEntity
8
Defpoints
62
0
6
ByLayer
370
-1
48
1
60
0
100
AcDbPoint
10
301
20
-60.1
30
0
39
0
210
0
220
0
230
1
50
360
0
ENDBLK
5
3AE
100
AcDbEntity
8
0
100
AcDbBlockEnd
0
BLOCK
5
3BF
100
AcDbEntity
8
0
100
AcDbBlockBegin
2
_U3
70
0
10
0
20
0
30
0
3
_U3
0
MTEXT
5
3B9
100
AcDbEntity
8
SK2
62
256
6
ByLayer
370
18
48
1
60
0
100
AcDbMText
10
164.369387
20
-58.772328
30
0
210
0
220
0
230
1
1
\W0.7138;265
40
4.5
41
0
44
1.084337
50
0
71
7
72
5
7
iso_b_vert
0
LINE
5
3BA
100
AcDbEntity
8
SK2
62
256
6
ByLayer
370
13
48
1
60
0
100
AcDbLine
10
36
20
-27.5875
30
0
11
36
21
-63.275
31
0
39
0
210
0
220
0
230
1
0
LINE
5
3BB
100
AcDbEntity
8
SK2
62
256
6
ByLayer
370
13
48
1
60
0
100
AcDbLine
10
301
20
-27.5875
30
0
11
301
21
-63.275
31
0
39
0
210
0
220
0
230
1
0
LINE
5
3BC
100
AcDbEntity
8
SK2
62
256
6
ByLayer
370
13
48
1
60
0
100
AcDbLine
10
36
20
-60.1
30
0
11
301
21
-60.1
31
0
39
0
210
0
220
0
230
1
0
SOLID
5
3BD
100
AcDbEntity
8
SK2
62
256
6
ByLayer
370
18
48
1
60
0
100
AcDbTrace
10
36
20
-60.1
30
0
11
40.174997
21
-59.174425
31
0
12
40.175003
22
-61.025575
32
0
13
40.175003
23
-61.025575
33
0
39
0
210
0
220
0
230
1
0
SOLID
5
3BE
100
AcDbEntity
8
SK2
62
256
6
ByLayer
370
18
48
1
60
0
100
AcDbTrace
10
301
20
-60.1
30
0
11
296.825003
21
-61.025575
31
0
12
296.824997
22
-59.174425
32
0
13
296.824997
23
-59.174425
33
0
39
0
210
0
220
0
230
1
0
ENDBLK
5
3C0
100
AcDbEntity
8
0
100
AcDbBlockEnd
0
BLOCK
5
3C5
100
AcDbEntity
8
0
100
AcDbBlockBegin
2
*D9
70
1
10
0
20
0
30
0
3
*D9
0
LINE
5
3C7
100
AcDbEntity
8
0
62
256
6
ByLayer
370
-2
48
1
60
0
100
AcDbLine
10
299.7234
20
-14.5875
30
0
11
299.7234
21
-53.275
31
0
39
0
210
0
220
0
230
1
0
LINE
5
3C8
100
AcDbEntity
8
0
62
256
6
ByLayer
370
-2
48
1
60
0
100
AcDbLine
10
301
20
-1.5875
30
0
11
301
21
-53.275
31
0
39
0
210
0
220
0
230
1
0
LINE
5
3C9
100
AcDbEntity
8
0
62
256
6
ByLayer
370
-2
48
1
60
0
100
AcDbLine
10
301
20
-50.1
30
0
11
336.708929
21
-50.1
31
0
39
0
210
0
220
0
230
1
0
LINE
5
3CA
100
AcDbEntity
8
0
62
256
6
ByLayer
370
-2
48
1
60
0
100
AcDbLine
10
295.5484
20
-50.1
30
0
11
291.3734
21
-50.1
31
0
39
0
210
0
220
0
230
1
0
LINE
5
3CB
100
AcDbEntity
8
0
62
256
6
ByLayer
370
-2
48
1
60
0
100
AcDbLine
10
305.175
20
-50.1
30
0
11
309.35
21
-50.1
31
0
39
0
210
0
220
0
230
1
0
SOLID
5
3CC
100
AcDbEntity
8
0
62
256
6
ByLayer
370
-1
48
1
60
0
100
AcDbTrace
10
295.5484
20
-50.795833
30
0
11
295.5484
21
-49.404167
31
0
12
299.7234
22
-50.1
32
0
13
299.7234
23
-50.1
33
0
39
0
210
0
220
0
230
1
0
SOLID
5
3CD
100
AcDbEntity
8
0
62
256
6
ByLayer
370
-1
48
1
60
0
100
AcDbTrace
10
305.175
20
-49.404167
30
0
11
305.175
21
-50.795833
31
0
12
301
22
-50.1
32
0
13
301
23
-50.1
33
0
39
0
210
0
220
0
230
1
0
MTEXT
5
3CE
100
AcDbEntity
8
0
62
256
6
ByLayer
370
18
48
1
60
0
100
AcDbMText
10
323.029464
20
-40.70625
30
0
210
0
220
0
230
1
1
\A1;1.28
40
4.5
41
0
44
1
50
0
71
5
72
5
7
iso_b_vert
0
POINT
5
3CF
100
AcDbEntity
8
Defpoints
62
0
6
ByLayer
370
-1
48
1
60
0
100
AcDbPoint
10
299.7234
20
-13
30
0
39
0
210
0
220
0
230
1
50
360
0
POINT
5
3D0
100
AcDbEntity
8
Defpoints
62
0
6
ByLayer
370
-1
48
1
60
0
100
AcDbPoint
10
301
20
0
30
0
39
0
210
0
220
0
230
1
50
360
0
POINT
5
3D1
100
AcDbEntity
8
Defpoints
62
0
6
ByLayer
370
-1
48
1
60
0
100
AcDbPoint
10
301
20
-50.1
30
0
39
0
210
0
220
0
230
1
50
360
0
ENDBLK
5
3C6
100
AcDbEntity
8
0
100
AcDbBlockEnd
0
BLOCK
5
3D9
100
AcDbEntity
8
0
100
AcDbBlockBegin
2
_U4
70
0
10
0
20
0
30
0
3
_U4
0
MTEXT
5
3D3
100
AcDbEntity
8
2
62
256
6
ByLayer
370
18
48
1
60
0
100
AcDbMText
10
313.351
20
-48.772328
30
0
210
0
220
0
230
1
1
\W0.6563;1.28
40
4.5
41
0
44
1.084337
50
0
71
7
72
5
7
iso_b_vert
0
LINE
5
3D4
100
AcDbEntity
8
2
62
256
6
ByLayer
370
13
48
1
60
0
100
AcDbLine
10
299.7234
20
-14.5875
30
0
11
299.7234
21
-53.275
31
0
39
0
210
0
220
0
230
1
0
LINE
5
3D5
100
AcDbEntity
8
2
62
256
6
ByLayer
370
13
48
1
60
0
100
AcDbLine
10
301
20
-1.5875
30
0
11
301
21
-53.275
31
0
39
0
210
0
220
0
230
1
0
LINE
5
3D6
100
AcDbEntity
8
2
62
256
6
ByLayer
370
13
48
1
60
0
100
AcDbLine
10
322.549041
20
-50.1
30
0
11
288.4734
21
-50.1
31
0
39
0
210
0
220
0
230
1
0
SOLID
5
3D7
100
AcDbEntity
8
2
62
256
6
ByLayer
370
18
48
1
60
0
100
AcDbTrace
10
299.7234
20
-50.1
30
0
11
295.548403
21
-51.025575
31
0
12
295.548397
22
-49.174425
32
0
13
295.548397
23
-49.174425
33
0
39
0
210
0
220
0
230
1
0
SOLID
5
3D8
100
AcDbEntity
8
2
62
256
6
ByLayer
370
18
48
1
60
0
100
AcDbTrace
10
301
20
-50.1
30
0
11
305.174997
21
-49.174425
31
0
12
305.175003
22
-51.025575
32
0
13
305.175003
23
-51.025575
33
0
39
0
210
0
220
0
230
1
0
ENDBLK
5
3DA
100
AcDbEntity
8
0
100
AcDbBlockEnd
0
ENDSEC
0
SECTION
2
ENTITIES
0
ARC
5
18C
100
AcDbEntity
8
SK1
62
256
6
ByLayer
370
13
48
1
60
0
100
AcDbCircle
39
0
10
-77.894505
20
-25.396
30
0
40
0.799999999999979
210
0
220
0
230
1
100
AcDbArc
50
70.982
51
141
0
ARC
5
18D
100
AcDbEntity
8
SK1
62
256
6
ByLayer
370
13
48
1
60
0
100
AcDbCircle
39
0
10
-77.894505
20
25.396
30
0
40
0.799999999999979
210
0
220
0
230
1
100
AcDbArc
50
219
51
289.018
0
ARC
5
18E
100
AcDbEntity
8
SK1
62
256
6
ByLayer
370
13
48
1
60
0
100
AcDbCircle
39
0
10
-0.15
20
25.146
30
0
40
0.399999999999999
210
0
220
0
230
1
100
AcDbArc
50
270
51
292.024313
0
ARC
5
18F
100
AcDbEntity
8
SK1
62
256
6
ByLayer
370
13
48
1
60
0
100
AcDbCircle
39
0
10
-0.15
20
-25.146
30
0
40
0.399999999999999
210
0
220
0
230
1
100
AcDbArc
50
67.975687
51
90
0
ARC
5
190
100
AcDbEntity
8
SK1
62
256
6
ByLayer
370
13
48
1
60
0
100
AcDbCircle
39
0
10
-1.375195
20
25.146
30
0
40
0.400000000000004
210
0
220
0
230
1
100
AcDbArc
50
245
51
270
0
ARC
5
191
100
AcDbEntity
8
SK1
62
256
6
ByLayer
370
13
48
1
60
0
100
AcDbCircle
39
0
10
-1.375195
20
-25.146
30
0
40
0.400000000000004
210
0
220
0
230
1
100
AcDbArc
50
90
51
115
0
ARC
5
192
100
AcDbEntity
8
1
62
256
6
ByLayer
370
13
48
1
60
0
100
AcDbCircle
39
0
10
297.546286
20
24.50069
30
0
40
0.2
210
0
220
0
230
1
100
AcDbArc
50
8.974534
51
93
0
ARC
5
193
100
AcDbEntity
8
1
62
256
6
ByLayer
370
13
48
1
60
0
100
AcDbCircle
39
0
10
297.692333
20
11.679591
30
0
40
0.2
210
0
220
0
230
1
100
AcDbArc
50
273
51
352.543899
0
ARC
5
194
100
AcDbEntity
8
1
62
256
6
ByLayer
370
13
48
1
60
0
100
AcDbCircle
39
0
10
284.925347
20
23.604686
30
0
40
0.2
210
0
220
0
230
1
100
AcDbArc
50
76.847115
51
93
0
ARC
5
195
100
AcDbEntity
8
1
62
256
6
ByLayer
370
13
48
1
60
0
100
AcDbCircle
39
0
10
285.071393
20
10.783587
30
0
40
0.2
210
0
220
0
230
1
100
AcDbArc
50
273
51
304.880681
0
ELLIPSE
5
196
100
AcDbEntity
8
1
62
256
6
ByLayer
370
18
48
1
60
0
100
AcDbEllipse
10
292.375169
20
18.440691
30
0
11
-0.213416480931887
21
0.330813521391192
31
0
210
0
220
0
230
1
40
0.48867
41
0.291314926052183
42
1.57317835189835
0
ELLIPSE
5
197
100
AcDbEntity
8
1
62
256
6
ByLayer
370
18
48
1
60
0
100
AcDbEllipse
10
291.281937
20
17.640729
30
0
11
0.087735997045646
21
-1.67410255206257
31
0
210
0
220
0
230
1
40
0.995725
41
0.523598775598262
42
1.5707963267949
0
ELLIPSE
5
198
100
AcDbEntity
8
1
62
256
6
ByLayer
370
18
48
1
60
0
100
AcDbEllipse
10
291.059023
20
19.114382
30
0
11
-0.391877312290744
21
-0.0205374196870956
31
0
210
0
220
0
230
1
40
0.491826
41
0.288932900935597
42
1.5707963267949
0
ELLIPSE
5
199
100
AcDbEntity
8
1
62
256
6
ByLayer
370
18
48
1
60
0
100
AcDbEllipse
10
291.274632
20
17.640346
30
0
11
-0.149157475292371
21
2.84609417405054
31
0
210
0
220
0
230
1
40
0.995725
41
0
42
6.28318530717959
0
ELLIPSE
5
19A
100
AcDbEntity
8
1
62
256
6
ByLayer
370
18
48
1
60
0
100
AcDbEllipse
10
292.452799
20
16.959423
30
0
11
-0.17766793409095
21
-0.351309387089026
31
0
210
0
220
0
230
1
40
0.48867
41
-1.57317835192772
42
-0.291314926056586
0
ELLIPSE
5
19B
100
AcDbEntity
8
1
62
256
6
ByLayer
370
18
48
1
60
0
100
AcDbEllipse
10
291.281937
20
17.640729
30
0
11
0.087735997045646
21
-1.67410255206257
31
0
210
0
220
0
230
1
40
0.995725
41
1.5707963267949
42
2.61799387799148
0
ELLIPSE
5
19C
100
AcDbEntity
8
1
62
256
6
ByLayer
370
18
48
1
60
0
100
AcDbEllipse
10
291.136653
20
17.633115
30
0
11
0.0675290843402512
21
-1.28853168869383
31
0
210
0
220
0
230
1
40
0.995725
41
2.09439510239319
42
3.14159265358979
0
ELLIPSE
5
19D
100
AcDbEntity
8
1
62
256
6
ByLayer
370
18
48
1
60
0
100
AcDbEllipse
10
291.214283
20
16.151848
30
0
11
-0.391877312294148
21
-0.0205374196883062
31
0
210
0
220
0
230
1
40
0.491826
41
-1.5707963267949
42
-0.28893290093378
0
ELLIPSE
5
19E
100
AcDbEntity
8
1
62
256
6
ByLayer
370
18
48
1
60
0
100
AcDbEllipse
10
291.281937
20
17.640729
30
0
11
-0.0942047212372872
21
1.79753316255823
31
0
210
0
220
0
230
1
40
0.995725
41
0
42
6.28318530717959
0
ELLIPSE
5
19F
100
AcDbEntity
8
1
62
256
6
ByLayer
370
18
48
1
60
0
100
AcDbEllipse
10
291.281937
20
17.640729
30
0
11
0.087735997045646
21
-1.67410255206257
31
0
210
0
220
0
230
1
40
0.995725
41
-2.61799387799148
42
-1.5707963267949
0
ELLIPSE
5
1A0
100
AcDbEntity
8
1
62
256
6
ByLayer
370
18
48
1
60
0
100
AcDbEllipse
10
291.136653
20
17.633115
30
0
11
0.0675290843402512
21
-1.28853168869383
31
0
210
0
220
0
230
1
40
0.995725
41
1.0471975511966
42
2.0943951023932
0
ELLIPSE
5
1A1
100
AcDbEntity
8
1
62
256
6
ByLayer
370
18
48
1
60
0
100
AcDbEllipse
10
291.281937
20
17.640729
30
0
11
0.087735997045646
21
-1.67410255206257
31
0
210
0
220
0
230
1
40
0.995725
41
-0.523598775598245
42
0.52359877559826
0
ELLIPSE
5
1A2
100
AcDbEntity
8
1
62
256
6
ByLayer
370
18
48
1
60
0
100
AcDbEllipse
10
292.375169
20
18.440691
30
0
11
-0.213416480926268
21
0.330813521388734
31
0
210
0
220
0
230
1
40
0.48867
41
1.57317835191831
42
2.85504177777719
0
ELLIPSE
5
1A3
100
AcDbEntity
8
1
62
256
6
ByLayer
370
18
48
1
60
0
100
AcDbEllipse
10
292.452799
20
16.959423
30
0
11
-0.177667934094929
21
-0.351309387087318
31
0
210
0
220
0
230
1
40
0.48867
41
-2.85504177777386
42
-1.57317835190505
0
ELLIPSE
5
1A4
100
AcDbEntity
8
1
62
256
6
ByLayer
370
18
48
1
60
0
100
AcDbEllipse
10
291.281937
20
17.640729
30
0
11
0.087735997045646
21
-1.67410255206257
31
0
210
0
220
0
230
1
40
0.995725
41
-1.5707963267949
42
-0.523598775598245
0
ELLIPSE
5
1A5
100
AcDbEntity
8
1
62
256
6
ByLayer
370
18
48
1
60
0
100
AcDbEllipse
10
291.281937
20
17.640729
30
0
11
0.087735997045646
21
-1.67410255206257
31
0
210
0
220
0
230
1
40
0.995725
41
2.61799387799148
42
-2.61799387799148
0
ELLIPSE
5
1A6
100
AcDbEntity
8
1
62
256
6
ByLayer
370
13
48
1
60
0
100
AcDbEllipse
10
291.22396
20
17.637691
30
0
11
0.156043507061148
21
-2.97748748746711
31
0
210
0
220
0
230
1
40
0.995725
41
0
42
6.28318530717959
0
ELLIPSE
5
1A7
100
AcDbEntity
8
1
62
256
6
ByLayer
370
13
48
1
60
0
100
AcDbEllipse
10
297.692333
20
11.679591
30
0
11
0.0455100421911093
21
0.194753269702368
31
0
210
0
220
0
230
1
40
0.088753
41
-3.11589220191285
42
-1.54509587511414
0
ELLIPSE
5
1A8
100
AcDbEntity
8
1
62
256
6
ByLayer
370
13
48
1
60
0
100
AcDbEllipse
10
285.404162
20
25.669113
30
0
11
-0.0942047212372873
21
1.79753316255824
31
0
210
0
220
0
230
1
40
0.995725
41
2.74104825906226
42
-3.14159265358951
0
ELLIPSE
5
1A9
100
AcDbEntity
8
1
62
256
6
ByLayer
370
13
48
1
60
0
100
AcDbEllipse
10
284.296351
20
9.562208
30
0
11
-0.145139532363182
21
0.0378750068699235
31
0
210
0
220
0
230
1
40
0.028078
41
1.48264787473431
42
3.05344420152964
0
ELLIPSE
5
1AA
100
AcDbEntity
8
1
62
256
6
ByLayer
370
13
48
1
60
0
100
AcDbEllipse
10
283.572052
20
10.064033
30
0
11
0.0366351693700485
21
-0.699040674328169
31
0
210
0
220
0
230
1
40
0.995725
41
-1.46607657167491
42
-0.0773624824589538
0
ELLIPSE
5
1AB
100
AcDbEntity
8
1
62
256
6
ByLayer
370
13
48
1
60
0
100
AcDbEllipse
10
297.213517
20
9.615165
30
0
11
-0.0942047212372873
21
1.79753316255824
31
0
210
0
220
0
230
1
40
0.995725
41
-0.400544394528092
42
-2.55704282789627E-13
0
ELLIPSE
5
1AC
100
AcDbEntity
8
1
62
256
6
ByLayer
370
13
48
1
60
0
100
AcDbEllipse
10
284.580523
20
23.690897
30
0
11
-0.0427993177742334
21
-0.158580925137106
31
0
210
0
220
0
230
1
40
0.080206
41
-3.11537766648905
42
-1.54458133957359
0
ELLIPSE
5
1AD
100
AcDbEntity
8
1
62
256
6
ByLayer
370
13
48
1
60
0
100
AcDbEllipse
10
300.134962
20
18.204834
30
0
11
-0.0287847759336169
21
0.549246244115043
31
0
210
0
220
0
230
1
40
0.995725
41
-1.75405589825441
42
-1.46607657167533
0
ELLIPSE
5
1AE
100
AcDbEntity
8
1
62
256
6
ByLayer
370
13
48
1
60
0
100
AcDbEllipse
10
297.790539
20
24.86909
30
0
11
0.00523359562429361
21
-0.0998629534754712
31
0
210
0
220
0
230
1
40
0.995725
41
-2.37978474864542
42
-1.46607657167648
0
ELLIPSE
5
1AF
100
AcDbEntity
8
1
62
256
6
ByLayer
370
13
48
1
60
0
100
AcDbEllipse
10
298.097982
20
25.712197
30
0
11
-0.279378559901603
21
-0.215283244306641
31
0
210
0
220
0
230
1
40
0.479615
41
-2.35983386470146
42
-1.27243207082189
0
ELLIPSE
5
1B0
100
AcDbEntity
8
1
62
256
6
ByLayer
370
13
48
1
60
0
100
AcDbEllipse
10
296.583178
20
26.25498
30
0
11
-2.06113693607757
21
-1.58826920969649
31
0
210
0
220
0
230
1
40
0.479615
41
1.8299271453299
42
1.86916043039644
0
ELLIPSE
5
1B1
100
AcDbEntity
8
1
62
256
6
ByLayer
370
13
48
1
60
0
100
AcDbEllipse
10
298.586505
20
25.768808
30
0
11
-0.00653729335066914
21
0.149857478277353
31
0
210
0
220
0
230
1
40
0.092367
41
0.000809536045784406
42
1.57160586284002
0
ELLIPSE
5
1B2
100
AcDbEntity
8
1
62
256
6
ByLayer
370
13
48
1
60
0
100
AcDbEllipse
10
298.662904
20
24.020477
30
0
11
0.0994383168615647
21
-1.89739611603369
31
0
210
0
220
0
230
1
40
0.995725
41
3.1142353809293
42
3.13286600732983
0
ELLIPSE
5
1B3
100
AcDbEntity
8
1
62
256
6
ByLayer
370
13
48
1
60
0
100
AcDbEllipse
10
299.581909
20
25.30592
30
0
11
0.148163665863162
21
0.0233993187505377
31
0
210
0
220
0
230
1
40
0.009655
41
0.0919985744809805
42
1.66279490126826
0
ELLIPSE
5
1B4
100
AcDbEntity
8
1
62
256
6
ByLayer
370
13
48
1
60
0
100
AcDbEllipse
10
283.755897
20
18.260362
30
0
11
-0.457939617125701
21
8.73800842910253
31
0
210
0
220
0
230
1
40
0.995725
41
3.06423017113061
42
3.11423538092935
0
ELLIPSE
5
1B5
100
AcDbEntity
8
1
62
256
6
ByLayer
370
13
48
1
60
0
100
AcDbEllipse
10
298.618949
20
25.769919
30
0
11
-0.00373239490690373
21
0.149953556904326
31
0
210
0
220
0
230
1
40
0.092336
41
0.00253753545169881
42
1.57333386224927
0
ELLIPSE
5
1B6
100
AcDbEntity
8
1
62
256
6
ByLayer
370
13
48
1
60
0
100
AcDbEllipse
10
284.085272
20
17.027673
30
0
11
-0.197551554484212
21
-0.0311990916674071
31
0
210
0
220
0
230
1
40
0.009655
41
0.0919985744698925
42
1.66279490126979
0
ELLIPSE
5
1B7
100
AcDbEntity
8
1
62
256
6
ByLayer
370
13
48
1
60
0
100
AcDbEllipse
10
286.275556
20
9.041931
30
0
11
-0.0994383168615806
21
1.89739611603369
31
0
210
0
220
0
230
1
40
0.995725
41
0.76180790494347
42
1.26193471909927
0
ELLIPSE
5
1B8
100
AcDbEntity
8
1
62
256
6
ByLayer
370
13
48
1
60
0
100
AcDbEllipse
10
286.270944
20
9.041689
30
0
11
-0.0994383168615806
21
1.89739611603369
31
0
210
0
220
0
230
1
40
0.995725
41
0.761807904943248
42
1.26193471909899
0
ELLIPSE
5
1B9
100
AcDbEntity
8
1
62
256
6
ByLayer
370
13
48
1
60
0
100
AcDbEllipse
10
298.364877
20
25.709133
30
0
11
0.0104671912485861
21
-0.199725906950921
31
0
210
0
220
0
230
1
40
0.995725
41
3.13286600733138
42
-1.87965793449075
0
ELLIPSE
5
1BA
100
AcDbEntity
8
1
62
256
6
ByLayer
370
13
48
1
60
0
100
AcDbEllipse
10
296.738288
20
9.590259
30
0
11
-1.40394107560493
21
-1.50837379629054
31
0
210
0
220
0
230
1
40
0.735668
41
2.56900210137371
42
-2.89202615041565
0
ELLIPSE
5
1BB
100
AcDbEntity
8
1
62
256
6
ByLayer
370
13
48
1
60
0
100
AcDbEllipse
10
298.022237
20
18.177532
30
0
11
0.0444855628064881
21
-0.848835104541361
31
0
210
0
220
0
230
1
40
0.995725
41
1.38753675533547
42
1.67551608191468
0
ELLIPSE
5
1BC
100
AcDbEntity
8
1
62
256
6
ByLayer
370
13
48
1
60
0
100
AcDbEllipse
10
284.572381
20
17.105537
30
0
11
-0.0366351693700546
21
0.699040674328175
31
0
210
0
220
0
230
1
40
0.995725
41
1.38753675533555
42
1.67551608191464
0
ELLIPSE
5
1BD
100
AcDbEntity
8
1
62
256
6
ByLayer
370
13
48
1
60
0
100
AcDbEllipse
10
283.950163
20
11.263559
30
0
11
0.0994383168615647
21
-1.89739611603369
31
0
210
0
220
0
230
1
40
0.995725
41
-0.0273572726601895
42
-0.00872664625963059
0
ELLIPSE
5
1BE
100
AcDbEntity
8
1
62
256
6
ByLayer
370
13
48
1
60
0
100
AcDbEllipse
10
282.464268
20
17.078477
30
0
11
0.0366351693700517
21
-0.69904067432823
31
0
210
0
220
0
230
1
40
0.995725
41
-1.75405589825414
42
-1.466076571675
0
ELLIPSE
5
1BF
100
AcDbEntity
8
1
62
256
6
ByLayer
370
13
48
1
60
0
100
AcDbEllipse
10
299.874155
20
11.886155
30
0
11
0.148731686424778
21
-0.0194649801757243
31
0
210
0
220
0
230
1
40
0.016833
41
-1.66175841710513
42
-0.0909620903162344
0
ELLIPSE
5
1C0
100
AcDbEntity
8
1
62
256
6
ByLayer
370
13
48
1
60
0
100
AcDbEllipse
10
284.609651
20
25.627477
30
0
11
-2.21587340481912
21
1.36412320011788
31
0
210
0
220
0
230
1
40
0.479616
41
1.27243107082762
42
1.31166424120698
0
ELLIPSE
5
1C1
100
AcDbEntity
8
1
62
256
6
ByLayer
370
13
48
1
60
0
100
AcDbEllipse
10
298.824885
20
17.021983
30
0
11
-0.457939617125701
21
8.73800842910253
31
0
210
0
220
0
230
1
40
0.995725
41
-0.0773624824592203
42
-0.0273572726604616
0
ELLIPSE
5
1C2
100
AcDbEntity
8
1
62
256
6
ByLayer
370
13
48
1
60
0
100
AcDbEllipse
10
296.263888
20
26.238247
30
0
11
-1.59242934826327
21
-1.39349696570076
31
0
210
0
220
0
230
1
40
0.74335
41
1.15768450151531
42
1.97984155688923
0
ELLIPSE
5
1C3
100
AcDbEntity
8
1
62
256
6
ByLayer
370
13
48
1
60
0
100
AcDbEllipse
10
284.558545
20
17.104812
30
0
11
0.0444855628064881
21
-0.848835104541361
31
0
210
0
220
0
230
1
40
0.995725
41
-1.75405589825425
42
-1.46607657167512
0
ELLIPSE
5
1C4
100
AcDbEntity
8
1
62
256
6
ByLayer
370
13
48
1
60
0
100
AcDbEllipse
10
283.931715
20
11.262592
30
0
11
-0.0915879234251403
21
1.74760168582051
31
0
210
0
220
0
230
1
40
0.995725
41
3.11423538092936
42
3.13286600732984
0
ELLIPSE
5
1C5
100
AcDbEntity
8
1
62
256
6
ByLayer
370
13
48
1
60
0
100
AcDbEllipse
10
291.633584
20
11.445643
30
0
11
0.0104671912485858
21
-0.199725906950915
31
0
210
0
220
0
230
1
40
0.092371
41
0
42
1.5707963267949
0
ELLIPSE
5
1C6
100
AcDbEntity
8
1
62
256
6
ByLayer
370
13
48
1
60
0
100
AcDbEllipse
10
297.974494
20
11.533294
30
0
11
0.00523359562429227
21
-0.0998629534754457
31
0
210
0
220
0
230
1
40
0.995725
41
-1.75405589825376
42
0.104719755120276
0
ELLIPSE
5
1C7
100
AcDbEntity
8
1
62
256
6
ByLayer
370
13
48
1
60
0
100
AcDbEllipse
10
300.153411
20
18.205801
30
0
11
0.0366351693700517
21
-0.69904067432823
31
0
210
0
220
0
230
1
40
0.995725
41
1.38753675533516
42
1.67551608191422
0
ELLIPSE
5
1C8
100
AcDbEntity
8
1
62
256
6
ByLayer
370
13
48
1
60
0
100
AcDbEllipse
10
298.667516
20
24.020719
30
0
11
0.0994383168615647
21
-1.89739611603369
31
0
210
0
220
0
230
1
40
0.995725
41
3.11423538092903
42
3.13286600732956
0
ELLIPSE
5
1C9
100
AcDbEntity
8
1
62
256
6
ByLayer
370
13
48
1
60
0
100
AcDbEllipse
10
295.788659
20
26.213341
30
0
11
0.0942047212372723
21
-1.79753316255824
31
0
210
0
220
0
230
1
40
0.995725
41
0
42
0.400544394527559
0
ELLIPSE
5
1CA
100
AcDbEntity
8
1
62
256
6
ByLayer
370
13
48
1
60
0
100
AcDbEllipse
10
299.874155
20
11.886155
30
0
11
0.00785039343643922
21
-0.149794430213184
31
0
210
0
220
0
230
1
40
0.995725
41
0.104719755118539
42
1.38753675533509
0
ELLIPSE
5
1CB
100
AcDbEntity
8
1
62
256
6
ByLayer
370
13
48
1
60
0
100
AcDbEllipse
10
298.312104
20
25.721587
30
0
11
0.145139532363184
21
-0.037875006869918
31
0
210
0
220
0
230
1
40
0.028078
41
3.05344420153006
42
-1.65894477885552
0
ELLIPSE
5
1CC
100
AcDbEntity
8
1
62
256
6
ByLayer
370
13
48
1
60
0
100
AcDbEllipse
10
284.822528
20
10.414946
30
0
11
0.00523359562429361
21
-0.0998629534754712
31
0
210
0
220
0
230
1
40
0.995725
41
0.761807904943559
42
1.67551608191446
0
ELLIPSE
5
1CD
100
AcDbEntity
8
1
62
256
6
ByLayer
370
13
48
1
60
0
100
AcDbEllipse
10
284.643186
20
23.750984
30
0
11
0.00523359562429227
21
-0.0998629534754457
31
0
210
0
220
0
230
1
40
0.995725
41
1.38753675533661
42
-3.03687289847007
0
ELLIPSE
5
1CE
100
AcDbEntity
8
1
62
256
6
ByLayer
370
13
48
1
60
0
100
AcDbEllipse
10
299.041015
20
25.220003
30
0
11
0.0366351693700485
21
-0.699040674328169
31
0
210
0
220
0
230
1
40
0.995725
41
1.67551608191464
42
3.06423017113067
0
ELLIPSE
5
1CF
100
AcDbEntity
8
1
62
256
6
ByLayer
370
13
48
1
60
0
100
AcDbEllipse
10
298.346428
20
25.708166
30
0
11
-0.00261679781214716
21
0.0499314767377344
31
0
210
0
220
0
230
1
40
0.995725
41
-0.00872664625695033
42
1.26193471909937
0
ELLIPSE
5
1D0
100
AcDbEntity
8
1
62
256
6
ByLayer
370
13
48
1
60
0
100
AcDbEllipse
10
300.691784
20
18.133648
30
0
11
0.148731686424778
21
-0.0194649801757243
31
0
210
0
220
0
230
1
40
0.016833
41
-1.6617584171062
42
-0.0909620903084588
0
ELLIPSE
5
1D1
100
AcDbEntity
8
1
62
256
6
ByLayer
370
13
48
1
60
0
100
AcDbEllipse
10
284.306759
20
9.560921
30
0
11
0.012769052312574
21
-0.243648032549047
31
0
210
0
220
0
230
1
40
0.995725
41
0.174532925199867
42
1.26193471909856
0
ELLIPSE
5
1D2
100
AcDbEntity
8
1
62
256
6
ByLayer
370
13
48
1
60
0
100
AcDbEllipse
10
299.880274
20
11.898202
30
0
11
-0.0435637040636643
21
-0.259139630108825
31
0
210
0
220
0
230
1
40
0.947521
41
0.30815298150479
42
1.60922962172214
0
ELLIPSE
5
1D3
100
AcDbEntity
8
1
62
256
6
ByLayer
370
13
48
1
60
0
100
AcDbEllipse
10
299.878768
20
11.886397
30
0
11
0.00785039343643922
21
-0.149794430213184
31
0
210
0
220
0
230
1
40
0.995725
41
0.10471975511816
42
1.38753675533471
0
ELLIPSE
5
1D4
100
AcDbEntity
8
1
62
256
6
ByLayer
370
13
48
1
60
0
100
AcDbEllipse
10
298.838721
20
17.022708
30
0
11
0.465790010562067
21
-8.88780285931572
31
0
210
0
220
0
230
1
40
0.995725
41
3.06423017113059
42
3.11423538092933
0
ELLIPSE
5
1D5
100
AcDbEntity
8
1
62
256
6
ByLayer
370
13
48
1
60
0
100
AcDbEllipse
10
299.027179
20
25.219278
30
0
11
-0.0287847759336137
21
0.549246244114983
31
0
210
0
220
0
230
1
40
0.995725
41
-1.46607657167521
42
-0.0773624824592436
0
ELLIPSE
5
1D6
100
AcDbEntity
8
1
62
256
6
ByLayer
370
13
48
1
60
0
100
AcDbEllipse
10
291.327288
20
17.643106
30
0
11
0.164592752017089
21
-3.14061679904832
31
0
210
0
220
0
230
1
40
0.995725
41
0
42
6.28318530717959
0
ELLIPSE
5
1D7
100
AcDbEntity
8
1
62
256
6
ByLayer
370
13
48
1
60
0
100
AcDbEllipse
10
284.02195
20
9.514986
30
0
11
0.00653729335066879
21
-0.149857478277353
31
0
210
0
220
0
230
1
40
0.092367
41
-1.56998679074977
42
0.000809536045656196
0
ELLIPSE
5
1D8
100
AcDbEntity
8
1
62
256
6
ByLayer
370
13
48
1
60
0
100
AcDbEllipse
10
298.31092
20
25.723356
30
0
11
0.012769052312574
21
-0.243648032549047
31
0
210
0
220
0
230
1
40
0.995725
41
-2.96705972839067
42
-1.87965793449197
0
ELLIPSE
5
1D9
100
AcDbEntity
8
1
62
256
6
ByLayer
370
13
48
1
60
0
100
AcDbEllipse
10
290.984095
20
23.838635
30
0
11
0.0104671912485858
21
-0.199725906950915
31
0
210
0
220
0
230
1
40
0.092371
41
1.5707963267949
42
-3.14159265356825
0
ELLIPSE
5
1DA
100
AcDbEntity
8
1
62
256
6
ByLayer
370
13
48
1
60
0
100
AcDbEllipse
10
284.234354
20
9.574178
30
0
11
-0.00261679781214716
21
0.0499314767377344
31
0
210
0
220
0
230
1
40
0.995725
41
3.13286600733281
42
-1.87965793449042
0
ELLIPSE
5
1DB
100
AcDbEntity
8
1
62
256
6
ByLayer
370
13
48
1
60
0
100
AcDbEllipse
10
284.925347
20
23.604686
30
0
11
0.198308915233038
21
-0.0259533069009658
31
0
210
0
220
0
230
1
40
0.016833
41
1.4798342364829
42
3.05063056327709
0
ELLIPSE
5
1DC
100
AcDbEntity
8
1
62
256
6
ByLayer
370
13
48
1
60
0
100
AcDbEllipse
10
296.342123
20
26.242347
30
0
11
-0.0994383168615806
21
1.89739611603369
31
0
210
0
220
0
230
1
40
0.995725
41
-2.37978474864688
42
-1.87965793449109
0
ELLIPSE
5
1DD
100
AcDbEntity
8
1
62
256
6
ByLayer
370
13
48
1
60
0
100
AcDbEllipse
10
284.928933
20
25.644207
30
0
11
-1.72936595004414
21
1.21940905086472
31
0
210
0
220
0
230
1
40
0.74335
41
1.16175109669398
42
1.98390815207997
0
ELLIPSE
5
1DE
100
AcDbEntity
8
1
62
256
6
ByLayer
370
13
48
1
60
0
100
AcDbEllipse
10
298.843333
20
17.022949
30
0
11
0.465790010562067
21
-8.88780285931572
31
0
210
0
220
0
230
1
40
0.995725
41
3.06423017113032
42
3.11423538092906
0
ELLIPSE
5
1DF
100
AcDbEntity
8
1
62
256
6
ByLayer
370
13
48
1
60
0
100
AcDbEllipse
10
299.045628
20
25.220245
30
0
11
0.0366351693700485
21
-0.699040674328169
31
0
210
0
220
0
230
1
40
0.995725
41
1.67551608191431
42
3.06423017113026
0
ELLIPSE
5
1E0
100
AcDbEntity
8
1
62
256
6
ByLayer
370
13
48
1
60
0
100
AcDbEllipse
10
299.054584
20
25.769822
30
0
11
0.00379960965785739
21
0.149951868832795
31
0
210
0
220
0
230
1
40
0.092094
41
0.00716942110630351
42
1.57796574790544
0
ELLIPSE
5
1E1
100
AcDbEntity
8
1
62
256
6
ByLayer
370
13
48
1
60
0
100
AcDbEllipse
10
283.159874
20
24.929324
30
0
11
-0.300351321613895
21
0.184900888633
31
0
210
0
220
0
230
1
40
0.479615
41
-1.86916058276682
42
-0.78175878889052
0
ELLIPSE
5
1E2
100
AcDbEntity
8
1
62
256
6
ByLayer
370
13
48
1
60
0
100
AcDbEllipse
10
284.08337
20
17.171152
30
0
11
-0.198308915233049
21
0.0259533069008826
31
0
210
0
220
0
230
1
40
0.016833
41
-1.66175841710378
42
-0.0909620903084502
0
ELLIPSE
5
1E3
100
AcDbEntity
8
1
62
256
6
ByLayer
370
13
48
1
60
0
100
AcDbEllipse
10
298.649067
20
24.019752
30
0
11
-0.0915879234251403
21
1.74760168582051
31
0
210
0
220
0
230
1
40
0.995725
41
-0.0273572726604687
42
-0.00872664625995484
0
ELLIPSE
5
1E4
100
AcDbEntity
8
1
62
256
6
ByLayer
370
13
48
1
60
0
100
AcDbEllipse
10
284.827141
20
10.415187
30
0
11
0.00523359562429361
21
-0.0998629534754712
31
0
210
0
220
0
230
1
40
0.995725
41
0.761807904945157
42
1.67551608191389
0
ELLIPSE
5
1E5
100
AcDbEntity
8
1
62
256
6
ByLayer
370
13
48
1
60
0
100
AcDbEllipse
10
284.576993
20
17.105779
30
0
11
0.0366351693700488
21
-0.699040674328175
31
0
210
0
220
0
230
1
40
0.995725
41
-1.75405589825424
42
-1.46607657167515
0
ELLIPSE
5
1E6
100
AcDbEntity
8
1
62
256
6
ByLayer
370
13
48
1
60
0
100
AcDbEllipse
10
296.342123
20
26.242347
30
0
11
-0.0942047212372873
21
1.79753316255824
31
0
210
0
220
0
230
1
40
0.995725
41
3.14159265358948
42
-1.87965793449112
0
ELLIPSE
5
1E7
100
AcDbEntity
8
1
62
256
6
ByLayer
370
13
48
1
60
0
100
AcDbEllipse
10
300.689692
20
18.291475
30
0
11
0.148163665863162
21
0.0233993187505377
31
0
210
0
220
0
230
1
40
0.009655
41
0.0919985744785029
42
1.66279490126789
0
ELLIPSE
5
1E8
100
AcDbEntity
8
1
62
256
6
ByLayer
370
13
48
1
60
0
100
AcDbEllipse
10
282.44582
20
17.077511
30
0
11
-0.0287847759336169
21
0.549246244115043
31
0
210
0
220
0
230
1
40
0.995725
41
1.38753675533538
42
1.67551608191457
0
ELLIPSE
5
1E9
100
AcDbEntity
8
1
62
256
6
ByLayer
370
13
48
1
60
0
100
AcDbEllipse
10
283.553603
20
10.063066
30
0
11
-0.0287847759336137
21
0.549246244114983
31
0
210
0
220
0
230
1
40
0.995725
41
1.67551608191458
42
3.06423017113045
0
ELLIPSE
5
1EA
100
AcDbEntity
8
1
62
256
6
ByLayer
370
13
48
1
60
0
100
AcDbEllipse
10
283.733221
20
17.216671
30
0
11
-0.148731686424787
21
0.019464980175662
31
0
210
0
220
0
230
1
40
0.016833
41
1.47983423648133
42
3.0506305632785
0
ELLIPSE
5
1EB
100
AcDbEntity
8
1
62
256
6
ByLayer
370
13
48
1
60
0
100
AcDbEllipse
10
284.925347
20
23.604686
30
0
11
-0.0455100421911021
21
-0.19475326970237
31
0
210
0
220
0
230
1
40
0.088753
41
1.59649677847509
42
-3.11589220191275
0
ELLIPSE
5
1EC
100
AcDbEntity
8
1
62
256
6
ByLayer
370
13
48
1
60
0
100
AcDbEllipse
10
296.323675
20
26.24138
30
0
11
0.107288710298004
21
-2.04719054624688
31
0
210
0
220
0
230
1
40
0.995725
41
0.77385285722041
42
1.26193471909899
0
ELLIPSE
5
1ED
100
AcDbEntity
8
1
62
256
6
ByLayer
370
13
48
1
60
0
100
AcDbEllipse
10
286.275556
20
9.041931
30
0
11
-0.0942047212372873
21
1.79753316255824
31
0
210
0
220
0
230
1
40
0.995725
41
0
42
1.26193471909924
0
ELLIPSE
5
1EE
100
AcDbEntity
8
1
62
256
6
ByLayer
370
13
48
1
60
0
100
AcDbEllipse
10
285.071393
20
10.783587
30
0
11
0.197551554484216
21
0.0311990916673836
31
0
210
0
220
0
230
1
40
0.009655
41
-3.04959407912359
42
-1.47879775232
0
ELLIPSE
5
1EF
100
AcDbEntity
8
1
62
256
6
ByLayer
370
13
48
1
60
0
100
AcDbEllipse
10
298.040686
20
18.178499
30
0
11
0.0366351693700488
21
-0.699040674328175
31
0
210
0
220
0
230
1
40
0.995725
41
1.38753675533555
42
1.67551608191464
0
ELLIPSE
5
1F0
100
AcDbEntity
8
1
62
256
6
ByLayer
370
13
48
1
60
0
100
AcDbEllipse
10
300.148799
20
18.205559
30
0
11
0.0366351693700517
21
-0.69904067432823
31
0
210
0
220
0
230
1
40
0.995725
41
1.3875367553354
42
1.67551608191447
0
ELLIPSE
5
1F1
100
AcDbEntity
8
1
62
256
6
ByLayer
370
13
48
1
60
0
100
AcDbEllipse
10
282.738912
20
23.397881
30
0
11
0.00785039343643922
21
-0.149794430213184
31
0
210
0
220
0
230
1
40
0.995725
41
-3.03687289847124
42
-1.75405589825432
0
ELLIPSE
5
1F2
100
AcDbEntity
8
1
62
256
6
ByLayer
370
13
48
1
60
0
100
AcDbEllipse
10
283.774346
20
18.261328
30
0
11
0.465790010562067
21
-8.88780285931572
31
0
210
0
220
0
230
1
40
0.995725
41
-0.0773624824589069
42
-0.0273572726601661
0
ELLIPSE
5
1F3
100
AcDbEntity
8
1
62
256
6
ByLayer
370
13
48
1
60
0
100
AcDbEllipse
10
282.737405
20
23.386076
30
0
11
-0.043563704045638
21
-0.25913963011415
31
0
210
0
220
0
230
1
40
0.947521
41
-2.83343967215227
42
-1.53236303194332
0
ELLIPSE
5
1F4
100
AcDbEntity
8
1
62
256
6
ByLayer
370
13
48
1
60
0
100
AcDbEllipse
10
284.595442
20
17.106745
30
0
11
-0.0261679781214672
21
0.49931476737726
31
0
210
0
220
0
230
1
40
0.995725
41
1.38753675533558
42
1.67551608191459
0
ELLIPSE
5
1F5
100
AcDbEntity
8
1
62
256
6
ByLayer
370
13
48
1
60
0
100
AcDbEllipse
10
284.252802
20
9.575145
30
0
11
0.0104671912485861
21
-0.199725906950921
31
0
210
0
220
0
230
1
40
0.995725
41
-0.00872664625784229
42
1.26193471909964
0
ELLIPSE
5
1F6
100
AcDbEntity
8
1
62
256
6
ByLayer
370
13
48
1
60
0
100
AcDbEllipse
10
298.059135
20
18.179466
30
0
11
-0.0261679781214672
21
0.49931476737726
31
0
210
0
220
0
230
1
40
0.995725
41
-1.75405589825421
42
-1.4660765716752
0
ELLIPSE
5
1F7
100
AcDbEntity
8
1
62
256
6
ByLayer
370
13
48
1
60
0
100
AcDbEllipse
10
297.546286
20
24.50069
30
0
11
-0.114373860315988
21
0.164068949153759
31
0
210
0
220
0
230
1
40
0.07853
41
-1.61960141451338
42
-0.0488050877195115
0
ELLIPSE
5
1F8
100
AcDbEntity
8
1
62
256
6
ByLayer
370
13
48
1
60
0
100
AcDbEllipse
10
298.027931
20
11.592897
30
0
11
-0.0427993177769542
21
-0.158580925152168
31
0
210
0
220
0
230
1
40
0.080206
41
-1.54458133969892
42
0.0262149871153096
0
ELLIPSE
5
1F9
100
AcDbEntity
8
1
62
256
6
ByLayer
370
13
48
1
60
0
100
AcDbEllipse
10
298.358082
20
25.758843
30
0
11
-0.00653729335066914
21
0.149857478277353
31
0
210
0
220
0
230
1
40
0.092367
41
0.000809536045784406
42
1.57160586284002
0
ELLIPSE
5
1FA
100
AcDbEntity
8
1
62
256
6
ByLayer
370
13
48
1
60
0
100
AcDbEllipse
10
283.736455
20
16.972757
30
0
11
-0.148163665863159
21
-0.0233993187505554
31
0
210
0
220
0
230
1
40
0.009655
41
-3.04959407911373
42
-1.47879775232455
0
ELLIPSE
5
1FB
100
AcDbEntity
8
1
62
256
6
ByLayer
370
13
48
1
60
0
100
AcDbEllipse
10
286.257107
20
9.040964
30
0
11
0.107288710298004
21
-2.04719054624688
31
0
210
0
220
0
230
1
40
0.995725
41
-2.36773979636931
42
-1.87965793449078
0
ELLIPSE
5
1FC
100
AcDbEntity
8
1
62
256
6
ByLayer
370
13
48
1
60
0
100
AcDbEllipse
10
299.874155
20
11.886155
30
0
11
-0.0235312926467051
21
0.14814276312522
31
0
210
0
220
0
230
1
40
0.091865
41
1.5610998183477
42
3.13189614514058
0
ELLIPSE
5
1FD
100
AcDbEntity
8
1
62
256
6
ByLayer
370
13
48
1
60
0
100
AcDbEllipse
10
284.580523
20
23.690897
30
0
11
-0.157381426437744
21
-0.0466723701726415
31
0
210
0
220
0
230
1
40
0.019797
41
-3.05943361680421
42
-1.48863729027879
0
ELLIPSE
5
1FE
100
AcDbEntity
8
1
62
256
6
ByLayer
370
13
48
1
60
0
100
AcDbEllipse
10
299.459819
20
0
30
0
11
-4.28525337225895
21
25.3472513481269
31
0
210
0
220
0
230
1
40
0.08711
41
1.61566749650166
42
1.72054147252943
0
ELLIPSE
5
1FF
100
AcDbEntity
8
1
62
256
6
ByLayer
370
13
48
1
60
0
100
AcDbEllipse
10
286.793937
20
9.855232
30
0
11
0.353010790461956
21
-0.935619250452568
31
0
210
0
220
0
230
1
40
0.088046
41
-1.59884006173129
42
-0.0280437349367705
0
ELLIPSE
5
200
100
AcDbEntity
8
1
62
256
6
ByLayer
370
13
48
1
60
0
100
AcDbEllipse
10
299.574526
20
9.460297
30
0
11
-0.00903103848889005
21
0.500209614988789
31
0
210
0
220
0
230
1
40
0.105166
41
1.92347153122299
42
-2.78891744913847
0
ELLIPSE
5
201
100
AcDbEntity
8
1
62
256
6
ByLayer
370
13
48
1
60
0
100
AcDbEllipse
10
299.453762
20
12.736688
30
0
11
0.136073486231615
21
-2.59643679036189
31
0
210
0
220
0
230
1
40
0.995725
41
-0.990362103391472
42
-0.858139698776616
0
ELLIPSE
5
202
100
AcDbEntity
8
1
62
256
6
ByLayer
370
13
48
1
60
0
100
AcDbEllipse
10
2600.407417
20
-1.033945
30
0
11
-2444.38984309537
21
1.10571985805142
31
0
210
0
220
0
230
1
40
0.032721
41
-0.319986634529883
42
-0.316061840484499
0
ELLIPSE
5
203
100
AcDbEntity
8
1
62
256
6
ByLayer
370
13
48
1
60
0
100
AcDbEllipse
10
890.852576
20
0
30
0
11
-897.965213292246
21
18.0015260246877
31
0
210
0
220
0
230
1
40
0.019877
41
0.823236093770975
42
0.849264876926729
0
ELLIPSE
5
204
100
AcDbEntity
8
1
62
256
6
ByLayer
370
13
48
1
60
0
100
AcDbEllipse
10
290.557876
20
-0.446954
30
0
11
0.575695518672216
21
-10.9849248823003
31
0
210
0
220
0
230
1
40
0.995725
41
3.14159265358978
42
-2.83440246605357
0
ELLIPSE
5
205
100
AcDbEntity
8
1
62
256
6
ByLayer
370
13
48
1
60
0
100
AcDbEllipse
10
283.39719
20
11.49465
30
0
11
-2.29348548659114
21
1.84790145581394
31
0
210
0
220
0
230
1
40
0.775936
41
3.0528350678429
42
-2.77958348574875
0
ELLIPSE
5
206
100
AcDbEntity
8
1
62
256
6
ByLayer
370
13
48
1
60
0
100
AcDbEllipse
10
276
20
2.75271
30
0
11
-0.494280865162834
21
13.9528551536657
31
0
210
0
220
0
230
1
40
0.356594
41
-0.537173421669466
42
-0.377232520070328
0
ELLIPSE
5
207
100
AcDbEntity
8
1
62
256
6
ByLayer
370
13
48
1
60
0
100
AcDbEllipse
10
283.546634
20
18.275504
30
0
11
-0.471023606186435
21
8.98766581279117
31
0
210
0
220
0
230
1
40
0.995725
41
2.79252680319577
42
3.02206401946904
0
ELLIPSE
5
208
100
AcDbEntity
8
1
62
256
6
ByLayer
370
13
48
1
60
0
100
AcDbEllipse
10
287.120892
20
10.388017
30
0
11
-0.0261679781214686
21
0.499314767377288
31
0
210
0
220
0
230
1
40
0.995725
41
0.927295218001721
42
1.13806179252785
0
ELLIPSE
5
209
100
AcDbEntity
8
1
62
256
6
ByLayer
370
13
48
1
60
0
100
AcDbEllipse
10
299.500707
20
0.137325
30
0
11
-0.0101923142996326
21
0.505549834398674
31
0
210
0
220
0
230
1
40
0.102474
41
-0.110711429519143
42
0.234898809112961
0
ELLIPSE
5
20A
100
AcDbEntity
8
1
62
256
6
ByLayer
370
13
48
1
60
0
100
AcDbEllipse
10
299.298918
20
12.728573
30
0
11
-0.0787721297171038
21
2.59926163543251
31
0
210
0
220
0
230
1
40
0.530214
41
2.95443045572412
42
-3.12989288438336
0
ELLIPSE
5
20B
100
AcDbEntity
8
1
62
256
6
ByLayer
370
13
48
1
60
0
100
AcDbEllipse
10
294.097669
20
-7.014666
30
0
11
-6.03298067815163
21
-0.0286123160809918
31
0
210
0
220
0
230
1
40
0.989944
41
3.00670529974752
42
-2.99005666308428
0
ELLIPSE
5
20C
100
AcDbEntity
8
1
62
256
6
ByLayer
370
13
48
1
60
0
100
AcDbEllipse
10
294.635371
20
10.781834
30
0
11
-0.318391529944965
21
-0.395167751123311
31
0
210
0
220
0
230
1
40
0.966608
41
-2.1258654261695
42
-2.06669246719718
0
ELLIPSE
5
20D
100
AcDbEntity
8
1
62
256
6
ByLayer
370
13
48
1
60
0
100
AcDbEllipse
10
299.530865
20
-1.98561
30
0
11
-2.19811521425349
21
3.37559528365091
31
0
210
0
220
0
230
1
40
0.411373
41
-0.987317236417984
42
-0.843977548356742
0
ELLIPSE
5
20E
100
AcDbEntity
8
1
62
256
6
ByLayer
370
13
48
1
60
0
100
AcDbEllipse
10
284.056594
20
11.529208
30
0
11
-1.65564191972306
21
-2.05486645278168
31
0
210
0
220
0
230
1
40
0.966608
41
1.54124461108849
42
1.85179470985717
0
ELLIPSE
5
20F
100
AcDbEntity
8
1
62
256
6
ByLayer
370
13
48
1
60
0
100
AcDbEllipse
10
299.604857
20
0.150823
30
0
11
-0.02038462859529
21
1.01109966866469
31
0
210
0
220
0
230
1
40
0.102474
41
-0.110711429526296
42
1.07299447334276
0
ELLIPSE
5
210
100
AcDbEntity
8
1
62
256
6
ByLayer
370
13
48
1
60
0
100
AcDbEllipse
10
303.279835
20
2.29683
30
0
11
-5.79974175118598
21
-2.07661779908452
31
0
210
0
220
0
230
1
40
0.877561
41
-0.382459422595112
42
-0.234907353214774
0
ELLIPSE
5
211
100
AcDbEntity
8
1
62
256
6
ByLayer
370
13
48
1
60
0
100
AcDbEllipse
10
283.546634
20
18.275504
30
0
11
-0.471023606186435
21
8.98766581279117
31
0
210
0
220
0
230
1
40
0.995725
41
-2.91693381338444
42
-2.83440246605356
0
ELLIPSE
5
212
100
AcDbEntity
8
1
62
256
6
ByLayer
370
13
48
1
60
0
100
AcDbEllipse
10
313.572895
20
-0.000585
30
0
11
-273.646160562785
21
0.124210679220207
31
0
210
0
220
0
230
1
40
0.092639
41
-1.45669721597323
42
-1.44815151104829
0
ELLIPSE
5
213
100
AcDbEntity
8
1
62
256
6
ByLayer
370
13
48
1
60
0
100
AcDbEllipse
10
290.867064
20
10.584346
30
0
11
-3.96879668142231
21
-0.704906653950935
31
0
210
0
220
0
230
1
40
0.015321
41
-3.01817314106942
42
-2.7167145403972
0
ELLIPSE
5
214
100
AcDbEntity
8
1
62
256
6
ByLayer
370
13
48
1
60
0
100
AcDbEllipse
10
298.444294
20
-15.297375
30
0
11
-0.29793550819148
21
-2.48556241287873
31
0
210
0
220
0
230
1
40
0.117226
41
0
42
6.28318530717959
0
ELLIPSE
5
215
100
AcDbEntity
8
1
62
256
6
ByLayer
370
13
48
1
60
0
100
AcDbEllipse
10
283.111055
20
10.177871
30
0
11
-3.96879667729445
21
-0.704906653201292
31
0
210
0
220
0
230
1
40
0.015321
41
-3.01817314104926
42
-2.71671454017426
0
ELLIPSE
5
216
100
AcDbEntity
8
1
62
256
6
ByLayer
370
13
48
1
60
0
100
AcDbEllipse
10
286.879362
20
10.375359
30
0
11
-0.318392676621648
21
-0.395166625609502
31
0
210
0
220
0
230
1
40
0.966608
41
-2.12586228198319
42
-1.28979794416819
0
ELLIPSE
5
217
100
AcDbEntity
8
1
62
256
6
ByLayer
370
13
48
1
60
0
100
AcDbEllipse
10
299.268769
20
-14.365213
30
0
11
-0.0645822969845731
21
-0.516093807642966
31
0
210
0
220
0
230
1
40
0.111912
41
-1.63334115111408
42
-0.0625448243204585
0
ELLIPSE
5
218
100
AcDbEntity
8
1
62
256
6
ByLayer
370
13
48
1
60
0
100
AcDbEllipse
10
293.491694
20
13.625877
30
0
11
-1.65564191687329
21
-2.05486645471147
31
0
210
0
220
0
230
1
40
0.966608
41
0.713732916067428
42
1.07490334443095
0
ELLIPSE
5
219
100
AcDbEntity
8
1
62
256
6
ByLayer
370
13
48
1
60
0
100
AcDbEllipse
10
305.091475
20
0.660449
30
0
11
-6.03298071132694
21
-0.0286124732749893
31
0
210
0
220
0
230
1
40
0.989944
41
0.0279339776138105
42
0.151535964311649
0
ELLIPSE
5
21A
100
AcDbEntity
8
1
62
256
6
ByLayer
370
13
48
1
60
0
100
AcDbEllipse
10
276
20
7.385569
30
0
11
-3
21
3.03191716524709E-15
31
0
210
0
220
0
230
1
40
0.760252
41
-3.04421242988226
42
-1.70224408218852
0
ELLIPSE
5
21B
100
AcDbEntity
8
1
62
256
6
ByLayer
370
13
48
1
60
0
100
AcDbEllipse
10
284.254478
20
11.539579
30
0
11
0.136073486231615
21
-2.59643679036189
31
0
210
0
220
0
230
1
40
0.995725
41
-2.08239418575108
42
-0.581932527432441
0
ELLIPSE
5
21C
100
AcDbEntity
8
1
62
256
6
ByLayer
370
13
48
1
60
0
100
AcDbEllipse
10
296.965057
20
10.903928
30
0
11
-0.0261679781214686
21
0.499314767377286
31
0
210
0
220
0
230
1
40
0.995725
41
-0.99036210339153
42
-0.927295220885241
0
ELLIPSE
5
21D
100
AcDbEntity
8
1
62
256
6
ByLayer
370
13
48
1
60
0
100
AcDbEllipse
10
283.90823
20
17.372818
30
0
11
0.136073486231615
21
-2.59643679036189
31
0
210
0
220
0
230
1
40
0.995725
41
-2.20424198809748
42
-1.46607657167525
0
ELLIPSE
5
21E
100
AcDbEntity
8
1
62
256
6
ByLayer
370
13
48
1
60
0
100
AcDbEllipse
10
290.074424
20
10.542805
30
0
11
0.0523359562429289
21
-0.998629534754575
31
0
210
0
220
0
230
1
40
0.092371
41
-1.5707963267949
42
0
0
ELLIPSE
5
21F
100
AcDbEntity
8
1
62
256
6
ByLayer
370
13
48
1
60
0
100
AcDbEllipse
10
281.020675
20
9.674284
30
0
11
-0.293690420649028
21
-0.955900589401951
31
0
210
0
220
0
230
1
40
0.0868
41
-1.53907871771952
42
0.0174287613451576
0
ELLIPSE
5
220
100
AcDbEntity
8
1
62
256
6
ByLayer
370
13
48
1
60
0
100
AcDbEllipse
10
301.594647
20
0
30
0
11
-3.108665884205
21
-25.3474614248865
31
0
210
0
220
0
230
1
40
0.115402
41
-1.32155625374955
42
-0.0786850624665174
0
ELLIPSE
5
221
100
AcDbEntity
8
1
62
256
6
ByLayer
370
13
48
1
60
0
100
AcDbEllipse
10
313.572135
20
7E-06
30
0
11
-270.836309931339
21
0.122865440531631
31
0
210
0
220
0
230
1
40
0.092638
41
-1.43570554064995
42
-1.41489374458438
0
ELLIPSE
5
222
100
AcDbEntity
8
1
62
256
6
ByLayer
370
13
48
1
60
0
100
AcDbEllipse
10
290.65012
20
-0.44212
30
0
11
-0.523359562429372
21
9.98629534754574
31
0
210
0
220
0
230
1
40
0.995725
41
0
42
0.307190187536216
0
ELLIPSE
5
223
100
AcDbEntity
8
1
62
256
6
ByLayer
370
13
48
1
60
0
100
AcDbEllipse
10
284.254478
20
11.539579
30
0
11
0.136073486231615
21
-2.59643679036189
31
0
210
0
220
0
230
1
40
0.995725
41
0.687062733516976
42
1.13806179252794
0
ELLIPSE
5
224
100
AcDbEntity
8
1
62
256
6
ByLayer
370
13
48
1
60
0
100
AcDbEllipse
10
309.368277
20
0
30
0
11
-50.0270767078459
21
20.4896450549815
31
0
210
0
220
0
230
1
40
0.289452
41
0.750502152874546
42
0.917090452366598
0
ELLIPSE
5
225
100
AcDbEntity
8
1
62
256
6
ByLayer
370
13
48
1
60
0
100
AcDbEllipse
10
299.048627
20
11.013123
30
0
11
-0.0180620769648502
21
1.00041922973519
31
0
210
0
220
0
230
1
40
0.105166
41
-3.13798329954192
42
-2.58082146694757
0
ELLIPSE
5
226
100
AcDbEntity
8
1
62
256
6
ByLayer
370
13
48
1
60
0
100
AcDbEllipse
10
281.487208
20
12.914306
30
0
11
-0.0261679781214687
21
0.49931476737729
31
0
210
0
220
0
230
1
40
0.995725
41
-2.08239418575102
42
-1.46607657167532
0
ELLIPSE
5
227
100
AcDbEntity
8
1
62
256
6
ByLayer
370
13
48
1
60
0
100
AcDbEllipse
10
299.425717
20
10.926806
30
0
11
-0.0435637040398346
21
-0.259139630116043
31
0
210
0
220
0
230
1
40
0.947521
41
0.308152981415631
42
1.28542437771055
0
ELLIPSE
5
228
100
AcDbEntity
8
1
62
256
6
ByLayer
370
13
48
1
60
0
100
AcDbEllipse
10
298.872
20
18.311038
30
0
11
0.148163665863162
21
0.0233993187505377
31
0
210
0
220
0
230
1
40
0.009655
41
1.66279490127128
42
2.85602956831725
0
ELLIPSE
5
229
100
AcDbEntity
8
1
62
256
6
ByLayer
370
13
48
1
60
0
100
AcDbEllipse
10
298.875234
20
18.067123
30
0
11
0.148731686424778
21
-0.0194649801757243
31
0
210
0
220
0
230
1
40
0.016833
41
-2.85804977878063
42
-1.66175841710243
0
ELLIPSE
5
22A
100
AcDbEntity
8
1
62
256
6
ByLayer
370
13
48
1
60
0
100
AcDbEllipse
10
298.027931
20
11.592897
30
0
11
-0.157381426392861
21
-0.0466723701588618
31
0
210
0
220
0
230
1
40
0.019797
41
-1.48863729010132
42
-0.271936942505896
0
ELLIPSE
5
22B
100
AcDbEntity
8
1
62
256
6
ByLayer
370
13
48
1
60
0
100
AcDbEllipse
10
297.969881
20
11.533052
30
0
11
0.00523359562429227
21
-0.0998629534754457
31
0
210
0
220
0
230
1
40
0.995725
41
-6.34410869101745E-06
42
0.104719755118608
0
ELLIPSE
5
22C
100
AcDbEntity
8
1
62
256
6
ByLayer
370
13
48
1
60
0
100
AcDbEllipse
10
296.660053
20
9.586159
30
0
11
0.0942047212372723
21
-1.79753316255824
31
0
210
0
220
0
230
1
40
0.995725
41
2.04964470027418
42
2.74715960225023
0
ELLIPSE
5
22D
100
AcDbEntity
8
1
62
256
6
ByLayer
370
13
48
1
60
0
100
AcDbEllipse
10
298.532407
20
18.256605
30
0
11
0.197551554484216
21
0.0311990916673836
31
0
210
0
220
0
230
1
40
0.009655
41
-1.47879775232255
42
0.0001294548006561
0
ELLIPSE
5
22E
100
AcDbEntity
8
1
62
256
6
ByLayer
370
13
48
1
60
0
100
AcDbEllipse
10
297.546286
20
24.50069
30
0
11
-0.197551554484212
21
-0.0311990916674071
31
0
210
0
220
0
230
1
40
0.009655
41
1.66279490126781
42
-3.14146319872106
0
ELLIPSE
5
22F
100
AcDbEntity
8
1
62
256
6
ByLayer
370
13
48
1
60
0
100
AcDbEllipse
10
298.534309
20
18.113126
30
0
11
0.198308915233038
21
-0.0259533069009658
31
0
210
0
220
0
230
1
40
0.016833
41
0.000152472577357253
42
1.47983423648262
0
ELLIPSE
5
230
100
AcDbEntity
8
1
62
256
6
ByLayer
370
13
48
1
60
0
100
AcDbEllipse
10
297.692333
20
11.679591
30
0
11
-0.198308915233049
21
0.0259533069008826
31
0
210
0
220
0
230
1
40
0.016833
41
-3.14144018080085
42
-1.66175841710378
0
ELLIPSE
5
231
100
AcDbEntity
8
1
62
256
6
ByLayer
370
13
48
1
60
0
100
AcDbEllipse
10
291.249051
20
17.639006
30
0
11
0.16148876483002
21
-3.0813891952549
31
0
210
0
220
0
230
1
40
0.995725
41
-0.853733431166176
42
0
0
ELLIPSE
5
232
100
AcDbEntity
8
1
62
256
6
ByLayer
370
13
48
1
60
0
100
AcDbEllipse
10
291.249051
20
17.639006
30
0
11
0.16148876483002
21
-3.0813891952549
31
0
210
0
220
0
230
1
40
0.995725
41
0
42
-2.28787053660727
0
ELLIPSE
5
233
100
AcDbEntity
8
1
62
256
6
ByLayer
370
13
48
1
60
0
100
AcDbEllipse
10
284.638574
20
23.750743
30
0
11
0.00523359562429227
21
-0.0998629534754457
31
0
210
0
220
0
230
1
40
0.995725
41
1.38753675533719
42
3.14158141713797
0
ELLIPSE
5
234
100
AcDbEntity
8
1
62
256
6
ByLayer
370
13
48
1
60
0
100
AcDbEllipse
10
284.250373
20
9.524951
30
0
11
0.00653729335066879
21
-0.149857478277353
31
0
210
0
220
0
230
1
40
0.092367
41
-1.56998679074977
42
-0.0232440763807794
0
ELLIPSE
5
235
100
AcDbEntity
8
1
62
256
6
ByLayer
370
13
48
1
60
0
100
AcDbEllipse
10
284.24819
20
9.574903
30
0
11
0.0104671912485861
21
-0.199725906950921
31
0
210
0
220
0
230
1
40
0.995725
41
0.0114035669059217
42
1.26193471909935
0
ELLIPSE
5
236
100
AcDbEntity
8
1
62
256
6
ByLayer
370
13
48
1
60
0
100
AcDbEllipse
10
283.989506
20
9.513875
30
0
11
0.00373239490690381
21
-0.149953556904326
31
0
210
0
220
0
230
1
40
0.092336
41
-1.56825879134052
42
-0.0414707750411596
0
ELLIPSE
5
237
100
AcDbEntity
8
1
62
256
6
ByLayer
370
13
48
1
60
0
100
AcDbEllipse
10
282.734299
20
23.397639
30
0
11
0.0235312926466843
21
-0.148142763125224
31
0
210
0
220
0
230
1
40
0.091865
41
-3.05123893758252
42
-1.5804928352455
0
ELLIPSE
5
238
100
AcDbEntity
8
1
62
256
6
ByLayer
370
13
48
1
60
0
100
AcDbEllipse
10
283.553871
20
9.513973
30
0
11
-0.00379960965785735
21
-0.149951868832795
31
0
210
0
220
0
230
1
40
0.092094
41
-1.56362690568473
42
-0.0717426686092287
0
ELLIPSE
5
239
100
AcDbEntity
8
1
62
256
6
ByLayer
370
13
48
1
60
0
100
AcDbEllipse
10
282.638498
20
24.328466
30
0
11
-0.0435637040442285
21
-0.259139630114688
31
0
210
0
220
0
230
1
40
0.947521
41
-2.83343967215797
42
-2.19739446873269
0
ELLIPSE
5
23A
100
AcDbEntity
8
1
62
256
6
ByLayer
370
13
48
1
60
0
100
AcDbEllipse
10
282.734299
20
23.397639
30
0
11
-0.148731686424787
21
0.019464980175662
31
0
210
0
220
0
230
1
40
0.016833
41
0.263130755735051
42
1.47983423648397
0
ELLIPSE
5
23B
100
AcDbEntity
8
1
62
256
6
ByLayer
370
13
48
1
60
0
100
AcDbEllipse
10
283.026546
20
9.977875
30
0
11
-0.148163665863159
21
-0.0233993187505554
31
0
210
0
220
0
230
1
40
0.009655
41
-1.47879775232142
42
-0.264793552091999
0
ELLIPSE
5
23C
100
AcDbEntity
8
1
62
256
6
ByLayer
370
13
48
1
60
0
100
AcDbEllipse
10
281.91667
20
17.150146
30
0
11
-0.148731686424787
21
0.019464980175662
31
0
210
0
220
0
230
1
40
0.016833
41
-0.090962090305622
42
1.47983423648473
0
ELLIPSE
5
23D
100
AcDbEntity
8
1
62
256
6
ByLayer
370
13
48
1
60
0
100
AcDbEllipse
10
281.918763
20
16.992319
30
0
11
-0.148163665863159
21
-0.0233993187505554
31
0
210
0
220
0
230
1
40
0.009655
41
-1.47879775232115
42
-0.264819008248769
0
ELLIPSE
5
23E
100
AcDbEntity
8
1
62
256
6
ByLayer
370
13
48
1
60
0
100
AcDbEllipse
10
297.546286
20
24.50069
30
0
11
0.0104671912485858
21
-0.199725906950915
31
0
210
0
220
0
230
1
40
0.995725
41
3.14157394909658
42
-2.58708947813941
0
ELLIPSE
5
23F
100
AcDbEntity
8
1
62
256
6
ByLayer
370
13
48
1
60
0
100
AcDbEllipse
10
297.692333
20
11.679591
30
0
11
0.0104671912485858
21
-0.199725906950915
31
0
210
0
220
0
230
1
40
0.995725
41
-0.28077821208892
42
2.11747631337391E-05
0
ELLIPSE
5
240
100
AcDbEntity
8
1
62
256
6
ByLayer
370
13
48
1
60
0
100
AcDbEllipse
10
285.071393
20
10.783587
30
0
11
0.0104671912485858
21
-0.199725906950915
31
0
210
0
220
0
230
1
40
0.995725
41
-1.46607657167503
42
-1.7259076567691E-05
0
ELLIPSE
5
241
100
AcDbEntity
8
1
62
256
6
ByLayer
370
13
48
1
60
0
100
AcDbEllipse
10
284.925347
20
23.604686
30
0
11
0.0104671912485858
21
-0.199725906950915
31
0
210
0
220
0
230
1
40
0.995725
41
-3.14157313675449
42
-1.75405589825403
0
ELLIPSE
5
242
100
AcDbEntity
8
1
62
256
6
ByLayer
370
13
48
1
60
0
100
AcDbEllipse
10
285.071393
20
10.783587
30
0
11
0.114373860315984
21
-0.164068949153762
31
0
210
0
220
0
230
1
40
0.07853
41
3.35013654753925E-05
42
1.5219912390767
0
ELLIPSE
5
243
100
AcDbEntity
8
1
62
256
6
ByLayer
370
18
48
1
60
0
100
AcDbEllipse
10
291.136653
20
17.633115
30
0
11
0.0675290843402512
21
-1.28853168869383
31
0
210
0
220
0
230
1
40
0.995725
41
3.14159265358979
42
-2.34982975905695
0
ELLIPSE
5
244
100
AcDbEntity
8
1
62
256
6
ByLayer
370
18
48
1
60
0
100
AcDbEllipse
10
291.136653
20
17.633115
30
0
11
0.0675290843402512
21
-1.28853168869383
31
0
210
0
220
0
230
1
40
0.995725
41
-0.773927979467159
42
-4.42435617961647E-14
0
ELLIPSE
5
245
100
AcDbEntity
8
1
62
256
6
ByLayer
370
18
48
1
60
0
100
AcDbEllipse
10
291.136653
20
17.633115
30
0
11
-0.067529084340262
21
1.28853168869383
31
0
210
0
220
0
230
1
40
0.995725
41
-3.03890209425329
42
-2.0943951023932
0
ELLIPSE
5
246
100
AcDbEntity
8
1
62
256
6
ByLayer
370
18
48
1
60
0
100
AcDbEllipse
10
291.136653
20
17.633115
30
0
11
0.0675290843402512
21
-1.28853168869383
31
0
210
0
220
0
230
1
40
0.995725
41
-1.89415109854865
42
-1.2315038024086
0
ELLIPSE
5
247
100
AcDbEntity
8
1
62
256
6
ByLayer
370
18
48
1
60
0
100
AcDbEllipse
10
292.611687
20
17.710418
30
0
11
-0.0206256003553521
21
0.393559899646816
31
0
210
0
220
0
230
1
40
0.48763
41
-2.94566969474627
42
-0.320422399685771
0
ELLIPSE
5
248
100
AcDbEntity
8
1
62
256
6
ByLayer
370
18
48
1
60
0
100
AcDbEllipse
10
291.941404
20
16.388865
30
0
11
-0.328810806110957
21
-0.214953577526602
31
0
210
0
220
0
230
1
40
0.490768
41
0.673401308867463
42
-2.94809584056061
0
ELLIPSE
5
249
100
AcDbEntity
8
1
62
256
6
ByLayer
370
18
48
1
60
0
100
AcDbEllipse
10
291.806936
20
18.954668
30
0
11
-0.349478313243799
21
0.179405951069331
31
0
210
0
220
0
230
1
40
0.490768
41
2.94809584056035
42
-0.625095735375584
0
ELLIPSE
5
24A
100
AcDbEntity
8
1
62
256
6
ByLayer
370
18
48
1
60
0
100
AcDbEllipse
10
290.46637
20
16.311562
30
0
11
-0.349478313243817
21
0.179405951069361
31
0
210
0
220
0
230
1
40
0.490768
41
2.5164965647999
42
-2.94329838355324
0
ELLIPSE
5
24B
100
AcDbEntity
8
1
62
256
6
ByLayer
370
18
48
1
60
0
100
AcDbEllipse
10
290.331902
20
18.877365
30
0
11
-0.328810806110938
21
-0.2149535775266
31
0
210
0
220
0
230
1
40
0.490768
41
2.94329838355303
42
-2.46819100314327
0
ELLIPSE
5
24C
100
AcDbEntity
8
1
62
256
6
ByLayer
370
18
48
1
60
0
100
AcDbEllipse
10
291.208142
20
17.636862
30
0
11
-0.149157475292371
21
2.84609417405054
31
0
210
0
220
0
230
1
40
0.995725
41
9.25163458711997E-05
42
3.14158693516111
0
ELLIPSE
5
24D
100
AcDbEntity
8
1
62
256
6
ByLayer
370
18
48
1
60
0
100
AcDbEllipse
10
292.204527
20
-7.060913
30
0
11
-2.34999999999999
21
2.37500177944354E-15
31
0
210
0
220
0
230
1
40
0.995396
41
-0.622918878221543
42
-0.534561760356022
0
ELLIPSE
5
24E
100
AcDbEntity
8
1
62
256
6
ByLayer
370
18
48
1
60
0
100
AcDbEllipse
10
292.204527
20
-6.966171
30
0
11
-2.34999999999999
21
2.37500177944354E-15
31
0
210
0
220
0
230
1
40
0.995396
41
-0.671318877953541
42
-0.49666596605512
0
ELLIPSE
5
24F
100
AcDbEntity
8
1
62
256
6
ByLayer
370
18
48
1
60
0
100
AcDbEllipse
10
292.204527
20
-6.243335
30
0
11
-1.5
21
1.51595858262354E-15
31
0
210
0
220
0
230
1
40
0.995396
41
-3.00719109276434
42
0
0
ELLIPSE
5
250
100
AcDbEntity
8
1
62
256
6
ByLayer
370
18
48
1
60
0
100
AcDbEllipse
10
292.204527
20
-6.243335
30
0
11
-1.5
21
1.51595858262354E-15
31
0
210
0
220
0
230
1
40
0.995396
41
0
42
0.189575698181705
0
ELLIPSE
5
251
100
AcDbEntity
8
1
62
256
6
ByLayer
370
18
48
1
60
0
100
AcDbEllipse
10
292.204527
20
-6.291258
30
0
11
2
21
0
31
0
210
0
220
0
230
1
40
0.995396
41
0.453076493072719
42
2.97027783231094
0
ELLIPSE
5
252
100
AcDbEntity
8
1
62
256
6
ByLayer
370
13
48
1
60
0
100
AcDbEllipse
10
299.64187
20
10.491295
30
0
11
-0.0190690707678529
21
-0.501607026758327
31
0
210
0
220
0
230
1
40
0.195483
41
-0.786740978470624
42
-0.331356153711748
0
ELLIPSE
5
253
100
AcDbEntity
8
1
62
256
6
ByLayer
370
13
48
1
60
0
100
AcDbEllipse
10
285.628304
20
10.980152
30
0
11
0.0261679781214645
21
-0.499314767377288
31
0
210
0
220
0
230
1
40
0.092371
41
-1.00594782558522
42
-0.630730776710833
0
ELLIPSE
5
254
100
AcDbEntity
8
1
62
256
6
ByLayer
370
13
48
1
60
0
100
AcDbEllipse
10
282.604447
20
21.628745
30
0
11
-0.143594274799393
21
2.73994198497083
31
0
210
0
220
0
230
1
40
0.016833
41
0.326127687934546
42
0.836829632586753
0
ELLIPSE
5
255
100
AcDbEntity
8
1
62
256
6
ByLayer
370
13
48
1
60
0
100
AcDbEllipse
10
283.710238
20
11.511056
30
0
11
0.136073486231615
21
-2.59643679036189
31
0
210
0
220
0
230
1
40
0.995725
41
0.0555653949272884
42
1.07574208457343
0
ELLIPSE
5
256
100
AcDbEntity
8
1
62
256
6
ByLayer
370
13
48
1
60
0
100
AcDbEllipse
10
283.493226
20
0
30
0
11
-1.34005316405651
21
25.3496959850857
31
0
210
0
220
0
230
1
40
0.092638
41
-0.114097678064389
42
-0.00489828449081362
0
ELLIPSE
5
257
100
AcDbEntity
8
1
62
256
6
ByLayer
370
13
48
1
60
0
100
AcDbEllipse
10
244.190937
20
0
30
0
11
-273.642940485496
21
0.124139671816836
31
0
210
0
220
0
230
1
40
0.092638
41
-1.76508603897096
42
-1.71523034530428
0
ELLIPSE
5
258
100
AcDbEntity
8
1
62
256
6
ByLayer
370
13
48
1
60
0
100
AcDbEllipse
10
283.638878
20
18.280338
30
0
11
0.523359562429289
21
-9.98629534754575
31
0
210
0
220
0
230
1
40
0.995725
41
-2.63380893680483E-06
42
0.307190187536251
0
ELLIPSE
5
259
100
AcDbEntity
8
1
62
256
6
ByLayer
370
13
48
1
60
0
100
AcDbEllipse
10
292.002789
20
-6.572353
30
0
11
2
21
0
31
0
210
0
220
0
230
1
40
0.995396
41
2.43434173890092
42
2.74496683432516
0
ELLIPSE
5
25A
100
AcDbEntity
8
1
62
256
6
ByLayer
370
13
48
1
60
0
100
AcDbEllipse
10
292.002789
20
-6.102709
30
0
11
2
21
0
31
0
210
0
220
0
230
1
40
0.995396
41
0.747601003389708
42
2.91549603553499
0
ELLIPSE
5
25B
100
AcDbEntity
8
1
62
256
6
ByLayer
370
13
48
1
60
0
100
AcDbEllipse
10
283.664116
20
11.508639
30
0
11
-0.109905508110168
21
2.0971220229846
31
0
210
0
220
0
230
1
40
0.995725
41
2.21256348618961
42
2.71619434555201
0
ELLIPSE
5
25C
100
AcDbEntity
8
1
62
256
6
ByLayer
370
13
48
1
60
0
100
AcDbEllipse
10
283.664116
20
11.508639
30
0
11
-0.109905508110168
21
2.0971220229846
31
0
210
0
220
0
230
1
40
0.995725
41
-2.74205116611072
42
-2.08304175459224
0
ELLIPSE
5
25D
100
AcDbEntity
8
1
62
256
6
ByLayer
370
13
48
1
60
0
100
AcDbEllipse
10
292.002789
20
-6.102709
30
0
11
-2.1
21
2.12234201567296E-15
31
0
210
0
220
0
230
1
40
0.995396
41
-2.75664946647624
42
-0.310624841907174
0
POINT
5
70
100
AcDbEntity
8
1
62
256
6
ByLayer
370
18
48
1
60
0
100
AcDbPoint
10
0
20
0
30
0
39
0
210
0
220
0
230
1
50
360
0
POINT
5
72
100
AcDbEntity
8
80
62
256
6
ByLayer
370
18
48
1
60
0
100
AcDbPoint
10
0
20
0
30
0
39
0
210
0
220
0
230
1
50
360
0
POINT
5
74
100
AcDbEntity
8
81
62
256
6
ByLayer
370
18
48
1
60
0
100
AcDbPoint
10
301
20
0
30
0
39
0
210
0
220
0
230
1
50
360
0
POINT
5
76
100
AcDbEntity
8
1
62
256
6
ByLayer
370
18
48
1
60
1
100
AcDbPoint
10
0
20
-31.25
30
0
39
0
210
0
220
0
230
1
50
360
0
POINT
5
77
100
AcDbEntity
8
1
62
256
6
ByLayer
370
18
48
1
60
1
100
AcDbPoint
10
301
20
-26
30
0
39
0
210
0
220
0
230
1
50
360
0
POINT
5
78
100
AcDbEntity
8
1
62
256
6
ByLayer
370
18
48
1
60
1
100
AcDbPoint
10
-80
20
-25
30
0
39
0
210
0
220
0
230
1
50
360
0
POINT
5
79
100
AcDbEntity
8
1
62
256
6
ByLayer
370
18
48
1
60
1
100
AcDbPoint
10
0
20
-31.25
30
0
39
0
210
0
220
0
230
1
50
360
0
POINT
5
7A
100
AcDbEntity
8
1
62
256
6
ByLayer
370
18
48
1
60
1
100
AcDbPoint
10
301
20
-26
30
0
39
0
210
0
220
0
230
1
50
360
0
POINT
5
7B
100
AcDbEntity
8
1
62
256
6
ByLayer
370
18
48
1
60
1
100
AcDbPoint
10
5.9541
20
-31.25
30
0
39
0
210
0
220
0
230
1
50
360
0
POINT
5
7C
100
AcDbEntity
8
1
62
256
6
ByLayer
370
18
48
1
60
1
100
AcDbPoint
10
36
20
-26
30
0
39
0
210
0
220
0
230
1
50
360
0
POINT
5
7D
100
AcDbEntity
8
1
62
256
6
ByLayer
370
18
48
1
60
1
100
AcDbPoint
10
301
20
-26
30
0
39
0
210
0
220
0
230
1
50
360
0
POINT
5
7E
100
AcDbEntity
8
1
62
256
6
ByLayer
370
18
48
1
60
1
100
AcDbPoint
10
299.7234
20
-13
30
0
39
0
210
0
220
0
230
1
50
360
0
SPLINE
5
25E
100
AcDbEntity
8
1
62
256
6
ByLayer
370
18
48
1
60
0
100
AcDbSpline
70
4
71
3
72
8
73
4
40
0
40
0
40
0
40
0
40
1
40
1
40
1
40
1
41
1
10
289.814452367484
20
17.9509142566909
30
0
41
1
10
289.820731979922
20
17.9513897981397
30
0
41
1
10
289.827012579724
20
17.95186541004
30
0
41
1
10
289.833294205629
20
17.9523410951512
30
0
0
SPLINE
5
25F
100
AcDbEntity
8
1
62
256
6
ByLayer
370
18
48
1
60
0
100
AcDbSpline
70
4
71
3
72
18
73
14
40
0
40
0
40
0
40
0
40
0.124999999999998
40
0.124999999999998
40
0.249999999999997
40
0.249999999999997
40
0.499999999999997
40
0.499999999999997
40
0.749999999999996
40
0.749999999999996
40
0.874999999999998
40
0.874999999999998
40
1
40
1
40
1
40
1
41
1
10
290.820954925372
20
19.0468387143276
30
0
41
1
10
290.83723643454
20
19.0203428587549
30
0
41
1
10
290.86237229031
20
19.0002638429203
30
0
41
1
10
290.919096512001
20
18.9681569303018
30
0
41
1
10
290.950698449704
20
18.9563649868516
30
0
41
1
10
291.049744908583
20
18.9300609752706
30
0
41
1
10
291.12164798585
20
18.9243927196729
30
0
41
1
10
291.266189659957
20
18.9319811391002
30
0
41
1
10
291.338558847821
20
18.9451596593236
30
0
41
1
10
291.439523700455
20
18.9820160900708
30
0
41
1
10
291.47185601554
20
18.9972091447178
30
0
41
1
10
291.529757311699
20
19.0352589284144
30
0
41
1
10
291.555526947086
20
19.0579734864612
30
0
41
1
10
291.572221721022
20
19.0862109387367
30
0
0
SPLINE
5
260
100
AcDbEntity
8
1
62
256
6
ByLayer
370
18
48
1
60
0
100
AcDbSpline
70
4
71
3
72
16
73
12
40
0
40
0
40
0
40
0
40
0.250000000000072
40
0.250000000000072
40
0.500000000000145
40
0.500000000000145
40
0.750000000000217
40
0.750000000000217
40
0.875000000000109
40
0.875000000000109
40
1
40
1
40
1
40
1
41
1
10
292.19139152639
20
16.2345941515932
30
0
41
1
10
292.154439588538
20
16.2104995946774
30
0
41
1
10
292.115403044618
20
16.1893661035165
30
0
41
1
10
292.033847917886
20
16.1545978081632
30
0
41
1
10
291.991377322638
20
16.140875611269
30
0
41
1
10
291.903977237058
20
16.1257974950604
30
0
41
1
10
291.858887127736
20
16.1240477256361
30
0
41
1
10
291.796781762244
20
16.1426053949788
30
0
41
1
10
291.777657553873
20
16.1526595398146
30
0
41
1
10
291.748481052846
20
16.1804518621849
30
0
41
1
10
291.738654169569
20
16.1980570521216
30
0
41
1
10
291.733964367534
20
16.2170254516845
30
0
0
SPLINE
5
261
100
AcDbEntity
8
1
62
256
6
ByLayer
370
18
48
1
60
0
100
AcDbSpline
70
4
71
3
72
18
73
14
40
0
40
0
40
0
40
0
40
0.124999999999981
40
0.124999999999981
40
0.249999999999961
40
0.249999999999961
40
0.499999999999919
40
0.499999999999919
40
0.749999999999877
40
0.749999999999877
40
0.874999999999939
40
0.874999999999939
40
1
40
1
40
1
40
1
41
1
10
291.721725514053
20
16.2335086285755
30
0
41
1
10
291.702180142612
20
16.2598334323746
30
0
41
1
10
291.674154617537
20
16.2797610070581
30
0
41
1
10
291.612439777223
20
16.3116063724372
30
0
41
1
10
291.578761234383
20
16.3232894856238
30
0
41
1
10
291.474709034171
20
16.3493311574179
30
0
41
1
10
291.401100325296
20
16.3549100246507
30
0
41
1
10
291.256560950158
20
16.3473217257073
30
0
41
1
10
291.185889233689
20
16.3342321661901
30
0
41
1
10
291.089941163335
20
16.2976386538613
30
0
41
1
10
291.059692463783
20
16.2825547968774
30
0
41
1
10
291.006771949533
20
16.2447660448997
30
0
41
1
10
290.983888032938
20
16.2222027209664
30
0
41
1
10
290.970458718403
20
16.1941364041664
30
0
0
SPLINE
5
262
100
AcDbEntity
8
1
62
256
6
ByLayer
370
18
48
1
60
0
100
AcDbSpline
70
4
71
3
72
8
73
4
40
0
40
0
40
0
40
0
40
1
40
1
40
1
40
1
41
1
10
292.367996584875
20
16.6549104820168
30
0
41
1
10
292.371832270212
20
16.6492560787121
30
0
41
1
10
292.375667639265
20
16.643602435741
30
0
41
1
10
292.379502703666
20
16.6379495245624
30
0
0
SPLINE
5
263
100
AcDbEntity
8
1
62
256
6
ByLayer
370
18
48
1
60
0
100
AcDbSpline
70
4
71
3
72
18
73
14
40
0
40
0
40
0
40
0
40
0.125000000000045
40
0.125000000000045
40
0.250000000000091
40
0.250000000000091
40
0.500000000000057
40
0.500000000000057
40
0.750000000000023
40
0.750000000000023
40
0.875000000000011
40
0.875000000000011
40
1
40
1
40
1
40
1
41
1
10
289.833294205629
20
17.9523410951512
30
0
41
1
10
289.863386815406
20
17.9546199010917
30
0
41
1
10
289.892471722502
20
17.9676526255848
30
0
41
1
10
289.947137616773
20
18.003025997996
30
0
41
1
10
289.972528552686
20
18.0254862501492
30
0
41
1
10
290.043330933246
20
18.1005783460714
30
0
41
1
10
290.083677285638
20
18.160997199674
30
0
41
1
10
290.149348867431
20
18.2905046728629
30
0
41
1
10
290.17460403993
20
18.3593242847905
30
0
41
1
10
290.19463294567
20
18.4634623713084
30
0
41
1
10
290.198253326502
20
18.4983061588703
30
0
41
1
10
290.195728255809
20
18.565603181744
30
0
41
1
10
290.189802531023
20
18.598164618432
30
0
41
1
10
290.17468385455
20
18.6254368608864
30
0
0
SPLINE
5
264
100
AcDbEntity
8
1
62
256
6
ByLayer
370
18
48
1
60
0
100
AcDbSpline
70
4
71
3
72
8
73
4
40
0
40
0
40
0
40
0
40
1
40
1
40
1
40
1
41
1
10
289.873802353241
20
17.1793995936012
30
0
41
1
10
289.867505416107
20
17.179216064157
30
0
41
1
10
289.861209507106
20
17.1790325691597
30
0
41
1
10
289.854914587426
20
17.1788491073047
30
0
0
SPLINE
5
265
100
AcDbEntity
8
1
62
256
6
ByLayer
370
18
48
1
60
0
100
AcDbSpline
70
4
71
3
72
16
73
12
40
0
40
0
40
0
40
0
40
0.125000000000005
40
0.125000000000005
40
0.250000000000009
40
0.250000000000009
40
0.500000000000006
40
0.500000000000006
40
0.750000000000003
40
0.750000000000003
40
1
40
1
40
1
40
1
41
1
10
292.730272871665
20
17.3295402496248
30
0
41
1
10
292.749603701477
20
17.3232404081616
30
0
41
1
10
292.770379911955
20
17.3221118860308
30
0
41
1
10
292.810165866619
20
17.3321815812857
30
0
41
1
10
292.82899739937
20
17.3433454187237
30
0
41
1
10
292.876613911858
20
17.3861736931504
30
0
41
1
10
292.898085025489
20
17.4255560704381
30
0
41
1
10
292.929283837687
20
17.5079754190456
30
0
41
1
10
292.938865890144
20
17.551524086273
30
0
41
1
10
292.949859798379
20
17.6393808878077
30
0
41
1
10
292.95119709191
20
17.6839259124797
30
0
41
1
10
292.948882553313
20
17.7280899398089
30
0
0
SPLINE
5
266
100
AcDbEntity
8
1
62
256
6
ByLayer
370
18
48
1
60
0
100
AcDbSpline
70
4
71
3
72
8
73
4
40
0
40
0
40
0
40
0
40
1
40
1
40
1
40
1
41
1
10
290.17468385455
20
18.6254368608863
30
0
41
1
10
290.171529478079
20
18.6311269700757
30
0
41
1
10
290.168375712779
20
18.6368163343858
30
0
41
1
10
290.165222535483
20
18.6425049817533
30
0
0
SPLINE
5
267
100
AcDbEntity
8
1
62
256
6
ByLayer
370
18
48
1
60
0
100
AcDbSpline
70
4
71
3
72
16
73
12
40
0
40
0
40
0
40
0
40
0.25
40
0.25
40
0.5
40
0.5
40
0.75
40
0.75
40
0.875
40
0.875
40
1
40
1
40
1
40
1
41
1
10
290.524446268007
20
16.147233252415
30
0
41
1
10
290.48517818973
20
16.1673332875485
30
0
41
1
10
290.447376608596
20
16.190639289173
30
0
41
1
10
290.376385238929
20
16.2438047649064
30
0
41
1
10
290.343146969121
20
16.2735844969425
30
0
41
1
10
290.285891765043
20
16.3410424050442
30
0
41
1
10
290.261465216772
20
16.3786839916751
30
0
41
1
10
290.245472094617
20
16.440157339966
30
0
41
1
10
290.244198859104
20
16.4610762150577
30
0
41
1
10
290.252716234726
20
16.4986620272449
30
0
41
1
10
290.26250884242
20
16.5150741388691
30
0
41
1
10
290.276054115443
20
16.5277124552176
30
0
0
SPLINE
5
268
100
AcDbEntity
8
1
62
256
6
ByLayer
370
18
48
1
60
0
100
AcDbSpline
70
4
71
3
72
8
73
4
40
0
40
0
40
0
40
0
40
1
40
1
40
1
40
1
41
1
10
292.689810651724
20
18.101605399011
30
0
41
1
10
292.682833844938
20
18.1013862009671
30
0
41
1
10
292.675856332184
20
18.1011669846308
30
0
41
1
10
292.668878086185
20
18.1009477493019
30
0
0
SPLINE
5
269
100
AcDbEntity
8
1
62
256
6
ByLayer
370
18
48
1
60
0
100
AcDbSpline
70
4
71
3
72
18
73
14
40
0
40
0
40
0
40
0
40
0.124999999999976
40
0.124999999999976
40
0.249999999999951
40
0.249999999999951
40
0.499999999999968
40
0.499999999999968
40
0.749999999999984
40
0.749999999999984
40
0.874999999999992
40
0.874999999999992
40
1
40
1
40
1
40
1
41
1
10
290.283679499969
20
16.5456760522752
30
0
41
1
10
290.295858669442
20
16.5743651879015
30
0
41
1
10
290.298362886116
20
16.6074012076536
30
0
41
1
10
290.293809249384
20
16.6747507190637
30
0
41
1
10
290.286559945026
20
16.7089484995352
30
0
41
1
10
290.25581299604
20
16.810213437145
30
0
41
1
10
290.223403455361
20
16.8762558521629
30
0
41
1
10
290.144534512532
20
16.9981749661665
30
0
41
1
10
290.098269232864
20
17.0538605382237
30
0
41
1
10
290.019841677111
20
17.1212736532037
30
0
41
1
10
289.992171550623
20
17.1409789849501
30
0
41
1
10
289.934235574726
20
17.1703567399867
30
0
41
1
10
289.903983073949
20
17.1802792356846
30
0
41
1
10
289.873802353241
20
17.1793995936012
30
0
0
SPLINE
5
26A
100
AcDbEntity
8
1
62
256
6
ByLayer
370
18
48
1
60
0
100
AcDbSpline
70
4
71
3
72
8
73
4
40
0
40
0
40
0
40
0
40
1
40
1
40
1
40
1
41
1
10
290.970458718403
20
16.1941364041664
30
0
41
1
10
290.967656812173
20
16.1882806184752
30
0
41
1
10
290.964855470349
20
16.1824256198373
30
0
41
1
10
290.962054671517
20
16.1765713787092
30
0
0
SPLINE
5
26B
100
AcDbEntity
8
1
62
256
6
ByLayer
370
18
48
1
60
0
100
AcDbSpline
70
4
71
3
72
8
73
4
40
0
40
0
40
0
40
0
40
1
40
1
40
1
40
1
41
1
10
290.276054115443
20
16.5277124552176
30
0
41
1
10
290.278595393736
20
16.5336995363568
30
0
41
1
10
290.281137181871
20
16.5396873919742
30
0
41
1
10
290.283679499969
20
16.5456760522752
30
0
0
SPLINE
5
26C
100
AcDbEntity
8
1
62
256
6
ByLayer
370
18
48
1
60
0
100
AcDbSpline
70
4
71
3
72
16
73
12
40
0
40
0
40
0
40
0
40
0.125
40
0.125
40
0.25
40
0.25
40
0.5
40
0.5
40
0.75
40
0.75
40
1
40
1
40
1
40
1
41
1
10
290.962054671517
20
16.1765713787092
30
0
41
1
10
290.961418727008
20
16.1572521772811
30
0
41
1
10
290.955513666982
20
16.1387260996192
30
0
41
1
10
290.932902208196
20
16.1081094840292
30
0
41
1
10
290.916290140622
20
16.0961622779066
30
0
41
1
10
290.860864259418
20
16.0718016317001
30
0
41
1
10
290.817438682479
20
16.0688680413958
30
0
41
1
10
290.731415949525
20
16.074852936072
30
0
41
1
10
290.688387385212
20
16.0840967853697
30
0
41
1
10
290.60461930186
20
16.110163912736
30
0
41
1
10
290.563687188712
20
16.1271471183476
30
0
41
1
10
290.524446268007
20
16.147233252415
30
0
0
SPLINE
5
26D
100
AcDbEntity
8
1
62
256
6
ByLayer
370
18
48
1
60
0
100
AcDbSpline
70
4
71
3
72
8
73
4
40
0
40
0
40
0
40
0
40
1
40
1
40
1
40
1
41
1
10
291.572221721022
20
19.0862109387367
30
0
41
1
10
291.575704936117
20
19.0921024303126
30
0
41
1
10
291.579187881695
20
19.0979931502895
30
0
41
1
10
291.582670567632
20
19.1038831276065
30
0
0
SPLINE
5
26E
100
AcDbEntity
8
1
62
256
6
ByLayer
370
18
48
1
60
0
100
AcDbSpline
70
4
71
3
72
16
73
12
40
0
40
0
40
0
40
0
40
0.25
40
0.25
40
0.5
40
0.5
40
0.75
40
0.75
40
0.875
40
0.875
40
1
40
1
40
1
40
1
41
1
10
292.948882553313
20
17.7280899398089
30
0
41
1
10
292.946566412888
20
17.7722845318582
30
0
41
1
10
292.940596534786
20
17.8163464349325
30
0
41
1
10
292.920459004514
20
17.9026712197287
30
0
41
1
10
292.906392806205
20
17.9449521247689
30
0
41
1
10
292.86664412474
20
18.0238251826578
30
0
41
1
10
292.841194796913
20
18.0607998646107
30
0
41
1
10
292.78882593644
20
18.0985543676068
30
0
41
1
10
292.769114407438
20
18.107450530556
30
0
41
1
10
292.728733729648
20
18.1131523063561
30
0
41
1
10
292.708308055582
20
18.1098605498731
30
0
41
1
10
292.689810651724
20
18.101605399011
30
0
0
SPLINE
5
26F
100
AcDbEntity
8
1
62
256
6
ByLayer
370
18
48
1
60
0
100
AcDbSpline
70
4
71
3
72
18
73
14
40
0
40
0
40
0
40
0
40
0.124999999999993
40
0.124999999999993
40
0.249999999999986
40
0.249999999999986
40
0.499999999999979
40
0.499999999999979
40
0.749999999999972
40
0.749999999999972
40
0.874999999999986
40
0.874999999999986
40
1
40
1
40
1
40
1
41
1
10
292.668878086185
20
18.1009477493019
30
0
41
1
10
292.635414151084
20
18.099896413935
30
0
41
1
10
292.602203594125
20
18.1096859836394
30
0
41
1
10
292.539090266042
20
18.1389417050308
30
0
41
1
10
292.509390834018
20
18.1585472554659
30
0
41
1
10
292.426058967271
20
18.2256696123169
30
0
41
1
10
292.377883760267
20
18.2815364134135
30
0
41
1
10
292.299034981342
20
18.4036319668243
30
0
41
1
10
292.268588518887
20
18.4694262334491
30
0
41
1
10
292.242953430791
20
18.5704738600169
30
0
41
1
10
292.237757487755
20
18.604963974325
30
0
41
1
10
292.238130198256
20
18.6721102955252
30
0
41
1
10
292.243460427307
20
18.7056289302739
30
0
41
1
10
292.259000939456
20
18.734671290628
30
0
0
SPLINE
5
270
100
AcDbEntity
8
1
62
256
6
ByLayer
370
18
48
1
60
0
100
AcDbSpline
70
4
71
3
72
16
73
12
40
0
40
0
40
0
40
0
40
0.125000000000017
40
0.125000000000017
40
0.250000000000034
40
0.250000000000034
40
0.500000000000023
40
0.500000000000023
40
0.750000000000011
40
0.750000000000011
40
1
40
1
40
1
40
1
41
1
10
290.165222535483
20
18.6425049817534
30
0
41
1
10
290.150375209176
20
18.6536998120166
30
0
41
1
10
290.138868202608
20
18.6690960047517
30
0
41
1
10
290.126495886057
20
18.7058638000898
30
0
41
1
10
290.125697614139
20
18.727075487609
30
0
41
1
10
290.135290280817
20
18.7893669155747
30
0
41
1
10
290.155595735046
20
18.8293459554947
30
0
41
1
10
290.205390370863
20
18.9022467148438
30
0
41
1
10
290.235350580086
20
18.9353644752142
30
0
41
1
10
290.300320362058
20
18.9955928058366
30
0
41
1
10
290.335556681363
20
19.0227860364063
30
0
41
1
10
290.372483063471
20
19.046863929668
30
0
0
SPLINE
5
271
100
AcDbEntity
8
1
62
256
6
ByLayer
370
18
48
1
60
0
100
AcDbSpline
70
4
71
3
72
8
73
4
40
0
40
0
40
0
40
0
40
1
40
1
40
1
40
1
41
1
10
291.733964367534
20
16.2170254516845
30
0
41
1
10
291.729885089837
20
16.2225191232804
30
0
41
1
10
291.725805476292
20
16.2280135063281
30
0
41
1
10
291.721725514053
20
16.2335086285756
30
0
0
SPLINE
5
272
100
AcDbEntity
8
1
62
256
6
ByLayer
370
18
48
1
60
0
100
AcDbSpline
70
4
71
3
72
16
73
12
40
0
40
0
40
0
40
0
40
0.250000000000068
40
0.250000000000068
40
0.500000000000135
40
0.500000000000135
40
0.750000000000203
40
0.750000000000203
40
0.875000000000101
40
0.875000000000101
40
1
40
1
40
1
40
1
41
1
10
290.372483063471
20
19.046863929668
30
0
41
1
10
290.409435001323
20
19.0709584865838
30
0
41
1
10
290.44827856788
20
19.0920818642297
30
0
41
1
10
290.528953573388
20
19.1268040343841
30
0
41
1
10
290.570749651169
20
19.1404908813158
30
0
41
1
10
290.655866590762
20
19.1554493429135
30
0
41
1
10
290.699393808063
20
19.1571172046377
30
0
41
1
10
290.757452543835
20
19.1383474604178
30
0
41
1
10
290.77493140804
20
19.1282070867481
30
0
41
1
10
290.800368721666
20
19.1002188018697
30
0
41
1
10
290.808118862218
20
19.0825047744587
30
0
41
1
10
290.810760871616
20
19.0634290546312
30
0
0
SPLINE
5
273
100
AcDbEntity
8
1
62
256
6
ByLayer
370
18
48
1
60
0
100
AcDbSpline
70
4
71
3
72
8
73
4
40
0
40
0
40
0
40
0
40
1
40
1
40
1
40
1
41
1
10
292.268671123706
20
18.7527420510981
30
0
41
1
10
292.265447958307
20
18.7467192337701
30
0
41
1
10
292.262224566419
20
18.7406956568136
30
0
41
1
10
292.259000939456
20
18.734671290628
30
0
0
SPLINE
5
274
100
AcDbEntity
8
1
62
256
6
ByLayer
370
18
48
1
60
0
100
AcDbSpline
70
4
71
3
72
16
73
12
40
0
40
0
40
0
40
0
40
0.124999999999996
40
0.124999999999996
40
0.249999999999992
40
0.249999999999992
40
0.499999999999994
40
0.499999999999994
40
0.749999999999997
40
0.749999999999997
40
1
40
1
40
1
40
1
41
1
10
289.854914587426
20
17.1788491073047
30
0
41
1
10
289.838403599963
20
17.1706708757927
30
0
41
1
10
289.819947411053
20
17.167486270734
30
0
41
1
10
289.783084703225
20
17.1735389798027
30
0
41
1
10
289.764846040091
20
17.1827600505968
30
0
41
1
10
289.71701308442
20
17.2205860303636
30
0
41
1
10
289.693109645279
20
17.2575904281045
30
0
41
1
10
289.655743223957
20
17.3364164250872
30
0
41
1
10
289.642337108486
20
17.3787603334837
30
0
41
1
10
289.62309916793
20
17.4650327509596
30
0
41
1
10
289.617306575144
20
17.5092041141233
30
0
41
1
10
289.614992036548
20
17.5533681414524
30
0
0
SPLINE
5
275
100
AcDbEntity
8
1
62
256
6
ByLayer
370
18
48
1
60
0
100
AcDbSpline
70
4
71
3
72
8
73
4
40
0
40
0
40
0
40
0
40
1
40
1
40
1
40
1
41
1
10
292.709386233797
20
17.3280062477519
30
0
41
1
10
292.716349168566
20
17.3285176387477
30
0
41
1
10
292.723311372122
20
17.3290289719871
30
0
41
1
10
292.730272871665
20
17.3295402496248
30
0
0
SPLINE
5
276
100
AcDbEntity
8
1
62
256
6
ByLayer
370
18
48
1
60
0
100
AcDbSpline
70
4
71
3
72
16
73
12
40
0
40
0
40
0
40
0
40
0.25
40
0.25
40
0.5
40
0.5
40
0.75
40
0.75
40
0.875
40
0.875
40
1
40
1
40
1
40
1
41
1
10
292.039428321854
20
19.1342248288463
30
0
41
1
10
292.078696400131
20
19.1141247937127
30
0
41
1
10
292.116305003902
20
19.0908086785732
30
0
41
1
10
292.186416252344
20
19.037597077641
30
0
41
1
10
292.218980004685
20
19.0077819956423
30
0
41
1
10
292.273952062777
20
18.9402044329298
30
0
41
1
10
292.296815719027
20
18.9024809385987
30
0
41
1
10
292.308762211463
20
18.8407955154307
30
0
41
1
10
292.308390102809
20
18.819790411505
30
0
41
1
10
292.296133539786
20
18.7820086368097
30
0
41
1
10
292.284264189368
20
18.7654876877113
30
0
41
1
10
292.268671123706
20
18.7527420510981
30
0
0
SPLINE
5
277
100
AcDbEntity
8
1
62
256
6
ByLayer
370
18
48
1
60
0
100
AcDbSpline
70
4
71
3
72
8
73
4
40
0
40
0
40
0
40
0
40
1
40
1
40
1
40
1
41
1
10
290.810760871616
20
19.0634290546312
30
0
41
1
10
290.814158262207
20
19.0578996468464
30
0
41
1
10
290.817556271998
20
19.0523695424597
30
0
41
1
10
290.820954925372
20
19.0468387143276
30
0
0
SPLINE
5
278
100
AcDbEntity
8
1
62
256
6
ByLayer
370
18
48
1
60
0
100
AcDbSpline
70
4
71
3
72
16
73
12
40
0
40
0
40
0
40
0
40
0.250000000000003
40
0.250000000000003
40
0.500000000000006
40
0.500000000000006
40
0.750000000000009
40
0.750000000000009
40
0.875000000000005
40
0.875000000000005
40
1
40
1
40
1
40
1
41
1
10
289.614992036548
20
17.5533681414524
30
0
41
1
10
289.612675896122
20
17.5975627335018
30
0
41
1
10
289.613814370227
20
17.6419971695295
30
0
41
1
10
289.62393806668
20
17.7299078780168
30
0
41
1
10
289.632833133387
20
17.7733921319659
30
0
41
1
10
289.661836441895
20
17.8558683289707
30
0
41
1
10
289.681718556935
20
17.8952187311759
30
0
41
1
10
289.725807485412
20
17.9380283726854
30
0
41
1
10
289.742835786187
20
17.9488499885244
30
0
41
1
10
289.778660069136
20
17.9585454970873
30
0
41
1
10
289.797241188744
20
17.9572980000376
30
0
41
1
10
289.814452367484
20
17.9509142566909
30
0
0
SPLINE
5
279
100
AcDbEntity
8
1
62
256
6
ByLayer
370
18
48
1
60
0
100
AcDbSpline
70
4
71
3
72
16
73
12
40
0
40
0
40
0
40
0
40
0.125000000000003
40
0.125000000000003
40
0.250000000000006
40
0.250000000000006
40
0.500000000000004
40
0.500000000000004
40
0.750000000000002
40
0.750000000000002
40
1
40
1
40
1
40
1
41
1
10
291.582670567632
20
19.1038831276065
30
0
41
1
10
291.585361945435
20
19.1233100497291
30
0
41
1
10
291.593355250091
20
19.1419455676546
30
0
41
1
10
291.61972457386
20
19.1727591246033
30
0
41
1
10
291.637993288717
20
19.184793151931
30
0
41
1
10
291.697418652211
20
19.2093634021225
30
0
41
1
10
291.742410862011
20
19.2123790961761
30
0
41
1
10
291.830710243336
20
19.2065135155852
30
0
41
1
10
291.874414328412
20
19.1973050688305
30
0
41
1
10
291.959061690115
20
19.17128402249
30
0
41
1
10
292.000187401149
20
19.1543109629136
30
0
41
1
10
292.039428321854
20
19.1342248288463
30
0
0
SPLINE
5
27A
100
AcDbEntity
8
1
62
256
6
ByLayer
370
18
48
1
60
0
100
AcDbSpline
70
4
71
3
72
20
73
16
40
0
40
0
40
0
40
0
40
0.125000000000021
40
0.125000000000021
40
0.250000000000041
40
0.250000000000041
40
0.375000000000062
40
0.375000000000062
40
0.500000000000082
40
0.500000000000082
40
0.750000000000037
40
0.750000000000037
40
0.875000000000018
40
0.875000000000018
40
1
40
1
40
1
40
1
41
1
10
292.367996584875
20
16.6549104820168
30
0
41
1
10
292.349539847223
20
16.6821186154322
30
0
41
1
10
292.340703764333
20
16.7148021183859
30
0
41
1
10
292.333282355909
20
16.7820674657291
30
0
41
1
10
292.334865245712
20
16.8165305731187
30
0
41
1
10
292.344872306323
20
16.8855577206137
30
0
41
1
10
292.353441604393
20
16.9202163567384
30
0
41
1
10
292.375736728929
20
16.9875276832887
30
0
41
1
10
292.389538754432
20
17.0205525120438
30
0
41
1
10
292.43875825694
20
17.1178263247924
30
0
41
1
10
292.480823844107
20
17.1784765913208
30
0
41
1
10
292.556850686083
20
17.2541080783788
30
0
41
1
10
292.584416319433
20
17.2767454911568
30
0
41
1
10
292.644004410264
20
17.3123442481006
30
0
41
1
10
292.6759747606
20
17.3255523504925
30
0
41
1
10
292.709386233797
20
17.3280062477519
30
0
0
SPLINE
5
27B
100
AcDbEntity
8
1
62
256
6
ByLayer
370
18
48
1
60
0
100
AcDbSpline
70
4
71
3
72
16
73
12
40
0
40
0
40
0
40
0
40
0.124999999999993
40
0.124999999999993
40
0.249999999999986
40
0.249999999999986
40
0.499999999999991
40
0.499999999999991
40
0.749999999999995
40
0.749999999999995
40
1
40
1
40
1
40
1
41
1
10
292.379502703666
20
16.6379495245624
30
0
41
1
10
292.396405463267
20
16.6268624149935
30
0
41
1
10
292.410000714465
20
16.6115756625221
30
0
41
1
10
292.426130896
20
16.5750048085426
30
0
41
1
10
292.428585815199
20
16.5538799422285
30
0
41
1
10
292.422992630811
20
16.4917981182479
30
0
41
1
10
292.404253809444
20
16.4519011820772
30
0
41
1
10
292.356735821998
20
16.3791197368134
30
0
41
1
10
292.327451133537
20
16.3460373789861
30
0
41
1
10
292.263360629917
20
16.2858551293894
30
0
41
1
10
292.228317908498
20
16.258672044855
30
0
41
1
10
292.19139152639
20
16.2345941515932
30
0
0
SPLINE
5
27C
100
AcDbEntity
8
1
62
256
6
ByLayer
370
18
48
1
60
0
100
AcDbSpline
70
4
71
2
72
12
73
9
40
0
40
0
40
0
40
0.25
40
0.5
40
0.5
40
0.75
40
0.75
40
0.875
40
1
40
1
40
1
41
1
10
299.411419951386
20
-14.172412333676
30
0
41
1
10
299.459904071532
20
-14.1585737407435
30
0
41
1
10
299.545634050145
20
-14.1044122650717
30
0
41
1
10
299.579899577008
20
-14.0651588757821
30
0
41
1
10
299.612669916103
20
-14.0276183213122
30
0
41
1
10
299.634236610256
20
-13.9802265111277
30
0
41
1
10
299.644252554451
20
-13.958216938277
30
0
41
1
10
299.658535536264
20
-13.908829016242
30
0
41
1
10
299.661952578293
20
-13.882993496883
30
0
0
SPLINE
5
27D
100
AcDbEntity
8
1
62
256
6
ByLayer
370
18
48
1
60
0
100
AcDbSpline
70
4
71
1
72
4
73
2
40
0
40
0
40
1
40
1
41
1
10
300.990160650653
20
-7.20217893018051
30
0
41
1
10
300.974066489964
20
-7.10103221189453
30
0
0
SPLINE
5
27E
100
AcDbEntity
8
1
62
256
6
ByLayer
370
18
48
1
60
0
100
AcDbSpline
70
4
71
1
72
4
73
2
40
0
40
0
40
1
40
1
41
1
10
299.877532521919
20
-0.209662447692637
30
0
41
1
10
299.457189228937
20
0.0330388406830195
30
0
0
SPLINE
5
27F
100
AcDbEntity
8
1
62
256
6
ByLayer
370
18
48
1
60
0
100
AcDbSpline
70
4
71
3
72
12
73
8
40
0
40
0
40
0
40
0
40
0.5
40
0.5
40
0.75
40
0.75
40
1
40
1
40
1
40
1
41
1
10
299.464705210972
20
0.485084054896049
30
0
41
1
10
299.531820335443
20
0.476230503026272
30
0
41
1
10
299.596055297994
20
0.447337392883924
30
0
41
1
10
299.673063730664
20
0.381478418428514
30
0
41
1
10
299.695509450637
20
0.355733218661328
30
0
41
1
10
299.731901573905
20
0.298975902022704
30
0
41
1
10
299.745314905166
20
0.267867293466111
30
0
41
1
10
299.75546523273
20
0.235698375930554
30
0
0
SPLINE
5
280
100
AcDbEntity
8
1
62
256
6
ByLayer
370
18
48
1
60
0
100
AcDbSpline
70
4
71
2
72
12
73
9
40
0
40
0
40
0
40
0.25
40
0.5
40
0.5
40
0.75
40
0.75
40
0.875
40
1
40
1
40
1
41
1
10
299.420025499447
20
0.183581675536999
30
0
41
1
10
299.406122901711
20
0.231842584413499
30
0
41
1
10
299.351710924083
20
0.317177879221418
30
0
41
1
10
299.312275984158
20
0.351285654393109
30
0
41
1
10
299.274561801065
20
0.383905125354005
30
0
41
1
10
299.226950799281
20
0.405372530730062
30
0
41
1
10
299.204839430074
20
0.415342363507705
30
0
41
1
10
299.155223084225
20
0.429559589313499
30
0
41
1
10
299.129268073143
20
0.432960899963746
30
0
0
SPLINE
5
281
100
AcDbEntity
8
1
62
256
6
ByLayer
370
18
48
1
60
0
100
AcDbSpline
70
4
71
1
72
4
73
2
40
0
40
0
40
1
40
1
41
1
10
299.355543154056
20
-14.1883609834665
30
0
41
1
10
299.448710351007
20
-14.9420620374112
30
0
0
SPLINE
5
282
100
AcDbEntity
8
1
62
256
6
ByLayer
370
18
48
1
60
0
100
AcDbSpline
70
4
71
2
72
6
73
3
40
0
40
0
40
0
40
1
40
1
40
1
41
1
10
299.457189228937
20
0.0330388406829059
30
0
41
1
10
299.449534875589
20
0.0811440348851136
30
0
41
1
10
299.436047913187
20
0.127962124121751
30
0
0
SPLINE
5
283
100
AcDbEntity
8
1
62
256
6
ByLayer
370
18
48
1
60
0
100
AcDbSpline
70
4
71
2
72
6
73
3
40
0
40
0
40
0
40
1
40
1
40
1
41
1
10
299.260180841435
20
-14.2094049687702
30
0
41
1
10
299.308508526856
20
-14.201785854485
30
0
41
1
10
299.355543154056
20
-14.1883609834665
30
0
0
SPLINE
5
284
100
AcDbEntity
8
1
62
256
6
ByLayer
370
18
48
1
60
0
100
AcDbSpline
70
4
71
1
72
4
73
2
40
0
40
0
40
1
40
1
41
1
10
300.993165867309
20
-7.43069056803819
30
0
41
1
10
300.558963327387
20
-7.10088828881763
30
0
0
SPLINE
5
285
100
AcDbEntity
8
1
62
256
6
ByLayer
370
18
48
1
60
0
100
AcDbSpline
70
4
71
3
72
12
73
8
40
0
40
0
40
0
40
0
40
0.441018888021685
40
0.441018888021685
40
0.720346502438798
40
0.720346502438798
40
1
40
1
40
1
40
1
41
1
10
299.856297980557
20
-0.114685335565468
30
0
41
1
10
299.860257764334
20
-0.128430634545452
30
0
41
1
10
299.863846796015
20
-0.14228716649535
30
0
41
1
10
299.869091215472
20
-0.165054425305385
30
0
41
1
10
299.870974030465
20
-0.173919879956401
30
0
41
1
10
299.874436272861
20
-0.191717419184101
30
0
41
1
10
299.876015848609
20
-0.200652164320104
30
0
41
1
10
299.877441505489
20
-0.209609894419288
30
0
0
SPLINE
5
286
100
AcDbEntity
8
1
62
256
6
ByLayer
370
18
48
1
60
0
100
AcDbSpline
70
4
71
3
72
10
73
6
40
0
40
0
40
0
40
0
40
0.536274392310103
40
0.536274392310103
40
1
40
1
40
1
40
1
41
1
10
299.755386996153
20
0.235610859175722
30
0
41
1
10
299.773425304227
20
0.172992750689843
30
0
41
1
10
299.7914650113
20
0.110373905542303
30
0
41
1
10
299.825101826624
20
-0.006391398664789
30
0
41
1
10
299.84069904147
20
-0.0605379139927891
30
0
41
1
10
299.856297980991
20
-0.114685337075429
30
0
0
SPLINE
5
287
100
AcDbEntity
8
1
62
256
6
ByLayer
370
18
48
1
60
0
100
AcDbSpline
70
4
71
3
72
12
73
8
40
0
40
0
40
0
40
0
40
0.441018887728548
40
0.441018887728548
40
0.720346502287076
40
0.720346502287076
40
1
40
1
40
1
40
1
41
1
10
299.448710351137
20
-14.9420620373743
30
0
41
1
10
299.434901626342
20
-14.9460037379102
30
0
41
1
10
299.420981168988
20
-14.949576407994
30
0
41
1
10
299.398108971445
20
-14.9547970435079
30
0
41
1
10
299.389202677714
20
-14.9566713541295
30
0
41
1
10
299.371323227076
20
-14.9601180590894
30
0
41
1
10
299.362347397489
20
-14.9616906012735
30
0
41
1
10
299.353348528258
20
-14.9631099845862
30
0
0
SPLINE
5
288
100
AcDbEntity
8
1
62
256
6
ByLayer
370
18
48
1
60
0
100
AcDbSpline
70
4
71
3
72
12
73
8
40
0
40
0
40
0
40
0
40
0.500000000000139
40
0.500000000000139
40
0.750000000000069
40
0.750000000000069
40
1
40
1
40
1
40
1
41
1
10
300.051250855176
20
-14.5522692185738
30
0
41
1
10
300.042356361315
20
-14.6190753648197
30
0
41
1
10
300.013331276538
20
-14.6830162534447
30
0
41
1
10
299.947166936336
20
-14.7596693963233
30
0
41
1
10
299.921302936078
20
-14.7820120528924
30
0
41
1
10
299.864283768554
20
-14.8182372880981
30
0
41
1
10
299.833031534731
20
-14.8315891208641
30
0
41
1
10
299.800714090615
20
-14.8416929748569
30
0
0
SPLINE
5
289
100
AcDbEntity
8
1
62
256
6
ByLayer
370
18
48
1
60
0
100
AcDbSpline
70
4
71
1
72
4
73
2
40
0
40
0
40
1
40
1
41
1
10
299.800713127604
20
-14.8417646456208
30
0
41
1
10
299.411419951385
20
-14.1724123336754
30
0
0
SPLINE
5
28A
100
AcDbEntity
8
1
62
256
6
ByLayer
370
18
48
1
60
0
100
AcDbSpline
70
4
71
3
72
8
73
4
40
0
40
0
40
0
40
0
40
1
40
1
40
1
40
1
41
1
10
300.999943169459
20
-7.31632685826145
30
0
41
1
10
301.000415193707
20
-7.35221879129776
30
0
41
1
10
300.997984280179
20
-7.38799918155144
30
0
41
1
10
300.9941562894
20
-7.42371554685352
30
0
0
SPLINE
5
28B
100
AcDbEntity
8
1
62
256
6
ByLayer
370
18
48
1
60
0
100
AcDbSpline
70
4
71
1
72
4
73
2
40
0
40
0
40
1
40
1
41
1
10
300.051245754551
20
-14.5523458088201
30
0
41
1
10
300.886152639787
20
-8.2397945486083
30
0
0
SPLINE
5
28C
100
AcDbEntity
8
1
62
256
6
ByLayer
370
18
48
1
60
0
100
AcDbSpline
70
4
71
1
72
4
73
2
40
0
40
0
40
1
40
1
41
1
10
300.886152639787
20
-8.2397945486083
30
0
41
1
10
300.946471987073
20
-7.78373294646579
30
0
0
SPLINE
5
28D
100
AcDbEntity
8
1
62
256
6
ByLayer
370
18
48
1
60
0
100
AcDbSpline
70
4
71
3
72
10
73
6
40
0
40
0
40
0
40
0
40
0.538203305725447
40
0.538203305725447
40
1
40
1
40
1
40
1
41
1
10
299.802778063187
20
-14.8410008580798
30
0
41
1
10
299.739257791701
20
-14.8591305015018
30
0
41
1
10
299.675737985078
20
-14.8772630748497
30
0
41
1
10
299.557715364814
20
-14.9109498227687
30
0
41
1
10
299.503212609693
20
-14.9265043675102
30
0
41
1
10
299.448710351007
20
-14.9420620374113
30
0
0
SPLINE
5
28E
100
AcDbEntity
8
1
62
256
6
ByLayer
370
18
48
1
60
0
100
AcDbSpline
70
4
71
2
72
7
73
4
40
0
40
0
40
0
40
0.5
40
1
40
1
40
1
41
1
10
300.558963327387
20
-7.10088828881763
30
0
41
1
10
300.566455467084
20
-7.04424183306929
30
0
41
1
10
300.56502941804
20
-6.92938695303397
30
0
41
1
10
300.555958110762
20
-6.87237665095975
30
0
0
SPLINE
5
28F
100
AcDbEntity
8
1
62
256
6
ByLayer
370
18
48
1
60
0
100
AcDbSpline
70
4
71
1
72
4
73
2
40
0
40
0
40
1
40
1
41
1
10
299.661952578294
20
-13.8829934968827
30
0
41
1
10
300.051245754551
20
-14.5523458088203
30
0
0
SPLINE
5
290
100
AcDbEntity
8
1
62
256
6
ByLayer
370
18
48
1
60
0
100
AcDbSpline
70
4
71
3
72
8
73
4
40
0
40
0
40
0
40
0
40
1
40
1
40
1
40
1
41
1
10
300.991122535642
20
-7.20782894792379
30
0
41
1
10
300.99599570485
20
-7.24386320428596
30
0
41
1
10
300.999465411158
20
-7.27999891748397
30
0
41
1
10
300.999943169459
20
-7.31632685826145
30
0
0
SPLINE
5
291
100
AcDbEntity
8
1
62
256
6
ByLayer
370
18
48
1
60
0
100
AcDbSpline
70
4
71
1
72
4
73
2
40
0
40
0
40
1
40
1
41
1
10
300.9793290052
20
-7.53530810430365
30
0
41
1
10
300.993165867309
20
-7.43069056803836
30
0
0
SPLINE
5
292
100
AcDbEntity
8
1
62
256
6
ByLayer
370
18
48
1
60
0
100
AcDbSpline
70
4
71
1
72
4
73
2
40
0
40
0
40
1
40
1
41
1
10
299.436047913188
20
0.127962124121666
30
0
41
1
10
299.856297980991
20
-0.11468533707523
30
0
0
SPLINE
5
293
100
AcDbEntity
8
1
62
256
6
ByLayer
370
18
48
1
60
0
100
AcDbSpline
70
4
71
1
72
4
73
2
40
0
40
0
40
1
40
1
41
1
10
300.946471987073
20
-7.78373294646579
30
0
41
1
10
300.9793290052
20
-7.53530810430365
30
0
0
SPLINE
5
294
100
AcDbEntity
8
1
62
256
6
ByLayer
370
18
48
1
60
0
100
AcDbSpline
70
4
71
1
72
4
73
2
40
0
40
0
40
1
40
1
41
1
10
300.863960109569
20
-6.40904837663419
30
0
41
1
10
299.877532521919
20
-0.209662447692381
30
0
0
SPLINE
5
295
100
AcDbEntity
8
1
62
256
6
ByLayer
370
18
48
1
60
0
100
AcDbSpline
70
4
71
1
72
4
73
2
40
0
40
0
40
1
40
1
41
1
10
299.129268073142
20
0.432960899963774
30
0
41
1
10
299.464704534189
20
0.485001713839637
30
0
0
SPLINE
5
296
100
AcDbEntity
8
1
62
256
6
ByLayer
370
18
48
1
60
0
100
AcDbSpline
70
4
71
1
72
4
73
2
40
0
40
0
40
1
40
1
41
1
10
300.974066489964
20
-7.10103221189453
30
0
41
1
10
300.935251135533
20
-6.8570899650482
30
0
0
SPLINE
5
297
100
AcDbEntity
8
1
62
256
6
ByLayer
370
18
48
1
60
0
100
AcDbSpline
70
4
71
1
72
4
73
2
40
0
40
0
40
1
40
1
41
1
10
300.555958110762
20
-6.87237665095975
30
0
41
1
10
300.990160650654
20
-7.20217893018068
30
0
0
SPLINE
5
298
100
AcDbEntity
8
1
62
256
6
ByLayer
370
18
48
1
60
0
100
AcDbSpline
70
4
71
1
72
4
73
2
40
0
40
0
40
1
40
1
41
1
10
299.353368705928
20
-14.9632732183377
30
0
41
1
10
299.260180841435
20
-14.2094049687701
30
0
0
SPLINE
5
299
100
AcDbEntity
8
1
62
256
6
ByLayer
370
18
48
1
60
0
100
AcDbSpline
70
4
71
1
72
4
73
2
40
0
40
0
40
1
40
1
41
1
10
300.935251135533
20
-6.8570899650482
30
0
41
1
10
300.863960109569
20
-6.40904837663419
30
0
0
SPLINE
5
29A
100
AcDbEntity
8
1
62
256
6
ByLayer
370
18
48
1
60
0
100
AcDbSpline
70
4
71
1
72
4
73
2
40
0
40
0
40
1
40
1
41
1
10
299.755461960487
20
0.235622489411043
30
0
41
1
10
299.420025499447
20
0.183581675536999
30
0
0
SPLINE
5
29B
100
AcDbEntity
8
1
62
256
6
ByLayer
370
13
48
1
60
0
100
AcDbSpline
70
4
71
3
72
20
73
16
40
0
40
0
40
0
40
0
40
0.062499999999988
40
0.062499999999988
40
0.124999999999976
40
0.124999999999976
40
0.156249999999982
40
0.156249999999982
40
0.187499999999988
40
0.187499999999988
40
0.250000000000001
40
0.250000000000001
40
0.500000000000001
40
0.500000000000001
40
1
40
1
40
1
40
1
41
1
10
297.564734605263
20
24.501657327028
30
0
41
1
10
297.448506570562
20
24.4206337751971
30
0
41
1
10
297.32606487107
20
24.352507368941
30
0
41
1
10
297.069164927891
20
24.2411962172576
30
0
41
1
10
296.933057379848
20
24.1978542598653
30
0
41
1
10
296.728522236347
20
24.1545183233354
30
0
41
1
10
296.6600794437
20
24.143552836911
30
0
41
1
10
296.522676653961
20
24.128428608389
30
0
41
1
10
296.453639969231
20
24.1252791251164
30
0
41
1
10
296.246636586545
20
24.1144268094656
30
0
41
1
10
296.10863210436
20
24.1072212419053
30
0
41
1
10
295.418619370441
20
24.071066048528
30
0
41
1
10
294.866613176068
20
24.042089068627
30
0
41
1
10
293.21058386711
20
23.9553009998352
30
0
41
1
10
292.106563333235
20
23.8974612669543
30
0
41
1
10
291.002543820049
20
23.8396020559831
30
0
0
SPLINE
5
29C
100
AcDbEntity
8
1
62
256
6
ByLayer
370
13
48
1
60
0
100
AcDbSpline
70
4
71
2
72
6
73
3
40
0
40
0
40
0
40
1
40
1
40
1
41
1
10
281.452280732669
20
16.9471849695892
30
0
41
0.997409491337351
10
281.443870000502
20
17.0004414307572
30
0
41
1
10
281.443155184393
20
17.0543553705826
30
0
0
SPLINE
5
29D
100
AcDbEntity
8
1
62
256
6
ByLayer
370
13
48
1
60
0
100
AcDbSpline
70
4
71
3
72
12
73
8
40
0
40
0
40
0
40
0
40
0.250000000000118
40
0.250000000000118
40
0.500000000000236
40
0.500000000000236
40
1
40
1
40
1
40
1
41
1
10
299.062023229892
20
10.2957009074642
30
0
41
1
10
299.040256839814
20
10.2951152914977
30
0
41
1
10
299.019823381595
20
10.2954241909517
30
0
41
1
10
298.978475538296
20
10.2957192571588
30
0
41
1
10
298.957728239269
20
10.2958191854396
30
0
41
1
10
298.895562107812
20
10.2961681245204
30
0
41
1
10
298.854170097097
20
10.2964345334349
30
0
41
1
10
298.812751293586
20
10.2966835645495
30
0
0
SPLINE
5
29E
100
AcDbEntity
8
1
62
256
6
ByLayer
370
13
48
1
60
0
100
AcDbSpline
70
4
71
2
72
6
73
3
40
0
40
0
40
0
40
1
40
1
40
1
41
1
10
300.949929394373
20
18.2160933162394
30
0
41
0.997409491337351
10
300.949164511728
20
18.2737834499289
30
0
41
1
10
300.940164682284
20
18.330770054401
30
0
0
SPLINE
5
29F
100
AcDbEntity
8
1
62
256
6
ByLayer
370
13
48
1
60
0
100
AcDbSpline
70
4
71
3
72
8
73
4
40
0
40
0
40
0
40
0
40
1
40
1
40
1
40
1
41
1
10
282.897076176785
20
25.1734833548291
30
0
41
1
10
282.844833019434
20
25.1788186227
30
0
41
1
10
282.79254748621
20
25.1841596253769
30
0
41
1
10
282.740350021924
20
25.1894887097041
30
0
0
SPLINE
5
2A0
100
AcDbEntity
8
1
62
256
6
ByLayer
370
13
48
1
60
0
100
AcDbSpline
70
4
71
3
72
18
73
14
40
0
40
0
40
0
40
0
40
0.499999999999959
40
0.499999999999959
40
0.749999999999938
40
0.749999999999938
40
0.874999999999942
40
0.874999999999942
40
0.906249999999956
40
0.906249999999956
40
0.937499999999971
40
0.937499999999971
40
1
40
1
40
1
40
1
41
1
10
290.973627829447
20
24.0383611023295
30
0
41
1
10
289.972440317021
20
23.9858910881573
30
0
41
1
10
288.971252403043
20
23.933428736261
30
0
41
1
10
287.469471255256
20
23.8547214087633
30
0
41
1
10
286.968878671491
20
23.8284640322917
30
0
41
1
10
286.217987157722
20
23.7891283013403
30
0
41
1
10
285.967689768183
20
23.7760205576286
30
0
41
1
10
285.654820249579
20
23.7595935343869
30
0
41
1
10
285.592246899973
20
23.7563962735579
30
0
41
1
10
285.467092289897
20
23.7497202163563
30
0
41
1
10
285.404601397641
20
23.7481255986346
30
0
41
1
10
285.217674853499
20
23.754360179719
30
0
41
1
10
285.093474176284
20
23.7707185223784
30
0
41
1
10
284.970397504812
20
23.7994791409805
30
0
0
SPLINE
5
2A1
100
AcDbEntity
8
1
62
256
6
ByLayer
370
13
48
1
60
0
100
AcDbSpline
70
4
71
2
72
6
73
3
40
0
40
0
40
0
40
1
40
1
40
1
41
0.998835603708714
10
281.445564656397
20
17.1252265944443
30
0
41
0.998293048640331
10
281.442684590943
20
17.0898491802546
30
0
41
1
10
281.443155184393
20
17.0543553705826
30
0
0
SPLINE
5
2A2
100
AcDbEntity
8
1
62
256
6
ByLayer
370
13
48
1
60
0
100
AcDbSpline
70
4
71
3
72
20
73
16
40
0
40
0
40
0
40
0
40
0.0624999999999922
40
0.0624999999999922
40
0.124999999999984
40
0.124999999999984
40
0.156249999999981
40
0.156249999999981
40
0.187499999999977
40
0.187499999999977
40
0.249999999999969
40
0.249999999999969
40
0.499999999999988
40
0.499999999999988
40
1
40
1
40
1
40
1
41
1
10
285.089842251811
20
10.7845542586338
30
0
41
1
10
285.206070286511
20
10.8655778104648
30
0
41
1
10
285.328511986004
20
10.9337042167209
30
0
41
1
10
285.585411929183
20
11.0450153684042
30
0
41
1
10
285.721519477225
20
11.0883573257966
30
0
41
1
10
285.926054620727
20
11.1316932623264
30
0
41
1
10
285.994497413374
20
11.1426587487509
30
0
41
1
10
286.131900203112
20
11.1577829772728
30
0
41
1
10
286.200936887842
20
11.1609324605455
30
0
41
1
10
286.407940270529
20
11.1717847761962
30
0
41
1
10
286.545944752713
20
11.1789903437565
30
0
41
1
10
287.235957486632
20
11.2151455371339
30
0
41
1
10
287.787963681006
20
11.2441225170348
30
0
41
1
10
289.443992989964
20
11.3309105858266
30
0
41
1
10
290.548013523838
20
11.3887503187075
30
0
41
1
10
291.652033037024
20
11.4466095296787
30
0
0
SPLINE
5
2A3
100
AcDbEntity
8
1
62
256
6
ByLayer
370
13
48
1
60
0
100
AcDbSpline
70
4
71
3
72
8
73
4
40
0
40
0
40
0
40
0
40
1
40
1
40
1
40
1
41
1
10
298.333818721818
20
25.9824887509784
30
0
41
1
10
298.385217998335
20
25.9932556886478
30
0
41
1
10
298.436658819135
20
26.0040327591921
30
0
41
1
10
298.488013299255
20
26.0147887709662
30
0
0
SPLINE
5
2A4
100
AcDbEntity
8
1
62
256
6
ByLayer
370
13
48
1
60
0
100
AcDbSpline
70
4
71
1
72
4
73
2
40
0
40
0
40
1
40
1
41
1
10
283.086464128798
20
24.9499412057643
30
0
41
1
10
282.897076176785
20
25.1734833548292
30
0
0
SPLINE
5
2A5
100
AcDbEntity
8
1
62
256
6
ByLayer
370
13
48
1
60
0
100
AcDbSpline
70
4
71
3
72
24
73
20
40
0
40
0
40
0
40
0
40
0.0312499999999863
40
0.0312499999999863
40
0.0624999999999725
40
0.0624999999999725
40
0.124999999999946
40
0.124999999999946
40
0.156249999999932
40
0.156249999999932
40
0.171874999999938
40
0.171874999999938
40
0.187499999999944
40
0.187499999999944
40
0.249999999999942
40
0.249999999999942
40
0.499999999999962
40
0.499999999999962
40
1
40
1
40
1
40
1
41
1
10
297.432676705474
20
24.6650022358274
30
0
41
1
10
297.376937492917
20
24.6261459565377
30
0
41
1
10
297.318602396436
20
24.5899409149103
30
0
41
1
10
297.198542587485
20
24.5241331933542
30
0
41
1
10
297.137240685789
20
24.4947186524379
30
0
41
1
10
296.949626291258
20
24.4166486397476
30
0
41
1
10
296.819575120022
20
24.3780030411974
30
0
41
1
10
296.61712332651
20
24.3410093188007
30
0
41
1
10
296.549418369495
20
24.3324420318033
30
0
41
1
10
296.447547240282
20
24.3249331397242
30
0
41
1
10
296.413529593285
20
24.3234622286449
30
0
41
1
10
296.345531855416
20
24.3198808454816
30
0
41
1
10
296.311531899303
20
24.3181086679745
30
0
41
1
10
296.141533890673
20
24.3092176053098
30
0
41
1
10
296.005536063729
20
24.302094878763
30
0
41
1
10
295.325548475377
20
24.2664549121958
30
0
41
1
10
294.781560607793
20
24.2379054213632
30
0
41
1
10
293.149589751639
20
24.1523804704637
30
0
41
1
10
292.061608312742
20
24.0953797433622
30
0
41
1
10
290.973627829447
20
24.0383611023295
30
0
0
SPLINE
5
2A6
100
AcDbEntity
8
1
62
256
6
ByLayer
370
13
48
1
60
0
100
AcDbSpline
70
4
71
1
72
4
73
2
40
0
40
0
40
1
40
1
41
1
10
281.677514576083
20
16.9535078100518
30
0
41
1
10
281.452280732668
20
16.9471849695892
30
0
0
SPLINE
5
2A7
100
AcDbEntity
8
1
62
256
6
ByLayer
370
13
48
1
60
0
100
AcDbSpline
70
4
71
3
72
9
73
5
40
0
40
0
40
0
40
0
40
0.513495271760259
40
1
40
1
40
1
40
1
41
1
10
282.611235920454
20
25.1812401068494
30
0
41
1
10
282.633310610095
20
25.1830061835103
30
0
41
1
10
282.676364855249
20
25.1855427269032
30
0
41
1
10
282.719408567369
20
25.1882010374312
30
0
41
1
10
282.740350021926
20
25.1894887097025
30
0
0
SPLINE
5
2A8
100
AcDbEntity
8
1
62
256
6
ByLayer
370
13
48
1
60
0
100
AcDbSpline
70
4
71
1
72
4
73
2
40
0
40
0
40
1
40
1
41
1
10
282.78529775925
20
9.93906353714382
30
0
41
1
10
282.755266580128
20
9.93822049174824
30
0
0
SPLINE
5
2A9
100
AcDbEntity
8
1
62
256
6
ByLayer
370
13
48
1
60
0
100
AcDbSpline
70
4
71
3
72
12
73
8
40
0
40
0
40
0
40
0
40
0.25
40
0.25
40
0.5
40
0.5
40
1
40
1
40
1
40
1
41
1
10
282.812216260919
20
24.9496149297403
30
0
41
1
10
282.835750278049
20
24.9502931831151
30
0
41
1
10
282.858371628458
20
24.9500989462321
30
0
41
1
10
282.903943630179
20
24.9500252587873
30
0
41
1
10
282.926780881133
20
24.9500348602457
30
0
41
1
10
282.995239715841
20
24.950015707768
30
0
41
1
10
283.040842564287
20
24.949969979508
30
0
41
1
10
283.086464128798
20
24.9499412057643
30
0
0
SPLINE
5
2AA
100
AcDbEntity
8
1
62
256
6
ByLayer
370
13
48
1
60
0
100
AcDbSpline
70
4
71
2
72
6
73
3
40
0
40
0
40
0
40
1
40
1
40
1
41
1
10
281.433633523856
20
17.3029949097821
30
0
41
0.997409491337351
10
281.430835682606
20
17.2491510321724
30
0
41
1
10
281.435760323613
20
17.195457719921
30
0
0
SPLINE
5
2AB
100
AcDbEntity
8
1
62
256
6
ByLayer
370
13
48
1
60
0
100
AcDbSpline
70
4
71
2
72
6
73
3
40
0
40
0
40
0
40
1
40
1
40
1
41
1
10
281.449436262944
20
17.1617248598802
30
0
41
0.999116442697019
10
281.447054215958
20
17.1435236666492
30
0
41
0.998835603708713
10
281.445564656397
20
17.1252265944442
30
0
0
SPLINE
5
2AC
100
AcDbEntity
8
1
62
256
6
ByLayer
370
13
48
1
60
0
100
AcDbSpline
70
4
71
1
72
4
73
2
40
0
40
0
40
1
40
1
41
1
10
281.443155184393
20
17.0543553705826
30
0
41
1
10
281.667749863994
20
17.0681845482133
30
0
0
SPLINE
5
2AD
100
AcDbEntity
8
1
62
256
6
ByLayer
370
13
48
1
60
0
100
AcDbSpline
70
4
71
3
72
10
73
6
40
0
40
0
40
0
40
0
40
0.5
40
0.5
40
1
40
1
40
1
40
1
41
1
10
284.920872678488
20
10.4305668555704
30
0
41
1
10
284.917196037691
20
10.430374170991
30
0
41
1
10
284.896924840166
20
10.4302826983291
30
0
41
1
10
284.835824240236
20
10.4302872169245
30
0
41
1
10
284.794913050694
20
10.4303754076899
30
0
41
1
10
284.755715336686
20
10.4304992424592
30
0
0
SPLINE
5
2AE
100
AcDbEntity
8
1
62
256
6
ByLayer
370
13
48
1
60
0
100
AcDbSpline
70
4
71
1
72
4
73
2
40
0
40
0
40
1
40
1
41
1
10
281.674470876453
20
17.1830743190511
30
0
41
1
10
281.449436262944
20
17.1617248598802
30
0
0
SPLINE
5
2AF
100
AcDbEntity
8
1
62
256
6
ByLayer
370
13
48
1
60
0
100
AcDbSpline
70
4
71
3
72
24
73
20
40
0
40
0
40
0
40
0
40
0.0312500000000414
40
0.0312500000000414
40
0.0625000000000828
40
0.0625000000000828
40
0.125000000000166
40
0.125000000000166
40
0.156250000000195
40
0.156250000000195
40
0.17187500000021
40
0.17187500000021
40
0.187500000000224
40
0.187500000000224
40
0.250000000000207
40
0.250000000000207
40
0.500000000000138
40
0.500000000000138
40
1
40
1
40
1
40
1
41
1
10
285.185002552894
20
10.6192756286258
30
0
41
1
10
285.240741765451
20
10.6581319079155
30
0
41
1
10
285.299076861931
20
10.6943369495429
30
0
41
1
10
285.419136670882
20
10.760144671099
30
0
41
1
10
285.480438572579
20
10.7895592120152
30
0
41
1
10
285.66805296711
20
10.8676292247056
30
0
41
1
10
285.798104138347
20
10.9062748232557
30
0
41
1
10
286.000555931858
20
10.9432685456522
30
0
41
1
10
286.068260888874
20
10.9518358326496
30
0
41
1
10
286.170132018087
20
10.9593447247286
30
0
41
1
10
286.204149665083
20
10.960815635808
30
0
41
1
10
286.272147402953
20
10.9643970189712
30
0
41
1
10
286.306147359066
20
10.9661691964783
30
0
41
1
10
286.476145367696
20
10.9750602591431
30
0
41
1
10
286.61214319464
20
10.9821829856898
30
0
41
1
10
287.292130782992
20
11.0178229522571
30
0
41
1
10
287.836118650577
20
11.0463724430897
30
0
41
1
10
289.468089506732
20
11.1318973939893
30
0
41
1
10
290.556070945624
20
11.1888981210905
30
0
41
1
10
291.644051428919
20
11.2459167621233
30
0
0
SPLINE
5
2B0
100
AcDbEntity
8
1
62
256
6
ByLayer
370
13
48
1
60
0
100
AcDbSpline
70
4
71
3
72
9
73
5
40
0
40
0
40
0
40
0
40
0.513495271760048
40
1
40
1
40
1
40
1
41
1
10
298.617282313949
20
26.0200814534339
30
0
41
1
10
298.595143946488
20
26.0195304219567
30
0
41
1
10
298.552060416011
20
26.0175526758164
30
0
41
1
10
298.508974632735
20
26.0156971307599
30
0
41
1
10
298.488013299254
20
26.0147887709645
30
0
0
SPLINE
5
2B1
100
AcDbEntity
8
1
62
256
6
ByLayer
370
13
48
1
60
0
100
AcDbSpline
70
4
71
1
72
4
73
2
40
0
40
0
40
1
40
1
41
1
10
282.611235920454
20
25.1812401068494
30
0
41
1
10
282.812216260919
20
24.9496149297403
30
0
0
SPLINE
5
2B2
100
AcDbEntity
8
1
62
256
6
ByLayer
370
13
48
1
60
0
100
AcDbSpline
70
4
71
3
72
10
73
6
40
0
40
0
40
0
40
0
40
0.5
40
0.5
40
1
40
1
40
1
40
1
41
1
10
284.894949215285
20
10.3462828394563
30
0
41
1
10
284.891273613589
20
10.3460902093339
30
0
41
1
10
284.873977397777
20
10.3553974056543
30
0
41
1
10
284.822589639776
20
10.3867358386818
30
0
41
1
10
284.788397109555
20
10.4087681644331
30
0
41
1
10
284.755715336686
20
10.4304992424591
30
0
0
SPLINE
5
2B3
100
AcDbEntity
8
1
62
256
6
ByLayer
370
13
48
1
60
0
100
AcDbSpline
70
4
71
2
72
6
73
3
40
0
40
0
40
0
40
1
40
1
40
1
41
1
10
281.667749863994
20
17.0681845482133
30
0
41
0.997409491337352
10
281.666984981349
20
17.1258746819018
30
0
41
1
10
281.674470876453
20
17.1830743190511
30
0
0
SPLINE
5
2B4
100
AcDbEntity
8
1
62
256
6
ByLayer
370
13
48
1
60
0
100
AcDbSpline
70
4
71
2
72
6
73
3
40
0
40
0
40
0
40
1
40
1
40
1
41
0.998835603708711
10
281.445564656397
20
17.1252265944451
30
0
41
0.998293048640335
10
281.439002421504
20
17.1601091586422
30
0
41
1
10
281.435760323613
20
17.195457719921
30
0
0
SPLINE
5
2B5
100
AcDbEntity
8
1
62
256
6
ByLayer
370
13
48
1
60
0
100
AcDbSpline
70
4
71
3
72
8
73
4
40
0
40
0
40
0
40
0
40
1
40
1
40
1
40
1
41
1
10
299.257101456474
20
10.3005458463004
30
0
41
1
10
299.190258317072
20
10.2973240873371
30
0
41
1
10
299.125349328788
20
10.2960064161634
30
0
41
1
10
299.062023229892
20
10.2957009074642
30
0
0
SPLINE
5
2B6
100
AcDbEntity
8
1
62
256
6
ByLayer
370
13
48
1
60
0
100
AcDbSpline
70
4
71
3
72
18
73
14
40
0
40
0
40
0
40
0
40
0.500000000000068
40
0.500000000000068
40
0.750000000000088
40
0.750000000000088
40
0.875000000000085
40
0.875000000000085
40
0.906250000000064
40
0.906250000000064
40
0.937500000000043
40
0.937500000000043
40
1
40
1
40
1
40
1
41
1
10
291.002543820049
20
23.8396020559831
30
0
41
1
10
289.993198177651
20
23.786704492336
30
0
41
1
10
288.983852212611
20
23.7338149319231
30
0
41
1
10
287.469833700358
20
23.6544657029313
30
0
41
1
10
286.965161596704
20
23.6279930647911
30
0
41
1
10
286.208151630987
20
23.5883405912107
30
0
41
1
10
285.955815901455
20
23.575094215752
30
0
41
1
10
285.640395221315
20
23.5585680174975
30
0
41
1
10
285.577326981255
20
23.5547667864152
30
0
41
1
10
285.451120360573
20
23.5493528740099
30
0
41
1
10
285.387926458573
20
23.5494725896449
30
0
41
1
10
285.198067194268
20
23.5584922053834
30
0
41
1
10
285.071129232942
20
23.575897833075
30
0
41
1
10
284.943795474741
20
23.6056532498489
30
0
0
SPLINE
5
2B7
100
AcDbEntity
8
1
62
256
6
ByLayer
370
13
48
1
60
0
100
AcDbSpline
70
4
71
2
72
6
73
3
40
0
40
0
40
0
40
1
40
1
40
1
41
1
10
300.949929394373
20
18.2160933162394
30
0
41
0.997409491337352
10
300.950694277017
20
18.1584031825509
30
0
41
1
10
300.943208381914
20
18.1012035454017
30
0
0
SPLINE
5
2B8
100
AcDbEntity
8
1
62
256
6
ByLayer
370
13
48
1
60
0
100
AcDbSpline
70
4
71
2
72
6
73
3
40
0
40
0
40
0
40
1
40
1
40
1
41
1
10
281.667749863994
20
17.0681845482133
30
0
41
0.997409491337351
10
281.668514746639
20
17.0104944145239
30
0
41
1
10
281.677514576083
20
16.9535078100518
30
0
0
SPLINE
5
2B9
100
AcDbEntity
8
1
62
256
6
ByLayer
370
13
48
1
60
0
100
AcDbSpline
70
4
71
3
72
18
73
14
40
0
40
0
40
0
40
0
40
0.499999999999987
40
0.499999999999987
40
0.74999999999998
40
0.74999999999998
40
0.87499999999999
40
0.87499999999999
40
0.906249999999992
40
0.906249999999992
40
0.937499999999995
40
0.937499999999995
40
1
40
1
40
1
40
1
41
1
10
291.652033037024
20
11.4466095296787
30
0
41
1
10
292.661378679423
20
11.4995070933258
30
0
41
1
10
293.670724644462
20
11.5523966537387
30
0
41
1
10
295.184743156715
20
11.6317458827305
30
0
41
1
10
295.689415260369
20
11.6582185208707
30
0
41
1
10
296.446425226087
20
11.6978709944511
30
0
41
1
10
296.698760955618
20
11.7111173699098
30
0
41
1
10
297.014181635759
20
11.7276435681643
30
0
41
1
10
297.077249875818
20
11.7314447992466
30
0
41
1
10
297.2034564965
20
11.736858711652
30
0
41
1
10
297.266650398501
20
11.7367389960169
30
0
41
1
10
297.456509662806
20
11.7277193802784
30
0
41
1
10
297.583447624131
20
11.7103137525868
30
0
41
1
10
297.710781382333
20
11.6805583358129
30
0
0
SPLINE
5
2BA
100
AcDbEntity
8
1
62
256
6
ByLayer
370
13
48
1
60
0
100
AcDbSpline
70
4
71
3
72
22
73
18
40
0
40
0
40
0
40
0
40
0.125
40
0.125
40
0.25
40
0.25
40
0.375
40
0.375
40
0.5
40
0.5
40
0.625
40
0.625
40
0.75
40
0.75
40
0.875
40
0.875
40
1
40
1
40
1
40
1
41
1
10
299.832381499116
20
25.3452143273089
30
0
41
1
10
299.823722805412
20
25.4018437342697
30
0
41
1
10
299.809613252836
20
25.4565599710462
30
0
41
1
10
299.769352918802
20
25.5617661528124
30
0
41
1
10
299.743113707508
20
25.6129730647283
30
0
41
1
10
299.680615312498
20
25.7078205538642
30
0
41
1
10
299.644870287778
20
25.7514760123047
30
0
41
1
10
299.563875515224
20
25.8308203160227
30
0
41
1
10
299.518643391064
20
25.8664359572188
30
0
41
1
10
299.423327506443
20
25.9265332449377
30
0
41
1
10
299.372605223137
20
25.9514960613496
30
0
41
1
10
299.265296634571
20
25.9905979675688
30
0
41
1
10
299.210574939983
20
26.0043189496545
30
0
41
1
10
299.099023469467
20
26.0202469081976
30
0
41
1
10
299.04185540394
20
26.0206839670429
30
0
41
1
10
298.927897041924
20
26.0226026819523
30
0
41
1
10
298.870918627441
20
26.0229650040464
30
0
41
1
10
298.813940881607
20
26.0228065259135
30
0
0
SPLINE
5
2BB
100
AcDbEntity
8
1
62
256
6
ByLayer
370
13
48
1
60
0
100
AcDbSpline
70
4
71
3
72
8
73
4
40
0
40
0
40
0
40
0
40
1
40
1
40
1
40
1
41
1
10
298.813940881607
20
26.0228065259135
30
0
41
1
10
298.748387093586
20
26.0226241943422
30
0
41
1
10
298.682834259759
20
26.0216986562078
30
0
41
1
10
298.617282313949
20
26.0200814534339
30
0
0
SPLINE
5
2BC
100
AcDbEntity
8
1
62
256
6
ByLayer
370
13
48
1
60
0
100
AcDbSpline
70
4
71
3
72
9
73
5
40
0
40
0
40
0
40
0
40
0.513495271760225
40
1
40
1
40
1
40
1
41
1
10
284.000396944418
20
9.26419641101887
30
0
41
1
10
284.022535311879
20
9.26474744249597
30
0
41
1
10
284.065618842356
20
9.26672518863631
30
0
41
1
10
284.108704625632
20
9.26858073369283
30
0
41
1
10
284.129665959113
20
9.26948909348826
30
0
0
SPLINE
5
2BD
100
AcDbEntity
8
1
62
256
6
ByLayer
370
13
48
1
60
0
100
AcDbSpline
70
4
71
3
72
22
73
18
40
0
40
0
40
0
40
0
40
0.125000000000053
40
0.125000000000053
40
0.250000000000105
40
0.250000000000105
40
0.375000000000157
40
0.375000000000157
40
0.50000000000021
40
0.50000000000021
40
0.625000000000263
40
0.625000000000263
40
0.687500000000236
40
0.687500000000236
40
0.75000000000021
40
0.75000000000021
40
1
40
1
40
1
40
1
41
1
10
282.78529775925
20
9.93906353714382
30
0
41
1
10
282.795201698277
20
9.87429000284612
30
0
41
1
10
282.812318017319
20
9.81204790638782
30
0
41
1
10
282.862159481661
20
9.69304217873923
30
0
41
1
10
282.895182632014
20
9.63565026920855
30
0
41
1
10
282.972634385725
20
9.53216220475619
30
0
41
1
10
283.017721445689
20
9.48515538527809
30
0
41
1
10
283.118923289096
20
9.40296798893067
30
0
41
1
10
283.173454745559
20
9.3686316344286
30
0
41
1
10
283.290396355781
20
9.31350391830529
30
0
41
1
10
283.353008430358
20
9.29290833983023
30
0
41
1
10
283.447682786985
20
9.27366628900796
30
0
41
1
10
283.479590878702
20
9.26916376807424
30
0
41
1
10
283.544098935601
20
9.26393762943999
30
0
41
1
10
283.576778362978
20
9.26362627187896
30
0
41
1
10
283.739712603733
20
9.26071667551946
30
0
41
1
10
283.870056668703
20
9.26098084429793
30
0
41
1
10
284.000396944418
20
9.2641964110189
30
0
0
SPLINE
5
2BE
100
AcDbEntity
8
1
62
256
6
ByLayer
370
13
48
1
60
0
100
AcDbSpline
70
4
71
3
72
26
73
22
40
0
40
0
40
0
40
0
40
0.250000000000376
40
0.250000000000376
40
0.37500000000048
40
0.37500000000048
40
0.500000000000584
40
0.500000000000584
40
0.625000000000688
40
0.625000000000688
40
0.687500000000741
40
0.687500000000741
40
0.718750000000767
40
0.718750000000767
40
0.750000000000792
40
0.750000000000792
40
0.812500000000645
40
0.812500000000645
40
0.875000000000497
40
0.875000000000497
40
1
40
1
40
1
40
1
41
1
10
299.916158767461
20
10.4470869293941
30
0
41
1
10
299.878953800937
20
10.425964138354
30
0
41
1
10
299.837316701717
20
10.4049480253572
30
0
41
1
10
299.763538804947
20
10.3750065643182
30
0
41
1
10
299.737464535297
20
10.3654805945818
30
0
41
1
10
299.680918707226
20
10.3477775976544
30
0
41
1
10
299.650540920248
20
10.3396380629137
30
0
41
1
10
299.58795099653
20
10.3264844941157
30
0
41
1
10
299.556160712593
20
10.3217382144936
30
0
41
1
10
299.510600920775
20
10.3177892661976
30
0
41
1
10
299.495729706954
20
10.3169022865474
30
0
41
1
10
299.473778572275
20
10.3157857175755
30
0
41
1
10
299.466466216565
20
10.3154176390482
30
0
41
1
10
299.452137332758
20
10.3149408422065
30
0
41
1
10
299.445117974334
20
10.3148353828731
30
0
41
1
10
299.422825730756
20
10.3133734200483
30
0
41
1
10
299.40637577707
20
10.3109101779459
30
0
41
1
10
299.375679333172
20
10.308048637388
30
0
41
1
10
299.360840085431
20
10.3070948448729
30
0
41
1
10
299.315917310782
20
10.3038538980265
30
0
41
1
10
299.286243223906
20
10.3019504444576
30
0
41
1
10
299.257101456474
20
10.3005458463004
30
0
0
SPLINE
5
2BF
100
AcDbEntity
8
1
62
256
6
ByLayer
370
13
48
1
60
0
100
AcDbSpline
70
4
71
3
72
18
73
14
40
0
40
0
40
0
40
0
40
0.499999999999959
40
0.499999999999959
40
0.749999999999938
40
0.749999999999938
40
0.874999999999942
40
0.874999999999942
40
0.906249999999956
40
0.906249999999956
40
0.937499999999971
40
0.937499999999971
40
1
40
1
40
1
40
1
41
1
10
291.64405142892
20
11.2459167621232
30
0
41
1
10
292.645238941346
20
11.2983867762954
30
0
41
1
10
293.646426855324
20
11.3508491281917
30
0
41
1
10
295.14820800311
20
11.4295564556894
30
0
41
1
10
295.648800586876
20
11.4558138321611
30
0
41
1
10
296.399692100645
20
11.4951495631125
30
0
41
1
10
296.649989490183
20
11.5082573068241
30
0
41
1
10
296.962859008788
20
11.5246843300658
30
0
41
1
10
297.025432358394
20
11.5278815908948
30
0
41
1
10
297.15058696847
20
11.5345576480965
30
0
41
1
10
297.213077860726
20
11.5361522658181
30
0
41
1
10
297.400004404868
20
11.5299176847337
30
0
41
1
10
297.524205082082
20
11.5135593420744
30
0
41
1
10
297.647281753555
20
11.4847987234722
30
0
0
SPLINE
5
2C0
100
AcDbEntity
8
SK1
62
256
6
ByLayer
370
13
48
1
60
0
100
AcDbSpline
70
4
71
3
72
8
73
4
40
0
40
0
40
0
40
0
40
1
40
1
40
1
40
1
41
1
10
-78.5162221138915
20
-10.4258292340309
30
0
41
1
10
-78.5439104435588
20
-10.5074660802026
30
0
41
1
10
-78.5718376779285
20
-10.5890166857158
30
0
41
1
10
-78.5999993841625
20
-10.6704826507519
30
0
0
SPLINE
5
2C1
100
AcDbEntity
8
SK1
62
256
6
ByLayer
370
13
48
1
60
0
100
AcDbSpline
70
4
71
3
72
8
73
4
40
0
40
0
40
0
40
0
40
1
40
1
40
1
40
1
41
1
10
-77.6338131992799
20
9.80675144594619
30
0
41
1
10
-77.2939543866941
20
10.101073698597
30
0
41
1
10
-76.9490850005699
20
10.3886250228495
30
0
41
1
10
-76.6000022063887
20
10.6704826507521
30
0
0
SPLINE
5
2C2
100
AcDbEntity
8
SK1
62
256
6
ByLayer
370
13
48
1
60
0
100
AcDbSpline
70
4
71
3
72
10
73
6
40
0
40
0
40
0
40
0
40
0.5
40
0.5
40
1
40
1
40
1
40
1
41
1
10
-80
20
8.0540176309716
30
0
41
1
10
-79.85176739512
20
8.49565927489135
30
0
41
1
10
-79.6935189817436
20
8.93491944720282
30
0
41
1
10
-79.3587118244384
20
9.80908612108971
30
0
41
1
10
-79.1828143207057
20
10.2422333475178
30
0
41
1
10
-79
20
10.6704826507521
30
0
0
SPLINE
5
2C3
100
AcDbEntity
8
SK1
62
256
6
ByLayer
370
13
48
1
60
0
100
AcDbSpline
70
4
71
3
72
18
73
14
40
0
40
0
40
0
40
0
40
0.124999999999994
40
0.124999999999994
40
0.249999999999988
40
0.249999999999988
40
0.374999999999981
40
0.374999999999981
40
0.499999999999975
40
0.499999999999975
40
0.749999999999988
40
0.749999999999988
40
1
40
1
40
1
40
1
41
1
10
-77.6338131992802
20
-9.80675144594582
30
0
41
1
10
-77.6747633651724
20
-9.77128805754603
30
0
41
1
10
-77.7208435774768
20
-9.74055738411698
30
0
41
1
10
-77.8223424340443
20
-9.70060949890774
30
0
41
1
10
-77.877225313581
20
-9.69229190808377
30
0
41
1
10
-77.9860246497556
20
-9.7051085468637
30
0
41
1
10
-78.0378757025226
20
-9.72573581195073
30
0
41
1
10
-78.1301404068999
20
-9.78251362708681
30
0
41
1
10
-78.1717204994047
20
-9.81892837813635
30
0
41
1
10
-78.2826414870913
20
-9.93741839107241
30
0
41
1
10
-78.3411195831128
20
-10.0300646017818
30
0
41
1
10
-78.4407354299096
20
-10.2228684878255
30
0
41
1
10
-78.4816839215995
20
-10.3239961106508
30
0
41
1
10
-78.5162221138915
20
-10.4258292340309
30
0
0
SPLINE
5
2C4
100
AcDbEntity
8
SK1
62
256
6
ByLayer
370
13
48
1
60
0
100
AcDbSpline
70
4
71
3
72
74
73
70
40
0
40
0
40
0
40
0
40
0.0156249999999999
40
0.0156249999999999
40
0.0234374999999999
40
0.0234374999999999
40
0.0312499999999998
40
0.0312499999999998
40
0.0468749999999997
40
0.0468749999999997
40
0.0624999999999996
40
0.0624999999999996
40
0.0781249999999995
40
0.0781249999999995
40
0.0937499999999994
40
0.0937499999999994
40
0.124999999999999
40
0.124999999999999
40
0.140624999999999
40
0.140624999999999
40
0.156249999999999
40
0.156249999999999
40
0.187499999999999
40
0.187499999999999
40
0.249999999999999
40
0.249999999999999
40
0.281249999999999
40
0.281249999999999
40
0.312499999999999
40
0.312499999999999
40
0.374999999999999
40
0.374999999999999
40
0.437499999999999
40
0.437499999999999
40
0.499999999999999
40
0.499999999999999
40
0.562499999999999
40
0.562499999999999
40
0.593749999999999
40
0.593749999999999
40
0.624999999999999
40
0.624999999999999
40
0.687499999999999
40
0.687499999999999
40
0.749999999999999
40
0.749999999999999
40
0.781249999999999
40
0.781249999999999
40
0.812499999999999
40
0.812499999999999
40
0.84375
40
0.84375
40
0.875
40
0.875
40
0.90625
40
0.90625
40
0.9375
40
0.9375
40
0.9453125
40
0.9453125
40
0.953125
40
0.953125
40
0.96875
40
0.96875
40
0.984375
40
0.984375
40
0.9921875
40
0.9921875
40
1
40
1
40
1
40
1
41
1
10
-6.50000000009537
20
10.670482650752
30
0
41
1
10
-6.37048388891068
20
10.6704826507608
30
0
41
1
10
-6.24446776465052
20
10.6528697557375
30
0
41
1
10
-6.06010517952292
20
10.6029156441243
30
0
41
1
10
-5.99927461449792
20
10.5821925812253
30
0
41
1
10
-5.88223506583904
20
10.5345394314587
30
0
41
1
10
-5.82559748012396
20
10.5075199899682
30
0
41
1
10
-5.66065779452136
20
10.417975973631
30
0
41
1
10
-5.55712762892128
20
10.3466184036529
30
0
41
1
10
-5.36736536971405
20
10.1913586531549
30
0
41
1
10
-5.27997153671004
20
10.1068512703449
30
0
41
1
10
-5.11666218977227
20
9.92704332772249
30
0
41
1
10
-5.04055810401205
20
9.83130794393438
30
0
41
1
10
-4.90046448763793
20
9.63491798753748
30
0
41
1
10
-4.83603834410378
20
9.53382715843213
30
0
41
1
10
-4.65598112089407
20
9.22347109153861
30
0
41
1
10
-4.55339976152399
20
9.00719880738419
30
0
41
1
10
-4.41750582616754
20
8.67228763084432
30
0
41
1
10
-4.37530268897782
20
8.55891791867154
30
0
41
1
10
-4.29686000058592
20
8.33134323345735
30
0
41
1
10
-4.26049265592715
20
8.21682554312125
30
0
41
1
10
-4.1585724311424
20
7.87130398108656
30
0
41
1
10
-4.10013853486055
20
7.63834185023578
30
0
41
1
10
-3.94578977994675
20
6.93282891322849
30
0
41
1
10
-3.87048459563749
20
6.45370790232082
30
0
41
1
10
-3.78175631324949
20
5.72457369042985
30
0
41
1
10
-3.75634074966133
20
5.47976683985843
30
0
41
1
10
-3.7120067271199
20
4.98691048522593
30
0
41
1
10
-3.69308648223611
20
4.73862820397792
30
0
41
1
10
-3.64424139462162
20
3.99444565639502
30
0
41
1
10
-3.62191393829291
20
3.49753056604814
30
0
41
1
10
-3.58913059568964
20
2.50225576491911
30
0
41
1
10
-3.57872244966512
20
2.00389538867495
30
0
41
1
10
-3.56529013292472
20
1.00580199142325
30
0
41
1
10
-3.56228022077386
20
0.506068785393097
30
0
41
1
10
-3.56223334097642
20
-0.494754197166372
30
0
41
1
10
-3.56519357916225
20
-0.995843898846687
30
0
41
1
10
-3.57526735092097
20
-1.74852495498422
30
0
41
1
10
-3.57958751937886
20
-1.99959349362723
30
0
41
1
10
-3.59064705878916
20
-2.50209075145548
30
0
41
1
10
-3.59739709579894
20
-2.75385038007658
30
0
41
1
10
-3.62227132036486
20
-3.50710000839359
30
0
41
1
10
-3.64484459181701
20
-4.00580366741292
30
0
41
1
10
-3.71010606722081
20
-4.99571816607528
30
0
41
1
10
-3.75268745857275
20
-5.48693664959626
30
0
41
1
10
-3.84180186701059
20
-6.21737273914593
30
0
41
1
10
-3.87576317934641
20
-6.45978205407948
30
0
41
1
10
-3.95487127334194
20
-6.94225537606115
30
0
41
1
10
-3.99994180570394
20
-7.18182085753699
30
0
41
1
10
-4.10416683371689
20
-7.65518824089065
30
0
41
1
10
-4.16332953330694
20
-7.88926779084468
30
0
41
1
10
-4.30073575990994
20
-8.35126379883343
30
0
41
1
10
-4.37869000461005
20
-8.57819056735369
30
0
41
1
10
-4.55882768232694
20
-9.01890405609001
30
0
41
1
10
-4.66096064418579
20
-9.23316248710555
30
0
41
1
10
-4.9012460930548
20
-9.6450662502447
30
0
41
1
10
-5.04044720826909
20
-9.84412891865716
30
0
41
1
10
-5.24436673816899
20
-10.0673788314332
30
0
41
1
10
-5.28672193295479
20
-10.1108128419076
30
0
41
1
10
-5.37506018490618
20
-10.1949099292502
30
0
41
1
10
-5.42113974977889
20
-10.2356293471388
30
0
41
1
10
-5.56352602684599
20
-10.3512474104622
30
0
41
1
10
-5.66447995477702
20
-10.4202823836625
30
0
41
1
10
-5.88197798496884
20
-10.5378913469096
30
0
41
1
10
-6.00024980803649
20
-10.5867345345007
30
0
41
1
10
-6.18283559041274
20
-10.6361515407661
30
0
41
1
10
-6.24478714200797
20
-10.6488401790656
30
0
41
1
10
-6.37105473569075
20
-10.6660269221224
30
0
41
1
10
-6.43557318110055
20
-10.6704826507564
30
0
41
1
10
-6.50000000009538
20
-10.6704826507521
30
0
0
SPLINE
5
2C5
100
AcDbEntity
8
SK1
62
256
6
ByLayer
370
13
48
1
60
0
100
AcDbSpline
70
4
71
3
72
8
73
4
40
0
40
0
40
0
40
0
40
1
40
1
40
1
40
1
41
1
10
-76.6000022063887
20
-10.6704826507519
30
0
41
1
10
-76.9486457469478
20
-10.3889796865166
30
0
41
1
10
-77.2935001928291
20
-10.1014670365259
30
0
41
1
10
-77.6338131992803
20
-9.80675144594593
30
0
0
SPLINE
5
2C6
100
AcDbEntity
8
SK1
62
256
6
ByLayer
370
13
48
1
60
0
100
AcDbSpline
70
4
71
3
72
8
73
4
40
0
40
0
40
0
40
0
40
1
40
1
40
1
40
1
41
1
10
-79
20
-10.6704826507519
30
0
41
1
10
-79.3663118043068
20
-9.81238370995035
30
0
41
1
10
-79.7021882940637
20
-8.9413126460914
30
0
41
1
10
-80
20
-8.05401763097143
30
0
0
SPLINE
5
2C7
100
AcDbEntity
8
SK1
62
256
6
ByLayer
370
13
48
1
60
0
100
AcDbSpline
70
4
71
3
72
22
73
18
40
0
40
0
40
0
40
0
40
0.250000000000013
40
0.250000000000013
40
0.375000000000011
40
0.375000000000011
40
0.500000000000009
40
0.500000000000009
40
0.625000000000006
40
0.625000000000006
40
0.687500000000005
40
0.687500000000005
40
0.750000000000004
40
0.750000000000004
40
0.875000000000002
40
0.875000000000002
40
1
40
1
40
1
40
1
41
1
10
-78.5162221138982
20
10.4258292340508
30
0
41
1
10
-78.4816010925007
20
10.3237518956136
30
0
41
1
10
-78.4411780188043
20
10.2239013321123
30
0
41
1
10
-78.3666785250411
20
10.0794467030181
30
0
41
1
10
-78.3393689035363
20
10.0320610579929
30
0
41
1
10
-78.2793566754053
20
9.94200016242738
30
0
41
1
10
-78.2466129799402
20
9.89906478118272
30
0
41
1
10
-78.1725895963645
20
9.81972659981167
30
0
41
1
10
-78.1310790894698
20
9.78319125007499
30
0
41
1
10
-78.0614135112523
20
9.74017151629329
30
0
41
1
10
-78.0367084860757
20
9.72773410304424
30
0
41
1
10
-77.9859900462305
20
9.70877612675764
30
0
41
1
10
-77.9597650984162
20
9.7020911495909
30
0
41
1
10
-77.8779326920127
20
9.69222679373803
30
0
41
1
10
-77.8229289559465
20
9.7004005561752
30
0
41
1
10
-77.720518632779
20
9.74066343125068
30
0
41
1
10
-77.6749703009745
20
9.77110884838677
30
0
41
1
10
-77.6338131992791
20
9.806751445945
30
0
0
SPLINE
5
2C8
100
AcDbEntity
8
SK1
62
256
6
ByLayer
370
13
48
1
60
0
100
AcDbSpline
70
4
71
3
72
8
73
4
40
0
40
0
40
0
40
0
40
1
40
1
40
1
40
1
41
1
10
-78.5999993841624
20
10.6704826507521
30
0
41
1
10
-78.571842816211
20
10.5890315497
30
0
41
1
10
-78.5439155289718
20
10.5074810741399
30
0
41
1
10
-78.5162221138982
20
10.4258292340508
30
0
0
SPLINE
5
2C9
100
AcDbEntity
8
1
62
256
6
ByLayer
370
13
48
1
60
0
100
AcDbSpline
70
4
71
3
72
14
73
10
40
0
40
0
40
0
40
0
40
0.249999999999997
40
0.249999999999997
40
0.374999999999996
40
0.374999999999996
40
0.499999999999995
40
0.499999999999995
40
1
40
1
40
1
40
1
41
1
10
30.6806569777947
20
-9.90707102352027
30
0
41
1
10
30.955173633729
20
-9.77053538018771
30
0
41
1
10
31.2369486327547
20
-9.64985491676313
30
0
41
1
10
31.6705844402854
20
-9.49285537952932
30
0
41
1
10
31.8169630431315
20
-9.44453532411728
30
0
41
1
10
32.1134571870003
20
-9.35608219625715
30
0
41
1
10
32.2635938869101
20
-9.31597908029983
30
0
41
1
10
33.0150196342447
20
-9.13830057557473
30
0
41
1
10
33.625317416112
20
-9.06616120517029
30
0
41
1
10
34.24499800621
20
-9.06483394516945
30
0
0
SPLINE
5
2CA
100
AcDbEntity
8
1
62
256
6
ByLayer
370
13
48
1
60
0
100
AcDbSpline
70
4
71
3
72
18
73
14
40
0
40
0
40
0
40
0
40
0.249999999999981
40
0.249999999999981
40
0.374999999999972
40
0.374999999999972
40
0.499999999999962
40
0.499999999999962
40
0.749999999999944
40
0.749999999999944
40
0.874999999999972
40
0.874999999999972
40
1
40
1
40
1
40
1
41
1
10
299.119877737142
20
10.1669332793228
30
0
41
1
10
298.97596081409
20
10.1874584213541
30
0
41
1
10
298.836572107477
20
10.2186547055211
30
0
41
1
10
298.630908302945
20
10.2816345035816
30
0
41
1
10
298.562711914033
20
10.3054665423064
30
0
41
1
10
298.428888093112
20
10.3583096233209
30
0
41
1
10
298.363214857083
20
10.3873085626723
30
0
41
1
10
298.169664050664
20
10.4823022363968
30
0
41
1
10
298.04522073895
20
10.5561591074875
30
0
41
1
10
297.865285996695
20
10.6857173468308
30
0
41
1
10
297.806161446636
20
10.7323416487973
30
0
41
1
10
297.692947288089
20
10.8304633951449
30
0
41
1
10
297.638591699969
20
10.8821120952746
30
0
41
1
10
297.586596423833
20
10.9365014940775
30
0
0
SPLINE
5
2CB
100
AcDbEntity
8
1
62
256
6
ByLayer
370
13
48
1
60
0
100
AcDbSpline
70
4
71
3
72
8
73
4
40
0
40
0
40
0
40
0
40
1
40
1
40
1
40
1
41
1
10
285.929956732343
20
9.79760546295392
30
0
41
1
10
285.951391865019
20
9.82093221867123
30
0
41
1
10
285.972435739482
20
9.84468441280362
30
0
41
1
10
285.993058048494
20
9.86883371819332
30
0
0
SPLINE
5
2CC
100
AcDbEntity
8
1
62
256
6
ByLayer
370
13
48
1
60
0
100
AcDbSpline
70
4
71
3
72
8
73
4
40
0
40
0
40
0
40
0
40
1
40
1
40
1
40
1
41
1
10
280.738859269485
20
8.71526590071522
30
0
41
1
10
280.735387084791
20
8.71617151150298
30
0
41
1
10
280.731925494014
20
8.71711102312256
30
0
41
1
10
280.72847479077
20
8.71808437316085
30
0
0
SPLINE
5
2CD
100
AcDbEntity
8
1
62
256
6
ByLayer
370
13
48
1
60
0
100
AcDbSpline
70
4
71
3
72
8
73
4
40
0
40
0
40
0
40
0
40
1
40
1
40
1
40
1
41
1
10
36
20
-25.2555536544275
30
0
41
1
10
35.4140459070889
20
-25.2555569650083
30
0
41
1
10
34.8290470636515
20
-25.2724128100783
30
0
41
1
10
34.2449980039345
20
-25.3060247101347
30
0
0
SPLINE
5
2CE
100
AcDbEntity
8
1
62
256
6
ByLayer
370
13
48
1
60
0
100
AcDbSpline
70
4
71
3
72
20
73
16
40
0
40
0
40
0
40
0
40
0.125
40
0.125
40
0.25
40
0.25
40
0.5
40
0.5
40
0.625
40
0.625
40
0.75
40
0.75
40
0.875
40
0.875
40
1
40
1
40
1
40
1
41
1
10
276.395001217631
20
9.6532332341192
30
0
41
1
10
276.415065015431
20
9.72029730682553
30
0
41
1
10
276.434374956974
20
9.79093161352375
30
0
41
1
10
276.472029949773
20
9.93920334101631
30
0
41
1
10
276.490426928594
20
10.0171104667221
30
0
41
1
10
276.54428446884
20
10.2599938098996
30
0
41
1
10
276.57731070596
20
10.4288947756804
30
0
41
1
10
276.624779106712
20
10.6921811072477
30
0
41
1
10
276.640298617759
20
10.781953006201
30
0
41
1
10
276.670240605749
20
10.9594717877639
30
0
41
1
10
276.684771070106
20
11.047855450584
30
0
41
1
10
276.713806045653
20
11.2237303798785
30
0
41
1
10
276.72831315963
20
11.3114465964255
30
0
41
1
10
276.758800040984
20
11.4847236040754
30
0
41
1
10
276.774452518796
20
11.5691990723138
30
0
41
1
10
276.792797538791
20
11.651023136929
30
0
0
SPLINE
5
2CF
100
AcDbEntity
8
1
62
256
6
ByLayer
370
13
48
1
60
0
100
AcDbSpline
70
4
71
3
72
8
73
4
40
0
40
0
40
0
40
0
40
1
40
1
40
1
40
1
41
1
10
274.007143130673
20
2.54626921719768
30
0
41
1
10
272.341030003229
20
3.34117541541491
30
0
41
1
10
270.683825200843
20
4.1660047143655
30
0
41
1
10
269.035018373131
20
5.01904284499514
30
0
0
SPLINE
5
2D0
100
AcDbEntity
8
1
62
256
6
ByLayer
370
13
48
1
60
0
100
AcDbSpline
70
4
71
3
72
8
73
4
40
0
40
0
40
0
40
0
40
1
40
1
40
1
40
1
41
1
10
268.736334949545
20
5.10929574843601
30
0
41
1
10
268.835924865814
20
5.07891080032297
30
0
41
1
10
268.935486201061
20
5.04882447169041
30
0
41
1
10
269.035018373131
20
5.01904284499511
30
0
0
SPLINE
5
2D1
100
AcDbEntity
8
1
62
256
6
ByLayer
370
13
48
1
60
0
100
AcDbSpline
70
4
71
3
72
10
73
6
40
0
40
0
40
0
40
0
40
0.5
40
0.5
40
1
40
1
40
1
40
1
41
1
10
280.160759812547
20
9.90530854166457
30
0
41
1
10
280.192152376926
20
10.1866521387558
30
0
41
1
10
280.199748699736
20
10.4698281369444
30
0
41
1
10
280.148423223633
20
11.0413022816615
30
0
41
1
10
280.090067593649
20
11.3199450708936
30
0
41
1
10
279.990657954515
20
11.5875758148093
30
0
0
SPLINE
5
2D2
100
AcDbEntity
8
1
62
256
6
ByLayer
370
13
48
1
60
0
100
AcDbSpline
70
4
71
3
72
14
73
10
40
0
40
0
40
0
40
0
40
0.249999999999999
40
0.249999999999999
40
0.499999999999998
40
0.499999999999998
40
0.749999999999999
40
0.749999999999999
40
1
40
1
40
1
40
1
41
1
10
299.060771021014
20
0.606131974210143
30
0
41
1
10
299.061884128537
20
0.656918169946806
30
0
41
1
10
299.063867806233
20
0.704339422382276
30
0
41
1
10
299.069458238219
20
0.788943146478402
30
0
41
1
10
299.072989849437
20
0.825223049221961
30
0
41
1
10
299.081448997234
20
0.884298625306286
30
0
41
1
10
299.086186025611
20
0.905888653726151
30
0
41
1
10
299.096696337445
20
0.932838868091011
30
0
41
1
10
299.102205751934
20
0.937488167983986
30
0
41
1
10
299.107938066863
20
0.933194161198315
30
0
0
SPLINE
5
2D3
100
AcDbEntity
8
1
62
256
6
ByLayer
370
13
48
1
60
0
100
AcDbSpline
70
4
71
3
72
18
73
14
40
0
40
0
40
0
40
0
40
0.125000000000002
40
0.125000000000002
40
0.187500000000003
40
0.187500000000003
40
0.218750000000003
40
0.218750000000003
40
0.250000000000003
40
0.250000000000003
40
0.500000000000002
40
0.500000000000002
40
1
40
1
40
1
40
1
41
1
10
30.6806569777947
20
-9.90707102352027
30
0
41
1
10
30.0425781278999
20
-9.99537240197446
30
0
41
1
10
29.4074669734251
20
-10.0994928536975
30
0
41
1
10
28.4592594840162
20
-10.2794431810396
30
0
41
1
10
28.1437688913151
20
-10.3434303842225
30
0
41
1
10
27.6728343382291
20
-10.4451192499714
30
0
41
1
10
27.5162012066552
20
-10.4799732803682
30
0
41
1
10
27.203623250305
20
-10.5515918320301
30
0
41
1
10
27.0474521944031
20
-10.587728417466
30
0
41
1
10
25.6404582916378
20
-10.9089207986885
30
0
41
1
10
24.3849915440052
20
-11.1810868045666
30
0
41
1
10
20.6045205493264
20
-11.9585295014017
30
0
41
1
10
18.0654719907
20
-12.4248242599991
30
0
41
1
10
15.5082003566751
20
-12.8405383483716
30
0
0
SPLINE
5
2D4
100
AcDbEntity
8
1
62
256
6
ByLayer
370
13
48
1
60
0
100
AcDbSpline
70
4
71
3
72
16
73
12
40
0
40
0
40
0
40
0
40
0.125
40
0.125
40
0.25
40
0.25
40
0.5
40
0.5
40
0.75
40
0.75
40
1
40
1
40
1
40
1
41
1
10
142
20
-9.05055043980295
30
0
41
1
10
137.791664612808
20
-9.0557279758014
30
0
41
1
10
133.583329591573
20
-9.05726608127287
30
0
41
1
10
125.166662017985
20
-9.05885493917239
30
0
41
1
10
120.958329140757
20
-9.0587996877673
30
0
41
1
10
108.333331505969
20
-9.05769255460817
30
0
41
1
10
99.9166672956263
20
-9.05606879490011
30
0
41
1
10
83.0833345864377
20
-9.05714343354686
30
0
41
1
10
74.6666670776212
20
-9.05887711018622
30
0
41
1
10
57.8333333669119
20
-9.06094586830147
30
0
41
1
10
49.4166669738559
20
-9.06147250202889
30
0
41
1
10
41
20
-9.06261503789608
30
0
0
SPLINE
5
2D5
100
AcDbEntity
8
1
62
256
6
ByLayer
370
13
48
1
60
0
100
AcDbSpline
70
4
71
3
72
8
73
4
40
0
40
0
40
0
40
0
40
1
40
1
40
1
40
1
41
1
10
277.10710621216
20
-0.338139967907409
30
0
41
1
10
277.593240900884
20
-0.494035456370057
30
0
41
1
10
278.0860053215
20
-0.603665904464037
30
0
41
1
10
278.58554504367
20
-0.664904496435668
30
0
0
SPLINE
5
2D6
100
AcDbEntity
8
1
62
256
6
ByLayer
370
13
48
1
60
0
100
AcDbSpline
70
4
71
3
72
44
73
40
40
0
40
0
40
0
40
0
40
0.125
40
0.125
40
0.1875
40
0.1875
40
0.21875
40
0.21875
40
0.249999999999999
40
0.249999999999999
40
0.374999999999999
40
0.374999999999999
40
0.406249999999999
40
0.406249999999999
40
0.437499999999999
40
0.437499999999999
40
0.499999999999999
40
0.499999999999999
40
0.562499999999999
40
0.562499999999999
40
0.624999999999999
40
0.624999999999999
40
0.656249999999999
40
0.656249999999999
40
0.687499999999999
40
0.687499999999999
40
0.749999999999999
40
0.749999999999999
40
0.781249999999999
40
0.781249999999999
40
0.812499999999999
40
0.812499999999999
40
0.875
40
0.875
40
0.90625
40
0.90625
40
0.9375
40
0.9375
40
1
40
1
40
1
40
1
41
1
10
15.5082003566751
20
-12.8405383483715
30
0
41
1
10
14.8184474972781
20
-12.9526674400638
30
0
41
1
10
14.1454090146408
20
-13.1254125510071
30
0
41
1
10
13.1579835506825
20
-13.4656466918454
30
0
41
1
10
12.8325699704356
20
-13.5927272348345
30
0
41
1
10
12.3500008170569
20
-13.8038734210004
30
0
41
1
10
12.189656998304
20
-13.8778904937046
30
0
41
1
10
11.8730213836137
20
-14.031815047673
30
0
41
1
10
11.7169637192598
20
-14.1116123713847
30
0
41
1
10
10.9476161355888
20
-14.5242303284106
30
0
41
1
10
10.3665947438226
20
-14.8972694094607
30
0
41
1
10
9.68500383732294
20
-15.4177851143568
30
0
41
1
10
9.55093990483873
20
-15.5246219477122
30
0
41
1
10
9.28745494508991
20
-15.7438840793061
30
0
41
1
10
9.15767204228035
20
-15.8566580332917
30
0
41
1
10
8.78004903337263
20
-16.1993822204399
30
0
41
1
10
8.54295940392115
20
-16.434607083933
30
0
41
1
10
8.09831594789797
20
-16.9181032264182
30
0
41
1
10
7.89075488330882
20
-17.1663727291895
30
0
41
1
10
7.50676233804107
20
-17.6761596106268
30
0
41
1
10
7.33031161790126
20
-17.9376702443995
30
0
41
1
10
7.09149101001478
20
-18.3405899732929
30
0
41
1
10
7.01639229652623
20
-18.4764575906507
30
0
41
1
10
6.87758927411785
20
-18.7473049281376
30
0
41
1
10
6.81357805613553
20
-18.8828247743332
30
0
41
1
10
6.63801393573051
20
-19.2896183007156
30
0
41
1
10
6.54275114710649
20
-19.5611047515775
30
0
41
1
10
6.43479574648758
20
-19.9686167974589
30
0
41
1
10
6.4046125629128
20
-20.1047057290687
30
0
41
1
10
6.35649302457445
20
-20.3760809937508
30
0
41
1
10
6.33878600534374
20
-20.5099733184592
30
0
41
1
10
6.30462638186071
20
-20.9063197349792
30
0
41
1
10
6.30742315071622
20
-21.1634134850175
30
0
41
1
10
6.34990261659971
20
-21.5384375980358
30
0
41
1
10
6.37043267286496
20
-21.6616761755386
30
0
41
1
10
6.42443665258592
20
-21.9045876123132
30
0
41
1
10
6.45808090108063
20
-22.0246980170955
30
0
41
1
10
6.57753260632215
20
-22.375315452848
30
0
41
1
10
6.68158869398188
20
-22.5966130089544
30
0
41
1
10
6.80987570989915
20
-22.8059853399125
30
0
0
SPLINE
5
2D7
100
AcDbEntity
8
1
62
256
6
ByLayer
370
13
48
1
60
0
100
AcDbSpline
70
4
71
3
72
14
73
10
40
0
40
0
40
0
40
0
40
0.25
40
0.25
40
0.5
40
0.5
40
0.75
40
0.75
40
1
40
1
40
1
40
1
41
1
10
285.894599543143
20
10.5236168591994
30
0
41
1
10
285.922215734162
20
10.5163640298563
30
0
41
1
10
285.947046305561
20
10.5078183699426
30
0
41
1
10
285.988786643865
20
10.4890047672737
30
0
41
1
10
286.00628097267
20
10.4784527957812
30
0
41
1
10
286.032567483605
20
10.4563880820334
30
0
41
1
10
286.041520024574
20
10.4449091308371
30
0
41
1
10
286.051601406737
20
10.421117475656
30
0
41
1
10
286.052574349004
20
10.408793214119
30
0
41
1
10
286.049832509097
20
10.3967678431629
30
0
0
SPLINE
5
2D8
100
AcDbEntity
8
1
62
256
6
ByLayer
370
13
48
1
60
0
100
AcDbSpline
70
4
71
3
72
8
73
4
40
0
40
0
40
0
40
0
40
1
40
1
40
1
40
1
41
1
10
276.217468568361
20
8.96909898946015
30
0
41
1
10
276.279612589028
20
9.19436794805387
30
0
41
1
10
276.33767711455
20
9.42030199720421
30
0
41
1
10
276.393208636025
20
9.64664900850084
30
0
0
SPLINE
5
2D9
100
AcDbEntity
8
1
62
256
6
ByLayer
370
13
48
1
60
0
100
AcDbSpline
70
4
71
3
72
10
73
6
40
0
40
0
40
0
40
0
40
0.5
40
0.5
40
1
40
1
40
1
40
1
41
1
10
294.633042717522
20
11.2500961425937
30
0
41
1
10
294.65890660191
20
11.2618195295979
30
0
41
1
10
294.68681911474
20
11.2714718086873
30
0
41
1
10
294.744210755724
20
11.2853834852363
30
0
41
1
10
294.7738172155
20
11.2897595441377
30
0
41
1
10
294.804342502286
20
11.2913758812625
30
0
0
SPLINE
5
2DA
100
AcDbEntity
8
1
62
256
6
ByLayer
370
13
48
1
60
0
100
AcDbSpline
70
4
71
3
72
8
73
4
40
0
40
0
40
0
40
0
40
1
40
1
40
1
40
1
41
1
10
274.053868694666
20
2.52402212429172
30
0
41
1
10
274.038278739123
20
2.53142965642877
30
0
41
1
10
274.022703378856
20
2.53884538893388
30
0
41
1
10
274.007143130673
20
2.54626921719773
30
0
0
SPLINE
5
2DB
100
AcDbEntity
8
1
62
256
6
ByLayer
370
13
48
1
60
0
100
AcDbSpline
70
4
71
3
72
16
73
12
40
0
40
0
40
0
40
0
40
0.249999999999995
40
0.249999999999995
40
0.49999999999999
40
0.49999999999999
40
0.624999999999997
40
0.624999999999997
40
0.750000000000004
40
0.750000000000004
40
1
40
1
40
1
40
1
41
1
10
280.914545092917
20
8.67089313490652
30
0
41
1
10
281.481087233219
20
8.51731417469108
30
0
41
1
10
282.045351636165
20
8.41347338875801
30
0
41
1
10
283.17048281785
20
8.29280221163489
30
0
41
1
10
283.731332138156
20
8.27611347477401
30
0
41
1
10
284.570016245321
20
8.31358643132356
30
0
41
1
10
284.849138457431
20
8.33654805843631
30
0
41
1
10
285.406413925763
20
8.40349840258119
30
0
41
1
10
285.683250690919
20
8.4473756930573
30
0
41
1
10
286.5028317492
20
8.60850944431138
30
0
41
1
10
287.037012690395
20
8.75539389539625
30
0
41
1
10
287.55846875046
20
8.94080447916727
30
0
0
SPLINE
5
2DC
100
AcDbEntity
8
1
62
256
6
ByLayer
370
13
48
1
60
0
100
AcDbSpline
70
4
71
3
72
12
73
8
40
0
40
0
40
0
40
0
40
0.250000000000014
40
0.250000000000014
40
0.500000000000029
40
0.500000000000029
40
1
40
1
40
1
40
1
41
1
10
279.990657954514
20
11.5875758148111
30
0
41
1
10
279.982259803754
20
11.658336682575
30
0
41
1
10
279.970391126985
20
11.7287775479908
30
0
41
1
10
279.938849358061
20
11.868939667086
30
0
41
1
10
279.91910075527
20
11.9386740097609
30
0
41
1
10
279.848665300539
20
12.1415293772461
30
0
41
1
10
279.786485517046
20
12.2700237242854
30
0
41
1
10
279.708080767299
20
12.3913316282832
30
0
0
SPLINE
5
2DD
100
AcDbEntity
8
1
62
256
6
ByLayer
370
13
48
1
60
0
100
AcDbSpline
70
4
71
3
72
10
73
6
40
0
40
0
40
0
40
0
40
0.5
40
0.5
40
1
40
1
40
1
40
1
41
1
10
278.985786875191
20
7.60731831889049
30
0
41
1
10
278.550550526634
20
7.86855075374297
30
0
41
1
10
278.100050859905
20
8.10978097919875
30
0
41
1
10
277.175519319906
20
8.56140304244684
30
0
41
1
10
276.701425248422
20
8.7717133709846
30
0
41
1
10
276.217468568355
20
8.96909898945194
30
0
0
SPLINE
5
2DE
100
AcDbEntity
8
1
62
256
6
ByLayer
370
13
48
1
60
0
100
AcDbSpline
70
4
71
3
72
8
73
4
40
0
40
0
40
0
40
0
40
1
40
1
40
1
40
1
41
1
10
36.01
20
-24.6188160837651
30
0
41
1
10
35.4216660012421
20
-24.618773096184
30
0
41
1
10
34.8333320025023
20
-24.6187299273425
30
0
41
1
10
34.2449980037534
20
-24.618686849111
30
0
0
SPLINE
5
2DF
100
AcDbEntity
8
1
62
256
6
ByLayer
370
13
48
1
60
0
100
AcDbSpline
70
4
71
3
72
76
73
72
40
0
40
0
40
0
40
0
40
0.0312499999999949
40
0.0312499999999949
40
0.0624999999999897
40
0.0624999999999897
40
0.0937499999999846
40
0.0937499999999846
40
0.109374999999982
40
0.109374999999982
40
0.124999999999979
40
0.124999999999979
40
0.132812499999978
40
0.132812499999978
40
0.140624999999977
40
0.140624999999977
40
0.144531249999977
40
0.144531249999977
40
0.148437499999977
40
0.148437499999977
40
0.156249999999976
40
0.156249999999976
40
0.171874999999977
40
0.171874999999977
40
0.187499999999977
40
0.187499999999977
40
0.218749999999978
40
0.218749999999978
40
0.249999999999978
40
0.249999999999978
40
0.281249999999979
40
0.281249999999979
40
0.312499999999979
40
0.312499999999979
40
0.34374999999998
40
0.34374999999998
40
0.374999999999981
40
0.374999999999981
40
0.406249999999981
40
0.406249999999981
40
0.437499999999982
40
0.437499999999982
40
0.499999999999983
40
0.499999999999983
40
0.531249999999984
40
0.531249999999984
40
0.562499999999985
40
0.562499999999985
40
0.593749999999986
40
0.593749999999986
40
0.624999999999987
40
0.624999999999987
40
0.687499999999989
40
0.687499999999989
40
0.71874999999999
40
0.71874999999999
40
0.749999999999991
40
0.749999999999991
40
0.812499999999992
40
0.812499999999992
40
0.828124999999993
40
0.828124999999993
40
0.843749999999993
40
0.843749999999993
40
0.874999999999995
40
0.874999999999995
40
0.906249999999996
40
0.906249999999996
40
0.937499999999998
40
0.937499999999998
40
1
40
1
40
1
40
1
41
1
10
270.708446017603
20
-24.9820313232318
30
0
41
1
10
269.3300585283
20
-24.9634727713294
30
0
41
1
10
267.946759605894
20
-24.9469840887928
30
0
41
1
10
265.176786092368
20
-24.9156416277987
30
0
41
1
10
263.790023446635
20
-24.9007575228995
30
0
41
1
10
261.021144142879
20
-24.8638145935442
30
0
41
1
10
259.640014801591
20
-24.841901646134
30
0
41
1
10
257.584331008005
20
-24.7903444126103
30
0
41
1
10
256.901774076843
20
-24.769976653343
30
0
41
1
10
255.544005130718
20
-24.7190965726616
30
0
41
1
10
254.867289042543
20
-24.6885755039574
30
0
41
1
10
253.870843469779
20
-24.6314374239698
30
0
41
1
10
253.541523570637
20
-24.6104495786364
30
0
41
1
10
252.889504482845
20
-24.5635201074579
30
0
41
1
10
252.566862241208
20
-24.5375431372825
30
0
41
1
10
252.08774599017
20
-24.4943627905111
30
0
41
1
10
251.928829246555
20
-24.4792713052636
30
0
41
1
10
251.610945031447
20
-24.4485485802524
30
0
41
1
10
251.452032710061
20
-24.4328917764006
30
0
41
1
10
250.975422619649
20
-24.3850068621594
30
0
41
1
10
250.657842789306
20
-24.3518683610471
30
0
41
1
10
249.705400666343
20
-24.2488683687019
30
0
41
1
10
249.070834179696
20
-24.1754146658985
30
0
41
1
10
247.801546800289
20
-24.0194521955358
30
0
41
1
10
247.166891835931
20
-23.9370206907006
30
0
41
1
10
245.262775266166
20
-23.6766840851811
30
0
41
1
10
243.993317375954
20
-23.4855839421256
30
0
41
1
10
241.454426114502
20
-23.0681844941572
30
0
41
1
10
240.184902620152
20
-22.8419642275231
30
0
41
1
10
237.646787736184
20
-22.3557012338737
30
0
41
1
10
236.378265144707
20
-22.0952184841651
30
0
41
1
10
233.838569550484
20
-21.5436590419931
30
0
41
1
10
232.567863300965
20
-21.2530951442379
30
0
41
1
10
230.02014369283
20
-20.6520408760441
30
0
41
1
10
228.742608691021
20
-20.3420357979488
30
0
41
1
10
226.177961210066
20
-19.7095067387245
30
0
41
1
10
224.891055583526
20
-19.3867068713813
30
0
41
1
10
222.307330849136
20
-18.7324443288553
30
0
41
1
10
221.009981183657
20
-18.4007346472949
30
0
41
1
10
218.407694802298
20
-17.7348731505829
30
0
41
1
10
217.10270028963
20
-17.4007461145428
30
0
41
1
10
213.173992137934
20
-16.4038571296387
30
0
41
1
10
210.536479556828
20
-15.7466842219041
30
0
41
1
10
206.545542150825
20
-14.8068811937814
30
0
41
1
10
205.209936461383
20
-14.5014648042562
30
0
41
1
10
202.531817965749
20
-13.9098649430421
30
0
41
1
10
201.188769890517
20
-13.6235518604992
30
0
41
1
10
198.494597848071
20
-13.0724437461293
30
0
41
1
10
197.143484329147
20
-12.8076141006831
30
0
41
1
10
194.433319429561
20
-12.3009436583221
30
0
41
1
10
193.073835745813
20
-12.059037034971
30
0
41
1
10
188.986756573098
20
-11.3706569173922
30
0
41
1
10
186.252164817236
20
-10.9616007595258
30
0
41
1
10
182.135759067124
20
-10.4279857070341
30
0
41
1
10
180.761185833443
20
-10.2635258451115
30
0
41
1
10
178.007040340366
20
-9.96307057401626
30
0
41
1
10
176.627427803008
20
-9.82701175017536
30
0
41
1
10
172.487344923855
20
-9.46517180600364
30
0
41
1
10
169.723461552515
20
-9.28624807026972
30
0
41
1
10
166.263164925888
20
-9.153846239269
30
0
41
1
10
165.570834648798
20
-9.13190305801101
30
0
41
1
10
164.18563912824
20
-9.09700554736673
30
0
41
1
10
163.492784679579
20
-9.08386971233455
30
0
41
1
10
161.413711675261
20
-9.053039651201
30
0
41
1
10
160.026947410247
20
-9.04269106265554
30
0
41
1
10
157.253565917156
20
-9.03085970324943
30
0
41
1
10
155.866877118387
20
-9.0300560157296
30
0
41
1
10
153.093500836406
20
-9.03190251487388
30
0
41
1
10
151.706813212897
20
-9.03418410421361
30
0
41
1
10
147.546750606214
20
-9.04172083836767
30
0
41
1
10
144.773375784241
20
-9.04739840792519
30
0
41
1
10
142
20
-9.05055043980298
30
0
0
SPLINE
5
2E0
100
AcDbEntity
8
1
62
256
6
ByLayer
370
13
48
1
60
0
100
AcDbSpline
70
4
71
3
72
8
73
4
40
0
40
0
40
0
40
0
40
1
40
1
40
1
40
1
41
1
10
0.0999999999999659
20
-5.56776436282993
30
0
41
1
10
0.0648944344305846
20
-5.37072855948901
30
0
41
1
10
0.03155109950454
20
-5.17345582387856
30
0
41
1
10
0
20
-4.97594212184998
30
0
0
SPLINE
5
2E1
100
AcDbEntity
8
1
62
256
6
ByLayer
370
13
48
1
60
0
100
AcDbSpline
70
4
71
3
72
20
73
16
40
0
40
0
40
0
40
0
40
0.249999999999965
40
0.249999999999965
40
0.374999999999971
40
0.374999999999971
40
0.499999999999977
40
0.499999999999977
40
0.624999999999983
40
0.624999999999983
40
0.749999999999988
40
0.749999999999988
40
0.874999999999994
40
0.874999999999994
40
1
40
1
40
1
40
1
41
1
10
280.72847479077
20
8.71808437316079
30
0
41
1
10
280.639115117645
20
8.74329031962898
30
0
41
1
10
280.558876164379
20
8.78900133501301
30
0
41
1
10
280.449452586894
20
8.8892818406776
30
0
41
1
10
280.414917650195
20
8.92820197684159
30
0
41
1
10
280.351916345232
20
9.01438412375379
30
0
41
1
10
280.32308149817
20
9.06193609628883
30
0
41
1
10
280.270702051264
20
9.16650695587808
30
0
41
1
10
280.247011440125
20
9.2241379308567
30
0
41
1
10
280.207213510545
20
9.34500837700421
30
0
41
1
10
280.190829847917
20
9.40859149981114
30
0
41
1
10
280.16588755073
20
9.54263961456221
30
0
41
1
10
280.157318626779
20
9.61406434702087
30
0
41
1
10
280.150733935644
20
9.75811146120463
30
0
41
1
10
280.152483807953
20
9.83113808289085
30
0
41
1
10
280.160759812547
20
9.90530854166457
30
0
0
SPLINE
5
2E2
100
AcDbEntity
8
1
62
256
6
ByLayer
370
13
48
1
60
0
100
AcDbSpline
70
4
71
3
72
18
73
14
40
0
40
0
40
0
40
0
40
0.249999999999948
40
0.249999999999948
40
0.374999999999922
40
0.374999999999922
40
0.499999999999895
40
0.499999999999895
40
0.749999999999843
40
0.749999999999843
40
0.874999999999922
40
0.874999999999922
40
1
40
1
40
1
40
1
41
1
10
286.698222874135
20
10.6662777201331
30
0
41
1
10
286.692902324298
20
10.6659988819316
30
0
41
1
10
286.69416626852
20
10.6762573340685
30
0
41
1
10
286.709431364187
20
10.7046756649431
30
0
41
1
10
286.716790018664
20
10.7161801737223
30
0
41
1
10
286.736732277863
20
10.7416785333089
30
0
41
1
10
286.749583358638
20
10.7559233182091
30
0
41
1
10
286.795666620261
20
10.798390326966
30
0
41
1
10
286.837854314346
20
10.8270830660949
30
0
41
1
10
286.911143279767
20
10.8582683349688
30
0
41
1
10
286.937655393562
20
10.8669463172423
30
0
41
1
10
286.991800116353
20
10.8794278552869
30
0
41
1
10
287.019665439727
20
10.883382677635
30
0
41
1
10
287.048333784068
20
10.8849006882409
30
0
0
SPLINE
5
2E3
100
AcDbEntity
8
1
62
256
6
ByLayer
370
13
48
1
60
0
100
AcDbSpline
70
4
71
3
72
56
73
52
40
0
40
0
40
0
40
0
40
0.124999999999998
40
0.124999999999998
40
0.187499999999998
40
0.187499999999998
40
0.21875
40
0.21875
40
0.250000000000003
40
0.250000000000003
40
0.312500000000009
40
0.312500000000009
40
0.375000000000014
40
0.375000000000014
40
0.406250000000017
40
0.406250000000017
40
0.43750000000002
40
0.43750000000002
40
0.500000000000026
40
0.500000000000026
40
0.531250000000025
40
0.531250000000025
40
0.562500000000025
40
0.562500000000025
40
0.625000000000025
40
0.625000000000025
40
0.656250000000025
40
0.656250000000025
40
0.671875000000025
40
0.671875000000025
40
0.687500000000025
40
0.687500000000025
40
0.750000000000021
40
0.750000000000021
40
0.76562500000002
40
0.76562500000002
40
0.781250000000018
40
0.781250000000018
40
0.812500000000015
40
0.812500000000015
40
0.875000000000008
40
0.875000000000008
40
0.890625000000007
40
0.890625000000007
40
0.906250000000006
40
0.906250000000006
40
0.937500000000004
40
0.937500000000004
40
0.968750000000002
40
0.968750000000002
40
1
40
1
40
1
40
1
41
1
10
278.174778309826
20
2.15857146243178
30
0
41
1
10
279.202308614317
20
1.93385038209652
30
0
41
1
10
280.238117015001
20
1.74010804894402
30
0
41
1
10
281.810959951353
20
1.52108514297231
30
0
41
1
10
282.338435534685
20
1.46003253261102
30
0
41
1
10
283.135435511968
20
1.3901085586273
30
0
41
1
10
283.402068222201
20
1.37041577704045
30
0
41
1
10
283.937459057584
20
1.33898405854853
30
0
41
1
10
284.2068284146
20
1.32723232586304
30
0
41
1
10
285.013409688564
20
1.30525379446857
30
0
41
1
10
285.548283237475
20
1.30820372546071
30
0
41
1
10
286.611582140467
20
1.35396694884139
30
0
41
1
10
287.140013685246
20
1.39674196972888
30
0
41
1
10
287.927070965781
20
1.49546264585106
30
0
41
1
10
288.188489172388
20
1.53414497736387
30
0
41
1
10
288.709285872335
20
1.62411934423227
30
0
41
1
10
288.966284777101
20
1.67501314243614
30
0
41
1
10
289.725217061037
20
1.84580939798184
30
0
41
1
10
290.215787474211
20
1.98383411098303
30
0
41
1
10
290.925998574212
20
2.2311446906638
30
0
41
1
10
291.158447419051
20
2.32031594857574
30
0
41
1
10
291.614104396256
20
2.51317056800846
30
0
41
1
10
291.83779409714
20
2.6171909722022
30
0
41
1
10
292.481721316962
20
2.9464606871735
30
0
41
1
10
292.879024110247
20
3.19031168593702
30
0
41
1
10
293.423760368067
20
3.59506429099514
30
0
41
1
10
293.59676644935
20
3.73650550513079
30
0
41
1
10
293.842590059843
20
3.95908180295757
30
0
41
1
10
293.922044098878
20
4.03485211955083
30
0
41
1
10
294.074574293666
20
4.18820309186407
30
0
41
1
10
294.147862215522
20
4.26597231389792
30
0
41
1
10
294.499522633437
20
4.66024790970911
30
0
41
1
10
294.733873051835
20
4.99292683533085
30
0
41
1
10
294.966673665477
20
5.43086839260803
30
0
41
1
10
295.010206824003
20
5.51956873098499
30
0
41
1
10
295.091099300104
20
5.69923751429238
30
0
41
1
10
295.128550516517
20
5.79047856409929
30
0
41
1
10
295.230449644039
20
6.06496443615401
30
0
41
1
10
295.284687878134
20
6.24924685782773
30
0
41
1
10
295.407936231675
20
6.80581708859981
30
0
41
1
10
295.437734445675
20
7.18180386113545
30
0
41
1
10
295.410590401972
20
7.65786157779073
30
0
41
1
10
295.401892099814
20
7.75347797440008
30
0
41
1
10
295.378267002531
20
7.94341127186209
30
0
41
1
10
295.363335183716
20
8.03796062049062
30
0
41
1
10
295.309477323087
20
8.32039628591957
30
0
41
1
10
295.261504004768
20
8.50707224606498
30
0
41
1
10
295.142580020919
20
8.87735022635817
30
0
41
1
10
295.071625777503
20
9.06095176785163
30
0
41
1
10
294.907446689934
20
9.42517546032235
30
0
41
1
10
294.813936355273
20
9.60624208404934
30
0
41
1
10
294.710358739864
20
9.78439191836634
30
0
0
SPLINE
5
2E4
100
AcDbEntity
8
1
62
256
6
ByLayer
370
13
48
1
60
0
100
AcDbSpline
70
4
71
3
72
10
73
6
40
0
40
0
40
0
40
0
40
0.5
40
0.5
40
1
40
1
40
1
40
1
41
1
10
278.160715201621
20
11.7048864860917
30
0
41
1
10
278.206988294174
20
11.7060199605804
30
0
41
1
10
278.253507973581
20
11.7056417811822
30
0
41
1
10
278.347303834097
20
11.7002478323162
30
0
41
1
10
278.394696562248
20
11.6952449248349
30
0
41
1
10
278.441711657191
20
11.6864217507333
30
0
0
SPLINE
5
2E5
100
AcDbEntity
8
1
62
256
6
ByLayer
370
13
48
1
60
0
100
AcDbSpline
70
4
71
3
72
26
73
22
40
0
40
0
40
0
40
0
40
0.125000000000003
40
0.125000000000003
40
0.250000000000006
40
0.250000000000006
40
0.375000000000009
40
0.375000000000009
40
0.43750000000001
40
0.43750000000001
40
0.500000000000012
40
0.500000000000012
40
0.625000000000013
40
0.625000000000013
40
0.750000000000015
40
0.750000000000015
40
0.812500000000011
40
0.812500000000011
40
0.875000000000007
40
0.875000000000007
40
1
40
1
40
1
40
1
41
1
10
278.16071520162
20
11.7048864860913
30
0
41
1
10
278.33583756494
20
11.5903540092436
30
0
41
1
10
278.505287120699
20
11.4632436526102
30
0
41
1
10
278.819545287987
20
11.1954614875718
30
0
41
1
10
278.96576686171
20
11.0542041199836
30
0
41
1
10
279.238897514508
20
10.7600076341913
30
0
41
1
10
279.365814198432
20
10.6070807136803
30
0
41
1
10
279.54289770388
20
10.3705409614567
30
0
41
1
10
279.599903843958
20
10.2901905476473
30
0
41
1
10
279.708478320583
20
10.1289652070862
30
0
41
1
10
279.760012434614
20
10.0481878685116
30
0
41
1
10
279.90693445428
20
9.80558363331522
30
0
41
1
10
279.994761993829
20
9.64357391132498
30
0
41
1
10
280.150976767086
20
9.31860582550647
30
0
41
1
10
280.219323172645
20
9.1555969194755
30
0
41
1
10
280.305227573508
20
8.90827610311433
30
0
41
1
10
280.330977182876
20
8.82556251125951
30
0
41
1
10
280.375983056231
20
8.66105543239354
30
0
41
1
10
280.395326952815
20
8.57901202126496
30
0
41
1
10
280.443817159767
20
8.3332760531454
30
0
41
1
10
280.463410192136
20
8.16993882761994
30
0
41
1
10
280.470467856686
20
8.00714584151714
30
0
0
SPLINE
5
2E6
100
AcDbEntity
8
1
62
256
6
ByLayer
370
13
48
1
60
0
100
AcDbSpline
70
4
71
3
72
8
73
4
40
0
40
0
40
0
40
0
40
1
40
1
40
1
40
1
41
1
10
41
20
-25.2555329126465
30
0
41
1
10
39.3333333322734
20
-25.2555375519323
30
0
41
1
10
37.666666665018
20
-25.2555442379311
30
0
41
1
10
36
20
-25.2555536544276
30
0
0
SPLINE
5
2E7
100
AcDbEntity
8
1
62
256
6
ByLayer
370
13
48
1
60
0
100
AcDbSpline
70
4
71
3
72
8
73
4
40
0
40
0
40
0
40
0
40
1
40
1
40
1
40
1
41
1
10
285.538118329161
20
10.5761540594885
30
0
41
1
10
285.565910625815
20
10.5770811113373
30
0
41
1
10
285.594332477487
20
10.5768914186165
30
0
41
1
10
285.62223741031
20
10.5754815359898
30
0
0
SPLINE
5
2E8
100
AcDbEntity
8
1
62
256
6
ByLayer
370
13
48
1
60
0
100
AcDbSpline
70
4
71
3
72
23
73
19
40
0
40
0
40
0
40
0
40
0.125000000000006
40
0.125000000000006
40
0.250000000000012
40
0.250000000000012
40
0.375000000000017
40
0.375000000000017
40
0.500000000000023
40
0.625000000000029
40
0.625000000000029
40
0.750000000000035
40
0.750000000000035
40
0.875000000000041
40
0.875000000000041
40
0.93750000000002
40
0.93750000000002
40
1
40
1
40
1
40
1
41
1
10
285.999476950795
20
9.6181796539596
30
0
41
1
10
285.898530937841
20
9.52572433000446
30
0
41
1
10
285.791019925729
20
9.44143109099292
30
0
41
1
10
285.561841690486
20
9.28958506009963
30
0
41
1
10
285.442509459987
20
9.22362021509531
30
0
41
1
10
285.195284459864
20
9.11154737735055
30
0
41
1
10
285.066759108206
20
9.06518505097802
30
0
41
1
10
284.801510842866
20
8.99325948144801
30
0
41
1
10
284.533451422066
20
8.94346103885925
30
0
41
1
10
284.25974126077
20
8.93625713987419
30
0
41
1
10
283.983221481745
20
8.95117602677882
30
0
41
1
10
283.846428035536
20
8.96961091012491
30
0
41
1
10
283.578522947979
20
9.02729163642715
30
0
41
1
10
283.446949239779
20
9.06655917267761
30
0
41
1
10
283.253410457198
20
9.14170859376921
30
0
41
1
10
283.189749884026
20
9.16943028113513
30
0
41
1
10
283.066104068818
20
9.22928941432389
30
0
41
1
10
283.005837835591
20
9.26153168446422
30
0
41
1
10
282.947151413127
20
9.29603869826852
30
0
0
SPLINE
5
2E9
100
AcDbEntity
8
1
62
256
6
ByLayer
370
13
48
1
60
0
100
AcDbSpline
70
4
71
3
72
8
73
4
40
0
40
0
40
0
40
0
40
1
40
1
40
1
40
1
41
1
10
36.45
20
-24.6050897887869
30
0
41
1
10
36.3033333332874
20
-24.6050800749319
30
0
41
1
10
36.1566666666181
20
-24.6050698691347
30
0
41
1
10
36.01
20
-24.6050591589214
30
0
0
SPLINE
5
2EA
100
AcDbEntity
8
1
62
256
6
ByLayer
370
13
48
1
60
0
100
AcDbSpline
70
4
71
3
72
10
73
6
40
0
40
0
40
0
40
0
40
0.5
40
0.5
40
1
40
1
40
1
40
1
41
1
10
290.783724450273
20
9.57860573519849
30
0
41
1
10
291.489209312176
20
9.61557863012862
30
0
41
1
10
292.171071514349
20
9.65131351392156
30
0
41
1
10
293.482144041644
20
9.72002391355605
30
0
41
1
10
294.111382909562
20
9.7530009252622
30
0
41
1
10
294.710358739869
20
9.78439191837282
30
0
0
SPLINE
5
2EB
100
AcDbEntity
8
1
62
256
6
ByLayer
370
13
48
1
60
0
100
AcDbSpline
70
4
71
1
72
4
73
2
40
0
40
0
40
1
40
1
41
1
10
36.0100000001658
20
-24.6050591589214
30
0
41
1
10
36.0099999998342
20
-24.6188160837475
30
0
0
SPLINE
5
2EC
100
AcDbEntity
8
1
62
256
6
ByLayer
370
13
48
1
60
0
100
AcDbSpline
70
4
71
3
72
8
73
4
40
0
40
0
40
0
40
0
40
1
40
1
40
1
40
1
41
1
10
277.019003582739
20
11.7745920821735
30
0
41
1
10
277.401146532556
20
11.7850777387081
30
0
41
1
10
277.768547300464
20
11.7645933534627
30
0
41
1
10
278.121349742147
20
11.7121333976602
30
0
0
SPLINE
5
2ED
100
AcDbEntity
8
1
62
256
6
ByLayer
370
13
48
1
60
0
100
AcDbSpline
70
4
71
3
72
8
73
4
40
0
40
0
40
0
40
0
40
1
40
1
40
1
40
1
41
1
10
276.393208636025
20
9.64664900850084
30
0
41
1
10
276.393750285616
20
9.64885677739949
30
0
41
1
10
276.394348459401
20
9.65105136277813
30
0
41
1
10
276.395001217632
20
9.65323323411914
30
0
0
SPLINE
5
2EE
100
AcDbEntity
8
1
62
256
6
ByLayer
370
13
48
1
60
0
100
AcDbSpline
70
4
71
3
72
8
73
4
40
0
40
0
40
0
40
0
40
1
40
1
40
1
40
1
41
1
10
299.061638806864
20
0.465038722565509
30
0
41
1
10
299.060054171204
20
0.513098507219354
30
0
41
1
10
299.059782942592
20
0.561050305922322
30
0
41
1
10
299.060771021014
20
0.606131974210143
30
0
0
SPLINE
5
2EF
100
AcDbEntity
8
1
62
256
6
ByLayer
370
13
48
1
60
0
100
AcDbSpline
70
4
71
3
72
14
73
10
40
0
40
0
40
0
40
0
40
0.125000000000018
40
0.125000000000018
40
0.250000000000036
40
0.250000000000036
40
0.500000000000071
40
0.500000000000071
40
1
40
1
40
1
40
1
41
1
10
293.762708723844
20
11.0365117352927
30
0
41
1
10
293.799334960746
20
11.0384312350323
30
0
41
1
10
293.836663465275
20
11.0412558592636
30
0
41
1
10
293.910544169299
20
11.0486112599112
30
0
41
1
10
293.947318261127
20
11.0531466296003
30
0
41
1
10
294.057213947034
20
11.0693075754192
30
0
41
1
10
294.129908900443
20
11.0834793066265
30
0
41
1
10
294.346835960251
20
11.1363501299469
30
0
41
1
10
294.489843189205
20
11.1851877373428
30
0
41
1
10
294.633042717522
20
11.2500961425937
30
0
0
SPLINE
5
2F0
100
AcDbEntity
8
1
62
256
6
ByLayer
370
13
48
1
60
0
100
AcDbSpline
70
4
71
1
72
4
73
2
40
0
40
0
40
1
40
1
41
1
10
36.4500000000213
20
-14.0741592436399
30
0
41
1
10
36.01
20
-14.0741592436399
30
0
0
SPLINE
5
2F1
100
AcDbEntity
8
1
62
256
6
ByLayer
370
13
48
1
60
0
100
AcDbSpline
70
4
71
3
72
8
73
4
40
0
40
0
40
0
40
0
40
1
40
1
40
1
40
1
41
1
10
280.914545092917
20
8.67089313490658
30
0
41
1
10
280.856504419348
20
8.68507719382714
30
0
41
1
10
280.797948877193
20
8.69985422452285
30
0
41
1
10
280.738859269485
20
8.71526590071525
30
0
0
SPLINE
5
2F2
100
AcDbEntity
8
1
62
256
6
ByLayer
370
13
48
1
60
0
100
AcDbSpline
70
4
71
3
72
8
73
4
40
0
40
0
40
0
40
0
40
1
40
1
40
1
40
1
41
1
10
281.900809752592
20
19.0823407706581
30
0
41
1
10
281.886940997104
20
19.0556005343354
30
0
41
1
10
281.87159758655
20
19.0315401215781
30
0
41
1
10
281.85566143541
20
19.0100367466055
30
0
0
SPLINE
5
2F3
100
AcDbEntity
8
1
62
256
6
ByLayer
370
13
48
1
60
0
100
AcDbSpline
70
4
71
3
72
14
73
10
40
0
40
0
40
0
40
0
40
0.499999999999922
40
0.499999999999922
40
0.749999999999883
40
0.749999999999883
40
0.874999999999941
40
0.874999999999941
40
1
40
1
40
1
40
1
41
1
10
289.316566613709
20
10.9714714363815
30
0
41
1
10
289.475170997127
20
10.9223799039235
30
0
41
1
10
289.633513164593
20
10.8893353491823
30
0
41
1
10
289.872355969918
20
10.8603504123576
30
0
41
1
10
289.952180872772
20
10.8541719081136
30
0
41
1
10
290.072406325107
20
10.8500711001161
30
0
41
1
10
290.112562798394
20
10.8495674905037
30
0
41
1
10
290.193068354884
20
10.8503031309215
30
0
41
1
10
290.233657432874
20
10.851561994157
30
0
41
1
10
290.273390009808
20
10.8536442902793
30
0
0
SPLINE
5
2F4
100
AcDbEntity
8
1
62
256
6
ByLayer
370
13
48
1
60
0
100
AcDbSpline
70
4
71
3
72
10
73
6
40
0
40
0
40
0
40
0
40
0.5
40
0.5
40
1
40
1
40
1
40
1
41
1
10
287.55846875046
20
8.94080447916733
30
0
41
1
10
288.109773973569
20
9.13682832677702
30
0
41
1
10
288.654162549721
20
9.28137015473411
30
0
41
1
10
289.729983809593
20
9.48875524969202
30
0
41
1
10
290.261340781236
20
9.5512287671699
30
0
41
1
10
290.783724450273
20
9.57860573519855
30
0
0
SPLINE
5
2F5
100
AcDbEntity
8
1
62
256
6
ByLayer
370
13
48
1
60
0
100
AcDbSpline
70
4
71
3
72
18
73
14
40
0
40
0
40
0
40
0
40
0.250000000000168
40
0.250000000000168
40
0.375000000000139
40
0.375000000000139
40
0.50000000000011
40
0.50000000000011
40
0.750000000000056
40
0.750000000000056
40
0.875000000000028
40
0.875000000000028
40
1
40
1
40
1
40
1
41
1
10
296.892767032724
20
11.4008256094872
30
0
41
1
10
296.950143375314
20
11.4038325761858
30
0
41
1
10
297.007900199969
20
11.3966579966157
30
0
41
1
10
297.089198500554
20
11.3732818388391
30
0
41
1
10
297.115080972485
20
11.3635106316872
30
0
41
1
10
297.163228505424
20
11.3415662153899
30
0
41
1
10
297.185882986986
20
11.3291749446349
30
0
41
1
10
297.245871405469
20
11.2922507551461
30
0
41
1
10
297.276691628691
20
11.2673827979809
30
0
41
1
10
297.308902401287
20
11.2417431051748
30
0
41
1
10
297.317575045892
20
11.2349175723464
30
0
41
1
10
297.330658044537
20
11.225981109532
30
0
41
1
10
297.335215172146
20
11.2237388647226
30
0
41
1
10
297.337875860782
20
11.2238783055054
30
0
0
SPLINE
5
2F6
100
AcDbEntity
8
1
62
256
6
ByLayer
370
13
48
1
60
0
100
AcDbSpline
70
4
71
3
72
22
73
18
40
0
40
0
40
0
40
0
40
0.250000000000004
40
0.250000000000004
40
0.312500000000004
40
0.312500000000004
40
0.375000000000004
40
0.375000000000004
40
0.500000000000003
40
0.500000000000003
40
0.625000000000003
40
0.625000000000003
40
0.687500000000002
40
0.687500000000002
40
0.750000000000002
40
0.750000000000002
40
1
40
1
40
1
40
1
41
1
10
6.80987570989915
20
-22.8059853399125
30
0
41
1
10
6.58503913890883
20
-23.1624969323075
30
0
41
1
10
6.41312715108832
20
-23.5162802183738
30
0
41
1
10
6.26578995406804
20
-23.9534116680807
30
0
41
1
10
6.23974922116565
20
-24.0405854045708
30
0
41
1
10
6.19476392667924
20
-24.2143932807496
30
0
41
1
10
6.17591293814073
20
-24.3007595955919
30
0
41
1
10
6.13083762487135
20
-24.5556132397804
30
0
41
1
10
6.11577147490034
20
-24.7208939542499
30
0
41
1
10
6.11572137867444
20
-25.0422565419975
30
0
41
1
10
6.13066804756181
20
-25.1983469163722
30
0
41
1
10
6.17509163528487
20
-25.42564566739
30
0
41
1
10
6.19358807682669
20
-25.5002693204929
30
0
41
1
10
6.23814712363614
20
-25.6472008425011
30
0
41
1
10
6.26420388647296
20
-25.7193210479016
30
0
41
1
10
6.41176431968027
20
-26.0696197831948
30
0
41
1
10
6.5849942421838
20
-26.3208606970405
30
0
41
1
10
6.80986454934897
20
-26.5460526997631
30
0
0
SPLINE
5
2F7
100
AcDbEntity
8
1
62
256
6
ByLayer
370
13
48
1
60
0
100
AcDbSpline
70
4
71
3
72
10
73
6
40
0
40
0
40
0
40
0
40
0.5
40
0.5
40
1
40
1
40
1
40
1
41
1
10
289.13675831441
20
10.9943504164605
30
0
41
1
10
289.167337119695
20
10.9959529837386
30
0
41
1
10
289.198275052233
20
10.9946824397988
30
0
41
1
10
289.258456623205
20
10.9868619170567
30
0
41
1
10
289.287865549189
20
10.9803550448301
30
0
41
1
10
289.316566613709
20
10.9714714363815
30
0
0
SPLINE
5
2F8
100
AcDbEntity
8
1
62
256
6
ByLayer
370
13
48
1
60
0
100
AcDbSpline
70
4
71
3
72
10
73
6
40
0
40
0
40
0
40
0
40
0.5
40
0.5
40
1
40
1
40
1
40
1
41
1
10
274.23714010567
20
0.965345359454233
30
0
41
1
10
274.675758765165
20
0.660780601133951
30
0
41
1
10
275.133353985326
20
0.397909226511331
30
0
41
1
10
276.088732157161
20
-0.0394268365379844
30
0
41
1
10
276.586433299328
20
-0.214071703303119
30
0
41
1
10
277.107106212211
20
-0.338139967918977
30
0
0
SPLINE
5
2F9
100
AcDbEntity
8
1
62
256
6
ByLayer
370
13
48
1
60
0
100
AcDbSpline
70
4
71
3
72
14
73
10
40
0
40
0
40
0
40
0
40
0.499999999999999
40
0.499999999999999
40
0.749999999999995
40
0.749999999999995
40
0.874999999999997
40
0.874999999999997
40
1
40
1
40
1
40
1
41
1
10
271.440160353743
20
24.6630373292339
30
0
41
1
10
272.189584056328
20
23.034191620294
30
0
41
1
10
273.041190547568
20
21.4682562712849
30
0
41
1
10
274.513267632877
20
19.2392031081923
30
0
41
1
10
275.03642712447
20
18.5161742605323
30
0
41
1
10
275.874808571195
20
17.4646566163632
30
0
41
1
10
276.163637632205
20
17.1191843868143
30
0
41
1
10
276.756850857422
20
16.4431081843286
30
0
41
1
10
277.061374994769
20
16.1122775119075
30
0
41
1
10
277.37388570618
20
15.7887171248331
30
0
0
SPLINE
5
2FA
100
AcDbEntity
8
1
62
256
6
ByLayer
370
13
48
1
60
0
100
AcDbSpline
70
4
71
3
72
10
73
6
40
0
40
0
40
0
40
0
40
0.5
40
0.5
40
1
40
1
40
1
40
1
41
1
10
285.62223741031
20
10.5754815360062
30
0
41
1
10
285.672552968059
20
10.5729393678822
30
0
41
1
10
285.720980192397
20
10.5655418701604
30
0
41
1
10
285.813185285845
20
10.5457585655338
30
0
41
1
10
285.855975529441
20
10.5337606686673
30
0
41
1
10
285.894599543143
20
10.5236168591989
30
0
0
SPLINE
5
2FB
100
AcDbEntity
8
1
62
256
6
ByLayer
370
13
48
1
60
0
100
AcDbSpline
70
4
71
3
72
16
73
12
40
0
40
0
40
0
40
0
40
0.25
40
0.25
40
0.500000000000001
40
0.500000000000001
40
0.625000000000001
40
0.625000000000001
40
0.750000000000001
40
0.750000000000001
40
1
40
1
40
1
40
1
41
1
10
34.2449980037534
20
-24.6186868491251
30
0
41
1
10
33.923305671963
20
-24.618663294585
30
0
41
1
10
33.6066219677305
20
-24.64206232576
30
0
41
1
10
32.9825911943224
20
-24.7325226753108
30
0
41
1
10
32.6752474577833
20
-24.7995995785867
30
0
41
1
10
32.2210539136282
20
-24.9321179445685
30
0
41
1
10
32.070691284857
20
-24.9817186557803
30
0
41
1
10
31.7772001894116
20
-25.0895537519134
30
0
41
1
10
31.6334077256622
20
-25.1479629712835
30
0
41
1
10
31.2103539427006
20
-25.3358509237913
30
0
41
1
10
30.9393848511903
20
-25.4779422211322
30
0
41
1
10
30.6785214642269
20
-25.6354043997369
30
0
0
SPLINE
5
2FC
100
AcDbEntity
8
1
62
256
6
ByLayer
370
13
48
1
60
0
100
AcDbSpline
70
4
71
3
72
8
73
4
40
0
40
0
40
0
40
0
40
1
40
1
40
1
40
1
41
1
10
1.42E-14
20
4.97594212184995
30
0
41
1
10
0.031571657597965
20
5.1735845200318
30
0
41
1
10
0.0649171506606621
20
5.37085605809409
30
0
41
1
10
0.0999999999999801
20
5.56776436282993
30
0
0
SPLINE
5
2FD
100
AcDbEntity
8
1
62
256
6
ByLayer
370
13
48
1
60
0
100
AcDbSpline
70
4
71
3
72
8
73
4
40
0
40
0
40
0
40
0
40
1
40
1
40
1
40
1
41
1
10
277.019028948039
20
11.7745897012024
30
0
41
1
10
277.140399888235
20
13.1141165380105
30
0
41
1
10
277.25893297952
20
14.4521757768917
30
0
41
1
10
277.373910589138
20
15.7890064353402
30
0
0
SPLINE
5
2FE
100
AcDbEntity
8
1
62
256
6
ByLayer
370
13
48
1
60
0
100
AcDbSpline
70
4
71
3
72
26
73
22
40
0
40
0
40
0
40
0
40
0.125000000000023
40
0.125000000000023
40
0.250000000000045
40
0.250000000000045
40
0.31250000000009
40
0.31250000000009
40
0.375000000000135
40
0.375000000000135
40
0.500000000000225
40
0.500000000000225
40
0.562500000000228
40
0.562500000000228
40
0.625000000000232
40
0.625000000000232
40
0.750000000000155
40
0.750000000000155
40
0.875000000000077
40
0.875000000000077
40
1
40
1
40
1
40
1
41
1
10
280.470467856678
20
8.00714584152399
30
0
41
1
10
280.431018414874
20
7.94242923824302
30
0
41
1
10
280.387398965745
20
7.88036982373592
30
0
41
1
10
280.290154773381
20
7.76267189863336
30
0
41
1
10
280.23734294382
20
7.70810795659943
30
0
41
1
10
280.152019576595
20
7.63479208818868
30
0
41
1
10
280.122507853663
20
7.61172539151352
30
0
41
1
10
280.061125452979
20
7.56863565510966
30
0
41
1
10
280.029090927597
20
7.54854375758643
30
0
41
1
10
279.931411102042
20
7.49468133213512
30
0
41
1
10
279.863661485282
20
7.46681527766347
30
0
41
1
10
279.757777465215
20
7.43833502654778
30
0
41
1
10
279.721877979479
20
7.43114415898711
30
0
41
1
10
279.650708183019
20
7.42161442226515
30
0
41
1
10
279.615187594394
20
7.41920173941429
30
0
41
1
10
279.508813941727
20
7.41866183974929
30
0
41
1
10
279.437532831845
20
7.42751432505261
30
0
41
1
10
279.301298135067
20
7.45942642242335
30
0
41
1
10
279.235625151172
20
7.48233347531837
30
0
41
1
10
279.10774317671
20
7.53830857595139
30
0
41
1
10
279.04555299894
20
7.57144620002583
30
0
41
1
10
278.985786875191
20
7.60731831888802
30
0
0
SPLINE
5
2FF
100
AcDbEntity
8
1
62
256
6
ByLayer
370
13
48
1
60
0
100
AcDbSpline
70
4
71
3
72
8
73
4
40
0
40
0
40
0
40
0
40
1
40
1
40
1
40
1
41
1
10
36
20
-9.06289295970814
30
0
41
1
10
35.4140381040328
20
-9.062934940465
30
0
41
1
10
34.8290393016156
20
-9.06358301902685
30
0
41
1
10
34.2449980062099
20
-9.06483394516945
30
0
0
SPLINE
5
300
100
AcDbEntity
8
1
62
256
6
ByLayer
370
13
48
1
60
0
100
AcDbSpline
70
4
71
3
72
14
73
10
40
0
40
0
40
0
40
0
40
0.500000000000003
40
0.500000000000003
40
0.625000000000002
40
0.625000000000002
40
0.750000000000002
40
0.750000000000002
40
1
40
1
40
1
40
1
41
1
10
34.2449980039345
20
-25.3060247101347
30
0
41
1
10
33.6238754619406
20
-25.3417701812675
30
0
41
1
10
33.0145598773916
20
-25.3896582737057
30
0
41
1
10
32.2670439427559
20
-25.4609936845394
30
0
41
1
10
32.1182549722834
20
-25.4758139964345
30
0
41
1
10
31.8221210645202
20
-25.506380445892
30
0
41
1
10
31.6743559067855
20
-25.5221733337088
30
0
41
1
10
31.2363495461644
20
-25.5702639766649
30
0
41
1
10
30.9531678159457
20
-25.6030751575426
30
0
41
1
10
30.6785214642269
20
-25.6354043997369
30
0
0
SPLINE
5
301
100
AcDbEntity
8
1
62
256
6
ByLayer
370
13
48
1
60
0
100
AcDbSpline
70
4
71
3
72
8
73
4
40
0
40
0
40
0
40
0
40
1
40
1
40
1
40
1
41
1
10
278.174778309825
20
2.15857146243224
30
0
41
1
10
278.152035260278
20
2.16355610612689
30
0
41
1
10
278.129294254841
20
2.16859214772947
30
0
41
1
10
278.106555768315
20
2.17367961100868
30
0
0
SPLINE
5
302
100
AcDbEntity
8
1
62
256
6
ByLayer
370
13
48
1
60
0
100
AcDbSpline
70
4
71
3
72
40
73
36
40
0
40
0
40
0
40
0
40
0.125
40
0.125
40
0.1875
40
0.1875
40
0.25
40
0.25
40
0.3125
40
0.3125
40
0.375
40
0.375
40
0.4375
40
0.4375
40
0.5
40
0.5
40
0.53125
40
0.53125
40
0.5625
40
0.5625
40
0.625
40
0.625
40
0.65625
40
0.65625
40
0.6875
40
0.6875
40
0.75
40
0.75
40
0.78125
40
0.78125
40
0.8125
40
0.8125
40
0.875
40
0.875
40
1
40
1
40
1
40
1
41
1
10
5.4541
20
-5.56776436282991
30
0
41
1
10
5.89406280255778
20
-5.22071786736919
30
0
41
1
10
6.31126965284541
20
-4.85020452839882
30
0
41
1
10
6.89161632989575
20
-4.24755064815767
30
0
41
1
10
7.07748681533843
20
-4.03871835406173
30
0
41
1
10
7.43064568473434
20
-3.60242628235972
30
0
41
1
10
7.59566636955608
20
-3.37774196646603
30
0
41
1
10
7.89937531991096
20
-2.91347823500482
30
0
41
1
10
8.03808079616665
20
-2.67390855479149
30
0
41
1
10
8.28476134174343
20
-2.17738634513662
30
0
41
1
10
8.39276783165879
20
-1.92045158895314
30
0
41
1
10
8.57175390459759
20
-1.38563757229579
30
0
41
1
10
8.64040324008627
20
-1.11429032655351
30
0
41
1
10
8.73307383204086
20
-0.56522519118144
30
0
41
1
10
8.75720687241787
20
-0.287199855638875
30
0
41
1
10
8.7576666682164
20
0.135460580990952
30
0
41
1
10
8.7518014803028
20
0.276545887699797
30
0
41
1
10
8.72852559903656
20
0.555458820102899
30
0
41
1
10
8.71112118973275
20
0.693840358409688
30
0
41
1
10
8.64228951808522
20
1.10588712787919
30
0
41
1
10
8.57427190179054
20
1.3764597498101
30
0
41
1
10
8.44119549974049
20
1.77653065385064
30
0
41
1
10
8.39161172954776
20
1.9088843759167
30
0
41
1
10
8.28428658177891
20
2.16762004002049
30
0
41
1
10
8.22637180918912
20
2.2945639755267
30
0
41
1
10
8.04097611650444
20
2.66875410573474
30
0
41
1
10
7.90188872485614
20
2.90938422055527
30
0
41
1
10
7.67341346258185
20
3.25901754447256
30
0
41
1
10
7.59393526571765
20
3.37366960153346
30
0
41
1
10
7.42878022479391
20
3.59944027788211
30
0
41
1
10
7.34291504277098
20
3.71078607525249
30
0
41
1
10
7.07807802840583
20
4.03803284041601
30
0
41
1
10
6.8923018928712
20
4.24680182083256
30
0
41
1
10
6.31191572714174
20
4.84960725412947
30
0
41
1
10
5.89448555906756
20
5.22038439334753
30
0
41
1
10
5.4541
20
5.56776436282988
30
0
0
SPLINE
5
303
100
AcDbEntity
8
1
62
256
6
ByLayer
370
13
48
1
60
0
100
AcDbSpline
70
4
71
3
72
8
73
4
40
0
40
0
40
0
40
0
40
1
40
1
40
1
40
1
41
1
10
277.845053089082
20
2.23919255641192
30
0
41
1
10
277.931193215574
20
2.21672987212179
30
0
41
1
10
278.017618188236
20
2.19506239264678
30
0
41
1
10
278.10433712642
20
2.1742128379895
30
0
0
SPLINE
5
304
100
AcDbEntity
8
1
62
256
6
ByLayer
370
13
48
1
60
0
100
AcDbSpline
70
2053
71
3
72
93
73
89
40
0
40
0
40
0
40
0
40
0.0312499999999805
40
0.0312499999999805
40
0.0468749999999707
40
0.0468749999999707
40
0.0624999999999609
40
0.0624999999999609
40
0.0937499999999414
40
0.0937499999999414
40
0.109374999999937
40
0.109374999999937
40
0.124999999999932
40
0.124999999999932
40
0.156249999999931
40
0.156249999999931
40
0.18749999999993
40
0.18749999999993
40
0.20312499999993
40
0.20312499999993
40
0.218749999999929
40
0.218749999999929
40
0.249999999999926
40
0.249999999999926
40
0.281249999999923
40
0.281249999999923
40
0.31249999999992
40
0.31249999999992
40
0.328124999999917
40
0.328124999999917
40
0.343749999999913
40
0.343749999999913
40
0.374999999999899
40
0.374999999999899
40
0.406249999999885
40
0.406249999999885
40
0.421874999999883
40
0.421874999999883
40
0.437499999999881
40
0.437499999999881
40
0.468749999999888
40
0.468749999999888
40
0.484374999999892
40
0.484374999999892
40
0.499999999999896
40
0.499999999999896
40
0.531249999999915
40
0.531249999999915
40
0.546874999999919
40
0.546874999999919
40
0.562499999999923
40
0.578124999999927
40
0.578124999999927
40
0.593749999999931
40
0.593749999999931
40
0.624999999999939
40
0.624999999999939
40
0.640624999999943
40
0.640624999999943
40
0.656249999999946
40
0.656249999999946
40
0.687499999999954
40
0.687499999999954
40
0.718749999999962
40
0.718749999999962
40
0.734374999999965
40
0.734374999999965
40
0.749999999999967
40
0.749999999999967
40
0.781249999999972
40
0.781249999999972
40
0.796874999999975
40
0.796874999999975
40
0.812499999999978
40
0.812499999999978
40
0.843749999999983
40
0.843749999999983
40
0.874999999999988
40
0.874999999999988
40
0.906249999999993
40
0.906249999999993
40
0.92187499999999
40
0.92187499999999
40
0.937499999999987
40
0.937499999999987
40
0.968749999999994
40
0.968749999999994
40
1
40
1
40
1
40
1
41
1
10
292.00278911352
20
-2.66888189849627
30
0
41
1
10
292.144621741087
20
-2.66888189849627
30
0
41
1
10
292.283975704423
20
-2.6833151431787
30
0
41
1
10
292.489444207106
20
-2.72569760144847
30
0
41
1
10
292.557335284695
20
-2.7433075591598
30
0
41
1
10
292.691890753216
20
-2.78566130206301
30
0
41
1
10
292.758471205794
20
-2.81043419878876
30
0
41
1
10
292.951815756249
20
-2.89373940077192
30
0
41
1
10
293.073817370353
20
-2.96162133957373
30
0
41
1
10
293.24654095904
20
-3.08179593959679
30
0
41
1
10
293.302675270855
20
-3.12520336580664
30
0
41
1
10
293.40937050914
20
-3.21664017133281
30
0
41
1
10
293.460063650066
20
-3.26470768309531
30
0
41
1
10
293.604417111561
20
-3.41572984337617
30
0
41
1
10
293.69057494362
20
-3.5256812995824
30
0
41
1
10
293.841289817774
20
-3.76302215054005
30
0
41
1
10
293.903754186696
20
-3.88700569457961
30
0
41
1
10
293.979175955054
20
-4.08044576491949
30
0
41
1
10
294.001248253051
20
-4.14617940865176
30
0
41
1
10
294.039174484477
20
-4.28017863340676
30
0
41
1
10
294.054978601653
20
-4.34843503892498
30
0
41
1
10
294.092165448394
20
-4.55275453786606
30
0
41
1
10
294.103853137964
20
-4.68976959377301
30
0
41
1
10
294.101574634029
20
-4.96534293259452
30
0
41
1
10
294.087227993076
20
-5.10444531274482
30
0
41
1
10
294.033808981878
20
-5.37332907420478
30
0
41
1
10
293.99484712523
20
-5.50449159611117
30
0
41
1
10
293.917630290555
20
-5.69626571513922
30
0
41
1
10
293.888626695036
20
-5.7595046659095
30
0
41
1
10
293.825406764053
20
-5.88174171760443
30
0
41
1
10
293.791082322249
20
-5.94105748219141
30
0
41
1
10
293.680046683296
20
-6.11367627385351
30
0
41
1
10
293.595359235087
20
-6.22170609498795
30
0
41
1
10
293.403144632104
20
-6.42283382486116
30
0
41
1
10
293.29810071086
20
-6.51318400338431
30
0
41
1
10
293.128874606937
20
-6.63210955457916
30
0
41
1
10
293.070423444544
20
-6.66905438729529
30
0
41
1
10
292.949281321725
20
-6.73736738182629
30
0
41
1
10
292.886191415093
20
-6.7689008389242
30
0
41
1
10
292.693331175716
20
-6.85323600559096
30
0
41
1
10
292.560749610439
20
-6.8957737196784
30
0
41
1
10
292.355858094304
20
-6.93911799396716
30
0
41
1
10
292.286550698366
20
-6.95013121476975
30
0
41
1
10
292.145822642838
20
-6.96498070527798
30
0
41
1
10
292.075107525078
20
-6.96870921730385
30
0
41
1
10
291.864707102512
20
-6.96893536632965
30
0
41
1
10
291.725595610816
20
-6.95471046089051
30
0
41
1
10
291.518674990542
20
-6.91160993739757
30
0
41
1
10
291.450023978965
20
-6.8935363859442
30
0
41
1
10
291.316544815961
20
-6.85098066049304
30
0
41
1
10
291.18603921585
20
-6.80186725524726
30
0
41
1
10
291.061310557822
20
-6.73998089192762
30
0
41
1
10
290.939471083061
20
-6.67168633775873
30
0
41
1
10
290.879819632189
20
-6.63417136971191
30
0
41
1
10
290.708849546658
20
-6.51439585071557
30
0
41
1
10
290.604234191139
20
-6.42440918941801
30
0
41
1
10
290.460759611462
20
-6.27473927513802
30
0
41
1
10
290.414983519044
20
-6.22210203130507
30
0
41
1
10
290.329233707774
20
-6.11331025672595
30
0
41
1
10
290.289279803342
20
-6.05724985587085
30
0
41
1
10
290.177856308653
20
-5.88423201833925
30
0
41
1
10
290.11474560313
20
-5.76248270830502
30
0
41
1
10
290.011156881992
20
-5.50588138502022
30
0
41
1
10
289.971884525778
20
-5.37371709155764
30
0
41
1
10
289.931823534482
20
-5.1723584509588
30
0
41
1
10
289.92157873833
20
-5.10458109318031
30
0
41
1
10
289.907412113595
20
-4.96768412271092
30
0
41
1
10
289.90349142432
20
-4.89824068669884
30
0
41
1
10
289.901644653057
20
-4.6902092725517
30
0
41
1
10
289.913416896598
20
-4.5531416361774
30
0
41
1
10
289.950286503128
20
-4.34995317455602
30
0
41
1
10
289.965799869463
20
-4.28262888039902
30
0
41
1
10
290.003494645615
20
-4.14882592155485
30
0
41
1
10
290.025798330414
20
-4.08212094436709
30
0
41
1
10
290.101495674422
20
-3.88759927320263
30
0
41
1
10
290.163864065766
20
-3.76401922020807
30
0
41
1
10
290.312550816339
20
-3.52922083218888
30
0
41
1
10
290.399996759178
20
-3.41709543665817
30
0
41
1
10
290.592676138794
20
-3.21522156408881
30
0
41
1
10
290.698274201339
20
-3.12440003081053
30
0
41
1
10
290.870915581895
20
-3.00379830788455
30
0
41
1
10
290.93118098636
20
-2.96606927056447
30
0
41
1
10
291.054034039412
20
-2.89758102331319
30
0
41
1
10
291.116820558368
20
-2.86663921344791
30
0
41
1
10
291.309185349777
20
-2.78355108564622
30
0
41
1
10
291.443079377929
20
-2.7409679266774
30
0
41
1
10
291.720582486416
20
-2.68332837944931
30
0
41
1
10
291.860956485953
20
-2.66888189849627
30
0
41
1
10
292.00278911352
20
-2.66888189849627
30
0
0
SPLINE
5
305
100
AcDbEntity
8
1
62
256
6
ByLayer
370
13
48
1
60
0
100
AcDbSpline
70
4
71
3
72
8
73
4
40
0
40
0
40
0
40
0
40
1
40
1
40
1
40
1
41
1
10
41
20
-9.06261503789602
30
0
41
1
10
39.3333333319997
20
-9.06268363010449
30
0
41
1
10
37.6666666647144
20
-9.06277355274921
30
0
41
1
10
36
20
-9.06289295970814
30
0
0
SPLINE
5
306
100
AcDbEntity
8
1
62
256
6
ByLayer
370
13
48
1
60
0
100
AcDbSpline
70
4
71
3
72
10
73
6
40
0
40
0
40
0
40
0
40
0.497237581448444
40
0.497237581448444
40
1
40
1
40
1
40
1
41
1
10
36.45
20
-24.6050897915598
30
0
41
1
10
36.45
20
-22.8596316458646
30
0
41
1
10
36.45
20
-21.1141735003404
30
0
41
1
10
36.45
20
-17.6038633176937
30
0
41
1
10
36.45
20
-15.839011280575
30
0
41
1
10
36.45
20
-14.0741592436312
30
0
0
SPLINE
5
307
100
AcDbEntity
8
1
62
256
6
ByLayer
370
13
48
1
60
0
100
AcDbSpline
70
4
71
3
72
10
73
6
40
0
40
0
40
0
40
0
40
0.5
40
0.5
40
1
40
1
40
1
40
1
41
1
10
297.915825628003
20
-4.15057012201456
30
0
41
1
10
297.969279868797
20
-4.44329314013766
30
0
41
1
10
298.001843401931
20
-4.73587186791011
30
0
41
1
10
298.027308640575
20
-5.32061779019136
30
0
41
1
10
298.020206005474
20
-5.61278530939987
30
0
41
1
10
297.993074000963
20
-5.90473545757189
30
0
0
SPLINE
5
308
100
AcDbEntity
8
1
62
256
6
ByLayer
370
13
48
1
60
0
100
AcDbSpline
70
4
71
3
72
8
73
4
40
0
40
0
40
0
40
0
40
1
40
1
40
1
40
1
41
1
10
34.2449980037534
20
-24.6186868491326
30
0
41
1
10
34.2449980038129
20
-24.847799469467
30
0
41
1
10
34.2449980038733
20
-25.076912089801
30
0
41
1
10
34.2449980039345
20
-25.3060247101346
30
0
0
SPLINE
5
309
100
AcDbEntity
8
1
62
256
6
ByLayer
370
13
48
1
60
0
100
AcDbSpline
70
4
71
3
72
8
73
4
40
0
40
0
40
0
40
0
40
1
40
1
40
1
40
1
41
1
10
280.470467856679
20
8.00714584152692
30
0
41
1
10
280.621141387177
20
8.22880309683325
30
0
41
1
10
280.768765647187
20
8.45034367339159
30
0
41
1
10
280.914545092917
20
8.67089313490666
30
0
0
SPLINE
5
30A
100
AcDbEntity
8
1
62
256
6
ByLayer
370
13
48
1
60
0
100
AcDbSpline
70
4
71
3
72
8
73
4
40
0
40
0
40
0
40
0
40
1
40
1
40
1
40
1
41
1
10
278.160715201621
20
11.7048864860953
30
0
41
1
10
278.147645090964
20
11.7076264510749
30
0
41
1
10
278.134524323575
20
11.7100486892972
30
0
41
1
10
278.121349742147
20
11.7121333976599
30
0
0
SPLINE
5
30B
100
AcDbEntity
8
1
62
256
6
ByLayer
370
13
48
1
60
0
100
AcDbSpline
70
4
71
3
72
8
73
4
40
0
40
0
40
0
40
0
40
1
40
1
40
1
40
1
41
1
10
271.440160353737
20
24.6630373292246
30
0
41
1
10
271.470231842202
20
24.7101348016251
30
0
41
1
10
271.500224338496
20
24.7572837131246
30
0
41
1
10
271.530138584633
20
24.804483580528
30
0
0
SPLINE
5
30C
100
AcDbEntity
8
1
62
256
6
ByLayer
370
13
48
1
60
0
100
AcDbSpline
70
4
71
3
72
46
73
42
40
0
40
0
40
0
40
0
40
0.0625000000000003
40
0.0625000000000003
40
0.125000000000001
40
0.125000000000001
40
0.156250000000001
40
0.156250000000001
40
0.187500000000001
40
0.187500000000001
40
0.250000000000001
40
0.250000000000001
40
0.281250000000001
40
0.281250000000001
40
0.312500000000001
40
0.312500000000001
40
0.375000000000002
40
0.375000000000002
40
0.406250000000002
40
0.406250000000002
40
0.437500000000002
40
0.437500000000002
40
0.500000000000002
40
0.500000000000002
40
0.531250000000002
40
0.531250000000002
40
0.562500000000002
40
0.562500000000002
40
0.625000000000002
40
0.625000000000002
40
0.687500000000001
40
0.687500000000001
40
0.718750000000001
40
0.718750000000001
40
0.750000000000001
40
0.750000000000001
40
0.875000000000001
40
0.875000000000001
40
0.9375
40
0.9375
40
1
40
1
40
1
40
1
41
1
10
6.80986454934896
20
-26.5460526997631
30
0
41
1
10
6.6822783358292
20
-26.7322219105749
30
0
41
1
10
6.5793195915218
20
-26.9138606294323
30
0
41
1
10
6.42150801213482
20
-27.2673555019228
30
0
41
1
10
6.36664908524818
20
-27.4392161903837
30
0
41
1
10
6.32243266475845
20
-27.688935165949
30
0
41
1
10
6.31423465961933
20
-27.7700632570789
30
0
41
1
10
6.31078830608445
20
-27.9270802689186
30
0
41
1
10
6.3155513979943
20
-28.0031421382734
30
0
41
1
10
6.34856744996918
20
-28.224186617619
30
0
41
1
10
6.39515408364588
20
-28.36210052195
30
0
41
1
10
6.50162463769112
20
-28.5550118613926
30
0
41
1
10
6.54350360900149
20
-28.6171124470903
30
0
41
1
10
6.63805164190477
20
-28.7349329643661
30
0
41
1
10
6.69084106190188
20
-28.7908656701741
30
0
41
1
10
6.86511922303981
20
-28.9501858142955
30
0
41
1
10
7.00242198333434
20
-29.0451328590214
30
0
41
1
10
7.23822927020703
20
-29.1720510551077
30
0
41
1
10
7.32202094616051
20
-29.2118301226051
30
0
41
1
10
7.49883330396953
20
-29.2860060812556
30
0
41
1
10
7.5913686843295
20
-29.3202206343743
30
0
41
1
10
7.88078218358039
20
-29.4148362533332
30
0
41
1
10
8.08942220103846
20
-29.4672385984412
30
0
41
1
10
8.42457224417949
20
-29.5315497780643
30
0
41
1
10
8.53999937223111
20
-29.5505968145152
30
0
41
1
10
8.77817972699614
20
-29.5841145770903
30
0
41
1
10
8.90124553204869
20
-29.5986131334722
30
0
41
1
10
9.27902418114398
20
-29.6352639337071
30
0
41
1
10
9.54127454685344
20
-29.6505902892578
30
0
41
1
10
10.0855927075529
20
-29.6652036575462
30
0
41
1
10
10.3675878952542
20
-29.6645218175518
30
0
41
1
10
10.8052371407421
20
-29.6525545852083
30
0
41
1
10
10.9535610004391
20
-29.6467400892029
30
0
41
1
10
11.2550746419418
20
-29.6316065467914
30
0
41
1
10
11.4084733624946
20
-29.6222651122866
30
0
41
1
10
12.1802304781221
20
-29.5675809751063
30
0
41
1
10
12.8182768289688
20
-29.4983739683367
30
0
41
1
10
13.806555923372
20
-29.3625349492419
30
0
41
1
10
14.1414051325853
20
-29.3117949685907
30
0
41
1
10
14.8217727048436
20
-29.1996302341574
30
0
41
1
10
15.1639415070573
20
-29.1387556553247
30
0
41
1
10
15.5082059906164
20
-29.0731638735045
30
0
0
SPLINE
5
30D
100
AcDbEntity
8
1
62
256
6
ByLayer
370
13
48
1
60
0
100
AcDbSpline
70
4
71
3
72
19
73
15
40
0
40
0
40
0
40
0
40
0.25
40
0.25
40
0.375
40
0.375
40
0.5
40
0.5
40
0.625
40
0.625
40
0.75
40
0.875
40
0.875
40
1
40
1
40
1
40
1
41
1
10
36.0049999151342
20
-14.0782737991171
30
0
41
1
10
33.7946807055126
20
-14.535692336131
30
0
41
1
10
31.5949110328032
20
-15.216621200333
30
0
41
1
10
28.4484294822013
20
-16.5698105770031
30
0
41
1
10
27.425268475475
20
-17.0768059524275
30
0
41
1
10
25.4520031288598
20
-18.1959674170821
30
0
41
1
10
24.5017686486252
20
-18.8074730565845
30
0
41
1
10
22.6947999020138
20
-20.1224615038341
30
0
41
1
10
21.8380751927821
20
-20.8259511103562
30
0
41
1
10
20.2387907319923
20
-22.3130070433274
30
0
41
1
10
18.7532436516878
20
-23.8798355255472
30
0
41
1
10
17.5147677702601
20
-25.5669476980682
30
0
41
1
10
16.4096257073768
20
-27.2945710119873
30
0
41
1
10
15.9246283696052
20
-28.1786242337982
30
0
41
1
10
15.5082059906164
20
-29.0731638735045
30
0
0
SPLINE
5
30E
100
AcDbEntity
8
1
62
256
6
ByLayer
370
13
48
1
60
0
100
AcDbSpline
70
4
71
3
72
8
73
4
40
0
40
0
40
0
40
0
40
1
40
1
40
1
40
1
41
1
10
280.107106212145
20
-25.2408356369061
30
0
41
1
10
279.10710621176
20
-25.1545675367665
30
0
41
1
10
278.107106211756
20
-25.0682994322541
30
0
41
1
10
277.107106212145
20
-24.9820313232318
30
0
0
SPLINE
5
30F
100
AcDbEntity
8
1
62
256
6
ByLayer
370
13
48
1
60
0
100
AcDbSpline
70
4
71
3
72
18
73
14
40
0
40
0
40
0
40
0
40
0.124999999999999
40
0.124999999999999
40
0.249999999999999
40
0.249999999999999
40
0.374999999999998
40
0.374999999999998
40
0.499999999999998
40
0.499999999999998
40
0.749999999999999
40
0.749999999999999
40
1
40
1
40
1
40
1
41
1
10
285.554549027944
20
9.49627737310755
30
0
41
1
10
285.541587875731
20
9.48349666346337
30
0
41
1
10
285.533233985637
20
9.47445589226714
30
0
41
1
10
285.528353281595
20
9.4655243390626
30
0
41
1
10
285.531728357908
20
9.46546746250613
30
0
41
1
10
285.548059609986
20
9.47302096924733
30
0
41
1
10
285.561099549336
20
9.48064379793072
30
0
41
1
10
285.593059509052
20
9.50134267295704
30
0
41
1
10
285.612263314141
20
9.51459837039945
30
0
41
1
10
285.675328584249
20
9.56079774257955
30
0
41
1
10
285.723358883461
20
9.59910864671298
30
0
41
1
10
285.826162336554
20
9.69056574739378
30
0
41
1
10
285.878228599885
20
9.74131238896877
30
0
41
1
10
285.929956732343
20
9.79760546295302
30
0
0
SPLINE
5
310
100
AcDbEntity
8
1
62
256
6
ByLayer
370
13
48
1
60
0
100
AcDbSpline
70
4
71
3
72
16
73
12
40
0
40
0
40
0
40
0
40
0.125
40
0.125
40
0.25
40
0.25
40
0.5
40
0.5
40
0.75
40
0.75
40
1
40
1
40
1
40
1
41
1
10
142
20
-24.9886179872035
30
0
41
1
10
137.79167651484
20
-25.0003280782979
30
0
41
1
10
133.583341481573
20
-25.011375919105
30
0
41
1
10
125.166672604951
20
-25.0334035309623
30
0
41
1
10
120.958338287432
20
-25.0444320257538
30
0
41
1
10
108.333336029142
20
-25.077602063802
30
0
41
1
10
99.9166686123868
20
-25.0998115604349
30
0
41
1
10
83.0833348167091
20
-25.1443216209935
30
0
41
1
10
74.6666682903277
20
-25.1666100122998
30
0
41
1
10
57.8333342510986
20
-25.2110855248729
30
0
41
1
10
49.4166668368307
20
-25.2332822155883
30
0
41
1
10
41
20
-25.2555329126464
30
0
0
SPLINE
5
311
100
AcDbEntity
8
1
62
256
6
ByLayer
370
13
48
1
60
0
100
AcDbSpline
70
4
71
3
72
17
73
13
40
0
40
0
40
0
40
0
40
0.5
40
0.5
40
0.75
40
0.75
40
0.78125
40
0.78125
40
0.8125
40
0.875
40
0.875
40
1
40
1
40
1
40
1
41
1
10
15.5082059906164
20
-29.0731638735045
30
0
41
1
10
18.0630107217633
20
-28.5864050790029
30
0
41
1
10
20.6004379036355
20
-28.040325015103
30
0
41
1
10
24.379729621001
20
-27.1295510257238
30
0
41
1
10
25.6348164696661
20
-26.8107237626662
30
0
41
1
10
27.0431761509841
20
-26.4339567538142
30
0
41
1
10
27.1995452131201
20
-26.3915702979422
30
0
41
1
10
27.5124394444216
20
-26.3075058143235
30
0
41
1
10
27.9825389092949
20
-26.1848494980815
30
0
41
1
10
28.4549100099539
20
-26.0725020749631
30
0
41
1
10
29.402681693342
20
-25.8615552983233
30
0
41
1
10
30.0385661900454
20
-25.7392430668362
30
0
41
1
10
30.6785214642269
20
-25.6354043997369
30
0
0
SPLINE
5
312
100
AcDbEntity
8
1
62
256
6
ByLayer
370
13
48
1
60
0
100
AcDbSpline
70
4
71
3
72
12
73
8
40
0
40
0
40
0
40
0
40
0.249999999999879
40
0.249999999999879
40
0.499999999999759
40
0.499999999999759
40
1
40
1
40
1
40
1
41
1
10
276.792797538791
20
11.6510231369289
30
0
41
1
10
276.797715327076
20
11.6729578868793
30
0
41
1
10
276.81019417851
20
11.6925864722049
30
0
41
1
10
276.84241574552
20
11.7241485246917
30
0
41
1
10
276.861969600176
20
11.7363778581607
30
0
41
1
10
276.924482503305
20
11.764810749655
30
0
41
1
10
276.971410945322
20
11.7732863563598
30
0
41
1
10
277.019029227526
20
11.7745927857965
30
0
0
SPLINE
5
313
100
AcDbEntity
8
1
62
256
6
ByLayer
370
13
48
1
60
0
100
AcDbSpline
70
4
71
3
72
18
73
14
40
0
40
0
40
0
40
0
40
0.250000000000019
40
0.250000000000019
40
0.37500000000001
40
0.37500000000001
40
0.5
40
0.5
40
0.749999999999981
40
0.749999999999981
40
0.87499999999999
40
0.87499999999999
40
1
40
1
40
1
40
1
41
1
10
274.054254725896
20
2.52383872073011
30
0
41
1
10
274.357370394491
20
2.37984274119344
30
0
41
1
10
274.666691183175
20
2.26641545854315
30
0
41
1
10
275.140385288563
20
2.1398456505207
30
0
41
1
10
275.29990481766
20
2.10497681985069
30
0
41
1
10
275.622296741337
20
2.05014956029123
30
0
41
1
10
275.785833938899
20
2.03020105648929
30
0
41
1
10
276.272023787885
20
1.9941101868408
30
0
41
1
10
276.59280895263
20
2.00087517264862
30
0
41
1
10
277.068486743045
20
2.05614523358514
30
0
41
1
10
277.226117462933
20
2.08213286700777
30
0
41
1
10
277.539289317053
20
2.14956102874845
30
0
41
1
10
277.693783598134
20
2.19081297691184
30
0
41
1
10
277.845053089083
20
2.23919255641198
30
0
0
SPLINE
5
314
100
AcDbEntity
8
1
62
256
6
ByLayer
370
13
48
1
60
0
100
AcDbSpline
70
4
71
3
72
8
73
4
40
0
40
0
40
0
40
0
40
1
40
1
40
1
40
1
41
1
10
278.58554504367
20
-0.664904496436208
30
0
41
1
10
279.092689262507
20
-0.727075323919678
30
0
41
1
10
279.599876820129
20
-0.78903717066018
30
0
41
1
10
280.107106212145
20
-0.850797290874738
30
0
0
SPLINE
5
315
100
AcDbEntity
8
1
62
256
6
ByLayer
370
13
48
1
60
0
100
AcDbSpline
70
4
71
3
72
10
73
6
40
0
40
0
40
0
40
0
40
0.5
40
0.5
40
1
40
1
40
1
40
1
41
1
10
278.441711657191
20
11.6864217507338
30
0
41
1
10
278.713987450816
20
11.638300402073
30
0
41
1
10
278.976103828216
20
11.611250228142
30
0
41
1
10
279.490201320231
20
11.5826317877554
30
0
41
1
10
279.741998635579
20
11.5810027192495
30
0
41
1
10
279.990657954527
20
11.5875758148122
30
0
0
SPLINE
5
316
100
AcDbEntity
8
1
62
256
6
ByLayer
370
13
48
1
60
0
100
AcDbSpline
70
4
71
3
72
38
73
34
40
0
40
0
40
0
40
0
40
0.014981416707695
40
0.014981416707695
40
0.03788882562147
40
0.03788882562147
40
0.0607962345352449
40
0.0607962345352449
40
0.0837036434490199
40
0.0837036434490199
40
0.12951846127657
40
0.12951846127657
40
0.17533327910412
40
0.17533327910412
40
0.198240688017895
40
0.198240688017895
40
0.22114809693167
40
0.22114809693167
40
0.232601801388557
40
0.232601801388557
40
0.244055505845444
40
0.244055505845444
40
0.266962914759218
40
0.266962914759218
40
0.358592550414315
40
0.358592550414315
40
0.450222186069413
40
0.450222186069413
40
0.541851821724511
40
0.541851821724511
40
0.633481457379608
40
0.633481457379608
40
1
40
1
40
1
40
1
41
1
10
198.131552361732
20
-13.0344320306071
30
0
41
1
10
197.331556784263
20
-13.089775865597
30
0
41
1
10
196.531020063485
20
-13.1433908266419
30
0
41
1
10
194.505015041976
20
-13.274892003281
30
0
41
1
10
193.27873995518
20
-13.3500703400822
30
0
41
1
10
190.822851303221
20
-13.4879614317699
30
0
41
1
10
189.593201189953
20
-13.5503736146496
30
0
41
1
10
187.130196233983
20
-13.6616570578225
30
0
41
1
10
185.896400081782
20
-13.7107924186661
30
0
41
1
10
182.195659752442
20
-13.8407959495671
30
0
41
1
10
179.727973995807
20
-13.904435896844
30
0
41
1
10
174.791529992089
20
-13.9969511922959
30
0
41
1
10
172.322766695815
20
-14.0253994916999
30
0
41
1
10
168.618878606136
20
-14.0527713179575
30
0
41
1
10
167.384126763301
20
-14.0594265378404
30
0
41
1
10
164.914387765968
20
-14.0692349448813
30
0
41
1
10
163.679390919264
20
-14.0722473631997
30
0
41
1
10
161.826693582062
20
-14.0741323129502
30
0
41
1
10
161.209101322489
20
-14.0743729903277
30
0
41
1
10
159.973904479701
20
-14.0744543940111
30
0
41
1
10
159.356300823997
20
-14.0743270341212
30
0
41
1
10
157.503484928594
20
-14.0742179525148
30
0
41
1
10
156.268264730567
20
-14.0742695819132
30
0
41
1
10
150.092123910273
20
-14.0746692449436
30
0
41
1
10
145.151072735415
20
-14.0745361051173
30
0
41
1
10
135.269070870555
20
-14.0746221794624
30
0
41
1
10
130.328117973585
20
-14.0741798461596
30
0
41
1
10
120.446228879599
20
-14.0734889780979
30
0
41
1
10
115.505286338902
20
-14.073392508155
30
0
41
1
10
105.62338197824
20
-14.0737552039633
30
0
41
1
10
100.682425117433
20
-14.0740992642388
30
0
41
1
10
75.9776459769682
20
-14.0749022068215
30
0
41
1
10
56.2138230926086
20
-14.0742068903875
30
0
41
1
10
36.45
20
-14.0741592436312
30
0
0
SPLINE
5
317
100
AcDbEntity
8
1
62
256
6
ByLayer
370
13
48
1
60
0
100
AcDbSpline
70
4
71
3
72
8
73
4
40
0
40
0
40
0
40
0
40
1
40
1
40
1
40
1
41
1
10
282.429135371892
20
25.1647264834241
30
0
41
1
10
282.489771464642
20
25.1708484252233
30
0
41
1
10
282.550470382595
20
25.1763651515634
30
0
41
1
10
282.611235920454
20
25.1812401068494
30
0
0
SPLINE
5
318
100
AcDbEntity
8
1
62
256
6
ByLayer
370
13
48
1
60
0
100
AcDbSpline
70
4
71
3
72
12
73
8
40
0
40
0
40
0
40
0
40
0.0590144538838209
40
0.0590144538838209
40
0.539196235636245
40
0.539196235636245
40
1
40
1
40
1
40
1
41
1
10
299.824375736982
20
10.3385908441457
30
0
41
1
10
299.818904515954
20
10.3327601331954
30
0
41
1
10
299.813339795176
20
10.327007206632
30
0
41
1
10
299.761654647337
20
10.2751765806205
30
0
41
1
10
299.711011046268
20
10.2353282349172
30
0
41
1
10
299.602702894408
20
10.1696316972693
30
0
41
1
10
299.545200374758
20
10.1434432919491
30
0
41
1
10
299.486357061292
20
10.1242767650581
30
0
0
SPLINE
5
319
100
AcDbEntity
8
1
62
256
6
ByLayer
370
13
48
1
60
0
100
AcDbSpline
70
4
71
1
72
4
73
2
40
0
40
0
40
1
40
1
41
1
10
281.363485305688
20
17.3004879720482
30
0
41
1
10
281.433633523856
20
17.3029949097821
30
0
0
SPLINE
5
31A
100
AcDbEntity
8
1
62
256
6
ByLayer
370
13
48
1
60
0
100
AcDbSpline
70
4
71
1
72
4
73
2
40
0
40
0
40
1
40
1
41
1
10
298.998198180176
20
10.1972482457954
30
0
41
1
10
299.062023229892
20
10.2957009074642
30
0
0
SPLINE
5
31B
100
AcDbEntity
8
1
62
256
6
ByLayer
370
13
48
1
60
0
100
AcDbSpline
70
4
71
3
72
10
73
6
40
0
40
0
40
0
40
0
40
0.437251963449385
40
0.437251963449385
40
1
40
1
40
1
40
1
41
1
10
297.71306616853
20
24.9360025747481
30
0
41
1
10
297.714859036324
20
24.9326888352323
30
0
41
1
10
297.724529750398
20
24.9240810745072
30
0
41
1
10
297.761144948735
20
24.8957630610052
30
0
41
1
10
297.792384550105
20
24.8735759788104
30
0
41
1
10
297.825066322975
20
24.8518449007845
30
0
0
SPLINE
5
31C
100
AcDbEntity
8
1
62
256
6
ByLayer
370
13
48
1
60
0
100
AcDbSpline
70
4
71
3
72
14
73
10
40
0
40
0
40
0
40
0
40
0.0288455662321754
40
0.0288455662321754
40
0.190704638526742
40
0.190704638526742
40
0.352563710821309
40
0.352563710821309
40
1
40
1
40
1
40
1
41
1
10
282.442028669481
20
24.9327450047544
30
0
41
1
10
282.44574837931
20
24.9331821583462
30
0
41
1
10
282.44946133998
20
24.9336074961858
30
0
41
1
10
282.473811516058
20
24.9360745151422
30
0
41
1
10
282.493960038658
20
24.9372606416462
30
0
41
1
10
282.53454235064
20
24.9401323112778
30
0
41
1
10
282.55477046536
20
24.9414577797257
30
0
41
1
10
282.65530261701
20
24.9470199575154
30
0
41
1
10
282.734432504039
20
24.9489191804023
30
0
41
1
10
282.812216260919
20
24.9496149297403
30
0
0
SPLINE
5
31D
100
AcDbEntity
8
1
62
256
6
ByLayer
370
13
48
1
60
0
100
AcDbSpline
70
4
71
3
72
24
73
20
40
0
40
0
40
0
40
0
40
0.0453611707754784
40
0.0453611707754784
40
0.0907223415509569
40
0.0907223415509569
40
0.136083512326435
40
0.136083512326435
40
0.181444683101914
40
0.181444683101914
40
0.272167024652868
40
0.272167024652868
40
0.362889366203823
40
0.362889366203823
40
0.544334049305732
40
0.544334049305732
40
0.72577873240764
40
0.72577873240764
40
1
40
1
40
1
40
1
41
1
10
282.755266580128
20
9.93822049174824
30
0
41
1
10
282.758432244832
20
9.92097078684048
30
0
41
1
10
282.762097186215
20
9.90232343790072
30
0
41
1
10
282.770104366523
20
9.86560426430955
30
0
41
1
10
282.774390075552
20
9.84787325129543
30
0
41
1
10
282.782326701986
20
9.81722755676282
30
0
41
1
10
282.786036490569
20
9.80396334079336
30
0
41
1
10
282.793044770945
20
9.78012209943816
30
0
41
1
10
282.796309300748
20
9.76966852304179
30
0
41
1
10
282.80567596902
20
9.7409216714035
30
0
41
1
10
282.811271534883
20
9.72544968198613
30
0
41
1
10
282.821759245769
20
9.69826691669445
30
0
41
1
10
282.826648953398
20
9.68663131924205
30
0
41
1
10
282.840551813963
20
9.65561433137754
30
0
41
1
10
282.848862495896
20
9.63991794006907
30
0
41
1
10
282.86443747518
20
9.61368968580217
30
0
41
1
10
282.871682255677
20
9.6033052723723
30
0
41
1
10
282.888897628641
20
9.58195562354379
30
0
41
1
10
282.898399787516
20
9.57331940589705
30
0
41
1
10
282.907305561338
20
9.56751595107048
30
0
0
SPLINE
5
31E
100
AcDbEntity
8
1
62
256
6
ByLayer
370
18
48
1
60
0
100
AcDbSpline
70
4
71
1
72
4
73
2
40
0
40
0
40
1
40
1
41
1
10
299.464704534189
20
0.485001713839637
30
0
41
1
10
299.060517345732
20
0.537968988036312
30
0
0
SPLINE
5
31F
100
AcDbEntity
8
1
62
256
6
ByLayer
370
18
48
1
60
0
100
AcDbSpline
70
4
71
3
72
30
73
26
40
0
40
0
40
0
40
0
40
0.0050411894975328
40
0.0127259307634753
40
0.0280954132953603
40
0.0588343783591304
40
0.120312308486671
40
0.243268168741751
40
0.366224028996831
40
0.48533751861894
40
0.489179889251912
40
0.496864630517854
40
0.504549371783797
40
0.519918854315682
40
0.550657819379452
40
0.612135749506992
40
0.735091609762072
40
0.858047470017153
40
0.919525400144693
40
0.950264365208463
40
0.965633847740348
40
0.981003330272233
40
0.988688071538175
40
0.996372812804118
40
1
40
1
40
1
40
1
41
1
10
299.245173350785
20
-14.0126335333589
30
0
41
1
10
299.273170737329
20
-14.0014342235683
30
0
41
1
10
299.343637884284
20
-13.9666312923438
30
0
41
1
10
299.480386952654
20
-13.8308733503438
30
0
41
1
10
299.523309450759
20
-13.5285853193958
30
0
41
1
10
299.588462061996
20
-13.0236564612378
30
0
41
1
10
299.724904343638
20
-12.0002532274263
30
0
41
1
10
299.914859173751
20
-10.5450398272444
30
0
41
1
10
300.151947525577
20
-8.81611571698778
30
0
41
1
10
300.305495032173
20
-7.64952471617468
30
0
41
1
10
300.384581729136
20
-7.01985012847382
30
0
41
1
10
300.380028996116
20
-6.90944060825257
30
0
41
1
10
300.347441572948
20
-6.75850238591104
30
0
41
1
10
300.312706497613
20
-6.50750760161884
30
0
41
1
10
300.228342488687
20
-5.99833437644082
30
0
41
1
10
300.068980504816
20
-4.98280877915406
30
0
41
1
10
299.837404971447
20
-3.53103647126099
30
0
41
1
10
299.604428430235
20
-2.08040578228091
30
0
41
1
10
299.447119657076
20
-1.06283499849039
30
0
41
1
10
299.359596941731
20
-0.558152562593335
30
0
41
1
10
299.324668124458
20
-0.2675278889553
30
0
41
1
10
299.297125795005
20
-0.0703813619199423
30
0
41
1
10
299.226125568139
20
0.103303866084332
30
0
41
1
10
299.133908568875
20
0.195340812946824
30
0
41
1
10
299.074605484658
20
0.227663300930402
30
0
41
1
10
299.055307616878
20
0.236248593017706
30
0
0
SPLINE
5
320
100
AcDbEntity
8
1
62
256
6
ByLayer
370
18
48
1
60
0
100
AcDbSpline
70
4
71
3
72
27
73
23
40
0
40
0
40
0
40
0
40
0.0030232636434926
40
0.0187693116867224
40
0.0502614077731821
40
0.113245599946101
40
0.23921398429194
40
0.365182368637779
40
0.48721424097281
40
0.491150752983617
40
0.499023777005232
40
0.506896801026847
40
0.522642849070077
40
0.554134945156537
40
0.617119137329456
40
0.743087521675294
40
0.869055906021133
40
0.932040098194052
40
0.963532194280512
40
0.979278242323742
40
0.995024290366972
40
1
40
1
40
1
40
1
41
1
10
299.291127360063
20
-13.8014474629155
30
0
41
1
10
299.299564979436
20
-13.7921033729937
30
0
41
1
10
299.346882927704
20
-13.7298963734514
30
0
41
1
10
299.379717997641
20
-13.498650544905
30
0
41
1
10
299.444792430038
20
-12.9943275680989
30
0
41
1
10
299.58124871499
20
-11.970819300635
30
0
41
1
10
299.771238301779
20
-10.5153396351424
30
0
41
1
10
300.00833707433
20
-8.78633953362211
30
0
41
1
10
300.161778378118
20
-7.62055541820331
30
0
41
1
10
300.239322229891
20
-7.00316469676551
30
0
41
1
10
300.235770288907
20
-6.9170256461658
30
0
41
1
10
300.204647893588
20
-6.77287313063332
30
0
41
1
10
300.169435670475
20
-6.51843048844867
30
0
41
1
10
300.085284583379
20
-6.01054233846139
30
0
41
1
10
299.925855621723
20
-4.9945899288777
30
0
41
1
10
299.694320665652
20
-3.54307200449227
30
0
41
1
10
299.461289455887
20
-2.09210092124277
30
0
41
1
10
299.304117483069
20
-1.07541504696425
30
0
41
1
10
299.216180357987
20
-0.568342999241423
30
0
41
1
10
299.1809695116
20
-0.275371706807846
30
0
41
1
10
299.157937791379
20
-0.11051188037078
30
0
41
1
10
299.125630016526
20
-0.0239145532815712
30
0
41
1
10
299.116165851498
20
-0.0044052975817692
30
0
0
SPLINE
5
321
100
AcDbEntity
8
1
62
256
6
ByLayer
370
18
48
1
60
0
100
AcDbSpline
70
4
71
3
72
12
73
8
40
0
40
0
40
0
40
0
40
0.115853713330675
40
0.268292804165576
40
0.420731895000478
40
0.496951440417929
40
1
40
1
40
1
40
1
41
1
10
300.09620918264
20
-6.70604093290396
30
0
41
1
10
300.100577961721
20
-6.7335502367755
30
0
41
1
10
300.11129107983
20
-6.79677658049769
30
0
41
1
10
300.132038650378
20
-6.89287504769837
30
0
41
1
10
300.134870955095
20
-6.96156201079216
30
0
41
1
10
300.113289478258
20
-7.13338999262581
30
0
41
1
10
300.095936544756
20
-7.26997558764785
30
0
41
1
10
300.080693396722
20
-7.38891805786218
30
0
0
SPLINE
5
322
100
AcDbEntity
8
1
62
256
6
ByLayer
370
13
48
1
60
0
100
AcDbSpline
70
4
71
3
72
8
73
4
40
0
40
0
40
0
40
0
40
1
40
1
40
1
40
1
41
1
10
285.538118329161
20
10.5761540594919
30
0
41
1
10
285.489934455326
20
10.5745468173891
30
0
41
1
10
285.441792969849
20
10.573669344927
30
0
41
1
10
285.393731423836
20
10.5739489879338
30
0
0
SPLINE
5
323
100
AcDbEntity
8
1
62
256
6
ByLayer
370
13
48
1
60
0
100
AcDbSpline
70
4
71
3
72
8
73
4
40
0
40
0
40
0
40
0
40
1
40
1
40
1
40
1
41
1
10
299.072518984678
20
0.604059407440616
30
0
41
1
10
299.208489417865
20
0.623750125072377
30
0
41
1
10
299.343529624878
20
0.631462753131359
30
0
41
1
10
299.47873710534
20
0.628748251627712
30
0
0
SPLINE
5
324
100
AcDbEntity
8
1
62
256
6
ByLayer
370
13
48
1
60
0
100
AcDbSpline
70
4
71
3
72
24
73
20
40
0
40
0
40
0
40
0
40
0.087106845260298
40
0.087106845260298
40
0.174213690520596
40
0.174213690520596
40
0.348427381041191
40
0.348427381041191
40
0.435534226301488
40
0.435534226301488
40
0.522641071561786
40
0.522641071561786
40
0.696854762082381
40
0.696854762082381
40
0.78396160734268
40
0.78396160734268
40
0.871068452602978
40
0.871068452602978
40
1
40
1
40
1
40
1
41
1
10
36.01
20
-14.0741592436312
30
0
41
1
10
36.01
20
-13.9420849509243
30
0
41
1
10
36.01
20
-13.8067247925769
30
0
41
1
10
36.01
20
-13.5293687040547
30
0
41
1
10
36.01
20
-13.3876116341154
30
0
41
1
10
36.01
20
-12.9584293350575
30
0
41
1
10
36.01
20
-12.6652422559227
30
0
41
1
10
36.01
20
-12.214913467267
30
0
41
1
10
36.01
20
-12.0627875214889
30
0
41
1
10
36.01
20
-11.7559325470047
30
0
41
1
10
36.01
20
-11.6030908957432
30
0
41
1
10
36.01
20
-11.1462493284327
30
0
41
1
10
36.01
20
-10.8439294618276
30
0
41
1
10
36.01
20
-10.3938507781003
30
0
41
1
10
36.01
20
-10.2436296413349
30
0
41
1
10
36.01
20
-9.94939538944783
30
0
41
1
10
36.01
20
-9.80517802357005
30
0
41
1
10
36.01
20
-9.45444515025912
30
0
41
1
10
36.01
20
-9.25125276577006
30
0
41
1
10
36.01
20
-9.05431224361251
30
0
0
SPLINE
5
325
100
AcDbEntity
8
1
62
256
6
ByLayer
370
13
48
1
60
0
100
AcDbSpline
70
4
71
3
72
10
73
6
40
0
40
0
40
0
40
0
40
0.80610822129154
40
0.80610822129154
40
1
40
1
40
1
40
1
41
1
10
281.85566143541
20
19.0100367466055
30
0
41
1
10
281.81925528529
20
18.9609122691506
30
0
41
1
10
281.787621083916
20
18.9131400272961
30
0
41
1
10
281.758382811686
20
18.8631368935748
30
0
41
1
10
281.753194300718
20
18.8538876201224
30
0
41
1
10
281.748673453251
20
18.8454180518184
30
0
0
SPLINE
5
326
100
AcDbEntity
8
1
62
256
6
ByLayer
370
13
48
1
60
0
100
AcDbSpline
70
4
71
3
72
8
73
4
40
0
40
0
40
0
40
0
40
1
40
1
40
1
40
1
41
1
10
283.588393066814
20
25.0678753100393
30
0
41
1
10
283.490335345197
20
25.0606771385035
30
0
41
1
10
283.389773509979
20
25.0545934453451
30
0
41
1
10
283.286768419735
20
25.0497024966143
30
0
0
SPLINE
5
327
100
AcDbEntity
8
1
62
256
6
ByLayer
370
13
48
1
60
0
100
AcDbSpline
70
4
71
3
72
20
73
16
40
0
40
0
40
0
40
0
40
0.0381146456883789
40
0.0381146456883789
40
0.278585984266284
40
0.278585984266284
40
0.519057322844189
40
0.519057322844189
40
0.579175157488665
40
0.579175157488665
40
0.639292992133141
40
0.639292992133141
40
0.759528661422094
40
0.759528661422094
40
1
40
1
40
1
40
1
41
1
10
16.1051803978249
20
-12.7273470274825
30
0
41
1
10
15.9280696558759
20
-12.8703060076333
30
0
41
1
10
15.7532236742513
20
-13.014649907903
30
0
41
1
10
14.4917334836682
20
-14.0797276522825
30
0
41
1
10
13.4928535873492
20
-15.0545300536333
30
0
41
1
10
11.6639034426611
20
-17.1087702488622
30
0
41
1
10
10.8335960668964
20
-18.1878211249355
30
0
41
1
10
9.9056173089765
20
-19.6035895030392
30
0
41
1
10
9.72550718802262
20
-19.8902261949327
30
0
41
1
10
9.3769895620072
20
-20.4700157933952
30
0
41
1
10
9.20938784191877
20
-20.7619088588854
30
0
41
1
10
8.72593566311095
20
-21.6435543908085
30
0
41
1
10
8.42935232264779
20
-22.2391755008182
30
0
41
1
10
7.61251503888153
20
-24.0481036938895
30
0
41
1
10
7.16446466995586
20
-25.2832751176168
30
0
41
1
10
6.80986454934899
20
-26.5460526997631
30
0
0
SPLINE
5
328
100
AcDbEntity
8
1
62
256
6
ByLayer
370
13
48
1
60
0
100
AcDbSpline
70
4
71
3
72
12
73
8
40
0
40
0
40
0
40
0
40
0.302971743520484
40
0.302971743520484
40
0.651485871760242
40
0.651485871760242
40
1
40
1
40
1
40
1
41
1
10
36.4500049862601
20
-9.05544024403892
30
0
41
1
10
36.4500156988729
20
-9.51881483877446
30
0
41
1
10
36.4500245548547
20
-10.0236418132277
30
0
41
1
10
36.4500386209124
20
-11.1445670108168
30
0
41
1
10
36.4500430783344
20
-11.765626041707
30
0
41
1
10
36.4500452717041
20
-12.9687952855707
30
0
41
1
10
36.4500430069964
20
-13.5505459292584
30
0
41
1
10
36.4500375300079
20
-14.0741592437217
30
0
0
SPLINE
5
329
100
AcDbEntity
8
1
62
256
6
ByLayer
370
13
48
1
60
0
100
AcDbSpline
70
4
71
3
72
68
73
64
40
0
40
0
40
0
40
0
40
0.0035533911758046
40
0.0035533911758046
40
0.0129538308816934
40
0.0129538308816934
40
0.0223542705875822
40
0.0223542705875822
40
0.0411551499993595
40
0.0411551499993595
40
0.0599560294111367
40
0.0599560294111367
40
0.078756908822914
40
0.078756908822914
40
0.0975577882346913
40
0.0975577882346913
40
0.135159547058246
40
0.135159547058246
40
0.172761305881801
40
0.172761305881801
40
0.191562185293578
40
0.191562185293578
40
0.210363064705356
40
0.210363064705356
40
0.229163944117133
40
0.229163944117133
40
0.24796482352891
40
0.24796482352891
40
0.285566582352464
40
0.285566582352464
40
0.304367461764241
40
0.304367461764241
40
0.323168341176019
40
0.323168341176019
40
0.341969220587796
40
0.341969220587796
40
0.351369660293684
40
0.351369660293684
40
0.360770099999573
40
0.360770099999573
40
0.370170539705462
40
0.370170539705462
40
0.37957097941135
40
0.37957097941135
40
0.398371858823128
40
0.398371858823128
40
0.417172738234905
40
0.417172738234905
40
0.435973617646682
40
0.435973617646682
40
0.473575376470237
40
0.473575376470237
40
0.548778894117345
40
0.548778894117345
40
0.5863806529409
40
0.5863806529409
40
0.623982411764454
40
0.623982411764454
40
0.699185929411564
40
0.699185929411564
40
0.849592964705782
40
0.849592964705782
40
1
40
1
40
1
40
1
41
1
10
230.601145454388
20
-20.814835195433
30
0
41
1
10
230.387518269281
20
-20.8649974550895
30
0
41
1
10
230.1739001375
20
-20.9146828374027
30
0
41
1
10
229.395184108018
20
-21.0939847808312
30
0
41
1
10
228.830136569619
20
-21.2205052245523
30
0
41
1
10
227.699984328341
20
-21.4654060384797
30
0
41
1
10
227.134851426713
20
-21.5838990753367
30
0
41
1
10
225.438566316009
20
-21.9287303800245
30
0
41
1
10
224.306667628668
20
-22.1451208960306
30
0
41
1
10
222.035612779241
20
-22.5498631769834
30
0
41
1
10
220.896060446446
20
-22.7384660852011
30
0
41
1
10
218.608291635226
20
-23.0866804832834
30
0
41
1
10
217.459696835269
20
-23.2433721299155
30
0
41
1
10
215.152530875702
20
-23.5233106575726
30
0
41
1
10
213.994006039694
20
-23.6474456418259
30
0
41
1
10
210.503927684244
20
-23.9794680468162
30
0
41
1
10
208.157296928088
20
-24.1462214613061
30
0
41
1
10
203.431184938778
20
-24.4082972654047
30
0
41
1
10
201.056916497766
20
-24.5056369037066
30
0
41
1
10
197.477992388664
20
-24.6076664840839
30
0
41
1
10
196.282079166468
20
-24.6342127784441
30
0
41
1
10
193.883990055328
20
-24.6729853663372
30
0
41
1
10
192.681776016147
20
-24.6854574959574
30
0
41
1
10
190.270161276712
20
-24.702217998353
30
0
41
1
10
189.060546779523
20
-24.7068070725775
30
0
41
1
10
186.637933109909
20
-24.7104619644351
30
0
41
1
10
185.424456587738
20
-24.7094347249125
30
0
41
1
10
181.777432003652
20
-24.7002968376666
30
0
41
1
10
179.337258935189
20
-24.685682324966
30
0
41
1
10
175.663539535551
20
-24.6644894808327
30
0
41
1
10
174.436384570143
20
-24.6576705985378
30
0
41
1
10
171.979164452128
20
-24.6446894463073
30
0
41
1
10
170.75000166945
20
-24.638436098339
30
0
41
1
10
168.290564413518
20
-24.6253778775118
30
0
41
1
10
167.06028541696
20
-24.6183281471957
30
0
41
1
10
165.214041770675
20
-24.6073156832383
30
0
41
1
10
164.598493626288
20
-24.6038600622378
30
0
41
1
10
163.367145287201
20
-24.6008770841095
30
0
41
1
10
162.751337796129
20
-24.6020079345631
30
0
41
1
10
161.519537551883
20
-24.6070963343265
30
0
41
1
10
160.903550140473
20
-24.6105733671165
30
0
41
1
10
159.671507183553
20
-24.6146505428113
30
0
41
1
10
159.055448705166
20
-24.6155985736698
30
0
41
1
10
157.207209340082
20
-24.6173313484453
30
0
41
1
10
155.974959383232
20
-24.6166159341531
30
0
41
1
10
153.510526741148
20
-24.6135870371725
30
0
41
1
10
152.278313057817
20
-24.6112754446986
30
0
41
1
10
149.813886561696
20
-24.6072236125609
30
0
41
1
10
148.581673805943
20
-24.6054473970575
30
0
41
1
10
144.885034596323
20
-24.6014868776625
30
0
41
1
10
142.420605513528
20
-24.601505387732
30
0
41
1
10
135.027309318562
20
-24.6046334328401
30
0
41
1
10
130.098444323592
20
-24.606448918803
30
0
41
1
10
122.70514622878
20
-24.6047590018645
30
0
41
1
10
120.240713500638
20
-24.6038718838615
30
0
41
1
10
115.311848063764
20
-24.6032446249888
30
0
41
1
10
112.847415344336
20
-24.6033614832808
30
0
41
1
10
105.454117172968
20
-24.6042943570493
30
0
41
1
10
100.525251706757
20
-24.6056334438673
30
0
41
1
10
85.7386551831144
20
-24.6067182274092
30
0
41
1
10
75.8809242142268
20
-24.6046671146323
30
0
41
1
10
56.1654621187475
20
-24.603886233765
30
0
41
1
10
46.3077310770779
20
-24.6049969980501
30
0
41
1
10
36.4499999999999
20
-24.6050897915598
30
0
0
SPLINE
5
32A
100
AcDbEntity
8
1
62
256
6
ByLayer
370
13
48
1
60
0
100
AcDbSpline
70
4
71
3
72
12
73
8
40
0
40
0
40
0
40
0
40
0.348004054148656
40
0.348004054148656
40
0.674002027074328
40
0.674002027074328
40
1
40
1
40
1
40
1
41
1
10
254.051909134289
20
11.3001383711253
30
0
41
1
10
256.689136525512
20
11.4527986061871
30
0
41
1
10
259.325915221063
20
11.5678834349706
30
0
41
1
10
264.43400725682
20
11.7151182746786
30
0
41
1
10
266.905789426408
20
11.7519780910209
30
0
41
1
10
271.849533723027
20
11.7548514687089
30
0
41
1
10
274.320938826036
20
11.7208746650961
30
0
41
1
10
276.792797538791
20
11.6510231369289
30
0
0
SPLINE
5
32B
100
AcDbEntity
8
1
62
256
6
ByLayer
370
13
48
1
60
0
100
AcDbSpline
70
4
71
3
72
42
73
38
40
0
40
0
40
0
40
0
40
0.0197825144731756
40
0.0197825144731756
40
0.0643378547243949
40
0.0643378547243949
40
0.108893194975614
40
0.108893194975614
40
0.153448535226834
40
0.153448535226834
40
0.198003875478053
40
0.198003875478053
40
0.242559215729272
40
0.242559215729272
40
0.287114555980492
40
0.287114555980492
40
0.331669896231711
40
0.331669896231711
40
0.37622523648293
40
0.37622523648293
40
0.420780576734149
40
0.420780576734149
40
0.465335916985369
40
0.465335916985369
40
0.554446597487806
40
0.554446597487806
40
0.599001937739026
40
0.599001937739026
40
0.643557277990245
40
0.643557277990245
40
0.732667958492684
40
0.732667958492684
40
0.821778638995123
40
0.821778638995123
40
0.910889319497561
40
0.910889319497561
40
1
40
1
40
1
40
1
41
1
10
231.18767444491
20
-20.9281770991114
30
0
41
1
10
230.634233001725
20
-21.0629543793751
30
0
41
1
10
230.080775574945
20
-21.1947531839802
30
0
41
1
10
228.28038832519
20
-21.6132670457392
30
0
41
1
10
227.032939676475
20
-21.8872707768739
30
0
41
1
10
224.534078127554
20
-22.4011389321714
30
0
41
1
10
223.282280539899
20
-22.6410055325823
30
0
41
1
10
220.772327904924
20
-23.0801210634627
30
0
41
1
10
219.513622310624
20
-23.27941431289
30
0
41
1
10
216.98161942529
20
-23.6356483143204
30
0
41
1
10
215.708677493993
20
-23.7931154865672
30
0
41
1
10
213.14947221059
20
-24.0730643266124
30
0
41
1
10
211.863205587525
20
-24.1955380975054
30
0
41
1
10
209.277979564839
20
-24.410946179866
30
0
41
1
10
207.978503861368
20
-24.5039162874506
30
0
41
1
10
205.372860611971
20
-24.6648811971785
30
0
41
1
10
204.066229640908
20
-24.7329544591049
30
0
41
1
10
201.44556065294
20
-24.8483367894733
30
0
41
1
10
200.131440339449
20
-24.8955765345811
30
0
41
1
10
197.49505259822
20
-24.9725592862608
30
0
41
1
10
196.172798040075
20
-25.0023052662944
30
0
41
1
10
193.519473420838
20
-25.0476646175436
30
0
41
1
10
192.187810325047
20
-25.0632752454953
30
0
41
1
10
188.185013078707
20
-25.0939235816844
30
0
41
1
10
185.504645689269
20
-25.093025671632
30
0
41
1
10
181.465222471343
20
-25.0791171058
30
0
41
1
10
180.11560777874
20
-25.0723431850504
30
0
41
1
10
177.410058294657
20
-25.0570983256744
30
0
41
1
10
176.053408433777
20
-25.048622853767
30
0
41
1
10
171.981193948694
20
-25.0237984396506
30
0
41
1
10
169.262555761081
20
-25.0082779429223
30
0
41
1
10
163.817181226049
20
-24.9903983159682
30
0
41
1
10
161.090313555727
20
-24.9879975673309
30
0
41
1
10
155.635917515282
20
-24.985938971919
30
0
41
1
10
152.90873283755
20
-24.9863492026939
30
0
41
1
10
147.454366370322
20
-24.9874819020853
30
0
41
1
10
144.727184953873
20
-24.9882404543273
30
0
41
1
10
142
20
-24.9886179872033
30
0
0
SPLINE
5
32C
100
AcDbEntity
8
1
62
256
6
ByLayer
370
13
48
1
60
0
100
AcDbSpline
70
4
71
3
72
26
73
22
40
0
40
0
40
0
40
0
40
0.088750950606308
40
0.088750950606308
40
0.177501901212616
40
0.177501901212616
40
0.355003802425232
40
0.355003802425232
40
0.44375475303154
40
0.44375475303154
40
0.532505703637848
40
0.532505703637848
40
0.710007604850464
40
0.710007604850464
40
0.798758555456772
40
0.798758555456772
40
0.88750950606308
40
0.88750950606308
40
0.976260456669388
40
0.976260456669388
40
1
40
1
40
1
40
1
41
1
10
271.530138584633
20
24.8044835805161
30
0
41
1
10
270.237659029447
20
24.8920998228658
30
0
41
1
10
268.94465666836
20
24.9596969812173
30
0
41
1
10
266.36106860477
20
25.054352031373
30
0
41
1
10
265.070056524285
20
25.0814504072997
30
0
41
1
10
261.197896549741
20
25.1019282282093
30
0
41
1
10
258.617615429014
20
25.0344229740978
30
0
41
1
10
254.742182328134
20
24.811586833862
30
0
41
1
10
253.449786294641
20
24.7170482199254
30
0
41
1
10
250.867611309651
20
24.4882267713492
30
0
41
1
10
249.577188770375
20
24.3539058727979
30
0
41
1
10
245.706289777024
20
23.8921009956239
30
0
41
1
10
243.126086948142
20
23.5057395476442
30
0
41
1
10
239.249076146054
20
22.813763649732
30
0
41
1
10
237.956950299968
20
22.5646114246394
30
0
41
1
10
235.373954417967
20
22.03100305647
30
0
41
1
10
234.083140470559
20
21.7460258215434
30
0
41
1
10
231.497903685179
20
21.1459343400623
30
0
41
1
10
230.203314614474
20
20.8310051940507
30
0
41
1
10
228.556457015785
20
20.4188426445071
30
0
41
1
10
228.20853358841
20
20.3311502939522
30
0
41
1
10
227.860252208846
20
20.2427843069441
30
0
0
SPLINE
5
32D
100
AcDbEntity
8
1
62
256
6
ByLayer
370
13
48
1
60
0
100
AcDbSpline
70
4
71
3
72
30
73
26
40
0
40
0
40
0
40
0
40
0.0792518254717344
40
0.0792518254717344
40
0.158503650943469
40
0.158503650943469
40
0.317007301886941
40
0.317007301886941
40
0.475510952830413
40
0.475510952830413
40
0.634014603773886
40
0.634014603773886
40
0.79251825471736
40
0.79251825471736
40
0.832144167453228
40
0.832144167453228
40
0.871770080189096
40
0.871770080189096
40
0.911395992924965
40
0.911395992924965
40
0.951021905660833
40
0.951021905660833
40
0.990647818396701
40
0.990647818396701
40
1
40
1
40
1
40
1
41
1
10
271.440160353719
20
24.6630373292356
30
0
41
1
10
270.292269685775
20
24.7410629318033
30
0
41
1
10
269.144680227442
20
24.803449135164
30
0
41
1
10
266.849370041166
20
24.8966189514779
30
0
41
1
10
265.701270464145
20
24.9274053109575
30
0
41
1
10
262.258638918803
20
24.9715768122386
30
0
41
1
10
259.966555703943
20
24.9365746624606
30
0
41
1
10
255.382135775644
20
24.7391397618444
30
0
41
1
10
253.089811606715
20
24.5768187871767
30
0
41
1
10
248.498868489682
20
24.1262448303632
30
0
41
1
10
246.206148492952
20
23.838124379611
30
0
41
1
10
241.62122239709
20
23.143499913691
30
0
41
1
10
239.328775083423
20
22.737046717764
30
0
41
1
10
236.45963444848
20
22.1592196086192
30
0
41
1
10
235.88551271078
20
22.0401398968572
30
0
41
1
10
234.737577011917
20
21.7953505105464
30
0
41
1
10
234.16375380992
20
21.669727195595
30
0
41
1
10
233.016231021601
20
21.4138821172123
30
0
41
1
10
232.442531931859
20
21.2836618730159
30
0
41
1
10
231.295176093487
20
21.0202992827362
30
0
41
1
10
230.721510866887
20
20.8869530056823
30
0
41
1
10
229.571275458034
20
20.6095911474238
30
0
41
1
10
228.994544008491
20
20.4652801283038
30
0
41
1
10
228.280435332156
20
20.2843994292092
30
0
41
1
10
228.144030232442
20
20.2497686156943
30
0
41
1
10
228.007578972776
20
20.2150533019012
30
0
0
SPLINE
5
32E
100
AcDbEntity
8
1
62
256
6
ByLayer
370
13
48
1
60
0
100
AcDbSpline
70
4
71
3
72
10
73
6
40
0
40
0
40
0
40
0
40
0.807427895126101
40
0.807427895126101
40
1
40
1
40
1
40
1
41
1
10
276.395001217631
20
9.65323323411883
30
0
41
1
10
271.441600060777
20
9.8199654313517
30
0
41
1
10
266.493198752353
20
9.86688873659293
30
0
41
1
10
260.364397411318
20
9.78113466673724
30
0
41
1
10
259.184157353556
20
9.75805108262105
30
0
41
1
10
258.003844080247
20
9.72848144542354
30
0
0
SPLINE
5
32F
100
AcDbEntity
8
1
62
256
6
ByLayer
370
13
48
1
60
0
100
AcDbSpline
70
4
71
3
72
32
73
28
40
0
40
0
40
0
40
0
40
0.11113581184428
40
0.11113581184428
40
0.222271623688559
40
0.222271623688559
40
0.333407435532839
40
0.333407435532839
40
0.388975341454978
40
0.388975341454978
40
0.444543247377118
40
0.444543247377118
40
0.555679059221387
40
0.555679059221387
40
0.666814871065655
40
0.666814871065655
40
0.722382776987795
40
0.722382776987795
40
0.777950682909935
40
0.777950682909935
40
0.889086494754214
40
0.889086494754214
40
0.944654400676354
40
0.944654400676354
40
0.972438353637424
40
0.972438353637424
40
1
40
1
40
1
40
1
41
1
10
276.217468568358
20
8.969098989451
30
0
41
1
10
275.708785260886
20
9.08837982289685
30
0
41
1
10
275.195078286963
20
9.18650940622189
30
0
41
1
10
274.158591400439
20
9.34725299669824
30
0
41
1
10
273.635797995831
20
9.40980338514041
30
0
41
1
10
272.58108406825
20
9.50251964549165
30
0
41
1
10
272.049159652311
20
9.53265815175681
30
0
41
1
10
271.243836523308
20
9.55431625942919
30
0
41
1
10
270.974150600463
20
9.55759605295813
30
0
41
1
10
270.432123943851
20
9.55624366425928
30
0
41
1
10
270.159223243233
20
9.55159088555021
30
0
41
1
10
269.340494779735
20
9.52571395690299
30
0
41
1
10
268.796317549025
20
9.49273761476312
30
0
41
1
10
267.711150160225
20
9.3958056454853
30
0
41
1
10
267.170158943488
20
9.33186154636928
30
0
41
1
10
266.36109400475
20
9.21202713587013
30
0
41
1
10
266.091810488959
20
9.16808437910214
30
0
41
1
10
265.554076994221
20
9.0719001426684
30
0
41
1
10
265.28495223175
20
9.01951581490056
30
0
41
1
10
264.483663237434
20
8.85020846053291
30
0
41
1
10
263.961581567081
20
8.72219618116276
30
0
41
1
10
263.19906349993
20
8.50606051985463
30
0
41
1
10
262.948341098144
20
8.42997169261997
30
0
41
1
10
262.577967775535
20
8.30926456363025
30
0
41
1
10
262.455463762158
20
8.26793027594829
30
0
41
1
10
262.21345578523
20
8.18327523657644
30
0
41
1
10
262.093685263035
20
8.13987799179142
30
0
41
1
10
261.975618530573
20
8.09549406548444
30
0
0
SPLINE
5
330
100
AcDbEntity
8
1
62
256
6
ByLayer
370
13
48
1
60
0
100
AcDbSpline
70
4
71
3
72
46
73
42
40
0
40
0
40
0
40
0
40
0.0852324922077284
40
0.164966739773427
40
0.250482860543945
40
0.341871338832048
40
0.439163042553785
40
0.542324680917637
40
0.551522929107019
40
0.56100866257214
40
0.570782576583261
40
0.58084534742982
40
0.591197630419387
40
0.601840057653989
40
0.612773235598963
40
0.623997742457052
40
0.635514125358595
40
0.647322897377217
40
0.65942453437932
40
0.671819471715023
40
0.684508100757571
40
0.697490765298043
40
0.710767757802003
40
0.72433931553481
40
0.738205616562468
40
0.752366775635175
40
0.766822839961144
40
0.781573784878732
40
0.796619509435498
40
0.811959831883481
40
0.827594485100678
40
0.843523111949521
40
0.859745260584016
40
0.876260379718115
40
0.893067813868867
40
0.910166798588962
40
0.927556455704301
40
0.945235788573462
40
0.963203677387034
40
0.981458874526038
40
1
40
1
40
1
40
1
41
1
10
32.5068436214133
20
-9.17315903901346
30
0
41
1
10
32.5700945119591
20
-9.31239869249418
30
0
41
1
10
32.7000206857723
20
-9.58556566721947
30
0
41
1
10
32.9181769548032
20
-10.0092120890978
30
0
41
1
10
33.1636387268461
20
-10.4499033710746
30
0
41
1
10
33.4501300911057
20
-10.9243876701382
30
0
41
1
10
33.7801892295531
20
-11.4292685848928
30
0
41
1
10
34.0341061353622
20
-11.7886220696285
30
0
41
1
10
34.1857739201478
20
-11.9951440455772
30
0
41
1
10
34.2213190226619
20
-12.0433221676361
30
0
41
1
10
34.2580938289046
20
-12.0928776113241
30
0
41
1
10
34.2961168389244
20
-12.1437970026763
30
0
41
1
10
34.3354104148014
20
-12.1960612714522
30
0
41
1
10
34.3759951820448
20
-12.2496512510592
30
0
41
1
10
34.4178914616062
20
-12.3045460310905
30
0
41
1
10
34.4611187286359
20
-12.3607233380354
30
0
41
1
10
34.5056956174166
20
-12.4181593489168
30
0
41
1
10
34.5516397682848
20
-12.4768286634779
30
0
41
1
10
34.5989677131776
20
-12.5367042325704
30
0
41
1
10
34.647694745008
20
-12.5977572994463
30
0
41
1
10
34.6978347862067
20
-12.6599573384284
30
0
41
1
10
34.7494002522621
20
-12.7232719955669
30
0
41
1
10
34.8024019115443
20
-12.7876670303015
30
0
41
1
10
34.8568487412136
20
-12.8531062587115
30
0
41
1
10
34.9127477794601
20
-12.9195514985148
30
0
41
1
10
34.9701039742312
20
-12.9869625161081
30
0
41
1
10
35.0289200286648
20
-13.0552969759077
30
0
41
1
10
35.0891962434708
20
-13.1245103922984
30
0
41
1
10
35.1509303565284
20
-13.1945560843866
30
0
41
1
10
35.2141173800315
20
-13.2653851342188
30
0
41
1
10
35.2787494354349
20
-13.3369463473676
30
0
41
1
10
35.3448155869328
20
-13.4091862215897
30
0
41
1
10
35.412301672535
20
-13.4820489031695
30
0
41
1
10
35.4811901383979
20
-13.5554762106933
30
0
41
1
10
35.5514598569725
20
-13.6294074220675
30
0
41
1
10
35.6230860059168
20
-13.7037799920169
30
0
41
1
10
35.6960397157166
20
-13.7785267310904
30
0
41
1
10
35.7702886069018
20
-13.8535865553156
30
0
41
1
10
35.8457939312767
20
-13.9288633462938
30
0
41
1
10
35.9225207094828
20
-14.004383257666
30
0
41
1
10
35.9740401247839
20
-14.0542043835141
30
0
41
1
10
36
20
-14.0793085156667
30
0
0
SPLINE
5
331
100
AcDbEntity
8
1
62
256
6
ByLayer
370
13
48
1
60
0
100
AcDbSpline
70
4
71
1
72
4
73
2
40
0
40
0
40
1
40
1
41
1
10
281.355472024303
20
17.0813566543967
30
0
41
1
10
281.443827408032
20
17.0885657713446
30
0
0
SPLINE
5
332
100
AcDbEntity
8
1
62
256
6
ByLayer
370
13
48
1
60
0
100
AcDbSpline
70
4
71
3
72
10
73
6
40
0
40
0
40
0
40
0
40
0.470344360216434
40
0.470344360216434
40
1
40
1
40
1
40
1
41
1
10
297.686971248823
20
24.8531595120439
30
0
41
1
10
297.686990114178
20
24.8529711757047
30
0
41
1
10
297.699836311942
20
24.8527193520998
30
0
41
1
10
297.74791045542
20
24.8522116883778
30
0
41
1
10
297.785868608966
20
24.8519687355538
30
0
41
1
10
297.825066322975
20
24.8518449007845
30
0
0
SPLINE
5
333
100
AcDbEntity
8
1
62
256
6
ByLayer
370
13
48
1
60
0
100
AcDbSpline
70
4
71
3
72
24
73
20
40
0
40
0
40
0
40
0
40
0.0514081714716961
40
0.0514081714716961
40
0.102816342943392
40
0.102816342943392
40
0.154224514415088
40
0.154224514415088
40
0.205632685886784
40
0.205632685886784
40
0.308449028830191
40
0.308449028830191
40
0.411265371773597
40
0.411265371773597
40
0.616898057660411
40
0.616898057660411
40
0.822530743547225
40
0.822530743547225
40
1
40
1
40
1
40
1
41
1
10
300.067370085222
20
10.8455093911684
30
0
41
1
10
300.066024847507
20
10.8280232798823
30
0
41
1
10
300.064329161785
20
10.8090949923808
30
0
41
1
10
300.060204044437
20
10.7717399920116
30
0
41
1
10
300.057795208512
20
10.7536581327631
30
0
41
1
10
300.053105407104
20
10.7223507151873
30
0
41
1
10
300.050802429243
20
10.7087713834809
30
0
41
1
10
300.04632462928
20
10.6843281821624
30
0
41
1
10
300.04417067919
20
10.6735906352675
30
0
41
1
10
300.037860186732
20
10.64402217845
30
0
41
1
10
300.033912537242
20
10.6280500503087
30
0
41
1
10
300.026323651817
20
10.5999199307475
30
0
41
1
10
300.022676981639
20
10.5878369606911
30
0
41
1
10
300.012092440476
20
10.5555366424818
30
0
41
1
10
300.00546800499
20
10.539057534836
30
0
41
1
10
299.992719946186
20
10.5113449330403
30
0
41
1
10
299.986600320132
20
10.5002601207417
30
0
41
1
10
299.975554508393
20
10.4831735423404
30
0
41
1
10
299.9705723344
20
10.4766535798272
30
0
41
1
10
299.965703257891
20
10.4712683511593
30
0
0
SPLINE
5
334
100
AcDbEntity
8
1
62
256
6
ByLayer
370
13
48
1
60
0
100
AcDbSpline
70
4
71
3
72
10
73
6
40
0
40
0
40
0
40
0
40
0.196352315042287
40
0.196352315042287
40
1
40
1
40
1
40
1
41
1
10
299.954912744811
20
10.460942865988
30
0
41
1
10
299.952245174664
20
10.4587757685604
30
0
41
1
10
299.94960865443
20
10.4569097033779
30
0
41
1
10
299.936319302199
20
10.4486983189695
30
0
41
1
10
299.926090674719
20
10.4464593759783
30
0
41
1
10
299.916158767461
20
10.4470869293941
30
0
0
SPLINE
5
335
100
AcDbEntity
8
1
62
256
6
ByLayer
370
13
48
1
60
0
100
AcDbSpline
70
4
71
3
72
10
73
6
40
0
40
0
40
0
40
0
40
0.0966576455534143
40
0.0966576455534143
40
1
40
1
40
1
40
1
41
1
10
253.958517386569
20
11.3621601835709
30
0
41
1
10
254.444835312563
20
11.1684086964403
30
0
41
1
10
254.931007084765
20
10.9734332722215
30
0
41
1
10
259.959623126525
20
8.94424479547862
30
0
41
1
10
264.492223094519
20
7.01084995444722
30
0
41
1
10
269.035018373131
20
5.01904284499506
30
0
0
SPLINE
5
336
100
AcDbEntity
8
1
62
256
6
ByLayer
370
13
48
1
60
0
100
AcDbSpline
70
4
71
3
72
50
73
46
40
0
40
0
40
0
40
0
40
0.0821355190323243
40
0.0821355190323243
40
0.164271038064649
40
0.164271038064649
40
0.246406557096973
40
0.246406557096973
40
0.287474316613135
40
0.287474316613135
40
0.328542076129296
40
0.328542076129296
40
0.410677595161619
40
0.410677595161619
40
0.451745354677781
40
0.451745354677781
40
0.472279234435862
40
0.472279234435862
40
0.492813114193943
40
0.492813114193943
40
0.533880873710105
40
0.533880873710105
40
0.554414753468187
40
0.554414753468187
40
0.574948633226269
40
0.574948633226269
40
0.616016392742432
40
0.616016392742432
40
0.657084152258595
40
0.657084152258595
40
0.739219671290921
40
0.739219671290921
40
0.780287430807084
40
0.780287430807084
40
0.821355190323247
40
0.821355190323247
40
0.86242294983941
40
0.86242294983941
40
0.903490709355573
40
0.903490709355573
40
0.944558468871736
40
0.944558468871736
40
0.985626228387898
40
0.985626228387898
40
1
40
1
40
1
40
1
41
1
10
268.736334949545
20
5.10929574843604
30
0
41
1
10
266.202606217425
20
6.22566133570075
30
0
41
1
10
263.672178876331
20
7.32336007986277
30
0
41
1
10
258.611452322794
20
9.46743424065176
30
0
41
1
10
256.08073032542
20
10.5141921849692
30
0
41
1
10
251.013607309105
20
12.5392911883395
30
0
41
1
10
248.483907505495
20
13.5148483993268
30
0
41
1
10
244.688625724839
20
14.910576423564
30
0
41
1
10
243.423410764516
20
15.3645656867593
30
0
41
1
10
240.891939701447
20
16.2485969577138
30
0
41
1
10
239.625259623159
20
16.6787771337337
30
0
41
1
10
235.825279012142
20
17.9301608254735
30
0
41
1
10
233.296046581593
20
18.7110817313747
30
0
41
1
10
229.50279652775
20
19.7937296264037
30
0
41
1
10
228.23837390072
20
20.1396584978347
30
0
41
1
10
226.340348795197
20
20.6342895346808
30
0
41
1
10
225.70744128898
20
20.7951254654547
30
0
41
1
10
224.440927193739
20
21.1084477122817
30
0
41
1
10
223.807173595697
20
21.2609660481973
30
0
41
1
10
221.90527459041
20
21.7042525550503
30
0
41
1
10
220.63648976738
20
21.9809963308722
30
0
41
1
10
218.725328585845
20
22.3621571334432
30
0
41
1
10
218.086855361518
20
22.4834871462498
30
0
41
1
10
216.805980312264
20
22.7142377058482
30
0
41
1
10
216.163657838714
20
22.82375412036
30
0
41
1
10
214.230605538288
20
23.1355074967671
30
0
41
1
10
212.93354921535
20
23.3207500187433
30
0
41
1
10
210.323232010592
20
23.6528579252408
30
0
41
1
10
209.009215253301
20
23.7998532178134
30
0
41
1
10
205.052026913169
20
24.1928100375502
30
0
41
1
10
202.395047890899
20
24.3915467814126
30
0
41
1
10
198.387057466193
20
24.6251272873814
30
0
41
1
10
197.047267410168
20
24.6920619105519
30
0
41
1
10
194.360916809316
20
24.8076726484975
30
0
41
1
10
193.01390022373
20
24.8563270194997
30
0
41
1
10
190.314972938551
20
24.9375535336052
30
0
41
1
10
188.962764099515
20
24.9699098955827
30
0
41
1
10
186.249982965199
20
25.0205753586448
30
0
41
1
10
184.889487654722
20
25.0389956764283
30
0
41
1
10
182.159552621516
20
25.0660281386847
30
0
41
1
10
180.79022271478
20
25.0746990120187
30
0
41
1
10
178.043218754947
20
25.0859807482979
30
0
41
1
10
176.664756084059
20
25.088588948653
30
0
41
1
10
174.802496338741
20
25.0898890059574
30
0
41
1
10
174.319518280322
20
25.0900326374947
30
0
41
1
10
173.83637077781
20
25.0900209114996
30
0
0
SPLINE
5
337
100
AcDbEntity
8
1
62
256
6
ByLayer
370
13
48
1
60
0
100
AcDbSpline
70
4
71
3
72
16
73
12
40
0
40
0
40
0
40
0
40
0.411077284529951
40
0.411077284529951
40
0.616615926794925
40
0.616615926794925
40
0.719385247927413
40
0.719385247927413
40
0.8221545690599
40
0.8221545690599
40
1
40
1
40
1
40
1
41
1
10
6.80987570989915
20
-22.8059853399125
30
0
41
1
10
7.16447044032573
20
-21.6024155833043
30
0
41
1
10
7.61269945098604
20
-20.420216847541
30
0
41
1
10
8.43064443911118
20
-18.6790856459986
30
0
41
1
10
8.72773817783443
20
-18.1041119808742
30
0
41
1
10
9.21226298393883
20
-17.2501296572813
30
0
41
1
10
9.38044178075383
20
-16.9666362144719
30
0
41
1
10
9.7278669852042
20
-16.4063163265397
30
0
41
1
10
9.90733040522349
20
-16.1291027875124
30
0
41
1
10
10.4126285891977
20
-15.3799573457597
30
0
41
1
10
10.7494580013631
20
-14.9136326852782
30
0
41
1
10
11.1026346597456
20
-14.4555916291848
30
0
0
SPLINE
5
338
100
AcDbEntity
8
1
62
256
6
ByLayer
370
13
48
1
60
0
100
AcDbSpline
70
4
71
1
72
4
73
2
40
0
40
0
40
1
40
1
41
1
10
253.944884597689
20
11.367591209689
30
0
41
1
10
253.887684654243
20
11.3904745990744
30
0
0
SPLINE
5
339
100
AcDbEntity
8
1
62
256
6
ByLayer
370
13
48
1
60
0
100
AcDbSpline
70
4
71
2
72
6
73
3
40
0
40
0
40
0
40
1
40
1
40
1
41
1
10
299.821210170497
20
10.3352743365324
30
0
41
1
10
299.889138076597
20
10.4062660541356
30
0
41
1
10
299.958380134285
20
10.4621409444142
30
0
0
SPLINE
5
33A
100
AcDbEntity
8
1
62
256
6
ByLayer
370
13
48
1
60
0
100
AcDbSpline
70
4
71
2
72
6
73
3
40
0
40
0
40
0
40
1
40
1
40
1
41
1
10
282.903732387315
20
9.56834472954094
30
0
41
1
10
282.978435646182
20
9.52001369364126
30
0
41
1
10
283.053412091251
20
9.45651127573259
30
0
0
SPLINE
5
33B
100
AcDbEntity
8
1
62
256
6
ByLayer
370
13
48
1
60
0
100
AcDbSpline
70
4
71
3
72
15
73
11
40
0
40
0
40
0
40
0
40
0.186622679302687
40
0.373362416239153
40
0.560092119228066
40
0.648085919498295
40
0.736003023403236
40
0.823981723455184
40
0.912093289479395
40
1
40
1
40
1
40
1
41
1
10
5.45409999999995
20
-31.25
30
0
41
1
10
7.37521130841598
20
-30.979980846527
30
0
41
1
10
11.2055415003911
20
-30.3689194819456
30
0
41
1
10
16.9170476403522
20
-29.2434595397352
30
0
41
1
10
21.5824517905881
20
-28.1345792650684
30
0
41
1
10
25.2284807814218
20
-27.1827826360421
30
0
41
1
10
27.8552385071659
20
-26.3948340442079
30
0
41
1
10
30.5333418700248
20
-25.7874514093537
30
0
41
1
10
33.2581864682149
20
-25.4306600036039
30
0
41
1
10
35.0840331198988
20
-25.3501529282372
30
0
41
1
10
36
20
-25.35
30
0
0
SPLINE
5
33C
100
AcDbEntity
8
1
62
256
6
ByLayer
370
13
48
1
60
0
100
AcDbSpline
70
4
71
3
72
15
73
11
40
0
40
0
40
0
40
0
40
0.0932426188785038
40
0.186692645392481
40
0.27994729026307
40
0.373233873671211
40
0.466572596174262
40
0.559941069856503
40
0.780036073606601
40
1
40
1
40
1
40
1
41
1
10
36
20
25.3499999999999
30
0
41
1
10
35.0281081955393
20
25.3501935520412
30
0
41
1
10
33.0922835803695
20
25.4418079898792
30
0
41
1
10
30.2038571998588
20
25.8382498067982
30
0
41
1
10
27.3773947598909
20
26.5383440915425
30
0
41
1
10
24.5873891713205
20
27.3575436754267
30
0
41
1
10
21.7688614773967
20
28.0797838056163
30
0
41
1
10
17.6601626714826
20
29.0706879268121
30
0
41
1
10
12.2306590201594
20
30.1967201682718
30
0
41
1
10
7.71882795449153
20
30.9316658350458
30
0
41
1
10
5.45410000000004
20
31.2499999999999
30
0
0
LINE
5
7F
100
AcDbEntity
8
1
62
256
6
ByLayer
370
18
48
1
60
0
100
AcDbLine
10
290.826345
20
16.169459
30
0
11
290.835771
21
16.187078
31
0
39
0
210
0
220
0
230
1
0
LINE
5
80
100
AcDbEntity
8
1
62
256
6
ByLayer
370
18
48
1
60
0
100
AcDbLine
10
290.810761
20
19.063429
30
0
11
290.675051
21
19.056317
31
0
39
0
210
0
220
0
230
1
0
LINE
5
81
100
AcDbEntity
8
1
62
256
6
ByLayer
370
18
48
1
60
0
100
AcDbLine
10
292.554101
20
18.094493
30
0
11
292.534191
21
18.093889
31
0
39
0
210
0
220
0
230
1
0
LINE
5
82
100
AcDbEntity
8
1
62
256
6
ByLayer
370
18
48
1
60
0
100
AcDbLine
10
292.124314
20
18.727613
30
0
11
292.132962
21
18.74563
31
0
39
0
210
0
220
0
230
1
0
LINE
5
83
100
AcDbEntity
8
1
62
256
6
ByLayer
370
18
48
1
60
0
100
AcDbLine
10
292.243793
20
16.630837
30
0
11
292.233309
21
16.647852
31
0
39
0
210
0
220
0
230
1
0
LINE
5
84
100
AcDbEntity
8
1
62
256
6
ByLayer
370
18
48
1
60
0
100
AcDbLine
10
290.970459
20
16.194136
30
0
11
290.835771
21
16.187078
31
0
39
0
210
0
220
0
230
1
0
LINE
5
85
100
AcDbEntity
8
1
62
256
6
ByLayer
370
18
48
1
60
0
100
AcDbLine
10
292.379503
20
16.63795
30
0
11
292.243793
21
16.630837
31
0
39
0
210
0
220
0
230
1
0
LINE
5
86
100
AcDbEntity
8
1
62
256
6
ByLayer
370
18
48
1
60
0
100
AcDbLine
10
292.574699
20
17.320948
30
0
11
292.594563
21
17.322428
31
0
39
0
210
0
220
0
230
1
0
LINE
5
87
100
AcDbEntity
8
1
62
256
6
ByLayer
370
18
48
1
60
0
100
AcDbLine
10
292.268671
20
18.752742
30
0
11
292.132962
21
18.74563
31
0
39
0
210
0
220
0
230
1
0
LINE
5
88
100
AcDbEntity
8
1
62
256
6
ByLayer
370
18
48
1
60
0
100
AcDbLine
10
292.668878
20
18.100948
30
0
11
292.534191
21
18.093889
31
0
39
0
210
0
220
0
230
1
0
LINE
5
89
100
AcDbEntity
8
1
62
256
6
ByLayer
370
18
48
1
60
0
100
AcDbLine
10
292.367997
20
16.65491
30
0
11
292.233309
21
16.647852
31
0
39
0
210
0
220
0
230
1
0
LINE
5
8A
100
AcDbEntity
8
1
62
256
6
ByLayer
370
18
48
1
60
0
100
AcDbLine
10
292.709386
20
17.328006
30
0
11
292.574699
21
17.320948
31
0
39
0
210
0
220
0
230
1
0
LINE
5
8B
100
AcDbEntity
8
1
62
256
6
ByLayer
370
18
48
1
60
0
100
AcDbLine
10
290.820955
20
19.046839
30
0
11
290.686268
21
19.03978
31
0
39
0
210
0
220
0
230
1
0
LINE
5
8C
100
AcDbEntity
8
1
62
256
6
ByLayer
370
18
48
1
60
0
100
AcDbLine
10
290.686268
20
19.03978
30
0
11
290.675051
21
19.056317
31
0
39
0
210
0
220
0
230
1
0
LINE
5
8D
100
AcDbEntity
8
1
62
256
6
ByLayer
370
18
48
1
60
0
100
AcDbLine
10
292.259001
20
18.734671
30
0
11
292.124314
21
18.727613
31
0
39
0
210
0
220
0
230
1
0
LINE
5
8E
100
AcDbEntity
8
1
62
256
6
ByLayer
370
18
48
1
60
0
100
AcDbLine
10
290.962055
20
16.176571
30
0
11
290.826345
21
16.169459
31
0
39
0
210
0
220
0
230
1
0
LINE
5
8F
100
AcDbEntity
8
1
62
256
6
ByLayer
370
18
48
1
60
0
100
AcDbLine
10
300.558963
20
-7.100888
30
0
11
299.661953
21
-13.882993
31
0
39
0
210
0
220
0
230
1
0
LINE
5
90
100
AcDbEntity
8
1
62
256
6
ByLayer
370
18
48
1
60
0
100
AcDbLine
10
299.420025
20
0.183582
30
0
11
299.436048
21
0.127962
31
0
39
0
210
0
220
0
230
1
0
LINE
5
91
100
AcDbEntity
8
1
62
256
6
ByLayer
370
18
48
1
60
0
100
AcDbLine
10
299.457189
20
0.033039
30
0
11
300.555958
21
-6.872377
31
0
39
0
210
0
220
0
230
1
0
LINE
5
92
100
AcDbEntity
8
1
62
256
6
ByLayer
370
18
48
1
60
0
100
AcDbLine
10
299.41142
20
-14.172412
30
0
11
299.355543
21
-14.188361
31
0
39
0
210
0
220
0
230
1
0
LINE
5
93
100
AcDbEntity
8
1
62
256
6
ByLayer
370
13
48
1
60
0
100
AcDbLine
10
298.014095
20
11.592172
30
0
11
299.860319
21
11.88543
31
0
39
0
210
0
220
0
230
1
0
LINE
5
94
100
AcDbEntity
8
1
62
256
6
ByLayer
370
13
48
1
60
0
100
AcDbLine
10
298.861397
20
18.066398
30
0
11
298.014095
21
11.592172
31
0
39
0
210
0
220
0
230
1
0
LINE
5
95
100
AcDbEntity
8
1
62
256
6
ByLayer
370
13
48
1
60
0
100
AcDbLine
10
300.84182
20
18.315149
30
0
11
300.837208
21
18.314907
31
0
39
0
210
0
220
0
230
1
0
LINE
5
96
100
AcDbEntity
8
1
62
256
6
ByLayer
370
13
48
1
60
0
100
AcDbLine
10
283.883972
20
16.996188
30
0
11
284.920873
21
10.430567
31
0
39
0
210
0
220
0
230
1
0
LINE
5
97
100
AcDbEntity
8
1
62
256
6
ByLayer
370
13
48
1
60
0
100
AcDbLine
10
282.883642
20
9.954685
30
0
11
281.775859
21
16.969129
31
0
39
0
210
0
220
0
230
1
0
LINE
5
98
100
AcDbEntity
8
1
62
256
6
ByLayer
370
13
48
1
60
0
100
AcDbLine
10
284.925485
20
10.430809
30
0
11
284.920873
21
10.430567
31
0
39
0
210
0
220
0
230
1
0
LINE
5
99
100
AcDbEntity
8
1
62
256
6
ByLayer
370
13
48
1
60
0
100
AcDbLine
10
284.261534
20
9.375336
30
0
11
284.033111
21
9.365371
31
0
39
0
210
0
220
0
230
1
0
LINE
5
9A
100
AcDbEntity
8
1
62
256
6
ByLayer
370
13
48
1
60
0
100
AcDbLine
10
283.885921
20
17.197301
30
0
11
284.727897
21
23.630836
31
0
39
0
210
0
220
0
230
1
0
LINE
5
9B
100
AcDbEntity
8
1
62
256
6
ByLayer
370
13
48
1
60
0
100
AcDbLine
10
297.710781
20
11.680558
30
0
11
298.552758
21
18.114093
31
0
39
0
210
0
220
0
230
1
0
LINE
5
9C
100
AcDbEntity
8
1
62
256
6
ByLayer
370
13
48
1
60
0
100
AcDbLine
10
300.943208
20
18.101204
30
0
11
300.127307
21
11.866912
31
0
39
0
210
0
220
0
230
1
0
LINE
5
9D
100
AcDbEntity
8
1
62
256
6
ByLayer
370
13
48
1
60
0
100
AcDbLine
10
300.844484
20
18.114278
30
0
11
300.026855
21
11.866785
31
0
39
0
210
0
220
0
230
1
0
LINE
5
9E
100
AcDbEntity
8
1
62
256
6
ByLayer
370
13
48
1
60
0
100
AcDbLine
10
299.458678
20
10.667353
30
0
11
299.881235
21
10.734473
31
0
39
0
210
0
220
0
230
1
0
LINE
5
9F
100
AcDbEntity
8
1
62
256
6
ByLayer
370
13
48
1
60
0
100
AcDbLine
10
300.844484
20
18.114278
30
0
11
300.839871
21
18.114036
31
0
39
0
210
0
220
0
230
1
0
LINE
5
A0
100
AcDbEntity
8
1
62
256
6
ByLayer
370
13
48
1
60
0
100
AcDbLine
10
284.899561
20
10.346525
30
0
11
284.894949
21
10.346283
31
0
39
0
210
0
220
0
230
1
0
LINE
5
A1
100
AcDbEntity
8
1
62
256
6
ByLayer
370
13
48
1
60
0
100
AcDbLine
10
299.902166
20
11.73824
30
0
11
297.990092
21
11.434522
31
0
39
0
210
0
220
0
230
1
0
LINE
5
A2
100
AcDbEntity
8
1
62
256
6
ByLayer
370
13
48
1
60
0
100
AcDbLine
10
284.755715
20
10.430499
30
0
11
283.722619
21
16.972032
31
0
39
0
210
0
220
0
230
1
0
LINE
5
A3
100
AcDbEntity
8
1
62
256
6
ByLayer
370
13
48
1
60
0
100
AcDbLine
10
298.223505
20
25.959381
30
0
11
298.256217
21
25.961095
31
0
39
0
210
0
220
0
230
1
0
LINE
5
A4
100
AcDbEntity
8
1
62
256
6
ByLayer
370
13
48
1
60
0
100
AcDbLine
10
298.356146
20
25.908942
30
0
11
298.584568
21
25.918907
31
0
39
0
210
0
220
0
230
1
0
LINE
5
A5
100
AcDbEntity
8
1
62
256
6
ByLayer
370
13
48
1
60
0
100
AcDbLine
10
298.550856
20
18.257572
30
0
11
297.564735
21
24.501657
31
0
39
0
210
0
220
0
230
1
0
LINE
5
A6
100
AcDbEntity
8
1
62
256
6
ByLayer
370
13
48
1
60
0
100
AcDbLine
10
298.584568
20
25.918907
30
0
11
298.579956
21
25.918665
31
0
39
0
210
0
220
0
230
1
0
LINE
5
A7
100
AcDbEntity
8
1
62
256
6
ByLayer
370
13
48
1
60
0
100
AcDbLine
10
299.734037
20
25.329593
30
0
11
300.84182
21
18.315149
31
0
39
0
210
0
220
0
230
1
0
LINE
5
A8
100
AcDbEntity
8
1
62
256
6
ByLayer
370
13
48
1
60
0
100
AcDbLine
10
284.943795
20
23.605653
30
0
11
284.101819
21
17.172118
31
0
39
0
210
0
220
0
230
1
0
LINE
5
A9
100
AcDbEntity
8
1
62
256
6
ByLayer
370
13
48
1
60
0
100
AcDbLine
10
284.008114
20
9.514261
30
0
11
284.236536
21
9.524226
31
0
39
0
210
0
220
0
230
1
0
LINE
5
AA
100
AcDbEntity
8
1
62
256
6
ByLayer
370
13
48
1
60
0
100
AcDbLine
10
297.824666
20
11.306997
30
0
11
299.570629
21
11.584329
31
0
39
0
210
0
220
0
230
1
0
LINE
5
AB
100
AcDbEntity
8
1
62
256
6
ByLayer
370
13
48
1
60
0
100
AcDbLine
10
281.50719
20
16.599502
30
0
11
281.452281
21
16.947185
31
0
39
0
210
0
220
0
230
1
0
LINE
5
AC
100
AcDbEntity
8
1
62
256
6
ByLayer
370
13
48
1
60
0
100
AcDbLine
10
299.729425
20
25.329351
30
0
11
300.837208
21
18.314907
31
0
39
0
210
0
220
0
230
1
0
LINE
5
AD
100
AcDbEntity
8
1
62
256
6
ByLayer
370
13
48
1
60
0
100
AcDbLine
10
299.062897
20
25.920014
30
0
11
299.058284
21
25.919772
31
0
39
0
210
0
220
0
230
1
0
LINE
5
AE
100
AcDbEntity
8
1
62
256
6
ByLayer
370
13
48
1
60
0
100
AcDbLine
10
284.737298
20
23.737668
30
0
11
283.881308
21
17.197059
31
0
39
0
210
0
220
0
230
1
0
LINE
5
AF
100
AcDbEntity
8
1
62
256
6
ByLayer
370
13
48
1
60
0
100
AcDbLine
10
282.897076
20
25.173483
30
0
11
283.009201
21
25.162033
31
0
39
0
210
0
220
0
230
1
0
LINE
5
B0
100
AcDbEntity
8
1
62
256
6
ByLayer
370
13
48
1
60
0
100
AcDbLine
10
281.773196
20
17.17
30
0
11
282.590825
21
23.417493
31
0
39
0
210
0
220
0
230
1
0
LINE
5
B1
100
AcDbEntity
8
1
62
256
6
ByLayer
370
13
48
1
60
0
100
AcDbLine
10
299.458678
20
10.667353
30
0
11
299.913235
21
11.638749
31
0
39
0
210
0
220
0
230
1
0
LINE
5
B2
100
AcDbEntity
8
1
62
256
6
ByLayer
370
13
48
1
60
0
100
AcDbLine
10
299.734037
20
25.329593
30
0
11
299.729425
21
25.329351
31
0
39
0
210
0
220
0
230
1
0
LINE
5
B3
100
AcDbEntity
8
1
62
256
6
ByLayer
370
13
48
1
60
0
100
AcDbLine
10
282.605537
20
24.587919
30
0
11
282.704444
21
23.645529
31
0
39
0
210
0
220
0
230
1
0
LINE
5
B4
100
AcDbEntity
8
1
62
256
6
ByLayer
370
13
48
1
60
0
100
AcDbLine
10
285.498367
20
23.87158
30
0
11
296.436328
21
24.444814
31
0
39
0
210
0
220
0
230
1
0
LINE
5
B5
100
AcDbEntity
8
1
62
256
6
ByLayer
370
13
48
1
60
0
100
AcDbLine
10
299.860319
20
11.88543
30
0
11
300.677948
21
18.132923
31
0
39
0
210
0
220
0
230
1
0
LINE
5
B6
100
AcDbEntity
8
1
62
256
6
ByLayer
370
13
48
1
60
0
100
AcDbLine
10
297.825066
20
24.851845
30
0
11
298.858163
21
18.310313
31
0
39
0
210
0
220
0
230
1
0
LINE
5
B7
100
AcDbEntity
8
1
62
256
6
ByLayer
370
13
48
1
60
0
100
AcDbLine
10
284.727897
20
23.630836
30
0
11
284.74191
21
23.73791
31
0
39
0
210
0
220
0
230
1
0
LINE
5
B8
100
AcDbEntity
8
1
62
256
6
ByLayer
370
13
48
1
60
0
100
AcDbLine
10
284.445446
20
9.524363
30
0
11
284.440833
21
9.524121
31
0
39
0
210
0
220
0
230
1
0
LINE
5
B9
100
AcDbEntity
8
1
62
256
6
ByLayer
370
13
48
1
60
0
100
AcDbLine
10
298.333819
20
25.982489
30
0
11
298.223505
21
25.959381
31
0
39
0
210
0
220
0
230
1
0
LINE
5
BA
100
AcDbEntity
8
1
62
256
6
ByLayer
370
13
48
1
60
0
100
AcDbLine
10
284.74191
20
23.73791
30
0
11
284.737298
21
23.737668
31
0
39
0
210
0
220
0
230
1
0
LINE
5
BB
100
AcDbEntity
8
1
62
256
6
ByLayer
370
13
48
1
60
0
100
AcDbLine
10
298.356146
20
25.908942
30
0
11
298.351533
21
25.9087
31
0
39
0
210
0
220
0
230
1
0
LINE
5
BC
100
AcDbEntity
8
1
62
256
6
ByLayer
370
13
48
1
60
0
100
AcDbLine
10
298.572668
20
25.768083
30
0
11
298.344245
21
25.758118
31
0
39
0
210
0
220
0
230
1
0
LINE
5
BD
100
AcDbEntity
8
1
62
256
6
ByLayer
370
13
48
1
60
0
100
AcDbLine
10
283.40944
20
24.949738
30
0
11
283.086464
21
24.949941
31
0
39
0
210
0
220
0
230
1
0
LINE
5
BE
100
AcDbEntity
8
1
62
256
6
ByLayer
370
13
48
1
60
0
100
AcDbLine
10
297.917165
20
25.776987
30
0
11
298.075912
21
25.785306
31
0
39
0
210
0
220
0
230
1
0
LINE
5
BF
100
AcDbEntity
8
1
62
256
6
ByLayer
370
13
48
1
60
0
100
AcDbLine
10
284.566687
20
23.690172
30
0
11
282.720463
21
23.396914
31
0
39
0
210
0
220
0
230
1
0
LINE
5
C0
100
AcDbEntity
8
1
62
256
6
ByLayer
370
13
48
1
60
0
100
AcDbLine
10
298.256217
20
25.961095
30
0
11
298.488013
21
26.014789
31
0
39
0
210
0
220
0
230
1
0
LINE
5
C1
100
AcDbEntity
8
1
62
256
6
ByLayer
370
13
48
1
60
0
100
AcDbLine
10
297.990092
20
11.434522
30
0
11
297.98548
21
11.434281
31
0
39
0
210
0
220
0
230
1
0
LINE
5
C2
100
AcDbEntity
8
1
62
256
6
ByLayer
370
13
48
1
60
0
100
AcDbLine
10
284.361463
20
9.323183
30
0
11
284.129666
21
9.269489
31
0
39
0
210
0
220
0
230
1
0
LINE
5
C3
100
AcDbEntity
8
1
62
256
6
ByLayer
370
13
48
1
60
0
100
AcDbLine
10
299.916159
20
10.447087
30
0
11
299.881235
21
10.734473
31
0
39
0
210
0
220
0
230
1
0
LINE
5
C4
100
AcDbEntity
8
1
62
256
6
ByLayer
370
13
48
1
60
0
100
AcDbLine
10
281.674471
20
17.183074
30
0
11
282.490372
21
23.417366
31
0
39
0
210
0
220
0
230
1
0
LINE
5
C5
100
AcDbEntity
8
1
62
256
6
ByLayer
370
13
48
1
60
0
100
AcDbLine
10
283.885921
20
17.197301
30
0
11
283.881308
21
17.197059
31
0
39
0
210
0
220
0
230
1
0
LINE
5
C6
100
AcDbEntity
8
1
62
256
6
ByLayer
370
13
48
1
60
0
100
AcDbLine
10
299.902166
20
11.73824
30
0
11
299.897554
21
11.737998
31
0
39
0
210
0
220
0
230
1
0
LINE
5
C7
100
AcDbEntity
8
1
62
256
6
ByLayer
370
13
48
1
60
0
100
AcDbLine
10
281.451899
20
17.654513
30
0
11
281.433634
21
17.302995
31
0
39
0
210
0
220
0
230
1
0
LINE
5
C8
100
AcDbEntity
8
1
62
256
6
ByLayer
370
13
48
1
60
0
100
AcDbLine
10
281.50719
20
16.599502
30
0
11
282.755267
21
9.93822
31
0
39
0
210
0
220
0
230
1
0
LINE
5
C9
100
AcDbEntity
8
1
62
256
6
ByLayer
370
13
48
1
60
0
100
AcDbLine
10
300.839871
20
18.114036
30
0
11
300.022243
21
11.866543
31
0
39
0
210
0
220
0
230
1
0
LINE
5
CA
100
AcDbEntity
8
1
62
256
6
ByLayer
370
13
48
1
60
0
100
AcDbLine
10
300.026855
20
11.866785
30
0
11
300.022243
21
11.866543
31
0
39
0
210
0
220
0
230
1
0
LINE
5
CB
100
AcDbEntity
8
1
62
256
6
ByLayer
370
13
48
1
60
0
100
AcDbLine
10
282.720463
20
23.396914
30
0
11
281.902834
21
17.149421
31
0
39
0
210
0
220
0
230
1
0
LINE
5
CC
100
AcDbEntity
8
1
62
256
6
ByLayer
370
13
48
1
60
0
100
AcDbLine
10
281.677515
20
16.953508
30
0
11
282.785298
21
9.939064
31
0
39
0
210
0
220
0
230
1
0
LINE
5
CD
100
AcDbEntity
8
1
62
256
6
ByLayer
370
13
48
1
60
0
100
AcDbLine
10
300.675855
20
18.29075
30
0
11
299.568072
21
25.305194
31
0
39
0
210
0
220
0
230
1
0
LINE
5
CE
100
AcDbEntity
8
1
62
256
6
ByLayer
370
13
48
1
60
0
100
AcDbLine
10
284.874705
20
10.752345
30
0
11
283.888584
21
16.99643
31
0
39
0
210
0
220
0
230
1
0
LINE
5
CF
100
AcDbEntity
8
1
62
256
6
ByLayer
370
13
48
1
60
0
100
AcDbLine
10
284.103721
20
17.028639
30
0
11
285.089842
21
10.784554
31
0
39
0
210
0
220
0
230
1
0
LINE
5
D0
100
AcDbEntity
8
1
62
256
6
ByLayer
370
13
48
1
60
0
100
AcDbLine
10
298.619794
20
25.920113
30
0
11
298.615182
21
25.919872
31
0
39
0
210
0
220
0
230
1
0
LINE
5
D1
100
AcDbEntity
8
1
62
256
6
ByLayer
370
13
48
1
60
0
100
AcDbLine
10
299.897554
20
11.737998
30
0
11
297.98548
21
11.434281
31
0
39
0
210
0
220
0
230
1
0
LINE
5
D2
100
AcDbEntity
8
1
62
256
6
ByLayer
370
13
48
1
60
0
100
AcDbLine
10
283.888584
20
16.99643
30
0
11
283.883972
21
16.996188
31
0
39
0
210
0
220
0
230
1
0
LINE
5
D3
100
AcDbEntity
8
1
62
256
6
ByLayer
370
13
48
1
60
0
100
AcDbLine
10
284.925485
20
10.430809
30
0
11
284.874705
21
10.752345
31
0
39
0
210
0
220
0
230
1
0
LINE
5
D4
100
AcDbEntity
8
1
62
256
6
ByLayer
370
13
48
1
60
0
100
AcDbLine
10
283.719385
20
17.215946
30
0
11
284.566687
21
23.690172
31
0
39
0
210
0
220
0
230
1
0
LINE
5
D5
100
AcDbEntity
8
1
62
256
6
ByLayer
370
13
48
1
60
0
100
AcDbLine
10
282.715513
20
23.546038
30
0
11
284.627587
21
23.849755
31
0
39
0
210
0
220
0
230
1
0
LINE
5
D6
100
AcDbEntity
8
1
62
256
6
ByLayer
370
13
48
1
60
0
100
AcDbLine
10
299.570629
20
11.584329
30
0
11
299.913235
21
11.638749
31
0
39
0
210
0
220
0
230
1
0
LINE
5
D7
100
AcDbEntity
8
1
62
256
6
ByLayer
370
13
48
1
60
0
100
AcDbLine
10
284.793014
20
23.977281
30
0
11
282.704444
21
23.645529
31
0
39
0
210
0
220
0
230
1
0
LINE
5
D8
100
AcDbEntity
8
1
62
256
6
ByLayer
370
13
48
1
60
0
100
AcDbLine
10
299.570629
20
11.584329
30
0
11
299.257101
21
10.300546
31
0
39
0
210
0
220
0
230
1
0
LINE
5
D9
100
AcDbEntity
8
1
62
256
6
ByLayer
370
13
48
1
60
0
100
AcDbLine
10
297.119312
20
11.412698
30
0
11
286.181351
21
10.839464
31
0
39
0
210
0
220
0
230
1
0
LINE
5
DA
100
AcDbEntity
8
1
62
256
6
ByLayer
370
13
48
1
60
0
100
AcDbLine
10
300.940165
20
18.33077
30
0
11
299.832381
21
25.345214
31
0
39
0
210
0
220
0
230
1
0
LINE
5
DB
100
AcDbEntity
8
1
62
256
6
ByLayer
370
13
48
1
60
0
100
AcDbLine
10
281.904926
20
16.991594
30
0
11
283.01271
21
9.97715
31
0
39
0
210
0
220
0
230
1
0
LINE
5
DC
100
AcDbEntity
8
SK1
62
256
6
ByLayer
370
13
48
1
60
0
100
AcDbLine
10
-78.599999
20
-10.670483
30
0
11
-79
21
-10.670483
31
0
39
0
210
0
220
0
230
1
0
LINE
5
DE
100
AcDbEntity
8
SK1
62
256
6
ByLayer
370
13
48
1
60
0
100
AcDbLine
10
-76.600002
20
10.670483
30
0
11
-6.5
21
10.670483
31
0
39
0
210
0
220
0
230
1
0
LINE
5
DF
100
AcDbEntity
8
SK1
62
256
6
ByLayer
370
13
48
1
60
0
100
AcDbLine
10
-79
20
10.670483
30
0
11
-78.599999
21
10.670483
31
0
39
0
210
0
220
0
230
1
0
LINE
5
E0
100
AcDbEntity
8
SK1
62
256
6
ByLayer
370
13
48
1
60
0
100
AcDbLine
10
-6.5
20
-10.670483
30
0
11
-76.600002
21
-10.670483
31
0
39
0
210
0
220
0
230
1
0
LINE
5
E1
100
AcDbEntity
8
SK1
62
256
6
ByLayer
370
13
48
1
60
0
100
AcDbLine
10
-80
20
8.054018
30
0
11
-80
21
-8.054018
31
0
39
0
210
0
220
0
230
1
0
LINE
5
E2
100
AcDbEntity
8
SK1
62
256
6
ByLayer
370
13
48
1
60
0
100
AcDbLine
10
-6.5
20
-10.670483
30
0
11
-6.5
21
10.670483
31
0
39
0
210
0
220
0
230
1
0
LINE
5
E3
100
AcDbEntity
8
1
62
256
6
ByLayer
370
13
48
1
60
0
100
AcDbLine
10
299.480118
20
10.134502
30
0
11
299.393809
21
10.129978
31
0
39
0
210
0
220
0
230
1
0
LINE
5
E4
100
AcDbEntity
8
1
62
256
6
ByLayer
370
13
48
1
60
0
100
AcDbLine
10
0.1
20
5.567764
30
0
11
5.4541
21
5.567764
31
0
39
0
210
0
220
0
230
1
0
LINE
5
E5
100
AcDbEntity
8
1
62
256
6
ByLayer
370
13
48
1
60
0
100
AcDbLine
10
298.265671
20
-25.240836
30
0
11
280.107106
21
-25.240836
31
0
39
0
210
0
220
0
230
1
0
LINE
5
E6
100
AcDbEntity
8
1
62
256
6
ByLayer
370
13
48
1
60
0
100
AcDbLine
10
286.698223
20
10.666278
30
0
11
286.707447
21
10.666761
31
0
39
0
210
0
220
0
230
1
0
LINE
5
E7
100
AcDbEntity
8
1
62
256
6
ByLayer
370
13
48
1
60
0
100
AcDbLine
10
294.633043
20
11.250096
30
0
11
294.450907
21
11.240551
31
0
39
0
210
0
220
0
230
1
0
LINE
5
E8
100
AcDbEntity
8
1
62
256
6
ByLayer
370
13
48
1
60
0
100
AcDbLine
10
279.708081
20
12.391332
30
0
11
278.12135
21
14.830616
31
0
39
0
210
0
220
0
230
1
0
LINE
5
E9
100
AcDbEntity
8
1
62
256
6
ByLayer
370
13
48
1
60
0
100
AcDbLine
10
299.591938
20
10.018187
30
0
11
299.778782
21
9.658159
31
0
39
0
210
0
220
0
230
1
0
LINE
5
EA
100
AcDbEntity
8
1
62
256
6
ByLayer
370
13
48
1
60
0
100
AcDbLine
10
299.496301
20
0.639895
30
0
11
299.504087
21
0.631783
31
0
39
0
210
0
220
0
230
1
0
LINE
5
EB
100
AcDbEntity
8
1
62
256
6
ByLayer
370
13
48
1
60
0
100
AcDbLine
10
282.474018
20
23.462219
30
0
11
281.90081
21
19.082341
31
0
39
0
210
0
220
0
230
1
0
LINE
5
EC
100
AcDbEntity
8
1
62
256
6
ByLayer
370
13
48
1
60
0
100
AcDbLine
10
287.048334
20
10.884901
30
0
11
289.136758
21
10.99435
31
0
39
0
210
0
220
0
230
1
0
LINE
5
ED
100
AcDbEntity
8
1
62
256
6
ByLayer
370
13
48
1
60
0
100
AcDbLine
10
282.472728
20
24.36931
30
0
11
282.429246
21
25.199004
31
0
39
0
210
0
220
0
230
1
0
LINE
5
EE
100
AcDbEntity
8
1
62
256
6
ByLayer
370
13
48
1
60
0
100
AcDbLine
10
281.978929
20
12.992412
30
0
11
281.35128
21
16.966667
31
0
39
0
210
0
220
0
230
1
0
LINE
5
EF
100
AcDbEntity
8
1
62
256
6
ByLayer
370
13
48
1
60
0
100
AcDbLine
10
297.219016
20
2.269714
30
0
11
299.060771
21
0.606132
31
0
39
0
210
0
220
0
230
1
0
LINE
5
F0
100
AcDbEntity
8
1
62
256
6
ByLayer
370
13
48
1
60
0
100
AcDbLine
10
278.441712
20
11.686422
30
0
11
279.708081
21
12.391332
31
0
39
0
210
0
220
0
230
1
0
LINE
5
F1
100
AcDbEntity
8
1
62
256
6
ByLayer
370
13
48
1
60
0
100
AcDbLine
10
278.12135
20
11.712133
30
0
11
278.12135
21
14.830616
31
0
39
0
210
0
220
0
230
1
0
LINE
5
F2
100
AcDbEntity
8
1
62
256
6
ByLayer
370
13
48
1
60
0
100
AcDbLine
10
299.528279
20
9.286629
30
0
11
299.480118
21
10.134502
31
0
39
0
210
0
220
0
230
1
0
LINE
5
F3
100
AcDbEntity
8
1
62
256
6
ByLayer
370
13
48
1
60
0
100
AcDbLine
10
299.778782
20
9.658159
30
0
11
299.601172
21
8.991202
31
0
39
0
210
0
220
0
230
1
0
LINE
5
F4
100
AcDbEntity
8
1
62
256
6
ByLayer
370
13
48
1
60
0
100
AcDbLine
10
297.915826
20
-4.15057
30
0
11
300.057238
21
-6.084822
31
0
39
0
210
0
220
0
230
1
0
LINE
5
F5
100
AcDbEntity
8
1
62
256
6
ByLayer
370
13
48
1
60
0
100
AcDbLine
10
297.3471
20
11.224362
30
0
11
286.707447
21
10.666761
31
0
39
0
210
0
220
0
230
1
0
LINE
5
F6
100
AcDbEntity
8
1
62
256
6
ByLayer
370
13
48
1
60
0
100
AcDbLine
10
0
20
-4.975942
30
0
11
0
21
4.975942
31
0
39
0
210
0
220
0
230
1
0
LINE
5
F7
100
AcDbEntity
8
1
62
256
6
ByLayer
370
13
48
1
60
0
100
AcDbLine
10
36.01
20
-14.074159
30
0
11
36.01
21
-24.605059
31
0
39
0
210
0
220
0
230
1
0
LINE
5
F8
100
AcDbEntity
8
1
62
256
6
ByLayer
370
13
48
1
60
0
100
AcDbLine
10
297.881046
20
9.950561
30
0
11
297.219016
21
2.269714
31
0
39
0
210
0
220
0
230
1
0
LINE
5
F9
100
AcDbEntity
8
1
62
256
6
ByLayer
370
13
48
1
60
0
100
AcDbLine
10
297.881046
20
9.950561
30
0
11
299.067069
21
10.012717
31
0
39
0
210
0
220
0
230
1
0
LINE
5
FA
100
AcDbEntity
8
1
62
256
6
ByLayer
370
13
48
1
60
0
100
AcDbLine
10
280.16076
20
9.905309
30
0
11
280.928431
21
9.66945
31
0
39
0
210
0
220
0
230
1
0
LINE
5
FB
100
AcDbEntity
8
1
62
256
6
ByLayer
370
13
48
1
60
0
100
AcDbLine
10
277.107106
20
-24.982031
30
0
11
277.107106
21
-0.33814
31
0
39
0
210
0
220
0
230
1
0
LINE
5
FC
100
AcDbEntity
8
1
62
256
6
ByLayer
370
13
48
1
60
0
100
AcDbLine
10
278.174778
20
2.158571
30
0
11
278.585545
21
-0.664904
31
0
39
0
210
0
220
0
230
1
0
LINE
5
FD
100
AcDbEntity
8
1
62
256
6
ByLayer
370
13
48
1
60
0
100
AcDbLine
10
280.107106
20
-25.240836
30
0
11
280.107106
21
-0.850797
31
0
39
0
210
0
220
0
230
1
0
LINE
5
FE
100
AcDbEntity
8
1
62
256
6
ByLayer
370
13
48
1
60
0
100
AcDbLine
10
277.107106
20
-24.982031
30
0
11
270.708446
21
-24.982031
31
0
39
0
210
0
220
0
230
1
0
LINE
5
FF
100
AcDbEntity
8
1
62
256
6
ByLayer
370
13
48
1
60
0
100
AcDbLine
10
299.131906
20
-0.269396
30
0
11
297.215218
21
1.46187
31
0
39
0
210
0
220
0
230
1
0
LINE
5
100
100
AcDbEntity
8
1
62
256
6
ByLayer
370
13
48
1
60
0
100
AcDbLine
10
5.4541
20
-5.567764
30
0
11
0.1
21
-5.567764
31
0
39
0
210
0
220
0
230
1
0
LINE
5
101
100
AcDbEntity
8
1
62
256
6
ByLayer
370
13
48
1
60
0
100
AcDbLine
10
287.144499
20
8.919109
30
0
11
287.558469
21
8.940804
31
0
39
0
210
0
220
0
230
1
0
LINE
5
102
100
AcDbEntity
8
1
62
256
6
ByLayer
370
13
48
1
60
0
100
AcDbLine
10
297.215218
20
1.46187
30
0
11
297.446258
21
-1.509893
31
0
39
0
210
0
220
0
230
1
0
LINE
5
103
100
AcDbEntity
8
1
62
256
6
ByLayer
370
13
48
1
60
0
100
AcDbLine
10
300.079658
20
-7.789462
30
0
11
299.215161
21
-14.325741
31
0
39
0
210
0
220
0
230
1
0
LINE
5
104
100
AcDbEntity
8
1
62
256
6
ByLayer
370
13
48
1
60
0
100
AcDbLine
10
299.596044
20
1.155964
30
0
11
299.77833
21
0.966045
31
0
39
0
210
0
220
0
230
1
0
LINE
5
105
100
AcDbEntity
8
1
62
256
6
ByLayer
370
13
48
1
60
0
100
AcDbLine
10
300.079658
20
-7.789462
30
0
11
297.993074
21
-5.904735
31
0
39
0
210
0
220
0
230
1
0
LINE
5
106
100
AcDbEntity
8
1
62
256
6
ByLayer
370
13
48
1
60
0
100
AcDbLine
10
294.804343
20
11.291376
30
0
11
296.892767
21
11.400826
31
0
39
0
210
0
220
0
230
1
0
LINE
5
107
100
AcDbEntity
8
1
62
256
6
ByLayer
370
13
48
1
60
0
100
AcDbLine
10
298.265671
20
-25.240836
30
0
11
299.597398
21
-15.171934
31
0
39
0
210
0
220
0
230
1
0
LINE
5
108
100
AcDbEntity
8
1
62
256
6
ByLayer
370
13
48
1
60
0
100
AcDbLine
10
299.597398
20
-15.171934
30
0
11
299.200702
21
-14.879845
31
0
39
0
210
0
220
0
230
1
0
LINE
5
109
100
AcDbEntity
8
1
62
256
6
ByLayer
370
13
48
1
60
0
100
AcDbLine
10
286.658567
20
10.573753
30
0
11
286.424077
21
10.561464
31
0
39
0
210
0
220
0
230
1
0
LINE
5
10A
100
AcDbEntity
8
1
62
256
6
ByLayer
370
13
48
1
60
0
100
AcDbLine
10
289.98218
20
10.537971
30
0
11
297.586596
21
10.936501
31
0
39
0
210
0
220
0
230
1
0
LINE
5
10B
100
AcDbEntity
8
1
62
256
6
ByLayer
370
13
48
1
60
0
100
AcDbLine
10
294.710359
20
9.784392
30
0
11
297.881046
21
9.950561
31
0
39
0
210
0
220
0
230
1
0
LINE
5
10C
100
AcDbEntity
8
1
62
256
6
ByLayer
370
13
48
1
60
0
100
AcDbLine
10
299.778782
20
9.658159
30
0
11
299.77833
21
0.966045
31
0
39
0
210
0
220
0
230
1
0
LINE
5
10D
100
AcDbEntity
8
1
62
256
6
ByLayer
370
13
48
1
60
0
100
AcDbLine
10
290.12676
20
9.544176
30
0
11
290.783724
21
9.578606
31
0
39
0
210
0
220
0
230
1
0
LINE
5
10E
100
AcDbEntity
8
1
62
256
6
ByLayer
370
13
48
1
60
0
100
AcDbLine
10
281.743922
20
18.80051
30
0
11
282.472728
21
24.36931
31
0
39
0
210
0
220
0
230
1
0
LINE
5
10F
100
AcDbEntity
8
1
62
256
6
ByLayer
370
13
48
1
60
0
100
AcDbLine
10
274.007143
20
2.546269
30
0
11
274.23714
21
0.965345
31
0
39
0
210
0
220
0
230
1
0
LINE
5
110
100
AcDbEntity
8
1
62
256
6
ByLayer
370
13
48
1
60
0
100
AcDbLine
10
299.131906
20
-0.269396
30
0
11
300.057238
21
-6.084822
31
0
39
0
210
0
220
0
230
1
0
LINE
5
111
100
AcDbEntity
8
1
62
256
6
ByLayer
370
13
48
1
60
0
100
AcDbLine
10
300.185862
20
12.314354
30
0
11
300.06737
21
10.845509
31
0
39
0
210
0
220
0
230
1
0
LINE
5
112
100
AcDbEntity
8
1
62
256
6
ByLayer
370
13
48
1
60
0
100
AcDbLine
10
299.960626
20
11.480109
30
0
11
299.881235
21
10.734473
31
0
39
0
210
0
220
0
230
1
0
LINE
5
113
100
AcDbEntity
8
1
62
256
6
ByLayer
370
13
48
1
60
0
100
AcDbLine
10
281.744505
20
14.476798
30
0
11
282.483892
21
11.386599
31
0
39
0
210
0
220
0
230
1
0
LINE
5
114
100
AcDbEntity
8
1
62
256
6
ByLayer
370
13
48
1
60
0
100
AcDbLine
10
281.451899
20
17.654513
30
0
11
281.457301
21
18.21143
31
0
39
0
210
0
220
0
230
1
0
LINE
5
115
100
AcDbEntity
8
1
62
256
6
ByLayer
370
13
48
1
60
0
100
AcDbLine
10
281.451899
20
17.654513
30
0
11
281.531873
21
18.40562
31
0
39
0
210
0
220
0
230
1
0
LINE
5
116
100
AcDbEntity
8
1
62
256
6
ByLayer
370
13
48
1
60
0
100
AcDbLine
10
298.352147
20
25.908727
30
0
11
298.579956
21
25.918665
31
0
39
0
210
0
220
0
230
1
0
LINE
5
117
100
AcDbEntity
8
1
62
256
6
ByLayer
370
13
48
1
60
0
100
AcDbLine
10
298.593815
20
10.298
30
0
11
298.812751
21
10.296684
31
0
39
0
210
0
220
0
230
1
0
LINE
5
118
100
AcDbEntity
8
1
62
256
6
ByLayer
370
13
48
1
60
0
100
AcDbLine
10
282.605537
20
24.587919
30
0
11
282.462462
21
24.565192
31
0
39
0
210
0
220
0
230
1
0
LINE
5
119
100
AcDbEntity
8
1
62
256
6
ByLayer
370
13
48
1
60
0
100
AcDbLine
10
282.490372
20
23.417366
30
0
11
282.467982
21
23.6307
31
0
39
0
210
0
220
0
230
1
0
LINE
5
11A
100
AcDbEntity
8
1
62
256
6
ByLayer
370
13
48
1
60
0
100
AcDbLine
10
281.641625
20
18.630236
30
0
11
281.449436
21
17.161725
31
0
39
0
210
0
220
0
230
1
0
LINE
5
11B
100
AcDbEntity
8
1
62
256
6
ByLayer
370
13
48
1
60
0
100
AcDbLine
10
297.692194
20
24.853469
30
0
11
297.740135
21
24.549909
31
0
39
0
210
0
220
0
230
1
0
LINE
5
11C
100
AcDbEntity
8
1
62
256
6
ByLayer
370
13
48
1
60
0
100
AcDbLine
10
297.887464
20
11.635732
30
0
11
297.875769
21
11.546368
31
0
39
0
210
0
220
0
230
1
0
LINE
5
11D
100
AcDbEntity
8
1
62
256
6
ByLayer
370
18
48
1
60
0
100
AcDbLine
10
289.854915
20
17.178849
30
0
11
289.7866
21
17.175269
31
0
39
0
210
0
220
0
230
1
0
LINE
5
11E
100
AcDbEntity
8
1
62
256
6
ByLayer
370
18
48
1
60
0
100
AcDbLine
10
289.814452
20
17.950914
30
0
11
289.746727
21
17.947365
31
0
39
0
210
0
220
0
230
1
0
LINE
5
11F
100
AcDbEntity
8
1
62
256
6
ByLayer
370
18
48
1
60
0
100
AcDbLine
10
299.260181
20
-14.209405
30
0
11
299.22983
21
-14.21419
31
0
39
0
210
0
220
0
230
1
0
LINE
5
120
100
AcDbEntity
8
1
62
256
6
ByLayer
370
18
48
1
60
0
100
AcDbLine
10
299.062411
20
0.441722
30
0
11
299.129268
21
0.432961
31
0
39
0
210
0
220
0
230
1
0
LINE
5
121
100
AcDbEntity
8
1
62
256
6
ByLayer
370
13
48
1
60
0
100
AcDbLine
10
299.591938
20
10.018187
30
0
11
299.487034
21
10.012689
31
0
39
0
210
0
220
0
230
1
0
LINE
5
122
100
AcDbEntity
8
1
62
256
6
ByLayer
370
13
48
1
60
0
100
AcDbLine
10
299.601172
20
8.991202
30
0
11
299.56521
21
8.989318
31
0
39
0
210
0
220
0
230
1
0
LINE
5
123
100
AcDbEntity
8
1
62
256
6
ByLayer
370
13
48
1
60
0
100
AcDbLine
10
299.77833
20
0.966045
30
0
11
299.518179
21
0.87625
31
0
39
0
210
0
220
0
230
1
0
LINE
5
124
100
AcDbEntity
8
1
62
256
6
ByLayer
370
13
48
1
60
0
100
AcDbLine
10
286.419656
20
10.551134
30
0
11
285.8946
21
10.523617
31
0
39
0
210
0
220
0
230
1
0
LINE
5
125
100
AcDbEntity
8
1
62
256
6
ByLayer
370
13
48
1
60
0
100
AcDbLine
10
299.596044
20
1.155964
30
0
11
299.576182
21
1.158566
31
0
39
0
210
0
220
0
230
1
0
LINE
5
126
100
AcDbEntity
8
1
62
256
6
ByLayer
370
13
48
1
60
0
100
AcDbLine
10
283.550455
20
24.777991
30
0
11
283.588393
21
25.067875
31
0
39
0
210
0
220
0
230
1
0
LINE
5
127
100
AcDbEntity
8
1
62
256
6
ByLayer
370
13
48
1
60
0
100
AcDbLine
10
41
20
-25.255533
30
0
11
41
21
-25.35
31
0
39
0
210
0
220
0
230
1
0
LINE
5
128
100
AcDbEntity
8
1
62
256
6
ByLayer
370
13
48
1
60
0
100
AcDbLine
10
280.107106
20
25.35
30
0
11
280.107106
21
25.174474
31
0
39
0
210
0
220
0
230
1
0
LINE
5
129
100
AcDbEntity
8
1
62
256
6
ByLayer
370
13
48
1
60
0
100
AcDbLine
10
299.496301
20
0.639895
30
0
11
299.486397
21
0.641193
31
0
39
0
210
0
220
0
230
1
0
LINE
5
12A
100
AcDbEntity
8
1
62
256
6
ByLayer
370
13
48
1
60
0
100
AcDbLine
10
299.504087
20
0.631783
30
0
11
299.481431
21
0.634752
31
0
39
0
210
0
220
0
230
1
0
LINE
5
12B
100
AcDbEntity
8
1
62
256
6
ByLayer
370
13
48
1
60
0
100
AcDbLine
10
142
20
-24.988618
30
0
11
142
21
-25.09
31
0
39
0
210
0
220
0
230
1
0
LINE
5
12C
100
AcDbEntity
8
1
62
256
6
ByLayer
370
13
48
1
60
0
100
AcDbLine
10
277.107106
20
25.09
30
0
11
277.107106
21
24.877657
31
0
39
0
210
0
220
0
230
1
0
LINE
5
12D
100
AcDbEntity
8
SK1
62
256
6
ByLayer
370
13
48
1
60
0
100
AcDbLine
10
-78.516222
20
24.892544
30
0
11
-78.516222
21
10.425829
31
0
39
0
210
0
220
0
230
1
0
LINE
5
12E
100
AcDbEntity
8
SK1
62
256
6
ByLayer
370
13
48
1
60
0
100
AcDbLine
10
-78.516222
20
-10.425829
30
0
11
-78.516222
21
-24.892544
31
0
39
0
210
0
220
0
230
1
0
LINE
5
12F
100
AcDbEntity
8
SK1
62
256
6
ByLayer
370
13
48
1
60
0
100
AcDbLine
10
-77.633813
20
24.639667
30
0
11
-77.633813
21
9.806751
31
0
39
0
210
0
220
0
230
1
0
LINE
5
130
100
AcDbEntity
8
SK1
62
256
6
ByLayer
370
13
48
1
60
0
100
AcDbLine
10
-77.633813
20
-9.806751
30
0
11
-77.633813
21
-24.639667
31
0
39
0
210
0
220
0
230
1
0
LINE
5
131
100
AcDbEntity
8
SK1
62
256
6
ByLayer
370
13
48
1
60
0
100
AcDbLine
10
-80
20
-23.996
30
0
11
-80
21
-8.054018
31
0
39
0
210
0
220
0
230
1
0
LINE
5
132
100
AcDbEntity
8
SK1
62
256
6
ByLayer
370
13
48
1
60
0
100
AcDbLine
10
-80
20
8.054018
30
0
11
-80
21
23.996
31
0
39
0
210
0
220
0
230
1
0
LINE
5
133
100
AcDbEntity
8
SK1
62
256
6
ByLayer
370
13
48
1
60
0
100
AcDbLine
10
-78.599999
20
-24.996
30
0
11
-78.599999
21
-10.670483
31
0
39
0
210
0
220
0
230
1
0
LINE
5
134
100
AcDbEntity
8
SK1
62
256
6
ByLayer
370
13
48
1
60
0
100
AcDbLine
10
-78.599999
20
10.670483
30
0
11
-78.599999
21
24.996
31
0
39
0
210
0
220
0
230
1
0
LINE
5
135
100
AcDbEntity
8
SK1
62
256
6
ByLayer
370
13
48
1
60
0
100
AcDbLine
10
-79
20
-24.996
30
0
11
-79
21
-10.670483
31
0
39
0
210
0
220
0
230
1
0
LINE
5
136
100
AcDbEntity
8
SK1
62
256
6
ByLayer
370
13
48
1
60
0
100
AcDbLine
10
-79
20
10.670483
30
0
11
-79
21
24.996
31
0
39
0
210
0
220
0
230
1
0
LINE
5
137
100
AcDbEntity
8
SK1
62
256
6
ByLayer
370
13
48
1
60
0
100
AcDbLine
10
-1.375195
20
-24.746
30
0
11
-1.375195
21
24.746
31
0
39
0
210
0
220
0
230
1
0
LINE
5
138
100
AcDbEntity
8
SK1
62
256
6
ByLayer
370
13
48
1
60
0
100
AcDbLine
10
-76.600002
20
24.996
30
0
11
-76.600002
21
10.670483
31
0
39
0
210
0
220
0
230
1
0
LINE
5
139
100
AcDbEntity
8
SK1
62
256
6
ByLayer
370
13
48
1
60
0
100
AcDbLine
10
-76.600002
20
-10.670483
30
0
11
-76.600002
21
-24.996
31
0
39
0
210
0
220
0
230
1
0
LINE
5
13A
100
AcDbEntity
8
SK1
62
256
6
ByLayer
370
13
48
1
60
0
100
AcDbLine
10
-2
20
-24.996
30
0
11
-2
21
24.996
31
0
39
0
210
0
220
0
230
1
0
LINE
5
13B
100
AcDbEntity
8
SK1
62
256
6
ByLayer
370
13
48
1
60
0
100
AcDbLine
10
-1.544243
20
-24.783477
30
0
11
-1.544243
21
24.783477
31
0
39
0
210
0
220
0
230
1
0
LINE
5
13C
100
AcDbEntity
8
SK1
62
256
6
ByLayer
370
13
48
1
60
0
100
AcDbLine
10
-0.15
20
-24.746
30
0
11
-0.15
21
24.746
31
0
39
0
210
0
220
0
230
1
0
LINE
5
13D
100
AcDbEntity
8
1
62
256
6
ByLayer
370
13
48
1
60
0
100
AcDbLine
10
142
20
25.09
30
0
11
142
21
-9.05055
31
0
39
0
210
0
220
0
230
1
0
LINE
5
13E
100
AcDbEntity
8
1
62
256
6
ByLayer
370
13
48
1
60
0
100
AcDbLine
10
41
20
25.35
30
0
11
41
21
-9.062615
31
0
39
0
210
0
220
0
230
1
0
LINE
5
13F
100
AcDbEntity
8
1
62
256
6
ByLayer
370
13
48
1
60
0
100
AcDbLine
10
0.1
20
31.25
30
0
11
0.1
21
5.567764
31
0
39
0
210
0
220
0
230
1
0
LINE
5
140
100
AcDbEntity
8
1
62
256
6
ByLayer
370
13
48
1
60
0
100
AcDbLine
10
0
20
31.15
30
0
11
0
21
4.975942
31
0
39
0
210
0
220
0
230
1
0
LINE
5
141
100
AcDbEntity
8
1
62
256
6
ByLayer
370
13
48
1
60
0
100
AcDbLine
10
0
20
-31.15
30
0
11
0
21
-4.975942
31
0
39
0
210
0
220
0
230
1
0
LINE
5
142
100
AcDbEntity
8
1
62
256
6
ByLayer
370
13
48
1
60
0
100
AcDbLine
10
0.1
20
-31.25
30
0
11
0.1
21
-5.567764
31
0
39
0
210
0
220
0
230
1
0
LINE
5
143
100
AcDbEntity
8
1
62
256
6
ByLayer
370
13
48
1
60
0
100
AcDbLine
10
5.4541
20
31.25
30
0
11
5.4541
21
5.567764
31
0
39
0
210
0
220
0
230
1
0
LINE
5
144
100
AcDbEntity
8
1
62
256
6
ByLayer
370
13
48
1
60
0
100
AcDbLine
10
5.4541
20
-5.567764
30
0
11
5.4541
21
-31.25
31
0
39
0
210
0
220
0
230
1
0
LINE
5
145
100
AcDbEntity
8
1
62
256
6
ByLayer
370
13
48
1
60
0
100
AcDbLine
10
36
20
25.35
30
0
11
36
21
-9.062893
31
0
39
0
210
0
220
0
230
1
0
LINE
5
146
100
AcDbEntity
8
1
62
256
6
ByLayer
370
13
48
1
60
0
100
AcDbLine
10
36
20
-25.255554
30
0
11
36
21
-25.35
31
0
39
0
210
0
220
0
230
1
0
LINE
5
147
100
AcDbEntity
8
4
62
256
6
ByLayer
370
18
48
0.05
60
0
100
AcDbLine
10
301
20
0
30
0
11
0
21
0
31
0
39
0
210
0
220
0
230
1
0
LINE
5
149
100
AcDbEntity
8
SK4
62
256
6
ByLayer
370
13
48
0.05
60
0
100
AcDbLine
10
301
20
0
30
0
11
-80
21
0
31
0
39
0
210
0
220
0
230
1
0
LINE
5
14B
100
AcDbEntity
8
SK1
62
256
6
ByLayer
370
13
48
1
60
0
100
AcDbLine
10
-78.599999
20
24.996
30
0
11
-79
21
24.996
31
0
39
0
210
0
220
0
230
1
0
LINE
5
14C
100
AcDbEntity
8
SK1
62
256
6
ByLayer
370
13
48
1
60
0
100
AcDbLine
10
-79
20
-24.996
30
0
11
-78.599999
21
-24.996
31
0
39
0
210
0
220
0
230
1
0
LINE
5
14D
100
AcDbEntity
8
SK1
62
256
6
ByLayer
370
13
48
1
60
0
100
AcDbLine
10
-78.516222
20
24.892544
30
0
11
-78.599999
21
24.996
31
0
39
0
210
0
220
0
230
1
0
LINE
5
14E
100
AcDbEntity
8
SK1
62
256
6
ByLayer
370
13
48
1
60
0
100
AcDbLine
10
-78.599999
20
-24.996
30
0
11
-78.516222
21
-24.892544
31
0
39
0
210
0
220
0
230
1
0
LINE
5
14F
100
AcDbEntity
8
SK1
62
256
6
ByLayer
370
13
48
1
60
0
100
AcDbLine
10
-77.633813
20
-24.639667
30
0
11
-76.600002
21
-24.996
31
0
39
0
210
0
220
0
230
1
0
LINE
5
150
100
AcDbEntity
8
SK1
62
256
6
ByLayer
370
13
48
1
60
0
100
AcDbLine
10
-76.600002
20
24.996
30
0
11
-77.633813
21
24.639667
31
0
39
0
210
0
220
0
230
1
0
LINE
5
151
100
AcDbEntity
8
SK1
62
256
6
ByLayer
370
13
48
1
60
0
100
AcDbLine
10
-80
20
-23.996
30
0
11
-79
21
-24.996
31
0
39
0
210
0
220
0
230
1
0
LINE
5
152
100
AcDbEntity
8
SK1
62
256
6
ByLayer
370
13
48
1
60
0
100
AcDbLine
10
-79
20
24.996
30
0
11
-80
21
23.996
31
0
39
0
210
0
220
0
230
1
0
LINE
5
153
100
AcDbEntity
8
SK1
62
256
6
ByLayer
370
13
48
1
60
0
100
AcDbLine
10
-0.15
20
24.746
30
0
11
-1.375195
21
24.746
31
0
39
0
210
0
220
0
230
1
0
LINE
5
154
100
AcDbEntity
8
SK1
62
256
6
ByLayer
370
13
48
1
60
0
100
AcDbLine
10
-1.375195
20
-24.746
30
0
11
-0.15
21
-24.746
31
0
39
0
210
0
220
0
230
1
0
LINE
5
155
100
AcDbEntity
8
SK1
62
256
6
ByLayer
370
13
48
1
60
0
100
AcDbLine
10
-1.544243
20
24.783477
30
0
11
-2
21
24.996
31
0
39
0
210
0
220
0
230
1
0
LINE
5
156
100
AcDbEntity
8
SK1
62
256
6
ByLayer
370
13
48
1
60
0
100
AcDbLine
10
-2
20
-24.996
30
0
11
-1.544243
21
-24.783477
31
0
39
0
210
0
220
0
230
1
0
LINE
5
157
100
AcDbEntity
8
SK1
62
256
6
ByLayer
370
13
48
1
60
0
100
AcDbLine
10
-2
20
24.996
30
0
11
-76.600002
21
24.996
31
0
39
0
210
0
220
0
230
1
0
LINE
5
158
100
AcDbEntity
8
SK1
62
256
6
ByLayer
370
13
48
1
60
0
100
AcDbLine
10
-76.600002
20
-24.996
30
0
11
-2
21
-24.996
31
0
39
0
210
0
220
0
230
1
0
LINE
5
159
100
AcDbEntity
8
1
62
256
6
ByLayer
370
13
48
1
60
0
100
AcDbLine
10
299.649065
20
10.81425
30
0
11
300.103622
21
11.785646
31
0
39
0
210
0
220
0
230
1
0
LINE
5
15A
100
AcDbEntity
8
1
62
256
6
ByLayer
370
13
48
1
60
0
100
AcDbLine
10
298.729959
20
18.287804
30
0
11
297.743837
21
24.53189
31
0
39
0
210
0
220
0
230
1
0
LINE
5
15B
100
AcDbEntity
8
1
62
256
6
ByLayer
370
13
48
1
60
0
100
AcDbLine
10
297.890641
20
11.653638
30
0
11
298.732618
21
18.087173
31
0
39
0
210
0
220
0
230
1
0
LINE
5
15C
100
AcDbEntity
8
1
62
256
6
ByLayer
370
18
48
1
60
0
100
AcDbLine
10
291.328904
20
16.35112
30
0
11
291.204182
21
16.344583
31
0
39
0
210
0
220
0
230
1
0
LINE
5
15D
100
AcDbEntity
8
1
62
256
6
ByLayer
370
18
48
1
60
0
100
AcDbLine
10
291.069124
20
18.921647
30
0
11
291.193846
21
18.928183
31
0
39
0
210
0
220
0
230
1
0
LINE
5
15E
100
AcDbEntity
8
1
62
256
6
ByLayer
370
18
48
1
60
0
100
AcDbLine
10
291.3573
20
14.790767
30
0
11
291.423789
21
14.794252
31
0
39
0
210
0
220
0
230
1
0
LINE
5
15F
100
AcDbEntity
8
1
62
256
6
ByLayer
370
18
48
1
60
0
100
AcDbLine
10
291.125474
20
20.48644
30
0
11
291.058985
21
20.482956
31
0
39
0
210
0
220
0
230
1
0
LINE
5
160
100
AcDbEntity
8
1
62
256
6
ByLayer
370
13
48
1
60
0
100
AcDbLine
10
36
20
-25.35
30
0
11
41
21
-25.35
31
0
39
0
210
0
220
0
230
1
0
LINE
5
161
100
AcDbEntity
8
1
62
256
6
ByLayer
370
13
48
1
60
0
100
AcDbLine
10
41
20
-25.35
30
0
11
142
21
-25.09
31
0
39
0
210
0
220
0
230
1
0
LINE
5
162
100
AcDbEntity
8
1
62
256
6
ByLayer
370
13
48
1
60
0
100
AcDbLine
10
282.164689
20
25.35
30
0
11
280.107106
21
25.35
31
0
39
0
210
0
220
0
230
1
0
LINE
5
163
100
AcDbEntity
8
1
62
256
6
ByLayer
370
13
48
1
60
0
100
AcDbLine
10
280.107106
20
25.35
30
0
11
277.107106
21
25.09
31
0
39
0
210
0
220
0
230
1
0
LINE
5
164
100
AcDbEntity
8
1
62
256
6
ByLayer
370
13
48
1
60
0
100
AcDbLine
10
142
20
-25.09
30
0
11
186.100013
21
-25.09
31
0
39
0
210
0
220
0
230
1
0
LINE
5
165
100
AcDbEntity
8
1
62
256
6
ByLayer
370
13
48
1
60
0
100
AcDbLine
10
277.107106
20
25.09
30
0
11
263.127648
21
25.09
31
0
39
0
210
0
220
0
230
1
0
LINE
5
166
100
AcDbEntity
8
1
62
256
6
ByLayer
370
13
48
1
60
0
100
AcDbLine
10
173.823812
20
25.09
30
0
11
142
21
25.09
31
0
39
0
210
0
220
0
230
1
0
LINE
5
167
100
AcDbEntity
8
1
62
256
6
ByLayer
370
13
48
1
60
0
100
AcDbLine
10
142
20
25.09
30
0
11
41
21
25.35
31
0
39
0
210
0
220
0
230
1
0
LINE
5
168
100
AcDbEntity
8
1
62
256
6
ByLayer
370
13
48
1
60
0
100
AcDbLine
10
41
20
25.35
30
0
11
36
21
25.35
31
0
39
0
210
0
220
0
230
1
0
LINE
5
169
100
AcDbEntity
8
1
62
256
6
ByLayer
370
13
48
1
60
0
100
AcDbLine
10
5.4541
20
31.25
30
0
11
0.1
21
31.25
31
0
39
0
210
0
220
0
230
1
0
LINE
5
16A
100
AcDbEntity
8
1
62
256
6
ByLayer
370
13
48
1
60
0
100
AcDbLine
10
0.1
20
31.25
30
0
11
0
21
31.15
31
0
39
0
210
0
220
0
230
1
0
LINE
5
16B
100
AcDbEntity
8
1
62
256
6
ByLayer
370
13
48
1
60
0
100
AcDbLine
10
0.1
20
-31.25
30
0
11
5.4541
21
-31.25
31
0
39
0
210
0
220
0
230
1
0
LINE
5
16C
100
AcDbEntity
8
1
62
256
6
ByLayer
370
13
48
1
60
0
100
AcDbLine
10
0
20
-31.15
30
0
11
0.1
21
-31.25
31
0
39
0
210
0
220
0
230
1
0
LINE
5
16D
100
AcDbEntity
8
81
62
256
6
ByLayer
370
18
48
1
60
0
100
AcDbLine
10
301
20
0
30
0
11
308
21
0
31
0
39
0
210
0
220
0
230
1
0
LINE
5
16E
100
AcDbEntity
8
80
62
256
6
ByLayer
370
18
48
1
60
0
100
AcDbLine
10
0
20
0
30
0
11
-7
21
0
31
0
39
0
210
0
220
0
230
1
0
LINE
5
16F
100
AcDbEntity
8
SK2
62
256
6
ByLayer
370
13
48
1
60
0
100
AcDbLine
10
-100.725
20
25
30
0
11
-100.725
21
-25
31
0
39
0
210
0
220
0
230
1
0
LINE
5
171
100
AcDbEntity
8
SK2
62
256
6
ByLayer
370
13
48
1
60
0
100
AcDbLine
10
-81.5875
20
-25
30
0
11
-103.9
21
-25
31
0
39
0
210
0
220
0
230
1
0
LINE
5
172
100
AcDbEntity
8
SK2
62
256
6
ByLayer
370
13
48
1
60
0
100
AcDbLine
10
-81.5875
20
25
30
0
11
-103.9
21
25
31
0
39
0
210
0
220
0
230
1
0
LINE
5
173
100
AcDbEntity
8
1
62
256
6
ByLayer
370
18
48
1
60
1
100
AcDbLine
10
-100.725
20
-25
30
0
11
-101.650575
21
-20.825003
31
0
39
0
210
0
220
0
230
1
0
LINE
5
174
100
AcDbEntity
8
1
62
256
6
ByLayer
370
18
48
1
60
1
100
AcDbLine
10
-101.650575
20
-20.825003
30
0
11
-99.799425
21
-20.824997
31
0
39
0
210
0
220
0
230
1
0
LINE
5
175
100
AcDbEntity
8
1
62
256
6
ByLayer
370
18
48
1
60
1
100
AcDbLine
10
-99.799425
20
-20.824997
30
0
11
-100.725
21
-25
31
0
39
0
210
0
220
0
230
1
0
LINE
5
176
100
AcDbEntity
8
1
62
256
6
ByLayer
370
18
48
1
60
1
100
AcDbLine
10
-100.725
20
25
30
0
11
-99.799425
21
20.825003
31
0
39
0
210
0
220
0
230
1
0
LINE
5
177
100
AcDbEntity
8
1
62
256
6
ByLayer
370
18
48
1
60
1
100
AcDbLine
10
-99.799425
20
20.825003
30
0
11
-101.650575
21
20.824997
31
0
39
0
210
0
220
0
230
1
0
LINE
5
178
100
AcDbEntity
8
1
62
256
6
ByLayer
370
18
48
1
60
1
100
AcDbLine
10
-101.650575
20
20.824997
30
0
11
-100.725
21
25
31
0
39
0
210
0
220
0
230
1
0
LINE
5
179
100
AcDbEntity
8
SK2
62
256
6
ByLayer
370
13
48
1
60
0
100
AcDbLine
10
-110.725
20
-31.25
30
0
11
-110.725
21
31.25
31
0
39
0
210
0
220
0
230
1
0
LINE
5
17A
100
AcDbEntity
8
SK2
62
256
6
ByLayer
370
13
48
1
60
0
100
AcDbLine
10
-1.5875
20
31.25
30
0
11
-113.9
21
31.25
31
0
39
0
210
0
220
0
230
1
0
LINE
5
17B
100
AcDbEntity
8
SK2
62
256
6
ByLayer
370
13
48
1
60
0
100
AcDbLine
10
-1.5875
20
-31.25
30
0
11
-113.9
21
-31.25
31
0
39
0
210
0
220
0
230
1
0
LINE
5
17C
100
AcDbEntity
8
1
62
256
6
ByLayer
370
18
48
1
60
1
100
AcDbLine
10
-110.725
20
31.25
30
0
11
-109.799425
21
27.075003
31
0
39
0
210
0
220
0
230
1
0
LINE
5
17D
100
AcDbEntity
8
1
62
256
6
ByLayer
370
18
48
1
60
1
100
AcDbLine
10
-109.799425
20
27.075003
30
0
11
-111.650575
21
27.074997
31
0
39
0
210
0
220
0
230
1
0
LINE
5
17E
100
AcDbEntity
8
1
62
256
6
ByLayer
370
18
48
1
60
1
100
AcDbLine
10
-111.650575
20
27.074997
30
0
11
-110.725
21
31.25
31
0
39
0
210
0
220
0
230
1
0
LINE
5
17F
100
AcDbEntity
8
1
62
256
6
ByLayer
370
18
48
1
60
1
100
AcDbLine
10
-110.725
20
-31.25
30
0
11
-111.650575
21
-27.075003
31
0
39
0
210
0
220
0
230
1
0
LINE
5
180
100
AcDbEntity
8
1
62
256
6
ByLayer
370
18
48
1
60
1
100
AcDbLine
10
-111.650575
20
-27.075003
30
0
11
-109.799425
21
-27.074997
31
0
39
0
210
0
220
0
230
1
0
LINE
5
181
100
AcDbEntity
8
1
62
256
6
ByLayer
370
18
48
1
60
1
100
AcDbLine
10
-109.799425
20
-27.074997
30
0
11
-110.725
21
-31.25
31
0
39
0
210
0
220
0
230
1
0
LINE
5
182
100
AcDbEntity
8
2
62
256
6
ByLayer
370
13
48
1
60
0
100
AcDbLine
10
327.975
20
26
30
0
11
327.975
21
-26
31
0
39
0
210
0
220
0
230
1
0
LINE
5
184
100
AcDbEntity
8
2
62
256
6
ByLayer
370
13
48
1
60
0
100
AcDbLine
10
302.5875
20
-26
30
0
11
331.15
21
-26
31
0
39
0
210
0
220
0
230
1
0
LINE
5
185
100
AcDbEntity
8
2
62
256
6
ByLayer
370
13
48
1
60
0
100
AcDbLine
10
302.5875
20
26
30
0
11
331.15
21
26
31
0
39
0
210
0
220
0
230
1
0
LINE
5
186
100
AcDbEntity
8
1
62
256
6
ByLayer
370
18
48
1
60
1
100
AcDbLine
10
327.975
20
-26
30
0
11
327.049425
21
-21.825003
31
0
39
0
210
0
220
0
230
1
0
LINE
5
187
100
AcDbEntity
8
1
62
256
6
ByLayer
370
18
48
1
60
1
100
AcDbLine
10
327.049425
20
-21.825003
30
0
11
328.900575
21
-21.824997
31
0
39
0
210
0
220
0
230
1
0
LINE
5
188
100
AcDbEntity
8
1
62
256
6
ByLayer
370
18
48
1
60
1
100
AcDbLine
10
328.900575
20
-21.824997
30
0
11
327.975
21
-26
31
0
39
0
210
0
220
0
230
1
0
LINE
5
189
100
AcDbEntity
8
1
62
256
6
ByLayer
370
18
48
1
60
1
100
AcDbLine
10
327.975
20
26
30
0
11
328.900575
21
21.825003
31
0
39
0
210
0
220
0
230
1
0
LINE
5
18A
100
AcDbEntity
8
1
62
256
6
ByLayer
370
18
48
1
60
1
100
AcDbLine
10
328.900575
20
21.825003
30
0
11
327.049425
21
21.824997
31
0
39
0
210
0
220
0
230
1
0
LINE
5
18B
100
AcDbEntity
8
1
62
256
6
ByLayer
370
18
48
1
60
1
100
AcDbLine
10
327.049425
20
21.824997
30
0
11
327.975
21
26
31
0
39
0
210
0
220
0
230
1
0
LINE
5
341
100
AcDbEntity
8
1
62
256
6
ByLayer
370
18
48
1
60
1
100
AcDbLine
10
-100.725
20
-25
30
0
11
-101.650575
21
-20.825003
31
0
39
0
210
0
220
0
230
1
0
LINE
5
342
100
AcDbEntity
8
1
62
256
6
ByLayer
370
18
48
1
60
1
100
AcDbLine
10
-101.650575
20
-20.825003
30
0
11
-99.799425
21
-20.824997
31
0
39
0
210
0
220
0
230
1
0
LINE
5
343
100
AcDbEntity
8
1
62
256
6
ByLayer
370
18
48
1
60
1
100
AcDbLine
10
-99.799425
20
-20.824997
30
0
11
-100.725
21
-25
31
0
39
0
210
0
220
0
230
1
0
LINE
5
345
100
AcDbEntity
8
1
62
256
6
ByLayer
370
18
48
1
60
1
100
AcDbLine
10
-100.725
20
25
30
0
11
-99.799425
21
20.825003
31
0
39
0
210
0
220
0
230
1
0
LINE
5
346
100
AcDbEntity
8
1
62
256
6
ByLayer
370
18
48
1
60
1
100
AcDbLine
10
-99.799425
20
20.825003
30
0
11
-101.650575
21
20.824997
31
0
39
0
210
0
220
0
230
1
0
LINE
5
347
100
AcDbEntity
8
1
62
256
6
ByLayer
370
18
48
1
60
1
100
AcDbLine
10
-101.650575
20
20.824997
30
0
11
-100.725
21
25
31
0
39
0
210
0
220
0
230
1
0
LINE
5
34B
100
AcDbEntity
8
1
62
256
6
ByLayer
370
18
48
1
60
1
100
AcDbLine
10
-110.725
20
31.25
30
0
11
-109.799425
21
27.075003
31
0
39
0
210
0
220
0
230
1
0
LINE
5
34C
100
AcDbEntity
8
1
62
256
6
ByLayer
370
18
48
1
60
1
100
AcDbLine
10
-109.799425
20
27.075003
30
0
11
-111.650575
21
27.074997
31
0
39
0
210
0
220
0
230
1
0
LINE
5
34D
100
AcDbEntity
8
1
62
256
6
ByLayer
370
18
48
1
60
1
100
AcDbLine
10
-111.650575
20
27.074997
30
0
11
-110.725
21
31.25
31
0
39
0
210
0
220
0
230
1
0
LINE
5
34F
100
AcDbEntity
8
1
62
256
6
ByLayer
370
18
48
1
60
1
100
AcDbLine
10
-110.725
20
-31.25
30
0
11
-111.650575
21
-27.075003
31
0
39
0
210
0
220
0
230
1
0
LINE
5
350
100
AcDbEntity
8
1
62
256
6
ByLayer
370
18
48
1
60
1
100
AcDbLine
10
-111.650575
20
-27.075003
30
0
11
-109.799425
21
-27.074997
31
0
39
0
210
0
220
0
230
1
0
LINE
5
351
100
AcDbEntity
8
1
62
256
6
ByLayer
370
18
48
1
60
1
100
AcDbLine
10
-109.799425
20
-27.074997
30
0
11
-110.725
21
-31.25
31
0
39
0
210
0
220
0
230
1
0
LINE
5
355
100
AcDbEntity
8
1
62
256
6
ByLayer
370
18
48
1
60
1
100
AcDbLine
10
327.975
20
-26
30
0
11
327.049425
21
-21.825003
31
0
39
0
210
0
220
0
230
1
0
LINE
5
356
100
AcDbEntity
8
1
62
256
6
ByLayer
370
18
48
1
60
1
100
AcDbLine
10
327.049425
20
-21.825003
30
0
11
328.900575
21
-21.824997
31
0
39
0
210
0
220
0
230
1
0
LINE
5
357
100
AcDbEntity
8
1
62
256
6
ByLayer
370
18
48
1
60
1
100
AcDbLine
10
328.900575
20
-21.824997
30
0
11
327.975
21
-26
31
0
39
0
210
0
220
0
230
1
0
LINE
5
359
100
AcDbEntity
8
1
62
256
6
ByLayer
370
18
48
1
60
1
100
AcDbLine
10
327.975
20
26
30
0
11
328.900575
21
21.825003
31
0
39
0
210
0
220
0
230
1
0
LINE
5
35A
100
AcDbEntity
8
1
62
256
6
ByLayer
370
18
48
1
60
1
100
AcDbLine
10
328.900575
20
21.825003
30
0
11
327.049425
21
21.824997
31
0
39
0
210
0
220
0
230
1
0
LINE
5
35B
100
AcDbEntity
8
1
62
256
6
ByLayer
370
18
48
1
60
1
100
AcDbLine
10
327.049425
20
21.824997
30
0
11
327.975
21
26
31
0
39
0
210
0
220
0
230
1
0
MTEXT
5
33D
100
AcDbEntity
8
SK2
62
256
6
ByLayer
370
18
48
1
60
0
100
AcDbMText
10
-102.736672
20
-6.949399
30
0
210
0
220
0
230
1
1
%%c
40
4.5
41
0
44
1.084337
50
90
71
7
72
5
7
iso_b_vert
0
MTEXT
5
340
100
AcDbEntity
8
SK2
62
256
6
ByLayer
370
18
48
1
60
0
100
AcDbMText
10
-102.736672
20
4.265444
30
0
210
0
220
0
230
1
1
\W0.6740;50
40
4.5
41
0
44
1.084337
50
90
71
7
72
5
7
iso_b_vert
0
MTEXT
5
349
100
AcDbEntity
8
SK2
62
256
6
ByLayer
370
18
48
1
60
0
100
AcDbMText
10
-112.736672
20
-9.541655
30
0
210
0
220
0
230
1
1
%%c
40
4.5
41
0
44
1.084337
50
90
71
7
72
5
7
iso_b_vert
0
MTEXT
5
34A
100
AcDbEntity
8
SK2
62
256
6
ByLayer
370
18
48
1
60
0
100
AcDbMText
10
-112.736672
20
1.673189
30
0
210
0
220
0
230
1
1
\W0.7346;62.5
40
4.5
41
0
44
1.084337
50
90
71
7
72
5
7
iso_b_vert
0
MTEXT
5
353
100
AcDbEntity
8
2
62
256
6
ByLayer
370
18
48
1
60
0
100
AcDbMText
10
325.963328
20
-6.949399
30
0
210
0
220
0
230
1
1
%%c
40
4.5
41
0
44
1.084337
50
90
71
7
72
5
7
iso_b_vert
0
MTEXT
5
354
100
AcDbEntity
8
2
62
256
6
ByLayer
370
18
48
1
60
0
100
AcDbMText
10
325.963328
20
4.265444
30
0
210
0
220
0
230
1
1
\W0.6740;52
40
4.5
41
0
44
1.084337
50
90
71
7
72
5
7
iso_b_vert
0
MTEXT
5
35D
100
AcDbEntity
8
SK6
62
256
6
ByLayer
370
18
48
1
60
0
100
AcDbMText
10
9.308916
20
-94.592562
30
0
210
0
220
0
230
1
1
\W0.7663;DS20-D5200L50-05
40
3.5
41
0
44
1.084337
50
0
71
7
72
5
7
iso_b_vert
0
HATCH
5
344
100
AcDbEntity
8
SK2
62
256
6
ByLayer
370
13
48
1
60
0
100
AcDbHatch
10
0
20
0
30
0
210
0
220
0
230
1
2
ANSI31
70
0
71
0
91
1
92
5
93
3
72
1
10
-100.725
20
-24.9999999999999
11
-101.650575216528
21
-20.8250033998275
72
1
10
-101.650575216528
20
-20.8250033998275
11
-99.7994247834721
21
-20.8249966001723
72
1
10
-99.7994247834721
20
-20.8249966001723
11
-100.725
21
-24.9999999999999
97
0
75
0
76
1
52
0
41
0.0062
77
0
78
1
53
45
43
0
44
0
45
-0.0139193969876572
46
0.0139193969876572
79
0
47
0
98
1
10
0
20
0
0
HATCH
5
348
100
AcDbEntity
8
SK2
62
256
6
ByLayer
370
13
48
1
60
0
100
AcDbHatch
10
0
20
0
30
0
210
0
220
0
230
1
2
ANSI31
70
0
71
0
91
1
92
5
93
3
72
1
10
-100.725
20
25.0000000000001
11
-99.7994247834721
21
20.8250033998277
72
1
10
-99.7994247834721
20
20.8250033998277
11
-101.650575216528
21
20.8249966001725
72
1
10
-101.650575216528
20
20.8249966001725
11
-100.725
21
25.0000000000001
97
0
75
0
76
1
52
0
41
0.0062
77
0
78
1
53
45
43
0
44
0
45
-0.0139193969876572
46
0.0139193969876572
79
0
47
0
98
1
10
0
20
0
0
HATCH
5
34E
100
AcDbEntity
8
SK2
62
256
6
ByLayer
370
13
48
1
60
0
100
AcDbHatch
10
0
20
0
30
0
210
0
220
0
230
1
2
ANSI31
70
0
71
0
91
1
92
5
93
3
72
1
10
-110.725
20
31.25
11
-109.799424783472
21
27.0750033998276
72
1
10
-109.799424783472
20
27.0750033998276
11
-111.650575216528
21
27.0749966001724
72
1
10
-111.650575216528
20
27.0749966001724
11
-110.725
21
31.25
97
0
75
0
76
1
52
0
41
0.0062
77
0
78
1
53
45
43
0
44
0
45
-0.0139193969876572
46
0.0139193969876572
79
0
47
0
98
1
10
0
20
0
0
HATCH
5
352
100
AcDbEntity
8
SK2
62
256
6
ByLayer
370
13
48
1
60
0
100
AcDbHatch
10
0
20
0
30
0
210
0
220
0
230
1
2
ANSI31
70
0
71
0
91
1
92
5
93
3
72
1
10
-110.725
20
-31.25
11
-111.650575216528
21
-27.0750033998276
72
1
10
-111.650575216528
20
-27.0750033998276
11
-109.799424783472
21
-27.0749966001724
72
1
10
-109.799424783472
20
-27.0749966001724
11
-110.725
21
-31.25
97
0
75
0
76
1
52
0
41
0.0062
77
0
78
1
53
45
43
0
44
0
45
-0.0139193969876572
46
0.0139193969876572
79
0
47
0
98
1
10
0
20
0
0
HATCH
5
358
100
AcDbEntity
8
2
62
256
6
ByLayer
370
13
48
1
60
0
100
AcDbHatch
10
0
20
0
30
0
210
0
220
0
230
1
2
ANSI31
70
0
71
0
91
1
92
5
93
3
72
1
10
327.975
20
-26.0000000000003
11
327.049424783472
21
-21.8250033998279
72
1
10
327.049424783472
20
-21.8250033998279
11
328.900575216528
21
-21.8249966001727
72
1
10
328.900575216528
20
-21.8249966001727
11
327.975
21
-26.0000000000003
97
0
75
0
76
1
52
0
41
0.0062
77
0
78
1
53
45
43
0
44
0
45
-0.0139193969876572
46
0.0139193969876572
79
0
47
0
98
1
10
0
20
0
0
HATCH
5
35C
100
AcDbEntity
8
2
62
256
6
ByLayer
370
13
48
1
60
0
100
AcDbHatch
10
0
20
0
30
0
210
0
220
0
230
1
2
ANSI31
70
0
71
0
91
1
92
5
93
3
72
1
10
327.975
20
25.9999999999997
11
328.900575216528
21
21.8250033998273
72
1
10
328.900575216528
20
21.8250033998273
11
327.049424783472
21
21.824996600172
72
1
10
327.049424783472
20
21.824996600172
11
327.975
21
25.9999999999997
97
0
75
0
76
1
52
0
41
0.0062
77
0
78
1
53
45
43
0
44
0
45
-0.0139193969876572
46
0.0139193969876572
79
0
47
0
98
1
10
0
20
0
0
DIMENSION
5
360
100
AcDbEntity
8
2
62
256
6
ByLayer
370
18
48
1
60
0
100
AcDbDimension
2
_U0
10
301
20
-80.1
30
0
11
150.5
21
-80.1
31
0
70
32
71
1
72
1
41
1
210
0
220
0
230
1
3
Standard
100
AcDbAlignedDimension
13
0
23
-31.25
33
0
14
301
24
-26
34
0
50
0
100
AcDbRotatedDimension
1001
ACAD
1000
DSTYLE
1002
{
1070
   371
1070
    13
1070
   372
1070
    13
1070
   170
1070
     0
1070
   144
1040
1.0
1070
   277
1070
     2
1070
   284
1070
     8
1070
   278
1070
    46
1070
   146
1040
0.777778
1070
   345
1005
16
1070
   347
1005
16
1070
   346
1005
16
1070
   344
1005
0
1070
   343
1005
0
1070
   172
1070
     1
1070
    76
1070
     0
1070
    75
1070
     0
1070
   282
1070
     0
1070
   281
1070
     0
1070
    71
1070
     0
1070
    74
1070
     0
1070
   279
1070
     0
1070
   173
1070
     1
1070
   340
1005
33E
1070
   271
1070
     1
1070
   272
1070
     2
1070
    77
1070
     1
1070
    73
1070
     1
1070
   171
1070
     3
1070
   274
1070
     4
1070
   177
1070
   150
1070
   176
1070
     9
1070
   178
1070
    43
1070
    78
1070
     8
1070
    48
1040
-0.1
1070
    41
1040
4.175
1070
   147
1040
2.25
1070
    42
1040
1.5875
1070
    44
1040
3.175
1070
   140
1040
4.5
1002
}
1001
ACAD_DSTYLE_DIM_LINETYPE
1070
   380
1005
16
1001
ACAD_DSTYLE_DIM_EXT1_LINETYPE
1070
   381
1005
16
1001
ACAD_DSTYLE_DIM_EXT2_LINETYPE
1070
   382
1005
16
0
DIMENSION
5
379
100
AcDbEntity
8
SK2
62
256
6
ByLayer
370
18
48
1
60
0
100
AcDbDimension
2
_U1
10
0
20
-80.1
30
0
11
-40
21
-80.1
31
0
70
32
71
1
72
1
41
1
210
0
220
0
230
1
3
Standard
100
AcDbAlignedDimension
13
-80
23
-25
33
0
14
0
24
-31.25
34
0
50
0
100
AcDbRotatedDimension
1001
ACAD
1000
DSTYLE
1002
{
1070
   371
1070
    13
1070
   372
1070
    13
1070
   170
1070
     0
1070
   144
1040
1.0
1070
   277
1070
     2
1070
   284
1070
     8
1070
   278
1070
    46
1070
   146
1040
0.777778
1070
   345
1005
16
1070
   347
1005
16
1070
   346
1005
16
1070
   344
1005
0
1070
   343
1005
0
1070
   172
1070
     1
1070
    76
1070
     0
1070
    75
1070
     0
1070
   282
1070
     0
1070
   281
1070
     0
1070
    71
1070
     0
1070
    74
1070
     0
1070
   279
1070
     0
1070
   173
1070
     1
1070
   340
1005
33E
1070
   271
1070
     1
1070
   272
1070
     2
1070
    77
1070
     1
1070
    73
1070
     1
1070
   171
1070
     3
1070
   274
1070
     4
1070
   177
1070
   150
1070
   176
1070
     9
1070
   178
1070
    43
1070
    78
1070
     8
1070
    48
1040
-0.1
1070
    41
1040
4.175
1070
   147
1040
2.25
1070
    42
1040
1.5875
1070
    44
1040
3.175
1070
   140
1040
4.5
1002
}
1001
ACAD_DSTYLE_DIM_LINETYPE
1070
   380
1005
16
1001
ACAD_DSTYLE_DIM_EXT1_LINETYPE
1070
   381
1005
16
1001
ACAD_DSTYLE_DIM_EXT2_LINETYPE
1070
   382
1005
16
0
DIMENSION
5
391
100
AcDbEntity
8
SK2
62
256
6
ByLayer
370
18
48
1
60
0
100
AcDbDimension
2
_U2
10
5.9541
20
-70.1
30
0
11
153.47705
21
-70.1
31
0
70
32
71
1
72
1
41
1
210
0
220
0
230
1
3
Standard
100
AcDbAlignedDimension
13
301
23
-26
33
0
14
5.9541
24
-31.25
34
0
50
0
100
AcDbRotatedDimension
1001
ACAD
1000
DSTYLE
1002
{
1070
   371
1070
    13
1070
   372
1070
    13
1070
   170
1070
     0
1070
   144
1040
1.0
1070
   277
1070
     2
1070
   284
1070
     8
1070
   278
1070
    46
1070
   146
1040
0.777778
1070
   345
1005
16
1070
   347
1005
16
1070
   346
1005
16
1070
   344
1005
0
1070
   343
1005
0
1070
   172
1070
     1
1070
    76
1070
     0
1070
    75
1070
     0
1070
   282
1070
     0
1070
   281
1070
     0
1070
    71
1070
     0
1070
    74
1070
     0
1070
   279
1070
     0
1070
   173
1070
     1
1070
   340
1005
33E
1070
   271
1070
     1
1070
   272
1070
     2
1070
    77
1070
     1
1070
    73
1070
     1
1070
   171
1070
     3
1070
   274
1070
     4
1070
   177
1070
   150
1070
   176
1070
     9
1070
   178
1070
    43
1070
    78
1070
     8
1070
    48
1040
-0.1
1070
    41
1040
4.175
1070
   147
1040
2.25
1070
    42
1040
1.5875
1070
    44
1040
3.175
1070
   140
1040
4.5
1002
}
1001
ACAD_DSTYLE_DIM_LINETYPE
1070
   380
1005
16
1001
ACAD_DSTYLE_DIM_EXT1_LINETYPE
1070
   381
1005
16
1001
ACAD_DSTYLE_DIM_EXT2_LINETYPE
1070
   382
1005
16
0
DIMENSION
5
3A9
100
AcDbEntity
8
SK2
62
256
6
ByLayer
370
18
48
1
60
0
100
AcDbDimension
2
_U3
10
301
20
-60.1
30
0
11
168.5
21
-60.1
31
0
70
32
71
1
72
1
41
1
210
0
220
0
230
1
3
Standard
100
AcDbAlignedDimension
13
36
23
-26
33
0
14
301
24
-26
34
0
50
0
100
AcDbRotatedDimension
1001
ACAD
1000
DSTYLE
1002
{
1070
   371
1070
    13
1070
   372
1070
    13
1070
   170
1070
     0
1070
   144
1040
1.0
1070
   277
1070
     2
1070
   284
1070
     8
1070
   278
1070
    46
1070
   146
1040
0.777778
1070
   345
1005
16
1070
   347
1005
16
1070
   346
1005
16
1070
   344
1005
0
1070
   343
1005
0
1070
   172
1070
     1
1070
    76
1070
     0
1070
    75
1070
     0
1070
   282
1070
     0
1070
   281
1070
     0
1070
    71
1070
     0
1070
    74
1070
     0
1070
   279
1070
     0
1070
   173
1070
     1
1070
   340
1005
33E
1070
   271
1070
     1
1070
   272
1070
     2
1070
    77
1070
     1
1070
    73
1070
     1
1070
   171
1070
     3
1070
   274
1070
     4
1070
   177
1070
   150
1070
   176
1070
     9
1070
   178
1070
    43
1070
    78
1070
     8
1070
    48
1040
-0.1
1070
    41
1040
4.175
1070
   147
1040
2.25
1070
    42
1040
1.5875
1070
    44
1040
3.175
1070
   140
1040
4.5
1002
}
1001
ACAD_DSTYLE_DIM_LINETYPE
1070
   380
1005
16
1001
ACAD_DSTYLE_DIM_EXT1_LINETYPE
1070
   381
1005
16
1001
ACAD_DSTYLE_DIM_EXT2_LINETYPE
1070
   382
1005
16
0
DIMENSION
5
3C1
100
AcDbEntity
8
2
62
256
6
ByLayer
370
18
48
1
60
0
100
AcDbDimension
2
_U4
10
301
20
-50.1
30
0
11
323.029464
21
-50.1
31
0
70
32
71
1
72
1
41
1
210
0
220
0
230
1
3
Standard
100
AcDbAlignedDimension
13
299.7234
23
-13
33
0
14
301
24
0
34
0
50
0
100
AcDbRotatedDimension
1001
ACAD
1000
DSTYLE
1002
{
1070
   371
1070
    13
1070
   372
1070
    13
1070
   170
1070
     0
1070
   144
1040
1.0
1070
   277
1070
     2
1070
   284
1070
     8
1070
   278
1070
    46
1070
   146
1040
0.777778
1070
   345
1005
16
1070
   347
1005
16
1070
   346
1005
16
1070
   344
1005
0
1070
   343
1005
0
1070
   172
1070
     1
1070
    76
1070
     0
1070
    75
1070
     0
1070
   282
1070
     0
1070
   281
1070
     0
1070
    71
1070
     0
1070
    74
1070
     0
1070
   279
1070
     0
1070
   173
1070
     1
1070
   340
1005
33E
1070
   271
1070
     2
1070
   272
1070
     2
1070
    77
1070
     1
1070
    73
1070
     1
1070
   171
1070
     3
1070
   274
1070
     4
1070
   177
1070
   150
1070
   176
1070
     9
1070
   178
1070
    43
1070
    78
1070
     8
1070
    48
1040
-0.1
1070
    41
1040
4.175
1070
   147
1040
2.25
1070
    42
1040
1.5875
1070
    44
1040
3.175
1070
   140
1040
4.5
1002
}
1001
ACAD_DSTYLE_DIM_LINETYPE
1070
   380
1005
16
1001
ACAD_DSTYLE_DIM_EXT1_LINETYPE
1070
   381
1005
16
1001
ACAD_DSTYLE_DIM_EXT2_LINETYPE
1070
   382
1005
16
0
ENDSEC
0
SECTION
2
OBJECTS
0
DICTIONARY
5
44b
330
0
100
AcDbDictionary
280
0
281
1
3
ACAD_GROUP
350
44c
3
ACAD_MLINESTYLE
350
44d
0
DICTIONARY
5
44c
330
0
100
AcDbDictionary
280
0
281
1
0
DICTIONARY
5
44d
330
0
100
AcDbDictionary
280
0
281
1
3
Standard
350
18
0
MLINESTYLE
5
18
330
44d
100
AcDbMlineStyle
2
Standard
70
0
3

62
256
51
90
52
90
71
2
49
-0.5
62
256
6
ByLayer
49
0.5
62
256
6
ByLayer
0
RASTERVARIABLES
5
439
330

100
AcDbRasterVariables
90
0
70
1
71
1
72
1
0
ENDSEC
0
EOF
