0
SECTION
2
HEADER
9
$ACADVER
1
AC1015
9
$DWGCODEPAGE
3
ANSI_1252
9
$HANDSEED
5
458
9
$ANGBASE
50
0
9
$ANGDIR
70
0
9
$ATTMODE
70
1
9
$AUNITS
70
0
9
$AUPREC
70
0
9
$CECOLOR
62
256
9
$CELTSCALE
40
1
9
$CELTYPE
6
ByLayer
9
$CELWEIGHT
370
18
9
$CLAYER
8
0
9
$CMLJUST
70
0
9
$CMLSCALE
40
1
9
$CMLSTYLE
2
Standard
9
$DIMSTYLE
2
Standard
9
$TEXTSIZE
40
0.2
9
$TEXTSTYLE
7
Standard
9
$LUNITS
70
2
9
$LUPREC
70
4
9
$EXTNAMES
290
1
9
$INSUNITS
70
4
9
$LTSCALE
40
1
9
$LWDISPLAY
290
1
9
$PDMODE
70
0
9
$PDSIZE
40
0
9
$PLINEGEN
70
0
0
ENDSEC
0
SECTION
2
CLASSES
0
CLASS
1
RASTERVARIABLES
2
AcDbRasterVariables
3
ISM
90
0
280
0
281
0
0
ENDSEC
0
SECTION
2
TABLES
0
TABLE
2
VPORT
5
44e
100
AcDbSymbolTable
0
VPORT
5
1
100
AcDbSymbolTableRecord
100
AcDbViewportTableRecord
2
*Active
70
0
10
0
20
0
11
1
21
1
12
-1
22
1
13
0
23
0
14
0.5
24
0.5
15
10
25
10
16
0
26
0
36
1
17
0
27
0
37
0
0
ENDTAB
0
TABLE
2
LTYPE
5
44f
100
AcDbSymbolTable
0
LTYPE
5
14
100
AcDbSymbolTableRecord
100
AcDbLinetypeTableRecord
70
0
2
ByBlock
3

72
65
73
0
40
0
0
LTYPE
5
15
100
AcDbSymbolTableRecord
100
AcDbLinetypeTableRecord
70
0
2
ByLayer
3

72
65
73
0
40
0
0
LTYPE
5
16
100
AcDbSymbolTableRecord
100
AcDbLinetypeTableRecord
70
0
2
Continuous
3
Solid line
72
65
73
0
40
0
0
LTYPE
5
6E
100
AcDbSymbolTableRecord
100
AcDbLinetypeTableRecord
70
0
2
CENTER
3
____ _ ____ _ ____ _ ____
72
65
73
4
40
47.5
49
22
74
0
49
-8.5
74
0
49
8.5
74
0
49
-8.5
74
0
0
LTYPE
5
6F
100
AcDbSymbolTableRecord
100
AcDbLinetypeTableRecord
70
0
2
DASHED
3
__ __ __ __ __ __ __ __ __
72
65
73
2
40
25.72
49
12.86
74
0
49
-12.86
74
0
0
ENDTAB
0
TABLE
2
LAYER
5
450
100
AcDbSymbolTable
0
LAYER
5
10
100
AcDbSymbolTableRecord
100
AcDbLayerTableRecord
2
0
70
0
62
7
6
Continuous
290
1
370
-3
390
0
0
LAYER
5
71
100
AcDbSymbolTableRecord
100
AcDbLayerTableRecord
2
1
70
0
62
4
6
Continuous
290
1
370
-3
390
0
0
LAYER
5
73
100
AcDbSymbolTableRecord
100
AcDbLayerTableRecord
2
80
70
0
62
-6
6
Continuous
290
1
370
-3
390
0
0
LAYER
5
75
100
AcDbSymbolTableRecord
100
AcDbLayerTableRecord
2
81
70
0
62
-3
6
Continuous
290
1
370
-3
390
0
0
LAYER
5
14A
100
AcDbSymbolTableRecord
100
AcDbLayerTableRecord
2
4
70
0
62
-2
6
CENTER
290
1
370
-3
390
0
0
LAYER
5
185
100
AcDbSymbolTableRecord
100
AcDbLayerTableRecord
2
2
70
0
62
7
6
Continuous
290
1
370
-3
390
0
0
LAYER
5
363
100
AcDbSymbolTableRecord
100
AcDbLayerTableRecord
2
Defpoints
70
0
62
7
6
Continuous
290
0
370
-3
390
0
0
LAYER
5
43a
100
AcDbSymbolTableRecord
100
AcDbLayerTableRecord
2
SK1
70
0
62
4
6
Continuous
290
1
370
-3
390
0
0
LAYER
5
43b
100
AcDbSymbolTableRecord
100
AcDbLayerTableRecord
2
SK4
70
0
62
2
6
CENTER
290
1
370
-3
390
0
0
LAYER
5
43c
100
AcDbSymbolTableRecord
100
AcDbLayerTableRecord
2
SK2
70
0
62
7
6
Continuous
290
1
370
-3
390
0
0
LAYER
5
43d
100
AcDbSymbolTableRecord
100
AcDbLayerTableRecord
2
SK6
70
0
62
5
6
Continuous
290
1
370
-3
390
0
0
ENDTAB
0
TABLE
2
STYLE
5
451
100
AcDbSymbolTable
0
STYLE
5
11
100
AcDbSymbolTableRecord
100
AcDbTextStyleTableRecord
2
Standard
3
txt
70
0
71
0
40
0
41
1
42
0
50
0
0
STYLE
5
33E
100
AcDbSymbolTableRecord
100
AcDbTextStyleTableRecord
2
iso_b_vert
3
simplex.shx
70
0
71
0
40
0
41
1
42
0
50
0
0
STYLE
5
33F
100
AcDbSymbolTableRecord
100
AcDbTextStyleTableRecord
2
DWGDirectTextStyle
3
simplex
70
0
71
0
40
0
41
1
42
0
50
0
0
ENDTAB
0
TABLE
2
DIMSTYLE
5
452
100
AcDbSymbolTable
100
AcDbDimStyleTable
0
DIMSTYLE
105
27
100
AcDbSymbolTableRecord
100
AcDbDimStyleTableRecord
2
Standard
70
0
3
<>
41
0.18
42
0.0625
44
0.18
140
0.18
147
0.09
73
0
74
0
77
1
271
2
275
0
278
52
280
0
340
11
0
ENDTAB
0
TABLE
2
VIEW
5
453
100
AcDbSymbolTable
0
ENDTAB
0
TABLE
2
UCS
5
454
100
AcDbSymbolTable
0
ENDTAB
0
TABLE
2
APPID
5
455
100
AcDbSymbolTable
0
APPID
5
12
100
AcDbSymbolTableRecord
100
AcDbRegAppTableRecord
2
ACAD
70
0
0
APPID
5
35F
100
AcDbSymbolTableRecord
100
AcDbRegAppTableRecord
2
ACAD_DSTYLE_DIMBREAK
70
0
0
APPID
5
3F9
100
AcDbSymbolTableRecord
100
AcDbRegAppTableRecord
2
ACAD_DSTYLE_DIM_LINETYPE
70
0
0
APPID
5
3FA
100
AcDbSymbolTableRecord
100
AcDbRegAppTableRecord
2
ACAD_DSTYLE_DIM_EXT1_LINETYPE
70
0
0
APPID
5
3FB
100
AcDbSymbolTableRecord
100
AcDbRegAppTableRecord
2
ACAD_DSTYLE_DIM_EXT2_LINETYPE
70
0
0
APPID
5
436
100
AcDbSymbolTableRecord
100
AcDbRegAppTableRecord
2
ACAD_MLEADERVER
70
0
0
ENDTAB
0
TABLE
2
BLOCK_RECORD
5
456
100
AcDbSymbolTable
0
BLOCK_RECORD
5
1F
100
AcDbSymbolTableRecord
100
AcDbBlockTableRecord
2
*Model_Space
340
0
70
0
0
BLOCK_RECORD
5
1B
100
AcDbSymbolTableRecord
100
AcDbBlockTableRecord
2
*Paper_Space
340
0
70
0
0
BLOCK_RECORD
5
23
100
AcDbSymbolTableRecord
100
AcDbBlockTableRecord
2
*Paper_Space0
340
0
70
0
0
BLOCK_RECORD
5
364
100
AcDbSymbolTableRecord
100
AcDbBlockTableRecord
2
*D1
340
0
70
0
0
BLOCK_RECORD
5
370
100
AcDbSymbolTableRecord
100
AcDbBlockTableRecord
2
_U0
340
0
70
0
0
BLOCK_RECORD
5
37C
100
AcDbSymbolTableRecord
100
AcDbBlockTableRecord
2
*D3
340
0
70
0
0
BLOCK_RECORD
5
388
100
AcDbSymbolTableRecord
100
AcDbBlockTableRecord
2
_U1
340
0
70
0
0
BLOCK_RECORD
5
394
100
AcDbSymbolTableRecord
100
AcDbBlockTableRecord
2
*D5
340
0
70
0
0
BLOCK_RECORD
5
3A0
100
AcDbSymbolTableRecord
100
AcDbBlockTableRecord
2
_U2
340
0
70
0
0
BLOCK_RECORD
5
3AC
100
AcDbSymbolTableRecord
100
AcDbBlockTableRecord
2
*D7
340
0
70
0
0
BLOCK_RECORD
5
3B8
100
AcDbSymbolTableRecord
100
AcDbBlockTableRecord
2
_U3
340
0
70
0
0
BLOCK_RECORD
5
3C4
100
AcDbSymbolTableRecord
100
AcDbBlockTableRecord
2
*D9
340
0
70
0
0
BLOCK_RECORD
5
3D2
100
AcDbSymbolTableRecord
100
AcDbBlockTableRecord
2
_U4
340
0
70
0
0
ENDTAB
0
ENDSEC
0
SECTION
2
BLOCKS
0
BLOCK
5
20
100
AcDbEntity
8
0
100
AcDbBlockBegin
2
*Model_Space
70
0
10
0
20
0
30
0
3
*Model_Space
0
ENDBLK
5
21
100
AcDbEntity
8
0
100
AcDbBlockEnd
0
BLOCK
5
1C
100
AcDbEntity
8
0
100
AcDbBlockBegin
2
*Paper_Space
70
0
10
0
20
0
30
0
3
*Paper_Space
0
ENDBLK
5
1D
100
AcDbEntity
8
0
100
AcDbBlockEnd
0
BLOCK
5
24
100
AcDbEntity
8
0
100
AcDbBlockBegin
2
*Paper_Space0
70
0
10
0
20
0
30
0
3
*Paper_Space0
0
ENDBLK
5
25
100
AcDbEntity
8
0
100
AcDbBlockEnd
0
BLOCK
5
365
100
AcDbEntity
8
0
100
AcDbBlockBegin
2
*D1
70
1
10
0
20
0
30
0
3
*D1
0
LINE
5
367
100
AcDbEntity
8
0
62
256
6
ByLayer
370
-2
48
1
60
0
100
AcDbLine
10
0
20
-32.8375
30
0
11
0
21
-83.287261
31
0
39
0
210
0
220
0
230
1
0
LINE
5
368
100
AcDbEntity
8
0
62
256
6
ByLayer
370
-2
48
1
60
0
100
AcDbLine
10
267
20
-24.0875
30
0
11
267
21
-83.287261
31
0
39
0
210
0
220
0
230
1
0
LINE
5
369
100
AcDbEntity
8
0
62
256
6
ByLayer
370
-2
48
1
60
0
100
AcDbLine
10
4.175
20
-80.112261
30
0
11
262.825
21
-80.112261
31
0
39
0
210
0
220
0
230
1
0
SOLID
5
36A
100
AcDbEntity
8
0
62
256
6
ByLayer
370
-1
48
1
60
0
100
AcDbTrace
10
4.175
20
-79.416428
30
0
11
4.175
21
-80.808094
31
0
12
0
22
-80.112261
32
0
13
0
23
-80.112261
33
0
39
0
210
0
220
0
230
1
0
SOLID
5
36B
100
AcDbEntity
8
0
62
256
6
ByLayer
370
-1
48
1
60
0
100
AcDbTrace
10
262.825
20
-80.808094
30
0
11
262.825
21
-79.416428
31
0
12
267
22
-80.112261
32
0
13
267
23
-80.112261
33
0
39
0
210
0
220
0
230
1
0
MTEXT
5
36C
100
AcDbEntity
8
0
62
256
6
ByLayer
370
18
48
1
60
0
100
AcDbMText
10
133.5
20
-70.718511
30
0
210
0
220
0
230
1
1
\A1;267
40
4.5
41
0
44
1
50
0
71
5
72
5
7
iso_b_vert
0
POINT
5
36D
100
AcDbEntity
8
Defpoints
62
0
6
ByLayer
370
-1
48
1
60
0
100
AcDbPoint
10
0
20
-31.25
30
0
39
0
210
0
220
0
230
1
50
360
0
POINT
5
36E
100
AcDbEntity
8
Defpoints
62
0
6
ByLayer
370
-1
48
1
60
0
100
AcDbPoint
10
267
20
-22.5
30
0
39
0
210
0
220
0
230
1
50
360
0
POINT
5
36F
100
AcDbEntity
8
Defpoints
62
0
6
ByLayer
370
-1
48
1
60
0
100
AcDbPoint
10
267
20
-80.112261
30
0
39
0
210
0
220
0
230
1
50
360
0
ENDBLK
5
366
100
AcDbEntity
8
0
100
AcDbBlockEnd
0
BLOCK
5
377
100
AcDbEntity
8
0
100
AcDbBlockBegin
2
_U0
70
0
10
0
20
0
30
0
3
_U0
0
MTEXT
5
371
100
AcDbEntity
8
2
62
256
6
ByLayer
370
18
48
1
60
0
100
AcDbMText
10
129.369387
20
-78.784589
30
0
210
0
220
0
230
1
1
\W0.7138;267
40
4.5
41
0
44
1.084337
50
0
71
7
72
5
7
iso_b_vert
0
LINE
5
372
100
AcDbEntity
8
2
62
256
6
ByLayer
370
13
48
1
60
0
100
AcDbLine
10
0
20
-32.8375
30
0
11
0
21
-83.287261
31
0
39
0
210
0
220
0
230
1
0
LINE
5
373
100
AcDbEntity
8
2
62
256
6
ByLayer
370
13
48
1
60
0
100
AcDbLine
10
267
20
-24.0875
30
0
11
267
21
-83.287261
31
0
39
0
210
0
220
0
230
1
0
LINE
5
374
100
AcDbEntity
8
2
62
256
6
ByLayer
370
13
48
1
60
0
100
AcDbLine
10
0
20
-80.112261
30
0
11
267
21
-80.112261
31
0
39
0
210
0
220
0
230
1
0
SOLID
5
375
100
AcDbEntity
8
2
62
256
6
ByLayer
370
18
48
1
60
0
100
AcDbTrace
10
0
20
-80.112261
30
0
11
4.174997
21
-79.186686
31
0
12
4.175003
22
-81.037836
32
0
13
4.175003
23
-81.037836
33
0
39
0
210
0
220
0
230
1
0
SOLID
5
376
100
AcDbEntity
8
2
62
256
6
ByLayer
370
18
48
1
60
0
100
AcDbTrace
10
267
20
-80.112261
30
0
11
262.825003
21
-81.037836
31
0
12
262.824997
22
-79.186686
32
0
13
262.824997
23
-79.186686
33
0
39
0
210
0
220
0
230
1
0
ENDBLK
5
378
100
AcDbEntity
8
0
100
AcDbBlockEnd
0
BLOCK
5
37D
100
AcDbEntity
8
0
100
AcDbBlockBegin
2
*D3
70
1
10
0
20
0
30
0
3
*D3
0
LINE
5
37F
100
AcDbEntity
8
0
62
256
6
ByLayer
370
-2
48
1
60
0
100
AcDbLine
10
-80
20
-26.5875
30
0
11
-80
21
-83.287261
31
0
39
0
210
0
220
0
230
1
0
LINE
5
380
100
AcDbEntity
8
0
62
256
6
ByLayer
370
-2
48
1
60
0
100
AcDbLine
10
0
20
-32.8375
30
0
11
0
21
-83.287261
31
0
39
0
210
0
220
0
230
1
0
LINE
5
381
100
AcDbEntity
8
0
62
256
6
ByLayer
370
-2
48
1
60
0
100
AcDbLine
10
-75.825
20
-80.112261
30
0
11
-4.175
21
-80.112261
31
0
39
0
210
0
220
0
230
1
0
SOLID
5
382
100
AcDbEntity
8
0
62
256
6
ByLayer
370
-1
48
1
60
0
100
AcDbTrace
10
-75.825
20
-79.416428
30
0
11
-75.825
21
-80.808094
31
0
12
-80
22
-80.112261
32
0
13
-80
23
-80.112261
33
0
39
0
210
0
220
0
230
1
0
SOLID
5
383
100
AcDbEntity
8
0
62
256
6
ByLayer
370
-1
48
1
60
0
100
AcDbTrace
10
-4.175
20
-80.808094
30
0
11
-4.175
21
-79.416428
31
0
12
0
22
-80.112261
32
0
13
0
23
-80.112261
33
0
39
0
210
0
220
0
230
1
0
MTEXT
5
384
100
AcDbEntity
8
0
62
256
6
ByLayer
370
18
48
1
60
0
100
AcDbMText
10
-40
20
-70.718511
30
0
210
0
220
0
230
1
1
\A1;80
40
4.5
41
0
44
1
50
0
71
5
72
5
7
iso_b_vert
0
POINT
5
385
100
AcDbEntity
8
Defpoints
62
0
6
ByLayer
370
-1
48
1
60
0
100
AcDbPoint
10
-80
20
-25
30
0
39
0
210
0
220
0
230
1
50
360
0
POINT
5
386
100
AcDbEntity
8
Defpoints
62
0
6
ByLayer
370
-1
48
1
60
0
100
AcDbPoint
10
0
20
-31.25
30
0
39
0
210
0
220
0
230
1
50
360
0
POINT
5
387
100
AcDbEntity
8
Defpoints
62
0
6
ByLayer
370
-1
48
1
60
0
100
AcDbPoint
10
0
20
-80.112261
30
0
39
0
210
0
220
0
230
1
50
360
0
ENDBLK
5
37E
100
AcDbEntity
8
0
100
AcDbBlockEnd
0
BLOCK
5
38F
100
AcDbEntity
8
0
100
AcDbBlockBegin
2
_U1
70
0
10
0
20
0
30
0
3
_U1
0
MTEXT
5
389
100
AcDbEntity
8
SK2
62
256
6
ByLayer
370
18
48
1
60
0
100
AcDbMText
10
-42.449242
20
-78.784589
30
0
210
0
220
0
230
1
1
\W0.6740;80
40
4.5
41
0
44
1.084337
50
0
71
7
72
5
7
iso_b_vert
0
LINE
5
38A
100
AcDbEntity
8
SK2
62
256
6
ByLayer
370
13
48
1
60
0
100
AcDbLine
10
-80
20
-26.5875
30
0
11
-80
21
-83.287261
31
0
39
0
210
0
220
0
230
1
0
LINE
5
38B
100
AcDbEntity
8
SK2
62
256
6
ByLayer
370
13
48
1
60
0
100
AcDbLine
10
0
20
-32.8375
30
0
11
0
21
-83.287261
31
0
39
0
210
0
220
0
230
1
0
LINE
5
38C
100
AcDbEntity
8
SK2
62
256
6
ByLayer
370
13
48
1
60
0
100
AcDbLine
10
-80
20
-80.112261
30
0
11
0
21
-80.112261
31
0
39
0
210
0
220
0
230
1
0
SOLID
5
38D
100
AcDbEntity
8
SK2
62
256
6
ByLayer
370
18
48
1
60
0
100
AcDbTrace
10
-80
20
-80.112261
30
0
11
-75.825003
21
-79.186686
31
0
12
-75.824997
22
-81.037836
32
0
13
-75.824997
23
-81.037836
33
0
39
0
210
0
220
0
230
1
0
SOLID
5
38E
100
AcDbEntity
8
SK2
62
256
6
ByLayer
370
18
48
1
60
0
100
AcDbTrace
10
0
20
-80.112261
30
0
11
-4.174997
21
-81.037836
31
0
12
-4.175003
22
-79.186686
32
0
13
-4.175003
23
-79.186686
33
0
39
0
210
0
220
0
230
1
0
ENDBLK
5
390
100
AcDbEntity
8
0
100
AcDbBlockEnd
0
BLOCK
5
395
100
AcDbEntity
8
0
100
AcDbBlockBegin
2
*D5
70
1
10
0
20
0
30
0
3
*D5
0
LINE
5
397
100
AcDbEntity
8
0
62
256
6
ByLayer
370
-2
48
1
60
0
100
AcDbLine
10
267
20
-24.0875
30
0
11
267
21
-73.287261
31
0
39
0
210
0
220
0
230
1
0
LINE
5
398
100
AcDbEntity
8
0
62
256
6
ByLayer
370
-2
48
1
60
0
100
AcDbLine
10
6.4079
20
-32.8375
30
0
11
6.4079
21
-73.287261
31
0
39
0
210
0
220
0
230
1
0
LINE
5
399
100
AcDbEntity
8
0
62
256
6
ByLayer
370
-2
48
1
60
0
100
AcDbLine
10
262.825
20
-70.112261
30
0
11
10.5829
21
-70.112261
31
0
39
0
210
0
220
0
230
1
0
SOLID
5
39A
100
AcDbEntity
8
0
62
256
6
ByLayer
370
-1
48
1
60
0
100
AcDbTrace
10
262.825
20
-70.808094
30
0
11
262.825
21
-69.416428
31
0
12
267
22
-70.112261
32
0
13
267
23
-70.112261
33
0
39
0
210
0
220
0
230
1
0
SOLID
5
39B
100
AcDbEntity
8
0
62
256
6
ByLayer
370
-1
48
1
60
0
100
AcDbTrace
10
10.5829
20
-69.416428
30
0
11
10.5829
21
-70.808094
31
0
12
6.4079
22
-70.112261
32
0
13
6.4079
23
-70.112261
33
0
39
0
210
0
220
0
230
1
0
MTEXT
5
39C
100
AcDbEntity
8
0
62
256
6
ByLayer
370
18
48
1
60
0
100
AcDbMText
10
136.70395
20
-60.718511
30
0
210
0
220
0
230
1
1
\A1;260.6
40
4.5
41
0
44
1
50
0
71
5
72
5
7
iso_b_vert
0
POINT
5
39D
100
AcDbEntity
8
Defpoints
62
0
6
ByLayer
370
-1
48
1
60
0
100
AcDbPoint
10
267
20
-22.5
30
0
39
0
210
0
220
0
230
1
50
360
0
POINT
5
39E
100
AcDbEntity
8
Defpoints
62
0
6
ByLayer
370
-1
48
1
60
0
100
AcDbPoint
10
6.4079
20
-31.25
30
0
39
0
210
0
220
0
230
1
50
360
0
POINT
5
39F
100
AcDbEntity
8
Defpoints
62
0
6
ByLayer
370
-1
48
1
60
0
100
AcDbPoint
10
6.4079
20
-70.112261
30
0
39
0
210
0
220
0
230
1
50
360
0
ENDBLK
5
396
100
AcDbEntity
8
0
100
AcDbBlockEnd
0
BLOCK
5
3A7
100
AcDbEntity
8
0
100
AcDbBlockBegin
2
_U2
70
0
10
0
20
0
30
0
3
_U2
0
MTEXT
5
3A1
100
AcDbEntity
8
SK2
62
256
6
ByLayer
370
18
48
1
60
0
100
AcDbMText
10
129.980394
20
-68.784589
30
0
210
0
220
0
230
1
1
\W0.7468;260.6
40
4.5
41
0
44
1.084337
50
0
71
7
72
5
7
iso_b_vert
0
LINE
5
3A2
100
AcDbEntity
8
SK2
62
256
6
ByLayer
370
13
48
1
60
0
100
AcDbLine
10
267
20
-24.0875
30
0
11
267
21
-73.287261
31
0
39
0
210
0
220
0
230
1
0
LINE
5
3A3
100
AcDbEntity
8
SK2
62
256
6
ByLayer
370
13
48
1
60
0
100
AcDbLine
10
6.4079
20
-32.8375
30
0
11
6.4079
21
-73.287261
31
0
39
0
210
0
220
0
230
1
0
LINE
5
3A4
100
AcDbEntity
8
SK2
62
256
6
ByLayer
370
13
48
1
60
0
100
AcDbLine
10
267
20
-70.112261
30
0
11
6.4079
21
-70.112261
31
0
39
0
210
0
220
0
230
1
0
SOLID
5
3A5
100
AcDbEntity
8
SK2
62
256
6
ByLayer
370
18
48
1
60
0
100
AcDbTrace
10
267
20
-70.112261
30
0
11
262.825003
21
-71.037836
31
0
12
262.824997
22
-69.186686
32
0
13
262.824997
23
-69.186686
33
0
39
0
210
0
220
0
230
1
0
SOLID
5
3A6
100
AcDbEntity
8
SK2
62
256
6
ByLayer
370
18
48
1
60
0
100
AcDbTrace
10
6.4079
20
-70.112261
30
0
11
10.582897
21
-69.186686
31
0
12
10.582903
22
-71.037836
32
0
13
10.582903
23
-71.037836
33
0
39
0
210
0
220
0
230
1
0
ENDBLK
5
3A8
100
AcDbEntity
8
0
100
AcDbBlockEnd
0
BLOCK
5
3AD
100
AcDbEntity
8
0
100
AcDbBlockBegin
2
*D7
70
1
10
0
20
0
30
0
3
*D7
0
LINE
5
3AF
100
AcDbEntity
8
0
62
256
6
ByLayer
370
-2
48
1
60
0
100
AcDbLine
10
37
20
-24.0875
30
0
11
37
21
-63.287261
31
0
39
0
210
0
220
0
230
1
0
LINE
5
3B0
100
AcDbEntity
8
0
62
256
6
ByLayer
370
-2
48
1
60
0
100
AcDbLine
10
267
20
-24.0875
30
0
11
267
21
-63.287261
31
0
39
0
210
0
220
0
230
1
0
LINE
5
3B1
100
AcDbEntity
8
0
62
256
6
ByLayer
370
-2
48
1
60
0
100
AcDbLine
10
41.175
20
-60.112261
30
0
11
262.825
21
-60.112261
31
0
39
0
210
0
220
0
230
1
0
SOLID
5
3B2
100
AcDbEntity
8
0
62
256
6
ByLayer
370
-1
48
1
60
0
100
AcDbTrace
10
41.175
20
-59.416428
30
0
11
41.175
21
-60.808094
31
0
12
37
22
-60.112261
32
0
13
37
23
-60.112261
33
0
39
0
210
0
220
0
230
1
0
SOLID
5
3B3
100
AcDbEntity
8
0
62
256
6
ByLayer
370
-1
48
1
60
0
100
AcDbTrace
10
262.825
20
-60.808094
30
0
11
262.825
21
-59.416428
31
0
12
267
22
-60.112261
32
0
13
267
23
-60.112261
33
0
39
0
210
0
220
0
230
1
0
MTEXT
5
3B4
100
AcDbEntity
8
0
62
256
6
ByLayer
370
18
48
1
60
0
100
AcDbMText
10
152
20
-50.718511
30
0
210
0
220
0
230
1
1
\A1;230
40
4.5
41
0
44
1
50
0
71
5
72
5
7
iso_b_vert
0
POINT
5
3B5
100
AcDbEntity
8
Defpoints
62
0
6
ByLayer
370
-1
48
1
60
0
100
AcDbPoint
10
37
20
-22.5
30
0
39
0
210
0
220
0
230
1
50
360
0
POINT
5
3B6
100
AcDbEntity
8
Defpoints
62
0
6
ByLayer
370
-1
48
1
60
0
100
AcDbPoint
10
267
20
-22.5
30
0
39
0
210
0
220
0
230
1
50
360
0
POINT
5
3B7
100
AcDbEntity
8
Defpoints
62
0
6
ByLayer
370
-1
48
1
60
0
100
AcDbPoint
10
267
20
-60.112261
30
0
39
0
210
0
220
0
230
1
50
360
0
ENDBLK
5
3AE
100
AcDbEntity
8
0
100
AcDbBlockEnd
0
BLOCK
5
3BF
100
AcDbEntity
8
0
100
AcDbBlockBegin
2
_U3
70
0
10
0
20
0
30
0
3
_U3
0
MTEXT
5
3B9
100
AcDbEntity
8
SK2
62
256
6
ByLayer
370
18
48
1
60
0
100
AcDbMText
10
147.869387
20
-58.784589
30
0
210
0
220
0
230
1
1
\W0.7138;230
40
4.5
41
0
44
1.084337
50
0
71
7
72
5
7
iso_b_vert
0
LINE
5
3BA
100
AcDbEntity
8
SK2
62
256
6
ByLayer
370
13
48
1
60
0
100
AcDbLine
10
37
20
-24.0875
30
0
11
37
21
-63.287261
31
0
39
0
210
0
220
0
230
1
0
LINE
5
3BB
100
AcDbEntity
8
SK2
62
256
6
ByLayer
370
13
48
1
60
0
100
AcDbLine
10
267
20
-24.0875
30
0
11
267
21
-63.287261
31
0
39
0
210
0
220
0
230
1
0
LINE
5
3BC
100
AcDbEntity
8
SK2
62
256
6
ByLayer
370
13
48
1
60
0
100
AcDbLine
10
37
20
-60.112261
30
0
11
267
21
-60.112261
31
0
39
0
210
0
220
0
230
1
0
SOLID
5
3BD
100
AcDbEntity
8
SK2
62
256
6
ByLayer
370
18
48
1
60
0
100
AcDbTrace
10
37
20
-60.112261
30
0
11
41.174997
21
-59.186686
31
0
12
41.175003
22
-61.037836
32
0
13
41.175003
23
-61.037836
33
0
39
0
210
0
220
0
230
1
0
SOLID
5
3BE
100
AcDbEntity
8
SK2
62
256
6
ByLayer
370
18
48
1
60
0
100
AcDbTrace
10
267
20
-60.112261
30
0
11
262.825003
21
-61.037836
31
0
12
262.824997
22
-59.186686
32
0
13
262.824997
23
-59.186686
33
0
39
0
210
0
220
0
230
1
0
ENDBLK
5
3C0
100
AcDbEntity
8
0
100
AcDbBlockEnd
0
BLOCK
5
3C5
100
AcDbEntity
8
0
100
AcDbBlockBegin
2
*D9
70
1
10
0
20
0
30
0
3
*D9
0
LINE
5
3C7
100
AcDbEntity
8
0
62
256
6
ByLayer
370
-2
48
1
60
0
100
AcDbLine
10
265.7234
20
-12.8375
30
0
11
265.7234
21
-53.287261
31
0
39
0
210
0
220
0
230
1
0
LINE
5
3C8
100
AcDbEntity
8
0
62
256
6
ByLayer
370
-2
48
1
60
0
100
AcDbLine
10
267
20
-1.5875
30
0
11
267
21
-53.287261
31
0
39
0
210
0
220
0
230
1
0
LINE
5
3C9
100
AcDbEntity
8
0
62
256
6
ByLayer
370
-2
48
1
60
0
100
AcDbLine
10
267
20
-50.112261
30
0
11
302.708929
21
-50.112261
31
0
39
0
210
0
220
0
230
1
0
LINE
5
3CA
100
AcDbEntity
8
0
62
256
6
ByLayer
370
-2
48
1
60
0
100
AcDbLine
10
261.5484
20
-50.112261
30
0
11
257.3734
21
-50.112261
31
0
39
0
210
0
220
0
230
1
0
LINE
5
3CB
100
AcDbEntity
8
0
62
256
6
ByLayer
370
-2
48
1
60
0
100
AcDbLine
10
271.175
20
-50.112261
30
0
11
275.35
21
-50.112261
31
0
39
0
210
0
220
0
230
1
0
SOLID
5
3CC
100
AcDbEntity
8
0
62
256
6
ByLayer
370
-1
48
1
60
0
100
AcDbTrace
10
261.5484
20
-50.808094
30
0
11
261.5484
21
-49.416428
31
0
12
265.7234
22
-50.112261
32
0
13
265.7234
23
-50.112261
33
0
39
0
210
0
220
0
230
1
0
SOLID
5
3CD
100
AcDbEntity
8
0
62
256
6
ByLayer
370
-1
48
1
60
0
100
AcDbTrace
10
271.175
20
-49.416428
30
0
11
271.175
21
-50.808094
31
0
12
267
22
-50.112261
32
0
13
267
23
-50.112261
33
0
39
0
210
0
220
0
230
1
0
MTEXT
5
3CE
100
AcDbEntity
8
0
62
256
6
ByLayer
370
18
48
1
60
0
100
AcDbMText
10
289.029464
20
-40.718511
30
0
210
0
220
0
230
1
1
\A1;1.28
40
4.5
41
0
44
1
50
0
71
5
72
5
7
iso_b_vert
0
POINT
5
3CF
100
AcDbEntity
8
Defpoints
62
0
6
ByLayer
370
-1
48
1
60
0
100
AcDbPoint
10
265.7234
20
-11.25
30
0
39
0
210
0
220
0
230
1
50
360
0
POINT
5
3D0
100
AcDbEntity
8
Defpoints
62
0
6
ByLayer
370
-1
48
1
60
0
100
AcDbPoint
10
267
20
0
30
0
39
0
210
0
220
0
230
1
50
360
0
POINT
5
3D1
100
AcDbEntity
8
Defpoints
62
0
6
ByLayer
370
-1
48
1
60
0
100
AcDbPoint
10
267
20
-50.112261
30
0
39
0
210
0
220
0
230
1
50
360
0
ENDBLK
5
3C6
100
AcDbEntity
8
0
100
AcDbBlockEnd
0
BLOCK
5
3D9
100
AcDbEntity
8
0
100
AcDbBlockBegin
2
_U4
70
0
10
0
20
0
30
0
3
_U4
0
MTEXT
5
3D3
100
AcDbEntity
8
2
62
256
6
ByLayer
370
18
48
1
60
0
100
AcDbMText
10
279.351
20
-48.784589
30
0
210
0
220
0
230
1
1
\W0.6563;1.28
40
4.5
41
0
44
1.084337
50
0
71
7
72
5
7
iso_b_vert
0
LINE
5
3D4
100
AcDbEntity
8
2
62
256
6
ByLayer
370
13
48
1
60
0
100
AcDbLine
10
265.7234
20
-12.8375
30
0
11
265.7234
21
-53.287261
31
0
39
0
210
0
220
0
230
1
0
LINE
5
3D5
100
AcDbEntity
8
2
62
256
6
ByLayer
370
13
48
1
60
0
100
AcDbLine
10
267
20
-1.5875
30
0
11
267
21
-53.287261
31
0
39
0
210
0
220
0
230
1
0
LINE
5
3D6
100
AcDbEntity
8
2
62
256
6
ByLayer
370
13
48
1
60
0
100
AcDbLine
10
288.549041
20
-50.112261
30
0
11
254.4734
21
-50.112261
31
0
39
0
210
0
220
0
230
1
0
SOLID
5
3D7
100
AcDbEntity
8
2
62
256
6
ByLayer
370
18
48
1
60
0
100
AcDbTrace
10
265.7234
20
-50.112261
30
0
11
261.548403
21
-51.037836
31
0
12
261.548397
22
-49.186686
32
0
13
261.548397
23
-49.186686
33
0
39
0
210
0
220
0
230
1
0
SOLID
5
3D8
100
AcDbEntity
8
2
62
256
6
ByLayer
370
18
48
1
60
0
100
AcDbTrace
10
267
20
-50.112261
30
0
11
271.174997
21
-49.186686
31
0
12
271.175003
22
-51.037836
32
0
13
271.175003
23
-51.037836
33
0
39
0
210
0
220
0
230
1
0
ENDBLK
5
3DA
100
AcDbEntity
8
0
100
AcDbBlockEnd
0
ENDSEC
0
SECTION
2
ENTITIES
0
ARC
5
18E
100
AcDbEntity
8
SK1
62
256
6
ByLayer
370
13
48
1
60
0
100
AcDbCircle
39
0
10
-77.894505
20
-25.396
30
0
40
0.799999999999979
210
0
220
0
230
1
100
AcDbArc
50
70.982
51
141
0
ARC
5
18F
100
AcDbEntity
8
SK1
62
256
6
ByLayer
370
13
48
1
60
0
100
AcDbCircle
39
0
10
-77.894505
20
25.396
30
0
40
0.799999999999979
210
0
220
0
230
1
100
AcDbArc
50
219
51
289.018
0
ARC
5
190
100
AcDbEntity
8
SK1
62
256
6
ByLayer
370
13
48
1
60
0
100
AcDbCircle
39
0
10
-0.15
20
25.146
30
0
40
0.399999999999999
210
0
220
0
230
1
100
AcDbArc
50
270
51
292.024313
0
ARC
5
191
100
AcDbEntity
8
SK1
62
256
6
ByLayer
370
13
48
1
60
0
100
AcDbCircle
39
0
10
-0.15
20
-25.146
30
0
40
0.399999999999999
210
0
220
0
230
1
100
AcDbArc
50
67.975687
51
90
0
ARC
5
192
100
AcDbEntity
8
SK1
62
256
6
ByLayer
370
13
48
1
60
0
100
AcDbCircle
39
0
10
-1.375195
20
25.146
30
0
40
0.400000000000004
210
0
220
0
230
1
100
AcDbArc
50
245
51
270
0
ARC
5
193
100
AcDbEntity
8
SK1
62
256
6
ByLayer
370
13
48
1
60
0
100
AcDbCircle
39
0
10
-1.375195
20
-25.146
30
0
40
0.400000000000004
210
0
220
0
230
1
100
AcDbArc
50
90
51
115
0
ARC
5
194
100
AcDbEntity
8
1
62
256
6
ByLayer
370
13
48
1
60
0
100
AcDbCircle
39
0
10
263.546286
20
21.003492
30
0
40
0.2
210
0
220
0
230
1
100
AcDbArc
50
8.974534
51
93
0
ARC
5
195
100
AcDbEntity
8
1
62
256
6
ByLayer
370
13
48
1
60
0
100
AcDbCircle
39
0
10
263.692333
20
8.182393
30
0
40
0.2
210
0
220
0
230
1
100
AcDbArc
50
273
51
352.543899
0
ARC
5
196
100
AcDbEntity
8
1
62
256
6
ByLayer
370
13
48
1
60
0
100
AcDbCircle
39
0
10
250.925347
20
20.107488
30
0
40
0.2
210
0
220
0
230
1
100
AcDbArc
50
76.847115
51
93
0
ARC
5
197
100
AcDbEntity
8
1
62
256
6
ByLayer
370
13
48
1
60
0
100
AcDbCircle
39
0
10
251.071393
20
7.286389
30
0
40
0.2
210
0
220
0
230
1
100
AcDbArc
50
273
51
304.880681
0
ELLIPSE
5
198
100
AcDbEntity
8
1
62
256
6
ByLayer
370
13
48
1
60
0
100
AcDbEllipse
10
243
20
5.554304
30
0
11
-4.99986663356776
21
0.0460818655041006
31
0
210
0
220
0
230
1
40
0.792544
41
1.72139166674762
42
1.78937287346441
0
ELLIPSE
5
199
100
AcDbEntity
8
1
62
256
6
ByLayer
370
13
48
1
60
0
100
AcDbEllipse
10
258.002789
20
-5.938609
30
0
11
2
21
0
31
0
210
0
220
0
230
1
40
0.993815
41
0.751527825072862
42
2.97616820926426
0
ELLIPSE
5
19A
100
AcDbEntity
8
1
62
256
6
ByLayer
370
13
48
1
60
0
100
AcDbEllipse
10
252.879362
20
6.87816
30
0
11
-0.318392676596815
21
-0.395166625632466
31
0
210
0
220
0
230
1
40
0.966608
41
-2.12586228204964
42
-1.28979794423811
0
ELLIPSE
5
19B
100
AcDbEntity
8
1
62
256
6
ByLayer
370
13
48
1
60
0
100
AcDbEllipse
10
249.322951
20
0
30
0
11
-1.15966139416336
21
21.9372369558738
31
0
210
0
220
0
230
1
40
0.092638
41
-0.124738688423881
42
-0.00489773240679155
0
ELLIPSE
5
19C
100
AcDbEntity
8
1
62
256
6
ByLayer
370
13
48
1
60
0
100
AcDbEllipse
10
265.500707
20
0.124149
30
0
11
-0.0109809519313711
21
0.505636677676678
31
0
210
0
220
0
230
1
40
0.102137
41
-0.125957895383208
42
0.219652343148775
0
ELLIPSE
5
19D
100
AcDbEntity
8
1
62
256
6
ByLayer
370
13
48
1
60
0
100
AcDbEllipse
10
249.664116
20
8.01144
30
0
11
-0.109905508110179
21
2.0971220229846
31
0
210
0
220
0
230
1
40
0.995725
41
2.21256348619065
42
2.71619434555306
0
ELLIPSE
5
19E
100
AcDbEntity
8
1
62
256
6
ByLayer
370
13
48
1
60
0
100
AcDbEllipse
10
249.664116
20
8.01144
30
0
11
-0.109905508110179
21
2.0971220229846
31
0
210
0
220
0
230
1
40
0.995725
41
-2.74205116610967
42
-2.08304175459121
0
ELLIPSE
5
19F
100
AcDbEntity
8
1
62
256
6
ByLayer
370
13
48
1
60
0
100
AcDbEllipse
10
247.487208
20
9.417107
30
0
11
-0.0261679781214713
21
0.49931476737729
31
0
210
0
220
0
230
1
40
0.995725
41
-2.08239418575115
42
-1.46607657167538
0
ELLIPSE
5
1A0
100
AcDbEntity
8
1
62
256
6
ByLayer
370
13
48
1
60
0
100
AcDbEllipse
10
265.453762
20
9.23949
30
0
11
0.13607348623165
21
-2.59643679036189
31
0
210
0
220
0
230
1
40
0.995725
41
-0.990362103391498
42
-0.858139698776676
0
ELLIPSE
5
1A1
100
AcDbEntity
8
1
62
256
6
ByLayer
370
13
48
1
60
0
100
AcDbEllipse
10
265.117997
20
7.51956
30
0
11
-0.0196814643310044
21
1.00033499674943
31
0
210
0
220
0
230
1
40
0.104862
41
-3.13816375224802
42
-2.60510611852628
0
ELLIPSE
5
1A2
100
AcDbEntity
8
1
62
256
6
ByLayer
370
13
48
1
60
0
100
AcDbEllipse
10
265.268769
20
-14.298541
30
0
11
-0.0637212468006878
21
-0.515917477209623
31
0
210
0
220
0
230
1
40
0.113789
41
-1.64812757217867
42
-0.0773312453848041
0
ELLIPSE
5
1A3
100
AcDbEntity
8
1
62
256
6
ByLayer
370
13
48
1
60
0
100
AcDbEllipse
10
249.90823
20
13.875619
30
0
11
0.13607348623165
21
-2.59643679036189
31
0
210
0
220
0
230
1
40
0.995725
41
-2.2042419880975
42
-1.46607657167524
0
ELLIPSE
5
1A4
100
AcDbEntity
8
1
62
256
6
ByLayer
370
13
48
1
60
0
100
AcDbEllipse
10
265.329721
20
9.232989
30
0
11
-0.0814480402119307
21
2.59913809498532
31
0
210
0
220
0
230
1
40
0.529488
41
2.97988299835941
42
-3.1304544480558
0
ELLIPSE
5
1A5
100
AcDbEntity
8
1
62
256
6
ByLayer
370
13
48
1
60
0
100
AcDbEllipse
10
249.39719
20
7.997451
30
0
11
-2.29348548683104
21
1.84790145592571
31
0
210
0
220
0
230
1
40
0.775936
41
3.05283506783077
42
-2.77958348578145
0
ELLIPSE
5
1A6
100
AcDbEntity
8
1
62
256
6
ByLayer
370
13
48
1
60
0
100
AcDbEllipse
10
265.530865
20
-1.997114
30
0
11
-2.2386707977509
21
3.66706317705376
31
0
210
0
220
0
230
1
40
0.360575
41
-1.01723559611132
42
-0.873895907546939
0
ELLIPSE
5
1A7
100
AcDbEntity
8
1
62
256
6
ByLayer
370
13
48
1
60
0
100
AcDbEllipse
10
256.65012
20
-3.939319
30
0
11
-0.523359562429423
21
9.98629534754574
31
0
210
0
220
0
230
1
40
0.995725
41
0
42
0.307190187536248
0
ELLIPSE
5
1A8
100
AcDbEntity
8
1
62
256
6
ByLayer
370
13
48
1
60
0
100
AcDbEllipse
10
249.546634
20
14.778305
30
0
11
-0.471023606186481
21
8.98766581279117
31
0
210
0
220
0
230
1
40
0.995725
41
-2.91693381338443
42
-2.83440246605356
0
ELLIPSE
5
1A9
100
AcDbEntity
8
1
62
256
6
ByLayer
370
13
48
1
60
0
100
AcDbEllipse
10
259.491694
20
10.128678
30
0
11
-1.65564191818852
21
-2.05486645342749
31
0
210
0
220
0
230
1
40
0.966608
41
0.71373291675201
42
1.07490334513284
0
ELLIPSE
5
1AA
100
AcDbEntity
8
1
62
256
6
ByLayer
370
13
48
1
60
0
100
AcDbEllipse
10
256.557876
20
-3.944153
30
0
11
0.575695518672363
21
-10.9849248823003
31
0
210
0
220
0
230
1
40
0.995725
41
3.14159265358978
42
-2.83440246605355
0
ELLIPSE
5
1AB
100
AcDbEntity
8
1
62
256
6
ByLayer
370
13
48
1
60
0
100
AcDbEllipse
10
260.097669
20
-6.951993
30
0
11
-6.03299768077304
21
-0.0247235428500711
31
0
210
0
220
0
230
1
40
0.988371
41
3.00734984629472
42
-2.98941211651995
0
ELLIPSE
5
1AC
100
AcDbEntity
8
1
62
256
6
ByLayer
370
13
48
1
60
0
100
AcDbEllipse
10
266.12223
20
0
30
0
11
-45.199367331802
21
19.2053789529986
31
0
210
0
220
0
230
1
40
0.224085
41
0.742607725821537
42
1.04621604963648
0
ELLIPSE
5
1AD
100
AcDbEntity
8
1
62
256
6
ByLayer
370
13
48
1
60
0
100
AcDbEllipse
10
251.628304
20
7.482953
30
0
11
0.0261679781214711
21
-0.499314767377287
31
0
210
0
220
0
230
1
40
0.092371
41
-1.00594782558691
42
-0.630730776713271
0
ELLIPSE
5
1AE
100
AcDbEntity
8
1
62
256
6
ByLayer
370
13
48
1
60
0
100
AcDbEllipse
10
248.604447
20
18.131546
30
0
11
-0.143594274786951
21
2.73994198476503
31
0
210
0
220
0
230
1
40
0.016833
41
0.326127687946481
42
0.836829632619983
0
ELLIPSE
5
1AF
100
AcDbEntity
8
1
62
256
6
ByLayer
370
13
48
1
60
0
100
AcDbEllipse
10
265.457949
20
0
30
0
11
-3.73656815229981
21
21.9352238225332
31
0
210
0
220
0
230
1
40
0.08457
41
1.59453939847431
42
1.74768805055454
0
ELLIPSE
5
1B0
100
AcDbEntity
8
1
62
256
6
ByLayer
370
13
48
1
60
0
100
AcDbEllipse
10
264.65369
20
-14.176053
30
0
11
-0.293773662131595
21
-2.48619056121813
31
0
210
0
220
0
230
1
40
0.118625
41
0
42
6.28318530717959
0
ELLIPSE
5
1B1
100
AcDbEntity
8
1
62
256
6
ByLayer
370
13
48
1
60
0
100
AcDbEllipse
10
258.002789
20
-6.482744
30
0
11
2
21
0
31
0
210
0
220
0
230
1
40
0.993815
41
2.52692030646899
42
2.79415178490091
0
ELLIPSE
5
1B2
100
AcDbEntity
8
1
62
256
6
ByLayer
370
13
48
1
60
0
100
AcDbEllipse
10
252.793937
20
6.358033
30
0
11
0.353010790461899
21
-0.935619250452589
31
0
210
0
220
0
230
1
40
0.088046
41
-1.59884006173132
42
-0.0280437349367605
0
ELLIPSE
5
1B3
100
AcDbEntity
8
1
62
256
6
ByLayer
370
13
48
1
60
0
100
AcDbEllipse
10
243
20
1.088172
30
0
11
-0.494019426622738
21
14.0036610387978
31
0
210
0
220
0
230
1
40
0.355302
41
-0.537120876771058
42
-0.38664657695824
0
ELLIPSE
5
1B4
100
AcDbEntity
8
1
62
256
6
ByLayer
370
13
48
1
60
0
100
AcDbEllipse
10
250.254478
20
8.04238
30
0
11
0.13607348623165
21
-2.59643679036189
31
0
210
0
220
0
230
1
40
0.995725
41
-2.08239418575106
42
-0.581932527432463
0
ELLIPSE
5
1B5
100
AcDbEntity
8
1
62
256
6
ByLayer
370
13
48
1
60
0
100
AcDbEllipse
10
277.877674
20
-2E-05
30
0
11
-234.37772064999
21
0.106329924081846
31
0
210
0
220
0
230
1
40
0.092638
41
-1.42185196598951
42
-1.40746527873509
0
ELLIPSE
5
1B6
100
AcDbEntity
8
1
62
256
6
ByLayer
370
13
48
1
60
0
100
AcDbEllipse
10
267.596201
20
0
30
0
11
-2.65123903973301
21
-21.9352970321512
31
0
210
0
220
0
230
1
40
0.117261
41
-1.28240800331703
42
-0.093458810329292
0
ELLIPSE
5
1B7
100
AcDbEntity
8
1
62
256
6
ByLayer
370
13
48
1
60
0
100
AcDbEllipse
10
249.111055
20
6.680672
30
0
11
-3.96879667195439
21
-0.704906652230075
31
0
210
0
220
0
230
1
40
0.015321
41
-3.01817314095191
42
-2.71671453988519
0
ELLIPSE
5
1B8
100
AcDbEntity
8
1
62
256
6
ByLayer
370
13
48
1
60
0
100
AcDbEllipse
10
256.074424
20
7.045606
30
0
11
0.0523359562429422
21
-0.998629534754574
31
0
210
0
220
0
230
1
40
0.092371
41
-1.5707963267949
42
0
0
ELLIPSE
5
1B9
100
AcDbEntity
8
1
62
256
6
ByLayer
370
13
48
1
60
0
100
AcDbEllipse
10
894.736689
20
-0.277634
30
0
11
-761.934518621487
21
0.343871520899657
31
0
210
0
220
0
230
1
40
0.054377
41
-0.552326936054866
42
-0.544776485343153
0
ELLIPSE
5
1BA
100
AcDbEntity
8
1
62
256
6
ByLayer
370
13
48
1
60
0
100
AcDbEllipse
10
258.002789
20
-5.938609
30
0
11
-2.1
21
2.12234201567296E-15
31
0
210
0
220
0
230
1
40
0.993815
41
-2.75399876557282
42
-0.261734146810566
0
ELLIPSE
5
1BB
100
AcDbEntity
8
1
62
256
6
ByLayer
370
13
48
1
60
0
100
AcDbEllipse
10
260.635371
20
7.284635
30
0
11
-0.318392682614785
21
-0.395166619040088
31
0
210
0
220
0
230
1
40
0.966608
41
-2.12586226657962
42
-2.06668929272399
0
ELLIPSE
5
1BC
100
AcDbEntity
8
1
62
256
6
ByLayer
370
13
48
1
60
0
100
AcDbEllipse
10
1254.944947
20
-1E-06
30
0
11
-1777.8036315364
21
17.7321223787885
31
0
210
0
220
0
230
1
40
0.007265
41
0.967447311711887
42
0.979411192375405
0
ELLIPSE
5
1BD
100
AcDbEntity
8
1
62
256
6
ByLayer
370
13
48
1
60
0
100
AcDbEllipse
10
265.604857
20
0.122271
30
0
11
-0.021961903841598
21
1.01127335449209
31
0
210
0
220
0
230
1
40
0.102137
41
-0.125957895436587
42
1.05774800743255
0
ELLIPSE
5
1BE
100
AcDbEntity
8
1
62
256
6
ByLayer
370
13
48
1
60
0
100
AcDbEllipse
10
256.867064
20
7.087147
30
0
11
-3.96879667261816
21
-0.704906652351556
31
0
210
0
220
0
230
1
40
0.015321
41
-3.0181731408504
42
-2.71671453991995
0
ELLIPSE
5
1BF
100
AcDbEntity
8
1
62
256
6
ByLayer
370
13
48
1
60
0
100
AcDbEllipse
10
250.056594
20
8.032009
30
0
11
-1.65564191831347
21
-2.05486645339347
31
0
210
0
220
0
230
1
40
0.966608
41
1.54124461050295
42
1.85179470931936
0
ELLIPSE
5
1C0
100
AcDbEntity
8
1
62
256
6
ByLayer
370
13
48
1
60
0
100
AcDbEllipse
10
249.710238
20
8.013858
30
0
11
0.13607348623165
21
-2.59643679036189
31
0
210
0
220
0
230
1
40
0.995725
41
0.0555653949272905
42
1.07574208457343
0
ELLIPSE
5
1C1
100
AcDbEntity
8
1
62
256
6
ByLayer
370
13
48
1
60
0
100
AcDbEllipse
10
277.877414
20
0.00016
30
0
11
-236.805504179313
21
0.107407216430086
31
0
210
0
220
0
230
1
40
0.092638
41
-1.44605813819572
42
-1.436186505962
0
ELLIPSE
5
1C2
100
AcDbEntity
8
1
62
256
6
ByLayer
370
13
48
1
60
0
100
AcDbEllipse
10
265.644934
20
5.966788
30
0
11
-0.00984073218018195
21
0.500167498711566
31
0
210
0
220
0
230
1
40
0.104862
41
1.92329107854059
42
-2.78909790185237
0
ELLIPSE
5
1C3
100
AcDbEntity
8
1
62
256
6
ByLayer
370
13
48
1
60
0
100
AcDbEllipse
10
249.546634
20
14.778305
30
0
11
-0.471023606186481
21
8.98766581279117
31
0
210
0
220
0
230
1
40
0.995725
41
2.79252680319577
42
3.02206401946903
0
ELLIPSE
5
1C4
100
AcDbEntity
8
1
62
256
6
ByLayer
370
13
48
1
60
0
100
AcDbEllipse
10
249.638878
20
14.783139
30
0
11
0.523359562429422
21
-9.98629534754574
31
0
210
0
220
0
230
1
40
0.995725
41
-9.46300583153429E-06
42
0.307190187536231
0
ELLIPSE
5
1C5
100
AcDbEntity
8
1
62
256
6
ByLayer
370
13
48
1
60
0
100
AcDbEllipse
10
269.659116
20
2.211925
30
0
11
-5.86790541081962
21
-1.93851230773179
31
0
210
0
220
0
230
1
40
0.829336
41
-0.37262631097381
42
-0.225074241386908
0
ELLIPSE
5
1C6
100
AcDbEntity
8
1
62
256
6
ByLayer
370
13
48
1
60
0
100
AcDbEllipse
10
262.965057
20
7.406729
30
0
11
-0.0261679781214711
21
0.499314767377286
31
0
210
0
220
0
230
1
40
0.995725
41
-0.990362103391393
42
-0.927295220884958
0
ELLIPSE
5
1C7
100
AcDbEntity
8
1
62
256
6
ByLayer
370
13
48
1
60
0
100
AcDbEllipse
10
247.020675
20
6.177085
30
0
11
-0.29369042064903
21
-0.95590058940195
31
0
210
0
220
0
230
1
40
0.0868
41
-1.53907871771946
42
-1.39194537928028E-05
0
ELLIPSE
5
1C8
100
AcDbEntity
8
1
62
256
6
ByLayer
370
13
48
1
60
0
100
AcDbEllipse
10
253.120892
20
6.890818
30
0
11
-0.0261679781214712
21
0.499314767377288
31
0
210
0
220
0
230
1
40
0.995725
41
0.927295218001801
42
1.13806179252797
0
ELLIPSE
5
1C9
100
AcDbEntity
8
1
62
256
6
ByLayer
370
13
48
1
60
0
100
AcDbEllipse
10
243
20
5.968111
30
0
11
-3
21
3.03191716524709E-15
31
0
210
0
220
0
230
1
40
0.759344
41
-2.76799072331352
42
-1.69042046847462
0
ELLIPSE
5
1CA
100
AcDbEntity
8
1
62
256
6
ByLayer
370
13
48
1
60
0
100
AcDbEllipse
10
265.64187
20
6.994096
30
0
11
-0.0190690707678338
21
-0.501607026758235
31
0
210
0
220
0
230
1
40
0.195483
41
-0.78674097847074
42
-0.331356153711648
0
ELLIPSE
5
1CB
100
AcDbEntity
8
1
62
256
6
ByLayer
370
13
48
1
60
0
100
AcDbEllipse
10
208.496432
20
0
30
0
11
-236.806391069508
21
0.107428555413703
31
0
210
0
220
0
230
1
40
0.092638
41
-1.80296808523816
42
-1.7451712747444
0
ELLIPSE
5
1CC
100
AcDbEntity
8
1
62
256
6
ByLayer
370
13
48
1
60
0
100
AcDbEllipse
10
271.091475
20
0.71093
30
0
11
-6.03299761595891
21
-0.0247233007244879
31
0
210
0
220
0
230
1
40
0.988371
41
0.02857858982793
42
0.152180577523739
0
ELLIPSE
5
1CD
100
AcDbEntity
8
1
62
256
6
ByLayer
370
13
48
1
60
0
100
AcDbEllipse
10
250.254478
20
8.04238
30
0
11
0.13607348623165
21
-2.59643679036189
31
0
210
0
220
0
230
1
40
0.995725
41
0.68706273351706
42
1.13806179252793
0
ELLIPSE
5
1CE
100
AcDbEntity
8
1
62
256
6
ByLayer
370
18
48
1
60
0
100
AcDbEllipse
10
257.941404
20
12.891666
30
0
11
-0.328810806110954
21
-0.214953577526577
31
0
210
0
220
0
230
1
40
0.490768
41
0.673401308867383
42
-2.94809584056062
0
ELLIPSE
5
1CF
100
AcDbEntity
8
1
62
256
6
ByLayer
370
18
48
1
60
0
100
AcDbEllipse
10
257.281937
20
14.14353
30
0
11
-0.0942047212372964
21
1.79753316255823
31
0
210
0
220
0
230
1
40
0.995725
41
0
42
6.28318530717959
0
ELLIPSE
5
1D0
100
AcDbEntity
8
1
62
256
6
ByLayer
370
18
48
1
60
0
100
AcDbEllipse
10
257.136653
20
14.135916
30
0
11
0.0675290843402685
21
-1.28853168869383
31
0
210
0
220
0
230
1
40
0.995725
41
-0.773927979467087
42
4.42435617961647E-14
0
ELLIPSE
5
1D1
100
AcDbEntity
8
1
62
256
6
ByLayer
370
18
48
1
60
0
100
AcDbEllipse
10
257.281937
20
14.14353
30
0
11
0.0877359970456684
21
-1.67410255206257
31
0
210
0
220
0
230
1
40
0.995725
41
0.523598775598308
42
1.5707963267949
0
ELLIPSE
5
1D2
100
AcDbEntity
8
1
62
256
6
ByLayer
370
18
48
1
60
0
100
AcDbEllipse
10
258.452799
20
13.462225
30
0
11
-0.177667934093148
21
-0.351309387090305
31
0
210
0
220
0
230
1
40
0.48867
41
-1.57317835192164
42
-0.291314926057889
0
ELLIPSE
5
1D3
100
AcDbEntity
8
1
62
256
6
ByLayer
370
18
48
1
60
0
100
AcDbEllipse
10
257.136653
20
14.135916
30
0
11
0.0675290843402685
21
-1.28853168869383
31
0
210
0
220
0
230
1
40
0.995725
41
3.14159265358975
42
-2.34982975905695
0
ELLIPSE
5
1D4
100
AcDbEntity
8
1
62
256
6
ByLayer
370
18
48
1
60
0
100
AcDbEllipse
10
257.281937
20
14.14353
30
0
11
0.0877359970456684
21
-1.67410255206257
31
0
210
0
220
0
230
1
40
0.995725
41
-2.61799387799148
42
-1.5707963267949
0
ELLIPSE
5
1D5
100
AcDbEntity
8
1
62
256
6
ByLayer
370
18
48
1
60
0
100
AcDbEllipse
10
256.46637
20
12.814363
30
0
11
-0.349478313243822
21
0.179405951069359
31
0
210
0
220
0
230
1
40
0.490768
41
2.51649656480005
42
-2.94329838355297
0
ELLIPSE
5
1D6
100
AcDbEntity
8
1
62
256
6
ByLayer
370
18
48
1
60
0
100
AcDbEllipse
10
257.281937
20
14.14353
30
0
11
0.0877359970456684
21
-1.67410255206257
31
0
210
0
220
0
230
1
40
0.995725
41
2.61799387799149
42
-2.61799387799148
0
ELLIPSE
5
1D7
100
AcDbEntity
8
1
62
256
6
ByLayer
370
18
48
1
60
0
100
AcDbEllipse
10
257.208142
20
14.139663
30
0
11
-0.149157475292386
21
2.84609417405054
31
0
210
0
220
0
230
1
40
0.995725
41
9.25163458686959E-05
42
3.1415869351611
0
ELLIPSE
5
1D8
100
AcDbEntity
8
1
62
256
6
ByLayer
370
18
48
1
60
0
100
AcDbEllipse
10
257.136653
20
14.135916
30
0
11
0.0675290843402685
21
-1.28853168869383
31
0
210
0
220
0
230
1
40
0.995725
41
1.0471975511966
42
2.0943951023932
0
ELLIPSE
5
1D9
100
AcDbEntity
8
1
62
256
6
ByLayer
370
18
48
1
60
0
100
AcDbEllipse
10
258.375169
20
14.943492
30
0
11
-0.213416480923091
21
0.33081352138622
31
0
210
0
220
0
230
1
40
0.48867
41
0.291314926057699
42
1.57317835192598
0
ELLIPSE
5
1DA
100
AcDbEntity
8
1
62
256
6
ByLayer
370
18
48
1
60
0
100
AcDbEllipse
10
257.059023
20
15.617183
30
0
11
-0.391877312295343
21
-0.0205374196898844
31
0
210
0
220
0
230
1
40
0.491826
41
0.288932900934136
42
1.5707963267949
0
ELLIPSE
5
1DB
100
AcDbEntity
8
1
62
256
6
ByLayer
370
18
48
1
60
0
100
AcDbEllipse
10
257.806936
20
15.457469
30
0
11
-0.349478313243799
21
0.179405951069324
31
0
210
0
220
0
230
1
40
0.490768
41
2.94809584056037
42
-0.625095735375592
0
ELLIPSE
5
1DC
100
AcDbEntity
8
1
62
256
6
ByLayer
370
18
48
1
60
0
100
AcDbEllipse
10
257.281937
20
14.14353
30
0
11
0.0877359970456684
21
-1.67410255206257
31
0
210
0
220
0
230
1
40
0.995725
41
-1.5707963267949
42
-0.523598775598244
0
ELLIPSE
5
1DD
100
AcDbEntity
8
1
62
256
6
ByLayer
370
18
48
1
60
0
100
AcDbEllipse
10
257.214283
20
12.654649
30
0
11
-0.391877312297792
21
-0.0205374196865605
31
0
210
0
220
0
230
1
40
0.491826
41
-1.5707963267949
42
-0.28893290093315
0
ELLIPSE
5
1DE
100
AcDbEntity
8
1
62
256
6
ByLayer
370
18
48
1
60
0
100
AcDbEllipse
10
258.611687
20
14.213219
30
0
11
-0.0206256003553099
21
0.393559899646779
31
0
210
0
220
0
230
1
40
0.48763
41
-2.94566969474558
42
-0.320422399684979
0
ELLIPSE
5
1DF
100
AcDbEntity
8
1
62
256
6
ByLayer
370
18
48
1
60
0
100
AcDbEllipse
10
257.136653
20
14.135916
30
0
11
0.0675290843402685
21
-1.28853168869383
31
0
210
0
220
0
230
1
40
0.995725
41
2.09439510239319
42
-3.14159265358975
0
ELLIPSE
5
1E0
100
AcDbEntity
8
1
62
256
6
ByLayer
370
18
48
1
60
0
100
AcDbEllipse
10
256.331902
20
15.380166
30
0
11
-0.328810806110983
21
-0.214953577526569
31
0
210
0
220
0
230
1
40
0.490768
41
2.94329838355323
42
-2.46819100314319
0
ELLIPSE
5
1E1
100
AcDbEntity
8
1
62
256
6
ByLayer
370
18
48
1
60
0
100
AcDbEllipse
10
258.452799
20
13.462225
30
0
11
-0.177667934094921
21
-0.351309387086868
31
0
210
0
220
0
230
1
40
0.48867
41
-2.85504177777433
42
-1.5731783519039
0
ELLIPSE
5
1E2
100
AcDbEntity
8
1
62
256
6
ByLayer
370
18
48
1
60
0
100
AcDbEllipse
10
257.136653
20
14.135916
30
0
11
-0.0675290843402686
21
1.28853168869383
31
0
210
0
220
0
230
1
40
0.995725
41
-3.0389020942533
42
-2.0943951023932
0
ELLIPSE
5
1E3
100
AcDbEntity
8
1
62
256
6
ByLayer
370
18
48
1
60
0
100
AcDbEllipse
10
257.281937
20
14.14353
30
0
11
0.0877359970456684
21
-1.67410255206257
31
0
210
0
220
0
230
1
40
0.995725
41
-0.523598775598244
42
0.523598775598308
0
ELLIPSE
5
1E4
100
AcDbEntity
8
1
62
256
6
ByLayer
370
18
48
1
60
0
100
AcDbEllipse
10
257.281937
20
14.14353
30
0
11
0.0877359970456684
21
-1.67410255206257
31
0
210
0
220
0
230
1
40
0.995725
41
1.5707963267949
42
2.61799387799149
0
ELLIPSE
5
1E5
100
AcDbEntity
8
1
62
256
6
ByLayer
370
18
48
1
60
0
100
AcDbEllipse
10
258.375169
20
14.943492
30
0
11
-0.213416480925886
21
0.330813521383342
31
0
210
0
220
0
230
1
40
0.48867
41
1.57317835190375
42
2.8550417777745
0
ELLIPSE
5
1E6
100
AcDbEntity
8
1
62
256
6
ByLayer
370
18
48
1
60
0
100
AcDbEllipse
10
257.136653
20
14.135916
30
0
11
0.0675290843402685
21
-1.28853168869383
31
0
210
0
220
0
230
1
40
0.995725
41
-1.89415109854865
42
-1.2315038024086
0
ELLIPSE
5
1E7
100
AcDbEntity
8
1
62
256
6
ByLayer
370
18
48
1
60
0
100
AcDbEllipse
10
257.274632
20
14.143147
30
0
11
-0.149157475292386
21
2.84609417405054
31
0
210
0
220
0
230
1
40
0.995725
41
0
42
6.28318530717959
0
ELLIPSE
5
1E8
100
AcDbEntity
8
1
62
256
6
ByLayer
370
18
48
1
60
0
100
AcDbEllipse
10
258.204527
20
-6.069928
30
0
11
-1.5
21
1.51595858262354E-15
31
0
210
0
220
0
230
1
40
0.993815
41
-3.14159243122297
42
0
0
ELLIPSE
5
1E9
100
AcDbEntity
8
1
62
256
6
ByLayer
370
18
48
1
60
0
100
AcDbEllipse
10
258.204527
20
-6.069928
30
0
11
-1.5
21
1.51595858262354E-15
31
0
210
0
220
0
230
1
40
0.993815
41
0
42
0.383470542359908
0
ELLIPSE
5
1EA
100
AcDbEntity
8
1
62
256
6
ByLayer
370
18
48
1
60
0
100
AcDbEllipse
10
258.204527
20
-6.069928
30
0
11
-1.5
21
1.51595858262354E-15
31
0
210
0
220
0
230
1
40
0.993815
41
3.12725889371731
42
3.14159220514099
0
ELLIPSE
5
1EB
100
AcDbEntity
8
1
62
256
6
ByLayer
370
18
48
1
60
0
100
AcDbEllipse
10
258.204527
20
-6.125452
30
0
11
2
21
0
31
0
210
0
220
0
230
1
40
0.993815
41
0.419795544688076
42
3.04273108144006
0
ELLIPSE
5
1EC
100
AcDbEntity
8
1
62
256
6
ByLayer
370
18
48
1
60
0
100
AcDbEllipse
10
258.204527
20
-7.017183
30
0
11
-2.35
21
2.37500177944355E-15
31
0
210
0
220
0
230
1
40
0.993815
41
-0.584630662872606
42
-0.514042810301558
0
ELLIPSE
5
1ED
100
AcDbEntity
8
1
62
256
6
ByLayer
370
18
48
1
60
0
100
AcDbEllipse
10
258.204527
20
-6.907413
30
0
11
-2.35
21
2.37500177944355E-15
31
0
210
0
220
0
230
1
40
0.993815
41
-0.617617364601586
42
-0.486848756011319
0
ELLIPSE
5
1EE
100
AcDbEntity
8
1
62
256
6
ByLayer
370
13
48
1
60
0
100
AcDbEllipse
10
264.872
20
14.813839
30
0
11
0.148163665863163
21
0.0233993187505326
31
0
210
0
220
0
230
1
40
0.009655
41
1.66279490126875
42
2.8560295683057
0
ELLIPSE
5
1EF
100
AcDbEntity
8
1
62
256
6
ByLayer
370
13
48
1
60
0
100
AcDbEllipse
10
264.312104
20
22.224388
30
0
11
0.145139532363179
21
-0.0378750068699374
31
0
210
0
220
0
230
1
40
0.028078
41
3.05344420153006
42
-1.65894477885552
0
ELLIPSE
5
1F0
100
AcDbEntity
8
1
62
256
6
ByLayer
370
13
48
1
60
0
100
AcDbEllipse
10
264.097982
20
22.214998
30
0
11
-0.279378559896181
21
-0.215283244299467
31
0
210
0
220
0
230
1
40
0.479615
41
-2.35983386470907
42
-1.27243207080034
0
ELLIPSE
5
1F1
100
AcDbEntity
8
1
62
256
6
ByLayer
370
13
48
1
60
0
100
AcDbEllipse
10
264.31092
20
22.226157
30
0
11
0.0127690523125833
21
-0.243648032549161
31
0
210
0
220
0
230
1
40
0.995725
41
-2.96705972839075
42
-1.87965793449181
0
ELLIPSE
5
1F2
100
AcDbEntity
8
1
62
256
6
ByLayer
370
13
48
1
60
0
100
AcDbEllipse
10
250.928933
20
22.147008
30
0
11
-1.72936595006793
21
1.21940905088122
31
0
210
0
220
0
230
1
40
0.74335
41
1.16175109669979
42
1.98390815207382
0
ELLIPSE
5
1F3
100
AcDbEntity
8
1
62
256
6
ByLayer
370
13
48
1
60
0
100
AcDbEllipse
10
249.026546
20
6.480676
30
0
11
-0.148163665863161
21
-0.0233993187505427
31
0
210
0
220
0
230
1
40
0.009655
41
-1.4787977523211
42
-0.264793552089433
0
ELLIPSE
5
1F4
100
AcDbEntity
8
1
62
256
6
ByLayer
370
13
48
1
60
0
100
AcDbEllipse
10
247.91667
20
13.652947
30
0
11
-0.148731686424786
21
0.0194649801756644
31
0
210
0
220
0
230
1
40
0.016833
41
0.263181912490352
42
1.4798342364841
0
ELLIPSE
5
1F5
100
AcDbEntity
8
1
62
256
6
ByLayer
370
13
48
1
60
0
100
AcDbEllipse
10
257.22396
20
14.140492
30
0
11
0.156043507061188
21
-2.9774874874671
31
0
210
0
220
0
230
1
40
0.995725
41
0
42
6.28318530717959
0
ELLIPSE
5
1F6
100
AcDbEntity
8
1
62
256
6
ByLayer
370
13
48
1
60
0
100
AcDbEllipse
10
265.874155
20
8.388956
30
0
11
-0.023531292646927
21
0.148142763125185
31
0
210
0
220
0
230
1
40
0.091865
41
1.56109981833444
42
3.13189614513645
0
ELLIPSE
5
1F7
100
AcDbEntity
8
1
62
256
6
ByLayer
370
13
48
1
60
0
100
AcDbEllipse
10
250.580523
20
20.193698
30
0
11
-0.0427993177767079
21
-0.15858092514931
31
0
210
0
220
0
230
1
40
0.080206
41
-3.11537766648266
42
-1.54458133965122
0
ELLIPSE
5
1F8
100
AcDbEntity
8
1
62
256
6
ByLayer
370
13
48
1
60
0
100
AcDbEllipse
10
265.874155
20
8.388956
30
0
11
0.00785039343644122
21
-0.149794430213184
31
0
210
0
220
0
230
1
40
0.995725
41
0.104719755118917
42
1.38753675533548
0
ELLIPSE
5
1F9
100
AcDbEntity
8
1
62
256
6
ByLayer
370
13
48
1
60
0
100
AcDbEllipse
10
248.464268
20
13.581278
30
0
11
0.0366351693700609
21
-0.699040674328229
31
0
210
0
220
0
230
1
40
0.995725
41
-1.75405589825418
42
-1.46607657167516
0
ELLIPSE
5
1FA
100
AcDbEntity
8
1
62
256
6
ByLayer
370
13
48
1
60
0
100
AcDbEllipse
10
264.618949
20
22.272721
30
0
11
-0.00373239490690373
21
0.149953556904326
31
0
210
0
220
0
230
1
40
0.092336
41
0.0025375354558029
42
1.57333386224927
0
ELLIPSE
5
1FB
100
AcDbEntity
8
1
62
256
6
ByLayer
370
13
48
1
60
0
100
AcDbEllipse
10
263.213517
20
6.117966
30
0
11
-0.0942047212372964
21
1.79753316255823
31
0
210
0
220
0
230
1
40
0.995725
41
-0.400544394528018
42
-6.34305197617679E-14
0
ELLIPSE
5
1FC
100
AcDbEntity
8
1
62
256
6
ByLayer
370
13
48
1
60
0
100
AcDbEllipse
10
264.027931
20
8.095698
30
0
11
-0.157381426410982
21
-0.0466723701638713
31
0
210
0
220
0
230
1
40
0.019797
41
-1.48863728999437
42
0.0821590367476103
0
ELLIPSE
5
1FD
100
AcDbEntity
8
1
62
256
6
ByLayer
370
13
48
1
60
0
100
AcDbEllipse
10
249.553871
20
6.016774
30
0
11
-0.00379960965785735
21
-0.149951868832795
31
0
210
0
220
0
230
1
40
0.092094
41
-1.56362690568454
42
-0.0717426686088945
0
ELLIPSE
5
1FE
100
AcDbEntity
8
1
62
256
6
ByLayer
370
13
48
1
60
0
100
AcDbEllipse
10
266.153411
20
14.708602
30
0
11
0.0366351693700609
21
-0.699040674328229
31
0
210
0
220
0
230
1
40
0.995725
41
1.38753675533557
42
1.67551608191455
0
ELLIPSE
5
1FF
100
AcDbEntity
8
1
62
256
6
ByLayer
370
13
48
1
60
0
100
AcDbEllipse
10
250.643186
20
20.253785
30
0
11
0.00523359562429361
21
-0.0998629534754459
31
0
210
0
220
0
230
1
40
0.995725
41
1.38753675533575
42
-3.03687289846978
0
ELLIPSE
5
200
100
AcDbEntity
8
1
62
256
6
ByLayer
370
13
48
1
60
0
100
AcDbEllipse
10
252.275556
20
5.544732
30
0
11
-0.094204721237296
21
1.79753316255823
31
0
210
0
220
0
230
1
40
0.995725
41
0
42
1.26193471909899
0
ELLIPSE
5
201
100
AcDbEntity
8
1
62
256
6
ByLayer
370
13
48
1
60
0
100
AcDbEllipse
10
249.931715
20
7.765393
30
0
11
-0.0915879234251488
21
1.7476016858205
31
0
210
0
220
0
230
1
40
0.995725
41
3.11423538092936
42
3.13286600732979
0
ELLIPSE
5
202
100
AcDbEntity
8
1
62
256
6
ByLayer
370
13
48
1
60
0
100
AcDbEllipse
10
265.874155
20
8.388956
30
0
11
0.148731686424787
21
-0.0194649801756595
31
0
210
0
220
0
230
1
40
0.016833
41
-1.66175841710853
42
-0.0909620903112957
0
ELLIPSE
5
203
100
AcDbEntity
8
1
62
256
6
ByLayer
370
13
48
1
60
0
100
AcDbEllipse
10
265.425717
20
7.429607
30
0
11
-0.0435637040424668
21
-0.259139630115257
31
0
210
0
220
0
230
1
40
0.947521
41
0.308152981425273
42
1.28542437772122
0
ELLIPSE
5
204
100
AcDbEntity
8
1
62
256
6
ByLayer
370
13
48
1
60
0
100
AcDbEllipse
10
250.08337
20
13.673953
30
0
11
-0.198308915233049
21
0.0259533069008859
31
0
210
0
220
0
230
1
40
0.016833
41
-1.66175841710618
42
-0.0909620903105779
0
ELLIPSE
5
205
100
AcDbEntity
8
1
62
256
6
ByLayer
370
13
48
1
60
0
100
AcDbEllipse
10
263.969881
20
8.035853
30
0
11
0.00523359562429361
21
-0.0998629534754459
31
0
210
0
220
0
230
1
40
0.995725
41
-6.34410869101745E-06
42
0.104719755118608
0
ELLIPSE
5
206
100
AcDbEntity
8
1
62
256
6
ByLayer
370
13
48
1
60
0
100
AcDbEllipse
10
264.649067
20
20.522553
30
0
11
-0.0915879234251488
21
1.7476016858205
31
0
210
0
220
0
230
1
40
0.995725
41
-0.0273572726604381
42
-0.00872664625995484
0
ELLIPSE
5
207
100
AcDbEntity
8
1
62
256
6
ByLayer
370
13
48
1
60
0
100
AcDbEllipse
10
250.925347
20
20.107488
30
0
11
-0.045510042190711
21
-0.194753269702462
31
0
210
0
220
0
230
1
40
0.088753
41
1.59649677847466
42
-3.11589220191114
0
ELLIPSE
5
208
100
AcDbEntity
8
1
62
256
6
ByLayer
370
13
48
1
60
0
100
AcDbEllipse
10
257.633584
20
7.948444
30
0
11
0.0104671912485884
21
-0.199725906950915
31
0
210
0
220
0
230
1
40
0.092371
41
0
42
1.5707963267949
0
ELLIPSE
5
209
100
AcDbEntity
8
1
62
256
6
ByLayer
370
13
48
1
60
0
100
AcDbEllipse
10
249.774346
20
14.764129
30
0
11
0.465790010562185
21
-8.88780285931571
31
0
210
0
220
0
230
1
40
0.995725
41
-0.0773624824591685
42
-0.0273572726604489
0
ELLIPSE
5
20A
100
AcDbEntity
8
1
62
256
6
ByLayer
370
13
48
1
60
0
100
AcDbEllipse
10
262.263888
20
22.741048
30
0
11
-1.59242934825316
21
-1.3934969656891
31
0
210
0
220
0
230
1
40
0.74335
41
1.15768450151361
42
1.97984155689377
0
ELLIPSE
5
20B
100
AcDbEntity
8
1
62
256
6
ByLayer
370
13
48
1
60
0
100
AcDbEllipse
10
263.692333
20
8.182393
30
0
11
0.0104671912485884
21
-0.199725906950915
31
0
210
0
220
0
230
1
40
0.995725
41
-0.280778212086851
42
2.11747652031598E-05
0
ELLIPSE
5
20C
100
AcDbEntity
8
1
62
256
6
ByLayer
370
13
48
1
60
0
100
AcDbEllipse
10
250.296351
20
6.065009
30
0
11
-0.145139532363178
21
0.037875006869941
31
0
210
0
220
0
230
1
40
0.028078
41
1.48264787473469
42
3.05344420152625
0
ELLIPSE
5
20D
100
AcDbEntity
8
1
62
256
6
ByLayer
370
13
48
1
60
0
100
AcDbEllipse
10
264.662904
20
20.523278
30
0
11
0.0994383168615901
21
-1.89739611603369
31
0
210
0
220
0
230
1
40
0.995725
41
3.1142353809293
42
3.1328660073298
0
ELLIPSE
5
20E
100
AcDbEntity
8
1
62
256
6
ByLayer
370
13
48
1
60
0
100
AcDbEllipse
10
250.580523
20
20.193698
30
0
11
-0.157381426397605
21
-0.0466723701599579
31
0
210
0
220
0
230
1
40
0.019797
41
-3.05943361684123
42
-1.48863729000407
0
ELLIPSE
5
20F
100
AcDbEntity
8
1
62
256
6
ByLayer
370
13
48
1
60
0
100
AcDbEllipse
10
263.546286
20
21.003492
30
0
11
0.0104671912485884
21
-0.199725906950915
31
0
210
0
220
0
230
1
40
0.995725
41
3.1415739490976
42
-2.58708947813837
0
ELLIPSE
5
210
100
AcDbEntity
8
1
62
256
6
ByLayer
370
13
48
1
60
0
100
AcDbEllipse
10
249.553603
20
6.565867
30
0
11
-0.0287847759336165
21
0.549246244114983
31
0
210
0
220
0
230
1
40
0.995725
41
1.67551608191443
42
3.0642301711307
0
ELLIPSE
5
211
100
AcDbEntity
8
1
62
256
6
ByLayer
370
13
48
1
60
0
100
AcDbEllipse
10
251.071393
20
7.286389
30
0
11
0.11437386031604
21
-0.164068949153723
31
0
210
0
220
0
230
1
40
0.07853
41
3.35013622520275E-05
42
1.52199123907642
0
ELLIPSE
5
212
100
AcDbEntity
8
1
62
256
6
ByLayer
370
13
48
1
60
0
100
AcDbEllipse
10
261.788659
20
22.716142
30
0
11
0.0942047212372957
21
-1.79753316255823
31
0
210
0
220
0
230
1
40
0.995725
41
0
42
0.400544394527944
0
ELLIPSE
5
213
100
AcDbEntity
8
1
62
256
6
ByLayer
370
13
48
1
60
0
100
AcDbEllipse
10
248.638498
20
20.831268
30
0
11
-0.043563704072025
21
-0.259139630106358
31
0
210
0
220
0
230
1
40
0.947521
41
-2.8334396720542
42
-2.19739446862258
0
ELLIPSE
5
214
100
AcDbEntity
8
1
62
256
6
ByLayer
370
13
48
1
60
0
100
AcDbEllipse
10
248.734299
20
19.900441
30
0
11
0.0235312926469102
21
-0.148142763125188
31
0
210
0
220
0
230
1
40
0.091865
41
-3.05123893748053
42
-1.58049283523243
0
ELLIPSE
5
215
100
AcDbEntity
8
1
62
256
6
ByLayer
370
13
48
1
60
0
100
AcDbEllipse
10
264.824885
20
13.524784
30
0
11
-0.457939617125745
21
8.73800842910252
31
0
210
0
220
0
230
1
40
0.995725
41
-0.0773624824591945
42
-0.0273572726604767
0
ELLIPSE
5
216
100
AcDbEntity
8
1
62
256
6
ByLayer
370
13
48
1
60
0
100
AcDbEllipse
10
249.950163
20
7.76636
30
0
11
0.0994383168615901
21
-1.89739611603369
31
0
210
0
220
0
230
1
40
0.995725
41
-0.027357272660417
42
-0.00872664625996108
0
ELLIPSE
5
217
100
AcDbEntity
8
1
62
256
6
ByLayer
370
13
48
1
60
0
100
AcDbEllipse
10
249.733221
20
13.719472
30
0
11
-0.148731686424786
21
0.0194649801756644
31
0
210
0
220
0
230
1
40
0.016833
41
1.4798342364841
42
3.05063056327568
0
ELLIPSE
5
218
100
AcDbEntity
8
1
62
256
6
ByLayer
370
13
48
1
60
0
100
AcDbEllipse
10
247.918763
20
13.49512
30
0
11
-0.148163665863161
21
-0.0233993187505427
31
0
210
0
220
0
230
1
40
0.009655
41
-1.47879775232085
42
-0.264819008248768
0
ELLIPSE
5
219
100
AcDbEntity
8
1
62
256
6
ByLayer
370
13
48
1
60
0
100
AcDbEllipse
10
264.040686
20
14.6813
30
0
11
0.036635169370061
21
-0.69904067432823
31
0
210
0
220
0
230
1
40
0.995725
41
1.38753675533557
42
1.67551608191455
0
ELLIPSE
5
21A
100
AcDbEntity
8
1
62
256
6
ByLayer
370
13
48
1
60
0
100
AcDbEllipse
10
248.738912
20
19.900682
30
0
11
0.00785039343644122
21
-0.149794430213184
31
0
210
0
220
0
230
1
40
0.995725
41
-3.03687289847009
42
-1.75405589825432
0
ELLIPSE
5
21B
100
AcDbEntity
8
1
62
256
6
ByLayer
370
13
48
1
60
0
100
AcDbEllipse
10
250.925347
20
20.107488
30
0
11
0.0104671912485884
21
-0.199725906950915
31
0
210
0
220
0
230
1
40
0.995725
41
-3.14157313675489
42
-1.75405589825431
0
ELLIPSE
5
21C
100
AcDbEntity
8
1
62
256
6
ByLayer
370
13
48
1
60
0
100
AcDbEllipse
10
250.234354
20
6.076979
30
0
11
-0.00261679781214704
21
0.0499314767377273
31
0
210
0
220
0
230
1
40
0.995725
41
3.13286600733281
42
-1.87965793449106
0
ELLIPSE
5
21D
100
AcDbEntity
8
1
62
256
6
ByLayer
370
13
48
1
60
0
100
AcDbEllipse
10
249.989506
20
6.016676
30
0
11
0.00373239490690341
21
-0.149953556904326
31
0
210
0
220
0
230
1
40
0.092336
41
-1.56825879134052
42
-0.0414707750416081
0
ELLIPSE
5
21E
100
AcDbEntity
8
1
62
256
6
ByLayer
370
13
48
1
60
0
100
AcDbEllipse
10
266.148799
20
14.70836
30
0
11
0.0366351693700609
21
-0.699040674328229
31
0
210
0
220
0
230
1
40
0.995725
41
1.38753675533557
42
1.67551608191463
0
ELLIPSE
5
21F
100
AcDbEntity
8
1
62
256
6
ByLayer
370
13
48
1
60
0
100
AcDbEllipse
10
264.534309
20
14.615927
30
0
11
0.198308915233049
21
-0.0259533069008794
31
0
210
0
220
0
230
1
40
0.016833
41
0.000152472710322832
42
1.47983423648488
0
ELLIPSE
5
220
100
AcDbEntity
8
1
62
256
6
ByLayer
370
13
48
1
60
0
100
AcDbEllipse
10
262.660053
20
6.08896
30
0
11
0.0942047212372957
21
-1.79753316255823
31
0
210
0
220
0
230
1
40
0.995725
41
2.07056498344397
42
2.74715904466375
0
ELLIPSE
5
221
100
AcDbEntity
8
1
62
256
6
ByLayer
370
13
48
1
60
0
100
AcDbEllipse
10
262.583174
20
22.757782
30
0
11
-2.06114102793741
21
-1.58827075193789
31
0
210
0
220
0
230
1
40
0.479615
41
1.82992780102943
42
1.86916102741807
0
ELLIPSE
5
222
100
AcDbEntity
8
1
62
256
6
ByLayer
370
13
48
1
60
0
100
AcDbEllipse
10
250.925347
20
20.107488
30
0
11
0.198308915233049
21
-0.0259533069008794
31
0
210
0
220
0
230
1
40
0.016833
41
1.47983423648389
42
3.05063056328134
0
ELLIPSE
5
223
100
AcDbEntity
8
1
62
256
6
ByLayer
370
13
48
1
60
0
100
AcDbEllipse
10
257.249051
20
14.141807
30
0
11
0.161488764830061
21
-3.08138919525488
31
0
210
0
220
0
230
1
40
0.995725
41
-0.853733431166171
42
0
0
ELLIPSE
5
224
100
AcDbEntity
8
1
62
256
6
ByLayer
370
13
48
1
60
0
100
AcDbEllipse
10
257.249051
20
14.141807
30
0
11
0.161488764830061
21
-3.08138919525488
31
0
210
0
220
0
230
1
40
0.995725
41
0
42
-2.28787053660725
0
ELLIPSE
5
225
100
AcDbEntity
8
1
62
256
6
ByLayer
370
13
48
1
60
0
100
AcDbEllipse
10
265.027179
20
21.722079
30
0
11
-0.0287847759336165
21
0.549246244114983
31
0
210
0
220
0
230
1
40
0.995725
41
-1.46607657167542
42
-0.0773624824592436
0
ELLIPSE
5
226
100
AcDbEntity
8
1
62
256
6
ByLayer
370
13
48
1
60
0
100
AcDbEllipse
10
265.054584
20
22.272623
30
0
11
0.00379960965785749
21
0.149951868832795
31
0
210
0
220
0
230
1
40
0.092094
41
0.00716942110630351
42
1.57796574790506
0
ELLIPSE
5
227
100
AcDbEntity
8
1
62
256
6
ByLayer
370
13
48
1
60
0
100
AcDbEllipse
10
252.257107
20
5.543765
30
0
11
0.107288710298031
21
-2.04719054624687
31
0
210
0
220
0
230
1
40
0.995725
41
-2.36773979636937
42
-1.87965793449076
0
ELLIPSE
5
228
100
AcDbEntity
8
1
62
256
6
ByLayer
370
13
48
1
60
0
100
AcDbEllipse
10
250.822528
20
6.917747
30
0
11
0.00523359562429481
21
-0.0998629534754687
31
0
210
0
220
0
230
1
40
0.995725
41
0.761807904944403
42
1.67551608191475
0
ELLIPSE
5
229
100
AcDbEntity
8
1
62
256
6
ByLayer
370
13
48
1
60
0
100
AcDbEllipse
10
248.44582
20
13.580312
30
0
11
-0.0287847759336197
21
0.549246244115043
31
0
210
0
220
0
230
1
40
0.995725
41
1.38753675533554
42
1.67551608191462
0
ELLIPSE
5
22A
100
AcDbEntity
8
1
62
256
6
ByLayer
370
13
48
1
60
0
100
AcDbEllipse
10
251.071393
20
7.286389
30
0
11
0.0104671912485884
21
-0.199725906950915
31
0
210
0
220
0
230
1
40
0.995725
41
-1.46607657167518
42
-1.72590767951489E-05
0
ELLIPSE
5
22B
100
AcDbEntity
8
1
62
256
6
ByLayer
370
13
48
1
60
0
100
AcDbEllipse
10
265.880274
20
8.401003
30
0
11
-0.0435637040568703
21
-0.259139630110832
31
0
210
0
220
0
230
1
40
0.947521
41
0.308152981478812
42
1.60922962169344
0
ELLIPSE
5
22C
100
AcDbEntity
8
1
62
256
6
ByLayer
370
13
48
1
60
0
100
AcDbEllipse
10
262.738288
20
6.093061
30
0
11
-1.40394107565808
21
-1.50837379632807
31
0
210
0
220
0
230
1
40
0.735668
41
2.56900210138752
42
-2.892026150415
0
ELLIPSE
5
22D
100
AcDbEntity
8
1
62
256
6
ByLayer
370
13
48
1
60
0
100
AcDbEllipse
10
250.250373
20
6.027752
30
0
11
0.00653729335066865
21
-0.149857478277353
31
0
210
0
220
0
230
1
40
0.092367
41
-1.56998679074977
42
-0.023244076379438
0
ELLIPSE
5
22E
100
AcDbEntity
8
1
62
256
6
ByLayer
370
13
48
1
60
0
100
AcDbEllipse
10
256.984095
20
20.341436
30
0
11
0.0104671912485884
21
-0.199725906950915
31
0
210
0
220
0
230
1
40
0.092371
41
1.5707963267949
42
3.14159265358979
0
ELLIPSE
5
22F
100
AcDbEntity
8
1
62
256
6
ByLayer
370
13
48
1
60
0
100
AcDbEllipse
10
252.270944
20
5.54449
30
0
11
-0.0994383168615899
21
1.89739611603369
31
0
210
0
220
0
230
1
40
0.995725
41
0.761807904943254
42
1.26193471909902
0
ELLIPSE
5
230
100
AcDbEntity
8
1
62
256
6
ByLayer
370
13
48
1
60
0
100
AcDbEllipse
10
248.734299
20
19.900441
30
0
11
-0.148731686424786
21
0.0194649801756644
31
0
210
0
220
0
230
1
40
0.016833
41
0.26313075575108
42
1.47983423648831
0
ELLIPSE
5
231
100
AcDbEntity
8
1
62
256
6
ByLayer
370
13
48
1
60
0
100
AcDbEllipse
10
250.252802
20
6.077946
30
0
11
0.0104671912485883
21
-0.199725906950913
31
0
210
0
220
0
230
1
40
0.995725
41
-0.00872664625898523
42
1.26193471909904
0
ELLIPSE
5
232
100
AcDbEntity
8
1
62
256
6
ByLayer
370
13
48
1
60
0
100
AcDbEllipse
10
264.346428
20
22.210967
30
0
11
-0.00261679781214704
21
0.0499314767377273
31
0
210
0
220
0
230
1
40
0.995725
41
-0.00872664625809204
42
1.26193471909933
0
ELLIPSE
5
233
100
AcDbEntity
8
1
62
256
6
ByLayer
370
13
48
1
60
0
100
AcDbEllipse
10
264.358082
20
22.261645
30
0
11
-0.00653729335066934
21
0.149857478277353
31
0
210
0
220
0
230
1
40
0.092367
41
0.000809536045784406
42
1.57160586284002
0
ELLIPSE
5
234
100
AcDbEntity
8
1
62
256
6
ByLayer
370
13
48
1
60
0
100
AcDbEllipse
10
250.558545
20
13.607613
30
0
11
0.0444855628065024
21
-0.848835104541417
31
0
210
0
220
0
230
1
40
0.995725
41
-1.75405589825427
42
-1.46607657167526
0
ELLIPSE
5
235
100
AcDbEntity
8
1
62
256
6
ByLayer
370
13
48
1
60
0
100
AcDbEllipse
10
251.404162
20
22.171914
30
0
11
-0.0942047212372964
21
1.79753316255823
31
0
210
0
220
0
230
1
40
0.995725
41
2.74104825906181
42
3.14159265358979
0
ELLIPSE
5
236
100
AcDbEntity
8
1
62
256
6
ByLayer
370
13
48
1
60
0
100
AcDbEllipse
10
249.755897
20
14.763163
30
0
11
-0.457939617125745
21
8.73800842910252
31
0
210
0
220
0
230
1
40
0.995725
41
3.0642301711306
42
3.11423538092932
0
ELLIPSE
5
237
100
AcDbEntity
8
1
62
256
6
ByLayer
370
13
48
1
60
0
100
AcDbEllipse
10
262.342123
20
22.745148
30
0
11
-0.0994383168615899
21
1.89739611603369
31
0
210
0
220
0
230
1
40
0.995725
41
-2.37978474864658
42
-1.8796579344908
0
ELLIPSE
5
238
100
AcDbEntity
8
1
62
256
6
ByLayer
370
13
48
1
60
0
100
AcDbEllipse
10
250.24819
20
6.077704
30
0
11
0.0104671912485883
21
-0.199725906950913
31
0
210
0
220
0
230
1
40
0.995725
41
0.0114035669056675
42
1.26193471909904
0
ELLIPSE
5
239
100
AcDbEntity
8
1
62
256
6
ByLayer
370
13
48
1
60
0
100
AcDbEllipse
10
248.737405
20
19.888877
30
0
11
-0.0435637040613224
21
-0.259139630109521
31
0
210
0
220
0
230
1
40
0.947521
41
-2.83343967209431
42
-1.53236303187765
0
ELLIPSE
5
23A
100
AcDbEntity
8
1
62
256
6
ByLayer
370
13
48
1
60
0
100
AcDbEllipse
10
250.609646
20
22.130276
30
0
11
-2.21586783438798
21
1.36412173726347
31
0
210
0
220
0
230
1
40
0.479615
41
1.27243185132296
42
1.31166509906445
0
ELLIPSE
5
23B
100
AcDbEntity
8
1
62
256
6
ByLayer
370
13
48
1
60
0
100
AcDbEllipse
10
249.736455
20
13.475558
30
0
11
-0.148163665863161
21
-0.0233993187505427
31
0
210
0
220
0
230
1
40
0.009655
41
-3.04959407911497
42
-1.47879775232104
0
ELLIPSE
5
23C
100
AcDbEntity
8
1
62
256
6
ByLayer
370
13
48
1
60
0
100
AcDbEllipse
10
264.843333
20
13.525751
30
0
11
0.465790010562185
21
-8.88780285931571
31
0
210
0
220
0
230
1
40
0.995725
41
3.06423017113057
42
3.11423538092929
0
ELLIPSE
5
23D
100
AcDbEntity
8
1
62
256
6
ByLayer
370
13
48
1
60
0
100
AcDbEllipse
10
265.045628
20
21.723046
30
0
11
0.0366351693700578
21
-0.699040674328169
31
0
210
0
220
0
230
1
40
0.995725
41
1.6755160819144
42
3.06423017113051
0
ELLIPSE
5
23E
100
AcDbEntity
8
1
62
256
6
ByLayer
370
13
48
1
60
0
100
AcDbEllipse
10
250.572381
20
13.608338
30
0
11
-0.0366351693700611
21
0.69904067432823
31
0
210
0
220
0
230
1
40
0.995725
41
1.38753675533553
42
1.67551608191455
0
ELLIPSE
5
23F
100
AcDbEntity
8
1
62
256
6
ByLayer
370
13
48
1
60
0
100
AcDbEllipse
10
250.085272
20
13.530474
30
0
11
-0.197551554484215
21
-0.0311990916673904
31
0
210
0
220
0
230
1
40
0.009655
41
0.0919985744772859
42
1.66279490126781
0
ELLIPSE
5
240
100
AcDbEntity
8
1
62
256
6
ByLayer
370
13
48
1
60
0
100
AcDbEllipse
10
262.342123
20
22.745148
30
0
11
-0.094204721237296
21
1.79753316255823
31
0
210
0
220
0
230
1
40
0.995725
41
3.14159265358973
42
-1.87965793449086
0
ELLIPSE
5
241
100
AcDbEntity
8
1
62
256
6
ByLayer
370
13
48
1
60
0
100
AcDbEllipse
10
263.692333
20
8.182393
30
0
11
0.0455100421907227
21
0.194753269702459
31
0
210
0
220
0
230
1
40
0.088753
41
-3.11589220190804
42
-1.54509587511442
0
ELLIPSE
5
242
100
AcDbEntity
8
1
62
256
6
ByLayer
370
13
48
1
60
0
100
AcDbEllipse
10
250.576993
20
13.60858
30
0
11
0.036635169370061
21
-0.69904067432823
31
0
210
0
220
0
230
1
40
0.995725
41
-1.75405589825427
42
-1.46607657167524
0
ELLIPSE
5
243
100
AcDbEntity
8
1
62
256
6
ByLayer
370
13
48
1
60
0
100
AcDbEllipse
10
250.306759
20
6.063723
30
0
11
0.0127690523125833
21
-0.243648032549161
31
0
210
0
220
0
230
1
40
0.995725
41
0.174532925199043
42
1.26193471909798
0
ELLIPSE
5
244
100
AcDbEntity
8
1
62
256
6
ByLayer
370
13
48
1
60
0
100
AcDbEllipse
10
263.692333
20
8.182393
30
0
11
-0.198308915233049
21
0.0259533069008859
31
0
210
0
220
0
230
1
40
0.016833
41
-3.14144018090163
42
-1.66175841710548
0
ELLIPSE
5
245
100
AcDbEntity
8
1
62
256
6
ByLayer
370
13
48
1
60
0
100
AcDbEllipse
10
264.875234
20
14.569924
30
0
11
0.148731686424787
21
-0.0194649801756595
31
0
210
0
220
0
230
1
40
0.016833
41
-2.85804977879161
42
-1.66175841710589
0
ELLIPSE
5
246
100
AcDbEntity
8
1
62
256
6
ByLayer
370
13
48
1
60
0
100
AcDbEllipse
10
251.071393
20
7.286389
30
0
11
0.197551554484217
21
0.0311990916673768
31
0
210
0
220
0
230
1
40
0.009655
41
-3.04959407911758
42
-1.47879775232174
0
ELLIPSE
5
247
100
AcDbEntity
8
1
62
256
6
ByLayer
370
13
48
1
60
0
100
AcDbEllipse
10
252.275556
20
5.544732
30
0
11
-0.0994383168615899
21
1.89739611603369
31
0
210
0
220
0
230
1
40
0.995725
41
0.761807904943274
42
1.26193471909904
0
ELLIPSE
5
248
100
AcDbEntity
8
1
62
256
6
ByLayer
370
13
48
1
60
0
100
AcDbEllipse
10
249.572052
20
6.566834
30
0
11
0.0366351693700578
21
-0.699040674328169
31
0
210
0
220
0
230
1
40
0.995725
41
-1.4660765716754
42
-0.0773624824592415
0
ELLIPSE
5
249
100
AcDbEntity
8
1
62
256
6
ByLayer
370
13
48
1
60
0
100
AcDbEllipse
10
264.364877
20
22.211934
30
0
11
0.0104671912485883
21
-0.199725906950913
31
0
210
0
220
0
230
1
40
0.995725
41
3.13286600733109
42
-1.87965793449076
0
ELLIPSE
5
24A
100
AcDbEntity
8
1
62
256
6
ByLayer
370
13
48
1
60
0
100
AcDbEllipse
10
249.159874
20
21.432125
30
0
11
-0.300351321609125
21
0.184900888627034
31
0
210
0
220
0
230
1
40
0.479615
41
-1.86916058278792
42
-0.781758788888291
0
ELLIPSE
5
24B
100
AcDbEntity
8
1
62
256
6
ByLayer
370
13
48
1
60
0
100
AcDbEllipse
10
262.323675
20
22.744181
30
0
11
0.107288710298031
21
-2.04719054624687
31
0
210
0
220
0
230
1
40
0.995725
41
0.773852857220436
42
1.26193471909902
0
ELLIPSE
5
24C
100
AcDbEntity
8
1
62
256
6
ByLayer
370
13
48
1
60
0
100
AcDbEllipse
10
266.691784
20
14.636449
30
0
11
0.148731686424787
21
-0.0194649801756595
31
0
210
0
220
0
230
1
40
0.016833
41
-1.66175841710589
42
-0.0909620903077582
0
ELLIPSE
5
24D
100
AcDbEntity
8
1
62
256
6
ByLayer
370
13
48
1
60
0
100
AcDbEllipse
10
265.581909
20
21.808721
30
0
11
0.148163665863163
21
0.0233993187505326
31
0
210
0
220
0
230
1
40
0.009655
41
0.0919985744809805
42
1.66279490126902
0
ELLIPSE
5
24E
100
AcDbEntity
8
1
62
256
6
ByLayer
370
13
48
1
60
0
100
AcDbEllipse
10
263.790539
20
21.371892
30
0
11
0.00523359562429481
21
-0.0998629534754687
31
0
210
0
220
0
230
1
40
0.995725
41
-2.37978474864531
42
-1.46607657167476
0
ELLIPSE
5
24F
100
AcDbEntity
8
1
62
256
6
ByLayer
370
13
48
1
60
0
100
AcDbEllipse
10
264.027931
20
8.095698
30
0
11
-0.0427993177771697
21
-0.158580925152831
31
0
210
0
220
0
230
1
40
0.080206
41
-1.54458133969488
42
0.0262149871108874
0
ELLIPSE
5
250
100
AcDbEntity
8
1
62
256
6
ByLayer
370
13
48
1
60
0
100
AcDbEllipse
10
264.022237
20
14.680334
30
0
11
0.0444855628065024
21
-0.848835104541417
31
0
210
0
220
0
230
1
40
0.995725
41
1.38753675533555
42
1.67551608191454
0
ELLIPSE
5
251
100
AcDbEntity
8
1
62
256
6
ByLayer
370
13
48
1
60
0
100
AcDbEllipse
10
250.02195
20
6.017787
30
0
11
0.00653729335066865
21
-0.149857478277353
31
0
210
0
220
0
230
1
40
0.092367
41
-1.56998679074977
42
0.000809536047707403
0
ELLIPSE
5
252
100
AcDbEntity
8
1
62
256
6
ByLayer
370
13
48
1
60
0
100
AcDbEllipse
10
250.827141
20
6.917988
30
0
11
0.00523359562429481
21
-0.0998629534754687
31
0
210
0
220
0
230
1
40
0.995725
41
0.76180790494526
42
1.67551608191503
0
ELLIPSE
5
253
100
AcDbEntity
8
1
62
256
6
ByLayer
370
13
48
1
60
0
100
AcDbEllipse
10
264.667516
20
20.52352
30
0
11
0.0994383168615901
21
-1.89739611603369
31
0
210
0
220
0
230
1
40
0.995725
41
3.1142353809293
42
3.13286600732977
0
ELLIPSE
5
254
100
AcDbEntity
8
1
62
256
6
ByLayer
370
13
48
1
60
0
100
AcDbEllipse
10
265.878768
20
8.389198
30
0
11
0.00785039343644122
21
-0.149794430213184
31
0
210
0
220
0
230
1
40
0.995725
41
0.104719755119663
42
1.38753675533548
0
ELLIPSE
5
255
100
AcDbEntity
8
1
62
256
6
ByLayer
370
13
48
1
60
0
100
AcDbEllipse
10
263.546286
20
21.003492
30
0
11
-0.114373860316042
21
0.164068949153722
31
0
210
0
220
0
230
1
40
0.07853
41
-1.61960141451337
42
-0.0488050877215449
0
ELLIPSE
5
256
100
AcDbEntity
8
1
62
256
6
ByLayer
370
13
48
1
60
0
100
AcDbEllipse
10
265.041015
20
21.722804
30
0
11
0.0366351693700578
21
-0.699040674328169
31
0
210
0
220
0
230
1
40
0.995725
41
1.6755160819144
42
3.06423017113051
0
ELLIPSE
5
257
100
AcDbEntity
8
1
62
256
6
ByLayer
370
13
48
1
60
0
100
AcDbEllipse
10
264.059135
20
14.682267
30
0
11
-0.0261679781214726
21
0.499314767377315
31
0
210
0
220
0
230
1
40
0.995725
41
-1.75405589825419
42
-1.46607657167521
0
ELLIPSE
5
258
100
AcDbEntity
8
1
62
256
6
ByLayer
370
13
48
1
60
0
100
AcDbEllipse
10
264.586505
20
22.271609
30
0
11
-0.00653729335066934
21
0.149857478277353
31
0
210
0
220
0
230
1
40
0.092367
41
0.000809536045784406
42
1.57160586284002
0
ELLIPSE
5
259
100
AcDbEntity
8
1
62
256
6
ByLayer
370
13
48
1
60
0
100
AcDbEllipse
10
263.546286
20
21.003492
30
0
11
-0.197551554484215
21
-0.0311990916673904
31
0
210
0
220
0
230
1
40
0.009655
41
1.66279490127008
42
-3.14146319849476
0
ELLIPSE
5
25A
100
AcDbEntity
8
1
62
256
6
ByLayer
370
13
48
1
60
0
100
AcDbEllipse
10
264.532407
20
14.759406
30
0
11
0.197551554484217
21
0.0311990916673768
31
0
210
0
220
0
230
1
40
0.009655
41
-1.47879775232057
42
0.00012945501315658
0
ELLIPSE
5
25B
100
AcDbEntity
8
1
62
256
6
ByLayer
370
13
48
1
60
0
100
AcDbEllipse
10
250.595442
20
13.609546
30
0
11
-0.0261679781214726
21
0.499314767377315
31
0
210
0
220
0
230
1
40
0.995725
41
1.38753675533555
42
1.67551608191452
0
ELLIPSE
5
25C
100
AcDbEntity
8
1
62
256
6
ByLayer
370
13
48
1
60
0
100
AcDbEllipse
10
257.327288
20
14.145907
30
0
11
0.164592752017132
21
-3.14061679904834
31
0
210
0
220
0
230
1
40
0.995725
41
0
42
6.28318530717959
0
ELLIPSE
5
25D
100
AcDbEntity
8
1
62
256
6
ByLayer
370
13
48
1
60
0
100
AcDbEllipse
10
250.638574
20
20.253544
30
0
11
0.00523359562429361
21
-0.0998629534754459
31
0
210
0
220
0
230
1
40
0.995725
41
1.38753675533603
42
3.14158141713715
0
ELLIPSE
5
25E
100
AcDbEntity
8
1
62
256
6
ByLayer
370
13
48
1
60
0
100
AcDbEllipse
10
263.974494
20
8.036095
30
0
11
0.00523359562429361
21
-0.0998629534754459
31
0
210
0
220
0
230
1
40
0.995725
41
-1.75405589825434
42
0.104719755121411
0
ELLIPSE
5
25F
100
AcDbEntity
8
1
62
256
6
ByLayer
370
13
48
1
60
0
100
AcDbEllipse
10
264.838721
20
13.525509
30
0
11
0.465790010562185
21
-8.88780285931571
31
0
210
0
220
0
230
1
40
0.995725
41
3.0642301711306
42
3.11423538092932
0
ELLIPSE
5
260
100
AcDbEntity
8
1
62
256
6
ByLayer
370
13
48
1
60
0
100
AcDbEllipse
10
266.134962
20
14.707635
30
0
11
-0.0287847759336197
21
0.549246244115043
31
0
210
0
220
0
230
1
40
0.995725
41
-1.7540558982542
42
-1.46607657167522
0
ELLIPSE
5
261
100
AcDbEntity
8
1
62
256
6
ByLayer
370
13
48
1
60
0
100
AcDbEllipse
10
266.689692
20
14.794276
30
0
11
0.148163665863163
21
0.0233993187505326
31
0
210
0
220
0
230
1
40
0.009655
41
0.0919985744698837
42
1.662794901268
0
POINT
5
70
100
AcDbEntity
8
1
62
256
6
ByLayer
370
18
48
1
60
0
100
AcDbPoint
10
0
20
0
30
0
39
0
210
0
220
0
230
1
50
360
0
POINT
5
72
100
AcDbEntity
8
80
62
256
6
ByLayer
370
18
48
1
60
0
100
AcDbPoint
10
0
20
0
30
0
39
0
210
0
220
0
230
1
50
360
0
POINT
5
74
100
AcDbEntity
8
81
62
256
6
ByLayer
370
18
48
1
60
0
100
AcDbPoint
10
267
20
0
30
0
39
0
210
0
220
0
230
1
50
360
0
POINT
5
76
100
AcDbEntity
8
1
62
256
6
ByLayer
370
18
48
1
60
1
100
AcDbPoint
10
0
20
-31.25
30
0
39
0
210
0
220
0
230
1
50
360
0
POINT
5
77
100
AcDbEntity
8
1
62
256
6
ByLayer
370
18
48
1
60
1
100
AcDbPoint
10
267
20
-22.5
30
0
39
0
210
0
220
0
230
1
50
360
0
POINT
5
78
100
AcDbEntity
8
1
62
256
6
ByLayer
370
18
48
1
60
1
100
AcDbPoint
10
-80
20
-25
30
0
39
0
210
0
220
0
230
1
50
360
0
POINT
5
79
100
AcDbEntity
8
1
62
256
6
ByLayer
370
18
48
1
60
1
100
AcDbPoint
10
0
20
-31.25
30
0
39
0
210
0
220
0
230
1
50
360
0
POINT
5
7A
100
AcDbEntity
8
1
62
256
6
ByLayer
370
18
48
1
60
1
100
AcDbPoint
10
267
20
-22.5
30
0
39
0
210
0
220
0
230
1
50
360
0
POINT
5
7B
100
AcDbEntity
8
1
62
256
6
ByLayer
370
18
48
1
60
1
100
AcDbPoint
10
6.4079
20
-31.25
30
0
39
0
210
0
220
0
230
1
50
360
0
POINT
5
7C
100
AcDbEntity
8
1
62
256
6
ByLayer
370
18
48
1
60
1
100
AcDbPoint
10
37
20
-22.5
30
0
39
0
210
0
220
0
230
1
50
360
0
POINT
5
7D
100
AcDbEntity
8
1
62
256
6
ByLayer
370
18
48
1
60
1
100
AcDbPoint
10
267
20
-22.5
30
0
39
0
210
0
220
0
230
1
50
360
0
POINT
5
7E
100
AcDbEntity
8
1
62
256
6
ByLayer
370
18
48
1
60
1
100
AcDbPoint
10
265.7234
20
-11.25
30
0
39
0
210
0
220
0
230
1
50
360
0
SPLINE
5
262
100
AcDbEntity
8
SK1
62
256
6
ByLayer
370
13
48
1
60
0
100
AcDbSpline
70
4
71
3
72
8
73
4
40
0
40
0
40
0
40
0
40
1
40
1
40
1
40
1
41
1
10
-78.5999993841624
20
10.6704826507521
30
0
41
1
10
-78.571842816211
20
10.5890315497
30
0
41
1
10
-78.5439155289718
20
10.5074810741399
30
0
41
1
10
-78.5162221138982
20
10.4258292340508
30
0
0
SPLINE
5
263
100
AcDbEntity
8
SK1
62
256
6
ByLayer
370
13
48
1
60
0
100
AcDbSpline
70
4
71
3
72
18
73
14
40
0
40
0
40
0
40
0
40
0.124999999999994
40
0.124999999999994
40
0.249999999999988
40
0.249999999999988
40
0.374999999999981
40
0.374999999999981
40
0.499999999999975
40
0.499999999999975
40
0.749999999999988
40
0.749999999999988
40
1
40
1
40
1
40
1
41
1
10
-77.6338131992802
20
-9.80675144594582
30
0
41
1
10
-77.6747633651724
20
-9.77128805754603
30
0
41
1
10
-77.7208435774768
20
-9.74055738411698
30
0
41
1
10
-77.8223424340443
20
-9.70060949890774
30
0
41
1
10
-77.877225313581
20
-9.69229190808377
30
0
41
1
10
-77.9860246497556
20
-9.70510854686367
30
0
41
1
10
-78.0378757025226
20
-9.72573581195073
30
0
41
1
10
-78.1301404068999
20
-9.78251362708679
30
0
41
1
10
-78.1717204994047
20
-9.81892837813635
30
0
41
1
10
-78.2826414870913
20
-9.93741839107241
30
0
41
1
10
-78.3411195831128
20
-10.0300646017818
30
0
41
1
10
-78.4407354299096
20
-10.2228684878255
30
0
41
1
10
-78.4816839215995
20
-10.3239961106508
30
0
41
1
10
-78.5162221138915
20
-10.4258292340309
30
0
0
SPLINE
5
264
100
AcDbEntity
8
SK1
62
256
6
ByLayer
370
13
48
1
60
0
100
AcDbSpline
70
4
71
3
72
10
73
6
40
0
40
0
40
0
40
0
40
0.5
40
0.5
40
1
40
1
40
1
40
1
41
1
10
-80
20
8.0540176309716
30
0
41
1
10
-79.85176739512
20
8.49565927489135
30
0
41
1
10
-79.6935189817436
20
8.93491944720282
30
0
41
1
10
-79.3587118244384
20
9.80908612108971
30
0
41
1
10
-79.1828143207057
20
10.2422333475178
30
0
41
1
10
-79
20
10.6704826507521
30
0
0
SPLINE
5
265
100
AcDbEntity
8
SK1
62
256
6
ByLayer
370
13
48
1
60
0
100
AcDbSpline
70
4
71
3
72
8
73
4
40
0
40
0
40
0
40
0
40
1
40
1
40
1
40
1
41
1
10
-78.5162221138915
20
-10.4258292340309
30
0
41
1
10
-78.5439104435588
20
-10.5074660802026
30
0
41
1
10
-78.5718376779285
20
-10.5890166857158
30
0
41
1
10
-78.5999993841625
20
-10.6704826507519
30
0
0
SPLINE
5
266
100
AcDbEntity
8
SK1
62
256
6
ByLayer
370
13
48
1
60
0
100
AcDbSpline
70
4
71
3
72
8
73
4
40
0
40
0
40
0
40
0
40
1
40
1
40
1
40
1
41
1
10
-76.6000022063887
20
-10.6704826507519
30
0
41
1
10
-76.9486457469478
20
-10.3889796865166
30
0
41
1
10
-77.2935001928291
20
-10.1014670365259
30
0
41
1
10
-77.6338131992803
20
-9.80675144594593
30
0
0
SPLINE
5
267
100
AcDbEntity
8
SK1
62
256
6
ByLayer
370
13
48
1
60
0
100
AcDbSpline
70
4
71
3
72
8
73
4
40
0
40
0
40
0
40
0
40
1
40
1
40
1
40
1
41
1
10
-79
20
-10.6704826507519
30
0
41
1
10
-79.3663118043068
20
-9.81238370995035
30
0
41
1
10
-79.7021882940637
20
-8.9413126460914
30
0
41
1
10
-80
20
-8.05401763097143
30
0
0
SPLINE
5
268
100
AcDbEntity
8
SK1
62
256
6
ByLayer
370
13
48
1
60
0
100
AcDbSpline
70
4
71
3
72
8
73
4
40
0
40
0
40
0
40
0
40
1
40
1
40
1
40
1
41
1
10
-77.6338131992799
20
9.80675144594619
30
0
41
1
10
-77.2939543866941
20
10.101073698597
30
0
41
1
10
-76.9490850005699
20
10.3886250228495
30
0
41
1
10
-76.6000022063887
20
10.6704826507521
30
0
0
SPLINE
5
269
100
AcDbEntity
8
SK1
62
256
6
ByLayer
370
13
48
1
60
0
100
AcDbSpline
70
4
71
3
72
74
73
70
40
0
40
0
40
0
40
0
40
0.0156249999999999
40
0.0156249999999999
40
0.0234374999999999
40
0.0234374999999999
40
0.0312499999999998
40
0.0312499999999998
40
0.0468749999999997
40
0.0468749999999997
40
0.0624999999999996
40
0.0624999999999996
40
0.0781249999999995
40
0.0781249999999995
40
0.0937499999999994
40
0.0937499999999994
40
0.124999999999999
40
0.124999999999999
40
0.140624999999999
40
0.140624999999999
40
0.156249999999999
40
0.156249999999999
40
0.187499999999999
40
0.187499999999999
40
0.249999999999999
40
0.249999999999999
40
0.281249999999999
40
0.281249999999999
40
0.312499999999999
40
0.312499999999999
40
0.374999999999999
40
0.374999999999999
40
0.437499999999999
40
0.437499999999999
40
0.499999999999999
40
0.499999999999999
40
0.562499999999999
40
0.562499999999999
40
0.593749999999999
40
0.593749999999999
40
0.624999999999999
40
0.624999999999999
40
0.687499999999999
40
0.687499999999999
40
0.749999999999999
40
0.749999999999999
40
0.781249999999999
40
0.781249999999999
40
0.812499999999999
40
0.812499999999999
40
0.84375
40
0.84375
40
0.875
40
0.875
40
0.90625
40
0.90625
40
0.9375
40
0.9375
40
0.9453125
40
0.9453125
40
0.953125
40
0.953125
40
0.96875
40
0.96875
40
0.984375
40
0.984375
40
0.9921875
40
0.9921875
40
1
40
1
40
1
40
1
41
1
10
-6.50000000009537
20
10.670482650752
30
0
41
1
10
-6.37048388891068
20
10.6704826507608
30
0
41
1
10
-6.24446776465052
20
10.6528697557375
30
0
41
1
10
-6.06010517952292
20
10.6029156441243
30
0
41
1
10
-5.99927461449792
20
10.5821925812253
30
0
41
1
10
-5.88223506583904
20
10.5345394314587
30
0
41
1
10
-5.82559748012396
20
10.5075199899682
30
0
41
1
10
-5.66065779452136
20
10.417975973631
30
0
41
1
10
-5.55712762892128
20
10.3466184036529
30
0
41
1
10
-5.36736536971405
20
10.1913586531549
30
0
41
1
10
-5.27997153671004
20
10.1068512703449
30
0
41
1
10
-5.11666218977227
20
9.92704332772249
30
0
41
1
10
-5.04055810401205
20
9.83130794393438
30
0
41
1
10
-4.90046448763793
20
9.63491798753748
30
0
41
1
10
-4.83603834410378
20
9.5338271584321
30
0
41
1
10
-4.65598112089407
20
9.22347109153861
30
0
41
1
10
-4.55339976152399
20
9.00719880738419
30
0
41
1
10
-4.41750582616754
20
8.67228763084432
30
0
41
1
10
-4.37530268897782
20
8.55891791867154
30
0
41
1
10
-4.29686000058592
20
8.33134323345735
30
0
41
1
10
-4.26049265592715
20
8.21682554312125
30
0
41
1
10
-4.1585724311424
20
7.87130398108656
30
0
41
1
10
-4.10013853486055
20
7.63834185023578
30
0
41
1
10
-3.94578977994675
20
6.93282891322849
30
0
41
1
10
-3.87048459563749
20
6.45370790232082
30
0
41
1
10
-3.78175631324949
20
5.72457369042988
30
0
41
1
10
-3.75634074966133
20
5.47976683985843
30
0
41
1
10
-3.7120067271199
20
4.98691048522593
30
0
41
1
10
-3.69308648223611
20
4.73862820397792
30
0
41
1
10
-3.64424139462162
20
3.99444565639502
30
0
41
1
10
-3.62191393829291
20
3.49753056604814
30
0
41
1
10
-3.58913059568964
20
2.50225576491911
30
0
41
1
10
-3.57872244966512
20
2.00389538867495
30
0
41
1
10
-3.56529013292472
20
1.00580199142325
30
0
41
1
10
-3.56228022077386
20
0.506068785393097
30
0
41
1
10
-3.56223334097642
20
-0.494754197166372
30
0
41
1
10
-3.56519357916225
20
-0.995843898846687
30
0
41
1
10
-3.57526735092097
20
-1.74852495498422
30
0
41
1
10
-3.57958751937886
20
-1.99959349362723
30
0
41
1
10
-3.59064705878916
20
-2.50209075145548
30
0
41
1
10
-3.59739709579894
20
-2.75385038007658
30
0
41
1
10
-3.62227132036486
20
-3.50710000839359
30
0
41
1
10
-3.64484459181701
20
-4.00580366741292
30
0
41
1
10
-3.71010606722081
20
-4.99571816607531
30
0
41
1
10
-3.75268745857275
20
-5.48693664959626
30
0
41
1
10
-3.84180186701059
20
-6.21737273914593
30
0
41
1
10
-3.87576317934641
20
-6.45978205407951
30
0
41
1
10
-3.95487127334194
20
-6.94225537606115
30
0
41
1
10
-3.99994180570394
20
-7.18182085753699
30
0
41
1
10
-4.10416683371689
20
-7.65518824089065
30
0
41
1
10
-4.16332953330694
20
-7.88926779084468
30
0
41
1
10
-4.30073575990994
20
-8.35126379883343
30
0
41
1
10
-4.37869000461005
20
-8.57819056735369
30
0
41
1
10
-4.55882768232694
20
-9.01890405609001
30
0
41
1
10
-4.66096064418579
20
-9.23316248710555
30
0
41
1
10
-4.9012460930548
20
-9.6450662502447
30
0
41
1
10
-5.04044720826909
20
-9.84412891865716
30
0
41
1
10
-5.24436673816899
20
-10.0673788314332
30
0
41
1
10
-5.28672193295479
20
-10.1108128419076
30
0
41
1
10
-5.37506018490618
20
-10.1949099292502
30
0
41
1
10
-5.42113974977889
20
-10.2356293471388
30
0
41
1
10
-5.56352602684599
20
-10.3512474104623
30
0
41
1
10
-5.66447995477702
20
-10.4202823836625
30
0
41
1
10
-5.88197798496884
20
-10.5378913469096
30
0
41
1
10
-6.00024980803649
20
-10.5867345345007
30
0
41
1
10
-6.18283559041274
20
-10.6361515407661
30
0
41
1
10
-6.24478714200797
20
-10.6488401790656
30
0
41
1
10
-6.37105473569075
20
-10.6660269221224
30
0
41
1
10
-6.43557318110055
20
-10.6704826507564
30
0
41
1
10
-6.50000000009538
20
-10.6704826507521
30
0
0
SPLINE
5
26A
100
AcDbEntity
8
SK1
62
256
6
ByLayer
370
13
48
1
60
0
100
AcDbSpline
70
4
71
3
72
22
73
18
40
0
40
0
40
0
40
0
40
0.250000000000013
40
0.250000000000013
40
0.375000000000011
40
0.375000000000011
40
0.500000000000009
40
0.500000000000009
40
0.625000000000006
40
0.625000000000006
40
0.687500000000005
40
0.687500000000005
40
0.750000000000004
40
0.750000000000004
40
0.875000000000002
40
0.875000000000002
40
1
40
1
40
1
40
1
41
1
10
-78.5162221138982
20
10.4258292340508
30
0
41
1
10
-78.4816010925007
20
10.3237518956136
30
0
41
1
10
-78.4411780188043
20
10.2239013321123
30
0
41
1
10
-78.3666785250411
20
10.0794467030181
30
0
41
1
10
-78.3393689035363
20
10.0320610579929
30
0
41
1
10
-78.2793566754053
20
9.94200016242738
30
0
41
1
10
-78.2466129799402
20
9.89906478118272
30
0
41
1
10
-78.1725895963645
20
9.81972659981167
30
0
41
1
10
-78.1310790894698
20
9.78319125007499
30
0
41
1
10
-78.0614135112523
20
9.74017151629326
30
0
41
1
10
-78.0367084860757
20
9.72773410304424
30
0
41
1
10
-77.9859900462305
20
9.70877612675764
30
0
41
1
10
-77.9597650984162
20
9.70209114959093
30
0
41
1
10
-77.8779326920127
20
9.69222679373803
30
0
41
1
10
-77.8229289559465
20
9.7004005561752
30
0
41
1
10
-77.720518632779
20
9.74066343125068
30
0
41
1
10
-77.6749703009745
20
9.77110884838677
30
0
41
1
10
-77.6338131992791
20
9.80675144594503
30
0
0
SPLINE
5
26B
100
AcDbEntity
8
1
62
256
6
ByLayer
370
13
48
1
60
0
100
AcDbSpline
70
4
71
3
72
8
73
4
40
0
40
0
40
0
40
0
40
1
40
1
40
1
40
1
41
1
10
244.035596108538
20
10.3545720129736
30
0
41
1
10
244.411778863718
20
10.3641321071878
30
0
41
1
10
244.773656382238
20
10.3436720782611
30
0
41
1
10
245.121349742162
20
10.2921877318347
30
0
0
SPLINE
5
26C
100
AcDbEntity
8
1
62
256
6
ByLayer
370
13
48
1
60
0
100
AcDbSpline
70
4
71
3
72
18
73
14
40
0
40
0
40
0
40
0
40
0.125000000000025
40
0.125000000000025
40
0.250000000000049
40
0.250000000000049
40
0.375000000000073
40
0.375000000000073
40
0.500000000000097
40
0.500000000000097
40
0.750000000000048
40
0.750000000000048
40
1
40
1
40
1
40
1
41
1
10
251.554549027946
20
5.99907848549671
30
0
41
1
10
251.541587875733
20
5.98629777585259
30
0
41
1
10
251.533233985639
20
5.97725700465634
30
0
41
1
10
251.528353281597
20
5.96832545145179
30
0
41
1
10
251.53172835791
20
5.96826857489526
30
0
41
1
10
251.548059609988
20
5.97582208163638
30
0
41
1
10
251.561099549338
20
5.98344491031972
30
0
41
1
10
251.593059509054
20
6.00414378534592
30
0
41
1
10
251.612263314143
20
6.01739948278825
30
0
41
1
10
251.675328584251
20
6.06359885496821
30
0
41
1
10
251.723358883462
20
6.10190975910149
30
0
41
1
10
251.826162336554
20
6.19336685978192
30
0
41
1
10
251.878228599886
20
6.24411350135676
30
0
41
1
10
251.929956732343
20
6.30040657534082
30
0
0
SPLINE
5
26D
100
AcDbEntity
8
1
62
256
6
ByLayer
370
13
48
1
60
0
100
AcDbSpline
70
4
71
3
72
8
73
4
40
0
40
0
40
0
40
0
40
1
40
1
40
1
40
1
41
1
10
245.170554943909
20
10.2828453553726
30
0
41
1
10
245.154233418805
20
10.2864629663237
30
0
41
1
10
245.13783365564
20
10.2895894625737
30
0
41
1
10
245.121349742162
20
10.2921877318345
30
0
0
SPLINE
5
26E
100
AcDbEntity
8
1
62
256
6
ByLayer
370
13
48
1
60
0
100
AcDbSpline
70
4
71
3
72
14
73
10
40
0
40
0
40
0
40
0
40
0.249999999999999
40
0.249999999999999
40
0.499999999999998
40
0.499999999999998
40
0.749999999999999
40
0.749999999999999
40
1
40
1
40
1
40
1
41
1
10
265.060771020981
20
0.656390601349699
30
0
41
1
10
265.061884150802
20
0.706867652249542
30
0
41
1
10
265.063866491229
20
0.753833893534846
30
0
41
1
10
265.0694568107
20
0.837380438581363
30
0
41
1
10
265.072985526794
20
0.873014211234334
30
0
41
1
10
265.081444927673
20
0.930691268834522
30
0
41
1
10
265.086181109657
20
0.951520291373981
30
0
41
1
10
265.09668595084
20
0.976850727226264
30
0
41
1
10
265.102200689853
20
0.980695508770253
30
0
41
1
10
265.107938066825
20
0.97556520144559
30
0
0
SPLINE
5
26F
100
AcDbEntity
8
1
62
256
6
ByLayer
370
13
48
1
60
0
100
AcDbSpline
70
4
71
3
72
28
73
24
40
0
40
0
40
0
40
0
40
0.155581467726933
40
0.155581467726933
40
0.311162935453866
40
0.311162935453866
40
0.466744403180798
40
0.466744403180798
40
0.544535137044265
40
0.544535137044265
40
0.622325870907731
40
0.622325870907731
40
0.777907338634666
40
0.777907338634666
40
0.855698072498132
40
0.855698072498132
40
0.894593439429865
40
0.894593439429865
40
0.933488806361599
40
0.933488806361599
40
0.972384173293332
40
0.972384173293332
40
1
40
1
40
1
40
1
41
1
10
239.663955544625
20
21.2593725634982
30
0
41
1
10
237.685956524194
20
21.3993929366784
30
0
41
1
10
235.709162323556
20
21.4855577917085
30
0
41
1
10
231.752921622923
20
21.5500654565401
30
0
41
1
10
229.777131637121
20
21.5283362520086
30
0
41
1
10
225.828191661298
20
21.377599345152
30
0
41
1
10
223.854596097607
20
21.248698383184
30
0
41
1
10
220.891770005491
20
20.9742930536614
30
0
41
1
10
219.903748185076
20
20.8692093916019
30
0
41
1
10
217.926173260755
20
20.6319740071136
30
0
41
1
10
216.937256055962
20
20.4999326979238
30
0
41
1
10
213.973142008907
20
20.0651885223302
30
0
41
1
10
211.998931364062
20
19.7236745681721
30
0
41
1
10
209.036334660217
20
19.1385249480016
30
0
41
1
10
208.048601057389
20
18.9307976400913
30
0
41
1
10
206.567160817858
20
18.6069967942932
30
0
41
1
10
206.073496901321
20
18.4975164598368
30
0
41
1
10
205.085594532158
20
18.2742574044757
30
0
41
1
10
204.591287539212
20
18.1602723286779
30
0
41
1
10
203.600506140325
20
17.9256012738994
30
0
41
1
10
203.103777609104
20
17.8045718855812
30
0
41
1
10
202.253578551253
20
17.5935801570431
30
0
41
1
10
201.900269987296
20
17.5049015016232
30
0
41
1
10
201.546674212655
20
17.4153732312562
30
0
0
SPLINE
5
270
100
AcDbEntity
8
1
62
256
6
ByLayer
370
13
48
1
60
0
100
AcDbSpline
70
4
71
3
72
16
73
12
40
0
40
0
40
0
40
0
40
0.249999999999987
40
0.249999999999987
40
0.499999999999973
40
0.499999999999973
40
0.624999999999976
40
0.624999999999976
40
0.749999999999978
40
0.749999999999978
40
1
40
1
40
1
40
1
41
1
10
246.744339649069
20
5.22162086845654
30
0
41
1
10
247.316827417395
20
5.05779447584649
30
0
41
1
10
247.89038296271
20
4.94366851398121
30
0
41
1
10
249.040214540491
20
4.80499950576365
30
0
41
1
10
249.616486759968
20
4.78055602707164
30
0
41
1
10
250.483026745112
20
4.81026734485806
30
0
41
1
10
250.773024689144
20
4.83141826835777
30
0
41
1
10
251.347568425455
20
4.89563461582796
30
0
41
1
10
251.632564089049
20
4.93865119440286
30
0
41
1
10
252.480673028135
20
5.10000089682899
30
0
41
1
10
253.036977517662
20
5.25045679823506
30
0
41
1
10
253.583249536356
20
5.44490429751588
30
0
0
SPLINE
5
271
100
AcDbEntity
8
1
62
256
6
ByLayer
370
13
48
1
60
0
100
AcDbSpline
70
4
71
3
72
8
73
4
40
0
40
0
40
0
40
0
40
1
40
1
40
1
40
1
41
1
10
243.358017130367
20
8.22986398454742
30
0
41
1
10
243.358545104654
20
8.23168163060618
30
0
41
1
10
243.359112493758
20
8.23348972532497
30
0
41
1
10
243.359718048064
20
8.2352885831157
30
0
0
SPLINE
5
272
100
AcDbEntity
8
1
62
256
6
ByLayer
370
13
48
1
60
0
100
AcDbSpline
70
4
71
3
72
8
73
4
40
0
40
0
40
0
40
0
40
1
40
1
40
1
40
1
41
1
10
37
20
-7.86004506345429
30
0
41
1
10
36.4131038280749
20
-7.86015873322219
30
0
41
1
10
35.8281098816031
20
-7.86115342982666
30
0
41
1
10
35.2449980616192
20
-7.86302105005251
30
0
0
SPLINE
5
273
100
AcDbEntity
8
1
62
256
6
ByLayer
370
13
48
1
60
0
100
AcDbSpline
70
4
71
3
72
14
73
10
40
0
40
0
40
0
40
0
40
0.25
40
0.25
40
0.5
40
0.5
40
0.75
40
0.75
40
1
40
1
40
1
40
1
41
1
10
251.894599543143
20
7.02641797158714
30
0
41
1
10
251.922215734162
20
7.01916514224396
30
0
41
1
10
251.947046305561
20
7.0106194823303
30
0
41
1
10
251.988786643865
20
6.99180587966143
30
0
41
1
10
252.006280972671
20
6.98125390816887
30
0
41
1
10
252.032567483606
20
6.95918919442113
30
0
41
1
10
252.041520024574
20
6.94771024322478
30
0
41
1
10
252.051601406737
20
6.92391858804373
30
0
41
1
10
252.052574349004
20
6.91159432650673
30
0
41
1
10
252.049832509097
20
6.89956895555059
30
0
0
SPLINE
5
274
100
AcDbEntity
8
1
62
256
6
ByLayer
370
13
48
1
60
0
100
AcDbSpline
70
4
71
3
72
8
73
4
40
0
40
0
40
0
40
0
40
1
40
1
40
1
40
1
41
1
10
244.035538988332
20
10.3545822135549
30
0
41
1
10
244.167162083396
20
11.6126139823468
30
0
41
1
10
244.295388539519
20
12.8689296457922
30
0
41
1
10
244.419323540179
20
14.123838713985
30
0
0
SPLINE
5
275
100
AcDbEntity
8
1
62
256
6
ByLayer
370
13
48
1
60
0
100
AcDbSpline
70
4
71
3
72
26
73
22
40
0
40
0
40
0
40
0
40
0.0624999999999951
40
0.0624999999999951
40
0.12499999999999
40
0.12499999999999
40
0.187499999999985
40
0.187499999999985
40
0.24999999999998
40
0.24999999999998
40
0.374999999999984
40
0.374999999999984
40
0.499999999999987
40
0.499999999999987
40
0.62499999999999
40
0.62499999999999
40
0.749999999999993
40
0.749999999999993
40
0.874999999999997
40
0.874999999999997
40
1
40
1
40
1
40
1
41
1
10
245.292681206102
20
6.67481769242985
30
0
41
1
10
245.272985376102
20
6.63179613611035
30
0
41
1
10
245.258669045643
20
6.58663042879076
30
0
41
1
10
245.241647477651
20
6.49564101593029
30
0
41
1
10
245.238808613292
20
6.44874549730417
30
0
41
1
10
245.243496343135
20
6.35784375599127
30
0
41
1
10
245.250924453968
20
6.31303772950136
30
0
41
1
10
245.273568933829
20
6.2268835473065
30
0
41
1
10
245.288603177937
20
6.18585401957935
30
0
41
1
10
245.342210085134
20
6.06747242644045
30
0
41
1
10
245.389545367955
20
5.99460722888733
30
0
41
1
10
245.494981594814
20
5.86312223474246
30
0
41
1
10
245.553668603155
20
5.80350186026595
30
0
41
1
10
245.67981099447
20
5.69327142919752
30
0
41
1
10
245.746756355175
20
5.64325039334375
30
0
41
1
10
245.884778764364
20
5.55247185334997
30
0
41
1
10
245.956192895011
20
5.51147032166924
30
0
41
1
10
246.103118244194
20
5.43691699052948
30
0
41
1
10
246.17863677495
20
5.40337850955524
30
0
41
1
10
246.333487905574
20
5.34319019678026
30
0
41
1
10
246.41275519265
20
5.31660083354802
30
0
41
1
10
246.492908686993
20
5.29362797891861
30
0
0
SPLINE
5
276
100
AcDbEntity
8
1
62
256
6
ByLayer
370
13
48
1
60
0
100
AcDbSpline
70
4
71
3
72
12
73
8
40
0
40
0
40
0
40
0
40
0.25
40
0.25
40
0.5
40
0.5
40
1
40
1
40
1
40
1
41
1
10
246.884617934551
20
10.1440794099601
30
0
41
1
10
246.87565456592
20
10.2120260184336
30
0
41
1
10
246.863445659957
20
10.2795818561964
30
0
41
1
10
246.831808655048
20
10.4138243230564
30
0
41
1
10
246.812238169407
20
10.4808252516498
30
0
41
1
10
246.742974874718
20
10.6761633622238
30
0
41
1
10
246.682642427528
20
10.7998691234083
30
0
41
1
10
246.607405351748
20
10.9167108973674
30
0
0
SPLINE
5
277
100
AcDbEntity
8
1
62
256
6
ByLayer
370
13
48
1
60
0
100
AcDbSpline
70
4
71
3
72
8
73
4
40
0
40
0
40
0
40
0
40
1
40
1
40
1
40
1
41
1
10
246.492908686994
20
5.2936279789196
30
0
41
1
10
246.57693554811
20
5.26954497566115
30
0
41
1
10
246.660748766965
20
5.24554171607639
30
0
41
1
10
246.744339649069
20
5.22162086845637
30
0
0
SPLINE
5
278
100
AcDbEntity
8
1
62
256
6
ByLayer
370
13
48
1
60
0
100
AcDbSpline
70
4
71
3
72
18
73
14
40
0
40
0
40
0
40
0
40
0.249999999999997
40
0.249999999999997
40
0.374999999999996
40
0.374999999999996
40
0.499999999999995
40
0.499999999999995
40
0.749999999999997
40
0.749999999999997
40
0.874999999999998
40
0.874999999999998
40
1
40
1
40
1
40
1
41
1
10
35.2449980526777
20
-21.2408137436638
30
0
41
1
10
34.8775964129086
20
-21.2407321118794
30
0
41
1
10
34.5167136770721
20
-21.2711664231879
30
0
41
1
10
33.9844459010409
20
-21.3592118852194
30
0
41
1
10
33.8085391829721
20
-21.3956564002689
30
0
41
1
10
33.4597064297804
20
-21.4824984433364
30
0
41
1
10
33.2861352159912
20
-21.5331187143736
30
0
41
1
10
32.7744316652608
20
-21.7042736340597
30
0
41
1
10
32.4490971485557
20
-21.842420421175
30
0
41
1
10
31.9817568259268
20
-22.081079625003
30
0
41
1
10
31.829439694142
20
-22.1659020502391
30
0
41
1
10
31.5314153932495
20
-22.3456047981597
30
0
41
1
10
31.3852767484231
20
-22.4408073793954
30
0
41
1
10
31.2437716647195
20
-22.5398275952874
30
0
0
SPLINE
5
279
100
AcDbEntity
8
1
62
256
6
ByLayer
370
13
48
1
60
0
100
AcDbSpline
70
4
71
3
72
14
73
10
40
0
40
0
40
0
40
0
40
0.5
40
0.5
40
0.75
40
0.75
40
0.875
40
0.875
40
1
40
1
40
1
40
1
41
1
10
255.31656661371
20
7.47427254876925
30
0
41
1
10
255.475170997127
20
7.42518101631129
30
0
41
1
10
255.633513164593
20
7.39213646157003
30
0
41
1
10
255.872355969918
20
7.36315152474538
30
0
41
1
10
255.952180872772
20
7.35697302050138
30
0
41
1
10
256.072406325108
20
7.35287221250388
30
0
41
1
10
256.112562798394
20
7.35236860289146
30
0
41
1
10
256.193068354885
20
7.35310424330928
30
0
41
1
10
256.233657432884
20
7.35436310654532
30
0
41
1
10
256.273390009808
20
7.35644540266708
30
0
0
SPLINE
5
27A
100
AcDbEntity
8
1
62
256
6
ByLayer
370
13
48
1
60
0
100
AcDbSpline
70
4
71
3
72
8
73
4
40
0
40
0
40
0
40
0
40
1
40
1
40
1
40
1
41
1
10
251.538118329162
20
7.07895517187816
30
0
41
1
10
251.565910625816
20
7.07988222372691
30
0
41
1
10
251.594332477488
20
7.0796925310062
30
0
41
1
10
251.62223741031
20
7.07828264837946
30
0
0
SPLINE
5
27B
100
AcDbEntity
8
1
62
256
6
ByLayer
370
13
48
1
60
0
100
AcDbSpline
70
4
71
3
72
20
73
16
40
0
40
0
40
0
40
0
40
0.050221569869415
40
0.050221569869415
40
0.20851797489118
40
0.20851797489118
40
0.366814379912944
40
0.366814379912944
40
0.445962582423827
40
0.445962582423827
40
0.525110784934709
40
0.525110784934709
40
0.683407189956473
40
0.683407189956473
40
1
40
1
40
1
40
1
41
1
10
13.1870380088529
20
-14.7494071379049
30
0
41
1
10
13.0312455167757
20
-14.9153175558749
30
0
41
1
10
12.8778814850382
20
-15.0826964716939
30
0
41
1
10
12.2510666646606
20
-15.7836739169074
30
0
41
1
10
11.7991819178428
20
-16.3302499051579
30
0
41
1
10
10.9435287114285
20
-17.4521531971239
30
0
41
1
10
10.5397517600214
20
-18.0274756777067
30
0
41
1
10
9.97157758413479
20
-18.9126253828384
30
0
41
1
10
9.78845327476164
20
-19.2113628697647
30
0
41
1
10
9.43513384370799
20
-19.8165109546148
30
0
41
1
10
9.26516160698169
20
-20.1226916784921
30
0
41
1
10
8.77781017909884
20
-21.0461034520307
30
0
41
1
10
8.4816828220696
20
-21.6702866456784
30
0
41
1
10
7.67455239918189
20
-23.5666996439672
30
0
41
1
10
7.2439164847155
20
-24.8625589374401
30
0
41
1
10
6.91738955313168
20
-26.1878138857676
30
0
0
SPLINE
5
27C
100
AcDbEntity
8
1
62
256
6
ByLayer
370
13
48
1
60
0
100
AcDbSpline
70
4
71
3
72
8
73
4
40
0
40
0
40
0
40
0
40
1
40
1
40
1
40
1
41
1
10
241.15630872087
20
1.96805384516057
30
0
41
1
10
240.571351073304
20
2.1952022806625
30
0
41
1
10
239.994457359512
20
2.43380357886954
30
0
41
1
10
239.428955191301
20
2.69154294485799
30
0
0
SPLINE
5
27D
100
AcDbEntity
8
1
62
256
6
ByLayer
370
13
48
1
60
0
100
AcDbSpline
70
4
71
3
72
8
73
4
40
0
40
0
40
0
40
0
40
1
40
1
40
1
40
1
41
1
10
239.663955544636
20
21.2593725634913
30
0
41
1
10
239.701520573618
20
21.3196763283419
30
0
41
1
10
239.738938852047
20
21.3800737344678
30
0
41
1
10
239.776212477864
20
21.4405634431756
30
0
0
SPLINE
5
27E
100
AcDbEntity
8
1
62
256
6
ByLayer
370
13
48
1
60
0
100
AcDbSpline
70
4
71
3
72
42
73
38
40
0
40
0
40
0
40
0
40
0.125
40
0.125
40
0.187500000000001
40
0.187500000000001
40
0.218750000000001
40
0.218750000000001
40
0.250000000000001
40
0.250000000000001
40
0.375000000000001
40
0.375000000000001
40
0.437500000000001
40
0.437500000000001
40
0.468750000000001
40
0.468750000000001
40
0.500000000000001
40
0.500000000000001
40
0.625000000000001
40
0.625000000000001
40
0.656250000000002
40
0.656250000000002
40
0.687500000000002
40
0.687500000000002
40
0.750000000000002
40
0.750000000000002
40
0.812500000000003
40
0.812500000000003
40
0.843750000000002
40
0.843750000000002
40
0.875000000000002
40
0.875000000000002
40
0.937500000000001
40
0.937500000000001
40
0.968750000000001
40
0.968750000000001
40
1
40
1
40
1
40
1
41
1
10
15.6191249879936
20
-13.9441122861886
30
0
41
1
10
14.9820401760548
20
-14.0937037329025
30
0
41
1
10
14.3567311733362
20
-14.2858008043996
30
0
41
1
10
13.4357734128641
20
-14.6358776424062
30
0
41
1
10
13.1316401123941
20
-14.7629623739087
30
0
41
1
10
12.679813831249
20
-14.969632663914
30
0
41
1
10
12.5299353144278
20
-15.0412016447179
30
0
41
1
10
12.2316718670731
20
-15.1898402124943
30
0
41
1
10
12.0828748452896
20
-15.2671369224173
30
0
41
1
10
11.3497722901256
20
-15.664082409946
30
0
41
1
10
10.7951076898078
20
-16.0149697450863
30
0
41
1
10
10.0125301125116
20
-16.5923801710154
30
0
41
1
10
9.7599571673738
20
-16.7934126825984
30
0
41
1
10
9.39430579276852
20
-17.1084981965022
30
0
41
1
10
9.27461690425022
20
-17.2157747174187
30
0
41
1
10
9.03985448223219
20
-17.4350380993195
30
0
41
1
10
8.9253536519371
20
-17.546537168659
30
0
41
1
10
8.37185874634326
20
-18.1090246098666
30
0
41
1
10
7.9846135735183
20
-18.5788494186226
30
0
41
1
10
7.57751463582572
20
-19.1924864099641
30
0
41
1
10
7.49971982726741
20
-19.3170401622184
30
0
41
1
10
7.35393449405966
20
-19.5661903694331
30
0
41
1
10
7.28595919460949
20
-19.6906715169055
30
0
41
1
10
7.09672165522394
20
-20.0637978784868
30
0
41
1
10
6.99021649722731
20
-20.3121423416272
30
0
41
1
10
6.81768653438334
20
-20.8078726459378
30
0
41
1
10
6.7516385284098
20
-21.0552577551582
30
0
41
1
10
6.68505997334071
20
-21.4254859305566
30
0
41
1
10
6.66834112003389
20
-21.5485978407847
30
0
41
1
10
6.64644847138112
20
-21.7900860422252
30
0
41
1
10
6.64116894851124
20
-21.9090199389952
30
0
41
1
10
6.64253060462786
20
-22.260409959444
30
0
41
1
10
6.66616597320504
20
-22.4874934519179
30
0
41
1
10
6.73514653767974
20
-22.8174773915891
30
0
41
1
10
6.76375116360595
20
-22.9256929796153
30
0
41
1
10
6.8323793077015
20
-23.1385183617777
30
0
41
1
10
6.87235719874511
20
-23.2428797186911
30
0
41
1
10
6.91765799380032
20
-23.3443597991706
30
0
0
SPLINE
5
27F
100
AcDbEntity
8
1
62
256
6
ByLayer
370
13
48
1
60
0
100
AcDbSpline
70
4
71
3
72
16
73
12
40
0
40
0
40
0
40
0
40
0.250000000000039
40
0.250000000000039
40
0.500000000000079
40
0.500000000000079
40
0.625000000000059
40
0.625000000000059
40
0.750000000000039
40
0.750000000000039
40
1
40
1
40
1
40
1
41
1
10
265.188528128991
20
6.66081704269865
30
0
41
1
10
265.037744769651
20
6.67848874017082
30
0
41
1
10
264.891790422891
20
6.7079061392613
30
0
41
1
10
264.60428297119
20
6.79020311953133
30
0
41
1
10
264.464582655939
20
6.8427385711181
30
0
41
1
10
264.261908661534
20
6.93900644639487
30
0
41
1
10
264.195386298221
20
6.97406846517165
30
0
41
1
10
264.064311911024
20
7.05069179758874
30
0
41
1
10
263.999437615041
20
7.09250732936496
30
0
41
1
10
263.811646185627
20
7.22612489850462
30
0
41
1
10
263.694645967842
20
7.32627792083593
30
0
41
1
10
263.586596423833
20
7.43930260646519
30
0
0
SPLINE
5
280
100
AcDbEntity
8
1
62
256
6
ByLayer
370
13
48
1
60
0
100
AcDbSpline
70
4
71
3
72
8
73
4
40
0
40
0
40
0
40
0
40
1
40
1
40
1
40
1
41
1
10
256.838552802753
20
6.08428027978144
30
0
41
1
10
257.37522903773
20
6.11240628945058
30
0
41
1
10
257.885529443289
20
6.13915000047317
30
0
41
1
10
258.365887795398
20
6.16432451496723
30
0
0
SPLINE
5
281
100
AcDbEntity
8
1
62
256
6
ByLayer
370
13
48
1
60
0
100
AcDbSpline
70
4
71
3
72
10
73
6
40
0
40
0
40
0
40
0
40
0.450196297048029
40
0.450196297048029
40
1
40
1
40
1
40
1
41
1
10
37.45
20
-21.2274706924769
30
0
41
1
10
37.45
20
-19.9419279348768
30
0
41
1
10
37.45
20
-18.6563851782263
30
0
41
1
10
37.45
20
-15.8008691197196
30
0
41
1
10
37.45
20
-14.2308958183302
30
0
41
1
10
37.45
20
-12.660922518357
30
0
0
SPLINE
5
282
100
AcDbEntity
8
1
62
256
6
ByLayer
370
13
48
1
60
0
100
AcDbSpline
70
4
71
3
72
40
73
36
40
0
40
0
40
0
40
0
40
0.0050876172865481
40
0.0050876172865481
40
0.0276992623482174
40
0.0276992623482174
40
0.0503109074098867
40
0.0503109074098867
40
0.0955341975332252
40
0.0955341975332252
40
0.118145842594894
40
0.118145842594894
40
0.140757487656563
40
0.140757487656563
40
0.185980777779902
40
0.185980777779902
40
0.208592422841571
40
0.208592422841571
40
0.23120406790324
40
0.23120406790324
40
0.276427358026579
40
0.276427358026579
40
0.366873938273256
40
0.366873938273256
40
0.457320518519934
40
0.457320518519934
40
0.502543808643273
40
0.502543808643273
40
0.547767098766612
40
0.547767098766612
40
0.638213679013289
40
0.638213679013289
40
0.819106839506645
40
0.819106839506645
40
1
40
1
40
1
40
1
41
1
10
177.002690780718
20
-11.6781874500266
30
0
41
1
10
176.768858207506
20
-11.6949106123534
30
0
41
1
10
176.534964393071
20
-11.7114012741481
30
0
41
1
10
175.261211015722
20
-11.7999840590607
30
0
41
1
10
174.220228005411
20
-11.8680273209629
30
0
41
1
10
172.135793439572
20
-11.9964222396114
30
0
41
1
10
171.092309177795
20
-12.0565143455034
30
0
41
1
10
167.957566343518
20
-12.2221007313472
30
0
41
1
10
165.861816091641
20
-12.3115876506589
30
0
41
1
10
162.709167404984
20
-12.4190962208011
30
0
41
1
10
161.65731079918
20
-12.4505411761594
30
0
41
1
10
159.55414303416
20
-12.5055140802853
30
0
41
1
10
158.50246255945
20
-12.5290549230614
30
0
41
1
10
155.347129880218
20
-12.589030650528
30
0
41
1
10
153.243189670054
20
-12.6147508292854
30
0
41
1
10
150.086649285898
20
-12.6394606573391
30
0
41
1
10
149.034363246023
20
-12.6452828036381
30
0
41
1
10
146.929577677673
20
-12.6537447384121
30
0
41
1
10
145.877069190835
20
-12.6566321472421
30
0
41
1
10
142.719417408607
20
-12.6623712301995
30
0
41
1
10
140.614165176921
20
-12.6634593378359
30
0
41
1
10
134.298171093196
20
-12.6652921514094
30
0
41
1
10
130.087174108162
20
-12.6627743533983
30
0
41
1
10
121.665388806863
20
-12.6607261025333
30
0
41
1
10
117.454618223964
20
-12.6600114503493
30
0
41
1
10
111.138503215724
20
-12.6596929337845
30
0
41
1
10
109.033137463921
20
-12.6596919377471
30
0
41
1
10
104.822392378134
20
-12.6599363830273
30
0
41
1
10
102.717013600653
20
-12.6601507552617
30
0
41
1
10
96.4008633354298
20
-12.6606398802227
30
0
41
1
10
92.1900795824833
20
-12.6608790750619
30
0
41
1
10
79.5577461359414
20
-12.6612421869173
30
0
41
1
10
71.1361998790801
20
-12.6610551755411
30
0
41
1
10
54.2930999433002
20
-12.660978149277
30
0
41
1
10
45.8715499758236
20
-12.6610687914522
30
0
41
1
10
37.45
20
-12.660922518357
30
0
0
SPLINE
5
283
100
AcDbEntity
8
1
62
256
6
ByLayer
370
13
48
1
60
0
100
AcDbSpline
70
4
71
3
72
10
73
6
40
0
40
0
40
0
40
0
40
0.0366088214294572
40
0.0366088214294572
40
1
40
1
40
1
40
1
41
1
10
224.463447332114
20
9.55975657745103
30
0
41
1
10
224.534910924468
20
9.53117746774814
30
0
41
1
10
224.606373151633
20
9.50256738918822
30
0
41
1
10
226.558388596635
20
8.72022055998744
30
0
41
1
10
228.438096409618
20
7.94526108857929
30
0
41
1
10
230.319076374589
20
7.15355650237078
30
0
0
SPLINE
5
284
100
AcDbEntity
8
1
62
256
6
ByLayer
370
13
48
1
60
0
100
AcDbSpline
70
4
71
3
72
32
73
28
40
0
40
0
40
0
40
0
40
0.10864571393316
40
0.10864571393316
40
0.21729142786632
40
0.21729142786632
40
0.32593714179948
40
0.32593714179948
40
0.38025999876606
40
0.38025999876606
40
0.43458285573264
40
0.43458285573264
40
0.543228569665793
40
0.543228569665793
40
0.651874283598947
40
0.651874283598947
40
0.706197140565524
40
0.706197140565524
40
0.760519997532101
40
0.760519997532101
40
0.869165711465248
40
0.869165711465248
40
0.923488568431822
40
0.923488568431822
40
0.977811425398396
40
0.977811425398396
40
1
40
1
40
1
40
1
41
1
10
243.22625367765
20
7.79541246846426
30
0
41
1
10
242.790177494077
20
7.90372791032721
30
0
41
1
10
242.349324882822
20
7.99367506030327
30
0
41
1
10
241.458943701449
20
8.14246963515646
30
0
41
1
10
241.009402893575
20
8.2012643979279
30
0
41
1
10
240.101548421645
20
8.2902848442728
30
0
41
1
10
239.643231537612
20
8.32048830305828
30
0
41
1
10
238.948571155219
20
8.3448690339132
30
0
41
1
10
238.715814857637
20
8.3494957322861
30
0
41
1
10
238.247729813749
20
8.35169335413508
30
0
41
1
10
238.011924057273
20
8.34924225728554
30
0
41
1
10
237.306181778224
20
8.33129073787023
30
0
41
1
10
236.83670403707
20
8.30529125110093
30
0
41
1
10
235.899619044872
20
8.22547857020763
30
0
41
1
10
235.432011320908
20
8.17167853891496
30
0
41
1
10
234.731935205482
20
8.06933512985094
30
0
41
1
10
234.49879967836
20
8.03160239349228
30
0
41
1
10
234.032973633782
20
7.94858463959559
30
0
41
1
10
233.799651908002
20
7.90314979060943
30
0
41
1
10
233.108916684111
20
7.75669026080212
30
0
41
1
10
232.658621652941
20
7.64534333013361
30
0
41
1
10
232.000711757985
20
7.45616905430941
30
0
41
1
10
231.784345584068
20
7.38939513134073
30
0
41
1
10
231.358152093492
20
7.24770414610293
30
0
41
1
10
231.147480917529
20
7.17243658591477
30
0
41
1
10
230.860997524429
20
7.06182982641752
30
0
41
1
10
230.779009459255
20
7.02919799496985
30
0
41
1
10
230.698174429735
20
6.9959710536294
30
0
0
SPLINE
5
285
100
AcDbEntity
8
1
62
256
6
ByLayer
370
13
48
1
60
0
100
AcDbSpline
70
4
71
3
72
14
73
10
40
0
40
0
40
0
40
0
40
0.25
40
0.25
40
0.375000000000001
40
0.375000000000001
40
0.500000000000001
40
0.500000000000001
40
1
40
1
40
1
40
1
41
1
10
239.66395554464
20
21.2593725634971
30
0
41
1
10
239.970406982125
20
20.6095067679237
30
0
41
1
10
240.296745362943
20
19.9703783606747
30
0
41
1
10
240.820071046883
20
19.029944876029
30
0
41
1
10
241.000151987882
20
18.7195116901931
30
0
41
1
10
241.37228165889
20
18.1051069851457
30
0
41
1
10
241.564552705477
20
17.8008110985188
30
0
41
1
10
242.553983999811
20
16.3017495069752
30
0
41
1
10
243.436258649214
20
15.1733264712955
30
0
41
1
10
244.41929620808
20
14.1235619623371
30
0
0
SPLINE
5
286
100
AcDbEntity
8
1
62
256
6
ByLayer
370
13
48
1
60
0
100
AcDbSpline
70
2053
71
3
72
94
73
90
40
0
40
0
40
0
40
0
40
0.0312499999999773
40
0.0312499999999773
40
0.046874999999966
40
0.046874999999966
40
0.0624999999999547
40
0.0624999999999547
40
0.0937499999999321
40
0.0937499999999321
40
0.109374999999921
40
0.109374999999921
40
0.12499999999991
40
0.140624999999898
40
0.140624999999898
40
0.156249999999887
40
0.156249999999887
40
0.187499999999864
40
0.187499999999864
40
0.218749999999842
40
0.218749999999842
40
0.249999999999819
40
0.249999999999819
40
0.265624999999808
40
0.265624999999808
40
0.281249999999797
40
0.281249999999797
40
0.312499999999774
40
0.312499999999774
40
0.328124999999763
40
0.328124999999763
40
0.343749999999752
40
0.343749999999752
40
0.374999999999736
40
0.374999999999736
40
0.40624999999972
40
0.40624999999972
40
0.421874999999717
40
0.421874999999717
40
0.437499999999714
40
0.437499999999714
40
0.468749999999719
40
0.468749999999719
40
0.484374999999722
40
0.484374999999722
40
0.499999999999724
40
0.499999999999724
40
0.531249999999742
40
0.531249999999742
40
0.54687499999975
40
0.54687499999975
40
0.562499999999759
40
0.578124999999768
40
0.578124999999768
40
0.593749999999776
40
0.593749999999776
40
0.624999999999803
40
0.624999999999803
40
0.640624999999812
40
0.640624999999812
40
0.656249999999822
40
0.656249999999822
40
0.687499999999834
40
0.687499999999834
40
0.718749999999847
40
0.718749999999847
40
0.734374999999854
40
0.734374999999854
40
0.749999999999861
40
0.749999999999861
40
0.781249999999875
40
0.781249999999875
40
0.796874999999882
40
0.796874999999882
40
0.81249999999989
40
0.81249999999989
40
0.843749999999908
40
0.843749999999908
40
0.874999999999926
40
0.874999999999926
40
0.906249999999945
40
0.906249999999945
40
0.921874999999954
40
0.921874999999954
40
0.937499999999963
40
0.937499999999963
40
0.968749999999982
40
0.968749999999982
40
1
40
1
40
1
40
1
41
1
10
258.002789113509
20
-2.68335909881134
30
0
41
1
10
258.145778176037
20
-2.68335909881134
30
0
41
1
10
258.286227766758
20
-2.69810240722964
30
0
41
1
10
258.493253545332
20
-2.74138380068169
30
0
41
1
10
258.561649137255
20
-2.759366794844
30
0
41
1
10
258.697182748653
20
-2.80262094073314
30
0
41
1
10
258.764108887304
20
-2.82787649200512
30
0
41
1
10
258.95841884741
20
-2.91277949726253
30
0
41
1
10
259.080929691097
20
-2.98193116994398
30
0
41
1
10
259.254205215105
20
-3.10431509456916
30
0
41
1
10
259.310430465358
20
-3.14847808179019
30
0
41
1
10
259.417009554619
20
-3.24126146533814
30
0
41
1
10
259.518224730409
20
-3.33877949157264
30
0
41
1
10
259.609022742173
20
-3.44546056298549
30
0
41
1
10
259.694619024627
20
-3.55670102853011
30
0
41
1
10
259.734981970976
20
-3.61487451648213
30
0
41
1
10
259.846851558114
20
-3.79441146094248
30
0
41
1
10
259.908558175059
20
-3.91940332532258
30
0
41
1
10
260.007621751821
20
-4.17929275353663
30
0
41
1
10
260.045076447509
20
-4.31555671580551
30
0
41
1
10
260.09313588869
20
-4.58862101118163
30
0
41
1
10
260.104228420651
20
-4.72596987783592
30
0
41
1
10
260.101847855727
20
-4.93316517437322
30
0
41
1
10
260.097817802472
20
-5.00276840539002
30
0
41
1
10
260.083422429164
20
-5.14038719189111
30
0
41
1
10
260.073101122086
20
-5.20838147357327
30
0
41
1
10
260.033037435733
20
-5.40999807355709
30
0
41
1
10
259.994280501048
20
-5.54127399232397
30
0
41
1
10
259.917602569309
20
-5.73343530392492
30
0
41
1
10
259.888875323133
20
-5.79671125563951
30
0
41
1
10
259.826286057826
20
-5.91912183335873
30
0
41
1
10
259.792303860531
20
-5.97858906832175
30
0
41
1
10
259.682337348249
20
-6.15183918803592
30
0
41
1
10
259.598421739213
20
-6.26052504285849
30
0
41
1
10
259.407645165828
20
-6.46338118828143
30
0
41
1
10
259.303155129036
20
-6.55485979533114
30
0
41
1
10
259.134556099039
20
-6.67551983981477
30
0
41
1
10
259.076270378689
20
-6.71306171932082
30
0
41
1
10
258.955341815014
20
-6.78258265176171
30
0
41
1
10
258.892357248713
20
-6.81471110227474
30
0
41
1
10
258.698802716148
20
-6.90108807787288
30
0
41
1
10
258.56563353268
20
-6.94473231809238
30
0
41
1
10
258.35964231333
20
-6.98929070762682
30
0
41
1
10
258.289931711907
20
-7.0006335736831
30
0
41
1
10
258.148314708405
20
-7.01596945295049
30
0
41
1
10
258.076803858787
20
-7.01986688287869
30
0
41
1
10
257.86452699531
20
-7.02021102892681
30
0
41
1
10
257.724317438184
20
-7.00562924921448
30
0
41
1
10
257.515968586578
20
-6.96145902172779
30
0
41
1
10
257.446896129706
20
-6.94294038627666
30
0
41
1
10
257.312740799943
20
-6.89938910581938
30
0
41
1
10
257.181696755103
20
-6.8491660805723
30
0
41
1
10
257.056665366557
20
-6.78600224537291
30
0
41
1
10
256.934625963423
20
-6.71637002739786
30
0
41
1
10
256.875100532933
20
-6.67825953947425
30
0
41
1
10
256.704681429923
20
-6.55681818611657
30
0
41
1
10
256.600502503694
20
-6.46573065326587
30
0
41
1
10
256.457702846621
20
-6.31445502211633
30
0
41
1
10
256.412209148599
20
-6.26133329280012
30
0
41
1
10
256.327315852543
20
-6.1520785356004
30
0
41
1
10
256.287735444411
20
-6.09579252964076
30
0
41
1
10
256.177283653591
20
-5.92209914156925
30
0
41
1
10
256.114588424836
20
-5.79981444349394
30
0
41
1
10
256.011629389659
20
-5.54241564097737
30
0
41
1
10
255.972774846607
20
-5.41086885103465
30
0
41
1
10
255.932646227132
20
-5.20938446787616
30
0
41
1
10
255.922317759212
20
-5.14152448771753
30
0
41
1
10
255.907886033358
20
-5.00437212748645
30
0
41
1
10
255.903788357023
20
-4.93471622702313
30
0
41
1
10
255.901279227225
20
-4.7267222641467
30
0
41
1
10
255.91239190577
20
-4.58940728971106
30
0
41
1
10
255.948152745278
20
-4.38547537614608
30
0
41
1
10
255.963275802829
20
-4.31784080783561
30
0
41
1
10
256.000178139766
20
-4.18329433725913
30
0
41
1
10
256.022070326981
20
-4.11618187702757
30
0
41
1
10
256.096549289089
20
-3.92034193215838
30
0
41
1
10
256.158145438717
20
-3.79568813125107
30
0
41
1
10
256.305534819866
20
-3.55846531391703
30
0
41
1
10
256.392512811981
20
-3.44488464659685
30
0
41
1
10
256.584798992875
20
-3.24002736449086
30
0
41
1
10
256.690375492753
20
-3.1477555832233
30
0
41
1
10
256.863284303283
20
-3.02510144146604
30
0
41
1
10
256.923733275821
20
-2.98667485767251
30
0
41
1
10
257.047189246233
20
-2.91682465145937
30
0
41
1
10
257.110311688456
20
-2.88526319199602
30
0
41
1
10
257.303783560301
20
-2.80049619641278
30
0
41
1
10
257.438437975447
20
-2.75705110006203
30
0
41
1
10
257.718203964282
20
-2.69812645440032
30
0
41
1
10
257.859800050981
20
-2.68335909881134
30
0
41
1
10
258.002789113509
20
-2.68335909881134
30
0
0
SPLINE
5
287
100
AcDbEntity
8
1
62
256
6
ByLayer
370
13
48
1
60
0
100
AcDbSpline
70
4
71
3
72
14
73
10
40
0
40
0
40
0
40
0
40
0.125000000000054
40
0.125000000000054
40
0.250000000000107
40
0.250000000000107
40
0.500000000000071
40
0.500000000000071
40
1
40
1
40
1
40
1
41
1
10
259.762708723845
20
7.53931284768041
30
0
41
1
10
259.799334960754
20
7.54123234742033
30
0
41
1
10
259.836663465276
20
7.54405697165134
30
0
41
1
10
259.9105441693
20
7.5514123722989
30
0
41
1
10
259.947318261127
20
7.55594774198795
30
0
41
1
10
260.057213947035
20
7.57210868780686
30
0
41
1
10
260.129908900444
20
7.58628041901417
30
0
41
1
10
260.346835960251
20
7.63915124233452
30
0
41
1
10
260.489843189205
20
7.68798884973054
30
0
41
1
10
260.633042717522
20
7.75289725498141
30
0
0
SPLINE
5
288
100
AcDbEntity
8
1
62
256
6
ByLayer
370
13
48
1
60
0
100
AcDbSpline
70
4
71
3
72
10
73
6
40
0
40
0
40
0
40
0
40
0.5
40
0.5
40
1
40
1
40
1
40
1
41
1
10
264.289354276367
20
-4.17102741750145
30
0
41
1
10
264.34437669236
20
-4.46693878574516
30
0
41
1
10
264.378379113057
20
-4.7624033366337
30
0
41
1
10
264.406907900098
20
-5.35227072920023
30
0
41
1
10
264.4014268976
20
-5.6466741330394
30
0
41
1
10
264.37623903577
20
-5.94051455897755
30
0
0
SPLINE
5
289
100
AcDbEntity
8
1
62
256
6
ByLayer
370
13
48
1
60
0
100
AcDbSpline
70
4
71
3
72
25
73
21
40
0
40
0
40
0
40
0
40
0.0625000000000005
40
0.0625000000000005
40
0.125000000000001
40
0.125000000000001
40
0.250000000000002
40
0.250000000000002
40
0.281250000000002
40
0.281250000000002
40
0.312500000000002
40
0.375000000000002
40
0.375000000000002
40
0.500000000000001
40
0.500000000000001
40
0.625000000000001
40
0.625000000000001
40
0.750000000000001
40
0.750000000000001
40
1
40
1
40
1
40
1
41
1
10
31.2506500648828
20
-8.94449278929616
30
0
41
1
10
30.9123500749746
20
-9.01915469551173
30
0
41
1
10
30.5757936105969
20
-9.10043008548195
30
0
41
1
10
29.9061911898325
20
-9.27629680898815
30
0
41
1
10
29.5723844814089
20
-9.37113507369389
30
0
41
1
10
28.5838516534029
20
-9.67350899312513
30
0
41
1
10
27.9411350988231
20
-9.89891941844965
30
0
41
1
10
27.1574563875216
20
-10.20949588252
30
0
41
1
10
27.001908515778
20
-10.2733470711717
30
0
41
1
10
26.6919277953069
20
-10.4026788885405
30
0
41
1
10
26.2258413364177
20
-10.5950466555054
30
0
41
1
10
25.7564249696036
20
-10.7825482579976
30
0
41
1
10
24.8131879988267
20
-11.1511153263608
30
0
41
1
10
24.178493333915
20
-11.3882485486473
30
0
41
1
10
22.8974942695198
20
-11.8455490953088
30
0
41
1
10
22.2507948535706
20
-12.0658417711956
30
0
41
1
10
20.9478767278567
20
-12.4888981395523
30
0
41
1
10
20.2919243674447
20
-12.6915900088578
30
0
41
1
10
18.3107400127669
20
-13.2734568061877
30
0
41
1
10
16.9722015150995
20
-13.6264637690435
30
0
41
1
10
15.6160502116137
20
-13.9448341880027
30
0
0
SPLINE
5
28A
100
AcDbEntity
8
1
62
256
6
ByLayer
370
13
48
1
60
0
100
AcDbSpline
70
4
71
3
72
18
73
14
40
0
40
0
40
0
40
0
40
0.250000000000172
40
0.250000000000172
40
0.375000000000145
40
0.375000000000145
40
0.500000000000117
40
0.500000000000117
40
0.750000000000059
40
0.750000000000059
40
0.875000000000029
40
0.875000000000029
40
1
40
1
40
1
40
1
41
1
10
262.892767032725
20
7.90362672187493
30
0
41
1
10
262.950143375315
20
7.90663368857352
30
0
41
1
10
263.00790019997
20
7.89945910900337
30
0
41
1
10
263.089198500554
20
7.87608295122681
30
0
41
1
10
263.115080972485
20
7.86631174407489
30
0
41
1
10
263.163228505424
20
7.8443673277776
30
0
41
1
10
263.185882986987
20
7.83197605702262
30
0
41
1
10
263.245871405469
20
7.79505186753377
30
0
41
1
10
263.276691628692
20
7.77018391036859
30
0
41
1
10
263.308902401287
20
7.74454421756255
30
0
41
1
10
263.317575045892
20
7.73771868473409
30
0
41
1
10
263.330658044538
20
7.72878222191969
30
0
41
1
10
263.335215172146
20
7.72653997711029
30
0
41
1
10
263.337875860782
20
7.72667941789308
30
0
0
SPLINE
5
28B
100
AcDbEntity
8
1
62
256
6
ByLayer
370
13
48
1
60
0
100
AcDbSpline
70
4
71
3
72
18
73
14
40
0
40
0
40
0
40
0
40
0.125
40
0.125
40
0.25
40
0.25
40
0.375
40
0.375
40
0.5
40
0.5
40
0.75
40
0.75
40
1
40
1
40
1
40
1
41
1
10
129
20
-7.83497173276953
30
0
41
1
10
125.375002829217
20
-7.84664335866756
30
0
41
1
10
121.749996606601
20
-7.85668679269392
30
0
41
1
10
114.499988879676
20
-7.86377276465782
30
0
41
1
10
110.874993326851
20
-7.86030045649139
30
0
41
1
10
103.625001550141
20
-7.85389897692482
30
0
41
1
10
100.000003708196
20
-7.85234209050344
30
0
41
1
10
92.7500043306119
20
-7.85235464288667
30
0
41
1
10
89.125003668017
20
-7.85318248367486
30
0
41
1
10
78.2500024506135
20
-7.85502296759154
30
0
41
1
10
71.0000015939104
20
-7.85629191505069
30
0
41
1
10
56.5000009191032
20
-7.85768135361187
30
0
41
1
10
49.2500010407718
20
-7.85786508968866
30
0
41
1
10
42
20
-7.85931038500311
30
0
0
SPLINE
5
28C
100
AcDbEntity
8
1
62
256
6
ByLayer
370
13
48
1
60
0
100
AcDbSpline
70
4
71
3
72
8
73
4
40
0
40
0
40
0
40
0
40
1
40
1
40
1
40
1
41
1
10
243.226253677654
20
7.79541246847705
30
0
41
1
10
243.27214854917
20
7.93984700695597
30
0
41
1
10
243.31585293851
20
8.08470620126238
30
0
41
1
10
243.358017130367
20
8.22986398454745
30
0
0
SPLINE
5
28D
100
AcDbEntity
8
1
62
256
6
ByLayer
370
13
48
1
60
0
100
AcDbSpline
70
4
71
3
72
47
73
43
40
0
40
0
40
0
40
0
40
0.125
40
0.125
40
0.250000000000001
40
0.250000000000001
40
0.312499999999999
40
0.312499999999999
40
0.375000000000001
40
0.375000000000001
40
0.406250000000006
40
0.406250000000006
40
0.437500000000011
40
0.437500000000011
40
0.500000000000014
40
0.500000000000014
40
0.562500000000016
40
0.562500000000016
40
0.578125000000015
40
0.578125000000015
40
0.593750000000014
40
0.593750000000014
40
0.625000000000012
40
0.625000000000012
40
0.687500000000007
40
0.687500000000007
40
0.703125000000009
40
0.703125000000009
40
0.71875000000001
40
0.71875000000001
40
0.750000000000009
40
0.781250000000007
40
0.781250000000007
40
0.812500000000005
40
0.812500000000005
40
0.875000000000004
40
0.875000000000004
40
0.906250000000003
40
0.906250000000003
40
0.937500000000002
40
0.937500000000002
40
1
40
1
40
1
40
1
41
1
10
244.048519415701
20
1.67597882687457
30
0
41
1
10
244.869472981942
20
1.5172352752781
30
0
41
1
10
245.696085510513
20
1.37339413070481
30
0
41
1
10
247.368330370934
20
1.13579891290954
30
0
41
1
10
248.213883593861
20
1.04183651291552
30
0
41
1
10
249.504170384745
20
0.958714733183484
30
0
41
1
10
249.939318462565
20
0.940776552707575
30
0
41
1
10
250.804186573586
20
0.929164880408365
30
0
41
1
10
251.235249886451
20
0.935329158020636
30
0
41
1
10
251.879420466672
20
0.965746735320238
30
0
41
1
10
252.093738965295
20
0.979422866411454
30
0
41
1
10
252.521487861276
20
1.0145305400066
30
0
41
1
10
252.735538203653
20
1.03603865903247
30
0
41
1
10
253.371717714844
20
1.11287609573981
30
0
41
1
10
253.784956072522
20
1.18001266963691
30
0
41
1
10
254.587247983072
20
1.34965096199781
30
0
41
1
10
254.976337545702
20
1.45210002383291
30
0
41
1
10
255.445117361781
20
1.60587149554061
30
0
41
1
10
255.53798860067
20
1.63791951145674
30
0
41
1
10
255.721872355598
20
1.70473353099783
30
0
41
1
10
255.813035701223
20
1.73956885708452
30
0
41
1
10
256.080704637564
20
1.8471704374422
30
0
41
1
10
256.252283870478
20
1.92332577588931
30
0
41
1
10
256.745993351166
20
2.16533023026943
30
0
41
1
10
257.047261769396
20
2.34461066058247
30
0
41
1
10
257.385503894497
20
2.59339753902714
30
0
41
1
10
257.451183165127
20
2.64439044417316
30
0
41
1
10
257.577071609466
20
2.74765764043735
30
0
41
1
10
257.637489246606
20
2.80008045631001
30
0
41
1
10
257.811253228849
20
2.95968818627958
30
0
41
1
10
258.022993352321
20
3.17872867894761
30
0
41
1
10
258.195189040907
20
3.41012148479837
30
0
41
1
10
258.347377062054
20
3.64776399367239
30
0
41
1
10
258.413719286441
20
3.77041958287137
30
0
41
1
10
258.578820282366
20
4.1406532570515
30
0
41
1
10
258.645098185765
20
4.39142662046152
30
0
41
1
10
258.683909067641
20
4.77305485734499
30
0
41
1
10
258.686657094688
20
4.90159295453469
30
0
41
1
10
258.672197986937
20
5.15860013881479
30
0
41
1
10
258.655114690611
20
5.28621920524836
30
0
41
1
10
258.576465948573
20
5.66661693394832
30
0
41
1
10
258.487641373497
20
5.91694866797585
30
0
41
1
10
258.365887795395
20
6.16432451495686
30
0
0
SPLINE
5
28E
100
AcDbEntity
8
1
62
256
6
ByLayer
370
13
48
1
60
0
100
AcDbSpline
70
4
71
3
72
46
73
42
40
0
40
0
40
0
40
0
40
0.0101392274552164
40
0.0961565943044477
40
0.188567388617049
40
0.287465358981064
40
0.392880194481569
40
0.504772819660394
40
0.514714860669876
40
0.524968763754798
40
0.535535265219156
40
0.546415081114978
40
0.557608905158955
40
0.569117406407172
40
0.580941226704687
40
0.593080977923994
40
0.605537239004296
40
0.618310552801971
40
0.631401422761436
40
0.644810309414744
40
0.658537626717781
40
0.672583738230532
40
0.686948953148834
40
0.701633522195052
40
0.716637633375317
40
0.731961407611332
40
0.747604894255156
40
0.763568066495979
40
0.779850816668496
40
0.796452951473296
40
0.813374187120435
40
0.830614144408293
40
0.848172343750798
40
0.86604820016709
40
0.884241018248843
40
0.902749987121598
40
0.921574175417685
40
0.940712526279605
40
0.960163852414019
40
0.979926831217927
40
1
40
1
40
1
40
1
41
1
10
33.8000190965606
20
-8.08393574419298
30
0
41
1
10
33.8073868598533
20
-8.0996412943872
30
0
41
1
10
33.8776742079869
20
-8.24879672608458
30
0
41
1
10
34.0231577419141
20
-8.5451295618802
30
0
41
1
10
34.258620301797
20
-8.98814747066029
30
0
41
1
10
34.5343901417508
20
-9.46663577574398
30
0
41
1
10
34.8530428448834
20
-9.97718846402199
30
0
41
1
10
35.0986271265262
20
-10.3412830928714
30
0
41
1
10
35.2453934544314
20
-10.5506956627905
30
0
41
1
10
35.2796917044399
20
-10.5994137645608
30
0
41
1
10
35.315181145927
20
-10.649535348223
30
0
41
1
10
35.3518799958225
20
-10.7010474107749
30
0
41
1
10
35.3898104349008
20
-10.7539313266112
30
0
41
1
10
35.428992887314
20
-10.8081683306518
30
0
41
1
10
35.4694474882067
20
-10.8637378997567
30
0
41
1
10
35.511193533747
20
-10.9206181216873
30
0
41
1
10
35.5542494898333
20
-10.9787855081443
30
0
41
1
10
35.5986328393094
20
-11.0382149631242
30
0
41
1
10
35.6443599688127
20
-11.0988797082411
30
0
41
1
10
35.6914460391962
20
-11.1607512206081
30
0
41
1
10
35.7399048552203
20
-11.2237991680632
30
0
41
1
10
35.7897487302419
20
-11.2879913462644
30
0
41
1
10
35.8409883472166
20
-11.3532936166994
30
0
41
1
10
35.8936326158069
20
-11.4196698461885
30
0
41
1
10
35.9476885258433
20
-11.4870818480489
30
0
41
1
10
36.0031609972961
20
-11.5554893252139
30
0
41
1
10
36.0600527269748
20
-11.6248498155736
30
0
41
1
10
36.1183640321977
20
-11.6951186398493
30
0
41
1
10
36.1780926916999
20
-11.7662488522023
30
0
41
1
10
36.2392337841128
20
-11.8381911942489
30
0
41
1
10
36.3017795242639
20
-11.9108940513825
30
0
41
1
10
36.3657190980396
20
-11.9843034171436
30
0
41
1
10
36.4310384948442
20
-12.0583628451525
30
0
41
1
10
36.4977203434296
20
-12.1330134687773
30
0
41
1
10
36.5657437312157
20
-12.2081937827431
30
0
41
1
10
36.6350840857405
20
-12.2838403601859
30
0
41
1
10
36.7057128197085
20
-12.3598850120217
30
0
41
1
10
36.7775978853527
20
-12.436265591098
30
0
41
1
10
36.8507008573474
20
-12.5128846208558
30
0
41
1
10
36.9249873013663
20
-12.5897674732573
30
0
41
1
10
36.9748663037444
20
-12.6405007300868
30
0
41
1
10
37
20
-12.6660648794565
30
0
0
SPLINE
5
28F
100
AcDbEntity
8
1
62
256
6
ByLayer
370
13
48
1
60
0
100
AcDbSpline
70
4
71
3
72
12
73
8
40
0
40
0
40
0
40
0
40
0.577325018697773
40
0.577325018697773
40
0.86598752804666
40
0.86598752804666
40
1
40
1
40
1
40
1
41
1
10
6.91765799380032
20
-23.3443597991706
30
0
41
1
10
7.24436351126936
20
-22.0739106085029
30
0
41
1
10
7.67546137655877
20
-20.8244622815059
30
0
41
1
10
8.48441272199894
20
-18.9810512900277
30
0
41
1
10
8.78133681442735
20
-18.3717559317615
30
0
41
1
10
9.25863785148904
20
-17.4874729941021
30
0
41
1
10
9.41597467733781
20
-17.2088016428927
30
0
41
1
10
9.57877186677153
20
-16.9329498112672
30
0
0
SPLINE
5
290
100
AcDbEntity
8
1
62
256
6
ByLayer
370
13
48
1
60
0
100
AcDbSpline
70
4
71
3
72
10
73
6
40
0
40
0
40
0
40
0
40
0.5
40
0.5
40
1
40
1
40
1
40
1
41
1
10
239.428955191327
20
2.69154294484613
30
0
41
1
10
237.896651949459
20
3.38992199317133
30
0
41
1
10
236.371786610724
20
4.11237961038285
30
0
41
1
10
233.335509940839
20
5.60084922333383
30
0
41
1
10
231.824109678267
20
6.36689705114608
30
0
41
1
10
230.319076374589
20
7.15355650237078
30
0
0
SPLINE
5
291
100
AcDbEntity
8
1
62
256
6
ByLayer
370
13
48
1
60
0
100
AcDbSpline
70
4
71
1
72
4
73
2
40
0
40
0
40
1
40
1
41
1
10
37.0100000006176
20
-21.2273785608337
30
0
41
1
10
37.0099999993824
20
-21.2412059087487
30
0
0
SPLINE
5
292
100
AcDbEntity
8
1
62
256
6
ByLayer
370
13
48
1
60
0
100
AcDbSpline
70
4
71
3
72
20
73
16
40
0
40
0
40
0
40
0
40
0.0625000000000005
40
0.0625000000000005
40
0.125000000000001
40
0.125000000000001
40
0.250000000000001
40
0.250000000000001
40
0.375000000000001
40
0.375000000000001
40
0.500000000000001
40
0.500000000000001
40
0.75
40
0.75
40
1
40
1
40
1
40
1
41
1
10
129
20
-21.6216438373226
30
0
41
1
10
127.187518033875
20
-21.6271086973152
30
0
41
1
10
125.375031328321
20
-21.6324456723974
30
0
41
1
10
121.750045831787
20
-21.642805088174
30
0
41
1
10
119.93754558943
20
-21.6478126118328
30
0
41
1
10
114.500045373279
20
-21.6625281809405
30
0
41
1
10
110.875042330934
20
-21.6720085033772
30
0
41
1
10
103.625035337586
20
-21.6908668697086
30
0
41
1
10
100.000031416268
20
-21.7002475098441
30
0
41
1
10
92.7500249496399
20
-21.7191691362358
30
0
41
1
10
89.1250223805443
20
-21.7287079029899
30
0
41
1
10
78.2500174299997
20
-21.7576455376679
30
0
41
1
10
71.0000171679631
20
-21.7772745545461
30
0
41
1
10
56.5000107641464
20
-21.8159226274826
30
0
41
1
10
49.2500041642263
20
-21.8349138894637
30
0
41
1
10
42
20
-21.8541403864538
30
0
0
SPLINE
5
293
100
AcDbEntity
8
1
62
256
6
ByLayer
370
13
48
1
60
0
100
AcDbSpline
70
4
71
3
72
12
73
8
40
0
40
0
40
0
40
0
40
0.249999999999999
40
0.249999999999999
40
0.499999999999997
40
0.499999999999997
40
1
40
1
40
1
40
1
41
1
10
243.80495861731
20
10.2321142233413
30
0
41
1
10
243.810751395519
20
10.2540658360215
30
0
41
1
10
243.823956992219
20
10.2735085537149
30
0
41
1
10
243.857008594986
20
10.304637227308
30
0
41
1
10
243.876943426319
20
10.3167923151217
30
0
41
1
10
243.940151127168
20
10.3449062633322
30
0
41
1
10
243.987509865077
20
10.3533495787971
30
0
41
1
10
244.035537765931
20
10.3545705300464
30
0
0
SPLINE
5
294
100
AcDbEntity
8
1
62
256
6
ByLayer
370
13
48
1
60
0
100
AcDbSpline
70
4
71
3
72
8
73
4
40
0
40
0
40
0
40
0
40
1
40
1
40
1
40
1
41
1
10
37.45
20
-21.2274706754732
30
0
41
1
10
37.3033333328456
20
-21.227441732889
30
0
41
1
10
37.1566666661445
20
-21.2274110464126
30
0
41
1
10
37.01
20
-21.2273785608337
30
0
0
SPLINE
5
295
100
AcDbEntity
8
1
62
256
6
ByLayer
370
13
48
1
60
0
100
AcDbSpline
70
4
71
3
72
26
73
22
40
0
40
0
40
0
40
0
40
0.0864491361501352
40
0.0864491361501352
40
0.17289827230027
40
0.17289827230027
40
0.345796544600543
40
0.345796544600543
40
0.432245680750678
40
0.432245680750678
40
0.518694816900813
40
0.518694816900813
40
0.691593089201084
40
0.691593089201084
40
0.77804222535122
40
0.77804222535122
40
0.864491361501356
40
0.864491361501356
40
0.950940497651492
40
0.950940497651492
40
1
40
1
40
1
40
1
41
1
10
239.776212477864
20
21.4405634431662
30
0
41
1
10
238.66971484073
20
21.5192678752021
30
0
41
1
10
237.563334845768
20
21.5810101026079
30
0
41
1
10
235.349850111747
20
21.6702346447828
30
0
41
1
10
234.243031728903
20
21.6976880967605
30
0
41
1
10
230.925964599366
20
21.7284014702271
30
0
41
1
10
228.717208962403
20
21.6800774212006
30
0
41
1
10
225.402673432225
20
21.5052854268321
30
0
41
1
10
224.297600507448
20
21.4299782138418
30
0
41
1
10
222.086195567355
20
21.2454576500885
30
0
41
1
10
220.979262250655
20
21.1361694539447
30
0
41
1
10
217.660060861986
20
20.7582291689547
30
0
41
1
10
215.451116624025
20
20.4397612089258
30
0
41
1
10
212.137443597124
20
19.8670141613542
30
0
41
1
10
211.032844792239
20
19.6602721355886
30
0
41
1
10
208.822607233599
20
19.2160420885851
30
0
41
1
10
207.717243154078
20
18.9782251982274
30
0
41
1
10
205.502734518261
20
18.4749378172974
30
0
41
1
10
204.393535408061
20
18.2097192894422
30
0
41
1
10
202.651192980968
20
17.7789565758881
30
0
41
1
10
202.019416887558
20
17.6199890161964
30
0
41
1
10
201.38653105934
20
17.4584154064443
30
0
0
SPLINE
5
296
100
AcDbEntity
8
1
62
256
6
ByLayer
370
13
48
1
60
0
100
AcDbSpline
70
4
71
3
72
10
73
6
40
0
40
0
40
0
40
0
40
0.802407734065256
40
0.802407734065256
40
1
40
1
40
1
40
1
41
1
10
243.359718048062
20
8.2352885831163
30
0
41
1
10
239.107692404784
20
8.3861822268274
30
0
41
1
10
234.86007207668
20
8.43797276871965
30
0
41
1
10
229.566320106786
20
8.37984167167869
30
0
41
1
10
228.520302332343
20
8.3623998083668
30
0
41
1
10
227.474210452828
20
8.33908593654513
30
0
0
SPLINE
5
297
100
AcDbEntity
8
1
62
256
6
ByLayer
370
13
48
1
60
0
100
AcDbSpline
70
4
71
3
72
8
73
4
40
0
40
0
40
0
40
0
40
1
40
1
40
1
40
1
41
1
10
229.913346411547
20
7.29975841616951
30
0
41
1
10
230.048668181067
20
7.2505159862273
30
0
41
1
10
230.183912362555
20
7.20177643785271
30
0
41
1
10
230.319076374589
20
7.15355650237078
30
0
0
SPLINE
5
298
100
AcDbEntity
8
1
62
256
6
ByLayer
370
13
48
1
60
0
100
AcDbSpline
70
4
71
3
72
10
73
6
40
0
40
0
40
0
40
0
40
0.5
40
0.5
40
1
40
1
40
1
40
1
41
1
10
251.62223741031
20
7.07828264839389
30
0
41
1
10
251.672552968059
20
7.07574048026996
30
0
41
1
10
251.720980192398
20
7.06834298254816
30
0
41
1
10
251.813185285845
20
7.04855967792156
30
0
41
1
10
251.855975529441
20
7.03656178105501
30
0
41
1
10
251.894599543143
20
7.02641797158662
30
0
0
SPLINE
5
299
100
AcDbEntity
8
1
62
256
6
ByLayer
370
13
48
1
60
0
100
AcDbSpline
70
4
71
3
72
12
73
8
40
0
40
0
40
0
40
0
40
0.25
40
0.25
40
0.5
40
0.5
40
1
40
1
40
1
40
1
41
1
10
253.583249536356
20
5.44490429751585
30
0
41
1
10
253.877450784247
20
5.54962629494568
30
0
41
1
10
254.165160632453
20
5.6377411959582
30
0
41
1
10
254.729459743515
20
5.78752905561757
30
0
41
1
10
255.006022052592
20
5.84914570614677
30
0
41
1
10
255.819668687692
20
6.00093767717979
30
0
41
1
10
256.340949709899
20
6.05820200672028
30
0
41
1
10
256.838552802753
20
6.0842802797815
30
0
0
SPLINE
5
29A
100
AcDbEntity
8
1
62
256
6
ByLayer
370
13
48
1
60
0
100
AcDbSpline
70
4
71
3
72
38
73
34
40
0
40
0
40
0
40
0
40
0.125
40
0.125
40
0.1875
40
0.1875
40
0.21875
40
0.21875
40
0.25
40
0.25
40
0.375
40
0.375
40
0.40625
40
0.40625
40
0.4375
40
0.4375
40
0.5
40
0.5
40
0.5625
40
0.5625
40
0.59375
40
0.59375
40
0.625
40
0.625
40
0.6875
40
0.6875
40
0.75
40
0.75
40
0.875
40
0.875
40
0.9375
40
0.9375
40
1
40
1
40
1
40
1
41
1
10
5.90790000000001
20
-5.56776436283013
30
0
41
1
10
6.33978614979276
20
-5.22708880150492
30
0
41
1
10
6.74032525552445
20
-4.856097660475
30
0
41
1
10
7.28618978262293
20
-4.24647473632518
30
0
41
1
10
7.45892887210466
20
-4.03435458342847
30
0
41
1
10
7.70243923299118
20
-3.7010893368915
30
0
41
1
10
7.78074270729354
20
-3.58779907415226
30
0
41
1
10
7.9301612631441
20
-3.35853195397865
30
0
41
1
10
8.00147062929764
20
-3.24229337404938
30
0
41
1
10
8.34055611908271
20
-2.65285737851286
30
0
41
1
10
8.55666042609896
20
-2.15526689139943
30
0
41
1
10
8.74415642456432
20
-1.49426899725819
30
0
41
1
10
8.7775186075615
20
-1.35970996522593
30
0
41
1
10
8.83445395755454
20
-1.09111365067847
30
0
41
1
10
8.85819539813726
20
-0.956578160968263
30
0
41
1
10
8.91533849822729
20
-0.552264589660325
30
0
41
1
10
8.93469110645671
20
-0.281781021352032
30
0
41
1
10
8.93565284498675
20
0.261081440547514
30
0
41
1
10
8.91726565970119
20
0.533460149122362
30
0
41
1
10
8.86037984029883
20
0.943499793011938
30
0
41
1
10
8.83662141392139
20
1.07952889422296
30
0
41
1
10
8.78026693919712
20
1.34799103969695
30
0
41
1
10
8.7476207654276
20
1.48079766138071
30
0
41
1
10
8.63678805335729
20
1.87510756783408
30
0
41
1
10
8.545739299172
20
2.13251108583745
30
0
41
1
10
8.33117678184207
20
2.63697006315871
30
0
41
1
10
8.20688719709862
20
2.88503856348712
30
0
41
1
10
7.79754581024348
20
3.59712978618509
30
0
41
1
10
7.47466953493986
20
4.03508259429049
30
0
41
1
10
6.92843492901517
20
4.64645352349172
30
0
41
1
10
6.73526707767002
20
4.84314309613799
30
0
41
1
10
6.33307569503071
20
5.21847878014478
30
0
41
1
10
6.12410436080734
20
5.39722047756234
30
0
41
1
10
5.90790000000003
20
5.56776436283008
30
0
0
SPLINE
5
29B
100
AcDbEntity
8
1
62
256
6
ByLayer
370
13
48
1
60
0
100
AcDbSpline
70
4
71
3
72
8
73
4
40
0
40
0
40
0
40
0
40
1
40
1
40
1
40
1
41
1
10
37
20
-21.8541753248575
30
0
41
1
10
36.4131199141944
20
-21.854185515723
30
0
41
1
10
35.8281258071947
20
-21.878699319348
30
0
41
1
10
35.2449980546052
20
-21.9274614974566
30
0
0
SPLINE
5
29C
100
AcDbEntity
8
1
62
256
6
ByLayer
370
13
48
1
60
0
100
AcDbSpline
70
4
71
3
72
8
73
4
40
0
40
0
40
0
40
0
40
1
40
1
40
1
40
1
41
1
10
42
20
-7.85931038500306
30
0
41
1
10
40.3333333230997
20
-7.85948427970735
30
0
41
1
10
38.6666666514442
20
-7.85972226426
30
0
41
1
10
37
20
-7.86004506345429
30
0
0
SPLINE
5
29D
100
AcDbEntity
8
1
62
256
6
ByLayer
370
13
48
1
60
0
100
AcDbSpline
70
4
71
3
72
16
73
12
40
0
40
0
40
0
40
0
40
0.250000000000002
40
0.250000000000002
40
0.375000000000003
40
0.375000000000003
40
0.500000000000004
40
0.500000000000004
40
0.750000000000002
40
0.750000000000002
40
1
40
1
40
1
40
1
41
1
10
31.2506500648841
20
-8.9444927893002
30
0
41
1
10
31.5531701218204
20
-8.76940697329587
30
0
41
1
10
31.8648020458752
20
-8.61515374880881
30
0
41
1
10
32.3459250343421
20
-8.41448253255103
30
0
41
1
10
32.508585631689
20
-8.3527280963857
30
0
41
1
10
32.838566217969
20
-8.23961326284277
30
0
41
1
10
33.0061987550725
20
-8.18816923035823
30
0
41
1
10
33.5142313166329
20
-8.05038401914712
30
0
41
1
10
33.8560132641562
20
-7.98143665089637
30
0
41
1
10
34.5457910711269
20
-7.88831661423819
30
0
41
1
10
34.8937868252781
20
-7.86414592728201
30
0
41
1
10
35.2449980616191
20
-7.86302105005251
30
0
0
SPLINE
5
29E
100
AcDbEntity
8
1
62
256
6
ByLayer
370
13
48
1
60
0
100
AcDbSpline
70
4
71
3
72
10
73
6
40
0
40
0
40
0
40
0
40
0.5
40
0.5
40
1
40
1
40
1
40
1
41
1
10
255.13675831441
20
7.49715152884815
30
0
41
1
10
255.167337119695
20
7.49875409612625
30
0
41
1
10
255.198275052233
20
7.49748355218645
30
0
41
1
10
255.258456623206
20
7.48966302944439
30
0
41
1
10
255.287865549189
20
7.48315615721785
30
0
41
1
10
255.31656661371
20
7.47427254876925
30
0
0
SPLINE
5
29F
100
AcDbEntity
8
1
62
256
6
ByLayer
370
13
48
1
60
0
100
AcDbSpline
70
4
71
3
72
10
73
6
40
0
40
0
40
0
40
0
40
0.5
40
0.5
40
1
40
1
40
1
40
1
41
1
10
245.432035426351
20
10.2612898172912
30
0
41
1
10
245.686948393105
20
10.2131346237589
30
0
41
1
10
245.932795807336
20
10.1836668532255
30
0
41
1
10
246.415047819875
20
10.1483222335026
30
0
41
1
10
246.651314290173
20
10.1423458698587
30
0
41
1
10
246.884617934551
20
10.1440794099602
30
0
0
SPLINE
5
2A0
100
AcDbEntity
8
1
62
256
6
ByLayer
370
13
48
1
60
0
100
AcDbSpline
70
4
71
3
72
66
73
62
40
0
40
0
40
0
40
0
40
0.0155427936669612
40
0.0155427936669612
40
0.0344746630195191
40
0.0344746630195191
40
0.053406532372077
40
0.053406532372077
40
0.0628724670483561
40
0.0628724670483561
40
0.0723384017246353
40
0.0723384017246353
40
0.091270271077194
40
0.091270271077194
40
0.110202140429753
40
0.110202140429753
40
0.129134009782312
40
0.129134009782312
40
0.14806587913487
40
0.14806587913487
40
0.166997748487429
40
0.166997748487429
40
0.185929617839988
40
0.185929617839988
40
0.204861487192547
40
0.204861487192547
40
0.223793356545105
40
0.223793356545105
40
0.242725225897664
40
0.242725225897664
40
0.280588964602781
40
0.280588964602781
40
0.318452703307898
40
0.318452703307898
40
0.337384572660457
40
0.337384572660457
40
0.346850507336736
40
0.346850507336736
40
0.356316442013015
40
0.356316442013015
40
0.375248311365574
40
0.375248311365574
40
0.394180180718132
40
0.394180180718132
40
0.432043919423249
40
0.432043919423249
40
0.469907658128365
40
0.469907658128365
40
0.507771396833482
40
0.507771396833482
40
0.545635135538599
40
0.545635135538599
40
0.583498874243716
40
0.583498874243716
40
0.621362612948833
40
0.621362612948833
40
0.697090090359066
40
0.697090090359066
40
0.848545045179533
40
0.848545045179533
40
1
40
1
40
1
40
1
41
1
10
203.117790400811
20
-17.9335590895491
30
0
41
1
10
202.319365503979
20
-18.1210499567682
30
0
41
1
10
201.52081310728
20
-18.3011680035725
30
0
41
1
10
199.749846649351
20
-18.6820597755018
30
0
41
1
10
198.777093044653
20
-18.8789685076379
30
0
41
1
10
196.82883449663
20
-19.2446741997383
30
0
41
1
10
195.853446676242
20
-19.4124182241109
30
0
41
1
10
194.385265439542
20
-19.6447029991072
30
0
41
1
10
193.895007554503
20
-19.7190247684637
30
0
41
1
10
192.912222823446
20
-19.8626321756566
30
0
41
1
10
192.419655545473
20
-19.9320813534372
30
0
41
1
10
190.938325752677
20
-20.1330171793838
30
0
41
1
10
189.946051168568
20
-20.2567072783791
30
0
41
1
10
187.951817056941
20
-20.477873581481
30
0
41
1
10
186.949260092457
20
-20.5753266069546
30
0
41
1
10
184.9387758979
20
-20.7430380344443
30
0
41
1
10
183.930380376102
20
-20.8140183511808
30
0
41
1
10
181.907570932877
20
-20.9371646394853
30
0
41
1
10
180.893184482207
20
-20.989579024948
30
0
41
1
10
178.858925078109
20
-21.0826170138034
30
0
41
1
10
177.839007827809
20
-21.1227548382093
30
0
41
1
10
175.793402284832
20
-21.1909894457296
30
0
41
1
10
174.767715123714
20
-21.2190953566696
30
0
41
1
10
172.710273610789
20
-21.2640223798254
30
0
41
1
10
171.678068549048
20
-21.2805418211885
30
0
41
1
10
169.609346222726
20
-21.3041452151065
30
0
41
1
10
168.573103816862
20
-21.3114115128039
30
0
41
1
10
166.496418710729
20
-21.3203911683352
30
0
41
1
10
165.456000078916
20
-21.3220175818719
30
0
41
1
10
162.328521388304
20
-21.3204522801565
30
0
41
1
10
160.235246823651
20
-21.3108862393743
30
0
41
1
10
156.031934795063
20
-21.2843355502133
30
0
41
1
10
153.920216778141
20
-21.2665011669348
30
0
41
1
10
150.751816505004
20
-21.2462749672026
30
0
41
1
10
149.695155892924
20
-21.2406455460077
30
0
41
1
10
148.109344377142
20
-21.2356472429746
30
0
41
1
10
147.580602483422
20
-21.2345104058225
30
0
41
1
10
146.522864705124
20
-21.2348628182054
30
0
41
1
10
145.993871030173
20
-21.2362001541218
30
0
41
1
10
144.406637367309
20
-21.2391409600476
30
0
41
1
10
143.348168787154
20
-21.2377328886054
30
0
41
1
10
141.230887900923
20
-21.2327819216784
30
0
41
1
10
140.172075663349
20
-21.2300689515207
30
0
41
1
10
136.995281025203
20
-21.222961270334
30
0
41
1
10
134.877202290724
20
-21.2199900257069
30
0
41
1
10
130.641254656996
20
-21.2211919882837
30
0
41
1
10
128.52328387273
20
-21.2251342264544
30
0
41
1
10
124.287335676951
20
-21.2323749861808
30
0
41
1
10
122.169358638264
20
-21.2333444207202
30
0
41
1
10
117.933398515402
20
-21.2324064553816
30
0
41
1
10
115.81541595245
20
-21.2304664624712
30
0
41
1
10
111.579449309871
20
-21.225650399584
30
0
41
1
10
109.461465074251
20
-21.2229585135507
30
0
41
1
10
105.225496662908
20
-21.2209188701056
30
0
41
1
10
103.107512578355
20
-21.2215612414847
30
0
41
1
10
96.7535608549484
20
-21.2250903192854
30
0
41
1
10
92.5175934763333
20
-21.2297877424523
30
0
41
1
10
79.8096892158708
20
-21.2345381717502
30
0
41
1
10
71.33775107758
20
-21.2278174942516
30
0
41
1
10
54.3938756605881
20
-21.2243203903859
30
0
41
1
10
45.9219377908361
20
-21.2272142359347
30
0
41
1
10
37.45
20
-21.2274706924769
30
0
0
SPLINE
5
2A1
100
AcDbEntity
8
1
62
256
6
ByLayer
370
13
48
1
60
0
100
AcDbSpline
70
4
71
3
72
18
73
14
40
0
40
0
40
0
40
0
40
0.250000000000001
40
0.250000000000001
40
0.500000000000001
40
0.500000000000001
40
0.750000000000001
40
0.750000000000001
40
0.812500000000001
40
0.812500000000001
40
0.875000000000001
40
0.875000000000001
40
1
40
1
40
1
40
1
41
1
10
247.030269290523
20
8.160370796563
30
0
41
1
10
247.009161223433
20
7.99597385699704
30
0
41
1
10
246.968436927697
20
7.83528364436165
30
0
41
1
10
246.840608189749
20
7.52632761080156
30
0
41
1
10
246.756325709989
20
7.38421186328335
30
0
41
1
10
246.538898843838
20
7.12963672925105
30
0
41
1
10
246.412006877241
20
7.02469819557194
30
0
41
1
10
246.228736342661
20
6.92568849423705
30
0
41
1
10
246.190840522326
20
6.90757413107505
30
0
41
1
10
246.114343624475
20
6.87554619611856
30
0
41
1
10
246.075516101835
20
6.86150308600784
30
0
41
1
10
245.957339112313
20
6.8251406610257
30
0
41
1
10
245.876164220983
20
6.80856329899672
30
0
41
1
10
245.793056360684
20
6.79952734822814
30
0
0
SPLINE
5
2A2
100
AcDbEntity
8
1
62
256
6
ByLayer
370
13
48
1
60
0
100
AcDbSpline
70
4
71
3
72
8
73
4
40
0
40
0
40
0
40
0
40
1
40
1
40
1
40
1
41
1
10
249.590388630353
20
21.5859245001505
30
0
41
1
10
249.498028624251
20
21.5777783345251
30
0
41
1
10
249.403442118582
20
21.5708180374488
30
0
41
1
10
249.306673327547
20
21.5651220795118
30
0
0
SPLINE
5
2A3
100
AcDbEntity
8
1
62
256
6
ByLayer
370
13
48
1
60
0
100
AcDbSpline
70
4
71
3
72
16
73
12
40
0
40
0
40
0
40
0
40
0.250000000000001
40
0.250000000000001
40
0.500000000000002
40
0.500000000000002
40
0.625000000000002
40
0.625000000000002
40
0.750000000000003
40
0.750000000000003
40
1
40
1
40
1
40
1
41
1
10
35.2449980546051
20
-21.9274614974566
30
0
41
1
10
34.892372118588
20
-21.9569487043703
30
0
41
1
10
34.5437912864303
20
-21.9929493956397
30
0
41
1
10
33.854349752221
20
-22.077065879757
30
0
41
1
10
33.5134898006255
20
-22.1251845122263
30
0
41
1
10
33.0079208634363
20
-22.2051504921318
30
0
41
1
10
32.8403534485703
20
-22.2330972415953
30
0
41
1
10
32.5071442390459
20
-22.2912632430122
30
0
41
1
10
32.342290165977
20
-22.321351396096
30
0
41
1
10
31.8574476061732
20
-22.4130529839133
30
0
41
1
10
31.5452461659164
20
-22.4764632765249
30
0
41
1
10
31.2437716647195
20
-22.5398275952874
30
0
0
SPLINE
5
2A4
100
AcDbEntity
8
1
62
256
6
ByLayer
370
13
48
1
60
0
100
AcDbSpline
70
4
71
3
72
23
73
19
40
0
40
0
40
0
40
0
40
0.125
40
0.125
40
0.25
40
0.25
40
0.375
40
0.375
40
0.5
40
0.625
40
0.625
40
0.75
40
0.75
40
0.875
40
0.875
40
0.9375
40
0.9375
40
1
40
1
40
1
40
1
41
1
10
251.999476950795
20
6.1209807663474
30
0
41
1
10
251.898530937841
20
6.02852544239227
30
0
41
1
10
251.79101992573
20
5.94423220338069
30
0
41
1
10
251.561841690486
20
5.79238617248737
30
0
41
1
10
251.442509459987
20
5.72642132748305
30
0
41
1
10
251.195284459864
20
5.61434848973826
30
0
41
1
10
251.066759108206
20
5.56798616336573
30
0
41
1
10
250.801510842867
20
5.49606059383569
30
0
41
1
10
250.533451423995
20
5.44626216985844
30
0
41
1
10
250.25974126077
20
5.43905825226187
30
0
41
1
10
249.983221481745
20
5.45397713916651
30
0
41
1
10
249.846428035536
20
5.4724120225126
30
0
41
1
10
249.57852294798
20
5.53009274881487
30
0
41
1
10
249.44694923978
20
5.56936028506533
30
0
41
1
10
249.253410457198
20
5.64450970615692
30
0
41
1
10
249.189749884026
20
5.67223139352288
30
0
41
1
10
249.066104068819
20
5.73209052671163
30
0
41
1
10
249.005837835592
20
5.76433279685196
30
0
41
1
10
248.947151413128
20
5.79883981065626
30
0
0
SPLINE
5
2A5
100
AcDbEntity
8
1
62
256
6
ByLayer
370
13
48
1
60
0
100
AcDbSpline
70
4
71
3
72
18
73
14
40
0
40
0
40
0
40
0
40
0.124999999999999
40
0.124999999999999
40
0.249999999999997
40
0.249999999999997
40
0.499999999999994
40
0.499999999999994
40
0.624999999999992
40
0.624999999999992
40
0.74999999999999
40
0.74999999999999
40
1
40
1
40
1
40
1
41
1
10
245.170554943907
20
10.2828453553678
30
0
41
1
10
245.275405565286
20
10.2141847466455
30
0
41
1
10
245.378267575849
20
10.1411146048125
30
0
41
1
10
245.577129282792
20
9.98803963486031
30
0
41
1
10
245.672437675418
20
9.90863768404378
30
0
41
1
10
245.946884939989
20
9.66283451630065
30
0
41
1
10
246.114611633193
20
9.48890943264641
30
0
41
1
10
246.346236417915
20
9.2165699233849
30
0
41
1
10
246.420100730021
20
9.12386422642118
30
0
41
1
10
246.561438355189
20
8.93501810284184
30
0
41
1
10
246.629174962733
20
8.83845100991479
30
0
41
1
10
246.820183425175
20
8.54862979829539
30
0
41
1
10
246.932147906213
20
8.35472002007793
30
0
41
1
10
247.030269290523
20
8.16037079656348
30
0
0
SPLINE
5
2A6
100
AcDbEntity
8
1
62
256
6
ByLayer
370
13
48
1
60
0
100
AcDbSpline
70
4
71
3
72
20
73
16
40
0
40
0
40
0
40
0
40
0.249999999999998
40
0.249999999999998
40
0.374999999999999
40
0.374999999999999
40
0.499999999999999
40
0.499999999999999
40
0.624999999999999
40
0.624999999999999
40
0.749999999999999
40
0.749999999999999
40
0.875
40
0.875
40
1
40
1
40
1
40
1
41
1
10
243.359718048064
20
8.23528858311596
30
0
41
1
10
243.405088381426
20
8.37006555822057
30
0
41
1
10
243.445922453544
20
8.51837475309529
30
0
41
1
10
243.504824483055
20
8.75986815892037
30
0
41
1
10
243.524055367954
20
8.84386863182326
30
0
41
1
10
243.56096686841
20
9.01339795842665
30
0
41
1
10
243.578790468252
20
9.09950565844591
30
0
41
1
10
243.613671023262
20
9.27429853824003
30
0
41
1
10
243.630788508152
20
9.36335030292537
30
0
41
1
10
243.664566127222
20
9.54243947169309
30
0
41
1
10
243.680979422469
20
9.63118753642294
30
0
41
1
10
243.713881259418
20
9.80694340792647
30
0
41
1
10
243.730329894729
20
9.89395920118298
30
0
41
1
10
243.76520288688
20
10.0658313354967
30
0
41
1
10
243.783529598313
20
10.1509094010272
30
0
41
1
10
243.804958617313
20
10.2321142233403
30
0
0
SPLINE
5
2A7
100
AcDbEntity
8
1
62
256
6
ByLayer
370
13
48
1
60
0
100
AcDbSpline
70
4
71
3
72
8
73
4
40
0
40
0
40
0
40
0
40
1
40
1
40
1
40
1
41
1
10
37.01
20
-21.2412059087764
30
0
41
1
10
36.4216660174609
20
-21.2410755125146
30
0
41
1
10
35.833332035119
20
-21.2409444636923
30
0
41
1
10
35.2449980526777
20
-21.2408137436638
30
0
0
SPLINE
5
2A8
100
AcDbEntity
8
1
62
256
6
ByLayer
370
13
48
1
60
0
100
AcDbSpline
70
4
71
3
72
18
73
14
40
0
40
0
40
0
40
0
40
0.182644239026155
40
0.182644239026155
40
0.36528847805231
40
0.36528847805231
40
0.547932717078466
40
0.547932717078466
40
0.730576956104621
40
0.730576956104621
40
0.913221195130776
40
0.913221195130776
40
1
40
1
40
1
40
1
41
1
10
37.01
20
-12.660922518357
30
0
41
1
10
37.01
20
-12.3967806671388
30
0
41
1
10
37.01
20
-12.1222152670507
30
0
41
1
10
37.01
20
-11.553106425067
30
0
41
1
10
37.01
20
-11.2562520715037
30
0
41
1
10
37.01
20
-10.6520440322096
30
0
41
1
10
37.01
20
-10.3489507409535
30
0
41
1
10
37.01
20
-9.74083739707143
30
0
41
1
10
37.01
20
-9.4326617017974
30
0
41
1
10
37.01
20
-8.83257025952918
30
0
41
1
10
37.01
20
-8.54085169632427
30
0
41
1
10
37.01
20
-8.12268451823198
30
0
41
1
10
37.01
20
-7.9893790193737
30
0
41
1
10
37.01
20
-7.85881551835226
30
0
0
SPLINE
5
2A9
100
AcDbEntity
8
1
62
256
6
ByLayer
370
13
48
1
60
0
100
AcDbSpline
70
4
71
3
72
8
73
4
40
0
40
0
40
0
40
0
40
1
40
1
40
1
40
1
41
1
10
0.0999999999999659
20
-5.56776436282993
30
0
41
1
10
0.0648944344305846
20
-5.37072855948901
30
0
41
1
10
0.03155109950454
20
-5.17345582387856
30
0
41
1
10
0
20
-4.97594212184998
30
0
0
SPLINE
5
2AA
100
AcDbEntity
8
1
62
256
6
ByLayer
370
13
48
1
60
0
100
AcDbSpline
70
4
71
3
72
70
73
66
40
0
40
0
40
0
40
0
40
0.0312500000000009
40
0.0312500000000009
40
0.0625000000000019
40
0.0625000000000019
40
0.0703125000000025
40
0.0703125000000025
40
0.0781250000000031
40
0.0781250000000031
40
0.0937500000000043
40
0.0937500000000043
40
0.101562500000004
40
0.101562500000004
40
0.109375000000005
40
0.109375000000005
40
0.117187500000005
40
0.117187500000005
40
0.125000000000005
40
0.125000000000005
40
0.140625000000005
40
0.140625000000005
40
0.156250000000005
40
0.156250000000005
40
0.187500000000004
40
0.187500000000004
40
0.218750000000004
40
0.218750000000004
40
0.250000000000003
40
0.250000000000003
40
0.281250000000003
40
0.281250000000003
40
0.312500000000002
40
0.312500000000002
40
0.343750000000002
40
0.343750000000002
40
0.375000000000002
40
0.375000000000002
40
0.437500000000001
40
0.437500000000001
40
0.5
40
0.5
40
0.53125
40
0.53125
40
0.5625
40
0.5625
40
0.624999999999999
40
0.624999999999999
40
0.687499999999999
40
0.687499999999999
40
0.718749999999999
40
0.718749999999999
40
0.749999999999999
40
0.749999999999999
40
0.781249999999999
40
0.781249999999999
40
0.812499999999999
40
0.812499999999999
40
0.875
40
0.875
40
0.90625
40
0.90625
40
0.9375
40
0.9375
40
1
40
1
40
1
40
1
41
1
10
234.060776454646
20
-21.5869465915084
30
0
41
1
10
232.923693729622
20
-21.5736580779121
30
0
41
1
10
231.785385866247
20
-21.560428948286
30
0
41
1
10
229.513226623879
20
-21.5278472295404
30
0
41
1
10
228.379507218518
20
-21.5085309618828
30
0
41
1
10
226.971085486018
20
-21.4720600895071
30
0
41
1
10
226.689842607241
20
-21.4641241709937
30
0
41
1
10
226.12840486085
20
-21.4466319017701
30
0
41
1
10
225.847915678119
20
-21.4370634542641
30
0
41
1
10
225.011884965993
20
-21.4054637824414
30
0
41
1
10
224.460898186586
20
-21.3806479186563
30
0
41
1
10
223.647432105708
20
-21.3345143728489
30
0
41
1
10
223.378492180581
20
-21.317619018365
30
0
41
1
10
222.845760173258
20
-21.2799941270492
30
0
41
1
10
222.582016295486
20
-21.2592315968652
30
0
41
1
10
222.058924371822
20
-21.2137320304421
30
0
41
1
10
221.799097335112
20
-21.1892315615282
30
0
41
1
10
221.279088149782
20
-21.1386676557592
30
0
41
1
10
221.019214892193
20
-21.112450334808
30
0
41
1
10
220.239981743332
20
-21.0309515726661
30
0
41
1
10
219.721120322883
20
-20.9727408152409
30
0
41
1
10
218.683563301824
20
-20.8490980881156
30
0
41
1
10
218.164685352776
20
-20.7838028390283
30
0
41
1
10
216.607236163028
20
-20.5779615970549
30
0
41
1
10
215.568221703754
20
-20.4272523948941
30
0
41
1
10
213.492792320726
20
-20.0990485557546
30
0
41
1
10
212.45583038934
20
-19.921570018768
30
0
41
1
10
210.382922255516
20
-19.5403193918113
30
0
41
1
10
209.347129970023
20
-19.3363731953044
30
0
41
1
10
207.275262892658
20
-18.9035080472701
30
0
41
1
10
206.23890429659
20
-18.6748499537433
30
0
41
1
10
204.161262248599
20
-18.1988548566849
30
0
41
1
10
203.119867605239
20
-17.9516795525375
30
0
41
1
10
201.028994063424
20
-17.4449152635768
30
0
41
1
10
199.979697824093
20
-17.1851132690148
30
0
41
1
10
197.872180300196
20
-16.6568899518218
30
0
41
1
10
196.815123373738
20
-16.3887952244738
30
0
41
1
10
193.636264537399
20
-15.5799071286183
30
0
41
1
10
191.505277252128
20
-15.0339489397301
30
0
41
1
10
187.21299003535
20
-13.9612594049003
30
0
41
1
10
185.051724759523
20
-13.4345211351278
30
0
41
1
10
181.783876050764
20
-12.6798261907329
30
0
41
1
10
180.690080202728
20
-12.4339244725572
30
0
41
1
10
178.495031496816
20
-11.9561112191121
30
0
41
1
10
177.395115247982
20
-11.7245226597233
30
0
41
1
10
174.088034939278
20
-11.0545249396545
30
0
41
1
10
171.873553195103
20
-10.6408904648717
30
0
41
1
10
167.424719209422
20
-9.89099530857266
30
0
41
1
10
165.190516220202
20
-9.55407408742627
30
0
41
1
10
161.82503107329
20
-9.10905522357143
30
0
41
1
10
160.700333511028
20
-8.97080654939319
30
0
41
1
10
158.44872103266
20
-8.71598045103119
30
0
41
1
10
157.321998719674
20
-8.59926043187596
30
0
41
1
10
155.066584405814
20
-8.38941607982338
30
0
41
1
10
153.937881115974
20
-8.29643088905641
30
0
41
1
10
151.67824834269
20
-8.13768191175524
30
0
41
1
10
150.54726797062
20
-8.07255419959947
30
0
41
1
10
147.151104533719
20
-7.91707035234123
30
0
41
1
10
144.882120271722
20
-7.86447012661688
30
0
41
1
10
141.478899292832
20
-7.8255646917298
30
0
41
1
10
140.344473850242
20
-7.81923490208698
30
0
41
1
10
138.075603571246
20
-7.81356199787245
30
0
41
1
10
136.941159528886
20
-7.81393205416967
30
0
41
1
10
133.537816498975
20
-7.81896926021625
30
0
41
1
10
131.268905736492
20
-7.82787645102243
30
0
41
1
10
129
20
-7.83497173276953
30
0
0
SPLINE
5
2AB
100
AcDbEntity
8
1
62
256
6
ByLayer
370
13
48
1
60
0
100
AcDbSpline
70
4
71
3
72
8
73
4
40
0
40
0
40
0
40
0
40
1
40
1
40
1
40
1
41
1
10
251.538118329163
20
7.0789551718816
30
0
41
1
10
251.489934455327
20
7.07734792977871
30
0
41
1
10
251.44179296985
20
7.07647045731667
30
0
41
1
10
251.393731423837
20
7.07675010032344
30
0
0
SPLINE
5
2AC
100
AcDbEntity
8
1
62
256
6
ByLayer
370
13
48
1
60
0
100
AcDbSpline
70
4
71
3
72
12
73
8
40
0
40
0
40
0
40
0
40
0.36997873319516
40
0.36997873319516
40
0.68498936659758
40
0.68498936659758
40
1
40
1
40
1
40
1
41
1
10
223.605244651506
20
9.90819913137113
30
0
41
1
10
226.095785749709
20
10.0584954430197
30
0
41
1
10
228.58574395185
20
10.1693646835387
30
0
41
1
10
233.196971354725
20
10.2982646397351
30
0
41
1
10
235.318606897848
20
10.3277059803856
30
0
41
1
10
239.561888795113
20
10.325640176543
30
0
41
1
10
241.683182740695
20
10.2941495817213
30
0
41
1
10
243.804958617313
20
10.2321142233403
30
0
0
SPLINE
5
2AD
100
AcDbEntity
8
1
62
256
6
ByLayer
370
13
48
1
60
0
100
AcDbSpline
70
4
71
3
72
10
73
6
40
0
40
0
40
0
40
0
40
0.5
40
0.5
40
1
40
1
40
1
40
1
41
1
10
260.633042717522
20
7.75289725498141
30
0
41
1
10
260.658906601904
20
7.76462064198276
30
0
41
1
10
260.686819114726
20
7.77427292107035
30
0
41
1
10
260.744210755696
20
7.78818459761848
30
0
41
1
10
260.773817215464
20
7.79256065652083
30
0
41
1
10
260.804342502243
20
7.79417699364791
30
0
0
SPLINE
5
2AE
100
AcDbEntity
8
1
62
256
6
ByLayer
370
13
48
1
60
0
100
AcDbSpline
70
4
71
3
72
10
73
6
40
0
40
0
40
0
40
0
40
0.5
40
0.5
40
1
40
1
40
1
40
1
41
1
10
245.32571172777
20
6.74871502939621
30
0
41
1
10
244.993697518056
20
6.94417729557088
30
0
41
1
10
244.651555754679
20
7.12774788012283
30
0
41
1
10
243.950758497829
20
7.47549877717751
30
0
41
1
10
243.59207936949
20
7.6396513378362
30
0
41
1
10
243.226253677644
20
7.79541246846577
30
0
0
SPLINE
5
2AF
100
AcDbEntity
8
1
62
256
6
ByLayer
370
13
48
1
60
0
100
AcDbSpline
70
4
71
3
72
8
73
4
40
0
40
0
40
0
40
0
40
1
40
1
40
1
40
1
41
1
10
41.9999999999999
20
-21.8541403864538
30
0
41
1
10
40.3333333284086
20
-21.8541370483166
30
0
41
1
10
38.6666666388921
20
-21.8541463840638
30
0
41
1
10
37
20
-21.8541753248575
30
0
0
SPLINE
5
2B0
100
AcDbEntity
8
1
62
256
6
ByLayer
370
13
48
1
60
0
100
AcDbSpline
70
4
71
3
72
8
73
4
40
0
40
0
40
0
40
0
40
1
40
1
40
1
40
1
41
1
10
35.2449980526777
20
-21.2408137436864
30
0
41
1
10
35.24499805331
20
-21.4696963282815
30
0
41
1
10
35.2449980539525
20
-21.6985789128714
30
0
41
1
10
35.2449980546051
20
-21.9274614974562
30
0
0
SPLINE
5
2B1
100
AcDbEntity
8
1
62
256
6
ByLayer
370
13
48
1
60
0
100
AcDbSpline
70
4
71
3
72
8
73
4
40
0
40
0
40
0
40
0
40
1
40
1
40
1
40
1
41
1
10
265.027701013203
20
0.58850842621797
30
0
41
1
10
265.178840429728
20
0.612462675705018
30
0
41
1
10
265.328685758467
20
0.621362364559872
30
0
41
1
10
265.478737105302
20
0.617392207101915
30
0
0
SPLINE
5
2B2
100
AcDbEntity
8
1
62
256
6
ByLayer
370
13
48
1
60
0
100
AcDbSpline
70
4
71
3
72
8
73
4
40
0
40
0
40
0
40
0
40
1
40
1
40
1
40
1
41
1
10
245.32571172777
20
6.74871502939618
30
0
41
1
10
245.314913580226
20
6.72395992541337
30
0
41
1
10
245.303902378787
20
6.69932807420258
30
0
41
1
10
245.292681206104
20
6.67481769243403
30
0
0
SPLINE
5
2B3
100
AcDbEntity
8
1
62
256
6
ByLayer
370
13
48
1
60
0
100
AcDbSpline
70
4
71
3
72
18
73
14
40
0
40
0
40
0
40
0
40
0.250000000000003
40
0.250000000000003
40
0.375000000000002
40
0.375000000000002
40
0.500000000000002
40
0.500000000000002
40
0.750000000000001
40
0.750000000000001
40
0.875000000000001
40
0.875000000000001
40
1
40
1
40
1
40
1
41
1
10
252.698222874136
20
7.1690788325208
30
0
41
1
10
252.692902324299
20
7.16879999431927
30
0
41
1
10
252.69416626852
20
7.17905844645583
30
0
41
1
10
252.709431364187
20
7.20747677732976
30
0
41
1
10
252.716790018663
20
7.21898128610863
30
0
41
1
10
252.736732277862
20
7.24447964569478
30
0
41
1
10
252.749583358636
20
7.2587244305947
30
0
41
1
10
252.795666620258
20
7.30119143935093
30
0
41
1
10
252.837854314341
20
7.32988417847972
30
0
41
1
10
252.911143279761
20
7.36106944735411
30
0
41
1
10
252.937655393556
20
7.36974742962786
30
0
41
1
10
252.991800116345
20
7.38222896767312
30
0
41
1
10
253.019665439719
20
7.38618379002165
30
0
41
1
10
253.048333784059
20
7.38770180062809
30
0
0
SPLINE
5
2B4
100
AcDbEntity
8
1
62
256
6
ByLayer
370
13
48
1
60
0
100
AcDbSpline
70
4
71
3
72
8
73
4
40
0
40
0
40
0
40
0
40
1
40
1
40
1
40
1
41
1
10
1.42E-14
20
4.97594212184995
30
0
41
1
10
0.031571657597965
20
5.1735845200318
30
0
41
1
10
0.0649171506606621
20
5.37085605809409
30
0
41
1
10
0.0999999999999801
20
5.56776436282993
30
0
0
SPLINE
5
2B5
100
AcDbEntity
8
1
62
256
6
ByLayer
370
13
48
1
60
0
100
AcDbSpline
70
4
71
3
72
44
73
40
40
0
40
0
40
0
40
0
40
0.0625000000000004
40
0.0625000000000004
40
0.125000000000001
40
0.125000000000001
40
0.156250000000001
40
0.156250000000001
40
0.187500000000002
40
0.187500000000002
40
0.250000000000003
40
0.250000000000003
40
0.281250000000003
40
0.281250000000003
40
0.312500000000003
40
0.312500000000003
40
0.375000000000003
40
0.375000000000003
40
0.406250000000003
40
0.406250000000003
40
0.437500000000003
40
0.437500000000003
40
0.500000000000003
40
0.500000000000003
40
0.562500000000003
40
0.562500000000003
40
0.593750000000003
40
0.593750000000003
40
0.625000000000003
40
0.625000000000003
40
0.750000000000002
40
0.750000000000002
40
0.781250000000002
40
0.781250000000002
40
0.812500000000002
40
0.812500000000002
40
0.875000000000001
40
0.875000000000001
40
1
40
1
40
1
40
1
41
1
10
6.91738955313168
20
-26.1878138857675
30
0
41
1
10
6.82748267292402
20
-26.3728429994994
30
0
41
1
10
6.75957154352751
20
-26.5523305119029
30
0
41
1
10
6.66729470863547
20
-26.9001217959803
30
0
41
1
10
6.64292223535082
20
-27.0684279875799
30
0
41
1
10
6.64101536659001
20
-27.3120555712757
30
0
41
1
10
6.6462652119698
20
-27.3915563092899
30
0
41
1
10
6.66786294386293
20
-27.5450756979656
30
0
41
1
10
6.68419477826731
20
-27.6194194785423
30
0
41
1
10
6.74927474806576
20
-27.8354101447379
30
0
41
1
10
6.81423418487174
20
-27.9699985725835
30
0
41
1
10
6.9436679966767
20
-28.1580430416726
30
0
41
1
10
6.99223878584448
20
-28.218513316144
30
0
41
1
10
7.09978567859594
20
-28.3343864948773
30
0
41
1
10
7.15833964726789
20
-28.3893665535585
30
0
41
1
10
7.34760996306794
20
-28.5459098614531
30
0
41
1
10
7.49180308079669
20
-28.6391338420116
30
0
41
1
10
7.73383272299242
20
-28.7633150774079
30
0
41
1
10
7.81881107145969
20
-28.8020925292045
30
0
41
1
10
7.99729156595556
20
-28.874511080977
30
0
41
1
10
8.09109920941333
20
-28.9082403399495
30
0
41
1
10
8.38247468688931
20
-29.0009439856111
30
0
41
1
10
8.58998484115587
20
-29.0516107399355
30
0
41
1
10
9.02960662701265
20
-29.132718508091
30
0
41
1
10
9.26172473648629
20
-29.1631519273938
30
0
41
1
10
9.62770840694125
20
-29.1944890824305
30
0
41
1
10
9.75291666358039
20
-29.2025456457969
30
0
41
1
10
10.0083048261385
20
-29.2138791128828
30
0
41
1
10
10.1379789339288
20
-29.217143956481
30
0
41
1
10
10.7958427672194
20
-29.2220962896495
30
0
41
1
10
11.3521932445257
20
-29.1900809523129
30
0
41
1
10
12.082996758354
20
-29.1100771723509
30
0
41
1
10
12.231274115789
20
-29.0919885140477
30
0
41
1
10
12.5300334916794
20
-29.051981018457
30
0
41
1
10
12.6801260599828
20
-29.0301203472884
30
0
41
1
10
13.1324883607913
20
-28.9592050000794
30
0
41
1
10
13.4368344301565
20
-28.9048368387502
30
0
41
1
10
14.3580576328865
20
-28.7215787946253
30
0
41
1
10
14.9830151481023
20
-28.5727991002923
30
0
41
1
10
15.6191519666232
20
-28.3977358330777
30
0
0
SPLINE
5
2B6
100
AcDbEntity
8
1
62
256
6
ByLayer
370
13
48
1
60
0
100
AcDbSpline
70
4
71
3
72
8
73
4
40
0
40
0
40
0
40
0
40
1
40
1
40
1
40
1
41
1
10
247.900809752592
20
15.5851418830457
30
0
41
1
10
247.886940997104
20
15.558401646723
30
0
41
1
10
247.87159758655
20
15.5343412339659
30
0
41
1
10
247.85566143541
20
15.5128378589932
30
0
0
SPLINE
5
2B7
100
AcDbEntity
8
1
62
256
6
ByLayer
370
13
48
1
60
0
100
AcDbSpline
70
4
71
3
72
8
73
4
40
0
40
0
40
0
40
0
40
1
40
1
40
1
40
1
41
1
10
251.929956732344
20
6.30040657534161
30
0
41
1
10
251.951391865019
20
6.32373333105886
30
0
41
1
10
251.972435739482
20
6.34748552519122
30
0
41
1
10
251.993058048494
20
6.37163483058086
30
0
0
SPLINE
5
2B8
100
AcDbEntity
8
1
62
256
6
ByLayer
370
13
48
1
60
0
100
AcDbSpline
70
4
71
3
72
8
73
4
40
0
40
0
40
0
40
0
40
1
40
1
40
1
40
1
41
1
10
244.084804718844
20
-0.435294583044765
30
0
41
1
10
244.75888823844
20
-0.48174764946944
30
0
41
1
10
245.432988967231
20
-0.528099758700023
30
0
41
1
10
246.107106212145
20
-0.574354235541591
30
0
0
SPLINE
5
2B9
100
AcDbEntity
8
1
62
256
6
ByLayer
370
13
48
1
60
0
100
AcDbSpline
70
4
71
3
72
8
73
4
40
0
40
0
40
0
40
0
40
1
40
1
40
1
40
1
41
1
10
265.061638806831
20
0.515830641558097
30
0
41
1
10
265.060054057018
20
0.563817541546285
30
0
41
1
10
265.059782792222
20
0.611577433637251
30
0
41
1
10
265.060771020981
20
0.656390601349699
30
0
0
SPLINE
5
2BA
100
AcDbEntity
8
1
62
256
6
ByLayer
370
13
48
1
60
0
100
AcDbSpline
70
4
71
3
72
12
73
8
40
0
40
0
40
0
40
0
40
0.499999999999997
40
0.499999999999997
40
0.749999999999999
40
0.749999999999999
40
1
40
1
40
1
40
1
41
1
10
247.030269290523
20
8.160370796563
30
0
41
1
10
247.08483938453
20
8.49228457197322
30
0
41
1
10
247.108548389271
20
8.82555593525075
30
0
41
1
10
247.079247224633
20
9.32831639504909
30
0
41
1
10
247.058175325626
20
9.49738167700676
30
0
41
1
10
246.990975530836
20
9.82636576038402
30
0
41
1
10
246.944932581176
20
9.98727643152893
30
0
41
1
10
246.884617934551
20
10.1440794099601
30
0
0
SPLINE
5
2BB
100
AcDbEntity
8
1
62
256
6
ByLayer
370
13
48
1
60
0
100
AcDbSpline
70
4
71
3
72
10
73
6
40
0
40
0
40
0
40
0
40
0.806108221290103
40
0.806108221290103
40
1
40
1
40
1
40
1
41
1
10
247.85566143541
20
15.5128378589932
30
0
41
1
10
247.81925528529
20
15.4637133815384
30
0
41
1
10
247.787621083916
20
15.415941139684
30
0
41
1
10
247.758382811686
20
15.3659380059627
30
0
41
1
10
247.753194300718
20
15.3566887325102
30
0
41
1
10
247.748673453251
20
15.3482191642062
30
0
0
SPLINE
5
2BC
100
AcDbEntity
8
1
62
256
6
ByLayer
370
13
48
1
60
0
100
AcDbSpline
70
4
71
3
72
12
73
8
40
0
40
0
40
0
40
0
40
0.270248074805463
40
0.270248074805463
40
0.635124037402731
40
0.635124037402731
40
1
40
1
40
1
40
1
41
1
10
37.450033041274
20
-7.85059652225985
30
0
41
1
10
37.4500579982795
20
-8.2553764923866
30
0
41
1
10
37.4500785528675
20
-8.68756068528342
30
0
41
1
10
37.4501146132712
20
-9.7313324186008
30
0
41
1
10
37.4501258187436
20
-10.3523914410124
30
0
41
1
10
37.4501277319761
20
-11.5555600584487
30
0
41
1
10
37.4501184391644
20
-12.1373100844269
30
0
41
1
10
37.4500995087777
20
-12.6609225200853
30
0
0
SPLINE
5
2BD
100
AcDbEntity
8
1
62
256
6
ByLayer
370
13
48
1
60
0
100
AcDbSpline
70
4
71
3
72
8
73
4
40
0
40
0
40
0
40
0
40
1
40
1
40
1
40
1
41
1
10
246.107106212145
20
-21.8105564795071
30
0
41
1
10
245.107106211759
20
-21.7360198552815
30
0
41
1
10
244.107106211755
20
-21.6614832260015
30
0
41
1
10
243.107106212145
20
-21.5869465915084
30
0
0
SPLINE
5
2BE
100
AcDbEntity
8
1
62
256
6
ByLayer
370
13
48
1
60
0
100
AcDbSpline
70
4
71
3
72
8
73
4
40
0
40
0
40
0
40
0
40
1
40
1
40
1
40
1
41
1
10
245.170554943913
20
10.2828453553473
30
0
41
1
10
245.257350479283
20
10.2833548472106
30
0
41
1
10
245.344534639383
20
10.2787713904722
30
0
41
1
10
245.432035426352
20
10.2612898172907
30
0
0
SPLINE
5
2BF
100
AcDbEntity
8
1
62
256
6
ByLayer
370
13
48
1
60
0
100
AcDbSpline
70
4
71
3
72
44
73
40
40
0
40
0
40
0
40
0
40
0.0021317949356391
40
0.0021317949356391
40
0.0474894406203833
40
0.0474894406203833
40
0.0928470863051275
40
0.0928470863051275
40
0.138204731989872
40
0.138204731989872
40
0.183562377674616
40
0.183562377674616
40
0.22892002335936
40
0.22892002335936
40
0.274277669044104
40
0.274277669044104
40
0.319635314728848
40
0.319635314728848
40
0.364992960413592
40
0.364992960413592
40
0.45570825178308
40
0.45570825178308
40
0.501065897467823
40
0.501065897467823
40
0.546423543152566
40
0.546423543152566
40
0.637138834522052
40
0.637138834522052
40
0.727854125891538
40
0.727854125891538
40
0.773211771576282
40
0.773211771576282
40
0.818569417261026
40
0.818569417261026
40
0.863927062945769
40
0.863927062945769
40
0.909284708630513
40
0.909284708630513
40
1
40
1
40
1
40
1
41
1
10
203.635126254132
20
-18.0682913443728
30
0
41
1
10
203.585197258453
20
-18.0805494766954
30
0
41
1
10
203.535268248553
20
-18.0927799556265
30
0
41
1
10
202.423010768876
20
-18.364616754722
30
0
41
1
10
201.360493416942
20
-18.6114616265841
30
0
41
1
10
199.232034836515
20
-19.0763155806842
30
0
41
1
10
198.165989446854
20
-19.2943852066647
30
0
41
1
10
196.027438675219
20
-19.6989283276687
30
0
41
1
10
194.956414403787
20
-19.8850668325516
30
0
41
1
10
192.806950789093
20
-20.2238431948986
30
0
41
1
10
191.728333542244
20
-20.3763445912598
30
0
41
1
10
189.561067010572
20
-20.6496360799258
30
0
41
1
10
188.472488441366
20
-20.7705017404904
30
0
41
1
10
186.283657149487
20
-20.9837675131843
30
0
41
1
10
185.183211463381
20
-21.0760908786697
30
0
41
1
10
182.971465232271
20
-21.2372894137257
30
0
41
1
10
181.85963112339
20
-21.3062156504603
30
0
41
1
10
179.629875115084
20
-21.4249174194371
30
0
41
1
10
178.512318707617
20
-21.4746648357124
30
0
41
1
10
175.15087059558
20
-21.5993287616198
30
0
41
1
10
172.898285463821
20
-21.6496694255968
30
0
41
1
10
169.49829141524
20
-21.692917684617
30
0
41
1
10
168.361410570737
20
-21.7019590068782
30
0
41
1
10
166.079916703321
20
-21.7121670360818
30
0
41
1
10
164.934729094276
20
-21.7133476206411
30
0
41
1
10
161.495186631182
20
-21.7092059389771
30
0
41
1
10
159.195192971623
20
-21.696419669352
30
0
41
1
10
154.580956249526
20
-21.6682810671071
30
0
41
1
10
152.266746379871
20
-21.6529084284758
30
0
41
1
10
148.784206396947
20
-21.636480327403
30
0
41
1
10
147.62091787176
20
-21.6321438186188
30
0
41
1
10
145.29365358893
20
-21.6258379123295
30
0
41
1
10
144.129938435573
20
-21.6237993079038
30
0
41
1
10
141.802418625235
20
-21.6210463037017
30
0
41
1
10
140.638617799535
20
-21.6202653977238
30
0
41
1
10
138.310969515391
20
-21.6194087796535
30
0
41
1
10
137.147120427803
20
-21.6193557243927
30
0
41
1
10
133.65553429831
20
-21.6197845954888
30
0
41
1
10
131.327760922056
20
-21.6208117051026
30
0
41
1
10
129
20
-21.6216438373225
30
0
0
SPLINE
5
2C0
100
AcDbEntity
8
1
62
256
6
ByLayer
370
13
48
1
60
0
100
AcDbSpline
70
4
71
3
72
18
73
14
40
0
40
0
40
0
40
0
40
0.249999999999999
40
0.249999999999999
40
0.374999999999999
40
0.374999999999999
40
0.499999999999999
40
0.499999999999999
40
0.749999999999999
40
0.749999999999999
40
0.874999999999999
40
0.874999999999999
40
1
40
1
40
1
40
1
41
1
10
6.91765799380032
20
-23.3443597991706
30
0
41
1
10
6.79104398693127
20
-23.6101739952316
30
0
41
1
10
6.69415870611314
20
-23.8726230546561
30
0
41
1
10
6.59534029183453
20
-24.260777441249
30
0
41
1
10
6.57015601415726
20
-24.3898578828651
30
0
41
1
10
6.53678763056818
20
-24.6418599247319
30
0
41
1
10
6.52846223176614
20
-24.765001223462
30
0
41
1
10
6.52847119113731
20
-25.1259576293415
30
0
41
1
10
6.56125358441457
20
-25.355406231111
30
0
41
1
10
6.65876500708605
20
-25.6829457657907
30
0
41
1
10
6.69976888938129
20
-25.789718517696
30
0
41
1
10
6.7971670005475
20
-25.9948110855639
30
0
41
1
10
6.85353188215905
20
-26.0932859285571
30
0
41
1
10
6.9173895531317
20
-26.1878138857676
30
0
0
SPLINE
5
2C1
100
AcDbEntity
8
1
62
256
6
ByLayer
370
13
48
1
60
0
100
AcDbSpline
70
4
71
3
72
12
73
8
40
0
40
0
40
0
40
0
40
0.5
40
0.5
40
0.75
40
0.75
40
1
40
1
40
1
40
1
41
1
10
241.156502838554
20
1.96797847037547
30
0
41
1
10
241.561596427109
20
1.8106917655432
30
0
41
1
10
241.981148020887
20
1.70213014735543
30
0
41
1
10
242.632817421804
20
1.6154647521719
30
0
41
1
10
242.850176157748
20
1.59994669476382
30
0
41
1
10
243.282972311104
20
1.5951140506773
30
0
41
1
10
243.49878652209
20
1.60575174053483
30
0
41
1
10
243.714005236032
20
1.62962474865921
30
0
0
SPLINE
5
2C2
100
AcDbEntity
8
1
62
256
6
ByLayer
370
13
48
1
60
0
100
AcDbSpline
70
4
71
3
72
21
73
17
40
0
40
0
40
0
40
0
40
0.250000000000001
40
0.250000000000001
40
0.500000000000002
40
0.500000000000002
40
0.625000000000002
40
0.625000000000002
40
0.687500000000003
40
0.718750000000003
40
0.718750000000003
40
0.750000000000003
40
0.750000000000003
40
0.875000000000001
40
0.875000000000001
40
1
40
1
40
1
40
1
41
1
10
15.6161468554074
20
-28.3985627557267
30
0
41
1
10
16.9703131151688
20
-28.0259676035574
30
0
41
1
10
18.3063148308745
20
-27.6130616275373
30
0
41
1
10
20.9418075766216
20
-26.7062250258304
30
0
41
1
10
22.2413798159164
20
-26.2122729978072
30
0
41
1
10
24.1624230444979
20
-25.4091246303068
30
0
41
1
10
24.7976898207838
20
-25.1311743461251
30
0
41
1
10
25.7428308175604
20
-24.6986202840209
30
0
41
1
10
26.2134607305243
20
-24.478434495708
30
0
41
1
10
26.6811461078892
20
-24.2523177781212
30
0
41
1
10
26.9922776781801
20
-24.100246573668
30
0
41
1
10
27.1482488049709
20
-24.0250274168704
30
0
41
1
10
27.9335344567775
20
-23.6598688590622
30
0
41
1
10
28.5756826983897
20
-23.3957793290738
30
0
41
1
10
29.8882215122158
20
-22.9244864094405
30
0
41
1
10
30.5586101971903
20
-22.7172792184885
30
0
41
1
10
31.2437716647195
20
-22.5398275952874
30
0
0
SPLINE
5
2C3
100
AcDbEntity
8
1
62
256
6
ByLayer
370
13
48
1
60
0
100
AcDbSpline
70
4
71
1
72
4
73
2
40
0
40
0
40
1
40
1
41
1
10
37.45
20
-12.6609225184231
30
0
41
1
10
37.01
20
-12.6609225184231
30
0
0
SPLINE
5
2C4
100
AcDbEntity
8
1
62
256
6
ByLayer
370
13
48
1
60
0
100
AcDbSpline
70
4
71
3
72
12
73
8
40
0
40
0
40
0
40
0
40
0.5
40
0.5
40
0.75
40
0.75
40
1
40
1
40
1
40
1
41
1
10
239.759200185394
20
0.852464671805564
30
0
41
1
10
240.275857871047
20
0.549233551029602
30
0
41
1
10
240.812966280166
20
0.299154547274071
30
0
41
1
10
241.650100749818
20
0.0059586758474381
30
0
41
1
10
241.934416559353
20
-0.0780531568544234
30
0
41
1
10
242.514125621279
20
-0.217227441331346
30
0
41
1
10
242.80982021309
20
-0.272305319031062
30
0
41
1
10
243.107106212145
20
-0.311442752814457
30
0
0
SPLINE
5
2C5
100
AcDbEntity
8
1
62
256
6
ByLayer
370
13
48
1
60
0
100
AcDbSpline
70
4
71
3
72
8
73
4
40
0
40
0
40
0
40
0
40
1
40
1
40
1
40
1
41
1
10
243.107106212145
20
-0.311442752814429
30
0
41
1
10
243.43242587019
20
-0.371494526076987
30
0
41
1
10
243.758332701887
20
-0.412796441718086
30
0
41
1
10
244.084804718845
20
-0.435294583044339
30
0
0
SPLINE
5
2C6
100
AcDbEntity
8
1
62
256
6
ByLayer
370
13
48
1
60
0
100
AcDbSpline
70
4
71
3
72
42
73
38
40
0
40
0
40
0
40
0
40
0.0822419138640514
40
0.0822419138640514
40
0.123362870796078
40
0.123362870796078
40
0.164483827728104
40
0.164483827728104
40
0.32896765545621
40
0.32896765545621
40
0.370088612388237
40
0.370088612388237
40
0.411209569320263
40
0.411209569320263
40
0.452330526252289
40
0.452330526252289
40
0.493451483184316
40
0.493451483184316
40
0.534572440116342
40
0.534572440116342
40
0.575693397048369
40
0.575693397048369
40
0.657935310912422
40
0.657935310912422
40
0.740177224776475
40
0.740177224776475
40
0.781298181708501
40
0.781298181708501
40
0.822419138640527
40
0.822419138640527
40
0.904661052504581
40
0.904661052504581
40
0.945782009436608
40
0.945782009436608
40
0.986902966368635
40
0.986902966368635
40
1
40
1
40
1
40
1
41
1
10
229.913346411547
20
7.29975841616951
30
0
41
1
10
227.902475280345
20
8.15167557305054
30
0
41
1
10
225.892494466629
20
8.98419021396151
30
0
41
1
10
222.874897034793
20
10.1956942789457
30
0
41
1
10
221.86859121479
20
10.5933146647039
30
0
41
1
10
219.85442365901
20
11.3747581433269
30
0
41
1
10
218.847164066007
20
11.7583386042292
30
0
41
1
10
213.815761593609
20
13.6346410844501
30
0
41
1
10
209.79940594747
20
15.0055156300208
30
0
41
1
10
204.765055289784
20
16.513527884722
30
0
41
1
10
203.758014582975
20
16.8046513335018
30
0
41
1
10
201.746007598565
20
17.3641632690701
30
0
41
1
10
200.74059669915
20
17.6326876782138
30
0
41
1
10
198.730360610783
20
18.1464578756963
30
0
41
1
10
197.725920678203
20
18.3921089250274
30
0
41
1
10
195.713084622026
20
18.854876990843
30
0
41
1
10
194.704570257114
20
19.0718289108833
30
0
41
1
10
192.676611570922
20
19.4718108728547
30
0
41
1
10
191.656712307454
20
19.6544703386913
30
0
41
1
10
189.603842754694
20
19.9877500600078
30
0
41
1
10
188.571738042851
20
20.1383550742841
30
0
41
1
10
185.464411971433
20
20.5465531892254
30
0
41
1
10
183.375082413
20
20.7610044176957
30
0
41
1
10
179.165800215366
20
21.1087301191532
30
0
41
1
10
177.045687367347
20
21.2419388302099
30
0
41
1
10
173.849614361213
20
21.4001454640471
30
0
41
1
10
172.78207895587
20
21.4458922174301
30
0
41
1
10
170.643568568964
20
21.5243004089695
30
0
41
1
10
169.572254084723
20
21.5569584643685
30
0
41
1
10
166.349824284332
20
21.637729594319
30
0
41
1
10
164.189912058652
20
21.6686850879921
30
0
41
1
10
160.930035425172
20
21.6960204121474
30
0
41
1
10
159.840051364631
20
21.7019410450902
30
0
41
1
10
157.653621530372
20
21.7096890799541
30
0
41
1
10
156.557696531569
20
21.7115129031912
30
0
41
1
10
155.112026882664
20
21.7124016018718
30
0
41
1
10
154.76269350924
20
21.7125033434962
30
0
41
1
10
154.413245085758
20
21.7125118378607
30
0
0
SPLINE
5
2C7
100
AcDbEntity
8
1
62
256
6
ByLayer
370
13
48
1
60
0
100
AcDbSpline
70
4
71
2
72
16
73
13
40
0
40
0
40
0
40
0.301405683563479
40
0.301405683563479
40
0.452108525345218
40
0.452108525345218
40
0.602811367126957
40
0.602811367126957
40
0.753514208908696
40
0.753514208908696
40
0.904217050690435
40
0.904217050690435
40
1
40
1
40
1
41
1
10
36.9999999999992
20
-12.6660648794565
30
0
41
1
10
32.5977004638212
20
-13.4292181385334
30
0
41
1
10
28.7054361496611
20
-15.2548542705505
30
0
41
1
10
26.7210485452478
20
-16.1856157549039
30
0
41
1
10
24.9213861022889
20
-17.3770171520481
30
0
41
1
10
23.1085857836212
20
-18.5771160043934
30
0
41
1
10
21.569885643496
20
-19.9836713083511
30
0
41
1
10
20.0369164974866
20
-21.384987800691
30
0
41
1
10
18.7772189616431
20
-22.989358211753
30
0
41
1
10
17.5360089300587
20
-24.5701826493064
30
0
41
1
10
16.6186268148153
20
-26.2721720850921
30
0
41
1
10
16.0533511165234
20
-27.3209098474844
30
0
41
1
10
15.6164586796964
20
-28.3977941753802
30
0
0
SPLINE
5
2C8
100
AcDbEntity
8
1
62
256
6
ByLayer
370
18
48
1
60
0
100
AcDbSpline
70
4
71
3
72
8
73
4
40
0
40
0
40
0
40
0
40
1
40
1
40
1
40
1
41
1
10
258.689810651724
20
14.6044065113987
30
0
41
1
10
258.682833844938
20
14.6041873133548
30
0
41
1
10
258.675856332184
20
14.6039680970185
30
0
41
1
10
258.668878086185
20
14.6037488616896
30
0
0
SPLINE
5
2C9
100
AcDbEntity
8
1
62
256
6
ByLayer
370
18
48
1
60
0
100
AcDbSpline
70
4
71
3
72
16
73
12
40
0
40
0
40
0
40
0
40
0.124999999999997
40
0.124999999999997
40
0.249999999999994
40
0.249999999999994
40
0.499999999999996
40
0.499999999999996
40
0.749999999999998
40
0.749999999999998
40
1
40
1
40
1
40
1
41
1
10
257.582670567633
20
15.6066842399942
30
0
41
1
10
257.585361945435
20
15.6261111621168
30
0
41
1
10
257.593355250091
20
15.6447466800423
30
0
41
1
10
257.61972457386
20
15.675560236991
30
0
41
1
10
257.637993288717
20
15.6875942643186
30
0
41
1
10
257.697418652211
20
15.7121645145102
30
0
41
1
10
257.742410862011
20
15.7151802085637
30
0
41
1
10
257.830710243336
20
15.7093146279728
30
0
41
1
10
257.874414328412
20
15.7001061812182
30
0
41
1
10
257.959061690115
20
15.6740851348777
30
0
41
1
10
258.000187401149
20
15.6571120753013
30
0
41
1
10
258.039428321854
20
15.637025941234
30
0
0
SPLINE
5
2CA
100
AcDbEntity
8
1
62
256
6
ByLayer
370
18
48
1
60
0
100
AcDbSpline
70
4
71
3
72
16
73
12
40
0
40
0
40
0
40
0
40
0.250000000000001
40
0.250000000000001
40
0.500000000000003
40
0.500000000000003
40
0.750000000000004
40
0.750000000000004
40
0.875000000000002
40
0.875000000000002
40
1
40
1
40
1
40
1
41
1
10
258.948882553313
20
14.2308910521965
30
0
41
1
10
258.946566412888
20
14.2750856442459
30
0
41
1
10
258.940596534786
20
14.3191475473201
30
0
41
1
10
258.920459004514
20
14.4054723321164
30
0
41
1
10
258.906392806205
20
14.4477532371565
30
0
41
1
10
258.86664412474
20
14.5266262950456
30
0
41
1
10
258.841194796913
20
14.5636009769983
30
0
41
1
10
258.788825936441
20
14.6013554799945
30
0
41
1
10
258.769114407439
20
14.6102516429436
30
0
41
1
10
258.728733729648
20
14.6159534187438
30
0
41
1
10
258.708308055583
20
14.6126616622607
30
0
41
1
10
258.689810651724
20
14.6044065113987
30
0
0
SPLINE
5
2CB
100
AcDbEntity
8
1
62
256
6
ByLayer
370
18
48
1
60
0
100
AcDbSpline
70
4
71
3
72
16
73
12
40
0
40
0
40
0
40
0
40
0.250000000000072
40
0.250000000000072
40
0.500000000000144
40
0.500000000000144
40
0.750000000000217
40
0.750000000000217
40
0.875000000000108
40
0.875000000000108
40
1
40
1
40
1
40
1
41
1
10
258.19139152639
20
12.7373952639809
30
0
41
1
10
258.154439588538
20
12.7133007070651
30
0
41
1
10
258.115403044618
20
12.6921672159042
30
0
41
1
10
258.033847917886
20
12.6573989205509
30
0
41
1
10
257.991377322638
20
12.6436767236567
30
0
41
1
10
257.903977237058
20
12.628598607448
30
0
41
1
10
257.858887127736
20
12.6268488380238
30
0
41
1
10
257.796781762244
20
12.6454065073665
30
0
41
1
10
257.777657553873
20
12.6554606522023
30
0
41
1
10
257.748481052846
20
12.6832529745726
30
0
41
1
10
257.738654169569
20
12.7008581645094
30
0
41
1
10
257.733964367534
20
12.7198265640722
30
0
0
SPLINE
5
2CC
100
AcDbEntity
8
1
62
256
6
ByLayer
370
18
48
1
60
0
100
AcDbSpline
70
4
71
3
72
16
73
12
40
0
40
0
40
0
40
0
40
0.250000000000065
40
0.250000000000065
40
0.500000000000133
40
0.500000000000133
40
0.750000000000202
40
0.750000000000202
40
0.875000000000101
40
0.875000000000101
40
1
40
1
40
1
40
1
41
1
10
256.372483063472
20
15.5496650420558
30
0
41
1
10
256.409435001323
20
15.5737595989715
30
0
41
1
10
256.44827856788
20
15.5948829766174
30
0
41
1
10
256.528953573388
20
15.6296051467718
30
0
41
1
10
256.570749651169
20
15.6432919937035
30
0
41
1
10
256.655866590762
20
15.6582504553012
30
0
41
1
10
256.699393808063
20
15.6599183170254
30
0
41
1
10
256.757452543836
20
15.6411485728055
30
0
41
1
10
256.77493140804
20
15.6310081991357
30
0
41
1
10
256.800368721666
20
15.6030199142574
30
0
41
1
10
256.808118862219
20
15.5853058868464
30
0
41
1
10
256.810760871616
20
15.5662301670189
30
0
0
SPLINE
5
2CD
100
AcDbEntity
8
1
62
256
6
ByLayer
370
18
48
1
60
0
100
AcDbSpline
70
4
71
3
72
8
73
4
40
0
40
0
40
0
40
0
40
1
40
1
40
1
40
1
41
1
10
256.17468385455
20
15.1282379732741
30
0
41
1
10
256.171529478079
20
15.1339280824634
30
0
41
1
10
256.168375712779
20
15.1396174467735
30
0
41
1
10
256.165222535484
20
15.145306094141
30
0
0
SPLINE
5
2CE
100
AcDbEntity
8
1
62
256
6
ByLayer
370
18
48
1
60
0
100
AcDbSpline
70
4
71
3
72
18
73
14
40
0
40
0
40
0
40
0
40
0.124999999999978
40
0.124999999999978
40
0.249999999999955
40
0.249999999999955
40
0.49999999999997
40
0.49999999999997
40
0.749999999999985
40
0.749999999999985
40
0.874999999999993
40
0.874999999999993
40
1
40
1
40
1
40
1
41
1
10
256.28367949997
20
13.0484771646629
30
0
41
1
10
256.295858669442
20
13.0771663002892
30
0
41
1
10
256.298362886116
20
13.1102023200413
30
0
41
1
10
256.293809249384
20
13.1775518314514
30
0
41
1
10
256.286559945026
20
13.2117496119229
30
0
41
1
10
256.25581299604
20
13.3130145495327
30
0
41
1
10
256.223403455361
20
13.3790569645506
30
0
41
1
10
256.144534512532
20
13.5009760785541
30
0
41
1
10
256.098269232864
20
13.5566616506114
30
0
41
1
10
256.019841677111
20
13.6240747655914
30
0
41
1
10
255.992171550624
20
13.6437800973378
30
0
41
1
10
255.934235574726
20
13.6731578523744
30
0
41
1
10
255.903983073949
20
13.6830803480723
30
0
41
1
10
255.873802353241
20
13.682200705989
30
0
0
SPLINE
5
2CF
100
AcDbEntity
8
1
62
256
6
ByLayer
370
18
48
1
60
0
100
AcDbSpline
70
4
71
3
72
8
73
4
40
0
40
0
40
0
40
0
40
1
40
1
40
1
40
1
41
1
10
255.873802353241
20
13.682200705989
30
0
41
1
10
255.867505416107
20
13.6820171765447
30
0
41
1
10
255.861209507106
20
13.6818336815474
30
0
41
1
10
255.854914587426
20
13.6816502196924
30
0
0
SPLINE
5
2D0
100
AcDbEntity
8
1
62
256
6
ByLayer
370
18
48
1
60
0
100
AcDbSpline
70
4
71
3
72
20
73
16
40
0
40
0
40
0
40
0
40
0.125000000000023
40
0.125000000000023
40
0.250000000000046
40
0.250000000000046
40
0.375000000000069
40
0.375000000000069
40
0.500000000000091
40
0.500000000000091
40
0.750000000000046
40
0.750000000000046
40
0.875000000000023
40
0.875000000000023
40
1
40
1
40
1
40
1
41
1
10
258.367996584876
20
13.1577115944045
30
0
41
1
10
258.349539847223
20
13.18491972782
30
0
41
1
10
258.340703764333
20
13.2176032307736
30
0
41
1
10
258.333282355909
20
13.2848685781168
30
0
41
1
10
258.334865245712
20
13.3193316855064
30
0
41
1
10
258.344872306323
20
13.3883588330014
30
0
41
1
10
258.353441604393
20
13.4230174691261
30
0
41
1
10
258.375736728929
20
13.4903287956763
30
0
41
1
10
258.389538754432
20
13.5233536244315
30
0
41
1
10
258.438758256941
20
13.6206274371801
30
0
41
1
10
258.480823844108
20
13.6812777037085
30
0
41
1
10
258.556850686083
20
13.7569091907665
30
0
41
1
10
258.584416319433
20
13.7795466035445
30
0
41
1
10
258.644004410264
20
13.8151453604883
30
0
41
1
10
258.6759747606
20
13.8283534628802
30
0
41
1
10
258.709386233797
20
13.8308073601397
30
0
0
SPLINE
5
2D1
100
AcDbEntity
8
1
62
256
6
ByLayer
370
18
48
1
60
0
100
AcDbSpline
70
4
71
3
72
8
73
4
40
0
40
0
40
0
40
0
40
1
40
1
40
1
40
1
41
1
10
256.276054115444
20
13.0305135676053
30
0
41
1
10
256.278595393737
20
13.0365006487444
30
0
41
1
10
256.281137181872
20
13.0424885043619
30
0
41
1
10
256.28367949997
20
13.0484771646628
30
0
0
SPLINE
5
2D2
100
AcDbEntity
8
1
62
256
6
ByLayer
370
18
48
1
60
0
100
AcDbSpline
70
4
71
3
72
8
73
4
40
0
40
0
40
0
40
0
40
1
40
1
40
1
40
1
41
1
10
256.970458718404
20
12.6969375165541
30
0
41
1
10
256.967656812174
20
12.6910817308629
30
0
41
1
10
256.964855470349
20
12.685226732225
30
0
41
1
10
256.962054671517
20
12.6793724910969
30
0
0
SPLINE
5
2D3
100
AcDbEntity
8
1
62
256
6
ByLayer
370
18
48
1
60
0
100
AcDbSpline
70
4
71
3
72
16
73
12
40
0
40
0
40
0
40
0
40
0.25
40
0.25
40
0.5
40
0.5
40
0.75
40
0.75
40
0.875
40
0.875
40
1
40
1
40
1
40
1
41
1
10
258.039428321854
20
15.637025941234
30
0
41
1
10
258.078696400131
20
15.6169259061004
30
0
41
1
10
258.116305003902
20
15.593609790961
30
0
41
1
10
258.186416252344
20
15.5403981900287
30
0
41
1
10
258.218980004686
20
15.51058310803
30
0
41
1
10
258.273952062777
20
15.4430055453174
30
0
41
1
10
258.296815719027
20
15.4052820509864
30
0
41
1
10
258.308762211463
20
15.3435966278184
30
0
41
1
10
258.308390102809
20
15.3225915238927
30
0
41
1
10
258.296133539786
20
15.2848097491974
30
0
41
1
10
258.284264189368
20
15.268288800099
30
0
41
1
10
258.268671123706
20
15.2555431634858
30
0
0
SPLINE
5
2D4
100
AcDbEntity
8
1
62
256
6
ByLayer
370
18
48
1
60
0
100
AcDbSpline
70
4
71
3
72
16
73
12
40
0
40
0
40
0
40
0
40
0.25
40
0.25
40
0.5
40
0.5
40
0.75
40
0.75
40
0.875
40
0.875
40
1
40
1
40
1
40
1
41
1
10
255.614992036548
20
14.0561692538401
30
0
41
1
10
255.612675896123
20
14.1003638458894
30
0
41
1
10
255.613814370227
20
14.1447982819172
30
0
41
1
10
255.62393806668
20
14.2327089904045
30
0
41
1
10
255.632833133387
20
14.2761932443536
30
0
41
1
10
255.661836441895
20
14.3586694413584
30
0
41
1
10
255.681718556935
20
14.3980198435636
30
0
41
1
10
255.725807485412
20
14.4408294850731
30
0
41
1
10
255.742835786187
20
14.4516511009121
30
0
41
1
10
255.778660069136
20
14.461346609475
30
0
41
1
10
255.797241188744
20
14.4600991124253
30
0
41
1
10
255.814452367485
20
14.4537153690786
30
0
0
SPLINE
5
2D5
100
AcDbEntity
8
1
62
256
6
ByLayer
370
18
48
1
60
0
100
AcDbSpline
70
4
71
3
72
18
73
14
40
0
40
0
40
0
40
0
40
0.124999999999996
40
0.124999999999996
40
0.249999999999993
40
0.249999999999993
40
0.499999999999982
40
0.499999999999982
40
0.749999999999971
40
0.749999999999971
40
0.874999999999986
40
0.874999999999986
40
1
40
1
40
1
40
1
41
1
10
258.668878086185
20
14.6037488616896
30
0
41
1
10
258.635414151084
20
14.6026975263227
30
0
41
1
10
258.602203594125
20
14.612487096027
30
0
41
1
10
258.539090266042
20
14.6417428174185
30
0
41
1
10
258.509390834018
20
14.6613483678536
30
0
41
1
10
258.426058967271
20
14.7284707247046
30
0
41
1
10
258.377883760267
20
14.7843375258012
30
0
41
1
10
258.299034981342
20
14.906433079212
30
0
41
1
10
258.268588518887
20
14.9722273458368
30
0
41
1
10
258.242953430791
20
15.0732749724046
30
0
41
1
10
258.237757487755
20
15.1077650867127
30
0
41
1
10
258.238130198256
20
15.1749114079129
30
0
41
1
10
258.243460427307
20
15.2084300426616
30
0
41
1
10
258.259000939456
20
15.2374724030157
30
0
0
SPLINE
5
2D6
100
AcDbEntity
8
1
62
256
6
ByLayer
370
18
48
1
60
0
100
AcDbSpline
70
4
71
3
72
8
73
4
40
0
40
0
40
0
40
0
40
1
40
1
40
1
40
1
41
1
10
258.268671123706
20
15.2555431634858
30
0
41
1
10
258.265447958308
20
15.2495203461578
30
0
41
1
10
258.262224566419
20
15.2434967692012
30
0
41
1
10
258.259000939456
20
15.2374724030157
30
0
0
SPLINE
5
2D7
100
AcDbEntity
8
1
62
256
6
ByLayer
370
18
48
1
60
0
100
AcDbSpline
70
4
71
3
72
18
73
14
40
0
40
0
40
0
40
0
40
0.125000000000046
40
0.125000000000046
40
0.250000000000092
40
0.250000000000092
40
0.50000000000006
40
0.50000000000006
40
0.750000000000027
40
0.750000000000027
40
0.875000000000014
40
0.875000000000014
40
1
40
1
40
1
40
1
41
1
10
255.833294205629
20
14.4551422075389
30
0
41
1
10
255.863386815406
20
14.4574210134793
30
0
41
1
10
255.892471722503
20
14.4704537379724
30
0
41
1
10
255.947137616773
20
14.5058271103837
30
0
41
1
10
255.972528552686
20
14.5282873625369
30
0
41
1
10
256.043330933246
20
14.6033794584591
30
0
41
1
10
256.083677285638
20
14.6637983120617
30
0
41
1
10
256.149348867431
20
14.7933057852506
30
0
41
1
10
256.174604039931
20
14.8621253971782
30
0
41
1
10
256.194632945671
20
14.9662634836961
30
0
41
1
10
256.198253326502
20
15.001107271258
30
0
41
1
10
256.195728255809
20
15.0684042941317
30
0
41
1
10
256.189802531023
20
15.1009657308197
30
0
41
1
10
256.17468385455
20
15.1282379732741
30
0
0
SPLINE
5
2D8
100
AcDbEntity
8
1
62
256
6
ByLayer
370
18
48
1
60
0
100
AcDbSpline
70
4
71
3
72
16
73
12
40
0
40
0
40
0
40
0
40
0.125
40
0.125
40
0.25
40
0.25
40
0.5
40
0.5
40
0.75
40
0.75
40
1
40
1
40
1
40
1
41
1
10
258.730272871665
20
13.8323413620125
30
0
41
1
10
258.749603701477
20
13.8260415205493
30
0
41
1
10
258.770379911955
20
13.8249129984184
30
0
41
1
10
258.810165866619
20
13.8349826936734
30
0
41
1
10
258.82899739937
20
13.8461465311114
30
0
41
1
10
258.876613911858
20
13.8889748055381
30
0
41
1
10
258.89808502549
20
13.9283571828258
30
0
41
1
10
258.929283837687
20
14.0107765314333
30
0
41
1
10
258.938865890144
20
14.0543251986607
30
0
41
1
10
258.94985979838
20
14.1421820001954
30
0
41
1
10
258.95119709191
20
14.1867270248674
30
0
41
1
10
258.948882553313
20
14.2308910521965
30
0
0
SPLINE
5
2D9
100
AcDbEntity
8
1
62
256
6
ByLayer
370
18
48
1
60
0
100
AcDbSpline
70
4
71
3
72
8
73
4
40
0
40
0
40
0
40
0
40
1
40
1
40
1
40
1
41
1
10
257.572221721022
20
15.5890120511244
30
0
41
1
10
257.575704936117
20
15.5949035427003
30
0
41
1
10
257.579187881695
20
15.6007942626772
30
0
41
1
10
257.582670567633
20
15.6066842399942
30
0
0
SPLINE
5
2DA
100
AcDbEntity
8
1
62
256
6
ByLayer
370
18
48
1
60
0
100
AcDbSpline
70
4
71
3
72
16
73
12
40
0
40
0
40
0
40
0
40
0.249999999999998
40
0.249999999999998
40
0.499999999999996
40
0.499999999999996
40
0.749999999999994
40
0.749999999999994
40
0.874999999999997
40
0.874999999999997
40
1
40
1
40
1
40
1
41
1
10
256.524446268007
20
12.6500343648027
30
0
41
1
10
256.48517818973
20
12.6701343999362
30
0
41
1
10
256.447376608596
20
12.6934404015607
30
0
41
1
10
256.376385238929
20
12.7466058772941
30
0
41
1
10
256.343146969121
20
12.7763856093302
30
0
41
1
10
256.285891765043
20
12.8438435174318
30
0
41
1
10
256.261465216772
20
12.8814851040628
30
0
41
1
10
256.245472094617
20
12.9429584523537
30
0
41
1
10
256.244198859104
20
12.9638773274454
30
0
41
1
10
256.252716234726
20
13.0014631396326
30
0
41
1
10
256.26250884242
20
13.0178752512568
30
0
41
1
10
256.276054115444
20
13.0305135676053
30
0
0
SPLINE
5
2DB
100
AcDbEntity
8
1
62
256
6
ByLayer
370
18
48
1
60
0
100
AcDbSpline
70
4
71
3
72
16
73
12
40
0
40
0
40
0
40
0
40
0.124999999999996
40
0.124999999999996
40
0.249999999999993
40
0.249999999999993
40
0.499999999999995
40
0.499999999999995
40
0.749999999999998
40
0.749999999999998
40
1
40
1
40
1
40
1
41
1
10
258.379502703666
20
13.1407506369501
30
0
41
1
10
258.396405463267
20
13.1296635273812
30
0
41
1
10
258.410000714466
20
13.1143767749098
30
0
41
1
10
258.426130896
20
13.0778059209303
30
0
41
1
10
258.4285858152
20
13.0566810546162
30
0
41
1
10
258.422992630812
20
12.9945992306356
30
0
41
1
10
258.404253809444
20
12.9547022944649
30
0
41
1
10
258.356735821998
20
12.8819208492011
30
0
41
1
10
258.327451133537
20
12.8488384913737
30
0
41
1
10
258.263360629917
20
12.7886562417771
30
0
41
1
10
258.228317908499
20
12.7614731572427
30
0
41
1
10
258.19139152639
20
12.7373952639809
30
0
0
SPLINE
5
2DC
100
AcDbEntity
8
1
62
256
6
ByLayer
370
18
48
1
60
0
100
AcDbSpline
70
4
71
3
72
16
73
12
40
0
40
0
40
0
40
0
40
0.125
40
0.125
40
0.25
40
0.25
40
0.5
40
0.5
40
0.75
40
0.75
40
1
40
1
40
1
40
1
41
1
10
255.854914587426
20
13.6816502196924
30
0
41
1
10
255.838403599963
20
13.6734719881803
30
0
41
1
10
255.819947411053
20
13.6702873831217
30
0
41
1
10
255.783084703225
20
13.6763400921904
30
0
41
1
10
255.764846040091
20
13.6855611629845
30
0
41
1
10
255.717013084421
20
13.7233871427512
30
0
41
1
10
255.69310964528
20
13.7603915404922
30
0
41
1
10
255.655743223958
20
13.8392175374749
30
0
41
1
10
255.642337108486
20
13.8815614458714
30
0
41
1
10
255.62309916793
20
13.9678338633473
30
0
41
1
10
255.617306575145
20
14.012005226511
30
0
41
1
10
255.614992036548
20
14.0561692538401
30
0
0
SPLINE
5
2DD
100
AcDbEntity
8
1
62
256
6
ByLayer
370
18
48
1
60
0
100
AcDbSpline
70
4
71
3
72
16
73
12
40
0
40
0
40
0
40
0
40
0.125000000000001
40
0.125000000000001
40
0.250000000000003
40
0.250000000000003
40
0.500000000000002
40
0.500000000000002
40
0.750000000000001
40
0.750000000000001
40
1
40
1
40
1
40
1
41
1
10
256.962054671517
20
12.6793724910969
30
0
41
1
10
256.961418727008
20
12.6600532896688
30
0
41
1
10
256.955513666982
20
12.6415272120068
30
0
41
1
10
256.932902208196
20
12.6109105964169
30
0
41
1
10
256.916290140622
20
12.5989633902942
30
0
41
1
10
256.860864259418
20
12.5746027440878
30
0
41
1
10
256.817438682479
20
12.5716691537835
30
0
41
1
10
256.731415949525
20
12.5776540484597
30
0
41
1
10
256.688387385212
20
12.5868978977573
30
0
41
1
10
256.60461930186
20
12.6129650251237
30
0
41
1
10
256.563687188712
20
12.6299482307353
30
0
41
1
10
256.524446268007
20
12.6500343648027
30
0
0
SPLINE
5
2DE
100
AcDbEntity
8
1
62
256
6
ByLayer
370
18
48
1
60
0
100
AcDbSpline
70
4
71
3
72
18
73
14
40
0
40
0
40
0
40
0
40
0.125
40
0.125
40
0.25
40
0.25
40
0.5
40
0.5
40
0.75
40
0.75
40
0.875
40
0.875
40
1
40
1
40
1
40
1
41
1
10
256.820954925372
20
15.5496398267153
30
0
41
1
10
256.837236434541
20
15.5231439711426
30
0
41
1
10
256.862372290311
20
15.503064955308
30
0
41
1
10
256.919096512001
20
15.4709580426895
30
0
41
1
10
256.950698449704
20
15.4591660992393
30
0
41
1
10
257.049744908583
20
15.4328620876583
30
0
41
1
10
257.12164798585
20
15.4271938320606
30
0
41
1
10
257.266189659957
20
15.4347822514879
30
0
41
1
10
257.338558847822
20
15.4479607717113
30
0
41
1
10
257.439523700455
20
15.4848172024585
30
0
41
1
10
257.47185601554
20
15.5000102571055
30
0
41
1
10
257.529757311699
20
15.5380600408021
30
0
41
1
10
257.555526947086
20
15.5607745988489
30
0
41
1
10
257.572221721022
20
15.5890120511244
30
0
0
SPLINE
5
2DF
100
AcDbEntity
8
1
62
256
6
ByLayer
370
18
48
1
60
0
100
AcDbSpline
70
4
71
3
72
18
73
14
40
0
40
0
40
0
40
0
40
0.124999999999979
40
0.124999999999979
40
0.249999999999958
40
0.249999999999958
40
0.499999999999917
40
0.499999999999917
40
0.749999999999875
40
0.749999999999875
40
0.874999999999938
40
0.874999999999938
40
1
40
1
40
1
40
1
41
1
10
257.721725514054
20
12.7363097409632
30
0
41
1
10
257.702180142612
20
12.7626345447623
30
0
41
1
10
257.674154617537
20
12.7825621194457
30
0
41
1
10
257.612439777223
20
12.8144074848249
30
0
41
1
10
257.578761234384
20
12.8260905980114
30
0
41
1
10
257.474709034171
20
12.8521322698056
30
0
41
1
10
257.401100325296
20
12.8577111370384
30
0
41
1
10
257.256560950158
20
12.850122838095
30
0
41
1
10
257.185889233689
20
12.8370332785778
30
0
41
1
10
257.089941163335
20
12.800439766249
30
0
41
1
10
257.059692463783
20
12.7853559092651
30
0
41
1
10
257.006771949533
20
12.7475671572874
30
0
41
1
10
256.983888032938
20
12.725003833354
30
0
41
1
10
256.970458718404
20
12.6969375165541
30
0
0
SPLINE
5
2E0
100
AcDbEntity
8
1
62
256
6
ByLayer
370
18
48
1
60
0
100
AcDbSpline
70
4
71
3
72
8
73
4
40
0
40
0
40
0
40
0
40
1
40
1
40
1
40
1
41
1
10
258.367996584876
20
13.1577115944045
30
0
41
1
10
258.371832270212
20
13.1520571910997
30
0
41
1
10
258.375667639265
20
13.1464035481287
30
0
41
1
10
258.379502703666
20
13.1407506369501
30
0
0
SPLINE
5
2E1
100
AcDbEntity
8
1
62
256
6
ByLayer
370
18
48
1
60
0
100
AcDbSpline
70
4
71
3
72
8
73
4
40
0
40
0
40
0
40
0
40
1
40
1
40
1
40
1
41
1
10
256.810760871616
20
15.5662301670189
30
0
41
1
10
256.814158262208
20
15.5607007592341
30
0
41
1
10
256.817556271998
20
15.5551706548474
30
0
41
1
10
256.820954925372
20
15.5496398267153
30
0
0
SPLINE
5
2E2
100
AcDbEntity
8
1
62
256
6
ByLayer
370
18
48
1
60
0
100
AcDbSpline
70
4
71
3
72
8
73
4
40
0
40
0
40
0
40
0
40
1
40
1
40
1
40
1
41
1
10
257.733964367534
20
12.7198265640722
30
0
41
1
10
257.729885089837
20
12.7253202356681
30
0
41
1
10
257.725805476292
20
12.7308146187157
30
0
41
1
10
257.721725514054
20
12.7363097409633
30
0
0
SPLINE
5
2E3
100
AcDbEntity
8
1
62
256
6
ByLayer
370
18
48
1
60
0
100
AcDbSpline
70
4
71
3
72
8
73
4
40
0
40
0
40
0
40
0
40
1
40
1
40
1
40
1
41
1
10
255.814452367485
20
14.4537153690786
30
0
41
1
10
255.820731979922
20
14.4541909105274
30
0
41
1
10
255.827012579725
20
14.4546665224277
30
0
41
1
10
255.833294205629
20
14.4551422075389
30
0
0
SPLINE
5
2E4
100
AcDbEntity
8
1
62
256
6
ByLayer
370
18
48
1
60
0
100
AcDbSpline
70
4
71
3
72
8
73
4
40
0
40
0
40
0
40
0
40
1
40
1
40
1
40
1
41
1
10
258.709386233797
20
13.8308073601397
30
0
41
1
10
258.716349168566
20
13.8313187511354
30
0
41
1
10
258.723311372122
20
13.8318300843748
30
0
41
1
10
258.730272871665
20
13.8323413620125
30
0
0
SPLINE
5
2E5
100
AcDbEntity
8
1
62
256
6
ByLayer
370
18
48
1
60
0
100
AcDbSpline
70
4
71
3
72
16
73
12
40
0
40
0
40
0
40
0
40
0.125000000000017
40
0.125000000000017
40
0.250000000000034
40
0.250000000000034
40
0.500000000000023
40
0.500000000000023
40
0.750000000000011
40
0.750000000000011
40
1
40
1
40
1
40
1
41
1
10
256.165222535484
20
15.145306094141
30
0
41
1
10
256.150375209177
20
15.1565009244043
30
0
41
1
10
256.138868202608
20
15.1718971171394
30
0
41
1
10
256.126495886057
20
15.2086649124775
30
0
41
1
10
256.125697614139
20
15.2298765999967
30
0
41
1
10
256.135290280817
20
15.2921680279624
30
0
41
1
10
256.155595735046
20
15.3321470678823
30
0
41
1
10
256.205390370863
20
15.4050478272315
30
0
41
1
10
256.235350580087
20
15.4381655876018
30
0
41
1
10
256.300320362058
20
15.4983939182243
30
0
41
1
10
256.335556681363
20
15.525587148794
30
0
41
1
10
256.372483063472
20
15.5496650420558
30
0
0
SPLINE
5
2E6
100
AcDbEntity
8
1
62
256
6
ByLayer
370
18
48
1
60
0
100
AcDbSpline
70
4
71
1
72
4
73
2
40
0
40
0
40
1
40
1
41
1
10
266.974066489823
20
-7.09963971058832
30
0
41
1
10
266.935251135951
20
-6.85608496063094
30
0
0
SPLINE
5
2E7
100
AcDbEntity
8
1
62
256
6
ByLayer
370
18
48
1
60
0
100
AcDbSpline
70
4
71
1
72
4
73
2
40
0
40
0
40
1
40
1
41
1
10
266.990160650663
20
-7.20062576194096
30
0
41
1
10
266.974066489823
20
-7.09963971058832
30
0
0
SPLINE
5
2E8
100
AcDbEntity
8
1
62
256
6
ByLayer
370
18
48
1
60
0
100
AcDbSpline
70
4
71
2
72
7
73
4
40
0
40
0
40
0
40
0.5
40
1
40
1
40
1
41
1
10
266.558963327366
20
-7.04575540098952
30
0
41
1
10
266.566455467058
20
-6.98919892609996
30
0
41
1
10
266.565029418053
20
-6.8745264888646
30
0
41
1
10
266.555958110767
20
-6.81760674555858
30
0
0
SPLINE
5
2E9
100
AcDbEntity
8
1
62
256
6
ByLayer
370
18
48
1
60
0
100
AcDbSpline
70
4
71
2
72
6
73
3
40
0
40
0
40
0
40
1
40
1
40
1
41
1
10
265.260180841392
20
-14.1429804607463
30
0
41
1
10
265.308508526861
20
-14.1353734491411
30
0
41
1
10
265.355543154013
20
-14.1219699030518
30
0
0
SPLINE
5
2EA
100
AcDbEntity
8
1
62
256
6
ByLayer
370
18
48
1
60
0
100
AcDbSpline
70
4
71
3
72
12
73
8
40
0
40
0
40
0
40
0
40
0.441018847360859
40
0.441018847360859
40
0.720346482069598
40
0.720346482069598
40
1
40
1
40
1
40
1
41
1
10
265.856297980449
20
-0.124378473787687
30
0
41
1
10
265.860257763857
20
-0.138101961116604
30
0
41
1
10
265.863846795253
20
-0.151936507074169
30
0
41
1
10
265.869091214691
20
-0.174667657977068
30
0
41
1
10
265.870974029861
20
-0.183519057041906
30
0
41
1
10
265.874436272563
20
-0.201288391217076
30
0
41
1
10
265.87601584844
20
-0.210208982690631
30
0
41
1
10
265.877441505423
20
-0.219152530852881
30
0
0
SPLINE
5
2EB
100
AcDbEntity
8
1
62
256
6
ByLayer
370
18
48
1
60
0
100
AcDbSpline
70
4
71
1
72
4
73
2
40
0
40
0
40
1
40
1
41
1
10
266.555958110767
20
-6.81760674555841
30
0
41
1
10
266.990160650663
20
-7.20062576194098
30
0
0
SPLINE
5
2EC
100
AcDbEntity
8
1
62
256
6
ByLayer
370
18
48
1
60
0
100
AcDbSpline
70
4
71
1
72
4
73
2
40
0
40
0
40
1
40
1
41
1
10
266.863960108237
20
-6.40875505900325
30
0
41
1
10
265.877532521878
20
-0.219216637158524
30
0
0
SPLINE
5
2ED
100
AcDbEntity
8
1
62
256
6
ByLayer
370
18
48
1
60
0
100
AcDbSpline
70
4
71
1
72
4
73
2
40
0
40
0
40
1
40
1
41
1
10
266.935251135951
20
-6.85608496063094
30
0
41
1
10
266.863960108237
20
-6.40875505900325
30
0
0
SPLINE
5
2EE
100
AcDbEntity
8
1
62
256
6
ByLayer
370
18
48
1
60
0
100
AcDbSpline
70
4
71
1
72
4
73
2
40
0
40
0
40
1
40
1
41
1
10
265.661952578281
20
-13.8170874816238
30
0
41
1
10
266.051245754539
20
-14.5391171678162
30
0
0
SPLINE
5
2EF
100
AcDbEntity
8
1
62
256
6
ByLayer
370
18
48
1
60
0
100
AcDbSpline
70
4
71
3
72
12
73
8
40
0
40
0
40
0
40
0
40
0.5
40
0.5
40
0.75
40
0.75
40
1
40
1
40
1
40
1
41
1
10
266.051250855164
20
-14.5390283215797
30
0
41
1
10
266.042356361324
20
-14.6057283497418
30
0
41
1
10
266.013331276553
20
-14.6695679351093
30
0
41
1
10
265.947166936336
20
-14.7460991957941
30
0
41
1
10
265.92130293607
20
-14.7684064054752
30
0
41
1
10
265.864283768534
20
-14.8045742029745
30
0
41
1
10
265.833031534708
20
-14.8179048674851
30
0
41
1
10
265.800714090593
20
-14.8279927129592
30
0
0
SPLINE
5
2F0
100
AcDbEntity
8
1
62
256
6
ByLayer
370
18
48
1
60
0
100
AcDbSpline
70
4
71
1
72
4
73
2
40
0
40
0
40
1
40
1
41
1
10
266.051245754539
20
-14.5391171678163
30
0
41
1
10
266.886152638694
20
-8.23659317377292
30
0
0
SPLINE
5
2F1
100
AcDbEntity
8
1
62
256
6
ByLayer
370
18
48
1
60
0
100
AcDbSpline
70
4
71
1
72
4
73
2
40
0
40
0
40
1
40
1
41
1
10
266.979329005085
20
-7.53322577316615
30
0
41
1
10
266.993165867284
20
-7.42877441737389
30
0
0
SPLINE
5
2F2
100
AcDbEntity
8
1
62
256
6
ByLayer
370
18
48
1
60
0
100
AcDbSpline
70
4
71
3
72
8
73
4
40
0
40
0
40
0
40
0
40
1
40
1
40
1
40
1
41
1
10
266.999943169458
20
-7.31459237007002
30
0
41
1
10
267.000415193705
20
-7.35042728995825
30
0
41
1
10
266.997984280194
20
-7.38615084424376
30
0
41
1
10
266.994156289437
20
-7.42181047527848
30
0
0
SPLINE
5
2F3
100
AcDbEntity
8
1
62
256
6
ByLayer
370
18
48
1
60
0
100
AcDbSpline
70
4
71
3
72
27
73
23
40
0
40
0
40
0
40
0
40
0.0030864566663165
40
0.0188334961138106
40
0.0503275750087987
40
0.113315732798775
40
0.239292048378727
40
0.36526836395868
40
0.487307919676759
40
0.491244679538632
40
0.499118199262379
40
0.506991718986126
40
0.52273875843362
40
0.554232837328608
40
0.617220995118585
40
0.743197310698537
40
0.869173626278489
40
0.932161784068466
40
0.963655862963454
40
0.979402902410948
40
0.995149941858442
40
1
40
1
40
1
40
1
41
1
10
265.290598829258
20
-13.7345462438218
30
0
41
1
10
265.299246941568
20
-13.7250513255714
30
0
41
1
10
265.346841771527
20
-13.6628158701584
30
0
41
1
10
265.379717997632
20
-13.4316479792273
30
0
41
1
10
265.444792430029
20
-12.9281261011208
30
0
41
1
10
265.58124871498
20
-11.906243639301
30
0
41
1
10
265.771238301769
20
-10.4530759503018
30
0
41
1
10
266.008337074321
20
-8.72682230253577
30
0
41
1
10
266.161778378109
20
-7.56288999276907
30
0
41
1
10
266.239322229882
20
-6.94647997402947
30
0
41
1
10
266.235770288898
20
-6.86047775217762
30
0
41
1
10
266.204647893579
20
-6.71655421767124
30
0
41
1
10
266.169435670466
20
-6.46251574836629
30
0
41
1
10
266.08528458337
20
-5.95543436022649
30
0
41
1
10
265.925855621714
20
-4.94109575408157
30
0
41
1
10
265.694320665643
20
-3.49188351310781
30
0
41
1
10
265.461289455878
20
-2.04321724463276
30
0
41
1
10
265.30411748306
20
-1.02814633887499
30
0
41
1
10
265.216180357978
20
-0.521879756650975
30
0
41
1
10
265.180969511591
20
-0.229373838456098
30
0
41
1
10
265.158017341063
20
-0.0653443938286102
30
0
41
1
10
265.126022070842
20
0.0206325349678309
30
0
41
1
10
265.116881318171
20
0.0396804604467604
30
0
0
SPLINE
5
2F4
100
AcDbEntity
8
1
62
256
6
ByLayer
370
18
48
1
60
0
100
AcDbSpline
70
4
71
1
72
4
73
2
40
0
40
0
40
1
40
1
41
1
10
265.3533687059
20
-14.9493918340785
30
0
41
1
10
265.260180841392
20
-14.1429804607463
30
0
0
SPLINE
5
2F5
100
AcDbEntity
8
1
62
256
6
ByLayer
370
18
48
1
60
0
100
AcDbSpline
70
4
71
3
72
30
73
26
40
0
40
0
40
0
40
0
40
0.0051026451166018
40
0.0127873861602706
40
0.0281568682476083
40
0.0588958324222837
40
0.120373760771635
40
0.243329617470336
40
0.366285474169038
40
0.485398960345905
40
0.489241330867739
40
0.496926071911408
40
0.504610812955077
40
0.519980295042415
40
0.55071925921709
40
0.612197187566441
40
0.735153044265143
40
0.858108900963844
40
0.919586829313195
40
0.95032579348787
40
0.965695275575208
40
0.981064757662546
40
0.988749498706215
40
0.996434239749883
40
1
40
1
40
1
40
1
41
1
10
265.244149390587
20
-13.9469293733603
30
0
41
1
10
265.272489941893
20
-13.9356750531281
30
0
41
1
10
265.343338760046
20
-13.9008889060061
30
0
41
1
10
265.480386952645
20
-13.7650501260178
30
0
41
1
10
265.523309450749
20
-13.4632422686089
30
0
41
1
10
265.588462061986
20
-12.9591154715711
30
0
41
1
10
265.724904343629
20
-11.9373378765614
30
0
41
1
10
265.914859173741
20
-10.4844360299201
30
0
41
1
10
266.151947525567
20
-8.75825825270846
30
0
41
1
10
266.305495032163
20
-7.59352033925555
30
0
41
1
10
266.384581729126
20
-6.96484596672767
30
0
41
1
10
266.380028996107
20
-6.85461182801222
30
0
41
1
10
266.347441572939
20
-6.70391336554513
30
0
41
1
10
266.312706497604
20
-6.45331727733577
30
0
41
1
10
266.228342488677
20
-5.94495285530044
30
0
41
1
10
266.068980504806
20
-4.93104038347667
30
0
41
1
10
265.837404971438
20
-3.48157416307419
30
0
41
1
10
265.604428430225
20
-2.0332477481646
30
0
41
1
10
265.447119657067
20
-1.01729333854144
30
0
41
1
10
265.359596941721
20
-0.513412572331731
30
0
41
1
10
265.324668124448
20
-0.223249545413808
30
0
41
1
10
265.297125794996
20
-0.0264161784637622
30
0
41
1
10
265.22612556813
20
0.146993156875055
30
0
41
1
10
265.134206757925
20
0.238586772282929
30
0
41
1
10
265.075249418871
20
0.27080390721494
30
0
41
1
10
265.056287808202
20
0.279289689238737
30
0
0
SPLINE
5
2F6
100
AcDbEntity
8
1
62
256
6
ByLayer
370
18
48
1
60
0
100
AcDbSpline
70
4
71
1
72
4
73
2
40
0
40
0
40
1
40
1
41
1
10
266.993165867284
20
-7.42877441737392
30
0
41
1
10
266.558963327366
20
-7.04575540098972
30
0
0
SPLINE
5
2F7
100
AcDbEntity
8
1
62
256
6
ByLayer
370
18
48
1
60
0
100
AcDbSpline
70
4
71
2
72
6
73
3
40
0
40
0
40
0
40
1
40
1
40
1
41
1
10
265.457189228925
20
0.0768397449272129
30
0
41
1
10
265.449534875512
20
0.124868525922437
30
0
41
1
10
265.436047913174
20
0.171612246181525
30
0
0
SPLINE
5
2F8
100
AcDbEntity
8
1
62
256
6
ByLayer
370
18
48
1
60
0
100
AcDbSpline
70
4
71
1
72
4
73
2
40
0
40
0
40
1
40
1
41
1
10
265.877532521879
20
-0.219216637158695
30
0
41
1
10
265.457189228925
20
0.076839744927355
30
0
0
SPLINE
5
2F9
100
AcDbEntity
8
1
62
256
6
ByLayer
370
18
48
1
60
0
100
AcDbSpline
70
4
71
1
72
4
73
2
40
0
40
0
40
1
40
1
41
1
10
265.129268073123
20
0.476126542551327
30
0
41
1
10
265.464704534163
20
0.474344075435596
30
0
0
SPLINE
5
2FA
100
AcDbEntity
8
1
62
256
6
ByLayer
370
18
48
1
60
0
100
AcDbSpline
70
4
71
1
72
4
73
2
40
0
40
0
40
1
40
1
41
1
10
265.755461960477
20
0.225360980832647
30
0
41
1
10
265.420025499437
20
0.227143447951249
30
0
0
SPLINE
5
2FB
100
AcDbEntity
8
1
62
256
6
ByLayer
370
18
48
1
60
0
100
AcDbSpline
70
4
71
3
72
8
73
4
40
0
40
0
40
0
40
0
40
1
40
1
40
1
40
1
41
1
10
266.991122535671
20
-7.20626680492646
30
0
41
1
10
266.995995704864
20
-7.24224382211486
30
0
41
1
10
266.999465411159
20
-7.27832213497763
30
0
41
1
10
266.999943169458
20
-7.31459237007002
30
0
0
SPLINE
5
2FC
100
AcDbEntity
8
1
62
256
6
ByLayer
370
18
48
1
60
0
100
AcDbSpline
70
4
71
1
72
4
73
2
40
0
40
0
40
1
40
1
41
1
10
265.355543154013
20
-14.1219699030517
30
0
41
1
10
265.44871035098
20
-14.9282024275519
30
0
0
SPLINE
5
2FD
100
AcDbEntity
8
1
62
256
6
ByLayer
370
18
48
1
60
0
100
AcDbSpline
70
4
71
1
72
4
73
2
40
0
40
0
40
1
40
1
41
1
10
266.886152638694
20
-8.23659317377292
30
0
41
1
10
266.946471987411
20
-7.78125599808902
30
0
0
SPLINE
5
2FE
100
AcDbEntity
8
1
62
256
6
ByLayer
370
18
48
1
60
0
100
AcDbSpline
70
4
71
2
72
12
73
9
40
0
40
0
40
0
40
0.25
40
0.5
40
0.5
40
0.75
40
0.75
40
0.875
40
1
40
1
40
1
41
1
10
265.420025499437
20
0.227143447951249
30
0
41
1
10
265.406122901699
20
0.275327696128386
30
0
41
1
10
265.351710924069
20
0.360527438923498
30
0
41
1
10
265.312275984142
20
0.394581035137008
30
0
41
1
10
265.274561801048
20
0.427148691254985
30
0
41
1
10
265.226950799263
20
0.448581996438321
30
0
41
1
10
265.204839430056
20
0.458535992499293
30
0
41
1
10
265.155223084208
20
0.472730634759046
30
0
41
1
10
265.129268073124
20
0.47612654255127
30
0
0
SPLINE
5
2FF
100
AcDbEntity
8
1
62
256
6
ByLayer
370
18
48
1
60
0
100
AcDbSpline
70
4
71
2
72
12
73
9
40
0
40
0
40
0
40
0.25
40
0.5
40
0.5
40
0.75
40
0.75
40
0.875
40
1
40
1
40
1
41
1
10
265.411419951324
20
-14.1060465871168
30
0
41
1
10
265.459904071471
20
-14.0922299762857
30
0
41
1
10
265.545634050093
20
-14.0381545341469
30
0
41
1
10
265.57989957696
20
-13.9989634974414
30
0
41
1
10
265.612669916062
20
-13.9614825747752
30
0
41
1
10
265.634236610223
20
-13.9141660447619
30
0
41
1
10
265.644252554421
20
-13.8921914333216
30
0
41
1
10
265.658535536245
20
-13.8428819622073
30
0
41
1
10
265.661952578281
20
-13.8170874816243
30
0
0
SPLINE
5
300
100
AcDbEntity
8
1
62
256
6
ByLayer
370
18
48
1
60
0
100
AcDbSpline
70
4
71
3
72
10
73
6
40
0
40
0
40
0
40
0
40
0.772512501755839
40
0.772512501755839
40
1
40
1
40
1
40
1
41
1
10
265.755386996143
20
0.22536137918442
30
0
41
1
10
265.78137148969
20
0.135302240703908
30
0
41
1
10
265.807357880791
20
0.0452418575185618
30
0
41
1
10
265.840993882943
20
-0.0713374427516555
30
0
41
1
10
265.848645689015
20
-0.0978577999020729
30
0
41
1
10
265.856297980923
20
-0.124378475428926
30
0
0
SPLINE
5
301
100
AcDbEntity
8
1
62
256
6
ByLayer
370
18
48
1
60
0
100
AcDbSpline
70
4
71
3
72
12
73
8
40
0
40
0
40
0
40
0
40
0.441018847099043
40
0.441018847099043
40
0.720346481938119
40
0.720346481938119
40
1
40
1
40
1
40
1
41
1
10
265.448710350853
20
-14.9282024275879
30
0
41
1
10
265.43490162733
20
-14.9321378900292
30
0
41
1
10
265.420981171267
20
-14.9357049106468
30
0
41
1
10
265.398108974395
20
-14.9409173110552
30
0
41
1
10
265.389202680024
20
-14.9427886707997
30
0
41
1
10
265.371323228095
20
-14.9462299654924
30
0
41
1
10
265.362347397857
20
-14.9478000480796
30
0
41
1
10
265.353348527971
20
-14.9492172232961
30
0
0
SPLINE
5
302
100
AcDbEntity
8
1
62
256
6
ByLayer
370
18
48
1
60
0
100
AcDbSpline
70
4
71
3
72
12
73
8
40
0
40
0
40
0
40
0
40
0.499999999999845
40
0.499999999999845
40
0.749999999999922
40
0.749999999999922
40
1
40
1
40
1
40
1
41
1
10
265.464705210946
20
0.474438663346973
30
0
41
1
10
265.531820335431
20
0.465599174010208
30
0
41
1
10
265.596055298
20
0.436751695027425
30
0
41
1
10
265.673063730686
20
0.370997456615925
30
0
41
1
10
265.69550945066
20
0.345293108542649
30
0
41
1
10
265.731901573916
20
0.288625844046123
30
0
41
1
10
265.745314905163
20
0.257566609716633
30
0
41
1
10
265.75546523272
20
0.225448750241497
30
0
0
SPLINE
5
303
100
AcDbEntity
8
1
62
256
6
ByLayer
370
18
48
1
60
0
100
AcDbSpline
70
4
71
3
72
10
73
6
40
0
40
0
40
0
40
0
40
0.538208338935397
40
0.538208338935397
40
1
40
1
40
1
40
1
41
1
10
265.80277473193
20
-14.8273026394348
30
0
41
1
10
265.739254464095
20
-14.8454034393563
30
0
41
1
10
265.675734661029
20
-14.8635073747937
30
0
41
1
10
265.557713151162
20
-14.8971403036044
30
0
41
1
10
265.503211502859
20
-14.9126696930509
30
0
41
1
10
265.44871035098
20
-14.928202427552
30
0
0
SPLINE
5
304
100
AcDbEntity
8
1
62
256
6
ByLayer
370
18
48
1
60
0
100
AcDbSpline
70
4
71
1
72
4
73
2
40
0
40
0
40
1
40
1
41
1
10
265.464704534163
20
0.474344075435567
30
0
41
1
10
265.063093465645
20
0.526890158063054
30
0
0
SPLINE
5
305
100
AcDbEntity
8
1
62
256
6
ByLayer
370
18
48
1
60
0
100
AcDbSpline
70
4
71
1
72
4
73
2
40
0
40
0
40
1
40
1
41
1
10
266.946471987411
20
-7.78125599808902
30
0
41
1
10
266.979329005085
20
-7.53322577316615
30
0
0
SPLINE
5
306
100
AcDbEntity
8
1
62
256
6
ByLayer
370
18
48
1
60
0
100
AcDbSpline
70
4
71
1
72
4
73
2
40
0
40
0
40
1
40
1
41
1
10
265.800713127582
20
-14.8280762733095
30
0
41
1
10
265.411419951324
20
-14.106046587117
30
0
0
SPLINE
5
307
100
AcDbEntity
8
1
62
256
6
ByLayer
370
18
48
1
60
0
100
AcDbSpline
70
4
71
1
72
4
73
2
40
0
40
0
40
1
40
1
41
1
10
265.436047913174
20
0.171612246181382
30
0
41
1
10
265.856297980922
20
-0.124378475428642
30
0
0
SPLINE
5
308
100
AcDbEntity
8
1
62
256
6
ByLayer
370
13
48
1
60
0
100
AcDbSpline
70
4
71
3
72
8
73
4
40
0
40
0
40
0
40
0
40
1
40
1
40
1
40
1
41
1
10
265.257101456475
20
6.803346958688
30
0
41
1
10
265.190258317073
20
6.8001251997247
30
0
41
1
10
265.125349328788
20
6.79880752855098
30
0
41
1
10
265.062023229893
20
6.79850201985178
30
0
0
SPLINE
5
309
100
AcDbEntity
8
1
62
256
6
ByLayer
370
13
48
1
60
0
100
AcDbSpline
70
4
71
1
72
4
73
2
40
0
40
0
40
1
40
1
41
1
10
247.355472024303
20
13.5841577667841
30
0
41
1
10
247.443561292368
20
13.5913451707489
30
0
0
SPLINE
5
30A
100
AcDbEntity
8
1
62
256
6
ByLayer
370
13
48
1
60
0
100
AcDbSpline
70
4
71
3
72
24
73
20
40
0
40
0
40
0
40
0
40
0.0312500000000332
40
0.0312500000000332
40
0.0625000000000664
40
0.0625000000000664
40
0.125000000000109
40
0.125000000000109
40
0.156250000000131
40
0.156250000000131
40
0.171875000000129
40
0.171875000000129
40
0.187500000000127
40
0.187500000000127
40
0.250000000000119
40
0.250000000000119
40
0.500000000000088
40
0.500000000000088
40
1
40
1
40
1
40
1
41
1
10
263.432676705483
20
21.1678033482212
30
0
41
1
10
263.376937492927
20
21.1289470689315
30
0
41
1
10
263.318602396447
20
21.092742027304
30
0
41
1
10
263.198542587497
20
21.0269343057476
30
0
41
1
10
263.137240685801
20
20.9975197648311
30
0
41
1
10
262.949626291272
20
20.91944975214
30
0
41
1
10
262.819575120037
20
20.8808041535891
30
0
41
1
10
262.617123326528
20
20.8438104311908
30
0
41
1
10
262.549418369513
20
20.8352431441928
30
0
41
1
10
262.4475472403
20
20.8277342521128
30
0
41
1
10
262.413529593304
20
20.8262633410334
30
0
41
1
10
262.345531855435
20
20.8226819578702
30
0
41
1
10
262.311531899323
20
20.8209097803631
30
0
41
1
10
262.141533890694
20
20.8120187176984
30
0
41
1
10
262.005536063751
20
20.8048959911517
30
0
41
1
10
261.325548475405
20
20.7692560245848
30
0
41
1
10
260.781560607825
20
20.7407065337524
30
0
41
1
10
259.149589751683
20
20.6551815828536
30
0
41
1
10
258.061608312734
20
20.5981808557493
30
0
41
1
10
256.973627829448
20
20.541162214717
30
0
0
SPLINE
5
30B
100
AcDbEntity
8
1
62
256
6
ByLayer
370
13
48
1
60
0
100
AcDbSpline
70
4
71
2
72
6
73
3
40
0
40
0
40
0
40
1
40
1
40
1
41
0.998835603708718
10
247.445564656397
20
13.6280277068326
30
0
41
0.998293048640325
10
247.442684590944
20
13.5926502926426
30
0
41
1
10
247.443155184393
20
13.5571564829703
30
0
0
SPLINE
5
30C
100
AcDbEntity
8
1
62
256
6
ByLayer
370
13
48
1
60
0
100
AcDbSpline
70
4
71
3
72
26
73
22
40
0
40
0
40
0
40
0
40
0.249999999999877
40
0.249999999999877
40
0.374999999999899
40
0.374999999999899
40
0.49999999999992
40
0.49999999999992
40
0.624999999999942
40
0.624999999999942
40
0.687499999999952
40
0.687499999999952
40
0.718749999999957
40
0.718749999999957
40
0.749999999999962
40
0.749999999999962
40
0.812499999999972
40
0.812499999999972
40
0.874999999999981
40
0.874999999999981
40
1
40
1
40
1
40
1
41
1
10
265.916158767461
20
6.94988804178155
30
0
41
1
10
265.878953800937
20
6.92876525074141
30
0
41
1
10
265.837316701716
20
6.90774913774447
30
0
41
1
10
265.763538804947
20
6.87780767670569
30
0
41
1
10
265.737464535297
20
6.86828170696924
30
0
41
1
10
265.680918707225
20
6.85057871004173
30
0
41
1
10
265.650540920248
20
6.84243917530114
30
0
41
1
10
265.58795099653
20
6.82928560650311
30
0
41
1
10
265.556160712593
20
6.82453932688119
30
0
41
1
10
265.510600920774
20
6.82059037858511
30
0
41
1
10
265.495729706954
20
6.81970339893496
30
0
41
1
10
265.473778572275
20
6.8185868299631
30
0
41
1
10
265.466466216565
20
6.81821875143578
30
0
41
1
10
265.452137332758
20
6.81774195459403
30
0
41
1
10
265.445117974333
20
6.81763649526064
30
0
41
1
10
265.422825730756
20
6.81617453243578
30
0
41
1
10
265.40637577707
20
6.81371129033352
30
0
41
1
10
265.375679333173
20
6.8108497497756
30
0
41
1
10
265.360840085432
20
6.80989595726049
30
0
41
1
10
265.315917310782
20
6.80665501041406
30
0
41
1
10
265.286243223907
20
6.80475155684525
30
0
41
1
10
265.257101456475
20
6.803346958688
30
0
0
SPLINE
5
30D
100
AcDbEntity
8
1
62
256
6
ByLayer
370
13
48
1
60
0
100
AcDbSpline
70
4
71
1
72
4
73
2
40
0
40
0
40
1
40
1
41
1
10
264.998571346553
20
6.70062498206667
30
0
41
1
10
265.062023229893
20
6.79850201985175
30
0
0
SPLINE
5
30E
100
AcDbEntity
8
1
62
256
6
ByLayer
370
13
48
1
60
0
100
AcDbSpline
70
4
71
3
72
18
73
14
40
0
40
0
40
0
40
0
40
0.499999999999986
40
0.499999999999986
40
0.74999999999998
40
0.74999999999998
40
0.87499999999999
40
0.87499999999999
40
0.906249999999992
40
0.906249999999992
40
0.937499999999995
40
0.937499999999995
40
1
40
1
40
1
40
1
41
1
10
257.652033037025
20
7.94941064206637
30
0
41
1
10
258.661378679423
20
8.00230820571346
30
0
41
1
10
259.670724644462
20
8.05519776612633
30
0
41
1
10
261.184743156715
20
8.1345469951182
30
0
41
1
10
261.689415260369
20
8.16101963325835
30
0
41
1
10
262.446425226087
20
8.20067210683874
30
0
41
1
10
262.698760955618
20
8.21391848229743
30
0
41
1
10
263.014181635759
20
8.23044468055193
30
0
41
1
10
263.077249875819
20
8.23424591163425
30
0
41
1
10
263.203456496501
20
8.23965982403959
30
0
41
1
10
263.266650398501
20
8.23954010840455
30
0
41
1
10
263.456509662806
20
8.23052049266607
30
0
41
1
10
263.583447624131
20
8.21311486497453
30
0
41
1
10
263.710781382333
20
8.18335944820066
30
0
0
SPLINE
5
30F
100
AcDbEntity
8
1
62
256
6
ByLayer
370
13
48
1
60
0
100
AcDbSpline
70
4
71
2
72
6
73
3
40
0
40
0
40
0
40
1
40
1
40
1
41
0.998835603708977
10
247.4455646564
20
13.6280277068154
30
0
41
0.998293048639917
10
247.439002421505
20
13.6629102710212
30
0
41
1
10
247.435760323613
20
13.6982588323089
30
0
0
SPLINE
5
310
100
AcDbEntity
8
1
62
256
6
ByLayer
370
13
48
1
60
0
100
AcDbSpline
70
4
71
3
72
12
73
8
40
0
40
0
40
0
40
0
40
0.25
40
0.25
40
0.5
40
0.5
40
1
40
1
40
1
40
1
41
1
10
265.062023229893
20
6.79850201985178
30
0
41
1
10
265.040256839814
20
6.7979164038853
30
0
41
1
10
265.019823381595
20
6.79822530333931
30
0
41
1
10
264.978475538297
20
6.79852036954637
30
0
41
1
10
264.95772823927
20
6.79862029782723
30
0
41
1
10
264.895562107812
20
6.79896923690791
30
0
41
1
10
264.854170097097
20
6.79923564582245
30
0
41
1
10
264.812751293586
20
6.799484676937
30
0
0
SPLINE
5
311
100
AcDbEntity
8
1
62
256
6
ByLayer
370
13
48
1
60
0
100
AcDbSpline
70
4
71
1
72
4
73
2
40
0
40
0
40
1
40
1
41
1
10
247.674470876453
20
13.6858754314388
30
0
41
1
10
247.449436262944
20
13.6645259722685
30
0
0
SPLINE
5
312
100
AcDbEntity
8
1
62
256
6
ByLayer
370
13
48
1
60
0
100
AcDbSpline
70
4
71
2
72
6
73
3
40
0
40
0
40
0
40
1
40
1
40
1
41
1
10
247.452280732669
20
13.4499860819764
30
0
41
0.997409491337351
10
247.443870000502
20
13.5032425431448
30
0
41
1
10
247.443155184393
20
13.5571564829703
30
0
0
SPLINE
5
313
100
AcDbEntity
8
1
62
256
6
ByLayer
370
13
48
1
60
0
100
AcDbSpline
70
4
71
3
72
12
73
8
40
0
40
0
40
0
40
0
40
0.0590320358069254
40
0.0590320358069254
40
0.539356876087913
40
0.539356876087913
40
1
40
1
40
1
40
1
41
1
10
265.824375736981
20
6.84139195653199
30
0
41
1
10
265.818904515953
20
6.835561245582
30
0
41
1
10
265.813339795176
20
6.82980831901898
30
0
41
1
10
265.761654647337
20
6.7779776930079
30
0
41
1
10
265.711011046268
20
6.73812934730458
30
0
41
1
10
265.602737175678
20
6.67245360366599
30
0
41
1
10
265.545274705533
20
6.64627826019256
30
0
41
1
10
265.486471158406
20
6.62711505066574
30
0
0
SPLINE
5
314
100
AcDbEntity
8
1
62
256
6
ByLayer
370
13
48
1
60
0
100
AcDbSpline
70
4
71
3
72
18
73
14
40
0
40
0
40
0
40
0
40
0.499999999999987
40
0.499999999999987
40
0.749999999999993
40
0.749999999999993
40
0.874999999999983
40
0.874999999999983
40
0.906249999999987
40
0.906249999999987
40
0.937499999999992
40
0.937499999999992
40
1
40
1
40
1
40
1
41
1
10
257.002543820049
20
20.3424031683708
30
0
41
1
10
255.993198177651
20
20.2895056047238
30
0
41
1
10
254.983852212611
20
20.2366160443109
30
0
41
1
10
253.469833700359
20
20.157266815319
30
0
41
1
10
252.965161596705
20
20.1307941771788
30
0
41
1
10
252.208151630987
20
20.0911417035984
30
0
41
1
10
251.955815901456
20
20.0778953281398
30
0
41
1
10
251.640395221315
20
20.0613691298853
30
0
41
1
10
251.577326981256
20
20.057567898803
30
0
41
1
10
251.451120360573
20
20.0521539863976
30
0
41
1
10
251.387926458573
20
20.0522737020327
30
0
41
1
10
251.198067194268
20
20.0612933177711
30
0
41
1
10
251.071129232943
20
20.0786989454627
30
0
41
1
10
250.943795474741
20
20.1084543622366
30
0
0
SPLINE
5
315
100
AcDbEntity
8
1
62
256
6
ByLayer
370
13
48
1
60
0
100
AcDbSpline
70
4
71
3
72
10
73
6
40
0
40
0
40
0
40
0
40
0.437251963445965
40
0.437251963445965
40
1
40
1
40
1
40
1
41
1
10
263.71306616853
20
21.4388036871356
30
0
41
1
10
263.714859036324
20
21.4354899476196
30
0
41
1
10
263.724529750399
20
21.4268821868947
30
0
41
1
10
263.761144948735
20
21.3985641733928
30
0
41
1
10
263.792384550103
20
21.3763770911946
30
0
41
1
10
263.825066322975
20
21.3546460131721
30
0
0
SPLINE
5
316
100
AcDbEntity
8
1
62
256
6
ByLayer
370
13
48
1
60
0
100
AcDbSpline
70
4
71
3
72
8
73
4
40
0
40
0
40
0
40
0
40
1
40
1
40
1
40
1
41
1
10
248.897076176785
20
21.676284467217
30
0
41
1
10
248.844833019434
20
21.6816197350877
30
0
41
1
10
248.792547486211
20
21.6869607377646
30
0
41
1
10
248.740350021924
20
21.6922898220919
30
0
0
SPLINE
5
317
100
AcDbEntity
8
1
62
256
6
ByLayer
370
13
48
1
60
0
100
AcDbSpline
70
4
71
1
72
4
73
2
40
0
40
0
40
1
40
1
41
1
10
248.785297759251
20
6.44186464953157
30
0
41
1
10
248.755266580129
20
6.44102160413595
30
0
0
SPLINE
5
318
100
AcDbEntity
8
1
62
256
6
ByLayer
370
13
48
1
60
0
100
AcDbSpline
70
4
71
3
72
14
73
10
40
0
40
0
40
0
40
0
40
0.0288455662426096
40
0.0288455662426096
40
0.190704638535543
40
0.190704638535543
40
0.352563710828477
40
0.352563710828477
40
1
40
1
40
1
40
1
41
1
10
248.442028669478
20
21.4355461171419
30
0
41
1
10
248.445748379308
20
21.4359832707338
30
0
41
1
10
248.449461339979
20
21.4364086085735
30
0
41
1
10
248.473811516058
20
21.4388756275299
30
0
41
1
10
248.493960038658
20
21.440061754034
30
0
41
1
10
248.53454235064
20
21.4429334236656
30
0
41
1
10
248.55477046536
20
21.4442588921135
30
0
41
1
10
248.65530261701
20
21.4498210699032
30
0
41
1
10
248.73443250404
20
21.4517202927901
30
0
41
1
10
248.812216260919
20
21.4524160421281
30
0
0
SPLINE
5
319
100
AcDbEntity
8
1
62
256
6
ByLayer
370
13
48
1
60
0
100
AcDbSpline
70
4
71
1
72
4
73
2
40
0
40
0
40
1
40
1
41
1
10
247.443155184393
20
13.5571564829703
30
0
41
1
10
247.667749863994
20
13.570985660601
30
0
0
SPLINE
5
31A
100
AcDbEntity
8
1
62
256
6
ByLayer
370
13
48
1
60
0
100
AcDbSpline
70
4
71
3
72
24
73
20
40
0
40
0
40
0
40
0
40
0.0514081714717322
40
0.0514081714717322
40
0.102816342943465
40
0.102816342943465
40
0.154224514415197
40
0.154224514415197
40
0.205632685886929
40
0.205632685886929
40
0.308449028830394
40
0.308449028830394
40
0.411265371773859
40
0.411265371773859
40
0.61689805766079
40
0.61689805766079
40
0.822530743547722
40
0.822530743547722
40
1
40
1
40
1
40
1
41
1
10
266.067370085223
20
7.34831050355606
30
0
41
1
10
266.066024847507
20
7.33082439226985
30
0
41
1
10
266.064329161786
20
7.31189610476815
30
0
41
1
10
266.060204044437
20
7.27454110439925
30
0
41
1
10
266.057795208513
20
7.25645924514978
30
0
41
1
10
266.053105407105
20
7.22515182757431
30
0
41
1
10
266.050802429243
20
7.21157249586832
30
0
41
1
10
266.046324629281
20
7.18712929455006
30
0
41
1
10
266.044170679191
20
7.17639174765566
30
0
41
1
10
266.037860186733
20
7.14682329083843
30
0
41
1
10
266.033912537243
20
7.13085116269704
30
0
41
1
10
266.026323651818
20
7.10272104313555
30
0
41
1
10
266.022676981639
20
7.09063807307885
30
0
41
1
10
266.012092440477
20
7.05833775486934
30
0
41
1
10
266.005468004991
20
7.04185864722359
30
0
41
1
10
265.992719946186
20
7.01414604542785
30
0
41
1
10
265.986600320132
20
7.00306123312919
30
0
41
1
10
265.975554508393
20
6.98597465472793
30
0
41
1
10
265.9705723344
20
6.97945469221477
30
0
41
1
10
265.965703257892
20
6.97406946354687
30
0
0
SPLINE
5
31B
100
AcDbEntity
8
1
62
256
6
ByLayer
370
13
48
1
60
0
100
AcDbSpline
70
4
71
3
72
10
73
6
40
0
40
0
40
0
40
0
40
0.196352315182869
40
0.196352315182869
40
1
40
1
40
1
40
1
41
1
10
265.954912744819
20
6.9637439783813
30
0
41
1
10
265.952245174669
20
6.96157688095124
30
0
41
1
10
265.949608654433
20
6.95971081576687
30
0
41
1
10
265.936319302199
20
6.95149943135704
30
0
41
1
10
265.926090674719
20
6.94926048836578
30
0
41
1
10
265.916158767461
20
6.94988804178155
30
0
0
SPLINE
5
31C
100
AcDbEntity
8
1
62
256
6
ByLayer
370
13
48
1
60
0
100
AcDbSpline
70
4
71
3
72
22
73
18
40
0
40
0
40
0
40
0
40
0.125
40
0.125
40
0.25
40
0.25
40
0.375
40
0.375
40
0.5
40
0.5
40
0.625
40
0.625
40
0.6875
40
0.6875
40
0.75
40
0.75
40
1
40
1
40
1
40
1
41
1
10
248.785297759251
20
6.44186464953157
30
0
41
1
10
248.795201698278
20
6.37709111523395
30
0
41
1
10
248.812318017319
20
6.31484901877522
30
0
41
1
10
248.862159481662
20
6.19584329112681
30
0
41
1
10
248.895182632014
20
6.1384513815959
30
0
41
1
10
248.972634385725
20
6.03496331714368
30
0
41
1
10
249.017721445689
20
5.98795649766569
30
0
41
1
10
249.118923289096
20
5.90576910131841
30
0
41
1
10
249.173454745559
20
5.8714327468162
30
0
41
1
10
249.290396355781
20
5.816305030693
30
0
41
1
10
249.353008430359
20
5.79570945221795
30
0
41
1
10
249.447682786985
20
5.77646740139568
30
0
41
1
10
249.479590878702
20
5.77196488046192
30
0
41
1
10
249.544098935602
20
5.76673874182777
30
0
41
1
10
249.576778362979
20
5.76642738426665
30
0
41
1
10
249.739712603734
20
5.76351778790729
30
0
41
1
10
249.870056668704
20
5.76378195668553
30
0
41
1
10
250.000396944418
20
5.76699752340662
30
0
0
SPLINE
5
31D
100
AcDbEntity
8
1
62
256
6
ByLayer
370
13
48
1
60
0
100
AcDbSpline
70
4
71
3
72
20
73
16
40
0
40
0
40
0
40
0
40
0.0624999999999904
40
0.0624999999999904
40
0.124999999999981
40
0.124999999999981
40
0.156249999999976
40
0.156249999999976
40
0.187499999999971
40
0.187499999999971
40
0.249999999999962
40
0.249999999999962
40
0.499999999999975
40
0.499999999999975
40
1
40
1
40
1
40
1
41
1
10
263.564734605263
20
21.0044584394158
30
0
41
1
10
263.448506570563
20
20.9234348875848
30
0
41
1
10
263.32606487107
20
20.8553084813286
30
0
41
1
10
263.069164927891
20
20.7439973296452
30
0
41
1
10
262.933057379848
20
20.7006553722529
30
0
41
1
10
262.728522236347
20
20.657319435723
30
0
41
1
10
262.6600794437
20
20.6463539492986
30
0
41
1
10
262.522676653961
20
20.6312297207766
30
0
41
1
10
262.453639969231
20
20.6280802375039
30
0
41
1
10
262.246636586545
20
20.6172279218532
30
0
41
1
10
262.108632104361
20
20.6100223542929
30
0
41
1
10
261.418619370441
20
20.5738671609155
30
0
41
1
10
260.866613176068
20
20.5448901810146
30
0
41
1
10
259.21058386711
20
20.4581021122228
30
0
41
1
10
258.106563333236
20
20.4002623793419
30
0
41
1
10
257.00254382005
20
20.3424031683706
30
0
0
SPLINE
5
31E
100
AcDbEntity
8
1
62
256
6
ByLayer
370
13
48
1
60
0
100
AcDbSpline
70
4
71
3
72
10
73
6
40
0
40
0
40
0
40
0
40
0.5
40
0.5
40
1
40
1
40
1
40
1
41
1
10
250.920872678488
20
6.93336796795791
30
0
41
1
10
250.917196037691
20
6.93317528337852
30
0
41
1
10
250.896924840166
20
6.93308381071688
30
0
41
1
10
250.835824240236
20
6.93308832931231
30
0
41
1
10
250.794913050694
20
6.93317652007173
30
0
41
1
10
250.755715336686
20
6.93330035484692
30
0
0
SPLINE
5
31F
100
AcDbEntity
8
1
62
256
6
ByLayer
370
13
48
1
60
0
100
AcDbSpline
70
4
71
3
72
8
73
4
40
0
40
0
40
0
40
0
40
1
40
1
40
1
40
1
41
1
10
264.813940881607
20
22.5256076383012
30
0
41
1
10
264.748387093586
20
22.5254253067299
30
0
41
1
10
264.682834259759
20
22.5244997685955
30
0
41
1
10
264.617282313949
20
22.5228825658215
30
0
0
SPLINE
5
320
100
AcDbEntity
8
1
62
256
6
ByLayer
370
13
48
1
60
0
100
AcDbSpline
70
4
71
3
72
12
73
8
40
0
40
0
40
0
40
0
40
0.25
40
0.25
40
0.5
40
0.5
40
1
40
1
40
1
40
1
41
1
10
248.812216260919
20
21.4524160421281
30
0
41
1
10
248.835750278049
20
21.4530942955029
30
0
41
1
10
248.858371628458
20
21.4529000586199
30
0
41
1
10
248.903943630179
20
21.4528263711751
30
0
41
1
10
248.926780881132
20
21.4528359726335
30
0
41
1
10
248.995239715841
20
21.4528168201558
30
0
41
1
10
249.040842564287
20
21.4527710918958
30
0
41
1
10
249.086464128798
20
21.4527423181521
30
0
0
SPLINE
5
321
100
AcDbEntity
8
1
62
256
6
ByLayer
370
13
48
1
60
0
100
AcDbSpline
70
4
71
3
72
10
73
6
40
0
40
0
40
0
40
0
40
0.5
40
0.5
40
1
40
1
40
1
40
1
41
1
10
250.894949215285
20
6.84908395184408
30
0
41
1
10
250.891273613589
20
6.84889132172168
30
0
41
1
10
250.873977397777
20
6.85819851804214
30
0
41
1
10
250.822589639776
20
6.88953695106969
30
0
41
1
10
250.788397109558
20
6.91156927682459
30
0
41
1
10
250.755715336686
20
6.93330035484695
30
0
0
SPLINE
5
322
100
AcDbEntity
8
1
62
256
6
ByLayer
370
13
48
1
60
0
100
AcDbSpline
70
4
71
1
72
4
73
2
40
0
40
0
40
1
40
1
41
1
10
247.363485305688
20
13.8032890844363
30
0
41
1
10
247.433633523856
20
13.8057960221704
30
0
0
SPLINE
5
323
100
AcDbEntity
8
1
62
256
6
ByLayer
370
13
48
1
60
0
100
AcDbSpline
70
4
71
2
72
6
73
3
40
0
40
0
40
0
40
1
40
1
40
1
41
1
10
247.433633523857
20
13.8057960221704
30
0
41
0.997409491337351
10
247.430835682606
20
13.7519521445602
30
0
41
1
10
247.435760323613
20
13.6982588323088
30
0
0
SPLINE
5
324
100
AcDbEntity
8
1
62
256
6
ByLayer
370
13
48
1
60
0
100
AcDbSpline
70
4
71
3
72
9
73
5
40
0
40
0
40
0
40
0
40
0.513495271759299
40
1
40
1
40
1
40
1
41
1
10
250.000396944418
20
5.76699752340662
30
0
41
1
10
250.022535311879
20
5.76754855488372
30
0
41
1
10
250.065618842356
20
5.76952630102406
30
0
41
1
10
250.108704625632
20
5.77138184608057
30
0
41
1
10
250.129665959114
20
5.772290205876
30
0
0
SPLINE
5
325
100
AcDbEntity
8
1
62
256
6
ByLayer
370
13
48
1
60
0
100
AcDbSpline
70
4
71
1
72
4
73
2
40
0
40
0
40
1
40
1
41
1
10
247.677514576083
20
13.4563089224395
30
0
41
1
10
247.452280732669
20
13.4499860819764
30
0
0
SPLINE
5
326
100
AcDbEntity
8
1
62
256
6
ByLayer
370
13
48
1
60
0
100
AcDbSpline
70
4
71
3
72
9
73
5
40
0
40
0
40
0
40
0
40
0.513495271759379
40
1
40
1
40
1
40
1
41
1
10
248.611235920454
20
21.6840412192371
30
0
41
1
10
248.633310610094
20
21.6858072958981
30
0
41
1
10
248.676364855249
20
21.6883438392909
30
0
41
1
10
248.719408567369
20
21.6910021498189
30
0
41
1
10
248.740350021926
20
21.6922898220903
30
0
0
SPLINE
5
327
100
AcDbEntity
8
1
62
256
6
ByLayer
370
13
48
1
60
0
100
AcDbSpline
70
4
71
2
72
6
73
3
40
0
40
0
40
0
40
1
40
1
40
1
41
1
10
266.949929394373
20
14.7188944286271
30
0
41
0.997409491337352
10
266.950694277018
20
14.661204294939
30
0
41
1
10
266.943208381914
20
14.6040046577893
30
0
0
SPLINE
5
328
100
AcDbEntity
8
1
62
256
6
ByLayer
370
13
48
1
60
0
100
AcDbSpline
70
4
71
3
72
24
73
20
40
0
40
0
40
0
40
0
40
0.0312500000000281
40
0.0312500000000281
40
0.0625000000000562
40
0.0625000000000562
40
0.125000000000089
40
0.125000000000089
40
0.156250000000093
40
0.156250000000093
40
0.171875000000082
40
0.171875000000082
40
0.187500000000071
40
0.187500000000071
40
0.250000000000054
40
0.250000000000054
40
0.500000000000036
40
0.500000000000036
40
1
40
1
40
1
40
1
41
1
10
251.185002552891
20
7.1220767410116
30
0
41
1
10
251.240741765448
20
7.16093302030131
30
0
41
1
10
251.299076861929
20
7.19713806192885
30
0
41
1
10
251.419136670879
20
7.26294578348501
30
0
41
1
10
251.480438572576
20
7.29236032440133
30
0
41
1
10
251.668052967106
20
7.37043033709193
30
0
41
1
10
251.798104138343
20
7.40907593564236
30
0
41
1
10
252.000555931854
20
7.44606965803939
30
0
41
1
10
252.068260888869
20
7.45463694503684
30
0
41
1
10
252.170132018082
20
7.46214583711614
30
0
41
1
10
252.204149665078
20
7.46361674819551
30
0
41
1
10
252.272147402948
20
7.46719813135871
30
0
41
1
10
252.306147359061
20
7.46897030886589
30
0
41
1
10
252.47614536769
20
7.47786137153062
30
0
41
1
10
252.612143194634
20
7.48498409807735
30
0
41
1
10
253.292130782985
20
7.52062406464455
30
0
41
1
10
253.836118650569
20
7.54917355547707
30
0
41
1
10
255.468089506721
20
7.63469850637648
30
0
41
1
10
256.556070945626
20
7.6916992334784
30
0
41
1
10
257.64405142892
20
7.7487178745111
30
0
0
SPLINE
5
329
100
AcDbEntity
8
1
62
256
6
ByLayer
370
13
48
1
60
0
100
AcDbSpline
70
4
71
3
72
8
73
4
40
0
40
0
40
0
40
0
40
1
40
1
40
1
40
1
41
1
10
248.429135371901
20
21.6675275958127
30
0
41
1
10
248.489771464648
20
21.6736495376116
30
0
41
1
10
248.550470382598
20
21.6791662639514
30
0
41
1
10
248.611235920454
20
21.6840412192371
30
0
0
SPLINE
5
32A
100
AcDbEntity
8
1
62
256
6
ByLayer
370
13
48
1
60
0
100
AcDbSpline
70
4
71
3
72
18
73
14
40
0
40
0
40
0
40
0
40
0.500000000000014
40
0.500000000000014
40
0.750000000000021
40
0.750000000000021
40
0.875000000000038
40
0.875000000000038
40
0.906250000000028
40
0.906250000000028
40
0.937500000000019
40
0.937500000000019
40
1
40
1
40
1
40
1
41
1
10
256.973627829447
20
20.5411622147172
30
0
41
1
10
255.972440317021
20
20.488692200545
30
0
41
1
10
254.971252403043
20
20.4362298486487
30
0
41
1
10
253.469471255257
20
20.3575225211511
30
0
41
1
10
252.968878671491
20
20.3312651446794
30
0
41
1
10
252.217987157722
20
20.291929413728
30
0
41
1
10
251.967689768183
20
20.2788216700164
30
0
41
1
10
251.654820249579
20
20.2623946467746
30
0
41
1
10
251.592246899973
20
20.2591973859456
30
0
41
1
10
251.467092289897
20
20.252521328744
30
0
41
1
10
251.404601397641
20
20.2509267110223
30
0
41
1
10
251.217674853499
20
20.2571612921067
30
0
41
1
10
251.093474176284
20
20.2735196347661
30
0
41
1
10
250.970397504812
20
20.3022802533682
30
0
0
SPLINE
5
32B
100
AcDbEntity
8
1
62
256
6
ByLayer
370
13
48
1
60
0
100
AcDbSpline
70
4
71
3
72
20
73
16
40
0
40
0
40
0
40
0
40
0.0624999999999845
40
0.0624999999999845
40
0.124999999999969
40
0.124999999999969
40
0.156249999999961
40
0.156249999999961
40
0.187499999999954
40
0.187499999999954
40
0.249999999999938
40
0.249999999999938
40
0.49999999999995
40
0.49999999999995
40
1
40
1
40
1
40
1
41
1
10
251.089842251811
20
7.28735537102142
30
0
41
1
10
251.206070286511
20
7.36837892285251
30
0
41
1
10
251.328511986004
20
7.43650532910857
30
0
41
1
10
251.585411929183
20
7.54781648079205
30
0
41
1
10
251.721519477226
20
7.59115843818435
30
0
41
1
10
251.926054620727
20
7.63449437471422
30
0
41
1
10
251.994497413374
20
7.64545986113865
30
0
41
1
10
252.131900203113
20
7.66058408966063
30
0
41
1
10
252.200936887843
20
7.66373357293327
30
0
41
1
10
252.407940270529
20
7.67458588858403
30
0
41
1
10
252.545944752713
20
7.68179145614434
30
0
41
1
10
253.235957486632
20
7.71794664952171
30
0
41
1
10
253.787963681006
20
7.74692362942261
30
0
41
1
10
255.443992989964
20
7.83371169821439
30
0
41
1
10
256.548013523838
20
7.89155143109537
30
0
41
1
10
257.652033037024
20
7.94941064206657
30
0
0
SPLINE
5
32C
100
AcDbEntity
8
1
62
256
6
ByLayer
370
13
48
1
60
0
100
AcDbSpline
70
4
71
2
72
6
73
3
40
0
40
0
40
0
40
1
40
1
40
1
41
1
10
247.667749863994
20
13.570985660601
30
0
41
0.997409491337351
10
247.668514746639
20
13.513295526912
30
0
41
1
10
247.677514576083
20
13.4563089224395
30
0
0
SPLINE
5
32D
100
AcDbEntity
8
1
62
256
6
ByLayer
370
13
48
1
60
0
100
AcDbSpline
70
4
71
2
72
6
73
3
40
0
40
0
40
0
40
1
40
1
40
1
41
1
10
266.949929394373
20
14.7188944286271
30
0
41
0.997409491337351
10
266.949164511728
20
14.7765845623162
30
0
41
1
10
266.940164682284
20
14.8335711667886
30
0
0
SPLINE
5
32E
100
AcDbEntity
8
1
62
256
6
ByLayer
370
13
48
1
60
0
100
AcDbSpline
70
4
71
3
72
9
73
5
40
0
40
0
40
0
40
0
40
0.513495271759147
40
1
40
1
40
1
40
1
41
1
10
264.617282313949
20
22.5228825658215
30
0
41
1
10
264.595143946488
20
22.5223315343444
30
0
41
1
10
264.552060416011
20
22.5203537882041
30
0
41
1
10
264.508974632735
20
22.5184982431476
30
0
41
1
10
264.488013299253
20
22.5175898833521
30
0
0
SPLINE
5
32F
100
AcDbEntity
8
1
62
256
6
ByLayer
370
13
48
1
60
0
100
AcDbSpline
70
4
71
1
72
4
73
2
40
0
40
0
40
1
40
1
41
1
10
248.611235920454
20
21.6840412192371
30
0
41
1
10
248.812216260919
20
21.4524160421281
30
0
0
SPLINE
5
330
100
AcDbEntity
8
1
62
256
6
ByLayer
370
13
48
1
60
0
100
AcDbSpline
70
4
71
3
72
8
73
4
40
0
40
0
40
0
40
0
40
1
40
1
40
1
40
1
41
1
10
264.333818721818
20
22.4852898633661
30
0
41
1
10
264.385217998335
20
22.4960568010355
30
0
41
1
10
264.436658819135
20
22.5068338715798
30
0
41
1
10
264.488013299255
20
22.5175898833539
30
0
0
SPLINE
5
331
100
AcDbEntity
8
1
62
256
6
ByLayer
370
13
48
1
60
0
100
AcDbSpline
70
4
71
2
72
6
73
3
40
0
40
0
40
0
40
1
40
1
40
1
41
1
10
247.449436262944
20
13.6645259722685
30
0
41
0.999116442697027
10
247.447054215958
20
13.6463247790375
30
0
41
0.998835603708718
10
247.445564656397
20
13.6280277068326
30
0
0
SPLINE
5
332
100
AcDbEntity
8
1
62
256
6
ByLayer
370
13
48
1
60
0
100
AcDbSpline
70
4
71
3
72
18
73
14
40
0
40
0
40
0
40
0
40
0.500000000000041
40
0.500000000000041
40
0.750000000000062
40
0.750000000000062
40
0.875000000000058
40
0.875000000000058
40
0.906250000000044
40
0.906250000000044
40
0.937500000000029
40
0.937500000000029
40
1
40
1
40
1
40
1
41
1
10
257.64405142892
20
7.7487178745109
30
0
41
1
10
258.645238941347
20
7.8011878886831
30
0
41
1
10
259.646426855324
20
7.85365024057938
30
0
41
1
10
261.148208003111
20
7.93235756807707
30
0
41
1
10
261.648800586876
20
7.95861494454874
30
0
41
1
10
262.399692100645
20
7.99795067550011
30
0
41
1
10
262.649989490184
20
8.01105841921174
30
0
41
1
10
262.962859008788
20
8.0274854424535
30
0
41
1
10
263.025432358394
20
8.03068270328251
30
0
41
1
10
263.15058696847
20
8.03735876048412
30
0
41
1
10
263.213077860726
20
8.03895337820578
30
0
41
1
10
263.400004404868
20
8.03271879712139
30
0
41
1
10
263.524205082082
20
8.01636045446199
30
0
41
1
10
263.647281753555
20
7.9875998358599
30
0
0
SPLINE
5
333
100
AcDbEntity
8
1
62
256
6
ByLayer
370
13
48
1
60
0
100
AcDbSpline
70
4
71
3
72
24
73
20
40
0
40
0
40
0
40
0
40
0.0453611707757528
40
0.0453611707757528
40
0.0907223415515055
40
0.0907223415515055
40
0.136083512327258
40
0.136083512327258
40
0.181444683103011
40
0.181444683103011
40
0.272167024654507
40
0.272167024654507
40
0.362889366206002
40
0.362889366206002
40
0.544334049308994
40
0.544334049308994
40
0.725778732411985
40
0.725778732411985
40
1
40
1
40
1
40
1
41
1
10
248.755266580129
20
6.44102160413595
30
0
41
1
10
248.758432244833
20
6.42377189922814
30
0
41
1
10
248.762097186215
20
6.40512455028821
30
0
41
1
10
248.770104366523
20
6.36840537669727
30
0
41
1
10
248.774390075553
20
6.35067436368297
30
0
41
1
10
248.782326701986
20
6.32002866915064
30
0
41
1
10
248.786036490569
20
6.30676445318119
30
0
41
1
10
248.793044770946
20
6.28292321182605
30
0
41
1
10
248.796309300748
20
6.2724696354299
30
0
41
1
10
248.805675969021
20
6.24372278379207
30
0
41
1
10
248.811271534883
20
6.22825079437445
30
0
41
1
10
248.821759245769
20
6.20106802908265
30
0
41
1
10
248.826648953398
20
6.18943243163011
30
0
41
1
10
248.840551813963
20
6.15841544376551
30
0
41
1
10
248.848862495896
20
6.14271905245693
30
0
41
1
10
248.86443747518
20
6.11649079818994
30
0
41
1
10
248.871682255677
20
6.10610638476012
30
0
41
1
10
248.88889762864
20
6.08475673593193
30
0
41
1
10
248.898399787516
20
6.07612051828519
30
0
41
1
10
248.907305561338
20
6.07031706345862
30
0
0
SPLINE
5
334
100
AcDbEntity
8
1
62
256
6
ByLayer
370
13
48
1
60
0
100
AcDbSpline
70
4
71
3
72
10
73
6
40
0
40
0
40
0
40
0
40
0.470344360223578
40
0.470344360223578
40
1
40
1
40
1
40
1
41
1
10
263.686971248824
20
21.3559606244317
30
0
41
1
10
263.686990114177
20
21.3557722880925
30
0
41
1
10
263.699836311942
20
21.3555204644874
30
0
41
1
10
263.74791045542
20
21.3550128007654
30
0
41
1
10
263.785868608966
20
21.3547698479473
30
0
41
1
10
263.825066322975
20
21.3546460131721
30
0
0
SPLINE
5
335
100
AcDbEntity
8
1
62
256
6
ByLayer
370
13
48
1
60
0
100
AcDbSpline
70
4
71
2
72
6
73
3
40
0
40
0
40
0
40
1
40
1
40
1
41
1
10
247.667749863994
20
13.570985660601
30
0
41
0.997409491337352
10
247.66698498135
20
13.6286757942891
30
0
41
1
10
247.674470876453
20
13.6858754314388
30
0
0
SPLINE
5
336
100
AcDbEntity
8
1
62
256
6
ByLayer
370
13
48
1
60
0
100
AcDbSpline
70
4
71
3
72
22
73
18
40
0
40
0
40
0
40
0
40
0.125
40
0.125
40
0.25
40
0.25
40
0.375
40
0.375
40
0.5
40
0.5
40
0.625
40
0.625
40
0.75
40
0.75
40
0.875
40
0.875
40
1
40
1
40
1
40
1
41
1
10
265.832381499117
20
21.8480154396966
30
0
41
1
10
265.823722805411
20
21.9046448466572
30
0
41
1
10
265.809613252836
20
21.9593610834341
30
0
41
1
10
265.769352918802
20
22.0645672652004
30
0
41
1
10
265.743113707508
20
22.1157741771162
30
0
41
1
10
265.680615312498
20
22.2106216662523
30
0
41
1
10
265.644870287778
20
22.2542771246927
30
0
41
1
10
265.563875515224
20
22.3336214284106
30
0
41
1
10
265.518643391064
20
22.3692370696066
30
0
41
1
10
265.423327506443
20
22.4293343573255
30
0
41
1
10
265.372605223137
20
22.4542971737374
30
0
41
1
10
265.265296634571
20
22.4933990799564
30
0
41
1
10
265.210574939983
20
22.5071200620422
30
0
41
1
10
265.099023469467
20
22.5230480205853
30
0
41
1
10
265.04185540394
20
22.5234850794305
30
0
41
1
10
264.927897041924
20
22.52540379434
30
0
41
1
10
264.870918627441
20
22.525766116434
30
0
41
1
10
264.813940881607
20
22.5256076383012
30
0
0
SPLINE
5
337
100
AcDbEntity
8
1
62
256
6
ByLayer
370
13
48
1
60
0
100
AcDbSpline
70
4
71
1
72
4
73
2
40
0
40
0
40
1
40
1
41
1
10
249.086464128798
20
21.4527423181521
30
0
41
1
10
248.897076176785
20
21.676284467217
30
0
0
SPLINE
5
338
100
AcDbEntity
8
1
62
256
6
ByLayer
370
13
48
1
60
0
100
AcDbSpline
70
4
71
1
72
4
73
2
40
0
40
0
40
1
40
1
41
1
10
223.872590338747
20
9.7953279758793
30
0
41
1
10
223.801091083155
20
9.82386371438454
30
0
0
SPLINE
5
339
100
AcDbEntity
8
1
62
256
6
ByLayer
370
13
48
1
60
0
100
AcDbSpline
70
4
71
3
72
17
73
13
40
0
40
0
40
0
40
0
40
0.139680475314754
40
0.279873810890174
40
0.420219937172592
40
0.560356427122958
40
0.633568065904687
40
0.706523232641923
40
0.779797898678724
40
0.853438188839811
40
0.926989373477671
40
1
40
1
40
1
40
1
41
1
10
5.90789999999998
20
-31.25
30
0
41
1
10
7.41755698313077
20
-31.0376903816852
30
0
41
1
10
10.4183966725028
20
-30.5059868384196
30
0
41
1
10
14.8620061859453
20
-29.3843243327846
30
0
41
1
10
19.2174664899388
20
-27.9475733585531
30
0
41
1
10
22.7802761174596
20
-26.4723401667995
30
0
41
1
10
25.6009776158322
20
-25.1396371970945
30
0
41
1
10
27.7000006021579
20
-23.9923285036834
30
0
41
1
10
29.9221342080572
20
-23.0827797168365
30
0
41
1
10
32.2358465352319
20
-22.4234211009432
30
0
41
1
10
34.6084393956239
20
-22.0257160356712
30
0
41
1
10
36.201031314573
20
-21.9377688327776
30
0
41
1
10
37
20
-21.9375000000001
30
0
0
SPLINE
5
33A
100
AcDbEntity
8
1
62
256
6
ByLayer
370
13
48
1
60
0
100
AcDbSpline
70
4
71
3
72
17
73
13
40
0
40
0
40
0
40
0
40
0.079676634910057
40
0.159947920604872
40
0.240226552855628
40
0.319924906619913
40
0.399657769491737
40
0.47961881486999
40
0.559732506962354
40
0.706756243990625
40
0.853650179634034
40
1
40
1
40
1
40
1
41
1
10
37
20
21.9375
30
0
41
1
10
36.1273598716606
20
21.9378812515012
30
0
41
1
10
34.3898704216752
20
22.0419738238785
30
0
41
1
10
31.8085319775061
20
22.5179735964956
30
0
41
1
10
29.3000964937841
20
23.2904902815687
30
0
41
1
10
26.9327075985411
20
24.4035135865987
30
0
41
1
10
24.6274521615737
20
25.6219589116638
30
0
41
1
10
22.2428032073241
20
26.6924213622146
30
0
41
1
10
19.1446722610702
20
27.9552482375716
30
0
41
1
10
15.2826565865339
20
29.2659538796368
30
0
41
1
10
10.632907902487
20
30.4650681738765
30
0
41
1
10
7.48987441592142
20
31.0274978959025
30
0
41
1
10
5.90790000000005
20
31.25
30
0
0
SPLINE
5
33B
100
AcDbEntity
8
1
62
256
6
ByLayer
370
13
48
1
60
0
100
AcDbSpline
70
4
71
2
72
6
73
3
40
0
40
0
40
0
40
1
40
1
40
1
41
1
10
265.821210170497
20
6.83807544892005
30
0
41
1
10
265.889138076597
20
6.90906716652313
30
0
41
1
10
265.958380134285
20
6.96494205680179
30
0
0
SPLINE
5
33C
100
AcDbEntity
8
1
62
256
6
ByLayer
370
13
48
1
60
0
100
AcDbSpline
70
4
71
2
72
6
73
3
40
0
40
0
40
0
40
1
40
1
40
1
41
1
10
248.903732387315
20
6.07114584192868
30
0
41
1
10
248.978435646183
20
6.02281480602895
30
0
41
1
10
249.053412091252
20
5.9593123881204
30
0
0
LINE
5
7F
100
AcDbEntity
8
SK1
62
256
6
ByLayer
370
13
48
1
60
0
100
AcDbLine
10
-77.633813
20
24.639667
30
0
11
-77.633813
21
9.806751
31
0
39
0
210
0
220
0
230
1
0
LINE
5
81
100
AcDbEntity
8
SK1
62
256
6
ByLayer
370
13
48
1
60
0
100
AcDbLine
10
-77.633813
20
-9.806751
30
0
11
-77.633813
21
-24.639667
31
0
39
0
210
0
220
0
230
1
0
LINE
5
82
100
AcDbEntity
8
SK1
62
256
6
ByLayer
370
13
48
1
60
0
100
AcDbLine
10
-2
20
-24.996
30
0
11
-2
21
24.996
31
0
39
0
210
0
220
0
230
1
0
LINE
5
83
100
AcDbEntity
8
SK1
62
256
6
ByLayer
370
13
48
1
60
0
100
AcDbLine
10
-78.516222
20
24.892544
30
0
11
-78.516222
21
10.425829
31
0
39
0
210
0
220
0
230
1
0
LINE
5
84
100
AcDbEntity
8
SK1
62
256
6
ByLayer
370
13
48
1
60
0
100
AcDbLine
10
-78.516222
20
-10.425829
30
0
11
-78.516222
21
-24.892544
31
0
39
0
210
0
220
0
230
1
0
LINE
5
85
100
AcDbEntity
8
SK1
62
256
6
ByLayer
370
13
48
1
60
0
100
AcDbLine
10
-79
20
10.670483
30
0
11
-78.599999
21
10.670483
31
0
39
0
210
0
220
0
230
1
0
LINE
5
86
100
AcDbEntity
8
SK1
62
256
6
ByLayer
370
13
48
1
60
0
100
AcDbLine
10
-0.15
20
-24.746
30
0
11
-0.15
21
24.746
31
0
39
0
210
0
220
0
230
1
0
LINE
5
87
100
AcDbEntity
8
SK1
62
256
6
ByLayer
370
13
48
1
60
0
100
AcDbLine
10
-1.544243
20
-24.783477
30
0
11
-1.544243
21
24.783477
31
0
39
0
210
0
220
0
230
1
0
LINE
5
88
100
AcDbEntity
8
SK1
62
256
6
ByLayer
370
13
48
1
60
0
100
AcDbLine
10
-6.5
20
-10.670483
30
0
11
-6.5
21
10.670483
31
0
39
0
210
0
220
0
230
1
0
LINE
5
89
100
AcDbEntity
8
SK1
62
256
6
ByLayer
370
13
48
1
60
0
100
AcDbLine
10
-76.600002
20
24.996
30
0
11
-76.600002
21
10.670483
31
0
39
0
210
0
220
0
230
1
0
LINE
5
8A
100
AcDbEntity
8
SK1
62
256
6
ByLayer
370
13
48
1
60
0
100
AcDbLine
10
-76.600002
20
-10.670483
30
0
11
-76.600002
21
-24.996
31
0
39
0
210
0
220
0
230
1
0
LINE
5
8B
100
AcDbEntity
8
SK1
62
256
6
ByLayer
370
13
48
1
60
0
100
AcDbLine
10
-80
20
8.054018
30
0
11
-80
21
-8.054018
31
0
39
0
210
0
220
0
230
1
0
LINE
5
8C
100
AcDbEntity
8
SK1
62
256
6
ByLayer
370
13
48
1
60
0
100
AcDbLine
10
-80
20
-23.996
30
0
11
-80
21
-8.054018
31
0
39
0
210
0
220
0
230
1
0
LINE
5
8D
100
AcDbEntity
8
SK1
62
256
6
ByLayer
370
13
48
1
60
0
100
AcDbLine
10
-80
20
8.054018
30
0
11
-80
21
23.996
31
0
39
0
210
0
220
0
230
1
0
LINE
5
8E
100
AcDbEntity
8
SK1
62
256
6
ByLayer
370
13
48
1
60
0
100
AcDbLine
10
-78.599999
20
-24.996
30
0
11
-78.599999
21
-10.670483
31
0
39
0
210
0
220
0
230
1
0
LINE
5
8F
100
AcDbEntity
8
SK1
62
256
6
ByLayer
370
13
48
1
60
0
100
AcDbLine
10
-78.599999
20
10.670483
30
0
11
-78.599999
21
24.996
31
0
39
0
210
0
220
0
230
1
0
LINE
5
90
100
AcDbEntity
8
SK1
62
256
6
ByLayer
370
13
48
1
60
0
100
AcDbLine
10
-1.375195
20
-24.746
30
0
11
-1.375195
21
24.746
31
0
39
0
210
0
220
0
230
1
0
LINE
5
91
100
AcDbEntity
8
SK1
62
256
6
ByLayer
370
13
48
1
60
0
100
AcDbLine
10
-79
20
-24.996
30
0
11
-79
21
-10.670483
31
0
39
0
210
0
220
0
230
1
0
LINE
5
92
100
AcDbEntity
8
SK1
62
256
6
ByLayer
370
13
48
1
60
0
100
AcDbLine
10
-79
20
10.670483
30
0
11
-79
21
24.996
31
0
39
0
210
0
220
0
230
1
0
LINE
5
93
100
AcDbEntity
8
SK1
62
256
6
ByLayer
370
13
48
1
60
0
100
AcDbLine
10
-6.5
20
-10.670483
30
0
11
-76.600002
21
-10.670483
31
0
39
0
210
0
220
0
230
1
0
LINE
5
94
100
AcDbEntity
8
SK1
62
256
6
ByLayer
370
13
48
1
60
0
100
AcDbLine
10
-76.600002
20
10.670483
30
0
11
-6.5
21
10.670483
31
0
39
0
210
0
220
0
230
1
0
LINE
5
95
100
AcDbEntity
8
SK1
62
256
6
ByLayer
370
13
48
1
60
0
100
AcDbLine
10
-78.599999
20
-10.670483
30
0
11
-79
21
-10.670483
31
0
39
0
210
0
220
0
230
1
0
LINE
5
96
100
AcDbEntity
8
1
62
256
6
ByLayer
370
13
48
1
60
0
100
AcDbLine
10
265.591938
20
6.520988
30
0
11
265.556785
21
6.519146
31
0
39
0
210
0
220
0
230
1
0
LINE
5
97
100
AcDbEntity
8
1
62
256
6
ByLayer
370
13
48
1
60
0
100
AcDbLine
10
263.580414
20
1.408398
30
0
11
263.692112
21
-0.836674
31
0
39
0
210
0
220
0
230
1
0
LINE
5
98
100
AcDbEntity
8
1
62
256
6
ByLayer
370
13
48
1
60
0
100
AcDbLine
10
265.672277
20
5.49773
30
0
11
265.63642
21
5.495851
31
0
39
0
210
0
220
0
230
1
0
LINE
5
99
100
AcDbEntity
8
1
62
256
6
ByLayer
370
13
48
1
60
0
100
AcDbLine
10
255.98218
20
7.040772
30
0
11
263.586596
21
7.439303
31
0
39
0
210
0
220
0
230
1
0
LINE
5
9A
100
AcDbEntity
8
1
62
256
6
ByLayer
370
13
48
1
60
0
100
AcDbLine
10
266.079658
20
-7.725559
30
0
11
264.376239
21
-5.940515
31
0
39
0
210
0
220
0
230
1
0
LINE
5
9B
100
AcDbEntity
8
1
62
256
6
ByLayer
370
13
48
1
60
0
100
AcDbLine
10
264.716492
20
-21.810556
30
0
11
246.107106
21
-21.810556
31
0
39
0
210
0
220
0
230
1
0
LINE
5
9C
100
AcDbEntity
8
1
62
256
6
ByLayer
370
13
48
1
60
0
100
AcDbLine
10
264.289354
20
-4.171027
30
0
11
266.057238
21
-6.023625
31
0
39
0
210
0
220
0
230
1
0
LINE
5
9D
100
AcDbEntity
8
1
62
256
6
ByLayer
370
13
48
1
60
0
100
AcDbLine
10
245.292681
20
6.674818
30
0
11
246.928431
21
6.172251
31
0
39
0
210
0
220
0
230
1
0
LINE
5
9E
100
AcDbEntity
8
1
62
256
6
ByLayer
370
13
48
1
60
0
100
AcDbLine
10
260.633043
20
7.752897
30
0
11
260.450907
21
7.743352
31
0
39
0
210
0
220
0
230
1
0
LINE
5
9F
100
AcDbEntity
8
1
62
256
6
ByLayer
370
13
48
1
60
0
100
AcDbLine
10
265.596044
20
1.125815
30
0
11
265.573169
21
1.128808
31
0
39
0
210
0
220
0
230
1
0
LINE
5
A0
100
AcDbEntity
8
1
62
256
6
ByLayer
370
13
48
1
60
0
100
AcDbLine
10
245.432035
20
10.26129
30
0
11
246.607405
21
10.916711
31
0
39
0
210
0
220
0
230
1
0
LINE
5
A1
100
AcDbEntity
8
1
62
256
6
ByLayer
370
13
48
1
60
0
100
AcDbLine
10
5.9079
20
-5.567764
30
0
11
5.9079
21
-31.25
31
0
39
0
210
0
220
0
230
1
0
LINE
5
A2
100
AcDbEntity
8
1
62
256
6
ByLayer
370
13
48
1
60
0
100
AcDbLine
10
247.978929
20
9.495213
30
0
11
247.35128
21
13.469468
31
0
39
0
210
0
220
0
230
1
0
LINE
5
A3
100
AcDbEntity
8
1
62
256
6
ByLayer
370
13
48
1
60
0
100
AcDbLine
10
42
20
-21.85414
30
0
11
42
21
-21.9375
31
0
39
0
210
0
220
0
230
1
0
LINE
5
A4
100
AcDbEntity
8
1
62
256
6
ByLayer
370
13
48
1
60
0
100
AcDbLine
10
42
20
21.9375
30
0
11
42
21
-7.85931
31
0
39
0
210
0
220
0
230
1
0
LINE
5
A5
100
AcDbEntity
8
1
62
256
6
ByLayer
370
13
48
1
60
0
100
AcDbLine
10
265.591938
20
6.520988
30
0
11
265.824208
21
6.073429
31
0
39
0
210
0
220
0
230
1
0
LINE
5
A6
100
AcDbEntity
8
1
62
256
6
ByLayer
370
13
48
1
60
0
100
AcDbLine
10
239.428955
20
2.691543
30
0
11
239.7592
21
0.852465
31
0
39
0
210
0
220
0
230
1
0
LINE
5
A7
100
AcDbEntity
8
1
62
256
6
ByLayer
370
13
48
1
60
0
100
AcDbLine
10
265.549686
20
6.640949
30
0
11
265.426492
21
6.634492
31
0
39
0
210
0
220
0
230
1
0
LINE
5
A8
100
AcDbEntity
8
1
62
256
6
ByLayer
370
13
48
1
60
0
100
AcDbLine
10
249.550457
20
21.280807
30
0
11
249.590389
21
21.585925
31
0
39
0
210
0
220
0
230
1
0
LINE
5
A9
100
AcDbEntity
8
1
62
256
6
ByLayer
370
13
48
1
60
0
100
AcDbLine
10
263.3471
20
7.727163
30
0
11
252.707447
21
7.169562
31
0
39
0
210
0
220
0
230
1
0
LINE
5
AA
100
AcDbEntity
8
1
62
256
6
ByLayer
370
13
48
1
60
0
100
AcDbLine
10
265.496301
20
0.625921
30
0
11
265.504087
21
0.616686
31
0
39
0
210
0
220
0
230
1
0
LINE
5
AB
100
AcDbEntity
8
1
62
256
6
ByLayer
370
13
48
1
60
0
100
AcDbLine
10
245.12135
20
10.292188
30
0
11
245.12135
21
13.209724
31
0
39
0
210
0
220
0
230
1
0
LINE
5
AC
100
AcDbEntity
8
1
62
256
6
ByLayer
370
13
48
1
60
0
100
AcDbLine
10
129
20
-21.621644
30
0
11
129
21
-21.7125
31
0
39
0
210
0
220
0
230
1
0
LINE
5
AD
100
AcDbEntity
8
1
62
256
6
ByLayer
370
13
48
1
60
0
100
AcDbLine
10
5.9079
20
31.25
30
0
11
5.9079
21
5.567764
31
0
39
0
210
0
220
0
230
1
0
LINE
5
AE
100
AcDbEntity
8
1
62
256
6
ByLayer
370
13
48
1
60
0
100
AcDbLine
10
5.9079
20
-5.567764
30
0
11
0.1
21
-5.567764
31
0
39
0
210
0
220
0
230
1
0
LINE
5
AF
100
AcDbEntity
8
1
62
256
6
ByLayer
370
13
48
1
60
0
100
AcDbLine
10
37.01
20
-12.660923
30
0
11
37.01
21
-21.227379
31
0
39
0
210
0
220
0
230
1
0
LINE
5
B0
100
AcDbEntity
8
1
62
256
6
ByLayer
370
13
48
1
60
0
100
AcDbLine
10
265.131906
20
-0.217438
30
0
11
266.057238
21
-6.023625
31
0
39
0
210
0
220
0
230
1
0
LINE
5
B1
100
AcDbEntity
8
1
62
256
6
ByLayer
370
13
48
1
60
0
100
AcDbLine
10
265.131906
20
-0.217438
30
0
11
263.580414
21
1.408398
31
0
39
0
210
0
220
0
230
1
0
LINE
5
B2
100
AcDbEntity
8
1
62
256
6
ByLayer
370
13
48
1
60
0
100
AcDbLine
10
246.107106
20
-21.810556
30
0
11
246.107106
21
-0.574354
31
0
39
0
210
0
220
0
230
1
0
LINE
5
B3
100
AcDbEntity
8
1
62
256
6
ByLayer
370
13
48
1
60
0
100
AcDbLine
10
265.824208
20
6.073429
30
0
11
265.829569
21
0.848823
31
0
39
0
210
0
220
0
230
1
0
LINE
5
B4
100
AcDbEntity
8
1
62
256
6
ByLayer
370
13
48
1
60
0
100
AcDbLine
10
265.829569
20
0.848823
30
0
11
265.50833
21
0.713891
31
0
39
0
210
0
220
0
230
1
0
LINE
5
B5
100
AcDbEntity
8
1
62
256
6
ByLayer
370
13
48
1
60
0
100
AcDbLine
10
265.215097
20
0.590722
30
0
11
265.063117
21
0.526884
31
0
39
0
210
0
220
0
230
1
0
LINE
5
B6
100
AcDbEntity
8
1
62
256
6
ByLayer
370
13
48
1
60
0
100
AcDbLine
10
256.12676
20
6.046977
30
0
11
256.838553
21
6.08428
31
0
39
0
210
0
220
0
230
1
0
LINE
5
B7
100
AcDbEntity
8
1
62
256
6
ByLayer
370
13
48
1
60
0
100
AcDbLine
10
0.1
20
-31.25
30
0
11
0.1
21
-5.567764
31
0
39
0
210
0
220
0
230
1
0
LINE
5
B8
100
AcDbEntity
8
1
62
256
6
ByLayer
370
13
48
1
60
0
100
AcDbLine
10
243.714005
20
1.629625
30
0
11
244.084805
21
-0.435295
31
0
39
0
210
0
220
0
230
1
0
LINE
5
B9
100
AcDbEntity
8
1
62
256
6
ByLayer
370
13
48
1
60
0
100
AcDbLine
10
252.698223
20
7.169079
30
0
11
252.707447
21
7.169562
31
0
39
0
210
0
220
0
230
1
0
LINE
5
BA
100
AcDbEntity
8
1
62
256
6
ByLayer
370
13
48
1
60
0
100
AcDbLine
10
243.107106
20
-21.586947
30
0
11
234.060776
21
-21.586947
31
0
39
0
210
0
220
0
230
1
0
LINE
5
BB
100
AcDbEntity
8
1
62
256
6
ByLayer
370
13
48
1
60
0
100
AcDbLine
10
264.716492
20
-21.810556
30
0
11
265.597398
21
-15.160792
31
0
39
0
210
0
220
0
230
1
0
LINE
5
BC
100
AcDbEntity
8
1
62
256
6
ByLayer
370
13
48
1
60
0
100
AcDbLine
10
260.804343
20
7.794177
30
0
11
262.892767
21
7.903627
31
0
39
0
210
0
220
0
230
1
0
LINE
5
BD
100
AcDbEntity
8
1
62
256
6
ByLayer
370
13
48
1
60
0
100
AcDbLine
10
258.365888
20
6.164325
30
0
11
264.131675
21
6.466497
31
0
39
0
210
0
220
0
230
1
0
LINE
5
BE
100
AcDbEntity
8
1
62
256
6
ByLayer
370
13
48
1
60
0
100
AcDbLine
10
265.504087
20
0.616686
30
0
11
265.479765
21
0.619868
31
0
39
0
210
0
220
0
230
1
0
LINE
5
BF
100
AcDbEntity
8
1
62
256
6
ByLayer
370
13
48
1
60
0
100
AcDbLine
10
243.107106
20
-21.586947
30
0
11
243.107106
21
-0.311443
31
0
39
0
210
0
220
0
230
1
0
LINE
5
C0
100
AcDbEntity
8
1
62
256
6
ByLayer
370
13
48
1
60
0
100
AcDbLine
10
248.474018
20
19.96502
30
0
11
247.90081
21
15.585142
31
0
39
0
210
0
220
0
230
1
0
LINE
5
C1
100
AcDbEntity
8
1
62
256
6
ByLayer
370
13
48
1
60
0
100
AcDbLine
10
264.131675
20
6.466497
30
0
11
263.608603
21
2.178144
31
0
39
0
210
0
220
0
230
1
0
LINE
5
C2
100
AcDbEntity
8
1
62
256
6
ByLayer
370
13
48
1
60
0
100
AcDbLine
10
0
20
-4.975942
30
0
11
0
21
4.975942
31
0
39
0
210
0
220
0
230
1
0
LINE
5
C3
100
AcDbEntity
8
1
62
256
6
ByLayer
370
13
48
1
60
0
100
AcDbLine
10
265.599107
20
5.793142
30
0
11
265.549686
21
6.640949
31
0
39
0
210
0
220
0
230
1
0
LINE
5
C4
100
AcDbEntity
8
1
62
256
6
ByLayer
370
13
48
1
60
0
100
AcDbLine
10
37
20
-21.854175
30
0
11
37
21
-21.9375
31
0
39
0
210
0
220
0
230
1
0
LINE
5
C5
100
AcDbEntity
8
1
62
256
6
ByLayer
370
13
48
1
60
0
100
AcDbLine
10
252.658567
20
7.076554
30
0
11
252.424077
21
7.064265
31
0
39
0
210
0
220
0
230
1
0
LINE
5
C6
100
AcDbEntity
8
1
62
256
6
ByLayer
370
13
48
1
60
0
100
AcDbLine
10
248.472728
20
20.872111
30
0
11
248.42514
21
21.780155
31
0
39
0
210
0
220
0
230
1
0
LINE
5
C7
100
AcDbEntity
8
1
62
256
6
ByLayer
370
13
48
1
60
0
100
AcDbLine
10
265.596044
20
1.125815
30
0
11
265.829569
21
0.848823
31
0
39
0
210
0
220
0
230
1
0
LINE
5
C8
100
AcDbEntity
8
1
62
256
6
ByLayer
370
13
48
1
60
0
100
AcDbLine
10
264.131675
20
6.466497
30
0
11
265.138038
21
6.519238
31
0
39
0
210
0
220
0
230
1
0
LINE
5
C9
100
AcDbEntity
8
1
62
256
6
ByLayer
370
13
48
1
60
0
100
AcDbLine
10
265.597398
20
-15.160792
30
0
11
265.200702
21
-14.812356
31
0
39
0
210
0
220
0
230
1
0
LINE
5
CA
100
AcDbEntity
8
1
62
256
6
ByLayer
370
13
48
1
60
0
100
AcDbLine
10
253.144499
20
5.42191
30
0
11
253.58325
21
5.444904
31
0
39
0
210
0
220
0
230
1
0
LINE
5
CB
100
AcDbEntity
8
1
62
256
6
ByLayer
370
13
48
1
60
0
100
AcDbLine
10
253.048334
20
7.387702
30
0
11
255.136758
21
7.497152
31
0
39
0
210
0
220
0
230
1
0
LINE
5
CC
100
AcDbEntity
8
1
62
256
6
ByLayer
370
13
48
1
60
0
100
AcDbLine
10
129
20
21.7125
30
0
11
129
21
-7.834972
31
0
39
0
210
0
220
0
230
1
0
LINE
5
CD
100
AcDbEntity
8
1
62
256
6
ByLayer
370
13
48
1
60
0
100
AcDbLine
10
247.743922
20
15.303311
30
0
11
248.472728
21
20.872111
31
0
39
0
210
0
220
0
230
1
0
LINE
5
CE
100
AcDbEntity
8
1
62
256
6
ByLayer
370
13
48
1
60
0
100
AcDbLine
10
243.107106
20
21.7125
30
0
11
243.107106
21
21.487626
31
0
39
0
210
0
220
0
230
1
0
LINE
5
CF
100
AcDbEntity
8
1
62
256
6
ByLayer
370
13
48
1
60
0
100
AcDbLine
10
0.1
20
31.25
30
0
11
0.1
21
5.567764
31
0
39
0
210
0
220
0
230
1
0
LINE
5
D0
100
AcDbEntity
8
1
62
256
6
ByLayer
370
13
48
1
60
0
100
AcDbLine
10
263.608603
20
2.178144
30
0
11
265.060771
21
0.656391
31
0
39
0
210
0
220
0
230
1
0
LINE
5
D1
100
AcDbEntity
8
1
62
256
6
ByLayer
370
13
48
1
60
0
100
AcDbLine
10
37
20
21.9375
30
0
11
37
21
-7.860045
31
0
39
0
210
0
220
0
230
1
0
LINE
5
D2
100
AcDbEntity
8
1
62
256
6
ByLayer
370
13
48
1
60
0
100
AcDbLine
10
0
20
31.15
30
0
11
0
21
4.975942
31
0
39
0
210
0
220
0
230
1
0
LINE
5
D3
100
AcDbEntity
8
1
62
256
6
ByLayer
370
13
48
1
60
0
100
AcDbLine
10
265.824208
20
6.073429
30
0
11
265.672277
21
5.49773
31
0
39
0
210
0
220
0
230
1
0
LINE
5
D4
100
AcDbEntity
8
1
62
256
6
ByLayer
370
13
48
1
60
0
100
AcDbLine
10
266.079658
20
-7.725559
30
0
11
265.215161
21
-14.251455
31
0
39
0
210
0
220
0
230
1
0
LINE
5
D5
100
AcDbEntity
8
1
62
256
6
ByLayer
370
13
48
1
60
0
100
AcDbLine
10
0
20
-31.15
30
0
11
0
21
-4.975942
31
0
39
0
210
0
220
0
230
1
0
LINE
5
D6
100
AcDbEntity
8
1
62
256
6
ByLayer
370
13
48
1
60
0
100
AcDbLine
10
246.107106
20
21.9375
30
0
11
246.107106
21
21.753204
31
0
39
0
210
0
220
0
230
1
0
LINE
5
D7
100
AcDbEntity
8
1
62
256
6
ByLayer
370
13
48
1
60
0
100
AcDbLine
10
252.419656
20
7.053935
30
0
11
251.8946
21
7.026418
31
0
39
0
210
0
220
0
230
1
0
LINE
5
D8
100
AcDbEntity
8
1
62
256
6
ByLayer
370
13
48
1
60
0
100
AcDbLine
10
246.607405
20
10.916711
30
0
11
245.12135
21
13.209724
31
0
39
0
210
0
220
0
230
1
0
LINE
5
D9
100
AcDbEntity
8
1
62
256
6
ByLayer
370
13
48
1
60
0
100
AcDbLine
10
265.496301
20
0.625921
30
0
11
265.484888
21
0.627414
31
0
39
0
210
0
220
0
230
1
0
LINE
5
DA
100
AcDbEntity
8
1
62
256
6
ByLayer
370
13
48
1
60
0
100
AcDbLine
10
0.1
20
5.567764
30
0
11
5.9079
21
5.567764
31
0
39
0
210
0
220
0
230
1
0
LINE
5
DB
100
AcDbEntity
8
1
62
256
6
ByLayer
370
13
48
1
60
0
100
AcDbLine
10
245.793056
20
6.799527
30
0
11
245.325712
21
6.748715
31
0
39
0
210
0
220
0
230
1
0
LINE
5
DC
100
AcDbEntity
8
1
62
256
6
ByLayer
370
18
48
1
60
0
100
AcDbLine
10
256.970459
20
12.696938
30
0
11
256.835771
21
12.689879
31
0
39
0
210
0
220
0
230
1
0
LINE
5
DD
100
AcDbEntity
8
1
62
256
6
ByLayer
370
18
48
1
60
0
100
AcDbLine
10
258.668878
20
14.603749
30
0
11
258.534191
21
14.59669
31
0
39
0
210
0
220
0
230
1
0
LINE
5
DE
100
AcDbEntity
8
1
62
256
6
ByLayer
370
18
48
1
60
0
100
AcDbLine
10
258.554101
20
14.597294
30
0
11
258.534191
21
14.59669
31
0
39
0
210
0
220
0
230
1
0
LINE
5
DF
100
AcDbEntity
8
1
62
256
6
ByLayer
370
18
48
1
60
0
100
AcDbLine
10
256.962055
20
12.679372
30
0
11
256.826345
21
12.67226
31
0
39
0
210
0
220
0
230
1
0
LINE
5
E0
100
AcDbEntity
8
1
62
256
6
ByLayer
370
18
48
1
60
0
100
AcDbLine
10
258.259001
20
15.237472
30
0
11
258.124314
21
15.230414
31
0
39
0
210
0
220
0
230
1
0
LINE
5
E1
100
AcDbEntity
8
1
62
256
6
ByLayer
370
18
48
1
60
0
100
AcDbLine
10
258.709386
20
13.830807
30
0
11
258.574699
21
13.823749
31
0
39
0
210
0
220
0
230
1
0
LINE
5
E2
100
AcDbEntity
8
1
62
256
6
ByLayer
370
18
48
1
60
0
100
AcDbLine
10
258.243793
20
13.133638
30
0
11
258.233309
21
13.150653
31
0
39
0
210
0
220
0
230
1
0
LINE
5
E3
100
AcDbEntity
8
1
62
256
6
ByLayer
370
18
48
1
60
0
100
AcDbLine
10
256.820955
20
15.54964
30
0
11
256.686268
21
15.542581
31
0
39
0
210
0
220
0
230
1
0
LINE
5
E4
100
AcDbEntity
8
1
62
256
6
ByLayer
370
18
48
1
60
0
100
AcDbLine
10
255.814452
20
14.453715
30
0
11
255.746727
21
14.450166
31
0
39
0
210
0
220
0
230
1
0
LINE
5
E5
100
AcDbEntity
8
1
62
256
6
ByLayer
370
18
48
1
60
0
100
AcDbLine
10
256.686268
20
15.542581
30
0
11
256.675051
21
15.559118
31
0
39
0
210
0
220
0
230
1
0
LINE
5
E6
100
AcDbEntity
8
1
62
256
6
ByLayer
370
18
48
1
60
0
100
AcDbLine
10
258.268671
20
15.255543
30
0
11
258.132962
21
15.248431
31
0
39
0
210
0
220
0
230
1
0
LINE
5
E7
100
AcDbEntity
8
1
62
256
6
ByLayer
370
18
48
1
60
0
100
AcDbLine
10
256.826345
20
12.67226
30
0
11
256.835771
21
12.689879
31
0
39
0
210
0
220
0
230
1
0
LINE
5
E8
100
AcDbEntity
8
1
62
256
6
ByLayer
370
18
48
1
60
0
100
AcDbLine
10
258.124314
20
15.230414
30
0
11
258.132962
21
15.248431
31
0
39
0
210
0
220
0
230
1
0
LINE
5
E9
100
AcDbEntity
8
1
62
256
6
ByLayer
370
18
48
1
60
0
100
AcDbLine
10
258.367997
20
13.157712
30
0
11
258.233309
21
13.150653
31
0
39
0
210
0
220
0
230
1
0
LINE
5
EA
100
AcDbEntity
8
1
62
256
6
ByLayer
370
18
48
1
60
0
100
AcDbLine
10
256.810761
20
15.56623
30
0
11
256.675051
21
15.559118
31
0
39
0
210
0
220
0
230
1
0
LINE
5
EB
100
AcDbEntity
8
1
62
256
6
ByLayer
370
18
48
1
60
0
100
AcDbLine
10
258.574699
20
13.823749
30
0
11
258.594563
21
13.825229
31
0
39
0
210
0
220
0
230
1
0
LINE
5
EC
100
AcDbEntity
8
1
62
256
6
ByLayer
370
18
48
1
60
0
100
AcDbLine
10
255.854915
20
13.68165
30
0
11
255.7866
21
13.67807
31
0
39
0
210
0
220
0
230
1
0
LINE
5
ED
100
AcDbEntity
8
1
62
256
6
ByLayer
370
18
48
1
60
0
100
AcDbLine
10
258.379503
20
13.140751
30
0
11
258.243793
21
13.133638
31
0
39
0
210
0
220
0
230
1
0
LINE
5
EE
100
AcDbEntity
8
1
62
256
6
ByLayer
370
18
48
1
60
0
100
AcDbLine
10
265.420025
20
0.227143
30
0
11
265.436048
21
0.171612
31
0
39
0
210
0
220
0
230
1
0
LINE
5
EF
100
AcDbEntity
8
1
62
256
6
ByLayer
370
18
48
1
60
0
100
AcDbLine
10
265.41142
20
-14.106047
30
0
11
265.355543
21
-14.12197
31
0
39
0
210
0
220
0
230
1
0
LINE
5
F0
100
AcDbEntity
8
1
62
256
6
ByLayer
370
18
48
1
60
0
100
AcDbLine
10
265.260181
20
-14.14298
30
0
11
265.228854
21
-14.147911
31
0
39
0
210
0
220
0
230
1
0
LINE
5
F1
100
AcDbEntity
8
1
62
256
6
ByLayer
370
18
48
1
60
0
100
AcDbLine
10
266.558963
20
-7.045755
30
0
11
265.661953
21
-13.817087
31
0
39
0
210
0
220
0
230
1
0
LINE
5
F2
100
AcDbEntity
8
1
62
256
6
ByLayer
370
18
48
1
60
0
100
AcDbLine
10
265.06273
20
0.484832
30
0
11
265.129268
21
0.476127
31
0
39
0
210
0
220
0
230
1
0
LINE
5
F3
100
AcDbEntity
8
1
62
256
6
ByLayer
370
18
48
1
60
0
100
AcDbLine
10
265.457189
20
0.07684
30
0
11
266.555958
21
-6.817607
31
0
39
0
210
0
220
0
230
1
0
LINE
5
F4
100
AcDbEntity
8
1
62
256
6
ByLayer
370
13
48
1
60
0
100
AcDbLine
10
249.40944
20
21.452539
30
0
11
249.086464
21
21.452742
31
0
39
0
210
0
220
0
230
1
0
LINE
5
F5
100
AcDbEntity
8
1
62
256
6
ByLayer
370
13
48
1
60
0
100
AcDbLine
10
247.451899
20
14.157314
30
0
11
247.531873
21
14.908421
31
0
39
0
210
0
220
0
230
1
0
LINE
5
F6
100
AcDbEntity
8
1
62
256
6
ByLayer
370
13
48
1
60
0
100
AcDbLine
10
264.256217
20
22.463896
30
0
11
264.488013
21
22.51759
31
0
39
0
210
0
220
0
230
1
0
LINE
5
F7
100
AcDbEntity
8
1
62
256
6
ByLayer
370
13
48
1
60
0
100
AcDbLine
10
263.990092
20
7.937324
30
0
11
263.98548
21
7.937082
31
0
39
0
210
0
220
0
230
1
0
LINE
5
F8
100
AcDbEntity
8
1
62
256
6
ByLayer
370
13
48
1
60
0
100
AcDbLine
10
264.550856
20
14.760373
30
0
11
263.564735
21
21.004458
31
0
39
0
210
0
220
0
230
1
0
LINE
5
F9
100
AcDbEntity
8
1
62
256
6
ByLayer
370
13
48
1
60
0
100
AcDbLine
10
250.793014
20
20.480082
30
0
11
248.704444
21
20.14833
31
0
39
0
210
0
220
0
230
1
0
LINE
5
FA
100
AcDbEntity
8
1
62
256
6
ByLayer
370
13
48
1
60
0
100
AcDbLine
10
266.84182
20
14.81795
30
0
11
266.837208
21
14.817708
31
0
39
0
210
0
220
0
230
1
0
LINE
5
FB
100
AcDbEntity
8
1
62
256
6
ByLayer
370
13
48
1
60
0
100
AcDbLine
10
264.861397
20
14.569199
30
0
11
264.014095
21
8.094973
31
0
39
0
210
0
220
0
230
1
0
LINE
5
FC
100
AcDbEntity
8
1
62
256
6
ByLayer
370
13
48
1
60
0
100
AcDbLine
10
247.451899
20
14.157314
30
0
11
247.433634
21
13.805796
31
0
39
0
210
0
220
0
230
1
0
LINE
5
FD
100
AcDbEntity
8
1
62
256
6
ByLayer
370
13
48
1
60
0
100
AcDbLine
10
250.727897
20
20.133637
30
0
11
250.74191
21
20.240711
31
0
39
0
210
0
220
0
230
1
0
LINE
5
FE
100
AcDbEntity
8
1
62
256
6
ByLayer
370
13
48
1
60
0
100
AcDbLine
10
266.675855
20
14.793551
30
0
11
265.568072
21
21.807996
31
0
39
0
210
0
220
0
230
1
0
LINE
5
FF
100
AcDbEntity
8
1
62
256
6
ByLayer
370
13
48
1
60
0
100
AcDbLine
10
250.566687
20
20.192973
30
0
11
248.720463
21
19.899715
31
0
39
0
210
0
220
0
230
1
0
LINE
5
100
100
AcDbEntity
8
1
62
256
6
ByLayer
370
13
48
1
60
0
100
AcDbLine
10
265.570629
20
8.08713
30
0
11
265.257101
21
6.803347
31
0
39
0
210
0
220
0
230
1
0
LINE
5
101
100
AcDbEntity
8
1
62
256
6
ByLayer
370
13
48
1
60
0
100
AcDbLine
10
266.839871
20
14.616838
30
0
11
266.022243
21
8.369344
31
0
39
0
210
0
220
0
230
1
0
LINE
5
102
100
AcDbEntity
8
1
62
256
6
ByLayer
370
13
48
1
60
0
100
AcDbLine
10
248.605537
20
21.09072
30
0
11
248.704444
21
20.14833
31
0
39
0
210
0
220
0
230
1
0
LINE
5
103
100
AcDbEntity
8
1
62
256
6
ByLayer
370
13
48
1
60
0
100
AcDbLine
10
265.902166
20
8.241041
30
0
11
263.990092
21
7.937324
31
0
39
0
210
0
220
0
230
1
0
LINE
5
104
100
AcDbEntity
8
1
62
256
6
ByLayer
370
13
48
1
60
0
100
AcDbLine
10
251.498367
20
20.374381
30
0
11
262.436328
21
20.947615
31
0
39
0
210
0
220
0
230
1
0
LINE
5
105
100
AcDbEntity
8
1
62
256
6
ByLayer
370
13
48
1
60
0
100
AcDbLine
10
265.458678
20
7.170154
30
0
11
265.881235
21
7.237274
31
0
39
0
210
0
220
0
230
1
0
LINE
5
106
100
AcDbEntity
8
1
62
256
6
ByLayer
370
13
48
1
60
0
100
AcDbLine
10
263.887464
20
8.138533
30
0
11
263.875769
21
8.049169
31
0
39
0
210
0
220
0
230
1
0
LINE
5
107
100
AcDbEntity
8
1
62
256
6
ByLayer
370
13
48
1
60
0
100
AcDbLine
10
265.902166
20
8.241041
30
0
11
265.897554
21
8.240799
31
0
39
0
210
0
220
0
230
1
0
LINE
5
108
100
AcDbEntity
8
1
62
256
6
ByLayer
370
13
48
1
60
0
100
AcDbLine
10
250.261534
20
5.878137
30
0
11
250.033111
21
5.868172
31
0
39
0
210
0
220
0
230
1
0
LINE
5
109
100
AcDbEntity
8
1
62
256
6
ByLayer
370
13
48
1
60
0
100
AcDbLine
10
247.773196
20
13.672801
30
0
11
248.590825
21
19.920294
31
0
39
0
210
0
220
0
230
1
0
LINE
5
10A
100
AcDbEntity
8
1
62
256
6
ByLayer
370
13
48
1
60
0
100
AcDbLine
10
263.824666
20
7.809798
30
0
11
265.570629
21
8.08713
31
0
39
0
210
0
220
0
230
1
0
LINE
5
10B
100
AcDbEntity
8
1
62
256
6
ByLayer
370
13
48
1
60
0
100
AcDbLine
10
266.844484
20
14.617079
30
0
11
266.026855
21
8.369586
31
0
39
0
210
0
220
0
230
1
0
LINE
5
10C
100
AcDbEntity
8
1
62
256
6
ByLayer
370
13
48
1
60
0
100
AcDbLine
10
247.744505
20
10.979599
30
0
11
248.483892
21
7.8894
31
0
39
0
210
0
220
0
230
1
0
LINE
5
10D
100
AcDbEntity
8
1
62
256
6
ByLayer
370
13
48
1
60
0
100
AcDbLine
10
263.119312
20
7.915499
30
0
11
252.181351
21
7.342265
31
0
39
0
210
0
220
0
230
1
0
LINE
5
10E
100
AcDbEntity
8
1
62
256
6
ByLayer
370
13
48
1
60
0
100
AcDbLine
10
250.755715
20
6.9333
30
0
11
249.722619
21
13.474833
31
0
39
0
210
0
220
0
230
1
0
LINE
5
10F
100
AcDbEntity
8
1
62
256
6
ByLayer
370
13
48
1
60
0
100
AcDbLine
10
266.940165
20
14.833571
30
0
11
265.832381
21
21.848015
31
0
39
0
210
0
220
0
230
1
0
LINE
5
110
100
AcDbEntity
8
1
62
256
6
ByLayer
370
13
48
1
60
0
100
AcDbLine
10
266.026855
20
8.369586
30
0
11
266.022243
21
8.369344
31
0
39
0
210
0
220
0
230
1
0
LINE
5
111
100
AcDbEntity
8
1
62
256
6
ByLayer
370
13
48
1
60
0
100
AcDbLine
10
248.883642
20
6.457486
30
0
11
247.775859
21
13.47193
31
0
39
0
210
0
220
0
230
1
0
LINE
5
112
100
AcDbEntity
8
1
62
256
6
ByLayer
370
13
48
1
60
0
100
AcDbLine
10
264.356146
20
22.411743
30
0
11
264.584568
21
22.421708
31
0
39
0
210
0
220
0
230
1
0
LINE
5
113
100
AcDbEntity
8
1
62
256
6
ByLayer
370
13
48
1
60
0
100
AcDbLine
10
264.572668
20
22.270884
30
0
11
264.344245
21
22.260919
31
0
39
0
210
0
220
0
230
1
0
LINE
5
114
100
AcDbEntity
8
1
62
256
6
ByLayer
370
13
48
1
60
0
100
AcDbLine
10
250.899561
20
6.849326
30
0
11
250.894949
21
6.849084
31
0
39
0
210
0
220
0
230
1
0
LINE
5
115
100
AcDbEntity
8
1
62
256
6
ByLayer
370
13
48
1
60
0
100
AcDbLine
10
264.619999
20
6.800644
30
0
11
264.812751
21
6.799485
31
0
39
0
210
0
220
0
230
1
0
LINE
5
116
100
AcDbEntity
8
1
62
256
6
ByLayer
370
13
48
1
60
0
100
AcDbLine
10
250.737298
20
20.240469
30
0
11
249.881308
21
13.69986
31
0
39
0
210
0
220
0
230
1
0
LINE
5
117
100
AcDbEntity
8
1
62
256
6
ByLayer
370
13
48
1
60
0
100
AcDbLine
10
264.352147
20
22.411528
30
0
11
264.579956
21
22.421466
31
0
39
0
210
0
220
0
230
1
0
LINE
5
118
100
AcDbEntity
8
1
62
256
6
ByLayer
370
13
48
1
60
0
100
AcDbLine
10
248.715513
20
20.048839
30
0
11
250.627587
21
20.352557
31
0
39
0
210
0
220
0
230
1
0
LINE
5
119
100
AcDbEntity
8
1
62
256
6
ByLayer
370
13
48
1
60
0
100
AcDbLine
10
264.014095
20
8.094973
30
0
11
265.860319
21
8.388231
31
0
39
0
210
0
220
0
230
1
0
LINE
5
11A
100
AcDbEntity
8
1
62
256
6
ByLayer
370
13
48
1
60
0
100
AcDbLine
10
264.333819
20
22.48529
30
0
11
264.223505
21
22.462182
31
0
39
0
210
0
220
0
230
1
0
LINE
5
11B
100
AcDbEntity
8
1
62
256
6
ByLayer
370
13
48
1
60
0
100
AcDbLine
10
248.605537
20
21.09072
30
0
11
248.462462
21
21.067994
31
0
39
0
210
0
220
0
230
1
0
LINE
5
11C
100
AcDbEntity
8
1
62
256
6
ByLayer
370
13
48
1
60
0
100
AcDbLine
10
248.897076
20
21.676284
30
0
11
249.009201
21
21.664834
31
0
39
0
210
0
220
0
230
1
0
LINE
5
11D
100
AcDbEntity
8
1
62
256
6
ByLayer
370
13
48
1
60
0
100
AcDbLine
10
249.888584
20
13.499231
30
0
11
249.883972
21
13.49899
31
0
39
0
210
0
220
0
230
1
0
LINE
5
11E
100
AcDbEntity
8
1
62
256
6
ByLayer
370
13
48
1
60
0
100
AcDbLine
10
247.50719
20
13.102303
30
0
11
247.452281
21
13.449986
31
0
39
0
210
0
220
0
230
1
0
LINE
5
11F
100
AcDbEntity
8
1
62
256
6
ByLayer
370
13
48
1
60
0
100
AcDbLine
10
264.619794
20
22.422914
30
0
11
264.615182
21
22.422673
31
0
39
0
210
0
220
0
230
1
0
LINE
5
120
100
AcDbEntity
8
1
62
256
6
ByLayer
370
13
48
1
60
0
100
AcDbLine
10
264.584568
20
22.421708
30
0
11
264.579956
21
22.421466
31
0
39
0
210
0
220
0
230
1
0
LINE
5
121
100
AcDbEntity
8
1
62
256
6
ByLayer
370
13
48
1
60
0
100
AcDbLine
10
265.916159
20
6.949888
30
0
11
265.881235
21
7.237274
31
0
39
0
210
0
220
0
230
1
0
LINE
5
122
100
AcDbEntity
8
1
62
256
6
ByLayer
370
13
48
1
60
0
100
AcDbLine
10
249.885921
20
13.700102
30
0
11
250.727897
21
20.133637
31
0
39
0
210
0
220
0
230
1
0
LINE
5
123
100
AcDbEntity
8
1
62
256
6
ByLayer
370
13
48
1
60
0
100
AcDbLine
10
266.943208
20
14.604005
30
0
11
266.127307
21
8.369713
31
0
39
0
210
0
220
0
230
1
0
LINE
5
124
100
AcDbEntity
8
1
62
256
6
ByLayer
370
13
48
1
60
0
100
AcDbLine
10
265.897554
20
8.240799
30
0
11
263.98548
21
7.937082
31
0
39
0
210
0
220
0
230
1
0
LINE
5
125
100
AcDbEntity
8
1
62
256
6
ByLayer
370
13
48
1
60
0
100
AcDbLine
10
247.641625
20
15.133037
30
0
11
247.449436
21
13.664526
31
0
39
0
210
0
220
0
230
1
0
LINE
5
126
100
AcDbEntity
8
1
62
256
6
ByLayer
370
13
48
1
60
0
100
AcDbLine
10
265.860319
20
8.388231
30
0
11
266.677948
21
14.635724
31
0
39
0
210
0
220
0
230
1
0
LINE
5
127
100
AcDbEntity
8
1
62
256
6
ByLayer
370
13
48
1
60
0
100
AcDbLine
10
250.943795
20
20.108454
30
0
11
250.101819
21
13.67492
31
0
39
0
210
0
220
0
230
1
0
LINE
5
128
100
AcDbEntity
8
1
62
256
6
ByLayer
370
13
48
1
60
0
100
AcDbLine
10
264.223505
20
22.462182
30
0
11
264.256217
21
22.463896
31
0
39
0
210
0
220
0
230
1
0
LINE
5
129
100
AcDbEntity
8
1
62
256
6
ByLayer
370
13
48
1
60
0
100
AcDbLine
10
266.185862
20
8.817155
30
0
11
266.06737
21
7.348311
31
0
39
0
210
0
220
0
230
1
0
LINE
5
12A
100
AcDbEntity
8
1
62
256
6
ByLayer
370
13
48
1
60
0
100
AcDbLine
10
265.734037
20
21.832394
30
0
11
266.84182
21
14.81795
31
0
39
0
210
0
220
0
230
1
0
LINE
5
12B
100
AcDbEntity
8
1
62
256
6
ByLayer
370
13
48
1
60
0
100
AcDbLine
10
265.960626
20
7.98291
30
0
11
265.881235
21
7.237274
31
0
39
0
210
0
220
0
230
1
0
LINE
5
12C
100
AcDbEntity
8
1
62
256
6
ByLayer
370
13
48
1
60
0
100
AcDbLine
10
264.356146
20
22.411743
30
0
11
264.351533
21
22.411502
31
0
39
0
210
0
220
0
230
1
0
LINE
5
12D
100
AcDbEntity
8
1
62
256
6
ByLayer
370
13
48
1
60
0
100
AcDbLine
10
265.062897
20
22.422815
30
0
11
265.058284
21
22.422573
31
0
39
0
210
0
220
0
230
1
0
LINE
5
12E
100
AcDbEntity
8
1
62
256
6
ByLayer
370
13
48
1
60
0
100
AcDbLine
10
248.720463
20
19.899715
30
0
11
247.902834
21
13.652222
31
0
39
0
210
0
220
0
230
1
0
LINE
5
12F
100
AcDbEntity
8
1
62
256
6
ByLayer
370
13
48
1
60
0
100
AcDbLine
10
250.008114
20
6.017062
30
0
11
250.236536
21
6.027027
31
0
39
0
210
0
220
0
230
1
0
LINE
5
130
100
AcDbEntity
8
1
62
256
6
ByLayer
370
13
48
1
60
0
100
AcDbLine
10
249.883972
20
13.49899
30
0
11
250.920873
21
6.933368
31
0
39
0
210
0
220
0
230
1
0
LINE
5
131
100
AcDbEntity
8
1
62
256
6
ByLayer
370
13
48
1
60
0
100
AcDbLine
10
266.844484
20
14.617079
30
0
11
266.839871
21
14.616838
31
0
39
0
210
0
220
0
230
1
0
LINE
5
132
100
AcDbEntity
8
1
62
256
6
ByLayer
370
13
48
1
60
0
100
AcDbLine
10
265.729425
20
21.832153
30
0
11
266.837208
21
14.817708
31
0
39
0
210
0
220
0
230
1
0
LINE
5
133
100
AcDbEntity
8
1
62
256
6
ByLayer
370
13
48
1
60
0
100
AcDbLine
10
250.445446
20
6.027164
30
0
11
250.440833
21
6.026922
31
0
39
0
210
0
220
0
230
1
0
LINE
5
134
100
AcDbEntity
8
1
62
256
6
ByLayer
370
13
48
1
60
0
100
AcDbLine
10
249.885921
20
13.700102
30
0
11
249.881308
21
13.69986
31
0
39
0
210
0
220
0
230
1
0
LINE
5
135
100
AcDbEntity
8
1
62
256
6
ByLayer
370
13
48
1
60
0
100
AcDbLine
10
250.103721
20
13.531441
30
0
11
251.089842
21
7.287355
31
0
39
0
210
0
220
0
230
1
0
LINE
5
136
100
AcDbEntity
8
1
62
256
6
ByLayer
370
13
48
1
60
0
100
AcDbLine
10
247.677515
20
13.456309
30
0
11
248.785298
21
6.441865
31
0
39
0
210
0
220
0
230
1
0
LINE
5
137
100
AcDbEntity
8
1
62
256
6
ByLayer
370
13
48
1
60
0
100
AcDbLine
10
250.74191
20
20.240711
30
0
11
250.737298
21
20.240469
31
0
39
0
210
0
220
0
230
1
0
LINE
5
138
100
AcDbEntity
8
1
62
256
6
ByLayer
370
13
48
1
60
0
100
AcDbLine
10
250.925485
20
6.93361
30
0
11
250.874705
21
7.255146
31
0
39
0
210
0
220
0
230
1
0
LINE
5
139
100
AcDbEntity
8
1
62
256
6
ByLayer
370
13
48
1
60
0
100
AcDbLine
10
263.692194
20
21.35627
30
0
11
263.740135
21
21.05271
31
0
39
0
210
0
220
0
230
1
0
LINE
5
13A
100
AcDbEntity
8
1
62
256
6
ByLayer
370
13
48
1
60
0
100
AcDbLine
10
265.570629
20
8.08713
30
0
11
265.913235
21
8.14155
31
0
39
0
210
0
220
0
230
1
0
LINE
5
13B
100
AcDbEntity
8
1
62
256
6
ByLayer
370
13
48
1
60
0
100
AcDbLine
10
248.490372
20
19.920167
30
0
11
248.467982
21
20.133501
31
0
39
0
210
0
220
0
230
1
0
LINE
5
13C
100
AcDbEntity
8
1
62
256
6
ByLayer
370
13
48
1
60
0
100
AcDbLine
10
265.734037
20
21.832394
30
0
11
265.729425
21
21.832153
31
0
39
0
210
0
220
0
230
1
0
LINE
5
13D
100
AcDbEntity
8
1
62
256
6
ByLayer
370
13
48
1
60
0
100
AcDbLine
10
263.710781
20
8.183359
30
0
11
264.552758
21
14.616894
31
0
39
0
210
0
220
0
230
1
0
LINE
5
13E
100
AcDbEntity
8
1
62
256
6
ByLayer
370
13
48
1
60
0
100
AcDbLine
10
247.50719
20
13.102303
30
0
11
248.755267
21
6.441022
31
0
39
0
210
0
220
0
230
1
0
LINE
5
13F
100
AcDbEntity
8
1
62
256
6
ByLayer
370
13
48
1
60
0
100
AcDbLine
10
249.719385
20
13.718747
30
0
11
250.566687
21
20.192973
31
0
39
0
210
0
220
0
230
1
0
LINE
5
140
100
AcDbEntity
8
1
62
256
6
ByLayer
370
13
48
1
60
0
100
AcDbLine
10
263.917165
20
22.279788
30
0
11
264.075912
21
22.288107
31
0
39
0
210
0
220
0
230
1
0
LINE
5
141
100
AcDbEntity
8
1
62
256
6
ByLayer
370
13
48
1
60
0
100
AcDbLine
10
250.874705
20
7.255146
30
0
11
249.888584
21
13.499231
31
0
39
0
210
0
220
0
230
1
0
LINE
5
142
100
AcDbEntity
8
1
62
256
6
ByLayer
370
13
48
1
60
0
100
AcDbLine
10
247.451899
20
14.157314
30
0
11
247.457301
21
14.714231
31
0
39
0
210
0
220
0
230
1
0
LINE
5
143
100
AcDbEntity
8
1
62
256
6
ByLayer
370
13
48
1
60
0
100
AcDbLine
10
250.361463
20
5.825984
30
0
11
250.129666
21
5.77229
31
0
39
0
210
0
220
0
230
1
0
LINE
5
144
100
AcDbEntity
8
1
62
256
6
ByLayer
370
13
48
1
60
0
100
AcDbLine
10
265.458678
20
7.170154
30
0
11
265.913235
21
8.14155
31
0
39
0
210
0
220
0
230
1
0
LINE
5
145
100
AcDbEntity
8
1
62
256
6
ByLayer
370
13
48
1
60
0
100
AcDbLine
10
247.674471
20
13.685875
30
0
11
248.490372
21
19.920167
31
0
39
0
210
0
220
0
230
1
0
LINE
5
146
100
AcDbEntity
8
1
62
256
6
ByLayer
370
13
48
1
60
0
100
AcDbLine
10
250.925485
20
6.93361
30
0
11
250.920873
21
6.933368
31
0
39
0
210
0
220
0
230
1
0
LINE
5
147
100
AcDbEntity
8
1
62
256
6
ByLayer
370
13
48
1
60
0
100
AcDbLine
10
247.904926
20
13.494395
30
0
11
249.01271
21
6.479951
31
0
39
0
210
0
220
0
230
1
0
LINE
5
148
100
AcDbEntity
8
1
62
256
6
ByLayer
370
13
48
1
60
0
100
AcDbLine
10
263.825066
20
21.354646
30
0
11
264.858163
21
14.813114
31
0
39
0
210
0
220
0
230
1
0
LINE
5
149
100
AcDbEntity
8
4
62
256
6
ByLayer
370
18
48
0.05
60
0
100
AcDbLine
10
267
20
0
30
0
11
0
21
0
31
0
39
0
210
0
220
0
230
1
0
LINE
5
14B
100
AcDbEntity
8
SK4
62
256
6
ByLayer
370
13
48
0.05
60
0
100
AcDbLine
10
267
20
0
30
0
11
-80
21
0
31
0
39
0
210
0
220
0
230
1
0
LINE
5
14D
100
AcDbEntity
8
1
62
256
6
ByLayer
370
13
48
1
60
0
100
AcDbLine
10
154.398734
20
21.7125
30
0
11
129
21
21.7125
31
0
39
0
210
0
220
0
230
1
0
LINE
5
14E
100
AcDbEntity
8
SK1
62
256
6
ByLayer
370
13
48
1
60
0
100
AcDbLine
10
-77.633813
20
-24.639667
30
0
11
-76.600002
21
-24.996
31
0
39
0
210
0
220
0
230
1
0
LINE
5
14F
100
AcDbEntity
8
SK1
62
256
6
ByLayer
370
13
48
1
60
0
100
AcDbLine
10
-76.600002
20
24.996
30
0
11
-77.633813
21
24.639667
31
0
39
0
210
0
220
0
230
1
0
LINE
5
150
100
AcDbEntity
8
SK1
62
256
6
ByLayer
370
13
48
1
60
0
100
AcDbLine
10
-78.516222
20
24.892544
30
0
11
-78.599999
21
24.996
31
0
39
0
210
0
220
0
230
1
0
LINE
5
151
100
AcDbEntity
8
SK1
62
256
6
ByLayer
370
13
48
1
60
0
100
AcDbLine
10
-78.599999
20
-24.996
30
0
11
-78.516222
21
-24.892544
31
0
39
0
210
0
220
0
230
1
0
LINE
5
152
100
AcDbEntity
8
SK1
62
256
6
ByLayer
370
13
48
1
60
0
100
AcDbLine
10
-78.599999
20
24.996
30
0
11
-79
21
24.996
31
0
39
0
210
0
220
0
230
1
0
LINE
5
153
100
AcDbEntity
8
SK1
62
256
6
ByLayer
370
13
48
1
60
0
100
AcDbLine
10
-79
20
-24.996
30
0
11
-78.599999
21
-24.996
31
0
39
0
210
0
220
0
230
1
0
LINE
5
154
100
AcDbEntity
8
SK1
62
256
6
ByLayer
370
13
48
1
60
0
100
AcDbLine
10
-80
20
-23.996
30
0
11
-79
21
-24.996
31
0
39
0
210
0
220
0
230
1
0
LINE
5
155
100
AcDbEntity
8
SK1
62
256
6
ByLayer
370
13
48
1
60
0
100
AcDbLine
10
-79
20
24.996
30
0
11
-80
21
23.996
31
0
39
0
210
0
220
0
230
1
0
LINE
5
156
100
AcDbEntity
8
SK1
62
256
6
ByLayer
370
13
48
1
60
0
100
AcDbLine
10
-0.15
20
24.746
30
0
11
-1.375195
21
24.746
31
0
39
0
210
0
220
0
230
1
0
LINE
5
157
100
AcDbEntity
8
SK1
62
256
6
ByLayer
370
13
48
1
60
0
100
AcDbLine
10
-1.375195
20
-24.746
30
0
11
-0.15
21
-24.746
31
0
39
0
210
0
220
0
230
1
0
LINE
5
158
100
AcDbEntity
8
SK1
62
256
6
ByLayer
370
13
48
1
60
0
100
AcDbLine
10
-1.544243
20
24.783477
30
0
11
-2
21
24.996
31
0
39
0
210
0
220
0
230
1
0
LINE
5
159
100
AcDbEntity
8
SK1
62
256
6
ByLayer
370
13
48
1
60
0
100
AcDbLine
10
-2
20
-24.996
30
0
11
-1.544243
21
-24.783477
31
0
39
0
210
0
220
0
230
1
0
LINE
5
15A
100
AcDbEntity
8
SK1
62
256
6
ByLayer
370
13
48
1
60
0
100
AcDbLine
10
-2
20
24.996
30
0
11
-76.600002
21
24.996
31
0
39
0
210
0
220
0
230
1
0
LINE
5
15B
100
AcDbEntity
8
SK1
62
256
6
ByLayer
370
13
48
1
60
0
100
AcDbLine
10
-76.600002
20
-24.996
30
0
11
-2
21
-24.996
31
0
39
0
210
0
220
0
230
1
0
LINE
5
15C
100
AcDbEntity
8
1
62
256
6
ByLayer
370
13
48
1
60
0
100
AcDbLine
10
37
20
-21.9375
30
0
11
42
21
-21.9375
31
0
39
0
210
0
220
0
230
1
0
LINE
5
15D
100
AcDbEntity
8
1
62
256
6
ByLayer
370
13
48
1
60
0
100
AcDbLine
10
42
20
-21.9375
30
0
11
129
21
-21.7125
31
0
39
0
210
0
220
0
230
1
0
LINE
5
15E
100
AcDbEntity
8
1
62
256
6
ByLayer
370
13
48
1
60
0
100
AcDbLine
10
248.173256
20
21.9375
30
0
11
246.107106
21
21.9375
31
0
39
0
210
0
220
0
230
1
0
LINE
5
15F
100
AcDbEntity
8
1
62
256
6
ByLayer
370
13
48
1
60
0
100
AcDbLine
10
246.107106
20
21.9375
30
0
11
243.107106
21
21.7125
31
0
39
0
210
0
220
0
230
1
0
LINE
5
160
100
AcDbEntity
8
1
62
256
6
ByLayer
370
13
48
1
60
0
100
AcDbLine
10
129
20
-21.7125
30
0
11
164.591709
21
-21.7125
31
0
39
0
210
0
220
0
230
1
0
LINE
5
161
100
AcDbEntity
8
1
62
256
6
ByLayer
370
13
48
1
60
0
100
AcDbLine
10
243.107106
20
21.7125
30
0
11
232.149251
21
21.7125
31
0
39
0
210
0
220
0
230
1
0
LINE
5
162
100
AcDbEntity
8
1
62
256
6
ByLayer
370
13
48
1
60
0
100
AcDbLine
10
129
20
21.7125
30
0
11
42
21
21.9375
31
0
39
0
210
0
220
0
230
1
0
LINE
5
163
100
AcDbEntity
8
1
62
256
6
ByLayer
370
13
48
1
60
0
100
AcDbLine
10
42
20
21.9375
30
0
11
37
21
21.9375
31
0
39
0
210
0
220
0
230
1
0
LINE
5
164
100
AcDbEntity
8
1
62
256
6
ByLayer
370
13
48
1
60
0
100
AcDbLine
10
0
20
-31.15
30
0
11
0.1
21
-31.25
31
0
39
0
210
0
220
0
230
1
0
LINE
5
165
100
AcDbEntity
8
1
62
256
6
ByLayer
370
13
48
1
60
0
100
AcDbLine
10
0.1
20
-31.25
30
0
11
5.9079
21
-31.25
31
0
39
0
210
0
220
0
230
1
0
LINE
5
166
100
AcDbEntity
8
1
62
256
6
ByLayer
370
13
48
1
60
0
100
AcDbLine
10
0.1
20
31.25
30
0
11
0
21
31.15
31
0
39
0
210
0
220
0
230
1
0
LINE
5
167
100
AcDbEntity
8
1
62
256
6
ByLayer
370
13
48
1
60
0
100
AcDbLine
10
5.9079
20
31.25
30
0
11
0.1
21
31.25
31
0
39
0
210
0
220
0
230
1
0
LINE
5
168
100
AcDbEntity
8
1
62
256
6
ByLayer
370
13
48
1
60
0
100
AcDbLine
10
265.649065
20
7.317051
30
0
11
266.103622
21
8.288447
31
0
39
0
210
0
220
0
230
1
0
LINE
5
169
100
AcDbEntity
8
1
62
256
6
ByLayer
370
13
48
1
60
0
100
AcDbLine
10
264.729959
20
14.790606
30
0
11
263.743837
21
21.034691
31
0
39
0
210
0
220
0
230
1
0
LINE
5
16A
100
AcDbEntity
8
1
62
256
6
ByLayer
370
13
48
1
60
0
100
AcDbLine
10
263.890641
20
8.156439
30
0
11
264.732618
21
14.589974
31
0
39
0
210
0
220
0
230
1
0
LINE
5
16B
100
AcDbEntity
8
1
62
256
6
ByLayer
370
18
48
1
60
0
100
AcDbLine
10
257.328904
20
12.853921
30
0
11
257.204182
21
12.847384
31
0
39
0
210
0
220
0
230
1
0
LINE
5
16C
100
AcDbEntity
8
1
62
256
6
ByLayer
370
18
48
1
60
0
100
AcDbLine
10
257.069124
20
15.424448
30
0
11
257.193846
21
15.430984
31
0
39
0
210
0
220
0
230
1
0
LINE
5
16D
100
AcDbEntity
8
1
62
256
6
ByLayer
370
18
48
1
60
0
100
AcDbLine
10
257.3573
20
11.293569
30
0
11
257.423789
21
11.297053
31
0
39
0
210
0
220
0
230
1
0
LINE
5
16E
100
AcDbEntity
8
1
62
256
6
ByLayer
370
18
48
1
60
0
100
AcDbLine
10
257.125474
20
16.989241
30
0
11
257.058985
21
16.985757
31
0
39
0
210
0
220
0
230
1
0
LINE
5
16F
100
AcDbEntity
8
81
62
256
6
ByLayer
370
18
48
1
60
0
100
AcDbLine
10
267
20
0
30
0
11
274
21
0
31
0
39
0
210
0
220
0
230
1
0
LINE
5
170
100
AcDbEntity
8
80
62
256
6
ByLayer
370
18
48
1
60
0
100
AcDbLine
10
0
20
0
30
0
11
-7
21
0
31
0
39
0
210
0
220
0
230
1
0
LINE
5
171
100
AcDbEntity
8
SK2
62
256
6
ByLayer
370
13
48
1
60
0
100
AcDbLine
10
-100.725
20
25
30
0
11
-100.725
21
-25
31
0
39
0
210
0
220
0
230
1
0
LINE
5
173
100
AcDbEntity
8
SK2
62
256
6
ByLayer
370
13
48
1
60
0
100
AcDbLine
10
-81.5875
20
-25
30
0
11
-103.9
21
-25
31
0
39
0
210
0
220
0
230
1
0
LINE
5
174
100
AcDbEntity
8
SK2
62
256
6
ByLayer
370
13
48
1
60
0
100
AcDbLine
10
-81.5875
20
25
30
0
11
-103.9
21
25
31
0
39
0
210
0
220
0
230
1
0
LINE
5
175
100
AcDbEntity
8
1
62
256
6
ByLayer
370
18
48
1
60
1
100
AcDbLine
10
-100.725
20
-25
30
0
11
-101.650575
21
-20.825003
31
0
39
0
210
0
220
0
230
1
0
LINE
5
176
100
AcDbEntity
8
1
62
256
6
ByLayer
370
18
48
1
60
1
100
AcDbLine
10
-101.650575
20
-20.825003
30
0
11
-99.799425
21
-20.824997
31
0
39
0
210
0
220
0
230
1
0
LINE
5
177
100
AcDbEntity
8
1
62
256
6
ByLayer
370
18
48
1
60
1
100
AcDbLine
10
-99.799425
20
-20.824997
30
0
11
-100.725
21
-25
31
0
39
0
210
0
220
0
230
1
0
LINE
5
178
100
AcDbEntity
8
1
62
256
6
ByLayer
370
18
48
1
60
1
100
AcDbLine
10
-100.725
20
25
30
0
11
-99.799425
21
20.825003
31
0
39
0
210
0
220
0
230
1
0
LINE
5
179
100
AcDbEntity
8
1
62
256
6
ByLayer
370
18
48
1
60
1
100
AcDbLine
10
-99.799425
20
20.825003
30
0
11
-101.650575
21
20.824997
31
0
39
0
210
0
220
0
230
1
0
LINE
5
17A
100
AcDbEntity
8
1
62
256
6
ByLayer
370
18
48
1
60
1
100
AcDbLine
10
-101.650575
20
20.824997
30
0
11
-100.725
21
25
31
0
39
0
210
0
220
0
230
1
0
LINE
5
17B
100
AcDbEntity
8
SK2
62
256
6
ByLayer
370
13
48
1
60
0
100
AcDbLine
10
-110.725
20
-31.25
30
0
11
-110.725
21
31.25
31
0
39
0
210
0
220
0
230
1
0
LINE
5
17C
100
AcDbEntity
8
SK2
62
256
6
ByLayer
370
13
48
1
60
0
100
AcDbLine
10
-1.5875
20
31.25
30
0
11
-113.9
21
31.25
31
0
39
0
210
0
220
0
230
1
0
LINE
5
17D
100
AcDbEntity
8
SK2
62
256
6
ByLayer
370
13
48
1
60
0
100
AcDbLine
10
-1.5875
20
-31.25
30
0
11
-113.9
21
-31.25
31
0
39
0
210
0
220
0
230
1
0
LINE
5
17E
100
AcDbEntity
8
1
62
256
6
ByLayer
370
18
48
1
60
1
100
AcDbLine
10
-110.725
20
31.25
30
0
11
-109.799425
21
27.075003
31
0
39
0
210
0
220
0
230
1
0
LINE
5
17F
100
AcDbEntity
8
1
62
256
6
ByLayer
370
18
48
1
60
1
100
AcDbLine
10
-109.799425
20
27.075003
30
0
11
-111.650575
21
27.074997
31
0
39
0
210
0
220
0
230
1
0
LINE
5
180
100
AcDbEntity
8
1
62
256
6
ByLayer
370
18
48
1
60
1
100
AcDbLine
10
-111.650575
20
27.074997
30
0
11
-110.725
21
31.25
31
0
39
0
210
0
220
0
230
1
0
LINE
5
181
100
AcDbEntity
8
1
62
256
6
ByLayer
370
18
48
1
60
1
100
AcDbLine
10
-110.725
20
-31.25
30
0
11
-111.650575
21
-27.075003
31
0
39
0
210
0
220
0
230
1
0
LINE
5
182
100
AcDbEntity
8
1
62
256
6
ByLayer
370
18
48
1
60
1
100
AcDbLine
10
-111.650575
20
-27.075003
30
0
11
-109.799425
21
-27.074997
31
0
39
0
210
0
220
0
230
1
0
LINE
5
183
100
AcDbEntity
8
1
62
256
6
ByLayer
370
18
48
1
60
1
100
AcDbLine
10
-109.799425
20
-27.074997
30
0
11
-110.725
21
-31.25
31
0
39
0
210
0
220
0
230
1
0
LINE
5
184
100
AcDbEntity
8
2
62
256
6
ByLayer
370
13
48
1
60
0
100
AcDbLine
10
293.975
20
22.5
30
0
11
293.975
21
-22.5
31
0
39
0
210
0
220
0
230
1
0
LINE
5
186
100
AcDbEntity
8
2
62
256
6
ByLayer
370
13
48
1
60
0
100
AcDbLine
10
268.5875
20
-22.5
30
0
11
297.15
21
-22.5
31
0
39
0
210
0
220
0
230
1
0
LINE
5
187
100
AcDbEntity
8
2
62
256
6
ByLayer
370
13
48
1
60
0
100
AcDbLine
10
268.5875
20
22.5
30
0
11
297.15
21
22.5
31
0
39
0
210
0
220
0
230
1
0
LINE
5
188
100
AcDbEntity
8
1
62
256
6
ByLayer
370
18
48
1
60
1
100
AcDbLine
10
293.975
20
-22.5
30
0
11
293.049425
21
-18.325003
31
0
39
0
210
0
220
0
230
1
0
LINE
5
189
100
AcDbEntity
8
1
62
256
6
ByLayer
370
18
48
1
60
1
100
AcDbLine
10
293.049425
20
-18.325003
30
0
11
294.900575
21
-18.324997
31
0
39
0
210
0
220
0
230
1
0
LINE
5
18A
100
AcDbEntity
8
1
62
256
6
ByLayer
370
18
48
1
60
1
100
AcDbLine
10
294.900575
20
-18.324997
30
0
11
293.975
21
-22.5
31
0
39
0
210
0
220
0
230
1
0
LINE
5
18B
100
AcDbEntity
8
1
62
256
6
ByLayer
370
18
48
1
60
1
100
AcDbLine
10
293.975
20
22.5
30
0
11
294.900575
21
18.325003
31
0
39
0
210
0
220
0
230
1
0
LINE
5
18C
100
AcDbEntity
8
1
62
256
6
ByLayer
370
18
48
1
60
1
100
AcDbLine
10
294.900575
20
18.325003
30
0
11
293.049425
21
18.324997
31
0
39
0
210
0
220
0
230
1
0
LINE
5
18D
100
AcDbEntity
8
1
62
256
6
ByLayer
370
18
48
1
60
1
100
AcDbLine
10
293.049425
20
18.324997
30
0
11
293.975
21
22.5
31
0
39
0
210
0
220
0
230
1
0
LINE
5
341
100
AcDbEntity
8
1
62
256
6
ByLayer
370
18
48
1
60
1
100
AcDbLine
10
-100.725
20
-25
30
0
11
-101.650575
21
-20.825003
31
0
39
0
210
0
220
0
230
1
0
LINE
5
342
100
AcDbEntity
8
1
62
256
6
ByLayer
370
18
48
1
60
1
100
AcDbLine
10
-101.650575
20
-20.825003
30
0
11
-99.799425
21
-20.824997
31
0
39
0
210
0
220
0
230
1
0
LINE
5
343
100
AcDbEntity
8
1
62
256
6
ByLayer
370
18
48
1
60
1
100
AcDbLine
10
-99.799425
20
-20.824997
30
0
11
-100.725
21
-25
31
0
39
0
210
0
220
0
230
1
0
LINE
5
345
100
AcDbEntity
8
1
62
256
6
ByLayer
370
18
48
1
60
1
100
AcDbLine
10
-100.725
20
25
30
0
11
-99.799425
21
20.825003
31
0
39
0
210
0
220
0
230
1
0
LINE
5
346
100
AcDbEntity
8
1
62
256
6
ByLayer
370
18
48
1
60
1
100
AcDbLine
10
-99.799425
20
20.825003
30
0
11
-101.650575
21
20.824997
31
0
39
0
210
0
220
0
230
1
0
LINE
5
347
100
AcDbEntity
8
1
62
256
6
ByLayer
370
18
48
1
60
1
100
AcDbLine
10
-101.650575
20
20.824997
30
0
11
-100.725
21
25
31
0
39
0
210
0
220
0
230
1
0
LINE
5
34B
100
AcDbEntity
8
1
62
256
6
ByLayer
370
18
48
1
60
1
100
AcDbLine
10
-110.725
20
31.25
30
0
11
-109.799425
21
27.075003
31
0
39
0
210
0
220
0
230
1
0
LINE
5
34C
100
AcDbEntity
8
1
62
256
6
ByLayer
370
18
48
1
60
1
100
AcDbLine
10
-109.799425
20
27.075003
30
0
11
-111.650575
21
27.074997
31
0
39
0
210
0
220
0
230
1
0
LINE
5
34D
100
AcDbEntity
8
1
62
256
6
ByLayer
370
18
48
1
60
1
100
AcDbLine
10
-111.650575
20
27.074997
30
0
11
-110.725
21
31.25
31
0
39
0
210
0
220
0
230
1
0
LINE
5
34F
100
AcDbEntity
8
1
62
256
6
ByLayer
370
18
48
1
60
1
100
AcDbLine
10
-110.725
20
-31.25
30
0
11
-111.650575
21
-27.075003
31
0
39
0
210
0
220
0
230
1
0
LINE
5
350
100
AcDbEntity
8
1
62
256
6
ByLayer
370
18
48
1
60
1
100
AcDbLine
10
-111.650575
20
-27.075003
30
0
11
-109.799425
21
-27.074997
31
0
39
0
210
0
220
0
230
1
0
LINE
5
351
100
AcDbEntity
8
1
62
256
6
ByLayer
370
18
48
1
60
1
100
AcDbLine
10
-109.799425
20
-27.074997
30
0
11
-110.725
21
-31.25
31
0
39
0
210
0
220
0
230
1
0
LINE
5
355
100
AcDbEntity
8
1
62
256
6
ByLayer
370
18
48
1
60
1
100
AcDbLine
10
293.975
20
-22.5
30
0
11
293.049425
21
-18.325003
31
0
39
0
210
0
220
0
230
1
0
LINE
5
356
100
AcDbEntity
8
1
62
256
6
ByLayer
370
18
48
1
60
1
100
AcDbLine
10
293.049425
20
-18.325003
30
0
11
294.900575
21
-18.324997
31
0
39
0
210
0
220
0
230
1
0
LINE
5
357
100
AcDbEntity
8
1
62
256
6
ByLayer
370
18
48
1
60
1
100
AcDbLine
10
294.900575
20
-18.324997
30
0
11
293.975
21
-22.5
31
0
39
0
210
0
220
0
230
1
0
LINE
5
359
100
AcDbEntity
8
1
62
256
6
ByLayer
370
18
48
1
60
1
100
AcDbLine
10
293.975
20
22.5
30
0
11
294.900575
21
18.325003
31
0
39
0
210
0
220
0
230
1
0
LINE
5
35A
100
AcDbEntity
8
1
62
256
6
ByLayer
370
18
48
1
60
1
100
AcDbLine
10
294.900575
20
18.325003
30
0
11
293.049425
21
18.324997
31
0
39
0
210
0
220
0
230
1
0
LINE
5
35B
100
AcDbEntity
8
1
62
256
6
ByLayer
370
18
48
1
60
1
100
AcDbLine
10
293.049425
20
18.324997
30
0
11
293.975
21
22.5
31
0
39
0
210
0
220
0
230
1
0
MTEXT
5
33D
100
AcDbEntity
8
SK2
62
256
6
ByLayer
370
18
48
1
60
0
100
AcDbMText
10
-102.736672
20
-6.949399
30
0
210
0
220
0
230
1
1
%%c
40
4.5
41
0
44
1.084337
50
90
71
7
72
5
7
iso_b_vert
0
MTEXT
5
340
100
AcDbEntity
8
SK2
62
256
6
ByLayer
370
18
48
1
60
0
100
AcDbMText
10
-102.736672
20
4.265444
30
0
210
0
220
0
230
1
1
\W0.6740;50
40
4.5
41
0
44
1.084337
50
90
71
7
72
5
7
iso_b_vert
0
MTEXT
5
349
100
AcDbEntity
8
SK2
62
256
6
ByLayer
370
18
48
1
60
0
100
AcDbMText
10
-112.736672
20
-9.541655
30
0
210
0
220
0
230
1
1
%%c
40
4.5
41
0
44
1.084337
50
90
71
7
72
5
7
iso_b_vert
0
MTEXT
5
34A
100
AcDbEntity
8
SK2
62
256
6
ByLayer
370
18
48
1
60
0
100
AcDbMText
10
-112.736672
20
1.673189
30
0
210
0
220
0
230
1
1
\W0.7346;62.5
40
4.5
41
0
44
1.084337
50
90
71
7
72
5
7
iso_b_vert
0
MTEXT
5
353
100
AcDbEntity
8
2
62
256
6
ByLayer
370
18
48
1
60
0
100
AcDbMText
10
291.963328
20
-7.186314
30
0
210
0
220
0
230
1
1
%%c
40
4.5
41
0
44
1.084337
50
90
71
7
72
5
7
iso_b_vert
0
MTEXT
5
354
100
AcDbEntity
8
2
62
256
6
ByLayer
370
18
48
1
60
0
100
AcDbMText
10
291.963328
20
4.02853
30
0
210
0
220
0
230
1
1
\W0.7361;45
40
4.5
41
0
44
1.084337
50
90
71
7
72
5
7
iso_b_vert
0
MTEXT
5
35D
100
AcDbEntity
8
SK6
62
256
6
ByLayer
370
18
48
1
60
0
100
AcDbMText
10
9.308916
20
-94.592562
30
0
210
0
220
0
230
1
1
\W0.7723;DS20-D4500L50-05
40
3.5
41
0
44
1.084337
50
0
71
7
72
5
7
iso_b_vert
0
HATCH
5
344
100
AcDbEntity
8
SK2
62
256
6
ByLayer
370
13
48
1
60
0
100
AcDbHatch
10
0
20
0
30
0
210
0
220
0
230
1
2
ANSI31
70
0
71
0
91
1
92
5
93
3
72
1
10
-100.725
20
-24.9999999999999
11
-101.650575216528
21
-20.8250033998275
72
1
10
-101.650575216528
20
-20.8250033998275
11
-99.7994247834721
21
-20.8249966001723
72
1
10
-99.7994247834721
20
-20.8249966001723
11
-100.725
21
-24.9999999999999
97
0
75
0
76
1
52
0
41
0.0062
77
0
78
1
53
45
43
0
44
0
45
-0.0139193969876572
46
0.0139193969876572
79
0
47
0
98
1
10
0
20
0
0
HATCH
5
348
100
AcDbEntity
8
SK2
62
256
6
ByLayer
370
13
48
1
60
0
100
AcDbHatch
10
0
20
0
30
0
210
0
220
0
230
1
2
ANSI31
70
0
71
0
91
1
92
5
93
3
72
1
10
-100.725
20
25.0000000000001
11
-99.7994247834721
21
20.8250033998277
72
1
10
-99.7994247834721
20
20.8250033998277
11
-101.650575216528
21
20.8249966001725
72
1
10
-101.650575216528
20
20.8249966001725
11
-100.725
21
25.0000000000001
97
0
75
0
76
1
52
0
41
0.0062
77
0
78
1
53
45
43
0
44
0
45
-0.0139193969876572
46
0.0139193969876572
79
0
47
0
98
1
10
0
20
0
0
HATCH
5
34E
100
AcDbEntity
8
SK2
62
256
6
ByLayer
370
13
48
1
60
0
100
AcDbHatch
10
0
20
0
30
0
210
0
220
0
230
1
2
ANSI31
70
0
71
0
91
1
92
5
93
3
72
1
10
-110.725
20
31.25
11
-109.799424783472
21
27.0750033998276
72
1
10
-109.799424783472
20
27.0750033998276
11
-111.650575216528
21
27.0749966001724
72
1
10
-111.650575216528
20
27.0749966001724
11
-110.725
21
31.25
97
0
75
0
76
1
52
0
41
0.0062
77
0
78
1
53
45
43
0
44
0
45
-0.0139193969876572
46
0.0139193969876572
79
0
47
0
98
1
10
0
20
0
0
HATCH
5
352
100
AcDbEntity
8
SK2
62
256
6
ByLayer
370
13
48
1
60
0
100
AcDbHatch
10
0
20
0
30
0
210
0
220
0
230
1
2
ANSI31
70
0
71
0
91
1
92
5
93
3
72
1
10
-110.725
20
-31.25
11
-111.650575216528
21
-27.0750033998276
72
1
10
-111.650575216528
20
-27.0750033998276
11
-109.799424783472
21
-27.0749966001724
72
1
10
-109.799424783472
20
-27.0749966001724
11
-110.725
21
-31.25
97
0
75
0
76
1
52
0
41
0.0062
77
0
78
1
53
45
43
0
44
0
45
-0.0139193969876572
46
0.0139193969876572
79
0
47
0
98
1
10
0
20
0
0
HATCH
5
358
100
AcDbEntity
8
2
62
256
6
ByLayer
370
13
48
1
60
0
100
AcDbHatch
10
0
20
0
30
0
210
0
220
0
230
1
2
ANSI31
70
0
71
0
91
1
92
5
93
3
72
1
10
293.975
20
-22.5000000000003
11
293.049424783472
21
-18.3250033998279
72
1
10
293.049424783472
20
-18.3250033998279
11
294.900575216528
21
-18.3249966001727
72
1
10
294.900575216528
20
-18.3249966001727
11
293.975
21
-22.5000000000003
97
0
75
0
76
1
52
0
41
0.0062
77
0
78
1
53
45
43
0
44
0
45
-0.0139193969876572
46
0.0139193969876572
79
0
47
0
98
1
10
0
20
0
0
HATCH
5
35C
100
AcDbEntity
8
2
62
256
6
ByLayer
370
13
48
1
60
0
100
AcDbHatch
10
0
20
0
30
0
210
0
220
0
230
1
2
ANSI31
70
0
71
0
91
1
92
5
93
3
72
1
10
293.975
20
22.4999999999997
11
294.900575216528
21
18.3250033998273
72
1
10
294.900575216528
20
18.3250033998273
11
293.049424783472
21
18.3249966001721
72
1
10
293.049424783472
20
18.3249966001721
11
293.975
21
22.4999999999997
97
0
75
0
76
1
52
0
41
0.0062
77
0
78
1
53
45
43
0
44
0
45
-0.0139193969876572
46
0.0139193969876572
79
0
47
0
98
1
10
0
20
0
0
DIMENSION
5
360
100
AcDbEntity
8
2
62
256
6
ByLayer
370
18
48
1
60
0
100
AcDbDimension
2
_U0
10
267
20
-80.112261
30
0
11
133.5
21
-80.112261
31
0
70
32
71
1
72
1
41
1
210
0
220
0
230
1
3
Standard
100
AcDbAlignedDimension
13
0
23
-31.25
33
0
14
267
24
-22.5
34
0
50
0
100
AcDbRotatedDimension
1001
ACAD
1000
DSTYLE
1002
{
1070
   371
1070
    13
1070
   372
1070
    13
1070
   170
1070
     0
1070
   144
1040
1.0
1070
   277
1070
     2
1070
   284
1070
     8
1070
   278
1070
    46
1070
   146
1040
0.777778
1070
   345
1005
16
1070
   347
1005
16
1070
   346
1005
16
1070
   344
1005
0
1070
   343
1005
0
1070
   172
1070
     1
1070
    76
1070
     0
1070
    75
1070
     0
1070
   282
1070
     0
1070
   281
1070
     0
1070
    71
1070
     0
1070
    74
1070
     0
1070
   279
1070
     0
1070
   173
1070
     1
1070
   340
1005
33E
1070
   271
1070
     1
1070
   272
1070
     2
1070
    77
1070
     1
1070
    73
1070
     1
1070
   171
1070
     3
1070
   274
1070
     4
1070
   177
1070
   150
1070
   176
1070
     9
1070
   178
1070
    43
1070
    78
1070
     8
1070
    48
1040
-0.1
1070
    41
1040
4.175
1070
   147
1040
2.25
1070
    42
1040
1.5875
1070
    44
1040
3.175
1070
   140
1040
4.5
1002
}
1001
ACAD_DSTYLE_DIM_LINETYPE
1070
   380
1005
16
1001
ACAD_DSTYLE_DIM_EXT1_LINETYPE
1070
   381
1005
16
1001
ACAD_DSTYLE_DIM_EXT2_LINETYPE
1070
   382
1005
16
0
DIMENSION
5
379
100
AcDbEntity
8
SK2
62
256
6
ByLayer
370
18
48
1
60
0
100
AcDbDimension
2
_U1
10
0
20
-80.112261
30
0
11
-40
21
-80.112261
31
0
70
32
71
1
72
1
41
1
210
0
220
0
230
1
3
Standard
100
AcDbAlignedDimension
13
-80
23
-25
33
0
14
0
24
-31.25
34
0
50
0
100
AcDbRotatedDimension
1001
ACAD
1000
DSTYLE
1002
{
1070
   371
1070
    13
1070
   372
1070
    13
1070
   170
1070
     0
1070
   144
1040
1.0
1070
   277
1070
     2
1070
   284
1070
     8
1070
   278
1070
    46
1070
   146
1040
0.777778
1070
   345
1005
16
1070
   347
1005
16
1070
   346
1005
16
1070
   344
1005
0
1070
   343
1005
0
1070
   172
1070
     1
1070
    76
1070
     0
1070
    75
1070
     0
1070
   282
1070
     0
1070
   281
1070
     0
1070
    71
1070
     0
1070
    74
1070
     0
1070
   279
1070
     0
1070
   173
1070
     1
1070
   340
1005
33E
1070
   271
1070
     1
1070
   272
1070
     2
1070
    77
1070
     1
1070
    73
1070
     1
1070
   171
1070
     3
1070
   274
1070
     4
1070
   177
1070
   150
1070
   176
1070
     9
1070
   178
1070
    43
1070
    78
1070
     8
1070
    48
1040
-0.1
1070
    41
1040
4.175
1070
   147
1040
2.25
1070
    42
1040
1.5875
1070
    44
1040
3.175
1070
   140
1040
4.5
1002
}
1001
ACAD_DSTYLE_DIM_LINETYPE
1070
   380
1005
16
1001
ACAD_DSTYLE_DIM_EXT1_LINETYPE
1070
   381
1005
16
1001
ACAD_DSTYLE_DIM_EXT2_LINETYPE
1070
   382
1005
16
0
DIMENSION
5
391
100
AcDbEntity
8
SK2
62
256
6
ByLayer
370
18
48
1
60
0
100
AcDbDimension
2
_U2
10
6.4079
20
-70.112261
30
0
11
136.70395
21
-70.112261
31
0
70
32
71
1
72
1
41
1
210
0
220
0
230
1
3
Standard
100
AcDbAlignedDimension
13
267
23
-22.5
33
0
14
6.4079
24
-31.25
34
0
50
0
100
AcDbRotatedDimension
1001
ACAD
1000
DSTYLE
1002
{
1070
   371
1070
    13
1070
   372
1070
    13
1070
   170
1070
     0
1070
   144
1040
1.0
1070
   277
1070
     2
1070
   284
1070
     8
1070
   278
1070
    46
1070
   146
1040
0.777778
1070
   345
1005
16
1070
   347
1005
16
1070
   346
1005
16
1070
   344
1005
0
1070
   343
1005
0
1070
   172
1070
     1
1070
    76
1070
     0
1070
    75
1070
     0
1070
   282
1070
     0
1070
   281
1070
     0
1070
    71
1070
     0
1070
    74
1070
     0
1070
   279
1070
     0
1070
   173
1070
     1
1070
   340
1005
33E
1070
   271
1070
     1
1070
   272
1070
     2
1070
    77
1070
     1
1070
    73
1070
     1
1070
   171
1070
     3
1070
   274
1070
     4
1070
   177
1070
   150
1070
   176
1070
     9
1070
   178
1070
    43
1070
    78
1070
     8
1070
    48
1040
-0.1
1070
    41
1040
4.175
1070
   147
1040
2.25
1070
    42
1040
1.5875
1070
    44
1040
3.175
1070
   140
1040
4.5
1002
}
1001
ACAD_DSTYLE_DIM_LINETYPE
1070
   380
1005
16
1001
ACAD_DSTYLE_DIM_EXT1_LINETYPE
1070
   381
1005
16
1001
ACAD_DSTYLE_DIM_EXT2_LINETYPE
1070
   382
1005
16
0
DIMENSION
5
3A9
100
AcDbEntity
8
SK2
62
256
6
ByLayer
370
18
48
1
60
0
100
AcDbDimension
2
_U3
10
267
20
-60.112261
30
0
11
152
21
-60.112261
31
0
70
32
71
1
72
1
41
1
210
0
220
0
230
1
3
Standard
100
AcDbAlignedDimension
13
37
23
-22.5
33
0
14
267
24
-22.5
34
0
50
0
100
AcDbRotatedDimension
1001
ACAD
1000
DSTYLE
1002
{
1070
   371
1070
    13
1070
   372
1070
    13
1070
   170
1070
     0
1070
   144
1040
1.0
1070
   277
1070
     2
1070
   284
1070
     8
1070
   278
1070
    46
1070
   146
1040
0.777778
1070
   345
1005
16
1070
   347
1005
16
1070
   346
1005
16
1070
   344
1005
0
1070
   343
1005
0
1070
   172
1070
     1
1070
    76
1070
     0
1070
    75
1070
     0
1070
   282
1070
     0
1070
   281
1070
     0
1070
    71
1070
     0
1070
    74
1070
     0
1070
   279
1070
     0
1070
   173
1070
     1
1070
   340
1005
33E
1070
   271
1070
     1
1070
   272
1070
     2
1070
    77
1070
     1
1070
    73
1070
     1
1070
   171
1070
     3
1070
   274
1070
     4
1070
   177
1070
   150
1070
   176
1070
     9
1070
   178
1070
    43
1070
    78
1070
     8
1070
    48
1040
-0.1
1070
    41
1040
4.175
1070
   147
1040
2.25
1070
    42
1040
1.5875
1070
    44
1040
3.175
1070
   140
1040
4.5
1002
}
1001
ACAD_DSTYLE_DIM_LINETYPE
1070
   380
1005
16
1001
ACAD_DSTYLE_DIM_EXT1_LINETYPE
1070
   381
1005
16
1001
ACAD_DSTYLE_DIM_EXT2_LINETYPE
1070
   382
1005
16
0
DIMENSION
5
3C1
100
AcDbEntity
8
2
62
256
6
ByLayer
370
18
48
1
60
0
100
AcDbDimension
2
_U4
10
267
20
-50.112261
30
0
11
289.029464
21
-50.112261
31
0
70
32
71
1
72
1
41
1
210
0
220
0
230
1
3
Standard
100
AcDbAlignedDimension
13
265.7234
23
-11.25
33
0
14
267
24
0
34
0
50
0
100
AcDbRotatedDimension
1001
ACAD
1000
DSTYLE
1002
{
1070
   371
1070
    13
1070
   372
1070
    13
1070
   170
1070
     0
1070
   144
1040
1.0
1070
   277
1070
     2
1070
   284
1070
     8
1070
   278
1070
    46
1070
   146
1040
0.777778
1070
   345
1005
16
1070
   347
1005
16
1070
   346
1005
16
1070
   344
1005
0
1070
   343
1005
0
1070
   172
1070
     1
1070
    76
1070
     0
1070
    75
1070
     0
1070
   282
1070
     0
1070
   281
1070
     0
1070
    71
1070
     0
1070
    74
1070
     0
1070
   279
1070
     0
1070
   173
1070
     1
1070
   340
1005
33E
1070
   271
1070
     2
1070
   272
1070
     2
1070
    77
1070
     1
1070
    73
1070
     1
1070
   171
1070
     3
1070
   274
1070
     4
1070
   177
1070
   150
1070
   176
1070
     9
1070
   178
1070
    43
1070
    78
1070
     8
1070
    48
1040
-0.1
1070
    41
1040
4.175
1070
   147
1040
2.25
1070
    42
1040
1.5875
1070
    44
1040
3.175
1070
   140
1040
4.5
1002
}
1001
ACAD_DSTYLE_DIM_LINETYPE
1070
   380
1005
16
1001
ACAD_DSTYLE_DIM_EXT1_LINETYPE
1070
   381
1005
16
1001
ACAD_DSTYLE_DIM_EXT2_LINETYPE
1070
   382
1005
16
0
ENDSEC
0
SECTION
2
OBJECTS
0
DICTIONARY
5
44b
330
0
100
AcDbDictionary
280
0
281
1
3
ACAD_GROUP
350
44c
3
ACAD_MLINESTYLE
350
44d
0
DICTIONARY
5
44c
330
0
100
AcDbDictionary
280
0
281
1
0
DICTIONARY
5
44d
330
0
100
AcDbDictionary
280
0
281
1
3
Standard
350
18
0
MLINESTYLE
5
18
330
44d
100
AcDbMlineStyle
2
Standard
70
0
3

62
256
51
90
52
90
71
2
49
-0.5
62
256
6
ByLayer
49
0.5
62
256
6
ByLayer
0
RASTERVARIABLES
5
439
330

100
AcDbRasterVariables
90
0
70
1
71
1
72
1
0
ENDSEC
0
EOF
