0
SECTION
2
HEADER
9
$ACADVER
1
AC1015
9
$DWGCODEPAGE
3
ANSI_1252
9
$HANDSEED
5
457
9
$ANGBASE
50
0
9
$ANGDIR
70
0
9
$ATTMODE
70
1
9
$AUNITS
70
0
9
$AUPREC
70
0
9
$CECOLOR
62
256
9
$CELTSCALE
40
1
9
$CELTYPE
6
ByLayer
9
$CELWEIGHT
370
18
9
$CLAYER
8
0
9
$CMLJUST
70
0
9
$CMLSCALE
40
1
9
$CMLSTYLE
2
Standard
9
$DIMSTYLE
2
Standard
9
$TEXTSIZE
40
0.2
9
$TEXTSTYLE
7
Standard
9
$LUNITS
70
2
9
$LUPREC
70
4
9
$EXTNAMES
290
1
9
$INSUNITS
70
4
9
$LTSCALE
40
1
9
$LWDISPLAY
290
1
9
$PDMODE
70
0
9
$PDSIZE
40
0
9
$PLINEGEN
70
0
0
ENDSEC
0
SECTION
2
CLASSES
0
CLASS
1
RASTERVARIABLES
2
AcDbRasterVariables
3
ISM
90
0
280
0
281
0
0
ENDSEC
0
SECTION
2
TABLES
0
TABLE
2
VPORT
5
44d
100
AcDbSymbolTable
0
VPORT
5
1
100
AcDbSymbolTableRecord
100
AcDbViewportTableRecord
2
*Active
70
0
10
0
20
0
11
1
21
1
12
-1
22
1
13
0
23
0
14
0.5
24
0.5
15
10
25
10
16
0
26
0
36
1
17
0
27
0
37
0
0
ENDTAB
0
TABLE
2
LTYPE
5
44e
100
AcDbSymbolTable
0
LTYPE
5
14
100
AcDbSymbolTableRecord
100
AcDbLinetypeTableRecord
70
0
2
ByBlock
3

72
65
73
0
40
0
0
LTYPE
5
15
100
AcDbSymbolTableRecord
100
AcDbLinetypeTableRecord
70
0
2
ByLayer
3

72
65
73
0
40
0
0
LTYPE
5
16
100
AcDbSymbolTableRecord
100
AcDbLinetypeTableRecord
70
0
2
Continuous
3
Solid line
72
65
73
0
40
0
0
LTYPE
5
6E
100
AcDbSymbolTableRecord
100
AcDbLinetypeTableRecord
70
0
2
CENTER
3
____ _ ____ _ ____ _ ____
72
65
73
4
40
47.5
49
22
74
0
49
-8.5
74
0
49
8.5
74
0
49
-8.5
74
0
0
LTYPE
5
6F
100
AcDbSymbolTableRecord
100
AcDbLinetypeTableRecord
70
0
2
DASHED
3
__ __ __ __ __ __ __ __ __
72
65
73
2
40
25.72
49
12.86
74
0
49
-12.86
74
0
0
ENDTAB
0
TABLE
2
LAYER
5
44f
100
AcDbSymbolTable
0
LAYER
5
10
100
AcDbSymbolTableRecord
100
AcDbLayerTableRecord
2
0
70
0
62
7
6
Continuous
290
1
370
-3
390
0
0
LAYER
5
71
100
AcDbSymbolTableRecord
100
AcDbLayerTableRecord
2
1
70
0
62
4
6
Continuous
290
1
370
-3
390
0
0
LAYER
5
73
100
AcDbSymbolTableRecord
100
AcDbLayerTableRecord
2
80
70
0
62
-6
6
Continuous
290
1
370
-3
390
0
0
LAYER
5
75
100
AcDbSymbolTableRecord
100
AcDbLayerTableRecord
2
81
70
0
62
-3
6
Continuous
290
1
370
-3
390
0
0
LAYER
5
149
100
AcDbSymbolTableRecord
100
AcDbLayerTableRecord
2
4
70
0
62
-2
6
CENTER
290
1
370
-3
390
0
0
LAYER
5
184
100
AcDbSymbolTableRecord
100
AcDbLayerTableRecord
2
2
70
0
62
7
6
Continuous
290
1
370
-3
390
0
0
LAYER
5
362
100
AcDbSymbolTableRecord
100
AcDbLayerTableRecord
2
Defpoints
70
0
62
7
6
Continuous
290
0
370
-3
390
0
0
LAYER
5
439
100
AcDbSymbolTableRecord
100
AcDbLayerTableRecord
2
SK1
70
0
62
4
6
Continuous
290
1
370
-3
390
0
0
LAYER
5
43a
100
AcDbSymbolTableRecord
100
AcDbLayerTableRecord
2
SK4
70
0
62
2
6
CENTER
290
1
370
-3
390
0
0
LAYER
5
43b
100
AcDbSymbolTableRecord
100
AcDbLayerTableRecord
2
SK2
70
0
62
7
6
Continuous
290
1
370
-3
390
0
0
LAYER
5
43c
100
AcDbSymbolTableRecord
100
AcDbLayerTableRecord
2
SK6
70
0
62
5
6
Continuous
290
1
370
-3
390
0
0
ENDTAB
0
TABLE
2
STYLE
5
450
100
AcDbSymbolTable
0
STYLE
5
11
100
AcDbSymbolTableRecord
100
AcDbTextStyleTableRecord
2
Standard
3
txt
70
0
71
0
40
0
41
1
42
0
50
0
0
STYLE
5
33D
100
AcDbSymbolTableRecord
100
AcDbTextStyleTableRecord
2
iso_b_vert
3
simplex.shx
70
0
71
0
40
0
41
1
42
0
50
0
0
STYLE
5
33E
100
AcDbSymbolTableRecord
100
AcDbTextStyleTableRecord
2
DWGDirectTextStyle
3
simplex
70
0
71
0
40
0
41
1
42
0
50
0
0
ENDTAB
0
TABLE
2
DIMSTYLE
5
451
100
AcDbSymbolTable
100
AcDbDimStyleTable
0
DIMSTYLE
105
27
100
AcDbSymbolTableRecord
100
AcDbDimStyleTableRecord
2
Standard
70
0
3
<>
41
0.18
42
0.0625
44
0.18
140
0.18
147
0.09
73
0
74
0
77
1
271
2
275
0
278
52
280
0
340
11
0
ENDTAB
0
TABLE
2
VIEW
5
452
100
AcDbSymbolTable
0
ENDTAB
0
TABLE
2
UCS
5
453
100
AcDbSymbolTable
0
ENDTAB
0
TABLE
2
APPID
5
454
100
AcDbSymbolTable
0
APPID
5
12
100
AcDbSymbolTableRecord
100
AcDbRegAppTableRecord
2
ACAD
70
0
0
APPID
5
35E
100
AcDbSymbolTableRecord
100
AcDbRegAppTableRecord
2
ACAD_DSTYLE_DIMBREAK
70
0
0
APPID
5
3F8
100
AcDbSymbolTableRecord
100
AcDbRegAppTableRecord
2
ACAD_DSTYLE_DIM_LINETYPE
70
0
0
APPID
5
3F9
100
AcDbSymbolTableRecord
100
AcDbRegAppTableRecord
2
ACAD_DSTYLE_DIM_EXT1_LINETYPE
70
0
0
APPID
5
3FA
100
AcDbSymbolTableRecord
100
AcDbRegAppTableRecord
2
ACAD_DSTYLE_DIM_EXT2_LINETYPE
70
0
0
APPID
5
435
100
AcDbSymbolTableRecord
100
AcDbRegAppTableRecord
2
ACAD_MLEADERVER
70
0
0
ENDTAB
0
TABLE
2
BLOCK_RECORD
5
455
100
AcDbSymbolTable
0
BLOCK_RECORD
5
1F
100
AcDbSymbolTableRecord
100
AcDbBlockTableRecord
2
*Model_Space
340
0
70
0
0
BLOCK_RECORD
5
1B
100
AcDbSymbolTableRecord
100
AcDbBlockTableRecord
2
*Paper_Space
340
0
70
0
0
BLOCK_RECORD
5
23
100
AcDbSymbolTableRecord
100
AcDbBlockTableRecord
2
*Paper_Space0
340
0
70
0
0
BLOCK_RECORD
5
363
100
AcDbSymbolTableRecord
100
AcDbBlockTableRecord
2
*D1
340
0
70
0
0
BLOCK_RECORD
5
36F
100
AcDbSymbolTableRecord
100
AcDbBlockTableRecord
2
_U0
340
0
70
0
0
BLOCK_RECORD
5
37B
100
AcDbSymbolTableRecord
100
AcDbBlockTableRecord
2
*D3
340
0
70
0
0
BLOCK_RECORD
5
387
100
AcDbSymbolTableRecord
100
AcDbBlockTableRecord
2
_U1
340
0
70
0
0
BLOCK_RECORD
5
393
100
AcDbSymbolTableRecord
100
AcDbBlockTableRecord
2
*D5
340
0
70
0
0
BLOCK_RECORD
5
39F
100
AcDbSymbolTableRecord
100
AcDbBlockTableRecord
2
_U2
340
0
70
0
0
BLOCK_RECORD
5
3AB
100
AcDbSymbolTableRecord
100
AcDbBlockTableRecord
2
*D7
340
0
70
0
0
BLOCK_RECORD
5
3B7
100
AcDbSymbolTableRecord
100
AcDbBlockTableRecord
2
_U3
340
0
70
0
0
BLOCK_RECORD
5
3C3
100
AcDbSymbolTableRecord
100
AcDbBlockTableRecord
2
*D9
340
0
70
0
0
BLOCK_RECORD
5
3D1
100
AcDbSymbolTableRecord
100
AcDbBlockTableRecord
2
_U4
340
0
70
0
0
ENDTAB
0
ENDSEC
0
SECTION
2
BLOCKS
0
BLOCK
5
20
100
AcDbEntity
8
0
100
AcDbBlockBegin
2
*Model_Space
70
0
10
0
20
0
30
0
3
*Model_Space
0
ENDBLK
5
21
100
AcDbEntity
8
0
100
AcDbBlockEnd
0
BLOCK
5
1C
100
AcDbEntity
8
0
100
AcDbBlockBegin
2
*Paper_Space
70
0
10
0
20
0
30
0
3
*Paper_Space
0
ENDBLK
5
1D
100
AcDbEntity
8
0
100
AcDbBlockEnd
0
BLOCK
5
24
100
AcDbEntity
8
0
100
AcDbBlockBegin
2
*Paper_Space0
70
0
10
0
20
0
30
0
3
*Paper_Space0
0
ENDBLK
5
25
100
AcDbEntity
8
0
100
AcDbBlockEnd
0
BLOCK
5
364
100
AcDbEntity
8
0
100
AcDbBlockBegin
2
*D1
70
1
10
0
20
0
30
0
3
*D1
0
LINE
5
366
100
AcDbEntity
8
0
62
256
6
ByLayer
370
-2
48
1
60
0
100
AcDbLine
10
0
20
-32.8375
30
0
11
0
21
-83.275
31
0
39
0
210
0
220
0
230
1
0
LINE
5
367
100
AcDbEntity
8
0
62
256
6
ByLayer
370
-2
48
1
60
0
100
AcDbLine
10
241
20
-26.5875
30
0
11
241
21
-83.275
31
0
39
0
210
0
220
0
230
1
0
LINE
5
368
100
AcDbEntity
8
0
62
256
6
ByLayer
370
-2
48
1
60
0
100
AcDbLine
10
4.175
20
-80.1
30
0
11
236.825
21
-80.1
31
0
39
0
210
0
220
0
230
1
0
SOLID
5
369
100
AcDbEntity
8
0
62
256
6
ByLayer
370
-1
48
1
60
0
100
AcDbTrace
10
4.175
20
-79.404167
30
0
11
4.175
21
-80.795833
31
0
12
0
22
-80.1
32
0
13
0
23
-80.1
33
0
39
0
210
0
220
0
230
1
0
SOLID
5
36A
100
AcDbEntity
8
0
62
256
6
ByLayer
370
-1
48
1
60
0
100
AcDbTrace
10
236.825
20
-80.795833
30
0
11
236.825
21
-79.404167
31
0
12
241
22
-80.1
32
0
13
241
23
-80.1
33
0
39
0
210
0
220
0
230
1
0
MTEXT
5
36B
100
AcDbEntity
8
0
62
256
6
ByLayer
370
18
48
1
60
0
100
AcDbMText
10
120.5
20
-70.70625
30
0
210
0
220
0
230
1
1
\A1;241
40
4.5
41
0
44
1
50
0
71
5
72
5
7
iso_b_vert
0
POINT
5
36C
100
AcDbEntity
8
Defpoints
62
0
6
ByLayer
370
-1
48
1
60
0
100
AcDbPoint
10
0
20
-31.25
30
0
39
0
210
0
220
0
230
1
50
360
0
POINT
5
36D
100
AcDbEntity
8
Defpoints
62
0
6
ByLayer
370
-1
48
1
60
0
100
AcDbPoint
10
241
20
-25
30
0
39
0
210
0
220
0
230
1
50
360
0
POINT
5
36E
100
AcDbEntity
8
Defpoints
62
0
6
ByLayer
370
-1
48
1
60
0
100
AcDbPoint
10
241
20
-80.1
30
0
39
0
210
0
220
0
230
1
50
360
0
ENDBLK
5
365
100
AcDbEntity
8
0
100
AcDbBlockEnd
0
BLOCK
5
376
100
AcDbEntity
8
0
100
AcDbBlockBegin
2
_U0
70
0
10
0
20
0
30
0
3
_U0
0
MTEXT
5
370
100
AcDbEntity
8
2
62
256
6
ByLayer
370
18
48
1
60
0
100
AcDbMText
10
116.694886
20
-78.772328
30
0
210
0
220
0
230
1
1
\W0.7399;241
40
4.5
41
0
44
1.084337
50
0
71
7
72
5
7
iso_b_vert
0
LINE
5
371
100
AcDbEntity
8
2
62
256
6
ByLayer
370
13
48
1
60
0
100
AcDbLine
10
0
20
-32.8375
30
0
11
0
21
-83.275
31
0
39
0
210
0
220
0
230
1
0
LINE
5
372
100
AcDbEntity
8
2
62
256
6
ByLayer
370
13
48
1
60
0
100
AcDbLine
10
241
20
-26.5875
30
0
11
241
21
-83.275
31
0
39
0
210
0
220
0
230
1
0
LINE
5
373
100
AcDbEntity
8
2
62
256
6
ByLayer
370
13
48
1
60
0
100
AcDbLine
10
0
20
-80.1
30
0
11
241
21
-80.1
31
0
39
0
210
0
220
0
230
1
0
SOLID
5
374
100
AcDbEntity
8
2
62
256
6
ByLayer
370
18
48
1
60
0
100
AcDbTrace
10
0
20
-80.1
30
0
11
4.174997
21
-79.174425
31
0
12
4.175003
22
-81.025575
32
0
13
4.175003
23
-81.025575
33
0
39
0
210
0
220
0
230
1
0
SOLID
5
375
100
AcDbEntity
8
2
62
256
6
ByLayer
370
18
48
1
60
0
100
AcDbTrace
10
241
20
-80.1
30
0
11
236.825003
21
-81.025575
31
0
12
236.824997
22
-79.174425
32
0
13
236.824997
23
-79.174425
33
0
39
0
210
0
220
0
230
1
0
ENDBLK
5
377
100
AcDbEntity
8
0
100
AcDbBlockEnd
0
BLOCK
5
37C
100
AcDbEntity
8
0
100
AcDbBlockBegin
2
*D3
70
1
10
0
20
0
30
0
3
*D3
0
LINE
5
37E
100
AcDbEntity
8
0
62
256
6
ByLayer
370
-2
48
1
60
0
100
AcDbLine
10
-80
20
-26.5875
30
0
11
-80
21
-83.275
31
0
39
0
210
0
220
0
230
1
0
LINE
5
37F
100
AcDbEntity
8
0
62
256
6
ByLayer
370
-2
48
1
60
0
100
AcDbLine
10
0
20
-32.8375
30
0
11
0
21
-83.275
31
0
39
0
210
0
220
0
230
1
0
LINE
5
380
100
AcDbEntity
8
0
62
256
6
ByLayer
370
-2
48
1
60
0
100
AcDbLine
10
-75.825
20
-80.1
30
0
11
-4.175
21
-80.1
31
0
39
0
210
0
220
0
230
1
0
SOLID
5
381
100
AcDbEntity
8
0
62
256
6
ByLayer
370
-1
48
1
60
0
100
AcDbTrace
10
-75.825
20
-79.404167
30
0
11
-75.825
21
-80.795833
31
0
12
-80
22
-80.1
32
0
13
-80
23
-80.1
33
0
39
0
210
0
220
0
230
1
0
SOLID
5
382
100
AcDbEntity
8
0
62
256
6
ByLayer
370
-1
48
1
60
0
100
AcDbTrace
10
-4.175
20
-80.795833
30
0
11
-4.175
21
-79.404167
31
0
12
0
22
-80.1
32
0
13
0
23
-80.1
33
0
39
0
210
0
220
0
230
1
0
MTEXT
5
383
100
AcDbEntity
8
0
62
256
6
ByLayer
370
18
48
1
60
0
100
AcDbMText
10
-40
20
-70.70625
30
0
210
0
220
0
230
1
1
\A1;80
40
4.5
41
0
44
1
50
0
71
5
72
5
7
iso_b_vert
0
POINT
5
384
100
AcDbEntity
8
Defpoints
62
0
6
ByLayer
370
-1
48
1
60
0
100
AcDbPoint
10
-80
20
-25
30
0
39
0
210
0
220
0
230
1
50
360
0
POINT
5
385
100
AcDbEntity
8
Defpoints
62
0
6
ByLayer
370
-1
48
1
60
0
100
AcDbPoint
10
0
20
-31.25
30
0
39
0
210
0
220
0
230
1
50
360
0
POINT
5
386
100
AcDbEntity
8
Defpoints
62
0
6
ByLayer
370
-1
48
1
60
0
100
AcDbPoint
10
0
20
-80.1
30
0
39
0
210
0
220
0
230
1
50
360
0
ENDBLK
5
37D
100
AcDbEntity
8
0
100
AcDbBlockEnd
0
BLOCK
5
38E
100
AcDbEntity
8
0
100
AcDbBlockBegin
2
_U1
70
0
10
0
20
0
30
0
3
_U1
0
MTEXT
5
388
100
AcDbEntity
8
SK2
62
256
6
ByLayer
370
18
48
1
60
0
100
AcDbMText
10
-42.449242
20
-78.772328
30
0
210
0
220
0
230
1
1
\W0.6740;80
40
4.5
41
0
44
1.084337
50
0
71
7
72
5
7
iso_b_vert
0
LINE
5
389
100
AcDbEntity
8
SK2
62
256
6
ByLayer
370
13
48
1
60
0
100
AcDbLine
10
-80
20
-26.5875
30
0
11
-80
21
-83.275
31
0
39
0
210
0
220
0
230
1
0
LINE
5
38A
100
AcDbEntity
8
SK2
62
256
6
ByLayer
370
13
48
1
60
0
100
AcDbLine
10
0
20
-32.8375
30
0
11
0
21
-83.275
31
0
39
0
210
0
220
0
230
1
0
LINE
5
38B
100
AcDbEntity
8
SK2
62
256
6
ByLayer
370
13
48
1
60
0
100
AcDbLine
10
-80
20
-80.1
30
0
11
0
21
-80.1
31
0
39
0
210
0
220
0
230
1
0
SOLID
5
38C
100
AcDbEntity
8
SK2
62
256
6
ByLayer
370
18
48
1
60
0
100
AcDbTrace
10
-80
20
-80.1
30
0
11
-75.825003
21
-79.174425
31
0
12
-75.824997
22
-81.025575
32
0
13
-75.824997
23
-81.025575
33
0
39
0
210
0
220
0
230
1
0
SOLID
5
38D
100
AcDbEntity
8
SK2
62
256
6
ByLayer
370
18
48
1
60
0
100
AcDbTrace
10
0
20
-80.1
30
0
11
-4.174997
21
-81.025575
31
0
12
-4.175003
22
-79.174425
32
0
13
-4.175003
23
-79.174425
33
0
39
0
210
0
220
0
230
1
0
ENDBLK
5
38F
100
AcDbEntity
8
0
100
AcDbBlockEnd
0
BLOCK
5
394
100
AcDbEntity
8
0
100
AcDbBlockBegin
2
*D5
70
1
10
0
20
0
30
0
3
*D5
0
LINE
5
396
100
AcDbEntity
8
0
62
256
6
ByLayer
370
-2
48
1
60
0
100
AcDbLine
10
241
20
-26.5875
30
0
11
241
21
-73.275
31
0
39
0
210
0
220
0
230
1
0
LINE
5
397
100
AcDbEntity
8
0
62
256
6
ByLayer
370
-2
48
1
60
0
100
AcDbLine
10
5.798
20
-32.8375
30
0
11
5.798
21
-73.275
31
0
39
0
210
0
220
0
230
1
0
LINE
5
398
100
AcDbEntity
8
0
62
256
6
ByLayer
370
-2
48
1
60
0
100
AcDbLine
10
236.825
20
-70.1
30
0
11
9.973
21
-70.1
31
0
39
0
210
0
220
0
230
1
0
SOLID
5
399
100
AcDbEntity
8
0
62
256
6
ByLayer
370
-1
48
1
60
0
100
AcDbTrace
10
236.825
20
-70.795833
30
0
11
236.825
21
-69.404167
31
0
12
241
22
-70.1
32
0
13
241
23
-70.1
33
0
39
0
210
0
220
0
230
1
0
SOLID
5
39A
100
AcDbEntity
8
0
62
256
6
ByLayer
370
-1
48
1
60
0
100
AcDbTrace
10
9.973
20
-69.404167
30
0
11
9.973
21
-70.795833
31
0
12
5.798
22
-70.1
32
0
13
5.798
23
-70.1
33
0
39
0
210
0
220
0
230
1
0
MTEXT
5
39B
100
AcDbEntity
8
0
62
256
6
ByLayer
370
18
48
1
60
0
100
AcDbMText
10
123.399
20
-60.70625
30
0
210
0
220
0
230
1
1
\A1;235.2
40
4.5
41
0
44
1
50
0
71
5
72
5
7
iso_b_vert
0
POINT
5
39C
100
AcDbEntity
8
Defpoints
62
0
6
ByLayer
370
-1
48
1
60
0
100
AcDbPoint
10
241
20
-25
30
0
39
0
210
0
220
0
230
1
50
360
0
POINT
5
39D
100
AcDbEntity
8
Defpoints
62
0
6
ByLayer
370
-1
48
1
60
0
100
AcDbPoint
10
5.798
20
-31.25
30
0
39
0
210
0
220
0
230
1
50
360
0
POINT
5
39E
100
AcDbEntity
8
Defpoints
62
0
6
ByLayer
370
-1
48
1
60
0
100
AcDbPoint
10
5.798
20
-70.1
30
0
39
0
210
0
220
0
230
1
50
360
0
ENDBLK
5
395
100
AcDbEntity
8
0
100
AcDbBlockEnd
0
BLOCK
5
3A6
100
AcDbEntity
8
0
100
AcDbBlockBegin
2
_U2
70
0
10
0
20
0
30
0
3
_U2
0
MTEXT
5
3A0
100
AcDbEntity
8
SK2
62
256
6
ByLayer
370
18
48
1
60
0
100
AcDbMText
10
116.675444
20
-68.772328
30
0
210
0
220
0
230
1
1
\W0.7468;235.2
40
4.5
41
0
44
1.084337
50
0
71
7
72
5
7
iso_b_vert
0
LINE
5
3A1
100
AcDbEntity
8
SK2
62
256
6
ByLayer
370
13
48
1
60
0
100
AcDbLine
10
241
20
-26.5875
30
0
11
241
21
-73.275
31
0
39
0
210
0
220
0
230
1
0
LINE
5
3A2
100
AcDbEntity
8
SK2
62
256
6
ByLayer
370
13
48
1
60
0
100
AcDbLine
10
5.798
20
-32.8375
30
0
11
5.798
21
-73.275
31
0
39
0
210
0
220
0
230
1
0
LINE
5
3A3
100
AcDbEntity
8
SK2
62
256
6
ByLayer
370
13
48
1
60
0
100
AcDbLine
10
241
20
-70.1
30
0
11
5.798
21
-70.1
31
0
39
0
210
0
220
0
230
1
0
SOLID
5
3A4
100
AcDbEntity
8
SK2
62
256
6
ByLayer
370
18
48
1
60
0
100
AcDbTrace
10
241
20
-70.1
30
0
11
236.825003
21
-71.025575
31
0
12
236.824997
22
-69.174425
32
0
13
236.824997
23
-69.174425
33
0
39
0
210
0
220
0
230
1
0
SOLID
5
3A5
100
AcDbEntity
8
SK2
62
256
6
ByLayer
370
18
48
1
60
0
100
AcDbTrace
10
5.798
20
-70.1
30
0
11
9.972997
21
-69.174425
31
0
12
9.973003
22
-71.025575
32
0
13
9.973003
23
-71.025575
33
0
39
0
210
0
220
0
230
1
0
ENDBLK
5
3A7
100
AcDbEntity
8
0
100
AcDbBlockEnd
0
BLOCK
5
3AC
100
AcDbEntity
8
0
100
AcDbBlockBegin
2
*D7
70
1
10
0
20
0
30
0
3
*D7
0
LINE
5
3AE
100
AcDbEntity
8
0
62
256
6
ByLayer
370
-2
48
1
60
0
100
AcDbLine
10
36
20
-26.5875
30
0
11
36
21
-63.275
31
0
39
0
210
0
220
0
230
1
0
LINE
5
3AF
100
AcDbEntity
8
0
62
256
6
ByLayer
370
-2
48
1
60
0
100
AcDbLine
10
241
20
-26.5875
30
0
11
241
21
-63.275
31
0
39
0
210
0
220
0
230
1
0
LINE
5
3B0
100
AcDbEntity
8
0
62
256
6
ByLayer
370
-2
48
1
60
0
100
AcDbLine
10
40.175
20
-60.1
30
0
11
236.825
21
-60.1
31
0
39
0
210
0
220
0
230
1
0
SOLID
5
3B1
100
AcDbEntity
8
0
62
256
6
ByLayer
370
-1
48
1
60
0
100
AcDbTrace
10
40.175
20
-59.404167
30
0
11
40.175
21
-60.795833
31
0
12
36
22
-60.1
32
0
13
36
23
-60.1
33
0
39
0
210
0
220
0
230
1
0
SOLID
5
3B2
100
AcDbEntity
8
0
62
256
6
ByLayer
370
-1
48
1
60
0
100
AcDbTrace
10
236.825
20
-60.795833
30
0
11
236.825
21
-59.404167
31
0
12
241
22
-60.1
32
0
13
241
23
-60.1
33
0
39
0
210
0
220
0
230
1
0
MTEXT
5
3B3
100
AcDbEntity
8
0
62
256
6
ByLayer
370
18
48
1
60
0
100
AcDbMText
10
138.5
20
-50.70625
30
0
210
0
220
0
230
1
1
\A1;205
40
4.5
41
0
44
1
50
0
71
5
72
5
7
iso_b_vert
0
POINT
5
3B4
100
AcDbEntity
8
Defpoints
62
0
6
ByLayer
370
-1
48
1
60
0
100
AcDbPoint
10
36
20
-25
30
0
39
0
210
0
220
0
230
1
50
360
0
POINT
5
3B5
100
AcDbEntity
8
Defpoints
62
0
6
ByLayer
370
-1
48
1
60
0
100
AcDbPoint
10
241
20
-25
30
0
39
0
210
0
220
0
230
1
50
360
0
POINT
5
3B6
100
AcDbEntity
8
Defpoints
62
0
6
ByLayer
370
-1
48
1
60
0
100
AcDbPoint
10
241
20
-60.1
30
0
39
0
210
0
220
0
230
1
50
360
0
ENDBLK
5
3AD
100
AcDbEntity
8
0
100
AcDbBlockEnd
0
BLOCK
5
3BE
100
AcDbEntity
8
0
100
AcDbBlockBegin
2
_U3
70
0
10
0
20
0
30
0
3
_U3
0
MTEXT
5
3B8
100
AcDbEntity
8
SK2
62
256
6
ByLayer
370
18
48
1
60
0
100
AcDbMText
10
134.369387
20
-58.772328
30
0
210
0
220
0
230
1
1
\W0.7138;205
40
4.5
41
0
44
1.084337
50
0
71
7
72
5
7
iso_b_vert
0
LINE
5
3B9
100
AcDbEntity
8
SK2
62
256
6
ByLayer
370
13
48
1
60
0
100
AcDbLine
10
36
20
-26.5875
30
0
11
36
21
-63.275
31
0
39
0
210
0
220
0
230
1
0
LINE
5
3BA
100
AcDbEntity
8
SK2
62
256
6
ByLayer
370
13
48
1
60
0
100
AcDbLine
10
241
20
-26.5875
30
0
11
241
21
-63.275
31
0
39
0
210
0
220
0
230
1
0
LINE
5
3BB
100
AcDbEntity
8
SK2
62
256
6
ByLayer
370
13
48
1
60
0
100
AcDbLine
10
36
20
-60.1
30
0
11
241
21
-60.1
31
0
39
0
210
0
220
0
230
1
0
SOLID
5
3BC
100
AcDbEntity
8
SK2
62
256
6
ByLayer
370
18
48
1
60
0
100
AcDbTrace
10
36
20
-60.1
30
0
11
40.174997
21
-59.174425
31
0
12
40.175003
22
-61.025575
32
0
13
40.175003
23
-61.025575
33
0
39
0
210
0
220
0
230
1
0
SOLID
5
3BD
100
AcDbEntity
8
SK2
62
256
6
ByLayer
370
18
48
1
60
0
100
AcDbTrace
10
241
20
-60.1
30
0
11
236.825003
21
-61.025575
31
0
12
236.824997
22
-59.174425
32
0
13
236.824997
23
-59.174425
33
0
39
0
210
0
220
0
230
1
0
ENDBLK
5
3BF
100
AcDbEntity
8
0
100
AcDbBlockEnd
0
BLOCK
5
3C4
100
AcDbEntity
8
0
100
AcDbBlockBegin
2
*D9
70
1
10
0
20
0
30
0
3
*D9
0
LINE
5
3C6
100
AcDbEntity
8
0
62
256
6
ByLayer
370
-2
48
1
60
0
100
AcDbLine
10
239.7234
20
-14.0875
30
0
11
239.7234
21
-53.275
31
0
39
0
210
0
220
0
230
1
0
LINE
5
3C7
100
AcDbEntity
8
0
62
256
6
ByLayer
370
-2
48
1
60
0
100
AcDbLine
10
241
20
-1.5875
30
0
11
241
21
-53.275
31
0
39
0
210
0
220
0
230
1
0
LINE
5
3C8
100
AcDbEntity
8
0
62
256
6
ByLayer
370
-2
48
1
60
0
100
AcDbLine
10
241
20
-50.1
30
0
11
276.708929
21
-50.1
31
0
39
0
210
0
220
0
230
1
0
LINE
5
3C9
100
AcDbEntity
8
0
62
256
6
ByLayer
370
-2
48
1
60
0
100
AcDbLine
10
235.5484
20
-50.1
30
0
11
231.3734
21
-50.1
31
0
39
0
210
0
220
0
230
1
0
LINE
5
3CA
100
AcDbEntity
8
0
62
256
6
ByLayer
370
-2
48
1
60
0
100
AcDbLine
10
245.175
20
-50.1
30
0
11
249.35
21
-50.1
31
0
39
0
210
0
220
0
230
1
0
SOLID
5
3CB
100
AcDbEntity
8
0
62
256
6
ByLayer
370
-1
48
1
60
0
100
AcDbTrace
10
235.5484
20
-50.795833
30
0
11
235.5484
21
-49.404167
31
0
12
239.7234
22
-50.1
32
0
13
239.7234
23
-50.1
33
0
39
0
210
0
220
0
230
1
0
SOLID
5
3CC
100
AcDbEntity
8
0
62
256
6
ByLayer
370
-1
48
1
60
0
100
AcDbTrace
10
245.175
20
-49.404167
30
0
11
245.175
21
-50.795833
31
0
12
241
22
-50.1
32
0
13
241
23
-50.1
33
0
39
0
210
0
220
0
230
1
0
MTEXT
5
3CD
100
AcDbEntity
8
0
62
256
6
ByLayer
370
18
48
1
60
0
100
AcDbMText
10
263.029464
20
-40.70625
30
0
210
0
220
0
230
1
1
\A1;1.28
40
4.5
41
0
44
1
50
0
71
5
72
5
7
iso_b_vert
0
POINT
5
3CE
100
AcDbEntity
8
Defpoints
62
0
6
ByLayer
370
-1
48
1
60
0
100
AcDbPoint
10
239.7234
20
-12.5
30
0
39
0
210
0
220
0
230
1
50
360
0
POINT
5
3CF
100
AcDbEntity
8
Defpoints
62
0
6
ByLayer
370
-1
48
1
60
0
100
AcDbPoint
10
241
20
0
30
0
39
0
210
0
220
0
230
1
50
360
0
POINT
5
3D0
100
AcDbEntity
8
Defpoints
62
0
6
ByLayer
370
-1
48
1
60
0
100
AcDbPoint
10
241
20
-50.1
30
0
39
0
210
0
220
0
230
1
50
360
0
ENDBLK
5
3C5
100
AcDbEntity
8
0
100
AcDbBlockEnd
0
BLOCK
5
3D8
100
AcDbEntity
8
0
100
AcDbBlockBegin
2
_U4
70
0
10
0
20
0
30
0
3
_U4
0
MTEXT
5
3D2
100
AcDbEntity
8
2
62
256
6
ByLayer
370
18
48
1
60
0
100
AcDbMText
10
253.351
20
-48.772328
30
0
210
0
220
0
230
1
1
\W0.6563;1.28
40
4.5
41
0
44
1.084337
50
0
71
7
72
5
7
iso_b_vert
0
LINE
5
3D3
100
AcDbEntity
8
2
62
256
6
ByLayer
370
13
48
1
60
0
100
AcDbLine
10
239.7234
20
-14.0875
30
0
11
239.7234
21
-53.275
31
0
39
0
210
0
220
0
230
1
0
LINE
5
3D4
100
AcDbEntity
8
2
62
256
6
ByLayer
370
13
48
1
60
0
100
AcDbLine
10
241
20
-1.5875
30
0
11
241
21
-53.275
31
0
39
0
210
0
220
0
230
1
0
LINE
5
3D5
100
AcDbEntity
8
2
62
256
6
ByLayer
370
13
48
1
60
0
100
AcDbLine
10
262.549041
20
-50.1
30
0
11
228.4734
21
-50.1
31
0
39
0
210
0
220
0
230
1
0
SOLID
5
3D6
100
AcDbEntity
8
2
62
256
6
ByLayer
370
18
48
1
60
0
100
AcDbTrace
10
239.7234
20
-50.1
30
0
11
235.548403
21
-51.025575
31
0
12
235.548397
22
-49.174425
32
0
13
235.548397
23
-49.174425
33
0
39
0
210
0
220
0
230
1
0
SOLID
5
3D7
100
AcDbEntity
8
2
62
256
6
ByLayer
370
18
48
1
60
0
100
AcDbTrace
10
241
20
-50.1
30
0
11
245.174997
21
-49.174425
31
0
12
245.175003
22
-51.025575
32
0
13
245.175003
23
-51.025575
33
0
39
0
210
0
220
0
230
1
0
ENDBLK
5
3D9
100
AcDbEntity
8
0
100
AcDbBlockEnd
0
ENDSEC
0
SECTION
2
ENTITIES
0
ARC
5
18D
100
AcDbEntity
8
SK1
62
256
6
ByLayer
370
13
48
1
60
0
100
AcDbCircle
39
0
10
-77.894505
20
-25.396
30
0
40
0.799999999999979
210
0
220
0
230
1
100
AcDbArc
50
70.982
51
141
0
ARC
5
18E
100
AcDbEntity
8
SK1
62
256
6
ByLayer
370
13
48
1
60
0
100
AcDbCircle
39
0
10
-77.894505
20
25.396
30
0
40
0.799999999999979
210
0
220
0
230
1
100
AcDbArc
50
219
51
289.018
0
ARC
5
18F
100
AcDbEntity
8
SK1
62
256
6
ByLayer
370
13
48
1
60
0
100
AcDbCircle
39
0
10
-0.15
20
25.146
30
0
40
0.399999999999999
210
0
220
0
230
1
100
AcDbArc
50
270
51
292.024313
0
ARC
5
190
100
AcDbEntity
8
SK1
62
256
6
ByLayer
370
13
48
1
60
0
100
AcDbCircle
39
0
10
-0.15
20
-25.146
30
0
40
0.399999999999999
210
0
220
0
230
1
100
AcDbArc
50
67.975687
51
90
0
ARC
5
191
100
AcDbEntity
8
SK1
62
256
6
ByLayer
370
13
48
1
60
0
100
AcDbCircle
39
0
10
-1.375195
20
25.146
30
0
40
0.400000000000004
210
0
220
0
230
1
100
AcDbArc
50
245
51
270
0
ARC
5
192
100
AcDbEntity
8
SK1
62
256
6
ByLayer
370
13
48
1
60
0
100
AcDbCircle
39
0
10
-1.375195
20
-25.146
30
0
40
0.400000000000004
210
0
220
0
230
1
100
AcDbArc
50
90
51
115
0
ARC
5
193
100
AcDbEntity
8
1
62
256
6
ByLayer
370
13
48
1
60
0
100
AcDbCircle
39
0
10
237.546286
20
23.501491
30
0
40
0.2
210
0
220
0
230
1
100
AcDbArc
50
8.974534
51
93
0
ARC
5
194
100
AcDbEntity
8
1
62
256
6
ByLayer
370
13
48
1
60
0
100
AcDbCircle
39
0
10
237.692333
20
10.680392
30
0
40
0.2
210
0
220
0
230
1
100
AcDbArc
50
273
51
352.543899
0
ARC
5
195
100
AcDbEntity
8
1
62
256
6
ByLayer
370
13
48
1
60
0
100
AcDbCircle
39
0
10
224.925347
20
22.605487
30
0
40
0.2
210
0
220
0
230
1
100
AcDbArc
50
76.847115
51
93
0
ARC
5
196
100
AcDbEntity
8
1
62
256
6
ByLayer
370
13
48
1
60
0
100
AcDbCircle
39
0
10
225.071393
20
9.784388
30
0
40
0.2
210
0
220
0
230
1
100
AcDbArc
50
273
51
304.880681
0
ELLIPSE
5
197
100
AcDbEntity
8
1
62
256
6
ByLayer
370
18
48
1
60
0
100
AcDbEllipse
10
231.136653
20
16.633915
30
0
11
-0.0675290843402675
21
1.28853168869383
31
0
210
0
220
0
230
1
40
0.995725
41
-3.03890209425328
42
-2.0943951023932
0
ELLIPSE
5
198
100
AcDbEntity
8
1
62
256
6
ByLayer
370
18
48
1
60
0
100
AcDbEllipse
10
230.331902
20
17.878165
30
0
11
-0.328810806110999
21
-0.214953577526583
31
0
210
0
220
0
230
1
40
0.490768
41
2.94329838355302
42
-2.46819100314322
0
ELLIPSE
5
199
100
AcDbEntity
8
1
62
256
6
ByLayer
370
18
48
1
60
0
100
AcDbEllipse
10
231.274632
20
16.641146
30
0
11
-0.149157475292384
21
2.84609417405054
31
0
210
0
220
0
230
1
40
0.995725
41
0
42
6.28318530717959
0
ELLIPSE
5
19A
100
AcDbEntity
8
1
62
256
6
ByLayer
370
18
48
1
60
0
100
AcDbEllipse
10
232.375169
20
17.441491
30
0
11
-0.213416480926301
21
0.330813521389087
31
0
210
0
220
0
230
1
40
0.48867
41
1.57317835191932
42
2.85504177777729
0
ELLIPSE
5
19B
100
AcDbEntity
8
1
62
256
6
ByLayer
370
18
48
1
60
0
100
AcDbEllipse
10
231.281937
20
16.641529
30
0
11
0.0877359970456743
21
-1.67410255206257
31
0
210
0
220
0
230
1
40
0.995725
41
-0.523598775598319
42
0.523598775598308
0
ELLIPSE
5
19C
100
AcDbEntity
8
1
62
256
6
ByLayer
370
18
48
1
60
0
100
AcDbEllipse
10
231.281937
20
16.641529
30
0
11
0.0877359970456743
21
-1.67410255206257
31
0
210
0
220
0
230
1
40
0.995725
41
-1.5707963267949
42
-0.523598775598319
0
ELLIPSE
5
19D
100
AcDbEntity
8
1
62
256
6
ByLayer
370
18
48
1
60
0
100
AcDbEllipse
10
231.136653
20
16.633915
30
0
11
0.067529084340273
21
-1.28853168869383
31
0
210
0
220
0
230
1
40
0.995725
41
2.09439510239319
42
3.14159265358979
0
ELLIPSE
5
19E
100
AcDbEntity
8
1
62
256
6
ByLayer
370
18
48
1
60
0
100
AcDbEllipse
10
231.059023
20
18.115183
30
0
11
-0.391877312292456
21
-0.020537419688164
31
0
210
0
220
0
230
1
40
0.491826
41
0.288932900934597
42
1.5707963267949
0
ELLIPSE
5
19F
100
AcDbEntity
8
1
62
256
6
ByLayer
370
18
48
1
60
0
100
AcDbEllipse
10
231.281937
20
16.641529
30
0
11
-0.0942047212372952
21
1.79753316255823
31
0
210
0
220
0
230
1
40
0.995725
41
0
42
6.28318530717959
0
ELLIPSE
5
1A0
100
AcDbEntity
8
1
62
256
6
ByLayer
370
18
48
1
60
0
100
AcDbEllipse
10
231.941404
20
15.389665
30
0
11
-0.328810806111005
21
-0.214953577526587
31
0
210
0
220
0
230
1
40
0.490768
41
0.673401308867857
42
-2.94809584055997
0
ELLIPSE
5
1A1
100
AcDbEntity
8
1
62
256
6
ByLayer
370
18
48
1
60
0
100
AcDbEllipse
10
232.452799
20
15.960224
30
0
11
-0.177667934094693
21
-0.351309387095646
31
0
210
0
220
0
230
1
40
0.48867
41
-2.85504177777901
42
-1.57317835192775
0
ELLIPSE
5
1A2
100
AcDbEntity
8
1
62
256
6
ByLayer
370
18
48
1
60
0
100
AcDbEllipse
10
231.214283
20
15.152648
30
0
11
-0.391877312293239
21
-0.0205374196887318
31
0
210
0
220
0
230
1
40
0.491826
41
-1.5707963267949
42
-0.288932900934337
0
ELLIPSE
5
1A3
100
AcDbEntity
8
1
62
256
6
ByLayer
370
18
48
1
60
0
100
AcDbEllipse
10
232.611687
20
16.711219
30
0
11
-0.0206256003553256
21
0.393559899646768
31
0
210
0
220
0
230
1
40
0.48763
41
-2.94566969474581
42
-0.320422399685477
0
ELLIPSE
5
1A4
100
AcDbEntity
8
1
62
256
6
ByLayer
370
18
48
1
60
0
100
AcDbEllipse
10
231.136653
20
16.633915
30
0
11
0.067529084340273
21
-1.28853168869383
31
0
210
0
220
0
230
1
40
0.995725
41
-0.773927979467122
42
0
0
ELLIPSE
5
1A5
100
AcDbEntity
8
1
62
256
6
ByLayer
370
18
48
1
60
0
100
AcDbEllipse
10
231.136653
20
16.633915
30
0
11
0.067529084340273
21
-1.28853168869383
31
0
210
0
220
0
230
1
40
0.995725
41
1.0471975511966
42
2.0943951023932
0
ELLIPSE
5
1A6
100
AcDbEntity
8
1
62
256
6
ByLayer
370
18
48
1
60
0
100
AcDbEllipse
10
232.452799
20
15.960224
30
0
11
-0.177667934094586
21
-0.351309387091242
31
0
210
0
220
0
230
1
40
0.48867
41
-1.57317835191672
42
-0.291314926055737
0
ELLIPSE
5
1A7
100
AcDbEntity
8
1
62
256
6
ByLayer
370
18
48
1
60
0
100
AcDbEllipse
10
231.281937
20
16.641529
30
0
11
0.0877359970456743
21
-1.67410255206257
31
0
210
0
220
0
230
1
40
0.995725
41
-2.61799387799147
42
-1.5707963267949
0
ELLIPSE
5
1A8
100
AcDbEntity
8
1
62
256
6
ByLayer
370
18
48
1
60
0
100
AcDbEllipse
10
232.375169
20
17.441491
30
0
11
-0.21341648091995
21
0.330813521384647
31
0
210
0
220
0
230
1
40
0.48867
41
0.291314926058119
42
1.57317835193503
0
ELLIPSE
5
1A9
100
AcDbEntity
8
1
62
256
6
ByLayer
370
18
48
1
60
0
100
AcDbEllipse
10
231.281937
20
16.641529
30
0
11
0.0877359970456743
21
-1.67410255206257
31
0
210
0
220
0
230
1
40
0.995725
41
0.523598775598308
42
1.5707963267949
0
ELLIPSE
5
1AA
100
AcDbEntity
8
1
62
256
6
ByLayer
370
18
48
1
60
0
100
AcDbEllipse
10
231.281937
20
16.641529
30
0
11
0.0877359970456743
21
-1.67410255206257
31
0
210
0
220
0
230
1
40
0.995725
41
1.5707963267949
42
2.61799387799148
0
ELLIPSE
5
1AB
100
AcDbEntity
8
1
62
256
6
ByLayer
370
18
48
1
60
0
100
AcDbEllipse
10
231.208142
20
16.637662
30
0
11
-0.149157475292384
21
2.84609417405054
31
0
210
0
220
0
230
1
40
0.995725
41
9.2516345868695E-05
42
3.1415869351611
0
ELLIPSE
5
1AC
100
AcDbEntity
8
1
62
256
6
ByLayer
370
18
48
1
60
0
100
AcDbEllipse
10
231.136653
20
16.633915
30
0
11
0.067529084340273
21
-1.28853168869383
31
0
210
0
220
0
230
1
40
0.995725
41
-1.8941510985487
42
-1.23150380240866
0
ELLIPSE
5
1AD
100
AcDbEntity
8
1
62
256
6
ByLayer
370
18
48
1
60
0
100
AcDbEllipse
10
231.136653
20
16.633915
30
0
11
0.067529084340273
21
-1.28853168869383
31
0
210
0
220
0
230
1
40
0.995725
41
3.14159265358979
42
-2.34982975905692
0
ELLIPSE
5
1AE
100
AcDbEntity
8
1
62
256
6
ByLayer
370
18
48
1
60
0
100
AcDbEllipse
10
231.281937
20
16.641529
30
0
11
0.0877359970456743
21
-1.67410255206257
31
0
210
0
220
0
230
1
40
0.995725
41
2.61799387799148
42
-2.61799387799147
0
ELLIPSE
5
1AF
100
AcDbEntity
8
1
62
256
6
ByLayer
370
18
48
1
60
0
100
AcDbEllipse
10
231.806936
20
17.955468
30
0
11
-0.349478313243814
21
0.179405951069342
31
0
210
0
220
0
230
1
40
0.490768
41
2.94809584056032
42
-0.625095735375644
0
ELLIPSE
5
1B0
100
AcDbEntity
8
1
62
256
6
ByLayer
370
18
48
1
60
0
100
AcDbEllipse
10
230.46637
20
15.312362
30
0
11
-0.349478313243819
21
0.179405951069337
31
0
210
0
220
0
230
1
40
0.490768
41
2.5164965647999
42
-2.94329838355317
0
ELLIPSE
5
1B1
100
AcDbEntity
8
1
62
256
6
ByLayer
370
18
48
1
60
0
100
AcDbEllipse
10
232.204527
20
-6.197161
30
0
11
-1.5
21
1.51595858262354E-15
31
0
210
0
220
0
230
1
40
0.994968
41
-3.02918243990069
42
0
0
ELLIPSE
5
1B2
100
AcDbEntity
8
1
62
256
6
ByLayer
370
18
48
1
60
0
100
AcDbEllipse
10
232.204527
20
-6.197161
30
0
11
-1.5
21
1.51595858262354E-15
31
0
210
0
220
0
230
1
40
0.994968
41
0
42
0.231496216527584
0
ELLIPSE
5
1B3
100
AcDbEntity
8
1
62
256
6
ByLayer
370
18
48
1
60
0
100
AcDbEllipse
10
232.204527
20
-6.247257
30
0
11
2
21
0
31
0
210
0
220
0
230
1
40
0.994968
41
0.445811882693029
42
2.98549519137788
0
ELLIPSE
5
1B4
100
AcDbEntity
8
1
62
256
6
ByLayer
370
18
48
1
60
0
100
AcDbEllipse
10
232.204527
20
-7.05181
30
0
11
-2.35
21
2.37500177944355E-15
31
0
210
0
220
0
230
1
40
0.994968
41
-0.609665284191397
42
-0.532500096370861
0
ELLIPSE
5
1B5
100
AcDbEntity
8
1
62
256
6
ByLayer
370
18
48
1
60
0
100
AcDbEllipse
10
232.204527
20
-6.952772
30
0
11
-2.35
21
2.37500177944355E-15
31
0
210
0
220
0
230
1
40
0.994968
41
-0.653156674233231
42
-0.508250856113632
0
ELLIPSE
5
1B6
100
AcDbEntity
8
1
62
256
6
ByLayer
370
13
48
1
60
0
100
AcDbEllipse
10
224.580523
20
22.691698
30
0
11
-0.157381426418577
21
-0.0466723701665938
31
0
210
0
220
0
230
1
40
0.019797
41
-3.05943361681935
42
-1.48863729014663
0
ELLIPSE
5
1B7
100
AcDbEntity
8
1
62
256
6
ByLayer
370
13
48
1
60
0
100
AcDbEllipse
10
238.346428
20
24.708966
30
0
11
-0.00261679781214713
21
0.0499314767377297
31
0
210
0
220
0
230
1
40
0.995725
41
-0.00872664626037545
42
1.26193471909935
0
ELLIPSE
5
1B8
100
AcDbEntity
8
1
62
256
6
ByLayer
370
13
48
1
60
0
100
AcDbEllipse
10
238.534309
20
17.113927
30
0
11
0.198308915233049
21
-0.0259533069008805
31
0
210
0
220
0
230
1
40
0.016833
41
0.000152472630121372
42
1.47983423648347
0
ELLIPSE
5
1B9
100
AcDbEntity
8
1
62
256
6
ByLayer
370
13
48
1
60
0
100
AcDbEllipse
10
237.546286
20
23.501491
30
0
11
0.010467191248589
21
-0.199725906950915
31
0
210
0
220
0
230
1
40
0.995725
41
3.14157394909817
42
-2.58708947813769
0
ELLIPSE
5
1BA
100
AcDbEntity
8
1
62
256
6
ByLayer
370
13
48
1
60
0
100
AcDbEllipse
10
224.250373
20
8.525751
30
0
11
0.00653729335064122
21
-0.149857478277354
31
0
210
0
220
0
230
1
40
0.092367
41
-1.56998679074977
42
-0.023244076376806
0
ELLIPSE
5
1BB
100
AcDbEntity
8
1
62
256
6
ByLayer
370
13
48
1
60
0
100
AcDbEllipse
10
224.925347
20
22.605487
30
0
11
0.010467191248589
21
-0.199725906950915
31
0
210
0
220
0
230
1
40
0.995725
41
-3.14157313675564
42
-1.75405589825504
0
ELLIPSE
5
1BC
100
AcDbEntity
8
1
62
256
6
ByLayer
370
13
48
1
60
0
100
AcDbEllipse
10
225.071393
20
9.784388
30
0
11
0.114373860315975
21
-0.164068949153768
31
0
210
0
220
0
230
1
40
0.07853
41
3.35013660408951E-05
42
1.5219912390767
0
ELLIPSE
5
1BD
100
AcDbEntity
8
1
62
256
6
ByLayer
370
13
48
1
60
0
100
AcDbEllipse
10
226.270944
20
8.04249
30
0
11
-0.0994383168615891
21
1.89739611603369
31
0
210
0
220
0
230
1
40
0.995725
41
0.761807904943277
42
1.26193471909894
0
ELLIPSE
5
1BE
100
AcDbEntity
8
1
62
256
6
ByLayer
370
13
48
1
60
0
100
AcDbEllipse
10
222.638498
20
23.329267
30
0
11
-0.0435637040716873
21
-0.259139630106454
31
0
210
0
220
0
230
1
40
0.947521
41
-2.83343967205572
42
-2.19739446862381
0
ELLIPSE
5
1BF
100
AcDbEntity
8
1
62
256
6
ByLayer
370
13
48
1
60
0
100
AcDbEllipse
10
222.44582
20
16.078311
30
0
11
-0.0287847759336179
21
0.549246244115015
31
0
210
0
220
0
230
1
40
0.995725
41
1.38753675533543
42
1.67551608191458
0
ELLIPSE
5
1C0
100
AcDbEntity
8
1
62
256
6
ByLayer
370
13
48
1
60
0
100
AcDbEllipse
10
223.572052
20
9.064833
30
0
11
0.0366351693700632
21
-0.699040674328225
31
0
210
0
220
0
230
1
40
0.995725
41
-1.46607657167602
42
-0.0773624824598946
0
ELLIPSE
5
1C1
100
AcDbEntity
8
1
62
256
6
ByLayer
370
13
48
1
60
0
100
AcDbEllipse
10
237.692333
20
10.680392
30
0
11
-0.198308915233048
21
0.0259533069008871
31
0
210
0
220
0
230
1
40
0.016833
41
-3.14144018085995
42
-1.66175841710463
0
ELLIPSE
5
1C2
100
AcDbEntity
8
1
62
256
6
ByLayer
370
13
48
1
60
0
100
AcDbEllipse
10
237.546286
20
23.501491
30
0
11
-0.197551554484216
21
-0.0311990916673825
31
0
210
0
220
0
230
1
40
0.009655
41
1.66279490126866
42
-3.14146319863459
0
ELLIPSE
5
1C3
100
AcDbEntity
8
1
62
256
6
ByLayer
370
13
48
1
60
0
100
AcDbEllipse
10
224.925347
20
22.605487
30
0
11
0.198308915233049
21
-0.0259533069008805
31
0
210
0
220
0
230
1
40
0.016833
41
1.47983423648333
42
3.05063056328557
0
ELLIPSE
5
1C4
100
AcDbEntity
8
1
62
256
6
ByLayer
370
13
48
1
60
0
100
AcDbEllipse
10
222.737405
20
22.386877
30
0
11
-0.0435637040541811
21
-0.259139630111666
31
0
210
0
220
0
230
1
40
0.947521
41
-2.8334396721204
42
-1.53236303190766
0
ELLIPSE
5
1C5
100
AcDbEntity
8
1
62
256
6
ByLayer
370
13
48
1
60
0
100
AcDbEllipse
10
224.558545
20
16.105612
30
0
11
0.0444855628065039
21
-0.848835104541388
31
0
210
0
220
0
230
1
40
0.995725
41
-1.75405589825421
42
-1.46607657167512
0
ELLIPSE
5
1C6
100
AcDbEntity
8
1
62
256
6
ByLayer
370
13
48
1
60
0
100
AcDbEllipse
10
223.553871
20
8.514773
30
0
11
-0.00379960965785735
21
-0.149951868832795
31
0
210
0
220
0
230
1
40
0.092094
41
-1.56362690568454
42
-0.0717426686092287
0
ELLIPSE
5
1C7
100
AcDbEntity
8
1
62
256
6
ByLayer
370
13
48
1
60
0
100
AcDbEllipse
10
238.312104
20
24.722387
30
0
11
0.145139532363186
21
-0.037875006869911
31
0
210
0
220
0
230
1
40
0.028078
41
3.05344420152583
42
-1.6589447788559
0
ELLIPSE
5
1C8
100
AcDbEntity
8
1
62
256
6
ByLayer
370
13
48
1
60
0
100
AcDbEllipse
10
238.022237
20
17.178333
30
0
11
0.0444855628065039
21
-0.848835104541388
31
0
210
0
220
0
230
1
40
0.995725
41
1.38753675533551
42
1.67551608191461
0
ELLIPSE
5
1C9
100
AcDbEntity
8
1
62
256
6
ByLayer
370
13
48
1
60
0
100
AcDbEllipse
10
238.027931
20
10.593697
30
0
11
-0.0427993177813307
21
-0.158580925164905
31
0
210
0
220
0
230
1
40
0.080206
41
-1.54458133961867
42
0.0262149871011634
0
ELLIPSE
5
1CA
100
AcDbEntity
8
1
62
256
6
ByLayer
370
13
48
1
60
0
100
AcDbEllipse
10
224.928933
20
24.645007
30
0
11
-1.72936595006752
21
1.21940905088019
31
0
210
0
220
0
230
1
40
0.74335
41
1.16175109669921
42
1.98390815207321
0
ELLIPSE
5
1CB
100
AcDbEntity
8
1
62
256
6
ByLayer
370
13
48
1
60
0
100
AcDbEllipse
10
223.989506
20
8.514675
30
0
11
0.00373239490690328
21
-0.149953556904326
31
0
210
0
220
0
230
1
40
0.092336
41
-1.56825879134052
42
-0.0414707750423129
0
ELLIPSE
5
1CC
100
AcDbEntity
8
1
62
256
6
ByLayer
370
13
48
1
60
0
100
AcDbEllipse
10
222.734299
20
22.39844
30
0
11
0.0235312926468261
21
-0.148142763125201
31
0
210
0
220
0
230
1
40
0.091865
41
-3.05123893783182
42
-1.58049283527772
0
ELLIPSE
5
1CD
100
AcDbEntity
8
1
62
256
6
ByLayer
370
13
48
1
60
0
100
AcDbEllipse
10
238.532407
20
17.257406
30
0
11
0.197551554484215
21
0.0311990916673929
31
0
210
0
220
0
230
1
40
0.009655
41
-1.47879775232198
42
0.000129454868729847
0
ELLIPSE
5
1CE
100
AcDbEntity
8
1
62
256
6
ByLayer
370
13
48
1
60
0
100
AcDbEllipse
10
223.553603
20
9.063867
30
0
11
-0.0287847759336191
21
0.549246244115039
31
0
210
0
220
0
230
1
40
0.995725
41
1.67551608191457
42
3.06423017113071
0
ELLIPSE
5
1CF
100
AcDbEntity
8
1
62
256
6
ByLayer
370
13
48
1
60
0
100
AcDbEllipse
10
223.755897
20
17.261162
30
0
11
-0.457939617125739
21
8.73800842910252
31
0
210
0
220
0
230
1
40
0.995725
41
3.06423017113068
42
3.11423538092939
0
ELLIPSE
5
1D0
100
AcDbEntity
8
1
62
256
6
ByLayer
370
13
48
1
60
0
100
AcDbEllipse
10
236.738288
20
8.59106
30
0
11
-1.40394107566575
21
-1.50837379633721
31
0
210
0
220
0
230
1
40
0.735668
41
2.56900210138898
42
-2.89202615041622
0
ELLIPSE
5
1D1
100
AcDbEntity
8
1
62
256
6
ByLayer
370
13
48
1
60
0
100
AcDbEllipse
10
239.045628
20
24.221045
30
0
11
0.0366351693700632
21
-0.699040674328225
31
0
210
0
220
0
230
1
40
0.995725
41
1.67551608191529
42
3.06423017113142
0
ELLIPSE
5
1D2
100
AcDbEntity
8
1
62
256
6
ByLayer
370
13
48
1
60
0
100
AcDbEllipse
10
221.918763
20
15.993119
30
0
11
-0.148163665863162
21
-0.023399318750537
31
0
210
0
220
0
230
1
40
0.009655
41
-1.4787977523216
42
0.0919985744699011
0
ELLIPSE
5
1D3
100
AcDbEntity
8
1
62
256
6
ByLayer
370
13
48
1
60
0
100
AcDbEllipse
10
223.736455
20
15.973557
30
0
11
-0.148163665863162
21
-0.023399318750537
31
0
210
0
220
0
230
1
40
0.009655
41
-3.04959407911005
42
-1.47879775232255
0
ELLIPSE
5
1D4
100
AcDbEntity
8
1
62
256
6
ByLayer
370
13
48
1
60
0
100
AcDbEllipse
10
237.692333
20
10.680392
30
0
11
0.045510042190888
21
0.19475326970242
31
0
210
0
220
0
230
1
40
0.088753
41
-3.11589220193367
42
-1.54509587511456
0
ELLIPSE
5
1D5
100
AcDbEntity
8
1
62
256
6
ByLayer
370
13
48
1
60
0
100
AcDbEllipse
10
238.586505
20
24.769608
30
0
11
-0.00653729335064151
21
0.149857478277354
31
0
210
0
220
0
230
1
40
0.092367
41
0.000809536047835613
42
1.57160586284002
0
ELLIPSE
5
1D6
100
AcDbEntity
8
1
62
256
6
ByLayer
370
13
48
1
60
0
100
AcDbEllipse
10
239.878768
20
10.887197
30
0
11
0.00785039343644175
21
-0.149794430213184
31
0
210
0
220
0
230
1
40
0.995725
41
0.104719755119505
42
1.38753675533625
0
ELLIPSE
5
1D7
100
AcDbEntity
8
1
62
256
6
ByLayer
370
13
48
1
60
0
100
AcDbEllipse
10
222.738912
20
22.398681
30
0
11
0.00785039343644175
21
-0.149794430213184
31
0
210
0
220
0
230
1
40
0.995725
41
-3.036872898472
42
-1.75405589825509
0
ELLIPSE
5
1D8
100
AcDbEntity
8
1
62
256
6
ByLayer
370
13
48
1
60
0
100
AcDbEllipse
10
236.323675
20
25.24218
30
0
11
0.107288710298039
21
-2.04719054624688
31
0
210
0
220
0
230
1
40
0.995725
41
0.773852857220384
42
1.26193471909893
0
ELLIPSE
5
1D9
100
AcDbEntity
8
1
62
256
6
ByLayer
370
13
48
1
60
0
100
AcDbEllipse
10
224.085272
20
16.028473
30
0
11
-0.197551554484216
21
-0.0311990916673825
31
0
210
0
220
0
230
1
40
0.009655
41
0.0919985744717376
42
1.66279490126937
0
ELLIPSE
5
1DA
100
AcDbEntity
8
1
62
256
6
ByLayer
370
13
48
1
60
0
100
AcDbEllipse
10
224.252802
20
8.575945
30
0
11
0.0104671912485892
21
-0.199725906950916
31
0
210
0
220
0
230
1
40
0.995725
41
-0.0087266462608405
42
1.26193471909844
0
ELLIPSE
5
1DB
100
AcDbEntity
8
1
62
256
6
ByLayer
370
13
48
1
60
0
100
AcDbEllipse
10
236.342123
20
25.243147
30
0
11
-0.0942047212372953
21
1.79753316255824
31
0
210
0
220
0
230
1
40
0.995725
41
-3.14159265358905
42
-1.87965793449008
0
ELLIPSE
5
1DC
100
AcDbEntity
8
1
62
256
6
ByLayer
370
13
48
1
60
0
100
AcDbEllipse
10
236.263888
20
25.239047
30
0
11
-1.59242934826583
21
-1.39349696570254
31
0
210
0
220
0
230
1
40
0.74335
41
1.15768450151665
42
1.97984155688884
0
ELLIPSE
5
1DD
100
AcDbEntity
8
1
62
256
6
ByLayer
370
13
48
1
60
0
100
AcDbEllipse
10
238.872
20
17.311838
30
0
11
0.148163665863161
21
0.0233993187505447
31
0
210
0
220
0
230
1
40
0.009655
41
1.66279490126977
42
2.8560295683096
0
ELLIPSE
5
1DE
100
AcDbEntity
8
1
62
256
6
ByLayer
370
13
48
1
60
0
100
AcDbEllipse
10
239.874155
20
10.886955
30
0
11
-0.0235312926468169
21
0.148142763125202
31
0
210
0
220
0
230
1
40
0.091865
41
1.56109981837972
42
3.13189614514058
0
ELLIPSE
5
1DF
100
AcDbEntity
8
1
62
256
6
ByLayer
370
13
48
1
60
0
100
AcDbEllipse
10
224.643186
20
22.751785
30
0
11
0.00523359562429394
21
-0.0998629534754454
31
0
210
0
220
0
230
1
40
0.995725
41
1.38753675533546
42
-3.03687289847066
0
ELLIPSE
5
1E0
100
AcDbEntity
8
1
62
256
6
ByLayer
370
13
48
1
60
0
100
AcDbEllipse
10
238.059135
20
17.180267
30
0
11
-0.0261679781214708
21
0.499314767377288
31
0
210
0
220
0
230
1
40
0.995725
41
-1.75405589825426
42
-1.46607657167521
0
ELLIPSE
5
1E1
100
AcDbEntity
8
1
62
256
6
ByLayer
370
13
48
1
60
0
100
AcDbEllipse
10
226.257107
20
8.041764
30
0
11
0.107288710298039
21
-2.04719054624688
31
0
210
0
220
0
230
1
40
0.995725
41
-2.36773979636935
42
-1.87965793449081
0
ELLIPSE
5
1E2
100
AcDbEntity
8
1
62
256
6
ByLayer
370
13
48
1
60
0
100
AcDbEllipse
10
238.097982
20
24.712997
30
0
11
-0.279378559901798
21
-0.215283244307494
31
0
210
0
220
0
230
1
40
0.479615
41
-2.35983386470136
42
-1.27243207082518
0
ELLIPSE
5
1E3
100
AcDbEntity
8
1
62
256
6
ByLayer
370
13
48
1
60
0
100
AcDbEllipse
10
236.583172
20
25.255782
30
0
11
-2.06114325171346
21
-1.58827159389654
31
0
210
0
220
0
230
1
40
0.479615
41
1.82992815430623
42
1.86916134874201
0
ELLIPSE
5
1E4
100
AcDbEntity
8
1
62
256
6
ByLayer
370
13
48
1
60
0
100
AcDbEllipse
10
238.838721
20
16.023508
30
0
11
0.465790010562217
21
-8.88780285931571
31
0
210
0
220
0
230
1
40
0.995725
41
3.06423017113062
42
3.11423538092933
0
ELLIPSE
5
1E5
100
AcDbEntity
8
1
62
256
6
ByLayer
370
13
48
1
60
0
100
AcDbEllipse
10
224.306759
20
8.561722
30
0
11
0.01276905231255
21
-0.24364803254851
31
0
210
0
220
0
230
1
40
0.995725
41
0.17453292519857
42
1.26193471909859
0
ELLIPSE
5
1E6
100
AcDbEntity
8
1
62
256
6
ByLayer
370
13
48
1
60
0
100
AcDbEllipse
10
224.595442
20
16.107546
30
0
11
-0.0261679781214708
21
0.499314767377288
31
0
210
0
220
0
230
1
40
0.995725
41
1.38753675533559
42
1.67551608191464
0
ELLIPSE
5
1E7
100
AcDbEntity
8
1
62
256
6
ByLayer
370
13
48
1
60
0
100
AcDbEllipse
10
223.159874
20
23.930124
30
0
11
-0.300351321611027
21
0.184900888630381
31
0
210
0
220
0
230
1
40
0.479615
41
-1.86916058277444
42
-0.781758788886388
0
ELLIPSE
5
1E8
100
AcDbEntity
8
1
62
256
6
ByLayer
370
13
48
1
60
0
100
AcDbEllipse
10
224.24819
20
8.575704
30
0
11
0.0104671912485892
21
-0.199725906950916
31
0
210
0
220
0
230
1
40
0.995725
41
0.0114035669058503
42
1.26193471909934
0
ELLIPSE
5
1E9
100
AcDbEntity
8
1
62
256
6
ByLayer
370
13
48
1
60
0
100
AcDbEllipse
10
239.581909
20
24.30672
30
0
11
0.148163665863161
21
0.0233993187505447
31
0
210
0
220
0
230
1
40
0.009655
41
0.0919985744760602
42
1.66279490126902
0
ELLIPSE
5
1EA
100
AcDbEntity
8
1
62
256
6
ByLayer
370
13
48
1
60
0
100
AcDbEllipse
10
238.040686
20
17.1793
30
0
11
0.036635169370062
21
-0.699040674328202
31
0
210
0
220
0
230
1
40
0.995725
41
1.38753675533552
42
1.6755160819146
0
ELLIPSE
5
1EB
100
AcDbEntity
8
1
62
256
6
ByLayer
370
13
48
1
60
0
100
AcDbEllipse
10
231.22396
20
16.638491
30
0
11
0.156043507061198
21
-2.9774874874671
31
0
210
0
220
0
230
1
40
0.995725
41
0
42
6.28318530717959
0
ELLIPSE
5
1EC
100
AcDbEntity
8
1
62
256
6
ByLayer
370
13
48
1
60
0
100
AcDbEllipse
10
240.689692
20
17.292276
30
0
11
0.148163665863161
21
0.0233993187505447
31
0
210
0
220
0
230
1
40
0.009655
41
0.0919985744711225
42
1.66279490126864
0
ELLIPSE
5
1ED
100
AcDbEntity
8
1
62
256
6
ByLayer
370
13
48
1
60
0
100
AcDbEllipse
10
224.822528
20
9.415746
30
0
11
0.00523359562429421
21
-0.0998629534754504
31
0
210
0
220
0
230
1
40
0.995725
41
0.761807904943352
42
1.67551608191477
0
ELLIPSE
5
1EE
100
AcDbEntity
8
1
62
256
6
ByLayer
370
13
48
1
60
0
100
AcDbEllipse
10
238.875234
20
17.067924
30
0
11
0.148731686424787
21
-0.0194649801756603
31
0
210
0
220
0
230
1
40
0.016833
41
-2.85804977878792
42
-1.66175841710469
0
ELLIPSE
5
1EF
100
AcDbEntity
8
1
62
256
6
ByLayer
370
13
48
1
60
0
100
AcDbEllipse
10
238.027931
20
10.593697
30
0
11
-0.157381426393963
21
-0.0466723701591067
31
0
210
0
220
0
230
1
40
0.019797
41
-1.48863729009479
42
-0.271936942503989
0
ELLIPSE
5
1F0
100
AcDbEntity
8
1
62
256
6
ByLayer
370
13
48
1
60
0
100
AcDbEllipse
10
224.580523
20
22.691698
30
0
11
-0.0427993177780634
21
-0.158580925155816
31
0
210
0
220
0
230
1
40
0.080206
41
-3.11537766647887
42
-1.54458133969261
0
ELLIPSE
5
1F1
100
AcDbEntity
8
1
62
256
6
ByLayer
370
13
48
1
60
0
100
AcDbEllipse
10
230.984095
20
22.839436
30
0
11
0.010467191248589
21
-0.199725906950915
31
0
210
0
220
0
230
1
40
0.092371
41
1.5707963267949
42
-3.14159265356825
0
ELLIPSE
5
1F2
100
AcDbEntity
8
1
62
256
6
ByLayer
370
13
48
1
60
0
100
AcDbEllipse
10
224.572381
20
16.106337
30
0
11
-0.0366351693700592
21
0.699040674328202
31
0
210
0
220
0
230
1
40
0.995725
41
1.38753675533556
42
1.67551608191464
0
ELLIPSE
5
1F3
100
AcDbEntity
8
1
62
256
6
ByLayer
370
13
48
1
60
0
100
AcDbEllipse
10
236.342123
20
25.243147
30
0
11
-0.0994383168615891
21
1.89739611603369
31
0
210
0
220
0
230
1
40
0.995725
41
-2.37978474864579
42
-1.8796579344901
0
ELLIPSE
5
1F4
100
AcDbEntity
8
1
62
256
6
ByLayer
370
13
48
1
60
0
100
AcDbEllipse
10
239.027179
20
24.220078
30
0
11
-0.0287847759336191
21
0.549246244115039
31
0
210
0
220
0
230
1
40
0.995725
41
-1.46607657167527
42
-0.0773624824590868
0
ELLIPSE
5
1F5
100
AcDbEntity
8
1
62
256
6
ByLayer
370
13
48
1
60
0
100
AcDbEllipse
10
224.827141
20
9.415988
30
0
11
0.00523359562429421
21
-0.0998629534754504
31
0
210
0
220
0
230
1
40
0.995725
41
0.761807904942937
42
1.67551608191391
0
ELLIPSE
5
1F6
100
AcDbEntity
8
1
62
256
6
ByLayer
370
13
48
1
60
0
100
AcDbEllipse
10
238.662904
20
23.021277
30
0
11
0.0994383168615963
21
-1.89739611603368
31
0
210
0
220
0
230
1
40
0.995725
41
3.11423538092921
42
3.13286600732982
0
ELLIPSE
5
1F7
100
AcDbEntity
8
1
62
256
6
ByLayer
370
13
48
1
60
0
100
AcDbEllipse
10
237.974494
20
10.534094
30
0
11
0.00523359562429394
21
-0.0998629534754454
31
0
210
0
220
0
230
1
40
0.995725
41
-1.75405589825289
42
0.104719755120577
0
ELLIPSE
5
1F8
100
AcDbEntity
8
1
62
256
6
ByLayer
370
13
48
1
60
0
100
AcDbEllipse
10
238.618949
20
24.77072
30
0
11
-0.00373239490690377
21
0.149953556904326
31
0
210
0
220
0
230
1
40
0.092336
41
0.0025375354558029
42
1.57333386224946
0
ELLIPSE
5
1F9
100
AcDbEntity
8
1
62
256
6
ByLayer
370
13
48
1
60
0
100
AcDbEllipse
10
240.153411
20
17.206601
30
0
11
0.036635169370062
21
-0.699040674328201
31
0
210
0
220
0
230
1
40
0.995725
41
1.38753675533618
42
1.67551608191529
0
ELLIPSE
5
1FA
100
AcDbEntity
8
1
62
256
6
ByLayer
370
13
48
1
60
0
100
AcDbEllipse
10
223.026546
20
8.978675
30
0
11
-0.148163665863162
21
-0.023399318750537
31
0
210
0
220
0
230
1
40
0.009655
41
-1.47879775232142
42
0.0919985744711225
0
ELLIPSE
5
1FB
100
AcDbEntity
8
1
62
256
6
ByLayer
370
13
48
1
60
0
100
AcDbEllipse
10
238.649067
20
23.020552
30
0
11
-0.0915879234251476
21
1.7476016858205
31
0
210
0
220
0
230
1
40
0.995725
41
-0.0273572726605991
42
-0.00872664626000391
0
ELLIPSE
5
1FC
100
AcDbEntity
8
1
62
256
6
ByLayer
370
13
48
1
60
0
100
AcDbEllipse
10
225.404162
20
24.669913
30
0
11
-0.0942047212372953
21
1.79753316255824
31
0
210
0
220
0
230
1
40
0.995725
41
2.74104825906062
42
3.141592653589
0
ELLIPSE
5
1FD
100
AcDbEntity
8
1
62
256
6
ByLayer
370
13
48
1
60
0
100
AcDbEllipse
10
226.275556
20
8.042731
30
0
11
-0.0942047212372953
21
1.79753316255824
31
0
210
0
220
0
230
1
40
0.995725
41
0
42
1.26193471909819
0
ELLIPSE
5
1FE
100
AcDbEntity
8
1
62
256
6
ByLayer
370
13
48
1
60
0
100
AcDbEllipse
10
224.638574
20
22.751543
30
0
11
0.00523359562429394
21
-0.0998629534754454
31
0
210
0
220
0
230
1
40
0.995725
41
1.38753675533633
42
3.11837220864495
0
ELLIPSE
5
1FF
100
AcDbEntity
8
1
62
256
6
ByLayer
370
13
48
1
60
0
100
AcDbEllipse
10
224.576993
20
16.106579
30
0
11
0.036635169370062
21
-0.699040674328202
31
0
210
0
220
0
230
1
40
0.995725
41
-1.75405589825423
42
-1.46607657167516
0
ELLIPSE
5
200
100
AcDbEntity
8
1
62
256
6
ByLayer
370
13
48
1
60
0
100
AcDbEllipse
10
239.054584
20
24.770622
30
0
11
0.00379960965785709
21
0.149951868832795
31
0
210
0
220
0
230
1
40
0.092094
41
0.00716942110835954
42
1.57796574790525
0
ELLIPSE
5
201
100
AcDbEntity
8
1
62
256
6
ByLayer
370
13
48
1
60
0
100
AcDbEllipse
10
224.296351
20
8.563008
30
0
11
-0.145139532363185
21
0.037875006869912
31
0
210
0
220
0
230
1
40
0.028078
41
1.4826478747345
42
3.05344420152625
0
ELLIPSE
5
202
100
AcDbEntity
8
1
62
256
6
ByLayer
370
13
48
1
60
0
100
AcDbEllipse
10
223.950163
20
10.264359
30
0
11
0.0994383168615963
21
-1.89739611603368
31
0
210
0
220
0
230
1
40
0.995725
41
-0.0273572726613039
42
-0.00872664626074238
0
ELLIPSE
5
203
100
AcDbEntity
8
1
62
256
6
ByLayer
370
13
48
1
60
0
100
AcDbEllipse
10
223.733221
20
16.217471
30
0
11
-0.148731686424786
21
0.0194649801756653
31
0
210
0
220
0
230
1
40
0.016833
41
1.47983423648378
42
3.05063056327851
0
ELLIPSE
5
204
100
AcDbEntity
8
1
62
256
6
ByLayer
370
13
48
1
60
0
100
AcDbEllipse
10
224.609645
20
24.628274
30
0
11
-2.21586684233575
21
1.36412148479699
31
0
210
0
220
0
230
1
40
0.479615
41
1.2724319972986
42
1.31166525869066
0
ELLIPSE
5
205
100
AcDbEntity
8
1
62
256
6
ByLayer
370
13
48
1
60
0
100
AcDbEllipse
10
223.931715
20
10.263393
30
0
11
-0.0915879234251476
21
1.7476016858205
31
0
210
0
220
0
230
1
40
0.995725
41
3.11423538092929
42
3.13286600732984
0
ELLIPSE
5
206
100
AcDbEntity
8
1
62
256
6
ByLayer
370
13
48
1
60
0
100
AcDbEllipse
10
237.213517
20
8.615965
30
0
11
-0.0942047212372953
21
1.79753316255824
31
0
210
0
220
0
230
1
40
0.995725
41
-0.400544394527651
42
7.45308607200772E-13
0
ELLIPSE
5
207
100
AcDbEntity
8
1
62
256
6
ByLayer
370
13
48
1
60
0
100
AcDbEllipse
10
224.925347
20
22.605487
30
0
11
-0.0455100421908779
21
-0.194753269702423
31
0
210
0
220
0
230
1
40
0.088753
41
1.59649677847495
42
-3.11589220188392
0
ELLIPSE
5
208
100
AcDbEntity
8
1
62
256
6
ByLayer
370
13
48
1
60
0
100
AcDbEllipse
10
231.633584
20
10.446443
30
0
11
0.010467191248589
21
-0.199725906950915
31
0
210
0
220
0
230
1
40
0.092371
41
0
42
1.5707963267949
0
ELLIPSE
5
209
100
AcDbEntity
8
1
62
256
6
ByLayer
370
13
48
1
60
0
100
AcDbEllipse
10
224.234354
20
8.574978
30
0
11
-0.00261679781214713
21
0.0499314767377297
31
0
210
0
220
0
230
1
40
0.995725
41
3.13286600732938
42
-1.87965793449045
0
ELLIPSE
5
20A
100
AcDbEntity
8
1
62
256
6
ByLayer
370
13
48
1
60
0
100
AcDbEllipse
10
226.275556
20
8.042731
30
0
11
-0.0994383168615891
21
1.89739611603369
31
0
210
0
220
0
230
1
40
0.995725
41
0.761807904942492
42
1.26193471909816
0
ELLIPSE
5
20B
100
AcDbEntity
8
1
62
256
6
ByLayer
370
13
48
1
60
0
100
AcDbEllipse
10
238.824885
20
16.022783
30
0
11
-0.457939617125739
21
8.73800842910252
31
0
210
0
220
0
230
1
40
0.995725
41
-0.07736248245918
42
-0.0273572726604731
0
ELLIPSE
5
20C
100
AcDbEntity
8
1
62
256
6
ByLayer
370
13
48
1
60
0
100
AcDbEllipse
10
239.425717
20
9.927606
30
0
11
-0.0435637040458651
21
-0.25913963011419
31
0
210
0
220
0
230
1
40
0.947521
41
0.308152981438975
42
1.28542437773578
0
ELLIPSE
5
20D
100
AcDbEntity
8
1
62
256
6
ByLayer
370
13
48
1
60
0
100
AcDbEllipse
10
239.041015
20
24.220803
30
0
11
0.0366351693700632
21
-0.699040674328225
31
0
210
0
220
0
230
1
40
0.995725
41
1.67551608191451
42
3.06423017113068
0
ELLIPSE
5
20E
100
AcDbEntity
8
1
62
256
6
ByLayer
370
13
48
1
60
0
100
AcDbEllipse
10
225.071393
20
9.784388
30
0
11
0.197551554484215
21
0.0311990916673929
31
0
210
0
220
0
230
1
40
0.009655
41
-3.04959407911066
42
-1.47879775232113
0
ELLIPSE
5
20F
100
AcDbEntity
8
1
62
256
6
ByLayer
370
13
48
1
60
0
100
AcDbEllipse
10
224.02195
20
8.515787
30
0
11
0.00653729335064122
21
-0.149857478277354
31
0
210
0
220
0
230
1
40
0.092367
41
-1.56998679074977
42
0.000809536043604682
0
ELLIPSE
5
210
100
AcDbEntity
8
1
62
256
6
ByLayer
370
13
48
1
60
0
100
AcDbEllipse
10
224.08337
20
16.171952
30
0
11
-0.198308915233048
21
0.0259533069008871
31
0
210
0
220
0
230
1
40
0.016833
41
-1.66175841710477
42
-0.0909620903105779
0
ELLIPSE
5
211
100
AcDbEntity
8
1
62
256
6
ByLayer
370
13
48
1
60
0
100
AcDbEllipse
10
240.134962
20
17.205634
30
0
11
-0.0287847759336179
21
0.549246244115015
31
0
210
0
220
0
230
1
40
0.995725
41
-1.75405589825442
42
-1.46607657167532
0
ELLIPSE
5
212
100
AcDbEntity
8
1
62
256
6
ByLayer
370
13
48
1
60
0
100
AcDbEllipse
10
240.691784
20
17.134449
30
0
11
0.148731686424787
21
-0.0194649801756603
31
0
210
0
220
0
230
1
40
0.016833
41
-1.66175841710544
42
-0.0909620903084588
0
ELLIPSE
5
213
100
AcDbEntity
8
1
62
256
6
ByLayer
370
13
48
1
60
0
100
AcDbEllipse
10
236.660053
20
8.58696
30
0
11
0.0942047212373022
21
-1.79753316255823
31
0
210
0
220
0
230
1
40
0.995725
41
2.08803488229784
42
2.74715904466464
0
ELLIPSE
5
214
100
AcDbEntity
8
1
62
256
6
ByLayer
370
13
48
1
60
0
100
AcDbEllipse
10
238.843333
20
16.02375
30
0
11
0.465790010562217
21
-8.88780285931571
31
0
210
0
220
0
230
1
40
0.995725
41
3.06423017113141
42
3.11423538093012
0
ELLIPSE
5
215
100
AcDbEntity
8
1
62
256
6
ByLayer
370
13
48
1
60
0
100
AcDbEllipse
10
239.874155
20
10.886955
30
0
11
0.00785039343644175
21
-0.149794430213184
31
0
210
0
220
0
230
1
40
0.995725
41
0.104719755119138
42
1.38753675533548
0
ELLIPSE
5
216
100
AcDbEntity
8
1
62
256
6
ByLayer
370
13
48
1
60
0
100
AcDbEllipse
10
237.790539
20
23.869891
30
0
11
0.00523359562429421
21
-0.0998629534754504
31
0
210
0
220
0
230
1
40
0.995725
41
-2.37978474864597
42
-1.46607657167445
0
ELLIPSE
5
217
100
AcDbEntity
8
1
62
256
6
ByLayer
370
13
48
1
60
0
100
AcDbEllipse
10
222.734299
20
22.39844
30
0
11
-0.148731686424786
21
0.0194649801756653
31
0
210
0
220
0
230
1
40
0.016833
41
-0.0909620903084588
42
1.47983423647422
0
ELLIPSE
5
218
100
AcDbEntity
8
1
62
256
6
ByLayer
370
13
48
1
60
0
100
AcDbEllipse
10
231.327288
20
16.643906
30
0
11
0.164592752017141
21
-3.14061679904831
31
0
210
0
220
0
230
1
40
0.995725
41
0
42
6.28318530717959
0
ELLIPSE
5
219
100
AcDbEntity
8
1
62
256
6
ByLayer
370
13
48
1
60
0
100
AcDbEllipse
10
225.071393
20
9.784388
30
0
11
0.010467191248589
21
-0.199725906950915
31
0
210
0
220
0
230
1
40
0.995725
41
-1.46607657167604
42
-1.72590776202412E-05
0
ELLIPSE
5
21A
100
AcDbEntity
8
1
62
256
6
ByLayer
370
13
48
1
60
0
100
AcDbEllipse
10
238.358082
20
24.759644
30
0
11
-0.00653729335064151
21
0.149857478277354
31
0
210
0
220
0
230
1
40
0.092367
41
0.000809536045784252
42
1.57160586284002
0
ELLIPSE
5
21B
100
AcDbEntity
8
1
62
256
6
ByLayer
370
13
48
1
60
0
100
AcDbEllipse
10
240.148799
20
17.206359
30
0
11
0.036635169370062
21
-0.699040674328201
31
0
210
0
220
0
230
1
40
0.995725
41
1.3875367553354
42
1.67551608191451
0
ELLIPSE
5
21C
100
AcDbEntity
8
1
62
256
6
ByLayer
370
13
48
1
60
0
100
AcDbEllipse
10
223.774346
20
17.262129
30
0
11
0.465790010562217
21
-8.88780285931571
31
0
210
0
220
0
230
1
40
0.995725
41
-0.0773624824599183
42
-0.0273572726612029
0
ELLIPSE
5
21D
100
AcDbEntity
8
1
62
256
6
ByLayer
370
13
48
1
60
0
100
AcDbEllipse
10
239.874155
20
10.886955
30
0
11
0.148731686424787
21
-0.0194649801756603
31
0
210
0
220
0
230
1
40
0.016833
41
-1.66175841709595
42
-0.0909620903112785
0
ELLIPSE
5
21E
100
AcDbEntity
8
1
62
256
6
ByLayer
370
13
48
1
60
0
100
AcDbEllipse
10
239.880274
20
10.899002
30
0
11
-0.0435637040541811
21
-0.259139630111666
31
0
210
0
220
0
230
1
40
0.947521
41
0.308152981469394
42
1.60922962168213
0
ELLIPSE
5
21F
100
AcDbEntity
8
1
62
256
6
ByLayer
370
13
48
1
60
0
100
AcDbEllipse
10
237.692333
20
10.680392
30
0
11
0.010467191248589
21
-0.199725906950915
31
0
210
0
220
0
230
1
40
0.995725
41
-0.280778212086603
42
2.11747654885941E-05
0
ELLIPSE
5
220
100
AcDbEntity
8
1
62
256
6
ByLayer
370
13
48
1
60
0
100
AcDbEllipse
10
221.91667
20
16.150946
30
0
11
-0.148731686424786
21
0.0194649801756653
31
0
210
0
220
0
230
1
40
0.016833
41
-0.0909620903098601
42
1.47983423648435
0
ELLIPSE
5
221
100
AcDbEntity
8
1
62
256
6
ByLayer
370
13
48
1
60
0
100
AcDbEllipse
10
222.464268
20
16.079278
30
0
11
0.036635169370062
21
-0.699040674328201
31
0
210
0
220
0
230
1
40
0.995725
41
-1.75405589825514
42
-1.46607657167606
0
ELLIPSE
5
222
100
AcDbEntity
8
1
62
256
6
ByLayer
370
13
48
1
60
0
100
AcDbEllipse
10
237.546286
20
23.501491
30
0
11
-0.114373860315982
21
0.164068949153764
31
0
210
0
220
0
230
1
40
0.07853
41
-1.61960141451337
42
-0.0488050877213259
0
ELLIPSE
5
223
100
AcDbEntity
8
1
62
256
6
ByLayer
370
13
48
1
60
0
100
AcDbEllipse
10
235.788659
20
25.214141
30
0
11
0.0942047212373027
21
-1.79753316255824
31
0
210
0
220
0
230
1
40
0.995725
41
0
42
0.40054439452918
0
ELLIPSE
5
224
100
AcDbEntity
8
1
62
256
6
ByLayer
370
13
48
1
60
0
100
AcDbEllipse
10
238.31092
20
24.724157
30
0
11
0.01276905231255
21
-0.24364803254851
31
0
210
0
220
0
230
1
40
0.995725
41
-2.96705972838956
42
-1.87965793448973
0
ELLIPSE
5
225
100
AcDbEntity
8
1
62
256
6
ByLayer
370
13
48
1
60
0
100
AcDbEllipse
10
238.364877
20
24.709933
30
0
11
0.0104671912485892
21
-0.199725906950916
31
0
210
0
220
0
230
1
40
0.995725
41
3.13286600733052
42
-1.87965793448986
0
ELLIPSE
5
226
100
AcDbEntity
8
1
62
256
6
ByLayer
370
13
48
1
60
0
100
AcDbEllipse
10
238.667516
20
23.021519
30
0
11
0.0994383168615963
21
-1.89739611603368
31
0
210
0
220
0
230
1
40
0.995725
41
3.11423538093001
42
3.13286600733058
0
ELLIPSE
5
227
100
AcDbEntity
8
1
62
256
6
ByLayer
370
13
48
1
60
0
100
AcDbEllipse
10
231.249051
20
16.639806
30
0
11
0.161488764830072
21
-3.08138919525488
31
0
210
0
220
0
230
1
40
0.995725
41
-0.853733431166171
42
0
0
ELLIPSE
5
228
100
AcDbEntity
8
1
62
256
6
ByLayer
370
13
48
1
60
0
100
AcDbEllipse
10
231.249051
20
16.639806
30
0
11
0.161488764830072
21
-3.08138919525488
31
0
210
0
220
0
230
1
40
0.995725
41
0
42
-2.28787053660726
0
ELLIPSE
5
229
100
AcDbEntity
8
1
62
256
6
ByLayer
370
13
48
1
60
0
100
AcDbEllipse
10
239.500707
20
0.13034
30
0
11
-0.0104179278929615
21
0.505574944382937
31
0
210
0
220
0
230
1
40
0.10238
41
-0.115068312086784
42
0.230541926791241
0
ELLIPSE
5
22A
100
AcDbEntity
8
1
62
256
6
ByLayer
370
13
48
1
60
0
100
AcDbEllipse
10
224.254478
20
10.540379
30
0
11
0.136073486231659
21
-2.59643679036189
31
0
210
0
220
0
230
1
40
0.995725
41
-2.08239418575106
42
-0.581932527432344
0
ELLIPSE
5
22B
100
AcDbEntity
8
1
62
256
6
ByLayer
370
13
48
1
60
0
100
AcDbEllipse
10
239.604857
20
0.139445
30
0
11
-0.0208358558085461
21
1.01114988969583
31
0
210
0
220
0
230
1
40
0.10238
41
-0.115068312034451
42
1.06863759084689
0
ELLIPSE
5
22C
100
AcDbEntity
8
1
62
256
6
ByLayer
370
13
48
1
60
0
100
AcDbEllipse
10
1633.437075
20
-0.621708
30
0
11
-1534.48377209473
21
0.692096756262204
31
0
210
0
220
0
230
1
40
0.040465
41
-0.400020538405161
42
-0.394970370373891
0
ELLIPSE
5
22D
100
AcDbEntity
8
1
62
256
6
ByLayer
370
13
48
1
60
0
100
AcDbEllipse
10
238.519383
20
-14.936883
30
0
11
-0.296812741380841
21
-2.48492524165485
31
0
210
0
220
0
230
1
40
0.117945
41
0
42
6.28318530717959
0
ELLIPSE
5
22E
100
AcDbEntity
8
1
62
256
6
ByLayer
370
13
48
1
60
0
100
AcDbEllipse
10
891.410902
20
0
30
0
11
-1026.76054007108
21
18.035794666253
31
0
210
0
220
0
230
1
40
0.015969
41
0.858471262561663
42
0.880632961751845
0
ELLIPSE
5
22F
100
AcDbEntity
8
1
62
256
6
ByLayer
370
13
48
1
60
0
100
AcDbEllipse
10
225.628304
20
9.980952
30
0
11
0.0261679781214729
21
-0.499314767377287
31
0
210
0
220
0
230
1
40
0.092371
41
-1.0059478256034
42
-0.630730776736715
0
ELLIPSE
5
230
100
AcDbEntity
8
1
62
256
6
ByLayer
370
13
48
1
60
0
100
AcDbEllipse
10
226.879362
20
9.376159
30
0
11
-0.318392676571171
21
-0.395166625668382
31
0
210
0
220
0
230
1
40
0.966608
41
-2.12586228212152
42
-1.28979794433155
0
ELLIPSE
5
231
100
AcDbEntity
8
1
62
256
6
ByLayer
370
13
48
1
60
0
100
AcDbEllipse
10
246.918609
20
0
30
0
11
-48.6895648627996
21
20.211947868105
31
0
210
0
220
0
230
1
40
0.270523
41
0.735465033887167
42
0.948438704584892
0
ELLIPSE
5
232
100
AcDbEntity
8
1
62
256
6
ByLayer
370
13
48
1
60
0
100
AcDbEllipse
10
217
20
2.105884
30
0
11
-0.494213580978826
21
13.9658712384869
31
0
210
0
220
0
230
1
40
0.356262
41
-0.537159898450595
42
-0.376825501033253
0
ELLIPSE
5
233
100
AcDbEntity
8
1
62
256
6
ByLayer
370
13
48
1
60
0
100
AcDbEllipse
10
223.546634
20
17.276304
30
0
11
-0.471023606186475
21
8.98766581279117
31
0
210
0
220
0
230
1
40
0.995725
41
2.79252680319577
42
3.02206401946906
0
ELLIPSE
5
234
100
AcDbEntity
8
1
62
256
6
ByLayer
370
13
48
1
60
0
100
AcDbEllipse
10
245.091475
20
0.671665
30
0
11
-6.03298606580299
21
-0.0274444765647682
31
0
210
0
220
0
230
1
40
0.989518
41
0.0281275690869576
42
0.151729555879449
0
ELLIPSE
5
235
100
AcDbEntity
8
1
62
256
6
ByLayer
370
13
48
1
60
0
100
AcDbEllipse
10
221.020675
20
8.675084
30
0
11
-0.29369042064903
21
-0.95590058940195
31
0
210
0
220
0
230
1
40
0.0868
41
-1.53907871771949
42
-0.951275232142026
0
ELLIPSE
5
236
100
AcDbEntity
8
1
62
256
6
ByLayer
370
13
48
1
60
0
100
AcDbEllipse
10
239.064124
20
10.014736
30
0
11
-0.0185252648787364
21
1.00039514090242
31
0
210
0
220
0
230
1
40
0.105082
41
-3.13803492354501
42
-2.58648494127079
0
ELLIPSE
5
237
100
AcDbEntity
8
1
62
256
6
ByLayer
370
13
48
1
60
0
100
AcDbEllipse
10
236.965057
20
9.904728
30
0
11
-0.0261679781214708
21
0.499314767377286
31
0
210
0
220
0
230
1
40
0.995725
41
-0.990362103391461
42
-0.927295220884967
0
ELLIPSE
5
238
100
AcDbEntity
8
1
62
256
6
ByLayer
370
13
48
1
60
0
100
AcDbEllipse
10
217
20
6.02319
30
0
11
-4.99935456796365
21
0.096770035954864
31
0
210
0
220
0
230
1
40
0.830178
41
1.80131604886455
42
1.9320629249954
0
ELLIPSE
5
239
100
AcDbEntity
8
1
62
256
6
ByLayer
370
13
48
1
60
0
100
AcDbEllipse
10
232.002789
20
-6.05919
30
0
11
2
21
0
31
0
210
0
220
0
230
1
40
0.994968
41
0.748680827309777
42
2.93110619154483
0
ELLIPSE
5
23A
100
AcDbEntity
8
1
62
256
6
ByLayer
370
13
48
1
60
0
100
AcDbEllipse
10
223.111055
20
9.178671
30
0
11
-3.96879667761342
21
-0.704906653259157
31
0
210
0
220
0
230
1
40
0.015321
41
-3.01817314081733
42
-2.71671454019059
0
ELLIPSE
5
23B
100
AcDbEntity
8
1
62
256
6
ByLayer
370
13
48
1
60
0
100
AcDbEllipse
10
226.793937
20
8.856032
30
0
11
0.353010790461904
21
-0.935619250452587
31
0
210
0
220
0
230
1
40
0.088046
41
-1.59884006173132
42
-0.0280437349361244
0
ELLIPSE
5
23C
100
AcDbEntity
8
1
62
256
6
ByLayer
370
13
48
1
60
0
100
AcDbEllipse
10
230.074424
20
9.543606
30
0
11
0.0523359562429457
21
-0.998629534754574
31
0
210
0
220
0
230
1
40
0.092371
41
-1.5707963267949
42
0
0
ELLIPSE
5
23D
100
AcDbEntity
8
1
62
256
6
ByLayer
370
13
48
1
60
0
100
AcDbEllipse
10
239.456093
20
0
30
0
11
-4.12947786179016
21
24.3723895430911
31
0
210
0
220
0
230
1
40
0.086386
41
1.60382739455454
42
1.72705542575726
0
ELLIPSE
5
23E
100
AcDbEntity
8
1
62
256
6
ByLayer
370
13
48
1
60
0
100
AcDbEllipse
10
223.664116
20
10.50944
30
0
11
-0.109905508110177
21
2.0971220229846
31
0
210
0
220
0
230
1
40
0.995725
41
2.21256348620495
42
2.71619434556739
0
ELLIPSE
5
23F
100
AcDbEntity
8
1
62
256
6
ByLayer
370
13
48
1
60
0
100
AcDbEllipse
10
223.664116
20
10.50944
30
0
11
-0.109905508110177
21
2.0971220229846
31
0
210
0
220
0
230
1
40
0.995725
41
-2.74205116609534
42
-2.08304175457691
0
ELLIPSE
5
240
100
AcDbEntity
8
1
62
256
6
ByLayer
370
13
48
1
60
0
100
AcDbEllipse
10
239.268769
20
-14.349729
30
0
11
-0.0643378446651269
21
-0.516044130818899
31
0
210
0
220
0
230
1
40
0.11245
41
-1.63756361315639
42
-0.0667672863637667
0
ELLIPSE
5
241
100
AcDbEntity
8
1
62
256
6
ByLayer
370
13
48
1
60
0
100
AcDbEllipse
10
217
20
6.980472
30
0
11
-3
21
3.03191716524709E-15
31
0
210
0
220
0
230
1
40
0.760019
41
-3.02232669705396
42
-1.69910946691985
0
ELLIPSE
5
242
100
AcDbEntity
8
1
62
256
6
ByLayer
370
13
48
1
60
0
100
AcDbEllipse
10
223.444576
20
0
30
0
11
-1.28851265973859
21
24.3747077194566
31
0
210
0
220
0
230
1
40
0.092638
41
-0.116832703529276
42
-0.00489794805811922
0
ELLIPSE
5
243
100
AcDbEntity
8
1
62
256
6
ByLayer
370
13
48
1
60
0
100
AcDbEllipse
10
239.64187
20
9.492095
30
0
11
-0.0190690707688405
21
-0.501607026762641
31
0
210
0
220
0
230
1
40
0.195483
41
-0.786740978468054
42
-0.331356153712766
0
ELLIPSE
5
244
100
AcDbEntity
8
1
62
256
6
ByLayer
370
13
48
1
60
0
100
AcDbEllipse
10
183.706793
20
0
30
0
11
-263.118211952342
21
0.119365071457565
31
0
210
0
220
0
230
1
40
0.092638
41
-1.77481723669144
42
-1.72291695622388
0
ELLIPSE
5
245
100
AcDbEntity
8
1
62
256
6
ByLayer
370
13
48
1
60
0
100
AcDbEllipse
10
227.120892
20
9.388817
30
0
11
-0.0261679781214709
21
0.499314767377288
31
0
210
0
220
0
230
1
40
0.995725
41
0.927295218001729
42
1.13806179252791
0
ELLIPSE
5
246
100
AcDbEntity
8
1
62
256
6
ByLayer
370
13
48
1
60
0
100
AcDbEllipse
10
243.370438
20
2.297379
30
0
11
-5.81865085473077
21
-2.03847196742764
31
0
210
0
220
0
230
1
40
0.865324
41
-0.379448139898738
42
-0.231896070472815
0
ELLIPSE
5
247
100
AcDbEntity
8
1
62
256
6
ByLayer
370
13
48
1
60
0
100
AcDbEllipse
10
230.557876
20
-1.446154
30
0
11
0.575695518672402
21
-10.9849248823003
31
0
210
0
220
0
230
1
40
0.995725
41
-3.14159265358978
42
-2.83440246605355
0
ELLIPSE
5
248
100
AcDbEntity
8
1
62
256
6
ByLayer
370
13
48
1
60
0
100
AcDbEllipse
10
224.056594
20
10.530008
30
0
11
-1.65564191789654
21
-2.05486645354633
31
0
210
0
220
0
230
1
40
0.966608
41
1.54124461033637
42
1.85179470916965
0
ELLIPSE
5
249
100
AcDbEntity
8
1
62
256
6
ByLayer
370
13
48
1
60
0
100
AcDbEllipse
10
239.453762
20
11.737489
30
0
11
0.136073486231659
21
-2.59643679036189
31
0
210
0
220
0
230
1
40
0.995725
41
-0.990362103391472
42
-0.858139698776703
0
ELLIPSE
5
24A
100
AcDbEntity
8
1
62
256
6
ByLayer
370
13
48
1
60
0
100
AcDbEllipse
10
223.710238
20
10.511857
30
0
11
0.136073486231659
21
-2.59643679036189
31
0
210
0
220
0
230
1
40
0.995725
41
0.0555653949272871
42
1.07574208457343
0
ELLIPSE
5
24B
100
AcDbEntity
8
1
62
256
6
ByLayer
370
13
48
1
60
0
100
AcDbEllipse
10
221.487208
20
11.915106
30
0
11
-0.026167978121471
21
0.49931476737729
31
0
210
0
220
0
230
1
40
0.995725
41
-2.08239418575108
42
-1.46607657167526
0
ELLIPSE
5
24C
100
AcDbEntity
8
1
62
256
6
ByLayer
370
13
48
1
60
0
100
AcDbEllipse
10
223.90823
20
16.373618
30
0
11
0.136073486231659
21
-2.59643679036189
31
0
210
0
220
0
230
1
40
0.995725
41
-2.20424198809736
42
-1.46607657167525
0
ELLIPSE
5
24D
100
AcDbEntity
8
1
62
256
6
ByLayer
370
13
48
1
60
0
100
AcDbEllipse
10
232.002789
20
-6.55013
30
0
11
2
21
0
31
0
210
0
220
0
230
1
40
0.994968
41
2.46487375809153
42
2.7533109986667
0
ELLIPSE
5
24E
100
AcDbEntity
8
1
62
256
6
ByLayer
370
13
48
1
60
0
100
AcDbEllipse
10
253.088026
20
-1.5E-05
30
0
11
-260.419649546733
21
0.118143110381794
31
0
210
0
220
0
230
1
40
0.092638
41
-1.43214574470141
42
-1.41529660773836
0
ELLIPSE
5
24F
100
AcDbEntity
8
1
62
256
6
ByLayer
370
13
48
1
60
0
100
AcDbEllipse
10
223.546634
20
17.276304
30
0
11
-0.471023606186475
21
8.98766581279117
31
0
210
0
220
0
230
1
40
0.995725
41
-2.91693381338444
42
-2.83440246605355
0
ELLIPSE
5
250
100
AcDbEntity
8
1
62
256
6
ByLayer
370
13
48
1
60
0
100
AcDbEllipse
10
223.39719
20
10.495451
30
0
11
-2.29348548687324
21
1.84790145595141
31
0
210
0
220
0
230
1
40
0.775936
41
3.05283506783503
42
-2.77958348578618
0
ELLIPSE
5
251
100
AcDbEntity
8
1
62
256
6
ByLayer
370
13
48
1
60
0
100
AcDbEllipse
10
239.590332
20
8.461926
30
0
11
-0.0092626324324158
21
0.500197570299532
31
0
210
0
220
0
230
1
40
0.105082
41
1.92341990723385
42
-2.78896907314498
0
ELLIPSE
5
252
100
AcDbEntity
8
1
62
256
6
ByLayer
370
13
48
1
60
0
100
AcDbEllipse
10
224.254478
20
10.540379
30
0
11
0.136073486231659
21
-2.59643679036189
31
0
210
0
220
0
230
1
40
0.995725
41
0.687062733516958
42
1.13806179252794
0
ELLIPSE
5
253
100
AcDbEntity
8
1
62
256
6
ByLayer
370
13
48
1
60
0
100
AcDbEllipse
10
230.867064
20
9.585146
30
0
11
-3.96879667422295
21
-0.704906652643209
31
0
210
0
220
0
230
1
40
0.015321
41
-3.0181731410508
42
-2.71671454000751
0
ELLIPSE
5
254
100
AcDbEntity
8
1
62
256
6
ByLayer
370
13
48
1
60
0
100
AcDbEllipse
10
233.491694
20
12.626677
30
0
11
-1.65564191860604
21
-2.05486645301858
31
0
210
0
220
0
230
1
40
0.966608
41
0.713732916970632
42
1.07490334535686
0
ELLIPSE
5
255
100
AcDbEntity
8
1
62
256
6
ByLayer
370
13
48
1
60
0
100
AcDbEllipse
10
234.635371
20
9.782634
30
0
11
-0.318389178408234
21
-0.395170057786229
31
0
210
0
220
0
230
1
40
0.966609
41
-2.12587187581714
42
-2.06669894670764
0
ELLIPSE
5
256
100
AcDbEntity
8
1
62
256
6
ByLayer
370
13
48
1
60
0
100
AcDbEllipse
10
239.30569
20
11.729729
30
0
11
-0.0795374649946163
21
2.59922638437748
31
0
210
0
220
0
230
1
40
0.530013
41
2.96010556773284
42
-3.1300535077657
0
ELLIPSE
5
257
100
AcDbEntity
8
1
62
256
6
ByLayer
370
13
48
1
60
0
100
AcDbEllipse
10
232.002789
20
-6.05919
30
0
11
-2.1
21
2.12234201567296E-15
31
0
210
0
220
0
230
1
40
0.994968
41
-2.75586412898459
42
-0.300905793326409
0
ELLIPSE
5
258
100
AcDbEntity
8
1
62
256
6
ByLayer
370
13
48
1
60
0
100
AcDbEllipse
10
222.604447
20
20.629546
30
0
11
-0.143594274749999
21
2.73994198413694
31
0
210
0
220
0
230
1
40
0.016833
41
0.326127687984487
42
0.83682963272212
0
ELLIPSE
5
259
100
AcDbEntity
8
1
62
256
6
ByLayer
370
13
48
1
60
0
100
AcDbEllipse
10
239.530865
20
-1.992168
30
0
11
-2.21013690495311
21
3.45788699429457
31
0
210
0
220
0
230
1
40
0.396026
41
-0.996034737765184
42
-0.852695049342906
0
ELLIPSE
5
25A
100
AcDbEntity
8
1
62
256
6
ByLayer
370
13
48
1
60
0
100
AcDbEllipse
10
241.59197
20
0
30
0
11
-2.97681034213686
21
-24.3725566549659
31
0
210
0
220
0
230
1
40
0.115936
41
-1.3120176026332
42
-0.081688035385063
0
ELLIPSE
5
25B
100
AcDbEntity
8
1
62
256
6
ByLayer
370
13
48
1
60
0
100
AcDbEllipse
10
253.087811
20
0.000145
30
0
11
-263.117414893288
21
0.119347036776315
31
0
210
0
220
0
230
1
40
0.092638
41
-1.45396400209053
42
-1.44507777385762
0
ELLIPSE
5
25C
100
AcDbEntity
8
1
62
256
6
ByLayer
370
13
48
1
60
0
100
AcDbEllipse
10
230.65012
20
-1.441319
30
0
11
-0.523359562429416
21
9.98629534754574
31
0
210
0
220
0
230
1
40
0.995725
41
0
42
0.307190187536245
0
ELLIPSE
5
25D
100
AcDbEntity
8
1
62
256
6
ByLayer
370
13
48
1
60
0
100
AcDbEllipse
10
234.097669
20
-7.00015
30
0
11
-6.03298604568109
21
-0.0274443859328362
31
0
210
0
220
0
230
1
40
0.989518
41
3.00689888017009
42
-2.98986308260186
0
ELLIPSE
5
25E
100
AcDbEntity
8
1
62
256
6
ByLayer
370
13
48
1
60
0
100
AcDbEllipse
10
223.638878
20
17.281138
30
0
11
0.523359562429457
21
-9.98629534754574
31
0
210
0
220
0
230
1
40
0.995725
41
2.58851807902259E-06
42
0.307190187536245
0
POINT
5
70
100
AcDbEntity
8
1
62
256
6
ByLayer
370
18
48
1
60
0
100
AcDbPoint
10
0
20
0
30
0
39
0
210
0
220
0
230
1
50
360
0
POINT
5
72
100
AcDbEntity
8
80
62
256
6
ByLayer
370
18
48
1
60
0
100
AcDbPoint
10
0
20
0
30
0
39
0
210
0
220
0
230
1
50
360
0
POINT
5
74
100
AcDbEntity
8
81
62
256
6
ByLayer
370
18
48
1
60
0
100
AcDbPoint
10
241
20
0
30
0
39
0
210
0
220
0
230
1
50
360
0
POINT
5
76
100
AcDbEntity
8
1
62
256
6
ByLayer
370
18
48
1
60
1
100
AcDbPoint
10
0
20
-31.25
30
0
39
0
210
0
220
0
230
1
50
360
0
POINT
5
77
100
AcDbEntity
8
1
62
256
6
ByLayer
370
18
48
1
60
1
100
AcDbPoint
10
241
20
-25
30
0
39
0
210
0
220
0
230
1
50
360
0
POINT
5
78
100
AcDbEntity
8
1
62
256
6
ByLayer
370
18
48
1
60
1
100
AcDbPoint
10
-80
20
-25
30
0
39
0
210
0
220
0
230
1
50
360
0
POINT
5
79
100
AcDbEntity
8
1
62
256
6
ByLayer
370
18
48
1
60
1
100
AcDbPoint
10
0
20
-31.25
30
0
39
0
210
0
220
0
230
1
50
360
0
POINT
5
7A
100
AcDbEntity
8
1
62
256
6
ByLayer
370
18
48
1
60
1
100
AcDbPoint
10
241
20
-25
30
0
39
0
210
0
220
0
230
1
50
360
0
POINT
5
7B
100
AcDbEntity
8
1
62
256
6
ByLayer
370
18
48
1
60
1
100
AcDbPoint
10
5.798
20
-31.25
30
0
39
0
210
0
220
0
230
1
50
360
0
POINT
5
7C
100
AcDbEntity
8
1
62
256
6
ByLayer
370
18
48
1
60
1
100
AcDbPoint
10
36
20
-25
30
0
39
0
210
0
220
0
230
1
50
360
0
POINT
5
7D
100
AcDbEntity
8
1
62
256
6
ByLayer
370
18
48
1
60
1
100
AcDbPoint
10
241
20
-25
30
0
39
0
210
0
220
0
230
1
50
360
0
POINT
5
7E
100
AcDbEntity
8
1
62
256
6
ByLayer
370
18
48
1
60
1
100
AcDbPoint
10
239.7234
20
-12.5
30
0
39
0
210
0
220
0
230
1
50
360
0
SPLINE
5
25F
100
AcDbEntity
8
SK1
62
256
6
ByLayer
370
13
48
1
60
0
100
AcDbSpline
70
4
71
3
72
8
73
4
40
0
40
0
40
0
40
0
40
1
40
1
40
1
40
1
41
1
10
-77.6338131992799
20
9.80675144594619
30
0
41
1
10
-77.2939543866941
20
10.101073698597
30
0
41
1
10
-76.9490850005699
20
10.3886250228495
30
0
41
1
10
-76.6000022063887
20
10.6704826507521
30
0
0
SPLINE
5
260
100
AcDbEntity
8
SK1
62
256
6
ByLayer
370
13
48
1
60
0
100
AcDbSpline
70
4
71
3
72
8
73
4
40
0
40
0
40
0
40
0
40
1
40
1
40
1
40
1
41
1
10
-79
20
-10.6704826507519
30
0
41
1
10
-79.3663118043068
20
-9.81238370995035
30
0
41
1
10
-79.7021882940637
20
-8.9413126460914
30
0
41
1
10
-80
20
-8.05401763097143
30
0
0
SPLINE
5
261
100
AcDbEntity
8
SK1
62
256
6
ByLayer
370
13
48
1
60
0
100
AcDbSpline
70
4
71
3
72
18
73
14
40
0
40
0
40
0
40
0
40
0.124999999999994
40
0.124999999999994
40
0.249999999999988
40
0.249999999999988
40
0.374999999999981
40
0.374999999999981
40
0.499999999999975
40
0.499999999999975
40
0.749999999999988
40
0.749999999999988
40
1
40
1
40
1
40
1
41
1
10
-77.6338131992802
20
-9.80675144594582
30
0
41
1
10
-77.6747633651724
20
-9.77128805754603
30
0
41
1
10
-77.7208435774768
20
-9.74055738411698
30
0
41
1
10
-77.8223424340443
20
-9.70060949890774
30
0
41
1
10
-77.877225313581
20
-9.69229190808377
30
0
41
1
10
-77.9860246497556
20
-9.70510854686367
30
0
41
1
10
-78.0378757025226
20
-9.72573581195073
30
0
41
1
10
-78.1301404068999
20
-9.78251362708679
30
0
41
1
10
-78.1717204994047
20
-9.81892837813635
30
0
41
1
10
-78.2826414870913
20
-9.93741839107241
30
0
41
1
10
-78.3411195831128
20
-10.0300646017818
30
0
41
1
10
-78.4407354299096
20
-10.2228684878255
30
0
41
1
10
-78.4816839215995
20
-10.3239961106508
30
0
41
1
10
-78.5162221138915
20
-10.4258292340309
30
0
0
SPLINE
5
262
100
AcDbEntity
8
SK1
62
256
6
ByLayer
370
13
48
1
60
0
100
AcDbSpline
70
4
71
3
72
10
73
6
40
0
40
0
40
0
40
0
40
0.5
40
0.5
40
1
40
1
40
1
40
1
41
1
10
-80
20
8.0540176309716
30
0
41
1
10
-79.85176739512
20
8.49565927489135
30
0
41
1
10
-79.6935189817436
20
8.93491944720282
30
0
41
1
10
-79.3587118244384
20
9.80908612108971
30
0
41
1
10
-79.1828143207057
20
10.2422333475178
30
0
41
1
10
-79
20
10.6704826507521
30
0
0
SPLINE
5
263
100
AcDbEntity
8
SK1
62
256
6
ByLayer
370
13
48
1
60
0
100
AcDbSpline
70
4
71
3
72
8
73
4
40
0
40
0
40
0
40
0
40
1
40
1
40
1
40
1
41
1
10
-78.5999993841624
20
10.6704826507521
30
0
41
1
10
-78.571842816211
20
10.5890315497
30
0
41
1
10
-78.5439155289718
20
10.5074810741399
30
0
41
1
10
-78.5162221138982
20
10.4258292340508
30
0
0
SPLINE
5
264
100
AcDbEntity
8
SK1
62
256
6
ByLayer
370
13
48
1
60
0
100
AcDbSpline
70
4
71
3
72
22
73
18
40
0
40
0
40
0
40
0
40
0.250000000000013
40
0.250000000000013
40
0.375000000000011
40
0.375000000000011
40
0.500000000000009
40
0.500000000000009
40
0.625000000000006
40
0.625000000000006
40
0.687500000000005
40
0.687500000000005
40
0.750000000000004
40
0.750000000000004
40
0.875000000000002
40
0.875000000000002
40
1
40
1
40
1
40
1
41
1
10
-78.5162221138982
20
10.4258292340508
30
0
41
1
10
-78.4816010925007
20
10.3237518956136
30
0
41
1
10
-78.4411780188043
20
10.2239013321123
30
0
41
1
10
-78.3666785250411
20
10.0794467030181
30
0
41
1
10
-78.3393689035363
20
10.0320610579929
30
0
41
1
10
-78.2793566754053
20
9.94200016242738
30
0
41
1
10
-78.2466129799402
20
9.89906478118272
30
0
41
1
10
-78.1725895963645
20
9.81972659981167
30
0
41
1
10
-78.1310790894698
20
9.78319125007499
30
0
41
1
10
-78.0614135112523
20
9.74017151629326
30
0
41
1
10
-78.0367084860757
20
9.72773410304424
30
0
41
1
10
-77.9859900462305
20
9.70877612675764
30
0
41
1
10
-77.9597650984162
20
9.70209114959093
30
0
41
1
10
-77.8779326920127
20
9.69222679373803
30
0
41
1
10
-77.8229289559465
20
9.7004005561752
30
0
41
1
10
-77.720518632779
20
9.74066343125068
30
0
41
1
10
-77.6749703009745
20
9.77110884838677
30
0
41
1
10
-77.6338131992791
20
9.80675144594503
30
0
0
SPLINE
5
265
100
AcDbEntity
8
SK1
62
256
6
ByLayer
370
13
48
1
60
0
100
AcDbSpline
70
4
71
3
72
8
73
4
40
0
40
0
40
0
40
0
40
1
40
1
40
1
40
1
41
1
10
-76.6000022063887
20
-10.6704826507519
30
0
41
1
10
-76.9486457469478
20
-10.3889796865166
30
0
41
1
10
-77.2935001928291
20
-10.1014670365259
30
0
41
1
10
-77.6338131992803
20
-9.80675144594593
30
0
0
SPLINE
5
266
100
AcDbEntity
8
1
62
256
6
ByLayer
370
18
48
1
60
0
100
AcDbSpline
70
4
71
3
72
16
73
12
40
0
40
0
40
0
40
0
40
0.250000000000035
40
0.250000000000035
40
0.50000000000007
40
0.50000000000007
40
0.750000000000105
40
0.750000000000105
40
0.875000000000053
40
0.875000000000053
40
1
40
1
40
1
40
1
41
1
10
230.372483063471
20
18.0476642477359
30
0
41
1
10
230.409435001323
20
18.0717588046517
30
0
41
1
10
230.44827856788
20
18.0928821822975
30
0
41
1
10
230.528953573387
20
18.1276043524519
30
0
41
1
10
230.570749651169
20
18.1412911993837
30
0
41
1
10
230.655866590762
20
18.1562496609813
30
0
41
1
10
230.699393808063
20
18.1579175227055
30
0
41
1
10
230.757452543835
20
18.1391477784856
30
0
41
1
10
230.77493140804
20
18.1290074048159
30
0
41
1
10
230.800368721666
20
18.1010191199375
30
0
41
1
10
230.808118862218
20
18.0833050925265
30
0
41
1
10
230.810760871616
20
18.064229372699
30
0
0
SPLINE
5
267
100
AcDbEntity
8
1
62
256
6
ByLayer
370
18
48
1
60
0
100
AcDbSpline
70
4
71
3
72
8
73
4
40
0
40
0
40
0
40
0
40
1
40
1
40
1
40
1
41
1
10
232.709386233797
20
16.3288065658198
30
0
41
1
10
232.716349168566
20
16.3293179568155
30
0
41
1
10
232.723311372122
20
16.3298292900549
30
0
41
1
10
232.730272871665
20
16.3303405676926
30
0
0
SPLINE
5
268
100
AcDbEntity
8
1
62
256
6
ByLayer
370
18
48
1
60
0
100
AcDbSpline
70
4
71
3
72
8
73
4
40
0
40
0
40
0
40
0
40
1
40
1
40
1
40
1
41
1
10
231.733964367534
20
15.2178257697524
30
0
41
1
10
231.729885089837
20
15.2233194413483
30
0
41
1
10
231.725805476292
20
15.2288138243958
30
0
41
1
10
231.721725514053
20
15.2343089466434
30
0
0
SPLINE
5
269
100
AcDbEntity
8
1
62
256
6
ByLayer
370
18
48
1
60
0
100
AcDbSpline
70
4
71
3
72
8
73
4
40
0
40
0
40
0
40
0
40
1
40
1
40
1
40
1
41
1
10
230.276054115443
20
15.5285127732854
30
0
41
1
10
230.278595393736
20
15.5344998544245
30
0
41
1
10
230.281137181871
20
15.540487710042
30
0
41
1
10
230.283679499969
20
15.546476370343
30
0
0
SPLINE
5
26A
100
AcDbEntity
8
1
62
256
6
ByLayer
370
18
48
1
60
0
100
AcDbSpline
70
4
71
3
72
8
73
4
40
0
40
0
40
0
40
0
40
1
40
1
40
1
40
1
41
1
10
230.970458718403
20
15.1949367222342
30
0
41
1
10
230.967656812173
20
15.189080936543
30
0
41
1
10
230.964855470349
20
15.1832259379051
30
0
41
1
10
230.962054671517
20
15.1773716967771
30
0
0
SPLINE
5
26B
100
AcDbEntity
8
1
62
256
6
ByLayer
370
18
48
1
60
0
100
AcDbSpline
70
4
71
3
72
8
73
4
40
0
40
0
40
0
40
0
40
1
40
1
40
1
40
1
41
1
10
232.268671123706
20
17.753542369166
30
0
41
1
10
232.265447958307
20
17.7475195518379
30
0
41
1
10
232.262224566419
20
17.7414959748814
30
0
41
1
10
232.259000939456
20
17.7354716086958
30
0
0
SPLINE
5
26C
100
AcDbEntity
8
1
62
256
6
ByLayer
370
18
48
1
60
0
100
AcDbSpline
70
4
71
3
72
16
73
12
40
0
40
0
40
0
40
0
40
0.250000000000036
40
0.250000000000036
40
0.500000000000072
40
0.500000000000072
40
0.750000000000108
40
0.750000000000108
40
0.875000000000054
40
0.875000000000054
40
1
40
1
40
1
40
1
41
1
10
232.19139152639
20
15.235394469661
30
0
41
1
10
232.154439588538
20
15.2112999127452
30
0
41
1
10
232.115403044618
20
15.1901664215843
30
0
41
1
10
232.033847917886
20
15.155398126231
30
0
41
1
10
231.991377322638
20
15.1416759293368
30
0
41
1
10
231.903977237058
20
15.1265978131281
30
0
41
1
10
231.858887127736
20
15.1248480437039
30
0
41
1
10
231.796781762244
20
15.1434057130466
30
0
41
1
10
231.777657553873
20
15.1534598578824
30
0
41
1
10
231.748481052846
20
15.1812521802528
30
0
41
1
10
231.738654169569
20
15.1988573701895
30
0
41
1
10
231.733964367534
20
15.2178257697524
30
0
0
SPLINE
5
26D
100
AcDbEntity
8
1
62
256
6
ByLayer
370
18
48
1
60
0
100
AcDbSpline
70
4
71
3
72
16
73
12
40
0
40
0
40
0
40
0
40
0.12500000000005
40
0.12500000000005
40
0.2500000000001
40
0.2500000000001
40
0.500000000000067
40
0.500000000000067
40
0.750000000000033
40
0.750000000000033
40
1
40
1
40
1
40
1
41
1
10
231.582670567632
20
18.1046834456743
30
0
41
1
10
231.585361945435
20
18.1241103677969
30
0
41
1
10
231.593355250091
20
18.1427458857224
30
0
41
1
10
231.61972457386
20
18.1735594426711
30
0
41
1
10
231.637993288717
20
18.1855934699988
30
0
41
1
10
231.697418652211
20
18.2101637201903
30
0
41
1
10
231.742410862011
20
18.2131794142439
30
0
41
1
10
231.830710243336
20
18.207313833653
30
0
41
1
10
231.874414328412
20
18.1981053868983
30
0
41
1
10
231.959061690115
20
18.1720843405578
30
0
41
1
10
232.000187401149
20
18.1551112809814
30
0
41
1
10
232.039428321854
20
18.1350251469141
30
0
0
SPLINE
5
26E
100
AcDbEntity
8
1
62
256
6
ByLayer
370
18
48
1
60
0
100
AcDbSpline
70
4
71
3
72
16
73
12
40
0
40
0
40
0
40
0
40
0.250000000000029
40
0.250000000000029
40
0.500000000000058
40
0.500000000000058
40
0.750000000000086
40
0.750000000000086
40
0.875000000000043
40
0.875000000000043
40
1
40
1
40
1
40
1
41
1
10
229.614992036548
20
16.5541684595202
30
0
41
1
10
229.612675896122
20
16.5983630515695
30
0
41
1
10
229.613814370227
20
16.6427974875973
30
0
41
1
10
229.62393806668
20
16.7307081960846
30
0
41
1
10
229.632833133387
20
16.7741924500338
30
0
41
1
10
229.661836441895
20
16.8566686470385
30
0
41
1
10
229.681718556935
20
16.8960190492437
30
0
41
1
10
229.725807485412
20
16.9388286907532
30
0
41
1
10
229.742835786187
20
16.9496503065923
30
0
41
1
10
229.778660069136
20
16.9593458151551
30
0
41
1
10
229.797241188744
20
16.9580983181054
30
0
41
1
10
229.814452367484
20
16.9517145747588
30
0
0
SPLINE
5
26F
100
AcDbEntity
8
1
62
256
6
ByLayer
370
18
48
1
60
0
100
AcDbSpline
70
4
71
3
72
18
73
14
40
0
40
0
40
0
40
0
40
0.124999999999967
40
0.124999999999967
40
0.249999999999934
40
0.249999999999934
40
0.499999999999948
40
0.499999999999948
40
0.749999999999963
40
0.749999999999963
40
0.874999999999981
40
0.874999999999981
40
1
40
1
40
1
40
1
41
1
10
232.668878086185
20
17.1017480673697
30
0
41
1
10
232.635414151083
20
17.1006967320028
30
0
41
1
10
232.602203594124
20
17.1104863017072
30
0
41
1
10
232.539090266042
20
17.1397420230986
30
0
41
1
10
232.509390834018
20
17.1593475735337
30
0
41
1
10
232.426058967271
20
17.2264699303848
30
0
41
1
10
232.377883760266
20
17.2823367314813
30
0
41
1
10
232.299034981342
20
17.4044322848922
30
0
41
1
10
232.268588518887
20
17.4702265515169
30
0
41
1
10
232.242953430791
20
17.5712741780847
30
0
41
1
10
232.237757487755
20
17.6057642923928
30
0
41
1
10
232.238130198256
20
17.672910613593
30
0
41
1
10
232.243460427307
20
17.7064292483417
30
0
41
1
10
232.259000939456
20
17.7354716086958
30
0
0
SPLINE
5
270
100
AcDbEntity
8
1
62
256
6
ByLayer
370
18
48
1
60
0
100
AcDbSpline
70
4
71
3
72
16
73
12
40
0
40
0
40
0
40
0
40
0.124999999999995
40
0.124999999999995
40
0.249999999999991
40
0.249999999999991
40
0.499999999999994
40
0.499999999999994
40
0.749999999999997
40
0.749999999999997
40
1
40
1
40
1
40
1
41
1
10
232.730272871665
20
16.3303405676926
30
0
41
1
10
232.749603701477
20
16.3240407262294
30
0
41
1
10
232.770379911955
20
16.3229122040986
30
0
41
1
10
232.810165866619
20
16.3329818993535
30
0
41
1
10
232.82899739937
20
16.3441457367915
30
0
41
1
10
232.876613911858
20
16.3869740112182
30
0
41
1
10
232.89808502549
20
16.4263563885059
30
0
41
1
10
232.929283837687
20
16.5087757371134
30
0
41
1
10
232.938865890144
20
16.5523244043408
30
0
41
1
10
232.949859798379
20
16.6401812058755
30
0
41
1
10
232.95119709191
20
16.6847262305475
30
0
41
1
10
232.948882553313
20
16.7288902578767
30
0
0
SPLINE
5
271
100
AcDbEntity
8
1
62
256
6
ByLayer
370
18
48
1
60
0
100
AcDbSpline
70
4
71
3
72
16
73
12
40
0
40
0
40
0
40
0
40
0.249999999999972
40
0.249999999999972
40
0.499999999999944
40
0.499999999999944
40
0.749999999999917
40
0.749999999999917
40
0.874999999999958
40
0.874999999999958
40
1
40
1
40
1
40
1
41
1
10
232.948882553313
20
16.7288902578767
30
0
41
1
10
232.946566412887
20
16.773084849926
30
0
41
1
10
232.940596534786
20
16.8171467530003
30
0
41
1
10
232.920459004514
20
16.9034715377965
30
0
41
1
10
232.906392806205
20
16.9457524428367
30
0
41
1
10
232.86664412474
20
17.0246255007257
30
0
41
1
10
232.841194796913
20
17.0616001826785
30
0
41
1
10
232.78882593644
20
17.0993546856746
30
0
41
1
10
232.769114407438
20
17.1082508486238
30
0
41
1
10
232.728733729648
20
17.1139526244239
30
0
41
1
10
232.708308055582
20
17.1106608679409
30
0
41
1
10
232.689810651724
20
17.1024057170788
30
0
0
SPLINE
5
272
100
AcDbEntity
8
1
62
256
6
ByLayer
370
18
48
1
60
0
100
AcDbSpline
70
4
71
3
72
8
73
4
40
0
40
0
40
0
40
0
40
1
40
1
40
1
40
1
41
1
10
230.810760871616
20
18.064229372699
30
0
41
1
10
230.814158262207
20
18.0586999649142
30
0
41
1
10
230.817556271998
20
18.0531698605275
30
0
41
1
10
230.820954925372
20
18.0476390323954
30
0
0
SPLINE
5
273
100
AcDbEntity
8
1
62
256
6
ByLayer
370
18
48
1
60
0
100
AcDbSpline
70
4
71
3
72
16
73
12
40
0
40
0
40
0
40
0
40
0.124999999999985
40
0.124999999999985
40
0.249999999999969
40
0.249999999999969
40
0.499999999999979
40
0.499999999999979
40
0.74999999999999
40
0.74999999999999
40
1
40
1
40
1
40
1
41
1
10
230.165222535483
20
17.6433052998212
30
0
41
1
10
230.150375209176
20
17.6545001300844
30
0
41
1
10
230.138868202608
20
17.6698963228195
30
0
41
1
10
230.126495886057
20
17.7066641181576
30
0
41
1
10
230.125697614139
20
17.7278758056768
30
0
41
1
10
230.135290280817
20
17.7901672336426
30
0
41
1
10
230.155595735046
20
17.8301462735625
30
0
41
1
10
230.205390370863
20
17.9030470329116
30
0
41
1
10
230.235350580086
20
17.936164793282
30
0
41
1
10
230.300320362058
20
17.9963931239044
30
0
41
1
10
230.335556681363
20
18.0235863544741
30
0
41
1
10
230.372483063471
20
18.0476642477359
30
0
0
SPLINE
5
274
100
AcDbEntity
8
1
62
256
6
ByLayer
370
18
48
1
60
0
100
AcDbSpline
70
4
71
3
72
16
73
12
40
0
40
0
40
0
40
0
40
0.250000000000004
40
0.250000000000004
40
0.500000000000009
40
0.500000000000009
40
0.750000000000013
40
0.750000000000013
40
0.875000000000007
40
0.875000000000007
40
1
40
1
40
1
40
1
41
1
10
232.039428321854
20
18.1350251469141
30
0
41
1
10
232.078696400131
20
18.1149251117805
30
0
41
1
10
232.116305003902
20
18.091608996641
30
0
41
1
10
232.186416252344
20
18.0383973957088
30
0
41
1
10
232.218980004685
20
18.0085823137101
30
0
41
1
10
232.273952062777
20
17.9410047509975
30
0
41
1
10
232.296815719027
20
17.9032812566665
30
0
41
1
10
232.308762211463
20
17.8415958334985
30
0
41
1
10
232.308390102809
20
17.8205907295728
30
0
41
1
10
232.296133539786
20
17.7828089548776
30
0
41
1
10
232.284264189368
20
17.7662880057791
30
0
41
1
10
232.268671123706
20
17.753542369166
30
0
0
SPLINE
5
275
100
AcDbEntity
8
1
62
256
6
ByLayer
370
18
48
1
60
0
100
AcDbSpline
70
4
71
3
72
18
73
14
40
0
40
0
40
0
40
0
40
0.125
40
0.125
40
0.25
40
0.25
40
0.5
40
0.5
40
0.75
40
0.75
40
0.875
40
0.875
40
1
40
1
40
1
40
1
41
1
10
230.820954925372
20
18.0476390323954
30
0
41
1
10
230.83723643454
20
18.0211431768227
30
0
41
1
10
230.862372290311
20
18.0010641609881
30
0
41
1
10
230.919096512
20
17.9689572483696
30
0
41
1
10
230.950698449704
20
17.9571653049194
30
0
41
1
10
231.049744908582
20
17.9308612933384
30
0
41
1
10
231.12164798585
20
17.9251930377407
30
0
41
1
10
231.266189659956
20
17.932781457168
30
0
41
1
10
231.338558847821
20
17.9459599773914
30
0
41
1
10
231.439523700454
20
17.9828164081386
30
0
41
1
10
231.47185601554
20
17.9980094627856
30
0
41
1
10
231.529757311698
20
18.0360592464822
30
0
41
1
10
231.555526947086
20
18.058773804529
30
0
41
1
10
231.572221721022
20
18.0870112568045
30
0
0
SPLINE
5
276
100
AcDbEntity
8
1
62
256
6
ByLayer
370
18
48
1
60
0
100
AcDbSpline
70
4
71
3
72
18
73
14
40
0
40
0
40
0
40
0
40
0.124999999999989
40
0.124999999999989
40
0.249999999999978
40
0.249999999999978
40
0.499999999999983
40
0.499999999999983
40
0.749999999999988
40
0.749999999999988
40
0.874999999999994
40
0.874999999999994
40
1
40
1
40
1
40
1
41
1
10
230.283679499969
20
15.546476370343
30
0
41
1
10
230.295858669442
20
15.5751655059693
30
0
41
1
10
230.298362886116
20
15.6082015257214
30
0
41
1
10
230.293809249384
20
15.6755510371316
30
0
41
1
10
230.286559945026
20
15.709748817603
30
0
41
1
10
230.25581299604
20
15.8110137552129
30
0
41
1
10
230.22340345536
20
15.8770561702307
30
0
41
1
10
230.144534512531
20
15.9989752842343
30
0
41
1
10
230.098269232864
20
16.0546608562916
30
0
41
1
10
230.01984167711
20
16.1220739712715
30
0
41
1
10
229.992171550623
20
16.141779303018
30
0
41
1
10
229.934235574726
20
16.1711570580545
30
0
41
1
10
229.903983073949
20
16.1810795537524
30
0
41
1
10
229.873802353241
20
16.1801999116691
30
0
0
SPLINE
5
277
100
AcDbEntity
8
1
62
256
6
ByLayer
370
18
48
1
60
0
100
AcDbSpline
70
4
71
3
72
8
73
4
40
0
40
0
40
0
40
0
40
1
40
1
40
1
40
1
41
1
10
232.689810651724
20
17.1024057170788
30
0
41
1
10
232.682833844938
20
17.1021865190349
30
0
41
1
10
232.675856332184
20
17.1019673026986
30
0
41
1
10
232.668878086185
20
17.1017480673697
30
0
0
SPLINE
5
278
100
AcDbEntity
8
1
62
256
6
ByLayer
370
18
48
1
60
0
100
AcDbSpline
70
4
71
3
72
8
73
4
40
0
40
0
40
0
40
0
40
1
40
1
40
1
40
1
41
1
10
232.367996584875
20
15.6557108000846
30
0
41
1
10
232.371832270212
20
15.6500563967799
30
0
41
1
10
232.375667639265
20
15.6444027538088
30
0
41
1
10
232.379502703666
20
15.6387498426302
30
0
0
SPLINE
5
279
100
AcDbEntity
8
1
62
256
6
ByLayer
370
18
48
1
60
0
100
AcDbSpline
70
4
71
3
72
16
73
12
40
0
40
0
40
0
40
0
40
0.12500000000005
40
0.12500000000005
40
0.250000000000101
40
0.250000000000101
40
0.500000000000067
40
0.500000000000067
40
0.750000000000034
40
0.750000000000034
40
1
40
1
40
1
40
1
41
1
10
230.962054671517
20
15.1773716967771
30
0
41
1
10
230.961418727008
20
15.1580524953489
30
0
41
1
10
230.955513666982
20
15.139526417687
30
0
41
1
10
230.932902208196
20
15.108909802097
30
0
41
1
10
230.916290140622
20
15.0969625959744
30
0
41
1
10
230.860864259418
20
15.0726019497679
30
0
41
1
10
230.817438682479
20
15.0696683594636
30
0
41
1
10
230.731415949525
20
15.0756532541398
30
0
41
1
10
230.688387385212
20
15.0848971034375
30
0
41
1
10
230.60461930186
20
15.1109642308038
30
0
41
1
10
230.563687188712
20
15.1279474364154
30
0
41
1
10
230.524446268007
20
15.1480335704828
30
0
0
SPLINE
5
27A
100
AcDbEntity
8
1
62
256
6
ByLayer
370
18
48
1
60
0
100
AcDbSpline
70
4
71
3
72
16
73
12
40
0
40
0
40
0
40
0
40
0.25
40
0.25
40
0.5
40
0.5
40
0.75
40
0.75
40
0.875
40
0.875
40
1
40
1
40
1
40
1
41
1
10
230.524446268007
20
15.1480335704828
30
0
41
1
10
230.48517818973
20
15.1681336056163
30
0
41
1
10
230.447376608596
20
15.1914396072408
30
0
41
1
10
230.376385238929
20
15.2446050829742
30
0
41
1
10
230.343146969121
20
15.2743848150103
30
0
41
1
10
230.285891765043
20
15.341842723112
30
0
41
1
10
230.261465216772
20
15.3794843097429
30
0
41
1
10
230.245472094617
20
15.4409576580337
30
0
41
1
10
230.244198859104
20
15.4618765331255
30
0
41
1
10
230.252716234726
20
15.4994623453127
30
0
41
1
10
230.26250884242
20
15.5158744569369
30
0
41
1
10
230.276054115443
20
15.5285127732854
30
0
0
SPLINE
5
27B
100
AcDbEntity
8
1
62
256
6
ByLayer
370
18
48
1
60
0
100
AcDbSpline
70
4
71
3
72
8
73
4
40
0
40
0
40
0
40
0
40
1
40
1
40
1
40
1
41
1
10
229.814452367484
20
16.9517145747588
30
0
41
1
10
229.820731979922
20
16.9521901162075
30
0
41
1
10
229.827012579724
20
16.9526657281079
30
0
41
1
10
229.833294205629
20
16.953141413219
30
0
0
SPLINE
5
27C
100
AcDbEntity
8
1
62
256
6
ByLayer
370
18
48
1
60
0
100
AcDbSpline
70
4
71
3
72
8
73
4
40
0
40
0
40
0
40
0
40
1
40
1
40
1
40
1
41
1
10
229.873802353241
20
16.1801999116691
30
0
41
1
10
229.867505416107
20
16.1800163822248
30
0
41
1
10
229.861209507106
20
16.1798328872276
30
0
41
1
10
229.854914587425
20
16.1796494253725
30
0
0
SPLINE
5
27D
100
AcDbEntity
8
1
62
256
6
ByLayer
370
18
48
1
60
0
100
AcDbSpline
70
4
71
3
72
18
73
14
40
0
40
0
40
0
40
0
40
0.124999999999956
40
0.124999999999956
40
0.249999999999911
40
0.249999999999911
40
0.499999999999913
40
0.499999999999913
40
0.749999999999914
40
0.749999999999914
40
0.874999999999957
40
0.874999999999957
40
1
40
1
40
1
40
1
41
1
10
231.721725514053
20
15.2343089466434
30
0
41
1
10
231.702180142611
20
15.2606337504424
30
0
41
1
10
231.674154617537
20
15.2805613251259
30
0
41
1
10
231.612439777223
20
15.3124066905051
30
0
41
1
10
231.578761234383
20
15.3240898036916
30
0
41
1
10
231.474709034171
20
15.3501314754857
30
0
41
1
10
231.401100325295
20
15.3557103427185
30
0
41
1
10
231.256560950158
20
15.3481220437751
30
0
41
1
10
231.185889233689
20
15.3350324842579
30
0
41
1
10
231.089941163335
20
15.2984389719292
30
0
41
1
10
231.059692463783
20
15.2833551149452
30
0
41
1
10
231.006771949533
20
15.2455663629675
30
0
41
1
10
230.983888032938
20
15.2230030390342
30
0
41
1
10
230.970458718403
20
15.1949367222343
30
0
0
SPLINE
5
27E
100
AcDbEntity
8
1
62
256
6
ByLayer
370
18
48
1
60
0
100
AcDbSpline
70
4
71
3
72
16
73
12
40
0
40
0
40
0
40
0
40
0.124999999999958
40
0.124999999999958
40
0.249999999999915
40
0.249999999999915
40
0.499999999999943
40
0.499999999999943
40
0.749999999999972
40
0.749999999999972
40
1
40
1
40
1
40
1
41
1
10
229.854914587425
20
16.1796494253725
30
0
41
1
10
229.838403599963
20
16.1714711938605
30
0
41
1
10
229.819947411053
20
16.1682865888018
30
0
41
1
10
229.783084703225
20
16.1743392978705
30
0
41
1
10
229.764846040091
20
16.1835603686646
30
0
41
1
10
229.71701308442
20
16.2213863484314
30
0
41
1
10
229.693109645279
20
16.2583907461723
30
0
41
1
10
229.655743223957
20
16.3372167431551
30
0
41
1
10
229.642337108486
20
16.3795606515515
30
0
41
1
10
229.62309916793
20
16.4658330690274
30
0
41
1
10
229.617306575144
20
16.5100044321911
30
0
41
1
10
229.614992036548
20
16.5541684595202
30
0
0
SPLINE
5
27F
100
AcDbEntity
8
1
62
256
6
ByLayer
370
18
48
1
60
0
100
AcDbSpline
70
4
71
3
72
18
73
14
40
0
40
0
40
0
40
0
40
0.125000000000027
40
0.125000000000027
40
0.250000000000053
40
0.250000000000053
40
0.500000000000035
40
0.500000000000035
40
0.750000000000018
40
0.750000000000018
40
0.875000000000009
40
0.875000000000009
40
1
40
1
40
1
40
1
41
1
10
229.833294205629
20
16.953141413219
30
0
41
1
10
229.863386815406
20
16.9554202191595
30
0
41
1
10
229.892471722503
20
16.9684529436526
30
0
41
1
10
229.947137616773
20
17.0038263160638
30
0
41
1
10
229.972528552686
20
17.026286568217
30
0
41
1
10
230.043330933246
20
17.1013786641392
30
0
41
1
10
230.083677285638
20
17.1617975177418
30
0
41
1
10
230.149348867431
20
17.2913049909307
30
0
41
1
10
230.17460403993
20
17.3601246028583
30
0
41
1
10
230.19463294567
20
17.4642626893762
30
0
41
1
10
230.198253326502
20
17.4991064769382
30
0
41
1
10
230.195728255809
20
17.5664034998119
30
0
41
1
10
230.189802531023
20
17.5989649364998
30
0
41
1
10
230.17468385455
20
17.6262371789542
30
0
0
SPLINE
5
280
100
AcDbEntity
8
1
62
256
6
ByLayer
370
18
48
1
60
0
100
AcDbSpline
70
4
71
3
72
8
73
4
40
0
40
0
40
0
40
0
40
1
40
1
40
1
40
1
41
1
10
231.572221721022
20
18.0870112568045
30
0
41
1
10
231.575704936117
20
18.0929027483804
30
0
41
1
10
231.579187881695
20
18.0987934683573
30
0
41
1
10
231.582670567632
20
18.1046834456743
30
0
0
SPLINE
5
281
100
AcDbEntity
8
1
62
256
6
ByLayer
370
18
48
1
60
0
100
AcDbSpline
70
4
71
3
72
16
73
12
40
0
40
0
40
0
40
0
40
0.124999999999998
40
0.124999999999998
40
0.249999999999997
40
0.249999999999997
40
0.499999999999998
40
0.499999999999998
40
0.749999999999999
40
0.749999999999999
40
1
40
1
40
1
40
1
41
1
10
232.379502703666
20
15.6387498426302
30
0
41
1
10
232.396405463267
20
15.6276627330614
30
0
41
1
10
232.410000714465
20
15.6123759805899
30
0
41
1
10
232.426130896
20
15.5758051266104
30
0
41
1
10
232.4285858152
20
15.5546802602963
30
0
41
1
10
232.422992630811
20
15.4925984363157
30
0
41
1
10
232.404253809444
20
15.452701500145
30
0
41
1
10
232.356735821998
20
15.3799200548812
30
0
41
1
10
232.327451133537
20
15.3468376970539
30
0
41
1
10
232.263360629917
20
15.2866554474572
30
0
41
1
10
232.228317908498
20
15.2594723629228
30
0
41
1
10
232.19139152639
20
15.235394469661
30
0
0
SPLINE
5
282
100
AcDbEntity
8
1
62
256
6
ByLayer
370
18
48
1
60
0
100
AcDbSpline
70
4
71
3
72
8
73
4
40
0
40
0
40
0
40
0
40
1
40
1
40
1
40
1
41
1
10
230.17468385455
20
17.6262371789542
30
0
41
1
10
230.171529478078
20
17.6319272881435
30
0
41
1
10
230.168375712779
20
17.6376166524537
30
0
41
1
10
230.165222535483
20
17.6433052998212
30
0
0
SPLINE
5
283
100
AcDbEntity
8
1
62
256
6
ByLayer
370
18
48
1
60
0
100
AcDbSpline
70
4
71
3
72
20
73
16
40
0
40
0
40
0
40
0
40
0.124999999999997
40
0.124999999999997
40
0.249999999999995
40
0.249999999999995
40
0.374999999999992
40
0.374999999999992
40
0.499999999999989
40
0.499999999999989
40
0.749999999999995
40
0.749999999999995
40
0.874999999999997
40
0.874999999999997
40
1
40
1
40
1
40
1
41
1
10
232.367996584875
20
15.6557108000846
30
0
41
1
10
232.349539847223
20
15.6829189335001
30
0
41
1
10
232.340703764333
20
15.7156024364537
30
0
41
1
10
232.333282355908
20
15.782867783797
30
0
41
1
10
232.334865245712
20
15.8173308911866
30
0
41
1
10
232.344872306323
20
15.8863580386815
30
0
41
1
10
232.353441604393
20
15.9210166748062
30
0
41
1
10
232.375736728929
20
15.9883280013565
30
0
41
1
10
232.389538754432
20
16.0213528301117
30
0
41
1
10
232.43875825694
20
16.1186266428602
30
0
41
1
10
232.480823844108
20
16.1792769093887
30
0
41
1
10
232.556850686083
20
16.2549083964467
30
0
41
1
10
232.584416319433
20
16.2775458092247
30
0
41
1
10
232.644004410264
20
16.3131445661684
30
0
41
1
10
232.6759747606
20
16.3263526685603
30
0
41
1
10
232.709386233797
20
16.3288065658198
30
0
0
SPLINE
5
284
100
AcDbEntity
8
1
62
256
6
ByLayer
370
18
48
1
60
0
100
AcDbSpline
70
4
71
1
72
4
73
2
40
0
40
0
40
1
40
1
41
1
10
240.94647198747
20
-7.78643445009078
30
0
41
1
10
240.979329005062
20
-7.53811644073124
30
0
0
SPLINE
5
285
100
AcDbEntity
8
1
62
256
6
ByLayer
370
18
48
1
60
0
100
AcDbSpline
70
4
71
1
72
4
73
2
40
0
40
0
40
1
40
1
41
1
10
239.436047913269
20
0.137213405404452
30
0
41
1
10
239.856297980866
20
-0.120681316012622
30
0
0
SPLINE
5
286
100
AcDbEntity
8
1
62
256
6
ByLayer
370
18
48
1
60
0
100
AcDbSpline
70
4
71
1
72
4
73
2
40
0
40
0
40
1
40
1
41
1
10
239.66195257828
20
-13.8677171615588
30
0
41
1
10
240.051245754537
20
-14.5521366463974
30
0
0
SPLINE
5
287
100
AcDbEntity
8
1
62
256
6
ByLayer
370
18
48
1
60
0
100
AcDbSpline
70
4
71
1
72
4
73
2
40
0
40
0
40
1
40
1
41
1
10
239.353368705936
20
-14.9628873470548
30
0
41
1
10
239.260180841409
20
-14.1939882685135
30
0
0
SPLINE
5
288
100
AcDbEntity
8
1
62
256
6
ByLayer
370
18
48
1
60
0
100
AcDbSpline
70
4
71
1
72
4
73
2
40
0
40
0
40
1
40
1
41
1
10
240.990160650672
20
-7.20513051952554
30
0
41
1
10
240.974066489792
20
-7.1040272956113
30
0
0
SPLINE
5
289
100
AcDbEntity
8
1
62
256
6
ByLayer
370
18
48
1
60
0
100
AcDbSpline
70
4
71
3
72
12
73
8
40
0
40
0
40
0
40
0
40
0.441018845871321
40
0.441018845871321
40
0.72034648132418
40
0.72034648132418
40
1
40
1
40
1
40
1
41
1
10
239.856297981121
20
-0.120681316898327
30
0
41
1
10
239.860257764503
20
-0.134420710484932
30
0
41
1
10
239.863846795816
20
-0.14827128987605
30
0
41
1
10
239.869091215185
20
-0.171028774034426
30
0
41
1
10
239.870974030335
20
-0.179890424487638
30
0
41
1
10
239.874436272996
20
-0.197680330092169
30
0
41
1
10
239.876015848842
20
-0.206611244669432
30
0
41
1
10
239.877441505814
20
-0.215565136678208
30
0
0
SPLINE
5
28A
100
AcDbEntity
8
1
62
256
6
ByLayer
370
18
48
1
60
0
100
AcDbSpline
70
4
71
1
72
4
73
2
40
0
40
0
40
1
40
1
41
1
10
240.051245754537
20
-14.5521366463975
30
0
41
1
10
240.886152638493
20
-8.24229994736683
30
0
0
SPLINE
5
28B
100
AcDbEntity
8
1
62
256
6
ByLayer
370
18
48
1
60
0
100
AcDbSpline
70
4
71
3
72
10
73
6
40
0
40
0
40
0
40
0
40
0.77187630226612
40
0.77187630226612
40
1
40
1
40
1
40
1
41
1
10
239.755386996144
20
0.229464269995532
30
0
41
1
10
239.781350090255
20
0.13937486122731
30
0
41
1
10
239.807315083139
20
0.0492843822277393
30
0
41
1
10
239.840951084251
20
-0.0674302529048987
30
0
41
1
10
239.848624288296
20
-0.0940556469426781
30
0
41
1
10
239.856297980866
20
-0.120681316012849
30
0
0
SPLINE
5
28C
100
AcDbEntity
8
1
62
256
6
ByLayer
370
18
48
1
60
0
100
AcDbSpline
70
4
71
1
72
4
73
2
40
0
40
0
40
1
40
1
41
1
10
240.979329005062
20
-7.53811644073124
30
0
41
1
10
240.993165867275
20
-7.43354389178461
30
0
0
SPLINE
5
28D
100
AcDbEntity
8
1
62
256
6
ByLayer
370
18
48
1
60
0
100
AcDbSpline
70
4
71
3
72
12
73
8
40
0
40
0
40
0
40
0
40
0.500000000000078
40
0.500000000000078
40
0.750000000000039
40
0.750000000000039
40
1
40
1
40
1
40
1
41
1
10
239.464705210966
20
0.478830291153741
30
0
41
1
10
239.531820335448
20
0.46998054625044
30
0
41
1
10
239.59605529801
20
0.441099785284763
30
0
41
1
10
239.673063730689
20
0.375269166493609
30
0
41
1
10
239.695509450663
20
0.349535025322837
30
0
41
1
10
239.731901573916
20
0.292802085774696
30
0
41
1
10
239.745314905159
20
0.261706843066946
30
0
41
1
10
239.75546523272
20
0.22955174720741
30
0
0
SPLINE
5
28E
100
AcDbEntity
8
1
62
256
6
ByLayer
370
18
48
1
60
0
100
AcDbSpline
70
4
71
1
72
4
73
2
40
0
40
0
40
1
40
1
41
1
10
240.886152638493
20
-8.24229994736683
30
0
41
1
10
240.94647198747
20
-7.78643445009078
30
0
0
SPLINE
5
28F
100
AcDbEntity
8
1
62
256
6
ByLayer
370
18
48
1
60
0
100
AcDbSpline
70
4
71
3
72
8
73
4
40
0
40
0
40
0
40
0
40
1
40
1
40
1
40
1
41
1
10
240.999943169459
20
-7.31922936102254
30
0
41
1
10
241.000415193705
20
-7.35510585953455
30
0
41
1
10
240.997984280194
20
-7.39087086322996
30
0
41
1
10
240.994156289436
20
-7.42657186950609
30
0
0
SPLINE
5
290
100
AcDbEntity
8
1
62
256
6
ByLayer
370
18
48
1
60
0
100
AcDbSpline
70
4
71
3
72
12
73
8
40
0
40
0
40
0
40
0
40
0.115853403420039
40
0.268292501687788
40
0.420731599955536
40
0.49695114908941
40
1
40
1
40
1
40
1
41
1
10
240.096209218327
20
-6.69165751449643
30
0
41
1
10
240.100577986911
20
-6.71915491266998
30
0
41
1
10
240.11129109538
20
-6.78235399089593
30
0
41
1
10
240.132038650367
20
-6.87841106135929
30
0
41
1
10
240.134870955084
20
-6.94706848737843
30
0
41
1
10
240.113289470378
20
-7.11882264160172
30
0
41
1
10
240.09593652876
20
-7.25534956461323
30
0
41
1
10
240.080693372458
20
-7.37424095005957
30
0
0
SPLINE
5
291
100
AcDbEntity
8
1
62
256
6
ByLayer
370
18
48
1
60
0
100
AcDbSpline
70
4
71
1
72
4
73
2
40
0
40
0
40
1
40
1
41
1
10
239.464704534183
20
0.478744448907889
30
0
41
1
10
239.060814845331
20
0.531649976394789
30
0
0
SPLINE
5
292
100
AcDbEntity
8
1
62
256
6
ByLayer
370
18
48
1
60
0
100
AcDbSpline
70
4
71
1
72
4
73
2
40
0
40
0
40
1
40
1
41
1
10
239.755461960478
20
0.229472463646175
30
0
41
1
10
239.420025499437
20
0.19280903936621
30
0
0
SPLINE
5
293
100
AcDbEntity
8
1
62
256
6
ByLayer
370
18
48
1
60
0
100
AcDbSpline
70
4
71
1
72
4
73
2
40
0
40
0
40
1
40
1
41
1
10
240.863960107944
20
-6.41234102120362
30
0
41
1
10
239.877532521845
20
-0.21562098963841
30
0
0
SPLINE
5
294
100
AcDbEntity
8
1
62
256
6
ByLayer
370
18
48
1
60
0
100
AcDbSpline
70
4
71
1
72
4
73
2
40
0
40
0
40
1
40
1
41
1
10
239.800713127587
20
-14.8414310260023
30
0
41
1
10
239.41141995135
20
-14.157011541162
30
0
0
SPLINE
5
295
100
AcDbEntity
8
1
62
256
6
ByLayer
370
18
48
1
60
0
100
AcDbSpline
70
4
71
1
72
4
73
2
40
0
40
0
40
1
40
1
41
1
10
239.355543154031
20
-14.1729533326401
30
0
41
1
10
239.448710351016
20
-14.9416818819616
30
0
0
SPLINE
5
296
100
AcDbEntity
8
1
62
256
6
ByLayer
370
18
48
1
60
0
100
AcDbSpline
70
4
71
1
72
4
73
2
40
0
40
0
40
1
40
1
41
1
10
240.935251136032
20
-6.86018995410916
30
0
41
1
10
240.863960107944
20
-6.41234102120362
30
0
0
SPLINE
5
297
100
AcDbEntity
8
1
62
256
6
ByLayer
370
18
48
1
60
0
100
AcDbSpline
70
4
71
2
72
6
73
3
40
0
40
0
40
0
40
1
40
1
40
1
41
1
10
239.260180841409
20
-14.1939882685135
30
0
41
1
10
239.308508526833
20
-14.1863724306359
30
0
41
1
10
239.355543154031
20
-14.1729533326401
30
0
0
SPLINE
5
298
100
AcDbEntity
8
1
62
256
6
ByLayer
370
18
48
1
60
0
100
AcDbSpline
70
4
71
2
72
7
73
4
40
0
40
0
40
0
40
0.5
40
1
40
1
40
1
41
1
10
240.55896332738
20
-7.08852842463378
30
0
41
1
10
240.566455467084
20
-7.03190632821068
30
0
41
1
10
240.565029418028
20
-6.91710083858805
30
0
41
1
10
240.555958110747
20
-6.86011505237715
30
0
0
SPLINE
5
299
100
AcDbEntity
8
1
62
256
6
ByLayer
370
18
48
1
60
0
100
AcDbSpline
70
4
71
1
72
4
73
2
40
0
40
0
40
1
40
1
41
1
10
239.877532521845
20
-0.21562098963841
30
0
41
1
10
239.45718922898
20
0.0423309412851722
30
0
0
SPLINE
5
29A
100
AcDbEntity
8
1
62
256
6
ByLayer
370
18
48
1
60
0
100
AcDbSpline
70
4
71
3
72
8
73
4
40
0
40
0
40
0
40
0
40
1
40
1
40
1
40
1
41
1
10
240.991122535686
20
-7.21077810777004
30
0
41
1
10
240.995995704871
20
-7.24679686841213
30
0
41
1
10
240.999465411159
20
-7.28291704226018
30
0
41
1
10
240.999943169459
20
-7.31922936102254
30
0
0
SPLINE
5
29B
100
AcDbEntity
8
1
62
256
6
ByLayer
370
18
48
1
60
0
100
AcDbSpline
70
4
71
1
72
4
73
2
40
0
40
0
40
1
40
1
41
1
10
239.129268073141
20
0.442081024627072
30
0
41
1
10
239.464704534183
20
0.478744448907889
30
0
0
SPLINE
5
29C
100
AcDbEntity
8
1
62
256
6
ByLayer
370
18
48
1
60
0
100
AcDbSpline
70
4
71
3
72
27
73
23
40
0
40
0
40
0
40
0
40
0.0030234113716779
40
0.0187704513830693
40
0.0502645314058521
40
0.113252691451418
40
0.239229011542549
40
0.36520533163368
40
0.487244891721963
40
0.491181651724811
40
0.499055171730507
40
0.506928691736202
40
0.522675731747594
40
0.554169811770376
40
0.617157971815942
40
0.743134291907073
40
0.869110611998204
40
0.93209877204377
40
0.963592852066552
40
0.979339892077944
40
0.995086932089335
40
1
40
1
40
1
40
1
41
1
10
239.291127717804
20
-13.7857180479976
30
0
41
1
10
239.299565194864
20
-13.7763780891717
30
0
41
1
10
239.346882955607
20
-13.7141979267656
30
0
41
1
10
239.37971799763
20
-13.4830517360867
30
0
41
1
10
239.444792430028
20
-12.9789456305005
30
0
41
1
10
239.581248714979
20
-11.9558774966349
30
0
41
1
10
239.771238301768
20
-10.5010237230113
30
0
41
1
10
240.008337074319
20
-8.77276713384006
30
0
41
1
10
240.161778378107
20
-7.60748433411553
30
0
41
1
10
240.23932222988
20
-6.99035910579443
30
0
41
1
10
240.235770288896
20
-6.90425709709402
30
0
41
1
10
240.204647893577
20
-6.76016657067004
30
0
41
1
10
240.169435670465
20
-6.50583334504751
30
0
41
1
10
240.085284583368
20
-5.99816359939163
30
0
41
1
10
239.925855621713
20
-4.98264807420256
30
0
41
1
10
239.694320665641
20
-3.53175433804046
30
0
41
1
10
239.461289455877
20
-2.08140720785926
30
0
41
1
10
239.304117483059
20
-1.06515853338308
30
0
41
1
10
239.216180357976
20
-0.558304539047867
30
0
41
1
10
239.180969511589
20
-0.265459231438456
30
0
41
1
10
239.157977549033
20
-0.100954759628849
30
0
41
1
10
239.12582613654
20
-0.0146362026467841
30
0
41
1
10
239.116524246784
20
0.0046498831430029
30
0
0
SPLINE
5
29D
100
AcDbEntity
8
1
62
256
6
ByLayer
370
18
48
1
60
0
100
AcDbSpline
70
4
71
1
72
4
73
2
40
0
40
0
40
1
40
1
41
1
10
240.974066489792
20
-7.1040272956113
30
0
41
1
10
240.935251136032
20
-6.86018995410916
30
0
0
SPLINE
5
29E
100
AcDbEntity
8
1
62
256
6
ByLayer
370
18
48
1
60
0
100
AcDbSpline
70
4
71
1
72
4
73
2
40
0
40
0
40
1
40
1
41
1
10
240.993165867275
20
-7.43354389178472
30
0
41
1
10
240.55896332738
20
-7.08852842463372
30
0
0
SPLINE
5
29F
100
AcDbEntity
8
1
62
256
6
ByLayer
370
18
48
1
60
0
100
AcDbSpline
70
4
71
3
72
12
73
8
40
0
40
0
40
0
40
0
40
0.5
40
0.5
40
0.75
40
0.75
40
1
40
1
40
1
40
1
41
1
10
240.051250855169
20
-14.5520565524851
30
0
41
1
10
240.042356361326
20
-14.6188339707613
30
0
41
1
10
240.013331276554
20
-14.6827474388258
30
0
41
1
10
239.947166936337
20
-14.7593675842773
30
0
41
1
10
239.921302936069
20
-14.781700645417
30
0
41
1
10
239.864283768537
20
-14.8179103328069
30
0
41
1
10
239.833031534718
20
-14.8312564355566
30
0
41
1
10
239.800714090598
20
-14.8413559563836
30
0
0
SPLINE
5
2A0
100
AcDbEntity
8
1
62
256
6
ByLayer
370
18
48
1
60
0
100
AcDbSpline
70
4
71
3
72
30
73
26
40
0
40
0
40
0
40
0
40
0.0050411638967666
40
0.0127259048736864
40
0.028095386827526
40
0.0588343507352051
40
0.120312278550563
40
0.24326813418128
40
0.366223989811997
40
0.485337474954253
40
0.489179845442713
40
0.496864586419633
40
0.504549327396553
40
0.519918809350392
40
0.550657773258071
40
0.61213570107343
40
0.735091556704146
40
0.858047412334863
40
0.919525340150221
40
0.9502643040579
40
0.96563378601174
40
0.981003267965579
40
0.988688008942499
40
0.996372749919419
40
1
40
1
40
1
40
1
41
1
10
239.245173774155
20
-13.9973012803465
30
0
41
1
10
239.273171018737
20
-13.9861068168883
30
0
41
1
10
239.343638007957
20
-13.9513188679705
30
0
41
1
10
239.480386952643
20
-13.815619427942
30
0
41
1
10
239.523309450748
20
-13.513461388244
30
0
41
1
10
239.588462061985
20
-13.0087496618498
30
0
41
1
10
239.724904343627
20
-11.9857865164694
30
0
41
1
10
239.91485917374
20
-10.5311988936558
30
0
41
1
10
240.151947525565
20
-8.80301826307027
30
0
41
1
10
240.305495032161
20
-7.63692892493199
30
0
41
1
10
240.384581729125
20
-7.00752511271094
30
0
41
1
10
240.380028996105
20
-6.89716307128478
30
0
41
1
10
240.347441572937
20
-6.74628975607169
30
0
41
1
10
240.312706497602
20
-6.49540290567828
30
0
41
1
10
240.228342488676
20
-5.98644863744542
30
0
41
1
10
240.068980504805
20
-4.9713597410136
30
0
41
1
10
239.837404971436
20
-3.52021173073496
30
0
41
1
10
239.604428430224
20
-2.07020484844531
30
0
41
1
10
239.447119657065
20
-1.05307164498987
30
0
41
1
10
239.35959694172
20
-0.548606234888865
30
0
41
1
10
239.324668124447
20
-0.258106536971496
30
0
41
1
10
239.297125794994
20
-0.0610447877665194
30
0
41
1
10
239.226125568128
20
0.112565751339872
30
0
41
1
10
239.133908262935
20
0.204563425262734
30
0
41
1
10
239.074604823867
20
0.236872068581022
30
0
41
1
10
239.055306610986
20
0.2454537560929
30
0
0
SPLINE
5
2A1
100
AcDbEntity
8
1
62
256
6
ByLayer
370
18
48
1
60
0
100
AcDbSpline
70
4
71
2
72
12
73
9
40
0
40
0
40
0
40
0.25
40
0.5
40
0.5
40
0.75
40
0.75
40
0.875
40
1
40
1
40
1
41
1
10
239.41141995135
20
-14.1570115411622
30
0
41
1
10
239.459904071495
20
-14.1431788991638
30
0
41
1
10
239.545634050111
20
-14.0890407142464
30
0
41
1
10
239.579899576971
20
-14.0498042048783
30
0
41
1
10
239.61266991607
20
-14.0122797937604
30
0
41
1
10
239.634236610226
20
-13.9649083632231
30
0
41
1
10
239.644252554424
20
-13.9429082550261
30
0
41
1
10
239.658535536245
20
-13.8935415710116
30
0
41
1
10
239.66195257828
20
-13.8677171615592
30
0
0
SPLINE
5
2A2
100
AcDbEntity
8
1
62
256
6
ByLayer
370
18
48
1
60
0
100
AcDbSpline
70
4
71
3
72
12
73
8
40
0
40
0
40
0
40
0
40
0.441018845831075
40
0.441018845831075
40
0.720346481303556
40
0.720346481303556
40
1
40
1
40
1
40
1
41
1
10
239.448710351038
20
-14.9416818819554
30
0
41
1
10
239.434901627553
20
-14.9456218938062
30
0
41
1
10
239.420981171531
20
-14.9491930346436
30
0
41
1
10
239.398108974681
20
-14.9544114416127
30
0
41
1
10
239.38920268029
20
-14.9562849539037
30
0
41
1
10
239.371323228321
20
-14.9597301954031
30
0
41
1
10
239.362347398063
20
-14.9613020724021
30
0
41
1
10
239.353348528157
20
-14.962720858721
30
0
0
SPLINE
5
2A3
100
AcDbEntity
8
1
62
256
6
ByLayer
370
18
48
1
60
0
100
AcDbSpline
70
4
71
2
72
12
73
9
40
0
40
0
40
0
40
0.25
40
0.5
40
0.5
40
0.75
40
0.75
40
0.875
40
1
40
1
40
1
41
1
10
239.420025499437
20
0.192809039366239
30
0
41
1
10
239.406122901703
20
0.241049194872858
30
0
41
1
10
239.351710924075
20
0.326347793418279
30
0
41
1
10
239.312275984154
20
0.360440901409589
30
0
41
1
10
239.274561801059
20
0.393046345201981
30
0
41
1
10
239.226950799278
20
0.414504519067037
30
0
41
1
10
239.204839430073
20
0.424470064572148
30
0
41
1
10
239.155223084225
20
0.438681176623305
30
0
41
1
10
239.129268073141
20
0.442081024627015
30
0
0
SPLINE
5
2A4
100
AcDbEntity
8
1
62
256
6
ByLayer
370
18
48
1
60
0
100
AcDbSpline
70
4
71
1
72
4
73
2
40
0
40
0
40
1
40
1
41
1
10
240.555958110747
20
-6.86011505237721
30
0
41
1
10
240.990160650671
20
-7.20513051952543
30
0
0
SPLINE
5
2A5
100
AcDbEntity
8
1
62
256
6
ByLayer
370
18
48
1
60
0
100
AcDbSpline
70
4
71
3
72
10
73
6
40
0
40
0
40
0
40
0
40
0.538204772350211
40
0.538204772350211
40
1
40
1
40
1
40
1
41
1
10
239.802777113711
20
-14.8406644065577
30
0
41
1
10
239.739256839484
20
-14.8587862419428
30
0
41
1
10
239.675737030093
20
-14.8769110660748
30
0
41
1
10
239.557714726321
20
-14.910583239715
30
0
41
1
10
239.503212290452
20
-14.9261309668061
30
0
41
1
10
239.448710351016
20
-14.9416818819616
30
0
0
SPLINE
5
2A6
100
AcDbEntity
8
1
62
256
6
ByLayer
370
18
48
1
60
0
100
AcDbSpline
70
4
71
2
72
6
73
3
40
0
40
0
40
0
40
1
40
1
40
1
41
1
10
239.45718922898
20
0.0423309412852575
30
0
41
1
10
239.449534875591
20
0.0904154492410214
30
0
41
1
10
239.436047913269
20
0.137213405404367
30
0
0
SPLINE
5
2A7
100
AcDbEntity
8
1
62
256
6
ByLayer
370
13
48
1
60
0
100
AcDbSpline
70
4
71
1
72
4
73
2
40
0
40
0
40
1
40
1
41
1
10
221.443155184393
20
16.0551556886504
30
0
41
1
10
221.667749863994
20
16.0689848662811
30
0
0
SPLINE
5
2A8
100
AcDbEntity
8
1
62
256
6
ByLayer
370
13
48
1
60
0
100
AcDbSpline
70
4
71
1
72
4
73
2
40
0
40
0
40
1
40
1
41
1
10
221.355472024303
20
16.0821569724642
30
0
41
1
10
221.443561292368
20
16.089344376429
30
0
0
SPLINE
5
2A9
100
AcDbEntity
8
1
62
256
6
ByLayer
370
13
48
1
60
0
100
AcDbSpline
70
4
71
3
72
24
73
20
40
0
40
0
40
0
40
0
40
0.051408171471186
40
0.051408171471186
40
0.102816342942372
40
0.102816342942372
40
0.154224514413558
40
0.154224514413558
40
0.205632685884744
40
0.205632685884744
40
0.308449028827119
40
0.308449028827119
40
0.411265371769494
40
0.411265371769494
40
0.616898057654245
40
0.616898057654245
40
0.822530743538996
40
0.822530743538996
40
1
40
1
40
1
40
1
41
1
10
240.067370085223
20
9.84630970923624
30
0
41
1
10
240.066024847507
20
9.82882359795002
30
0
41
1
10
240.064329161786
20
9.80989531044867
30
0
41
1
10
240.060204044437
20
9.77254031007979
30
0
41
1
10
240.057795208513
20
9.75445845083101
30
0
41
1
10
240.053105407105
20
9.72315103325525
30
0
41
1
10
240.050802429243
20
9.70957170154952
30
0
41
1
10
240.046324629281
20
9.68512850023106
30
0
41
1
10
240.044170679191
20
9.67439095333611
30
0
41
1
10
240.037860186733
20
9.64482249651869
30
0
41
1
10
240.033912537243
20
9.62885036837721
30
0
41
1
10
240.026323651817
20
9.60072024881578
30
0
41
1
10
240.022676981639
20
9.58863727875939
30
0
41
1
10
240.012092440476
20
9.55633696054988
30
0
41
1
10
240.005468004991
20
9.53985785290399
30
0
41
1
10
239.992719946186
20
9.51214525110819
30
0
41
1
10
239.986600320132
20
9.50106043880956
30
0
41
1
10
239.975554508393
20
9.48397386040776
30
0
41
1
10
239.9705723344
20
9.47745389789426
30
0
41
1
10
239.965703257891
20
9.47206866922613
30
0
0
SPLINE
5
2AA
100
AcDbEntity
8
1
62
256
6
ByLayer
370
13
48
1
60
0
100
AcDbSpline
70
4
71
3
72
10
73
6
40
0
40
0
40
0
40
0
40
0.196352315135519
40
0.196352315135519
40
1
40
1
40
1
40
1
41
1
10
239.954912744816
20
9.46174318405954
30
0
41
1
10
239.952245174667
20
9.45957608663028
30
0
41
1
10
239.949608654432
20
9.45771002144656
30
0
41
1
10
239.936319302199
20
9.44949863703729
30
0
41
1
10
239.92609067472
20
9.44725969404612
30
0
41
1
10
239.916158767461
20
9.44788724746186
30
0
0
SPLINE
5
2AB
100
AcDbEntity
8
1
62
256
6
ByLayer
370
13
48
1
60
0
100
AcDbSpline
70
4
71
3
72
10
73
6
40
0
40
0
40
0
40
0
40
0.5
40
0.5
40
1
40
1
40
1
40
1
41
1
10
224.894949215285
20
9.34708315752425
30
0
41
1
10
224.891273613589
20
9.34689052740185
30
0
41
1
10
224.873977397777
20
9.35619772372226
30
0
41
1
10
224.822589639776
20
9.38753615674977
30
0
41
1
10
224.788397109555
20
9.40956848250016
30
0
41
1
10
224.755715336686
20
9.43129956052704
30
0
0
SPLINE
5
2AC
100
AcDbEntity
8
1
62
256
6
ByLayer
370
13
48
1
60
0
100
AcDbSpline
70
4
71
3
72
10
73
6
40
0
40
0
40
0
40
0
40
0.5
40
0.5
40
1
40
1
40
1
40
1
41
1
10
224.920872678488
20
9.43136717363805
30
0
41
1
10
224.917196037691
20
9.43117448905866
30
0
41
1
10
224.896924840166
20
9.431083016397
30
0
41
1
10
224.835824240236
20
9.43108753499243
30
0
41
1
10
224.794913050694
20
9.43117572575125
30
0
41
1
10
224.755715336686
20
9.43129956052704
30
0
0
SPLINE
5
2AD
100
AcDbEntity
8
1
62
256
6
ByLayer
370
13
48
1
60
0
100
AcDbSpline
70
4
71
2
72
6
73
3
40
0
40
0
40
0
40
1
40
1
40
1
41
1
10
221.433633523856
20
16.3037952278506
30
0
41
0.997409491337352
10
221.430835682605
20
16.2499513502408
30
0
41
1
10
221.435760323613
20
16.1962580379889
30
0
0
SPLINE
5
2AE
100
AcDbEntity
8
1
62
256
6
ByLayer
370
13
48
1
60
0
100
AcDbSpline
70
4
71
1
72
4
73
2
40
0
40
0
40
1
40
1
41
1
10
221.677514576083
20
15.9543081281196
30
0
41
1
10
221.452280732669
20
15.9479852876564
30
0
0
SPLINE
5
2AF
100
AcDbEntity
8
1
62
256
6
ByLayer
370
13
48
1
60
0
100
AcDbSpline
70
4
71
3
72
18
73
14
40
0
40
0
40
0
40
0
40
0.499999999999986
40
0.499999999999986
40
0.749999999999986
40
0.749999999999986
40
0.874999999999993
40
0.874999999999993
40
0.906249999999995
40
0.906249999999995
40
0.937499999999997
40
0.937499999999997
40
1
40
1
40
1
40
1
41
1
10
231.652033037024
20
10.4474098477466
30
0
41
1
10
232.661378679422
20
10.5003074113937
30
0
41
1
10
233.670724644462
20
10.5531969718066
30
0
41
1
10
235.184743156715
20
10.6325462007985
30
0
41
1
10
235.689415260369
20
10.6590188389386
30
0
41
1
10
236.446425226087
20
10.698671312519
30
0
41
1
10
236.698760955618
20
10.7119176879777
30
0
41
1
10
237.014181635759
20
10.7284438862322
30
0
41
1
10
237.077249875818
20
10.7322451173145
30
0
41
1
10
237.203456496501
20
10.7376590297199
30
0
41
1
10
237.266650398501
20
10.7375393140848
30
0
41
1
10
237.456509662806
20
10.7285196983464
30
0
41
1
10
237.583447624131
20
10.7111140706548
30
0
41
1
10
237.710781382333
20
10.6813586538809
30
0
0
SPLINE
5
2B0
100
AcDbEntity
8
1
62
256
6
ByLayer
370
13
48
1
60
0
100
AcDbSpline
70
4
71
3
72
20
73
16
40
0
40
0
40
0
40
0
40
0.500000000000007
40
0.500000000000007
40
0.75000000000001
40
0.75000000000001
40
0.875000000000012
40
0.875000000000012
40
0.906250000000012
40
0.906250000000012
40
0.921875000000012
40
0.921875000000012
40
0.937500000000013
40
0.937500000000013
40
1
40
1
40
1
40
1
41
1
10
231.64405142892
20
10.2467170801912
30
0
41
1
10
232.643949880195
20
10.2991195375311
30
0
41
1
10
233.643848730299
20
10.3515143850116
30
0
41
1
10
235.14369629091
20
10.4301202898918
30
0
41
1
10
235.643644359176
20
10.4563436561376
30
0
41
1
10
236.393569041633
20
10.4956293107323
30
0
41
1
10
236.643544366219
20
10.508716061393
30
0
41
1
10
236.956010912621
20
10.5251258307776
30
0
41
1
10
237.018507841636
20
10.5283365767923
30
0
41
1
10
237.112245610792
20
10.5333026832818
30
0
41
1
10
237.143492248897
20
10.5349439855217
30
0
41
1
10
237.20608964784
20
10.5361782745347
30
0
41
1
10
237.237427768286
20
10.5360199247045
30
0
41
1
10
237.394316397157
20
10.5313325706784
30
0
41
1
10
237.520454923777
20
10.5152359990247
30
0
41
1
10
237.647281753555
20
10.4855990415401
30
0
0
SPLINE
5
2B1
100
AcDbEntity
8
1
62
256
6
ByLayer
370
13
48
1
60
0
100
AcDbSpline
70
4
71
1
72
4
73
2
40
0
40
0
40
1
40
1
41
1
10
238.99845493605
20
9.19844461994646
30
0
41
1
10
239.062023229893
20
9.29650122553198
30
0
0
SPLINE
5
2B2
100
AcDbEntity
8
1
62
256
6
ByLayer
370
13
48
1
60
0
100
AcDbSpline
70
4
71
3
72
8
73
4
40
0
40
0
40
0
40
0
40
1
40
1
40
1
40
1
41
1
10
239.257101456475
20
9.30134616436814
30
0
41
1
10
239.190258317072
20
9.29812440540482
30
0
41
1
10
239.125349328787
20
9.29680673423115
30
0
41
1
10
239.062023229893
20
9.29650122553198
30
0
0
SPLINE
5
2B3
100
AcDbEntity
8
1
62
256
6
ByLayer
370
13
48
1
60
0
100
AcDbSpline
70
4
71
3
72
8
73
4
40
0
40
0
40
0
40
0
40
1
40
1
40
1
40
1
41
1
10
222.897076176785
20
24.1742836728969
30
0
41
1
10
222.844833019433
20
24.1796189407678
30
0
41
1
10
222.792547486209
20
24.1849599434448
30
0
41
1
10
222.740350021923
20
24.1902890277721
30
0
0
SPLINE
5
2B4
100
AcDbEntity
8
1
62
256
6
ByLayer
370
13
48
1
60
0
100
AcDbSpline
70
4
71
3
72
12
73
8
40
0
40
0
40
0
40
0
40
0.0611541867337749
40
0.0611541867337749
40
0.558746291925029
40
0.558746291925029
40
1
40
1
40
1
40
1
41
1
10
239.824375736983
20
9.33939116221472
30
0
41
1
10
239.818904515955
20
9.33356045126376
30
0
41
1
10
239.813339795176
20
9.32780752469981
30
0
41
1
10
239.761654647336
20
9.27597689868784
30
0
41
1
10
239.711011046268
20
9.23612855298461
30
0
41
1
10
239.606730171862
20
9.17287484332653
30
0
41
1
10
239.553907051541
20
9.14825511448817
30
0
41
1
10
239.499736543238
20
9.12956406455567
30
0
0
SPLINE
5
2B5
100
AcDbEntity
8
1
62
256
6
ByLayer
370
13
48
1
60
0
100
AcDbSpline
70
4
71
3
72
18
73
14
40
0
40
0
40
0
40
0
40
0.500000000000014
40
0.500000000000014
40
0.750000000000014
40
0.750000000000014
40
0.875000000000007
40
0.875000000000007
40
0.906250000000005
40
0.906250000000005
40
0.937500000000003
40
0.937500000000003
40
1
40
1
40
1
40
1
41
1
10
231.00254382005
20
22.8404023740508
30
0
41
1
10
229.993198177651
20
22.7875048104037
30
0
41
1
10
228.983852212612
20
22.7346152499909
30
0
41
1
10
227.469833700359
20
22.655266020999
30
0
41
1
10
226.965161596705
20
22.6287933828588
30
0
41
1
10
226.208151630987
20
22.5891409092785
30
0
41
1
10
225.955815901456
20
22.5758945338198
30
0
41
1
10
225.640395221315
20
22.5593683355653
30
0
41
1
10
225.577326981256
20
22.555567104483
30
0
41
1
10
225.451120360573
20
22.5501531920776
30
0
41
1
10
225.387926458573
20
22.5502729077126
30
0
41
1
10
225.198067194268
20
22.5592925234511
30
0
41
1
10
225.071129232942
20
22.5766981511427
30
0
41
1
10
224.943795474741
20
22.6064535679166
30
0
0
SPLINE
5
2B6
100
AcDbEntity
8
1
62
256
6
ByLayer
370
13
48
1
60
0
100
AcDbSpline
70
4
71
3
72
10
73
6
40
0
40
0
40
0
40
0
40
0.437251963454174
40
0.437251963454174
40
1
40
1
40
1
40
1
41
1
10
237.71306616853
20
23.936802892816
30
0
41
1
10
237.714859036323
20
23.9334891533003
30
0
41
1
10
237.724529750398
20
23.9248813925752
30
0
41
1
10
237.761144948735
20
23.896563379073
30
0
41
1
10
237.792384550106
20
23.8743762968791
30
0
41
1
10
237.825066322975
20
23.8526452188522
30
0
0
SPLINE
5
2B7
100
AcDbEntity
8
1
62
256
6
ByLayer
370
13
48
1
60
0
100
AcDbSpline
70
4
71
2
72
6
73
3
40
0
40
0
40
0
40
1
40
1
40
1
41
1
10
240.949929394373
20
17.2168936343072
30
0
41
0.997409491337352
10
240.950694277018
20
17.1592035006192
30
0
41
1
10
240.943208381914
20
17.1020038634695
30
0
0
SPLINE
5
2B8
100
AcDbEntity
8
1
62
256
6
ByLayer
370
13
48
1
60
0
100
AcDbSpline
70
4
71
3
72
8
73
4
40
0
40
0
40
0
40
0
40
1
40
1
40
1
40
1
41
1
10
238.813940881606
20
25.0236068439814
30
0
41
1
10
238.748387093587
20
25.02342451241
30
0
41
1
10
238.682834259758
20
25.0224989742757
30
0
41
1
10
238.617282313949
20
25.0208817715017
30
0
0
SPLINE
5
2B9
100
AcDbEntity
8
1
62
256
6
ByLayer
370
13
48
1
60
0
100
AcDbSpline
70
4
71
1
72
4
73
2
40
0
40
0
40
1
40
1
41
1
10
222.611235920454
20
24.1820404249172
30
0
41
1
10
222.812216260919
20
23.9504152478081
30
0
0
SPLINE
5
2BA
100
AcDbEntity
8
1
62
256
6
ByLayer
370
13
48
1
60
0
100
AcDbSpline
70
4
71
2
72
6
73
3
40
0
40
0
40
0
40
1
40
1
40
1
41
1
10
221.452280732669
20
15.9479852876564
30
0
41
0.997409491337352
10
221.443870000502
20
16.0012417488244
30
0
41
1
10
221.443155184393
20
16.0551556886504
30
0
0
SPLINE
5
2BB
100
AcDbEntity
8
1
62
256
6
ByLayer
370
13
48
1
60
0
100
AcDbSpline
70
4
71
3
72
14
73
10
40
0
40
0
40
0
40
0
40
0.0288455662424369
40
0.0288455662424369
40
0.1907046385354
40
0.1907046385354
40
0.352563710828363
40
0.352563710828363
40
1
40
1
40
1
40
1
41
1
10
222.442028669479
20
23.933545322822
30
0
41
1
10
222.445748379308
20
23.9339824764139
30
0
41
1
10
222.44946133998
20
23.9344078142537
30
0
41
1
10
222.473811516059
20
23.93687483321
30
0
41
1
10
222.493960038659
20
23.9380609597142
30
0
41
1
10
222.53454235064
20
23.9409326293457
30
0
41
1
10
222.55477046536
20
23.9422580977936
30
0
41
1
10
222.65530261701
20
23.9478202755832
30
0
41
1
10
222.73443250404
20
23.9497194984702
30
0
41
1
10
222.812216260919
20
23.9504152478081
30
0
0
SPLINE
5
2BC
100
AcDbEntity
8
1
62
256
6
ByLayer
370
13
48
1
60
0
100
AcDbSpline
70
4
71
1
72
4
73
2
40
0
40
0
40
1
40
1
41
1
10
221.363485305688
20
16.3012882901166
30
0
41
1
10
221.433633523856
20
16.3037952278506
30
0
0
SPLINE
5
2BD
100
AcDbEntity
8
1
62
256
6
ByLayer
370
13
48
1
60
0
100
AcDbSpline
70
4
71
3
72
12
73
8
40
0
40
0
40
0
40
0
40
0.25
40
0.25
40
0.5
40
0.5
40
1
40
1
40
1
40
1
41
1
10
222.812216260919
20
23.9504152478081
30
0
41
1
10
222.835750278049
20
23.951093501183
30
0
41
1
10
222.858371628458
20
23.9508992643
30
0
41
1
10
222.903943630179
20
23.9508255768551
30
0
41
1
10
222.926780881132
20
23.9508351783136
30
0
41
1
10
222.995239715841
20
23.9508160258359
30
0
41
1
10
223.040842564287
20
23.9507702975758
30
0
41
1
10
223.086464128798
20
23.9507415238322
30
0
0
SPLINE
5
2BE
100
AcDbEntity
8
1
62
256
6
ByLayer
370
13
48
1
60
0
100
AcDbSpline
70
4
71
2
72
6
73
3
40
0
40
0
40
0
40
1
40
1
40
1
41
1
10
240.949929394373
20
17.2168936343072
30
0
41
0.997409491337352
10
240.949164511728
20
17.2745837679965
30
0
41
1
10
240.940164682284
20
17.3315703724688
30
0
0
SPLINE
5
2BF
100
AcDbEntity
8
1
62
256
6
ByLayer
370
13
48
1
60
0
100
AcDbSpline
70
4
71
1
72
4
73
2
40
0
40
0
40
1
40
1
41
1
10
222.785297759251
20
8.93986385521166
30
0
41
1
10
222.755266580128
20
8.93902080981607
30
0
0
SPLINE
5
2C0
100
AcDbEntity
8
1
62
256
6
ByLayer
370
13
48
1
60
0
100
AcDbSpline
70
4
71
3
72
24
73
20
40
0
40
0
40
0
40
0
40
0.0453611707759449
40
0.0453611707759449
40
0.0907223415518899
40
0.0907223415518899
40
0.136083512327835
40
0.136083512327835
40
0.18144468310378
40
0.18144468310378
40
0.272167024655671
40
0.272167024655671
40
0.362889366207562
40
0.362889366207562
40
0.544334049311341
40
0.544334049311341
40
0.72577873241512
40
0.72577873241512
40
1
40
1
40
1
40
1
41
1
10
222.755266580128
20
8.93902080981607
30
0
41
1
10
222.758432244832
20
8.92177110490846
30
0
41
1
10
222.762097186215
20
8.90312375596878
30
0
41
1
10
222.770104366523
20
8.86640458237787
30
0
41
1
10
222.774390075552
20
8.84867356936365
30
0
41
1
10
222.782326701986
20
8.81802787483122
30
0
41
1
10
222.786036490569
20
8.8047636588617
30
0
41
1
10
222.793044770945
20
8.78092241750662
30
0
41
1
10
222.796309300748
20
8.77046884111016
30
0
41
1
10
222.80567596902
20
8.74172198947213
30
0
41
1
10
222.811271534883
20
8.72625000005448
30
0
41
1
10
222.821759245769
20
8.69906723476265
30
0
41
1
10
222.826648953398
20
8.68743163731031
30
0
41
1
10
222.840551813962
20
8.65641464944565
30
0
41
1
10
222.848862495896
20
8.64071825813699
30
0
41
1
10
222.86443747518
20
8.61449000387
30
0
41
1
10
222.871682255677
20
8.60410559044018
30
0
41
1
10
222.88889762864
20
8.58275594161219
30
0
41
1
10
222.898399787515
20
8.57411972396559
30
0
41
1
10
222.907305561337
20
8.56831626913902
30
0
0
SPLINE
5
2C1
100
AcDbEntity
8
1
62
256
6
ByLayer
370
13
48
1
60
0
100
AcDbSpline
70
4
71
3
72
20
73
16
40
0
40
0
40
0
40
0
40
0.062500000000007
40
0.062500000000007
40
0.125000000000014
40
0.125000000000014
40
0.156250000000018
40
0.156250000000018
40
0.187500000000021
40
0.187500000000021
40
0.250000000000028
40
0.250000000000028
40
0.500000000000019
40
0.500000000000019
40
1
40
1
40
1
40
1
41
1
10
225.089842251811
20
9.78535457670148
30
0
41
1
10
225.206070286511
20
9.86637812853257
30
0
41
1
10
225.328511986004
20
9.93450453478883
30
0
41
1
10
225.585411929184
20
10.0458156864724
30
0
41
1
10
225.721519477227
20
10.0891576438647
30
0
41
1
10
225.926054620728
20
10.1324935803944
30
0
41
1
10
225.994497413375
20
10.1434590668188
30
0
41
1
10
226.131900203113
20
10.1585832953407
30
0
41
1
10
226.200936887843
20
10.1617327786133
30
0
41
1
10
226.40794027053
20
10.1725850942641
30
0
41
1
10
226.545944752714
20
10.1797906618244
30
0
41
1
10
227.235957486633
20
10.2159458552017
30
0
41
1
10
227.787963681007
20
10.2449228351026
30
0
41
1
10
229.443992989964
20
10.3317109038944
30
0
41
1
10
230.548013523839
20
10.3895506367753
30
0
41
1
10
231.652033037024
20
10.4474098477465
30
0
0
SPLINE
5
2C2
100
AcDbEntity
8
1
62
256
6
ByLayer
370
13
48
1
60
0
100
AcDbSpline
70
4
71
2
72
6
73
3
40
0
40
0
40
0
40
1
40
1
40
1
41
1
10
221.667749863994
20
16.0689848662811
30
0
41
0.997409491337352
10
221.666984981349
20
16.1266749999692
30
0
41
1
10
221.674470876453
20
16.1838746371188
30
0
0
SPLINE
5
2C3
100
AcDbEntity
8
1
62
256
6
ByLayer
370
13
48
1
60
0
100
AcDbSpline
70
4
71
3
72
8
73
4
40
0
40
0
40
0
40
0
40
1
40
1
40
1
40
1
41
1
10
238.333818721818
20
24.9832890690462
30
0
41
1
10
238.385217998336
20
24.9940560067156
30
0
41
1
10
238.436658819136
20
25.0048330772601
30
0
41
1
10
238.488013299256
20
25.0155890890343
30
0
0
SPLINE
5
2C4
100
AcDbEntity
8
1
62
256
6
ByLayer
370
13
48
1
60
0
100
AcDbSpline
70
4
71
2
72
6
73
3
40
0
40
0
40
0
40
1
40
1
40
1
41
1
10
221.449436262944
20
16.1625251779485
30
0
41
0.999116442697023
10
221.447054215958
20
16.1443239847175
30
0
41
0.998835603708716
10
221.445564656397
20
16.1260269125125
30
0
0
SPLINE
5
2C5
100
AcDbEntity
8
1
62
256
6
ByLayer
370
13
48
1
60
0
100
AcDbSpline
70
4
71
1
72
4
73
2
40
0
40
0
40
1
40
1
41
1
10
221.674470876453
20
16.1838746371188
30
0
41
1
10
221.449436262944
20
16.1625251779485
30
0
0
SPLINE
5
2C6
100
AcDbEntity
8
1
62
256
6
ByLayer
370
13
48
1
60
0
100
AcDbSpline
70
4
71
3
72
10
73
6
40
0
40
0
40
0
40
0
40
0.470344360288895
40
0.470344360288895
40
1
40
1
40
1
40
1
41
1
10
237.686971248823
20
23.853959830112
30
0
41
1
10
237.686990114171
20
23.8537714937728
30
0
41
1
10
237.699836311936
20
23.8535196701676
30
0
41
1
10
237.74791045542
20
23.8530120064455
30
0
41
1
10
237.785868608966
20
23.8527690536281
30
0
41
1
10
237.825066322975
20
23.8526452188522
30
0
0
SPLINE
5
2C7
100
AcDbEntity
8
1
62
256
6
ByLayer
370
13
48
1
60
0
100
AcDbSpline
70
4
71
3
72
8
73
4
40
0
40
0
40
0
40
0
40
1
40
1
40
1
40
1
41
1
10
222.429135371887
20
24.1655268014915
30
0
41
1
10
222.489771464638
20
24.1716487432909
30
0
41
1
10
222.550470382593
20
24.1771654696312
30
0
41
1
10
222.611235920454
20
24.1820404249172
30
0
0
SPLINE
5
2C8
100
AcDbEntity
8
1
62
256
6
ByLayer
370
13
48
1
60
0
100
AcDbSpline
70
4
71
3
72
9
73
5
40
0
40
0
40
0
40
0
40
0.513495271766324
40
1
40
1
40
1
40
1
41
1
10
238.617282313949
20
25.0208817715017
30
0
41
1
10
238.595143946488
20
25.0203307400246
30
0
41
1
10
238.552060416011
20
25.0183529938843
30
0
41
1
10
238.508974632736
20
25.0164974488277
30
0
41
1
10
238.488013299255
20
25.0155890890324
30
0
0
SPLINE
5
2C9
100
AcDbEntity
8
1
62
256
6
ByLayer
370
13
48
1
60
0
100
AcDbSpline
70
4
71
3
72
22
73
18
40
0
40
0
40
0
40
0
40
0.124999999999967
40
0.124999999999967
40
0.249999999999935
40
0.249999999999935
40
0.374999999999902
40
0.374999999999902
40
0.49999999999987
40
0.49999999999987
40
0.624999999999837
40
0.624999999999837
40
0.687499999999847
40
0.687499999999847
40
0.749999999999856
40
0.749999999999856
40
1
40
1
40
1
40
1
41
1
10
222.785297759251
20
8.93986385521166
30
0
41
1
10
222.795201698277
20
8.87509032091393
30
0
41
1
10
222.812318017319
20
8.81284822445565
30
0
41
1
10
222.862159481661
20
8.69384249680698
30
0
41
1
10
222.895182632014
20
8.63645058727613
30
0
41
1
10
222.972634385725
20
8.53296252282374
30
0
41
1
10
223.017721445689
20
8.48595570334555
30
0
41
1
10
223.118923289096
20
8.40376830699822
30
0
41
1
10
223.173454745559
20
8.36943195249617
30
0
41
1
10
223.290396355781
20
8.31430423637286
30
0
41
1
10
223.353008430359
20
8.29370865789784
30
0
41
1
10
223.447682786985
20
8.27446660707565
30
0
41
1
10
223.479590878702
20
8.26996408614193
30
0
41
1
10
223.544098935602
20
8.26473794750774
30
0
41
1
10
223.576778362979
20
8.26442658994671
30
0
41
1
10
223.739712603734
20
8.26151699358729
30
0
41
1
10
223.870056668704
20
8.26178116236557
30
0
41
1
10
224.000396944418
20
8.26499672908668
30
0
0
SPLINE
5
2CA
100
AcDbEntity
8
1
62
256
6
ByLayer
370
13
48
1
60
0
100
AcDbSpline
70
4
71
3
72
9
73
5
40
0
40
0
40
0
40
0
40
0.513495271766477
40
1
40
1
40
1
40
1
41
1
10
224.000396944418
20
8.26499672908668
30
0
41
1
10
224.022535311879
20
8.26554776056378
30
0
41
1
10
224.065618842356
20
8.26752550670409
30
0
41
1
10
224.108704625631
20
8.2693810517606
30
0
41
1
10
224.129665959112
20
8.27028941155598
30
0
0
SPLINE
5
2CB
100
AcDbEntity
8
1
62
256
6
ByLayer
370
13
48
1
60
0
100
AcDbSpline
70
4
71
3
72
9
73
5
40
0
40
0
40
0
40
0
40
0.51349527176647
40
1
40
1
40
1
40
1
41
1
10
222.611235920454
20
24.1820404249173
30
0
41
1
10
222.633310610094
20
24.1838065015782
30
0
41
1
10
222.676364855248
20
24.186343044971
30
0
41
1
10
222.719408567368
20
24.1890013554989
30
0
41
1
10
222.740350021924
20
24.1902890277703
30
0
0
SPLINE
5
2CC
100
AcDbEntity
8
1
62
256
6
ByLayer
370
13
48
1
60
0
100
AcDbSpline
70
4
71
2
72
6
73
3
40
0
40
0
40
0
40
1
40
1
40
1
41
0.998835603708705
10
221.445564656397
20
16.126026912513
30
0
41
0.998293048640346
10
221.439002421504
20
16.1609094767102
30
0
41
1
10
221.435760323613
20
16.1962580379889
30
0
0
SPLINE
5
2CD
100
AcDbEntity
8
1
62
256
6
ByLayer
370
13
48
1
60
0
100
AcDbSpline
70
4
71
3
72
26
73
22
40
0
40
0
40
0
40
0
40
0.249999999999938
40
0.249999999999938
40
0.374999999999948
40
0.374999999999948
40
0.499999999999959
40
0.499999999999959
40
0.62499999999997
40
0.62499999999997
40
0.687499999999976
40
0.687499999999976
40
0.718749999999978
40
0.718749999999978
40
0.74999999999998
40
0.74999999999998
40
0.812499999999985
40
0.812499999999985
40
0.874999999999989
40
0.874999999999989
40
1
40
1
40
1
40
1
41
1
10
239.916158767461
20
9.44788724746181
30
0
41
1
10
239.878953800937
20
9.42676445642164
30
0
41
1
10
239.837316701716
20
9.4057483434247
30
0
41
1
10
239.763538804947
20
9.37580688238583
30
0
41
1
10
239.737464535297
20
9.36628091264942
30
0
41
1
10
239.680918707225
20
9.3485779157219
30
0
41
1
10
239.650540920248
20
9.34043838098131
30
0
41
1
10
239.58795099653
20
9.32728481218325
30
0
41
1
10
239.556160712593
20
9.32253853256131
30
0
41
1
10
239.510600920774
20
9.31858958426528
30
0
41
1
10
239.495729706954
20
9.31770260461516
30
0
41
1
10
239.473778572274
20
9.31658603564324
30
0
41
1
10
239.466466216564
20
9.31621795711592
30
0
41
1
10
239.452137332758
20
9.3157411602742
30
0
41
1
10
239.445117974333
20
9.31563570094082
30
0
41
1
10
239.422825730755
20
9.31417373811593
30
0
41
1
10
239.406375777069
20
9.31171049601369
30
0
41
1
10
239.375679333172
20
9.30884895545574
30
0
41
1
10
239.360840085431
20
9.30789516294067
30
0
41
1
10
239.315917310782
20
9.30465421609421
30
0
41
1
10
239.286243223907
20
9.30275076252542
30
0
41
1
10
239.257101456475
20
9.30134616436814
30
0
0
SPLINE
5
2CE
100
AcDbEntity
8
1
62
256
6
ByLayer
370
13
48
1
60
0
100
AcDbSpline
70
4
71
2
72
6
73
3
40
0
40
0
40
0
40
1
40
1
40
1
41
0.998835603708716
10
221.445564656397
20
16.1260269125125
30
0
41
0.998293048640329
10
221.442684590944
20
16.0906494983226
30
0
41
1
10
221.443155184393
20
16.0551556886504
30
0
0
SPLINE
5
2CF
100
AcDbEntity
8
1
62
256
6
ByLayer
370
13
48
1
60
0
100
AcDbSpline
70
4
71
3
72
24
73
20
40
0
40
0
40
0
40
0
40
0.0312499999999869
40
0.0312499999999869
40
0.0624999999999739
40
0.0624999999999739
40
0.124999999999959
40
0.124999999999959
40
0.156249999999952
40
0.156249999999952
40
0.171874999999949
40
0.171874999999949
40
0.187499999999945
40
0.187499999999945
40
0.249999999999944
40
0.249999999999944
40
0.499999999999962
40
0.499999999999962
40
1
40
1
40
1
40
1
41
1
10
237.432676705478
20
23.6658025538981
30
0
41
1
10
237.376937492921
20
23.6269462746085
30
0
41
1
10
237.318602396441
20
23.5907412329809
30
0
41
1
10
237.198542587491
20
23.5249335114247
30
0
41
1
10
237.137240685794
20
23.4955189705084
30
0
41
1
10
236.949626291265
20
23.4174489578176
30
0
41
1
10
236.819575120029
20
23.378803359267
30
0
41
1
10
236.617123326518
20
23.3418096368697
30
0
41
1
10
236.549418369503
20
23.3332423498721
30
0
41
1
10
236.447547240291
20
23.3257334577925
30
0
41
1
10
236.413529593294
20
23.3242625467132
30
0
41
1
10
236.345531855425
20
23.3206811635499
30
0
41
1
10
236.311531899312
20
23.3189089860428
30
0
41
1
10
236.141533890683
20
23.3100179233781
30
0
41
1
10
236.00553606374
20
23.3028951968314
30
0
41
1
10
235.325548475391
20
23.2672552302643
30
0
41
1
10
234.781560607809
20
23.2387057394319
30
0
41
1
10
233.149589751662
20
23.1531807885328
30
0
41
1
10
232.061608312737
20
23.0961800614298
30
0
41
1
10
230.973627829448
20
23.0391614203972
30
0
0
SPLINE
5
2D0
100
AcDbEntity
8
1
62
256
6
ByLayer
370
13
48
1
60
0
100
AcDbSpline
70
4
71
3
72
22
73
18
40
0
40
0
40
0
40
0
40
0.125
40
0.125
40
0.25
40
0.25
40
0.375
40
0.375
40
0.5
40
0.5
40
0.625
40
0.625
40
0.75
40
0.75
40
0.875
40
0.875
40
1
40
1
40
1
40
1
41
1
10
239.832381499117
20
24.3460146453767
30
0
41
1
10
239.823722805412
20
24.4026440523375
30
0
41
1
10
239.809613252836
20
24.4573602891143
30
0
41
1
10
239.769352918802
20
24.5625664708806
30
0
41
1
10
239.743113707508
20
24.6137733827964
30
0
41
1
10
239.680615312498
20
24.7086208719325
30
0
41
1
10
239.644870287778
20
24.752276330373
30
0
41
1
10
239.563875515223
20
24.831620634091
30
0
41
1
10
239.518643391063
20
24.867236275287
30
0
41
1
10
239.423327506442
20
24.9273335630059
30
0
41
1
10
239.372605223137
20
24.9522963794177
30
0
41
1
10
239.265296634571
20
24.9913982856368
30
0
41
1
10
239.210574939982
20
25.0051192677224
30
0
41
1
10
239.099023469466
20
25.0210472262655
30
0
41
1
10
239.04185540394
20
25.0214842851107
30
0
41
1
10
238.927897041924
20
25.0234030000201
30
0
41
1
10
238.870918627441
20
25.0237653221142
30
0
41
1
10
238.813940881606
20
25.0236068439814
30
0
0
SPLINE
5
2D1
100
AcDbEntity
8
1
62
256
6
ByLayer
370
13
48
1
60
0
100
AcDbSpline
70
4
71
3
72
20
73
16
40
0
40
0
40
0
40
0
40
0.49999999999998
40
0.49999999999998
40
0.749999999999969
40
0.749999999999969
40
0.874999999999964
40
0.874999999999964
40
0.906249999999963
40
0.906249999999963
40
0.921874999999962
40
0.921874999999962
40
0.937499999999961
40
0.937499999999961
40
1
40
1
40
1
40
1
41
1
10
230.973627829448
20
23.0391614203972
30
0
41
1
10
229.973729378172
20
22.9867589630573
30
0
41
1
10
228.973830528068
20
22.9343641155768
30
0
41
1
10
227.473982967457
20
22.8557582106966
30
0
41
1
10
226.974034899191
20
22.8295348444508
30
0
41
1
10
226.224110216734
20
22.790249189856
30
0
41
1
10
225.974134892148
20
22.7771624391954
30
0
41
1
10
225.661668345746
20
22.7607526698107
30
0
41
1
10
225.599171416731
20
22.7575419237961
30
0
41
1
10
225.505433647574
20
22.7525758173065
30
0
41
1
10
225.474187009471
20
22.7509345150667
30
0
41
1
10
225.411589610527
20
22.7497002260537
30
0
41
1
10
225.380251490081
20
22.7498585758838
30
0
41
1
10
225.22336286121
20
22.75454592991
30
0
41
1
10
225.09722433459
20
22.7706425015637
30
0
41
1
10
224.970397504812
20
22.8002794590482
30
0
0
SPLINE
5
2D2
100
AcDbEntity
8
1
62
256
6
ByLayer
370
13
48
1
60
0
100
AcDbSpline
70
4
71
2
72
6
73
3
40
0
40
0
40
0
40
1
40
1
40
1
41
1
10
221.667749863994
20
16.0689848662811
30
0
41
0.997409491337352
10
221.668514746639
20
16.0112947325919
30
0
41
1
10
221.677514576083
20
15.9543081281196
30
0
0
SPLINE
5
2D3
100
AcDbEntity
8
1
62
256
6
ByLayer
370
13
48
1
60
0
100
AcDbSpline
70
4
71
3
72
20
73
16
40
0
40
0
40
0
40
0
40
0.0624999999999976
40
0.0624999999999976
40
0.124999999999995
40
0.124999999999995
40
0.156249999999994
40
0.156249999999994
40
0.187499999999993
40
0.187499999999993
40
0.249999999999991
40
0.249999999999991
40
0.499999999999994
40
0.499999999999994
40
1
40
1
40
1
40
1
41
1
10
237.564734605263
20
23.502457645096
30
0
41
1
10
237.448506570563
20
23.4214340932648
30
0
41
1
10
237.326064871069
20
23.3533076870086
30
0
41
1
10
237.06916492789
20
23.241996535325
30
0
41
1
10
236.933057379847
20
23.1986545779327
30
0
41
1
10
236.728522236346
20
23.1553186414031
30
0
41
1
10
236.660079443699
20
23.1443531549787
30
0
41
1
10
236.52267665396
20
23.1292289264568
30
0
41
1
10
236.45363996923
20
23.1260794431842
30
0
41
1
10
236.246636586544
20
23.1152271275334
30
0
41
1
10
236.10863210436
20
23.1080215599731
30
0
41
1
10
235.418619370441
20
23.0718663665957
30
0
41
1
10
234.866613176067
20
23.0428893866948
30
0
41
1
10
233.210583867109
20
22.956101317903
30
0
41
1
10
232.106563333235
20
22.8982615850221
30
0
41
1
10
231.002543820049
20
22.8404023740509
30
0
0
SPLINE
5
2D4
100
AcDbEntity
8
1
62
256
6
ByLayer
370
13
48
1
60
0
100
AcDbSpline
70
4
71
3
72
12
73
8
40
0
40
0
40
0
40
0
40
0.25
40
0.25
40
0.5
40
0.5
40
1
40
1
40
1
40
1
41
1
10
239.062023229893
20
9.29650122553198
30
0
41
1
10
239.040256839814
20
9.29591560956553
30
0
41
1
10
239.019823381595
20
9.29622450901951
30
0
41
1
10
238.978475538296
20
9.29651957522657
30
0
41
1
10
238.957728239269
20
9.29661950350743
30
0
41
1
10
238.895562107812
20
9.29696844258814
30
0
41
1
10
238.854170097097
20
9.29723485150265
30
0
41
1
10
238.812751293586
20
9.29748388261723
30
0
0
SPLINE
5
2D5
100
AcDbEntity
8
1
62
256
6
ByLayer
370
13
48
1
60
0
100
AcDbSpline
70
4
71
1
72
4
73
2
40
0
40
0
40
1
40
1
41
1
10
223.086464128798
20
23.9507415238322
30
0
41
1
10
222.897076176785
20
24.1742836728969
30
0
0
SPLINE
5
2D6
100
AcDbEntity
8
1
62
256
6
ByLayer
370
13
48
1
60
0
100
AcDbSpline
70
4
71
3
72
24
73
20
40
0
40
0
40
0
40
0
40
0.031250000000003
40
0.031250000000003
40
0.0625000000000059
40
0.0625000000000059
40
0.125000000000012
40
0.125000000000012
40
0.156250000000009
40
0.156250000000009
40
0.171875000000008
40
0.171875000000008
40
0.187500000000006
40
0.187500000000006
40
0.250000000000012
40
0.250000000000012
40
0.500000000000012
40
0.500000000000012
40
1
40
1
40
1
40
1
41
1
10
225.185002552889
20
9.62007594668989
30
0
41
1
10
225.240741765445
20
9.65893222597956
30
0
41
1
10
225.299076861926
20
9.69513726760709
30
0
41
1
10
225.419136670876
20
9.76094498916328
30
0
41
1
10
225.480438572572
20
9.79035953007963
30
0
41
1
10
225.668052967101
20
9.8684295427704
30
0
41
1
10
225.798104138337
20
9.90707514132103
30
0
41
1
10
226.000555931848
20
9.94406886371848
30
0
41
1
10
226.068260888863
20
9.95263615071616
30
0
41
1
10
226.170132018075
20
9.96014504279574
30
0
41
1
10
226.204149665071
20
9.96161595387514
30
0
41
1
10
226.272147402941
20
9.96519733703835
30
0
41
1
10
226.306147359054
20
9.9669695145455
30
0
41
1
10
226.476145367683
20
9.9758605772102
30
0
41
1
10
226.612143194626
20
9.9829833037569
30
0
41
1
10
227.292130782974
20
10.018623270324
30
0
41
1
10
227.836118650556
20
10.0471727611564
30
0
41
1
10
229.468089506701
20
10.1326977120554
30
0
41
1
10
230.55607094563
20
10.1896984391586
30
0
41
1
10
231.64405142892
20
10.2467170801911
30
0
0
SPLINE
5
2D7
100
AcDbEntity
8
SK1
62
256
6
ByLayer
370
13
48
1
60
0
100
AcDbSpline
70
4
71
3
72
74
73
70
40
0
40
0
40
0
40
0
40
0.0156249999999999
40
0.0156249999999999
40
0.0234374999999999
40
0.0234374999999999
40
0.0312499999999998
40
0.0312499999999998
40
0.0468749999999997
40
0.0468749999999997
40
0.0624999999999996
40
0.0624999999999996
40
0.0781249999999995
40
0.0781249999999995
40
0.0937499999999994
40
0.0937499999999994
40
0.124999999999999
40
0.124999999999999
40
0.140624999999999
40
0.140624999999999
40
0.156249999999999
40
0.156249999999999
40
0.187499999999999
40
0.187499999999999
40
0.249999999999999
40
0.249999999999999
40
0.281249999999999
40
0.281249999999999
40
0.312499999999999
40
0.312499999999999
40
0.374999999999999
40
0.374999999999999
40
0.437499999999999
40
0.437499999999999
40
0.499999999999999
40
0.499999999999999
40
0.562499999999999
40
0.562499999999999
40
0.593749999999999
40
0.593749999999999
40
0.624999999999999
40
0.624999999999999
40
0.687499999999999
40
0.687499999999999
40
0.749999999999999
40
0.749999999999999
40
0.781249999999999
40
0.781249999999999
40
0.812499999999999
40
0.812499999999999
40
0.84375
40
0.84375
40
0.875
40
0.875
40
0.90625
40
0.90625
40
0.9375
40
0.9375
40
0.9453125
40
0.9453125
40
0.953125
40
0.953125
40
0.96875
40
0.96875
40
0.984375
40
0.984375
40
0.9921875
40
0.9921875
40
1
40
1
40
1
40
1
41
1
10
-6.50000000009537
20
10.670482650752
30
0
41
1
10
-6.37048388891068
20
10.6704826507608
30
0
41
1
10
-6.24446776465052
20
10.6528697557375
30
0
41
1
10
-6.06010517952292
20
10.6029156441243
30
0
41
1
10
-5.99927461449792
20
10.5821925812253
30
0
41
1
10
-5.88223506583904
20
10.5345394314587
30
0
41
1
10
-5.82559748012396
20
10.5075199899682
30
0
41
1
10
-5.66065779452136
20
10.417975973631
30
0
41
1
10
-5.55712762892128
20
10.3466184036529
30
0
41
1
10
-5.36736536971405
20
10.1913586531549
30
0
41
1
10
-5.27997153671004
20
10.1068512703449
30
0
41
1
10
-5.11666218977227
20
9.92704332772249
30
0
41
1
10
-5.04055810401205
20
9.83130794393438
30
0
41
1
10
-4.90046448763793
20
9.63491798753748
30
0
41
1
10
-4.83603834410378
20
9.5338271584321
30
0
41
1
10
-4.65598112089407
20
9.22347109153861
30
0
41
1
10
-4.55339976152399
20
9.00719880738419
30
0
41
1
10
-4.41750582616754
20
8.67228763084432
30
0
41
1
10
-4.37530268897782
20
8.55891791867154
30
0
41
1
10
-4.29686000058592
20
8.33134323345735
30
0
41
1
10
-4.26049265592715
20
8.21682554312125
30
0
41
1
10
-4.1585724311424
20
7.87130398108656
30
0
41
1
10
-4.10013853486055
20
7.63834185023578
30
0
41
1
10
-3.94578977994675
20
6.93282891322849
30
0
41
1
10
-3.87048459563749
20
6.45370790232082
30
0
41
1
10
-3.78175631324949
20
5.72457369042988
30
0
41
1
10
-3.75634074966133
20
5.47976683985843
30
0
41
1
10
-3.7120067271199
20
4.98691048522593
30
0
41
1
10
-3.69308648223611
20
4.73862820397792
30
0
41
1
10
-3.64424139462162
20
3.99444565639502
30
0
41
1
10
-3.62191393829291
20
3.49753056604814
30
0
41
1
10
-3.58913059568964
20
2.50225576491911
30
0
41
1
10
-3.57872244966512
20
2.00389538867495
30
0
41
1
10
-3.56529013292472
20
1.00580199142325
30
0
41
1
10
-3.56228022077386
20
0.506068785393097
30
0
41
1
10
-3.56223334097642
20
-0.494754197166372
30
0
41
1
10
-3.56519357916225
20
-0.995843898846687
30
0
41
1
10
-3.57526735092097
20
-1.74852495498422
30
0
41
1
10
-3.57958751937886
20
-1.99959349362723
30
0
41
1
10
-3.59064705878916
20
-2.50209075145548
30
0
41
1
10
-3.59739709579894
20
-2.75385038007658
30
0
41
1
10
-3.62227132036486
20
-3.50710000839359
30
0
41
1
10
-3.64484459181701
20
-4.00580366741292
30
0
41
1
10
-3.71010606722081
20
-4.99571816607531
30
0
41
1
10
-3.75268745857275
20
-5.48693664959626
30
0
41
1
10
-3.84180186701059
20
-6.21737273914593
30
0
41
1
10
-3.87576317934641
20
-6.45978205407951
30
0
41
1
10
-3.95487127334194
20
-6.94225537606115
30
0
41
1
10
-3.99994180570394
20
-7.18182085753699
30
0
41
1
10
-4.10416683371689
20
-7.65518824089065
30
0
41
1
10
-4.16332953330694
20
-7.88926779084468
30
0
41
1
10
-4.30073575990994
20
-8.35126379883343
30
0
41
1
10
-4.37869000461005
20
-8.57819056735369
30
0
41
1
10
-4.55882768232694
20
-9.01890405609001
30
0
41
1
10
-4.66096064418579
20
-9.23316248710555
30
0
41
1
10
-4.9012460930548
20
-9.6450662502447
30
0
41
1
10
-5.04044720826909
20
-9.84412891865716
30
0
41
1
10
-5.24436673816899
20
-10.0673788314332
30
0
41
1
10
-5.28672193295479
20
-10.1108128419076
30
0
41
1
10
-5.37506018490618
20
-10.1949099292502
30
0
41
1
10
-5.42113974977889
20
-10.2356293471388
30
0
41
1
10
-5.56352602684599
20
-10.3512474104623
30
0
41
1
10
-5.66447995477702
20
-10.4202823836625
30
0
41
1
10
-5.88197798496884
20
-10.5378913469096
30
0
41
1
10
-6.00024980803649
20
-10.5867345345007
30
0
41
1
10
-6.18283559041274
20
-10.6361515407661
30
0
41
1
10
-6.24478714200797
20
-10.6488401790656
30
0
41
1
10
-6.37105473569075
20
-10.6660269221224
30
0
41
1
10
-6.43557318110055
20
-10.6704826507564
30
0
41
1
10
-6.50000000009538
20
-10.6704826507521
30
0
0
SPLINE
5
2D8
100
AcDbEntity
8
SK1
62
256
6
ByLayer
370
13
48
1
60
0
100
AcDbSpline
70
4
71
3
72
8
73
4
40
0
40
0
40
0
40
0
40
1
40
1
40
1
40
1
41
1
10
-78.5162221138915
20
-10.4258292340309
30
0
41
1
10
-78.5439104435588
20
-10.5074660802026
30
0
41
1
10
-78.5718376779285
20
-10.5890166857158
30
0
41
1
10
-78.5999993841625
20
-10.6704826507519
30
0
0
SPLINE
5
2D9
100
AcDbEntity
8
1
62
256
6
ByLayer
370
13
48
1
60
0
100
AcDbSpline
70
4
71
3
72
40
73
36
40
0
40
0
40
0
40
0
40
0.125
40
0.125
40
0.1875
40
0.1875
40
0.25
40
0.25
40
0.374999999999999
40
0.374999999999999
40
0.406249999999999
40
0.406249999999999
40
0.437499999999999
40
0.437499999999999
40
0.499999999999999
40
0.499999999999999
40
0.531249999999999
40
0.531249999999999
40
0.562499999999999
40
0.562499999999999
40
0.624999999999999
40
0.624999999999999
40
0.656249999999999
40
0.656249999999999
40
0.687499999999999
40
0.687499999999999
40
0.749999999999999
40
0.749999999999999
40
0.8125
40
0.8125
40
0.84375
40
0.84375
40
0.875
40
0.875
40
1
40
1
40
1
40
1
41
1
10
5.298
20
-5.56776436283025
30
0
41
1
10
5.73501765850297
20
-5.22304102268387
30
0
41
1
10
6.14671842172508
20
-4.85273004638589
30
0
41
1
10
6.71572189363101
20
-4.24819673637634
30
0
41
1
10
6.89724050675687
20
-4.03844927389491
30
0
41
1
10
7.24109068889493
20
-3.59956211705844
30
0
41
1
10
7.40109558294023
20
-3.37331837785175
30
0
41
1
10
7.8403122025365
20
-2.67348795169534
30
0
41
1
10
8.08003897917104
20
-2.17863010586109
30
0
41
1
10
8.29116795824375
20
-1.51285441061108
30
0
41
1
10
8.32866603351258
20
-1.3778892902404
30
0
41
1
10
8.39301374414401
20
-1.10758952134267
30
0
41
1
10
8.42002078714394
20
-0.971775060196535
30
0
41
1
10
8.48527116478168
20
-0.56230317771201
30
0
41
1
10
8.50777641806667
20
-0.286621459478823
30
0
41
1
10
8.50841986570039
20
0.131160432647846
30
0
41
1
10
8.50303349930726
20
0.27169341469687
30
0
41
1
10
8.48130363901637
20
0.549729473367307
30
0
41
1
10
8.46500745865049
20
0.687590474611596
30
0
41
1
10
8.4004944545611
20
1.09784497351532
30
0
41
1
10
8.33668529755053
20
1.36691681098898
30
0
41
1
10
8.21177961952802
20
1.76430576008542
30
0
41
1
10
8.16518603724248
20
1.89594349748935
30
0
41
1
10
8.06285552138257
20
2.15628271778411
30
0
41
1
10
8.00754392973519
20
2.28395872132378
30
0
41
1
10
7.83019976396389
20
2.66012512014297
30
0
41
1
10
7.69680141285103
20
2.90178013300204
30
0
41
1
10
7.40381996136092
20
3.36934264097633
30
0
41
1
10
7.24421948637678
20
3.59523968699665
30
0
41
1
10
6.98735736720737
20
3.92358395968256
30
0
41
1
10
6.89863409151238
20
4.03148250072016
30
0
41
1
10
6.71687292315012
20
4.24254406763359
30
0
41
1
10
6.62379098243927
20
4.34578838247472
30
0
41
1
10
6.148216205259
20
4.85145186601815
30
0
41
1
10
5.73559927480018
20
5.22258223867647
30
0
41
1
10
5.29800000000002
20
5.56776436283022
30
0
0
SPLINE
5
2DA
100
AcDbEntity
8
1
62
256
6
ByLayer
370
13
48
1
60
0
100
AcDbSpline
70
4
71
3
72
8
73
4
40
0
40
0
40
0
40
0
40
1
40
1
40
1
40
1
41
1
10
215.098575851206
20
2.30923523050913
30
0
41
1
10
214.663514845892
20
2.49373760080491
30
0
41
1
10
214.235118040459
20
2.684144679723
30
0
41
1
10
213.814656475791
20
2.88302505486121
30
0
0
SPLINE
5
2DB
100
AcDbEntity
8
1
62
256
6
ByLayer
370
13
48
1
60
0
100
AcDbSpline
70
4
71
3
72
22
73
18
40
0
40
0
40
0
40
0
40
0.125
40
0.125
40
0.25
40
0.25
40
0.375
40
0.375
40
0.5
40
0.5
40
0.625
40
0.625
40
0.75
40
0.75
40
0.875
40
0.875
40
1
40
1
40
1
40
1
41
1
10
221.405778053157
20
7.54085755061257
30
0
41
1
10
221.364527792854
20
7.48160864185181
30
0
41
1
10
221.319076088877
20
7.42506668447822
30
0
41
1
10
221.221025811584
20
7.32133346053357
30
0
41
1
10
221.16816445616
20
7.2736951367992
30
0
41
1
10
221.053117263698
20
7.1888234437437
30
0
41
1
10
220.992532985843
20
7.15285596362523
30
0
41
1
10
220.865703049185
20
7.09589817658588
30
0
41
1
10
220.798512225714
20
7.07484122781452
30
0
41
1
10
220.66487591177
20
7.05077159217285
30
0
41
1
10
220.597619809017
20
7.04730567880779
30
0
41
1
10
220.463236835495
20
7.05641166275188
30
0
41
1
10
220.398375936886
20
7.06873741020675
30
0
41
1
10
220.272104432707
20
7.10510351217567
30
0
41
1
10
220.210293432073
20
7.12937294517494
30
0
41
1
10
220.091262719585
20
7.1856795388438
30
0
41
1
10
220.034208765311
20
7.21752158888944
30
0
41
1
10
219.978688727011
20
7.25176128484199
30
0
0
SPLINE
5
2DC
100
AcDbEntity
8
1
62
256
6
ByLayer
370
13
48
1
60
0
100
AcDbSpline
70
4
71
3
72
18
73
14
40
0
40
0
40
0
40
0
40
0.228742929341608
40
0.228742929341608
40
0.485828619561072
40
0.485828619561072
40
0.550100042115938
40
0.550100042115938
40
0.614371464670804
40
0.614371464670804
40
0.742914309780536
40
0.742914309780536
40
1
40
1
40
1
40
1
41
1
10
15.0073562260871
20
-13.1976983927955
30
0
41
1
10
14.0414316332522
20
-14.0344605491451
30
0
41
1
10
13.1491342595675
20
-14.9161972889978
30
0
41
1
10
11.4009340603026
20
-16.8792355886371
30
0
41
1
10
10.5630156140297
20
-17.9713363381445
30
0
41
1
10
9.62942883918923
20
-19.4050982298453
30
0
41
1
10
9.44846014095543
20
-19.6953124567633
30
0
41
1
10
9.09838197923985
20
-20.2828749032293
30
0
41
1
10
8.93007275661877
20
-20.5789906171223
30
0
41
1
10
8.44536394652013
20
-21.4730267390594
30
0
41
1
10
8.1487933705186
20
-22.0770851958921
30
0
41
1
10
7.3343235071172
20
-23.9117738198622
30
0
41
1
10
6.89091015342471
20
-25.1647081643768
30
0
41
1
10
6.54392593531161
20
-26.4457174758828
30
0
0
SPLINE
5
2DD
100
AcDbEntity
8
1
62
256
6
ByLayer
370
13
48
1
60
0
100
AcDbSpline
70
4
71
3
72
10
73
6
40
0
40
0
40
0
40
0
40
0.634618519439426
40
0.634618519439426
40
1
40
1
40
1
40
1
41
1
10
217.385654254863
20
9.24805040282189
30
0
41
1
10
213.648885413484
20
9.37622952383239
30
0
41
1
10
209.915118170593
20
9.4333565803577
30
0
41
1
10
204.0325242552
20
9.41420861068977
30
0
41
1
10
201.883315178101
20
9.38427017321291
30
0
41
1
10
199.733832261526
20
9.33202469908892
30
0
0
SPLINE
5
2DE
100
AcDbEntity
8
1
62
256
6
ByLayer
370
13
48
1
60
0
100
AcDbSpline
70
4
71
3
72
58
73
54
40
0
40
0
40
0
40
0
40
5.9997571725E-05
40
5.9997571725E-05
40
0.0400575976688555
40
0.0400575976688555
40
0.0600563977174205
40
0.0600563977174205
40
0.0800551977659855
40
0.0800551977659855
40
0.120052797863116
40
0.120052797863116
40
0.160050397960247
40
0.160050397960247
40
0.200047998057377
40
0.200047998057377
40
0.240045598154508
40
0.240045598154508
40
0.280043198251638
40
0.280043198251638
40
0.300041998300204
40
0.300041998300204
40
0.320040798348769
40
0.320040798348769
40
0.3600383984459
40
0.3600383984459
40
0.400035998543031
40
0.400035998543031
40
0.420034798591597
40
0.420034798591597
40
0.440033598640162
40
0.440033598640162
40
0.460032398688728
40
0.460032398688728
40
0.480031198737294
40
0.480031198737294
40
0.500029998785859
40
0.500029998785859
40
0.520028798834425
40
0.520028798834425
40
0.560026398931556
40
0.560026398931556
40
0.580025198980122
40
0.580025198980122
40
0.600023999028687
40
0.600023999028687
40
0.68001919922295
40
0.68001919922295
40
0.760014399417212
40
0.760014399417212
40
0.840009599611475
40
0.840009599611475
40
1
40
1
40
1
40
1
41
1
10
172.448158821865
20
-19.9878398632642
30
0
41
1
10
172.44561872024
20
-19.9884372353895
30
0
41
1
10
172.443078618993
20
-19.9890345575914
30
0
41
1
10
170.747171007697
20
-20.3878055839058
30
0
41
1
10
169.053311128868
20
-20.7639487587121
30
0
41
1
10
166.510297767481
20
-21.2580681071331
30
0
41
1
10
165.662107411786
20
-21.4103719098493
30
0
41
1
10
163.959849079903
20
-21.7035272492429
30
0
41
1
10
163.105948814878
20
-21.843433007185
30
0
41
1
10
160.534974448007
20
-22.2352729012954
30
0
41
1
10
158.811316628249
20
-22.4578104728497
30
0
41
1
10
155.343290635067
20
-22.8358360896991
30
0
41
1
10
153.598844683261
20
-22.9911825677451
30
0
41
1
10
150.088643444215
20
-23.2506106508942
30
0
41
1
10
148.322533091156
20
-23.3536606349698
30
0
41
1
10
144.772112095696
20
-23.5175600705579
30
0
41
1
10
142.990552287827
20
-23.5786712381341
30
0
41
1
10
139.414870589174
20
-23.6664499702712
30
0
41
1
10
137.620773111449
20
-23.6940830639426
30
0
41
1
10
134.918493703315
20
-23.7220995835829
30
0
41
1
10
134.015878668815
20
-23.7290875653997
30
0
41
1
10
132.206705631095
20
-23.7388277462753
30
0
41
1
10
131.299865060623
20
-23.741579900538
30
0
41
1
10
128.575120690451
20
-23.7441175588318
30
0
41
1
10
126.754146587879
20
-23.7372516054081
30
0
41
1
10
123.102876408025
20
-23.7197847328051
30
0
41
1
10
121.272655906206
20
-23.7089028443956
30
0
41
1
10
118.52074822157
20
-23.6925112259243
30
0
41
1
10
117.602350233677
20
-23.687059193551
30
0
41
1
10
115.763396260277
20
-23.6765678964709
30
0
41
1
10
114.842524594278
20
-23.6713043176603
30
0
41
1
10
113.000181397562
20
-23.6601705066788
30
0
41
1
10
112.078821709148
20
-23.6543641107427
30
0
41
1
10
110.235703375733
20
-23.6423812965325
30
0
41
1
10
109.313947499675
20
-23.6364716376025
30
0
41
1
10
107.470113519362
20
-23.6333935955959
30
0
41
1
10
106.548025307079
20
-23.6378584887423
30
0
41
1
10
104.703703735088
20
-23.6473264891172
30
0
41
1
10
103.78148164094
20
-23.650646542896
30
0
41
1
10
101.014699110019
20
-23.655095841868
30
0
41
1
10
99.17000166797
20
-23.652010167767
30
0
41
1
10
96.4029475906807
20
-23.6461940308403
30
0
41
1
10
95.4805965260327
20
-23.6440591932487
30
0
41
1
10
93.635893670742
20
-23.6407230574365
30
0
41
1
10
92.7135417797179
20
-23.6396213124876
30
0
41
1
10
88.101780334461
20
-23.6361564352663
30
0
41
1
10
84.4123653105604
20
-23.6395970397921
30
0
41
1
10
77.0335388026392
20
-23.6399316658384
30
0
41
1
10
73.3441263240438
20
-23.6382743707438
30
0
41
1
10
65.9653010395885
20
-23.6370593653696
30
0
41
1
10
62.2758883543561
20
-23.6372604989496
30
0
41
1
10
51.2076504829627
20
-23.6385060819742
30
0
41
1
10
43.828825310846
20
-23.6402565716669
30
0
41
1
10
36.45
20
-23.6400952497873
30
0
0
SPLINE
5
2DF
100
AcDbEntity
8
1
62
256
6
ByLayer
370
13
48
1
60
0
100
AcDbSpline
70
4
71
3
72
10
73
6
40
0
40
0
40
0
40
0
40
0.5
40
0.5
40
1
40
1
40
1
40
1
41
1
10
221.026231508204
20
9.1815828980555
30
0
41
1
10
221.015477443377
20
9.09566263646315
30
0
41
1
10
220.999330034405
20
9.01091301670238
30
0
41
1
10
220.955447312556
20
8.84392896714232
30
0
41
1
10
220.927537962426
20
8.7612602526425
30
0
41
1
10
220.893413766645
20
8.68100862404395
30
0
0
SPLINE
5
2E0
100
AcDbEntity
8
1
62
256
6
ByLayer
370
13
48
1
60
0
100
AcDbSpline
70
4
71
3
72
14
73
10
40
0
40
0
40
0
40
0
40
0.250000000000002
40
0.250000000000002
40
0.375000000000001
40
0.375000000000001
40
0.500000000000001
40
0.500000000000001
40
1
40
1
40
1
40
1
41
1
10
30.5468262250777
20
-9.63117093362109
30
0
41
1
10
30.8302870944882
20
-9.48346911384593
30
0
41
1
10
31.1215409375721
20
-9.35305463245172
30
0
41
1
10
31.5701687265934
20
-9.18342614281187
30
0
41
1
10
31.7216743060787
20
-9.13122709956542
30
0
41
1
10
32.0286849744317
20
-9.03567052148983
30
0
41
1
10
32.1845594383566
20
-8.99224333360058
30
0
41
1
10
32.9654331685559
20
-8.79980539632925
30
0
41
1
10
33.6000936380385
20
-8.72184066664127
30
0
41
1
10
34.2449982604425
20
-8.72058579152539
30
0
0
SPLINE
5
2E1
100
AcDbEntity
8
1
62
256
6
ByLayer
370
13
48
1
60
0
100
AcDbSpline
70
4
71
3
72
14
73
10
40
0
40
0
40
0
40
0
40
0.499999999999961
40
0.499999999999961
40
0.74999999999998
40
0.74999999999998
40
0.87499999999999
40
0.87499999999999
40
1
40
1
40
1
40
1
41
1
10
229.31656661371
20
9.97227175444934
30
0
41
1
10
229.475170997127
20
9.92318022199137
30
0
41
1
10
229.633513164593
20
9.89013566725015
30
0
41
1
10
229.872355969918
20
9.86115073042549
30
0
41
1
10
229.952180872772
20
9.8549722261815
30
0
41
1
10
230.072406325107
20
9.850871418184
30
0
41
1
10
230.112562798394
20
9.85036780857158
30
0
41
1
10
230.193068354884
20
9.85110344898936
30
0
41
1
10
230.23365743287
20
9.8523623122247
30
0
41
1
10
230.273390009808
20
9.85444460834719
30
0
0
SPLINE
5
2E2
100
AcDbEntity
8
1
62
256
6
ByLayer
370
13
48
1
60
0
100
AcDbSpline
70
4
71
3
72
8
73
4
40
0
40
0
40
0
40
0
40
1
40
1
40
1
40
1
41
1
10
207.145854758297
20
6.15024680812635
30
0
41
1
10
207.255543385819
20
6.11417357549871
30
0
41
1
10
207.365190482383
20
6.07844541205563
30
0
41
1
10
207.474795117099
20
6.04307005230774
30
0
0
SPLINE
5
2E3
100
AcDbEntity
8
1
62
256
6
ByLayer
370
13
48
1
60
0
100
AcDbSpline
70
4
71
3
72
8
73
4
40
0
40
0
40
0
40
0
40
1
40
1
40
1
40
1
41
1
10
218.43451744734
20
-0.444653523192642
30
0
41
1
10
218.992011277158
20
-0.503823480257779
30
0
41
1
10
219.54954128617
20
-0.562808885508929
30
0
41
1
10
220.107106212145
20
-0.621616177654801
30
0
0
SPLINE
5
2E4
100
AcDbEntity
8
1
62
256
6
ByLayer
370
13
48
1
60
0
100
AcDbSpline
70
4
71
3
72
8
73
4
40
0
40
0
40
0
40
0
40
1
40
1
40
1
40
1
41
1
10
212.667950026716
20
23.6968393999486
30
0
41
1
10
212.70095051871
20
23.748470350675
30
0
41
1
10
212.733852048018
20
23.8001658941649
30
0
41
1
10
212.766655675816
20
23.8519253377913
30
0
0
SPLINE
5
2E5
100
AcDbEntity
8
1
62
256
6
ByLayer
370
13
48
1
60
0
100
AcDbSpline
70
4
71
3
72
8
73
4
40
0
40
0
40
0
40
0
40
1
40
1
40
1
40
1
41
1
10
225.929956732343
20
8.79840578102173
30
0
41
1
10
225.951391865019
20
8.82173253673892
30
0
41
1
10
225.972435739482
20
8.84548473087119
30
0
41
1
10
225.993058048494
20
8.86963403626078
30
0
0
SPLINE
5
2E6
100
AcDbEntity
8
1
62
256
6
ByLayer
370
13
48
1
60
0
100
AcDbSpline
70
4
71
3
72
46
73
42
40
0
40
0
40
0
40
0
40
0.0671183692508853
40
0.148360608657056
40
0.235536188694333
40
0.328736296120138
40
0.427991407143335
40
0.533266711169138
40
0.542644034901688
40
0.5523147457852
40
0.562279548880024
40
0.572539129956479
40
0.583094153475452
40
0.593945260341552
40
0.605093065444381
40
0.616538155001001
40
0.628281083710673
40
0.640322371731558
40
0.65266250148789
40
0.665301914315455
40
0.678241006952599
40
0.691480127883772
40
0.705019573542429
40
0.718859584380207
40
0.733000340809448
40
0.747441959026423
40
0.762184486723079
40
0.777227898695562
40
0.792572092358408
40
0.808216883173982
40
0.824162000007432
40
0.840407080418308
40
0.85695166590087
40
0.873795197086028
40
0.890937008918909
40
0.908376325827083
40
0.926112256895618
40
0.944143791066307
40
0.962469792379611
40
0.981088995279167
40
1
40
1
40
1
40
1
41
1
10
32.5852391846556
20
-8.8495872040242
30
0
41
1
10
32.6347716625198
20
-8.95772071323776
30
0
41
1
10
32.7493317708394
20
-9.19928232866414
30
0
41
1
10
32.9481067603116
20
-9.59061563312082
30
0
41
1
10
33.1907018445342
20
-10.0319805494667
30
0
41
1
10
33.4741291589312
20
-10.5076477541294
30
0
41
1
10
33.8009347435742
20
-11.0141817281194
30
0
41
1
10
34.0524786047126
20
-11.3749149414056
30
0
41
1
10
34.20275116268
20
-11.582277174586
30
0
41
1
10
34.2379403955608
20
-11.630613104874
30
0
41
1
10
34.2743483829626
20
-11.6803339460041
30
0
41
1
10
34.3119935484593
20
-11.7314264322229
30
0
41
1
10
34.350898208419
20
-11.7838716198556
30
0
41
1
10
34.3910829362874
20
-11.837650457182
30
0
41
1
10
34.4325680053783
20
-11.8927421442871
30
0
41
1
10
34.4753728449298
20
-11.9491245106703
30
0
41
1
10
34.5195160461343
20
-12.006773828634
30
0
41
1
10
34.5650152090969
20
-12.0656647843916
30
0
41
1
10
34.6118868287249
20
-12.1257704055702
30
0
41
1
10
34.6601461643649
20
-12.1870620015257
30
0
41
1
10
34.7098071086379
20
-12.249509101026
30
0
41
1
10
34.7608820512693
20
-12.3130793918874
30
0
41
1
10
34.813381739211
20
-12.3777386615914
30
0
41
1
10
34.8673151328526
20
-12.4434507394626
30
0
41
1
10
34.9226892585693
20
-12.5101774405715
30
0
41
1
10
34.9795090577622
20
-12.5778785116548
30
0
41
1
10
35.037777232611
20
-12.6465115793137
30
0
41
1
10
35.0974940887796
20
-12.7160321008006
30
0
41
1
10
35.1586573753427
20
-12.7863933175904
30
0
41
1
10
35.2212621222682
20
-12.8575462124011
30
0
41
1
10
35.2853004757036
20
-12.9294394685661
30
0
41
1
10
35.3507615318049
20
-13.0020194374717
30
0
41
1
10
35.4176311681607
20
-13.0752300936467
30
0
41
1
10
35.4858918785067
20
-13.1490130573709
30
0
41
1
10
35.5555225911578
20
-13.2233073801528
30
0
41
1
10
35.6264985486187
20
-13.2980502621212
30
0
41
1
10
35.6987909543518
20
-13.3731742253877
30
0
41
1
10
35.772367515127
20
-13.4486178794444
30
0
41
1
10
35.8471895644796
20
-13.5242847145313
30
0
41
1
10
35.9232222703072
20
-13.6002006594434
30
0
41
1
10
35.9742751094732
20
-13.650286824259
30
0
41
1
10
36
20
-13.6755246196066
30
0
0
SPLINE
5
2E7
100
AcDbEntity
8
1
62
256
6
ByLayer
370
13
48
1
60
0
100
AcDbSpline
70
4
71
1
72
4
73
2
40
0
40
0
40
1
40
1
41
1
10
36.45
20
-13.6703759399753
30
0
41
1
10
36.01
20
-13.6703759399753
30
0
0
SPLINE
5
2E8
100
AcDbEntity
8
1
62
256
6
ByLayer
370
13
48
1
60
0
100
AcDbSpline
70
4
71
3
72
8
73
4
40
0
40
0
40
0
40
0
40
1
40
1
40
1
40
1
41
1
10
41
20
-8.72084907047963
30
0
41
1
10
39.3333332890365
20
-8.72045015439164
30
0
41
1
10
37.6666666047531
20
-8.71992340341291
30
0
41
1
10
36
20
-8.71923938887818
30
0
0
SPLINE
5
2E9
100
AcDbEntity
8
1
62
256
6
ByLayer
370
13
48
1
60
0
100
AcDbSpline
70
4
71
3
72
10
73
6
40
0
40
0
40
0
40
0
40
0.806108221291615
40
0.806108221291615
40
1
40
1
40
1
40
1
41
1
10
221.85566143541
20
18.0108370646733
30
0
41
1
10
221.81925528529
20
17.9617125872185
30
0
41
1
10
221.787621083916
20
17.913940345364
30
0
41
1
10
221.758382811686
20
17.8639372116427
30
0
41
1
10
221.753194300718
20
17.8546879381902
30
0
41
1
10
221.74867345325
20
17.8462183698863
30
0
0
SPLINE
5
2EA
100
AcDbEntity
8
1
62
256
6
ByLayer
370
13
48
1
60
0
100
AcDbSpline
70
4
71
3
72
14
73
10
40
0
40
0
40
0
40
0
40
0.25
40
0.25
40
0.5
40
0.5
40
0.75
40
0.75
40
1
40
1
40
1
40
1
41
1
10
220.893413766645
20
8.68100862404376
30
0
41
1
10
220.874128511209
20
8.6356544956538
30
0
41
1
10
220.856555037746
20
8.59000982613196
30
0
41
1
10
220.825758305197
20
8.49778999255312
30
0
41
1
10
220.81254126237
20
8.45099745207182
30
0
41
1
10
220.792552415772
20
8.35974010847676
30
0
41
1
10
220.785613652114
20
8.31484155114589
30
0
41
1
10
220.778690859329
20
8.22625493387741
30
0
41
1
10
220.778812040977
20
8.18237283130298
30
0
41
1
10
220.782592297933
20
8.14079991006497
30
0
0
SPLINE
5
2EB
100
AcDbEntity
8
1
62
256
6
ByLayer
370
13
48
1
60
0
100
AcDbSpline
70
4
71
3
72
18
73
14
40
0
40
0
40
0
40
0
40
0.125
40
0.125
40
0.25
40
0.25
40
0.375
40
0.375
40
0.5
40
0.5
40
0.75
40
0.75
40
1
40
1
40
1
40
1
41
1
10
225.554549027963
20
8.49707769118984
30
0
41
1
10
225.54158787575
20
8.48429698154598
30
0
41
1
10
225.533233985656
20
8.47525621034984
30
0
41
1
10
225.528353281614
20
8.46632465714509
30
0
41
1
10
225.531728357927
20
8.46626778058831
30
0
41
1
10
225.548059610003
20
8.47382128732863
30
0
41
1
10
225.561099549352
20
8.48144411601149
30
0
41
1
10
225.593059509066
20
8.50214299103669
30
0
41
1
10
225.612263314154
20
8.5153986884784
30
0
41
1
10
225.67532858426
20
8.56159806065676
30
0
41
1
10
225.723358883469
20
8.59990896478882
30
0
41
1
10
225.826162336558
20
8.69136606546596
30
0
41
1
10
225.878228599887
20
8.74211270703972
30
0
41
1
10
225.929956732343
20
8.79840578102187
30
0
0
SPLINE
5
2EC
100
AcDbEntity
8
1
62
256
6
ByLayer
370
13
48
1
60
0
100
AcDbSpline
70
4
71
3
72
8
73
4
40
0
40
0
40
0
40
0
40
1
40
1
40
1
40
1
41
1
10
219.170554982346
20
11.297034541346
30
0
41
1
10
219.15423345386
20
11.3006591735535
30
0
41
1
10
219.137833678207
20
11.3037929263787
30
0
41
1
10
219.121349742154
20
11.3063987034609
30
0
0
SPLINE
5
2ED
100
AcDbEntity
8
1
62
256
6
ByLayer
370
13
48
1
60
0
100
AcDbSpline
70
4
71
3
72
10
73
6
40
0
40
0
40
0
40
0
40
0.5
40
0.5
40
1
40
1
40
1
40
1
41
1
10
219.978688727011
20
7.25176128484196
30
0
41
1
10
219.546985970782
20
7.51799617169627
30
0
41
1
10
219.098723625613
20
7.76314080655661
30
0
41
1
10
218.177007756042
20
8.22134665198774
30
0
41
1
10
217.70347826339
20
8.43431110958042
30
0
41
1
10
217.219452012714
20
8.63390692181358
30
0
0
SPLINE
5
2EE
100
AcDbEntity
8
1
62
256
6
ByLayer
370
13
48
1
60
0
100
AcDbSpline
70
4
71
3
72
14
73
10
40
0
40
0
40
0
40
0
40
0.500000000000001
40
0.500000000000001
40
0.750000000000001
40
0.750000000000001
40
0.875
40
0.875
40
1
40
1
40
1
40
1
41
1
10
212.667950026722
20
23.6968393999574
30
0
41
1
10
213.387583044566
20
22.12853414483
30
0
41
1
10
214.205704671418
20
20.6212003458046
30
0
41
1
10
215.620412023822
20
18.476290909624
30
0
41
1
10
216.123255913572
20
17.7806824066986
30
0
41
1
10
216.92917658539
20
16.7692476715969
30
0
41
1
10
217.206834285851
20
16.4369693027826
30
0
41
1
10
217.777926981201
20
15.7859340907295
30
0
41
1
10
218.071107210458
20
15.4674169045768
30
0
41
1
10
218.371985084829
20
15.1559586107142
30
0
0
SPLINE
5
2EF
100
AcDbEntity
8
1
62
256
6
ByLayer
370
13
48
1
60
0
100
AcDbSpline
70
4
71
3
72
8
73
4
40
0
40
0
40
0
40
0
40
1
40
1
40
1
40
1
41
1
10
217.383883999012
20
9.24178519151266
30
0
41
1
10
217.384423172884
20
9.24388609067165
30
0
41
1
10
217.385013859293
20
9.24597434169095
30
0
41
1
10
217.385654254862
20
9.24805040282189
30
0
0
SPLINE
5
2F0
100
AcDbEntity
8
1
62
256
6
ByLayer
370
13
48
1
60
0
100
AcDbSpline
70
4
71
3
72
8
73
4
40
0
40
0
40
0
40
0
40
1
40
1
40
1
40
1
41
1
10
34.2449981408473
20
-23.6544663819241
30
0
41
1
10
34.2449981424302
20
-23.8833740424422
30
0
41
1
10
34.2449981440351
20
-24.112281702944
30
0
41
1
10
34.2449981456622
20
-24.3411893634295
30
0
0
SPLINE
5
2F1
100
AcDbEntity
8
1
62
256
6
ByLayer
370
13
48
1
60
0
100
AcDbSpline
70
4
71
3
72
18
73
14
40
0
40
0
40
0
40
0
40
0.124999999999992
40
0.124999999999992
40
0.249999999999984
40
0.249999999999984
40
0.499999999999989
40
0.499999999999989
40
0.624999999999992
40
0.624999999999992
40
0.749999999999994
40
0.749999999999994
40
1
40
1
40
1
40
1
41
1
10
219.170554982344
20
11.297034541339
30
0
41
1
10
219.275046749999
20
11.2285937161784
30
0
41
1
10
219.377558732108
20
11.1557745834201
30
0
41
1
10
219.575796084634
20
11.0032200058345
30
0
41
1
10
219.670819439594
20
10.924093952028
30
0
41
1
10
219.944484083853
20
10.6791545182518
30
0
41
1
10
220.111784500814
20
10.5058518450522
30
0
41
1
10
220.342890755752
20
10.2344835981642
30
0
41
1
10
220.416602646503
20
10.1421082492737
30
0
41
1
10
220.557674904789
20
9.95393297233409
30
0
41
1
10
220.625305542079
20
9.85769937195275
30
0
41
1
10
220.816140368545
20
9.56873740931235
30
0
41
1
10
220.928060498791
20
9.37537841110878
30
0
41
1
10
221.026231508204
20
9.18158289805589
30
0
0
SPLINE
5
2F2
100
AcDbEntity
8
1
62
256
6
ByLayer
370
13
48
1
60
0
100
AcDbSpline
70
4
71
3
72
8
73
4
40
0
40
0
40
0
40
0
40
1
40
1
40
1
40
1
41
1
10
225.538118329176
20
9.57695437757587
30
0
41
1
10
225.565910625825
20
9.57788142942431
30
0
41
1
10
225.594332477491
20
9.57769173670368
30
0
41
1
10
225.622237410308
20
9.57628185407737
30
0
0
SPLINE
5
2F3
100
AcDbEntity
8
1
62
256
6
ByLayer
370
13
48
1
60
0
100
AcDbSpline
70
4
71
3
72
10
73
6
40
0
40
0
40
0
40
0
40
0.5
40
0.5
40
1
40
1
40
1
40
1
41
1
10
234.633042717522
20
10.2508964606615
30
0
41
1
10
234.658906601917
20
10.2626198476685
30
0
41
1
10
234.686819114753
20
10.2722721267598
30
0
41
1
10
234.744210755753
20
10.2861838033097
30
0
41
1
10
234.773817215536
20
10.2905598622102
30
0
41
1
10
234.80434250233
20
10.2921761993327
30
0
0
SPLINE
5
2F4
100
AcDbEntity
8
1
62
256
6
ByLayer
370
13
48
1
60
0
100
AcDbSpline
70
4
71
3
72
18
73
14
40
0
40
0
40
0
40
0
40
0.25000000000003
40
0.25000000000003
40
0.375000000000045
40
0.375000000000045
40
0.50000000000006
40
0.50000000000006
40
0.750000000000048
40
0.750000000000048
40
0.875000000000024
40
0.875000000000024
40
1
40
1
40
1
40
1
41
1
10
239.135271084678
20
9.16558222422748
30
0
41
1
10
238.989839278409
20
9.18549235209059
30
0
41
1
10
238.84901124348
20
9.21630175366275
30
0
41
1
10
238.641167334078
20
9.27900280827564
30
0
41
1
10
238.572280972996
20
9.30278324979997
30
0
41
1
10
238.437250764075
20
9.35554959619995
30
0
41
1
10
238.370951567473
20
9.384563906739
30
0
41
1
10
238.175441373206
20
9.47980177919078
30
0
41
1
10
238.049583637542
20
9.55407352510045
30
0
41
1
10
237.867324869547
20
9.68492624975406
30
0
41
1
10
237.80775726981
20
9.7318252237047
30
0
41
1
10
237.693785419936
20
9.83047237059506
30
0
41
1
10
237.639021858923
20
9.8824624477181
30
0
41
1
10
237.586596423833
20
9.93730181214536
30
0
0
SPLINE
5
2F5
100
AcDbEntity
8
1
62
256
6
ByLayer
370
13
48
1
60
0
100
AcDbSpline
70
4
71
3
72
8
73
4
40
0
40
0
40
0
40
0
40
1
40
1
40
1
40
1
41
1
10
225.538118329177
20
9.57695437757931
30
0
41
1
10
225.489934455341
20
9.57534713547636
30
0
41
1
10
225.441792969864
20
9.57446966301427
30
0
41
1
10
225.393731423851
20
9.57474930602103
30
0
0
SPLINE
5
2F6
100
AcDbEntity
8
1
62
256
6
ByLayer
370
13
48
1
60
0
100
AcDbSpline
70
4
71
3
72
20
73
16
40
0
40
0
40
0
40
0
40
0.125000000000001
40
0.125000000000001
40
0.250000000000002
40
0.250000000000002
40
0.499999999999997
40
0.499999999999997
40
0.624999999999998
40
0.624999999999998
40
0.749999999999998
40
0.749999999999998
40
0.874999999999999
40
0.874999999999999
40
1
40
1
40
1
40
1
41
1
10
217.385654254862
20
9.24805040282186
30
0
41
1
10
217.406298470721
20
9.31497568487609
30
0
41
1
10
217.426165247418
20
9.38563828794597
30
0
41
1
10
217.464959526506
20
9.53438909434811
30
0
41
1
10
217.484004422726
20
9.61306976814484
30
0
41
1
10
217.538914799353
20
9.8545460992942
30
0
41
1
10
217.572819991717
20
10.0234155978889
30
0
41
1
10
217.621933852841
20
10.2883725446715
30
0
41
1
10
217.637763072681
20
10.3773343082692
30
0
41
1
10
217.66856397304
20
10.5543643582663
30
0
41
1
10
217.683584278403
20
10.6427647672504
30
0
41
1
10
217.713753044491
20
10.8191759490713
30
0
41
1
10
217.72897326819
20
10.907766716518
30
0
41
1
10
217.760562522519
20
11.0801259306494
30
0
41
1
10
217.776825651861
20
11.1641804960023
30
0
41
1
10
217.795932765158
20
11.2455752258486
30
0
0
SPLINE
5
2F7
100
AcDbEntity
8
1
62
256
6
ByLayer
370
13
48
1
60
0
100
AcDbSpline
70
4
71
3
72
16
73
12
40
0
40
0
40
0
40
0
40
0.25
40
0.25
40
0.500000000000001
40
0.500000000000001
40
0.625000000000001
40
0.625000000000001
40
0.750000000000001
40
0.750000000000001
40
1
40
1
40
1
40
1
41
1
10
34.2449981408473
20
-23.6544663819046
30
0
41
1
10
33.9108754631024
20
-23.6545923852
30
0
41
1
10
33.5821703089712
20
-23.6799763660414
30
0
41
1
10
32.9348394833657
20
-23.7777376339866
30
0
41
1
10
32.6162177039696
20
-23.8501330670363
30
0
41
1
10
32.1456604087605
20
-23.9931122278538
30
0
41
1
10
31.9906965612666
20
-24.046370632863
30
0
41
1
10
31.6882878573719
20
-24.1620865647293
30
0
41
1
10
31.5402302452324
20
-24.2247249060344
30
0
41
1
10
31.1049289826865
20
-24.4261171971662
30
0
41
1
10
30.8265221807176
20
-24.5782956610027
30
0
41
1
10
30.558910055181
20
-24.7468728767273
30
0
0
SPLINE
5
2F8
100
AcDbEntity
8
1
62
256
6
ByLayer
370
13
48
1
60
0
100
AcDbSpline
70
4
71
3
72
34
73
30
40
0
40
0
40
0
40
0
40
0.124424534495348
40
0.124424534495348
40
0.186636801743022
40
0.186636801743022
40
0.248849068990697
40
0.248849068990697
40
0.373273603486048
40
0.373273603486048
40
0.497698137981399
40
0.497698137981399
40
0.62212267247675
40
0.62212267247675
40
0.746547206972101
40
0.746547206972101
40
0.870971741467452
40
0.870971741467452
40
0.902077875091291
40
0.902077875091291
40
0.91763094190321
40
0.91763094190321
40
0.93318400871513
40
0.93318400871513
40
0.96429014233897
40
0.96429014233897
40
0.99539627596281
40
0.99539627596281
40
1
40
1
40
1
40
1
41
1
10
212.667950026699
20
23.6968393999588
30
0
41
1
10
210.931936315617
20
23.813575342013
30
0
41
1
10
209.196685519095
20
23.8930957184194
30
0
41
1
10
206.592974748575
20
23.9565798660444
30
0
41
1
10
205.72480666474
20
23.9684295133116
30
0
41
1
10
203.989727033424
20
23.9734361611648
30
0
41
1
10
203.122598937078
20
23.9666013543016
30
0
41
1
10
200.521941468713
20
23.9179842968031
30
0
41
1
10
198.789146900723
20
23.8481108230261
30
0
41
1
10
195.322670518588
20
23.6322124061561
30
0
41
1
10
193.588966615481
20
23.4862437633474
30
0
41
1
10
190.117718304973
20
23.1204230601287
30
0
41
1
10
188.383013155246
20
22.9008665118705
30
0
41
1
10
184.915941543731
20
22.3920619746924
30
0
41
1
10
183.183158819075
20
22.1027194630373
30
0
41
1
10
179.716337654396
20
21.4432402453151
30
0
41
1
10
177.981663017969
20
21.0722361901384
30
0
41
1
10
175.811383881889
20
20.5867042155718
30
0
41
1
10
175.377341833741
20
20.4885118014195
30
0
41
1
10
174.726273309268
20
20.3399695829827
30
0
41
1
10
174.509249800313
20
20.2902450023629
30
0
41
1
10
174.075199032628
20
20.1904294978564
30
0
41
1
10
173.858206776242
20
20.140470762686
30
0
41
1
10
173.206830915582
20
19.9886275765643
30
0
41
1
10
172.771686515947
20
19.8834624378678
30
0
41
1
10
171.900223132348
20
19.6692453702335
30
0
41
1
10
171.463954235982
20
19.5603343611473
30
0
41
1
10
170.962524905114
20
19.4338983318315
30
0
41
1
10
170.897869063027
20
19.4175735183706
30
0
41
1
10
170.833201969226
20
19.4012247700754
30
0
0
SPLINE
5
2F9
100
AcDbEntity
8
1
62
256
6
ByLayer
370
13
48
1
60
0
100
AcDbSpline
70
4
71
3
72
18
73
14
40
0
40
0
40
0
40
0
40
0.124999999999991
40
0.124999999999991
40
0.249999999999982
40
0.249999999999982
40
0.374999999999972
40
0.374999999999972
40
0.499999999999963
40
0.499999999999963
40
0.749999999999982
40
0.749999999999982
40
1
40
1
40
1
40
1
41
1
10
220.782592297931
20
8.1407999100656
30
0
41
1
10
220.786249826309
20
8.10057668160019
30
0
41
1
10
220.79338284958
20
8.0615178130451
30
0
41
1
10
220.814086286365
20
7.98722949483334
30
0
41
1
10
220.827486584411
20
7.95236956116767
30
0
41
1
10
220.859503430222
20
7.88664465829874
30
0
41
1
10
220.878256177397
20
7.85560835289542
30
0
41
1
10
220.919580387218
20
7.79822541244772
30
0
41
1
10
220.942055567271
20
7.77192378610283
30
0
41
1
10
221.013739171826
20
7.69943018284596
30
0
41
1
10
221.067478171812
20
7.65933998434875
30
0
41
1
10
221.181003008892
20
7.59671987565076
30
0
41
1
10
221.240000670633
20
7.57450763299661
30
0
41
1
10
221.300174062668
20
7.56204120504182
30
0
0
SPLINE
5
2FA
100
AcDbEntity
8
1
62
256
6
ByLayer
370
13
48
1
60
0
100
AcDbSpline
70
4
71
3
72
14
73
10
40
0
40
0
40
0
40
0
40
0.25
40
0.25
40
0.5
40
0.5
40
0.75
40
0.75
40
1
40
1
40
1
40
1
41
1
10
225.894599543143
20
9.52441717726725
30
0
41
1
10
225.922215734162
20
9.51716434792408
30
0
41
1
10
225.947046305561
20
9.50861868801042
30
0
41
1
10
225.988786643865
20
9.48980508534154
30
0
41
1
10
226.00628097267
20
9.47925311384901
30
0
41
1
10
226.032567483606
20
9.45718840010125
30
0
41
1
10
226.041520024574
20
9.44570944890489
30
0
41
1
10
226.051601406737
20
9.42191779372385
30
0
41
1
10
226.052574349004
20
9.40959353218685
30
0
41
1
10
226.049832509097
20
9.39756816123071
30
0
0
SPLINE
5
2FB
100
AcDbEntity
8
1
62
256
6
ByLayer
370
13
48
1
60
0
100
AcDbSpline
70
4
71
3
72
12
73
8
40
0
40
0
40
0
40
0
40
0.293898859460147
40
0.293898859460147
40
0.646949429730074
40
0.646949429730074
40
1
40
1
40
1
40
1
41
1
10
36.4499872299382
20
-8.7108269493626
30
0
41
1
10
36.4499296614893
20
-9.15787218057673
30
0
41
1
10
36.4498800673748
20
-9.64195685382421
30
0
41
1
10
36.4497936411522
20
-10.7407742293383
30
0
41
1
10
36.4497614147356
20
-11.3618342539545
30
0
41
1
10
36.449731081078
20
-12.5650068550177
30
0
41
1
10
36.4497329829023
20
-13.1467598588679
30
0
41
1
10
36.4497518281603
20
-13.6703759387848
30
0
0
SPLINE
5
2FC
100
AcDbEntity
8
1
62
256
6
ByLayer
370
13
48
1
60
0
100
AcDbSpline
70
4
71
3
72
12
73
8
40
0
40
0
40
0
40
0
40
0.491934447862709
40
0.491934447862709
40
0.745967223931355
40
0.745967223931355
40
1
40
1
40
1
40
1
41
1
10
195.77255792093
20
10.9019241752359
30
0
41
1
10
199.383008973701
20
11.1133203671977
30
0
41
1
10
202.992432366176
20
11.2513485055306
30
0
41
1
10
208.469036148543
20
11.3425215206398
30
0
41
1
10
210.334805211931
20
11.3528069949746
30
0
41
1
10
214.065355517964
20
11.3310381705852
30
0
41
1
10
215.930496586897
20
11.2989946833944
30
0
41
1
10
217.795932765158
20
11.2455752258486
30
0
0
SPLINE
5
2FD
100
AcDbEntity
8
1
62
256
6
ByLayer
370
13
48
1
60
0
100
AcDbSpline
70
4
71
3
72
8
73
4
40
0
40
0
40
0
40
0
40
1
40
1
40
1
40
1
41
1
10
36
20
-24.2837313580284
30
0
41
1
10
35.4139014625535
20
-24.2837142631489
30
0
41
1
10
34.82890301381
20
-24.3029047084254
30
0
41
1
10
34.2449981456622
20
-24.3411893634302
30
0
0
SPLINE
5
2FE
100
AcDbEntity
8
1
62
256
6
ByLayer
370
13
48
1
60
0
100
AcDbSpline
70
4
71
3
72
18
73
14
40
0
40
0
40
0
40
0
40
0.125
40
0.125
40
0.1875
40
0.1875
40
0.21875
40
0.21875
40
0.25
40
0.25
40
0.5
40
0.5
40
1
40
1
40
1
40
1
41
1
10
30.5468262250775
20
-9.63117093362069
30
0
41
1
10
29.8973562082459
20
-9.73658891798146
30
0
41
1
10
29.2537647896291
20
-9.86046342314913
30
0
41
1
10
28.2970891513159
20
-10.0736258831263
30
0
41
1
10
27.9796505231089
20
-10.1492426822729
30
0
41
1
10
27.5056715093793
20
-10.2695088725385
30
0
41
1
10
27.3480417471956
20
-10.310738043007
30
0
41
1
10
27.0335096246529
20
-10.3954801438511
30
0
41
1
10
26.8766826488215
20
-10.4392297524365
30
0
41
1
10
25.4670520565511
20
-10.8386658048609
30
0
41
1
10
24.2079955427536
20
-11.1732599168398
30
0
41
1
10
20.408832625742
20
-12.1190602794059
30
0
41
1
10
17.8454248020606
20
-12.6727179339449
30
0
41
1
10
15.2522901374447
20
-13.1517726388992
30
0
0
SPLINE
5
2FF
100
AcDbEntity
8
1
62
256
6
ByLayer
370
13
48
1
60
0
100
AcDbSpline
70
4
71
3
72
23
73
19
40
0
40
0
40
0
40
0
40
0.125
40
0.125
40
0.25
40
0.25
40
0.375
40
0.375
40
0.5
40
0.625
40
0.625
40
0.75
40
0.75
40
0.875
40
0.875
40
0.9375
40
0.9375
40
1
40
1
40
1
40
1
41
1
10
225.999476950795
20
8.61897997202732
30
0
41
1
10
225.898530937841
20
8.52652464807218
30
0
41
1
10
225.791019925729
20
8.4422314090607
30
0
41
1
10
225.561841690486
20
8.29038537816737
30
0
41
1
10
225.442509459987
20
8.22442053316308
30
0
41
1
10
225.195284459864
20
8.11234769541832
30
0
41
1
10
225.066759108206
20
8.06598536904582
30
0
41
1
10
224.801510842867
20
7.99405979951581
30
0
41
1
10
224.533451423995
20
7.94426137553856
30
0
41
1
10
224.25974126077
20
7.93705745794199
30
0
41
1
10
223.983221481745
20
7.95197634484663
30
0
41
1
10
223.846428035536
20
7.97041122819272
30
0
41
1
10
223.57852294798
20
8.02809195449493
30
0
41
1
10
223.44694923978
20
8.06735949074536
30
0
41
1
10
223.253410457198
20
8.14250891183696
30
0
41
1
10
223.189749884026
20
8.17023059920288
30
0
41
1
10
223.066104068819
20
8.23008973239163
30
0
41
1
10
223.005837835592
20
8.26233200253193
30
0
41
1
10
222.947151413128
20
8.29683901633624
30
0
0
SPLINE
5
300
100
AcDbEntity
8
1
62
256
6
ByLayer
370
13
48
1
60
0
100
AcDbSpline
70
4
71
3
72
10
73
6
40
0
40
0
40
0
40
0
40
0.5
40
0.5
40
1
40
1
40
1
40
1
41
1
10
214.09228649007
20
1.08054059055939
30
0
41
1
10
214.554784151268
20
0.774090063672702
30
0
41
1
10
215.036554478467
20
0.513216890083527
30
0
41
1
10
216.040356263684
20
0.0868612256334416
30
0
41
1
10
216.562305668855
20
-0.0788160339905914
30
0
41
1
10
217.107106212146
20
-0.190287008189131
30
0
0
SPLINE
5
301
100
AcDbEntity
8
1
62
256
6
ByLayer
370
13
48
1
60
0
100
AcDbSpline
70
4
71
3
72
38
73
34
40
0
40
0
40
0
40
0
40
0.125
40
0.125
40
0.1875
40
0.1875
40
0.25
40
0.25
40
0.374999999999999
40
0.374999999999999
40
0.437499999999999
40
0.437499999999999
40
0.499999999999998
40
0.499999999999998
40
0.562499999999998
40
0.562499999999998
40
0.593749999999999
40
0.593749999999999
40
0.624999999999999
40
0.624999999999999
40
0.749999999999999
40
0.749999999999999
40
0.781249999999999
40
0.781249999999999
40
0.812499999999999
40
0.812499999999999
40
0.875
40
0.875
40
0.9375
40
0.9375
40
0.96875
40
0.96875
40
1
40
1
40
1
40
1
41
1
10
15.2522901374447
20
-13.1517726388991
30
0
41
1
10
14.5774823792917
20
-13.2764381272395
30
0
41
1
10
13.9180040988242
20
-13.4558159327662
30
0
41
1
10
12.9495592361876
20
-13.7998961903899
30
0
41
1
10
12.6302388528725
20
-13.9272135998217
30
0
41
1
10
11.9985873087895
20
-14.2073225820521
30
0
41
1
10
11.6849665391467
20
-14.3609278741905
30
0
41
1
10
10.7739734331505
20
-14.8509081400433
30
0
41
1
10
10.2004264349341
20
-15.2175012913485
30
0
41
1
10
9.39265795505446
20
-15.8280882066145
30
0
41
1
10
9.13221965350337
20
-16.0417991766237
30
0
41
1
10
8.63012587675067
20
-16.4906183485919
30
0
41
1
10
8.39268666019234
20
-16.7220712542991
30
0
41
1
10
7.94722045513974
20
-17.1972745933763
30
0
41
1
10
7.73887061375041
20
-17.4412640694939
30
0
41
1
10
7.4491095974048
20
-17.8170434740361
30
0
41
1
10
7.35632741534
20
-17.9439406932032
30
0
41
1
10
7.17872169565274
20
-18.2011115164977
30
0
41
1
10
7.09358847710195
20
-18.3319136758105
30
0
41
1
10
6.69370299949608
20
-18.9868220016267
30
0
41
1
10
6.4541885620818
20
-19.5133100261166
30
0
41
1
10
6.26377700047767
20
-20.1734739926336
30
0
41
1
10
6.23129549002562
20
-20.3056271603927
30
0
41
1
10
6.17783529392469
20
-20.570124726998
30
0
41
1
10
6.15694079355852
20
-20.7024182185336
30
0
41
1
10
6.11306757122364
20
-21.0919023962111
30
0
41
1
10
6.10850060364123
20
-21.3442727256382
30
0
41
1
10
6.14878174555083
20
-21.834610993115
30
0
41
1
10
6.19335085138228
20
-22.0726157236926
30
0
41
1
10
6.29791339126223
20
-22.4187139104686
30
0
41
1
10
6.33896591749193
20
-22.5317427456698
30
0
41
1
10
6.43264804790662
20
-22.7512887481279
30
0
41
1
10
6.4853656632705
20
-22.8581090149669
30
0
41
1
10
6.54395770310029
20
-22.9620233198233
30
0
0
SPLINE
5
302
100
AcDbEntity
8
1
62
256
6
ByLayer
370
13
48
1
60
0
100
AcDbSpline
70
4
71
3
72
8
73
4
40
0
40
0
40
0
40
0
40
1
40
1
40
1
40
1
41
1
10
217.219452012718
20
8.63390692181946
30
0
41
1
10
217.277377120719
20
8.83600266758222
30
0
41
1
10
217.331764515316
20
9.03870083368335
30
0
41
1
10
217.383883999012
20
9.24178519151266
30
0
0
SPLINE
5
303
100
AcDbEntity
8
1
62
256
6
ByLayer
370
13
48
1
60
0
100
AcDbSpline
70
4
71
3
72
8
73
4
40
0
40
0
40
0
40
0
40
1
40
1
40
1
40
1
41
1
10
36.45
20
-23.6400951942063
30
0
41
1
10
36.303333332636
20
-23.6401475641918
30
0
41
1
10
36.1566666659454
20
-23.6402013396153
30
0
41
1
10
36.01
20
-23.6402565514821
30
0
0
SPLINE
5
304
100
AcDbEntity
8
1
62
256
6
ByLayer
370
13
48
1
60
0
100
AcDbSpline
70
4
71
3
72
8
73
4
40
0
40
0
40
0
40
0
40
1
40
1
40
1
40
1
41
1
10
219.170554982349
20
11.2970345413219
30
0
41
1
10
219.257242584094
20
11.2974983639727
30
0
41
1
10
219.344697362124
20
11.2928396139777
30
0
41
1
10
219.432035414183
20
11.2753522411063
30
0
0
SPLINE
5
305
100
AcDbEntity
8
1
62
256
6
ByLayer
370
13
48
1
60
0
100
AcDbSpline
70
4
71
3
72
14
73
10
40
0
40
0
40
0
40
0
40
0.25
40
0.25
40
0.5
40
0.5
40
0.75
40
0.75
40
1
40
1
40
1
40
1
41
1
10
239.060771020952
20
0.617282866826542
30
0
41
1
10
239.061884134559
20
0.667981930940783
30
0
41
1
10
239.063867428599
20
0.715274223571669
30
0
41
1
10
239.069457826364
20
0.799577897328874
30
0
41
1
10
239.072988606691
20
0.835673928504491
30
0
41
1
10
239.081447824347
20
0.894351355021513
30
0
41
1
10
239.086184607415
20
0.915724426427403
30
0
41
1
10
239.096693339693
20
0.942212324834458
30
0
41
1
10
239.102204301652
20
0.946632087188618
30
0
41
1
10
239.107938066792
20
0.942099173310709
30
0
0
SPLINE
5
306
100
AcDbEntity
8
1
62
256
6
ByLayer
370
13
48
1
60
0
100
AcDbSpline
70
4
71
3
72
10
73
6
40
0
40
0
40
0
40
0
40
0.479584803769546
40
0.479584803769546
40
1
40
1
40
1
40
1
41
1
10
36.45
20
-23.6400952497873
30
0
41
1
10
36.45
20
-22.046319949916
30
0
41
1
10
36.45
20
-20.4525446533532
30
0
41
1
10
36.45
20
-17.1293048827662
30
0
41
1
10
36.45
20
-15.399840409329
30
0
41
1
10
36.45
20
-13.6703759397829
30
0
0
SPLINE
5
307
100
AcDbEntity
8
1
62
256
6
ByLayer
370
13
48
1
60
0
100
AcDbSpline
70
4
71
3
72
10
73
6
40
0
40
0
40
0
40
0
40
0.5
40
0.5
40
1
40
1
40
1
40
1
41
1
10
219.432035414183
20
11.2753522411053
30
0
41
1
10
219.685124756644
20
11.2274290876089
30
0
41
1
10
219.929273908724
20
11.1979105294129
30
0
41
1
10
220.408218107237
20
11.1621964570091
30
0
41
1
10
220.642879541827
20
11.1559001361101
30
0
41
1
10
220.874601741349
20
11.1572373759314
30
0
0
SPLINE
5
308
100
AcDbEntity
8
1
62
256
6
ByLayer
370
13
48
1
60
0
100
AcDbSpline
70
4
71
3
72
16
73
12
40
0
40
0
40
0
40
0
40
0.24999999999998
40
0.24999999999998
40
0.374999999999983
40
0.374999999999983
40
0.499999999999987
40
0.499999999999987
40
0.749999999999993
40
0.749999999999993
40
1
40
1
40
1
40
1
41
1
10
215.099054122597
20
2.30903243027234
30
0
41
1
10
215.334161881361
20
2.20935352171915
30
0
41
1
10
215.573836413493
20
2.12717292185749
30
0
41
1
10
215.940240668344
20
2.02966741159739
30
0
41
1
10
216.063528084625
20
2.00147831619068
30
0
41
1
10
216.31246310861
20
1.95386236244963
30
0
41
1
10
216.438529019355
20
1.93438975411931
30
0
41
1
10
216.817416977286
20
1.88987190960518
30
0
41
1
10
217.068612289059
20
1.87878881119394
30
0
41
1
10
217.568368806848
20
1.89250368640069
30
0
41
1
10
217.816929266412
20
1.91730766033476
30
0
41
1
10
218.064058872033
20
1.9605108765966
30
0
0
SPLINE
5
309
100
AcDbEntity
8
1
62
256
6
ByLayer
370
13
48
1
60
0
100
AcDbSpline
70
4
71
3
72
8
73
4
40
0
40
0
40
0
40
0
40
1
40
1
40
1
40
1
41
1
10
0.0999999999999659
20
-5.56776436282993
30
0
41
1
10
0.0648944344305846
20
-5.37072855948901
30
0
41
1
10
0.03155109950454
20
-5.17345582387856
30
0
41
1
10
0
20
-4.97594212184998
30
0
0
SPLINE
5
30A
100
AcDbEntity
8
1
62
256
6
ByLayer
370
13
48
1
60
0
100
AcDbSpline
70
4
71
3
72
8
73
4
40
0
40
0
40
0
40
0
40
1
40
1
40
1
40
1
41
1
10
41
20
-24.2838427599841
30
0
41
1
10
39.3333333062142
20
-24.2838162415938
30
0
41
1
10
37.6666666271991
20
-24.2837799701018
30
0
41
1
10
36
20
-24.2837313580284
30
0
0
SPLINE
5
30B
100
AcDbEntity
8
1
62
256
6
ByLayer
370
13
48
1
60
0
100
AcDbSpline
70
4
71
3
72
8
73
4
40
0
40
0
40
0
40
0
40
1
40
1
40
1
40
1
41
1
10
217.107106212145
20
-0.190287008188164
30
0
41
1
10
217.545614432995
20
-0.312131426795332
30
0
41
1
10
217.988079715157
20
-0.397270574660467
30
0
41
1
10
218.43451744734
20
-0.444653523193182
30
0
0
SPLINE
5
30C
100
AcDbEntity
8
1
62
256
6
ByLayer
370
13
48
1
60
0
100
AcDbSpline
70
4
71
3
72
19
73
15
40
0
40
0
40
0
40
0
40
0.25
40
0.25
40
0.375
40
0.375
40
0.5
40
0.5
40
0.625
40
0.625
40
0.75
40
0.875
40
0.875
40
1
40
1
40
1
40
1
41
1
10
36.0049999193372
20
-13.6745384112416
30
0
41
1
10
33.7577634226735
20
-14.1177942482582
30
0
41
1
10
31.517483628578
20
-14.7931878737494
30
0
41
1
10
28.3137801132985
20
-16.15256346548
30
0
41
1
10
27.2721418696138
20
-16.6641190792854
30
0
41
1
10
25.2645453123797
20
-17.7968232627391
30
0
41
1
10
24.2984618225174
20
-18.4172845893678
30
0
41
1
10
22.4639130297054
20
-19.7538572478301
30
0
41
1
10
21.5954816163009
20
-20.4699927133457
30
0
41
1
10
19.9782842265458
20
-21.9852445206172
30
0
41
1
10
18.4799602265403
20
-23.5829131651432
30
0
41
1
10
17.2400783898067
20
-25.3034140555925
30
0
41
1
10
16.1397653267665
20
-27.0643303551429
30
0
41
1
10
15.6604260460571
20
-27.9649701428386
30
0
41
1
10
15.2523013128984
20
-28.875411758797
30
0
0
SPLINE
5
30D
100
AcDbEntity
8
1
62
256
6
ByLayer
370
13
48
1
60
0
100
AcDbSpline
70
4
71
3
72
8
73
4
40
0
40
0
40
0
40
0
40
1
40
1
40
1
40
1
41
1
10
220.107106212145
20
-24.2631228727443
30
0
41
1
10
219.107106211417
20
-24.1802080155724
30
0
41
1
10
218.107106211409
20
-24.0972931498016
30
0
41
1
10
217.107106212145
20
-24.0143782751615
30
0
0
SPLINE
5
30E
100
AcDbEntity
8
1
62
256
6
ByLayer
370
13
48
1
60
0
100
AcDbSpline
70
4
71
3
72
16
73
12
40
0
40
0
40
0
40
0
40
0.5
40
0.5
40
0.750000000000001
40
0.750000000000001
40
0.812500000000001
40
0.812500000000001
40
0.875000000000001
40
0.875000000000001
40
1
40
1
40
1
40
1
41
1
10
15.2523013128984
20
-28.875411758797
30
0
41
1
10
17.8491381164677
20
-28.3131441863698
30
0
41
1
10
20.4156730289824
20
-27.6632960021715
30
0
41
1
10
24.2186886591042
20
-26.5532974726217
30
0
41
1
10
25.4781742946408
20
-26.1608573826116
30
0
41
1
10
27.0453707192137
20
-25.6401722138764
30
0
41
1
10
27.3599730921354
20
-25.5404995330648
30
0
41
1
10
27.9922077298074
20
-25.3527839934304
30
0
41
1
10
28.3097227357856
20
-25.2642910529798
30
0
41
1
10
29.2664584174847
20
-25.0148975166314
30
0
41
1
10
29.9098646633431
20
-24.8700626545529
30
0
41
1
10
30.558910055181
20
-24.7468728767273
30
0
0
SPLINE
5
30F
100
AcDbEntity
8
1
62
256
6
ByLayer
370
13
48
1
60
0
100
AcDbSpline
70
4
71
3
72
8
73
4
40
0
40
0
40
0
40
0
40
1
40
1
40
1
40
1
41
1
10
36
20
-8.71923938887818
30
0
41
1
10
35.4138852071879
20
-8.71899884224683
30
0
41
1
10
34.8288868920518
20
-8.71944964318948
30
0
41
1
10
34.2449982604427
20
-8.72058579152539
30
0
0
SPLINE
5
310
100
AcDbEntity
8
1
62
256
6
ByLayer
370
13
48
1
60
0
100
AcDbSpline
70
4
71
3
72
10
73
6
40
0
40
0
40
0
40
0
40
0.5
40
0.5
40
1
40
1
40
1
40
1
41
1
10
230.726240312252
20
8.57639343724861
30
0
41
1
10
231.459251599261
20
8.61480893099014
30
0
41
1
10
232.165654112841
20
8.65182991800683
30
0
41
1
10
233.519215258473
20
8.72276705177325
30
0
41
1
10
234.166415249152
20
8.75668536603675
30
0
41
1
10
234.779275761137
20
8.78880402448013
30
0
0
SPLINE
5
311
100
AcDbEntity
8
1
62
256
6
ByLayer
370
13
48
1
60
0
100
AcDbSpline
70
4
71
3
72
12
73
8
40
0
40
0
40
0
40
0
40
0.499999999999999
40
0.499999999999999
40
0.749999999999999
40
0.749999999999999
40
1
40
1
40
1
40
1
41
1
10
221.026231508204
20
9.18158289805552
30
0
41
1
10
221.079546582705
20
9.51240112202359
30
0
41
1
10
221.102056607944
20
9.84448550274249
30
0
41
1
10
221.071155591959
20
10.3452699939536
30
0
41
1
10
221.04958433517
20
10.5136127769835
30
0
41
1
10
220.981547640041
20
10.8410845687718
30
0
41
1
10
220.935158910384
20
11.0012218259911
30
0
41
1
10
220.874601741336
20
11.1572373759277
30
0
0
SPLINE
5
312
100
AcDbEntity
8
1
62
256
6
ByLayer
370
13
48
1
60
0
100
AcDbSpline
70
4
71
3
72
18
73
14
40
0
40
0
40
0
40
0
40
0.176893308803704
40
0.176893308803704
40
0.353786617607407
40
0.353786617607407
40
0.530679926411111
40
0.530679926411111
40
0.707573235214815
40
0.707573235214815
40
0.884466544018519
40
0.884466544018519
40
1
40
1
40
1
40
1
41
1
10
36.01
20
-13.670375939783
30
0
41
1
10
36.01
20
-13.4062322527072
30
0
41
1
10
36.01
20
-13.1316652188592
30
0
41
1
10
36.01
20
-12.5625534964377
30
0
41
1
10
36.01
20
-12.2656978542188
30
0
41
1
10
36.01
20
-11.6614878706376
30
0
41
1
10
36.01
20
-11.3583938541147
30
0
41
1
10
36.01
20
-10.7502795398186
30
0
41
1
10
36.01
20
-10.4421035908204
30
0
41
1
10
36.01
20
-9.84201241773795
30
0
41
1
10
36.01
20
-9.55029424887462
30
0
41
1
10
36.01
20
-9.08166877896983
30
0
41
1
10
36.01
20
-8.8991343853651
30
0
41
1
10
36.01
20
-8.72274393977028
30
0
0
SPLINE
5
313
100
AcDbEntity
8
1
62
256
6
ByLayer
370
13
48
1
60
0
100
AcDbSpline
70
2053
71
3
72
95
73
91
40
0
40
0
40
0
40
0
40
0.0312500000000072
40
0.0312500000000072
40
0.0468750000000107
40
0.0468750000000107
40
0.0625000000000143
40
0.0625000000000143
40
0.0937500000000158
40
0.0937500000000158
40
0.109375000000017
40
0.109375000000017
40
0.125000000000017
40
0.125000000000017
40
0.156250000000019
40
0.156250000000019
40
0.18750000000002
40
0.18750000000002
40
0.20312500000002
40
0.20312500000002
40
0.218750000000019
40
0.218750000000019
40
0.250000000000018
40
0.250000000000018
40
0.265625000000018
40
0.265625000000018
40
0.281250000000017
40
0.281250000000017
40
0.312500000000015
40
0.312500000000015
40
0.328125000000014
40
0.328125000000014
40
0.343750000000013
40
0.343750000000013
40
0.375000000000007
40
0.375000000000007
40
0.406250000000002
40
0.406250000000002
40
0.421875000000001
40
0.421875000000001
40
0.437500000000001
40
0.437500000000001
40
0.46875
40
0.46875
40
0.484374999999997
40
0.484374999999997
40
0.499999999999994
40
0.499999999999994
40
0.531249999999987
40
0.531249999999987
40
0.546874999999987
40
0.546874999999987
40
0.562499999999986
40
0.578124999999986
40
0.578124999999986
40
0.593749999999986
40
0.593749999999986
40
0.624999999999985
40
0.624999999999985
40
0.640624999999985
40
0.640624999999985
40
0.656249999999985
40
0.656249999999985
40
0.687499999999987
40
0.687499999999987
40
0.71874999999999
40
0.71874999999999
40
0.734374999999991
40
0.734374999999991
40
0.749999999999993
40
0.749999999999993
40
0.781249999999996
40
0.781249999999996
40
0.796874999999997
40
0.796874999999997
40
0.812499999999998
40
0.812499999999998
40
0.84375
40
0.84375
40
0.875000000000002
40
0.875000000000002
40
0.906250000000005
40
0.906250000000005
40
0.921875000000006
40
0.921875000000006
40
0.937500000000007
40
0.937500000000007
40
0.968750000000003
40
0.968750000000003
40
1
40
1
40
1
40
1
41
1
10
232.002789113515
20
-2.66220232046703
30
0
41
1
10
232.144897865261
20
-2.66220232046703
30
0
41
1
10
232.28451347316
20
-2.67671012487392
30
0
41
1
10
232.490353926774
20
-2.71930882355619
30
0
41
1
10
232.558365517501
20
-2.73700852032749
30
0
41
1
10
232.693154664878
20
-2.77957886309963
30
0
41
1
10
232.759819132457
20
-2.80446860581193
30
0
41
1
10
232.953394555756
20
-2.88815916830717
30
0
41
1
10
233.075518070574
20
-2.9563475315378
30
0
41
1
10
233.248374085709
20
-3.07705570169151
30
0
41
1
10
233.304534660918
20
-3.12064933958138
30
0
41
1
10
233.411201832275
20
-3.21241287803909
30
0
41
1
10
233.461874271646
20
-3.2606484509233
30
0
41
1
10
233.60614531313
20
-3.41218773790658
30
0
41
1
10
233.692288998002
20
-3.52261178724166
30
0
41
1
10
233.842627527787
20
-3.76045455071349
30
0
41
1
10
233.904909255825
20
-3.88468692121825
30
0
41
1
10
233.980060760813
20
-4.07849332446989
30
0
41
1
10
234.002043695973
20
-4.14434790140794
30
0
41
1
10
234.039793039376
20
-4.27858570510213
30
0
41
1
10
234.055489458499
20
-4.34687562634349
30
0
41
1
10
234.092400306805
20
-4.55132167088709
30
0
41
1
10
234.103945068084
20
-4.68842594111737
30
0
41
1
10
234.102075715806
20
-4.89524536913237
30
0
41
1
10
234.098196886332
20
-4.96468787936627
30
0
41
1
10
234.083972960449
20
-5.10245400819363
30
0
41
1
10
234.073691110413
20
-5.17049267406097
30
0
41
1
10
234.033629019327
20
-5.37216058618372
30
0
41
1
10
233.994718280371
20
-5.50336277141278
30
0
41
1
10
233.917633200126
20
-5.69525056550287
30
0
41
1
10
233.888695221169
20
-5.75850889691836
30
0
41
1
10
233.82562781184
20
-5.8808023268077
30
0
41
1
10
233.791385925935
20
-5.94016195186856
30
0
41
1
10
233.680607384476
20
-6.11295488863405
30
0
41
1
10
233.5961045197
20
-6.22115739523858
30
0
41
1
10
233.404230582989
20
-6.42272893126451
30
0
41
1
10
233.299314431688
20
-6.51336411433147
30
0
41
1
10
233.130231304707
20
-6.6327221374332
30
0
41
1
10
233.071817158102
20
-6.66981502850035
30
0
41
1
10
232.950720691218
20
-6.73842608849037
30
0
41
1
10
232.887647100404
20
-6.77010863224709
30
0
41
1
10
232.694618509995
20
-6.85493729429277
30
0
41
1
10
232.561894570115
20
-6.89774173786526
30
0
41
1
10
232.356736992633
20
-6.94137721860747
30
0
41
1
10
232.287332097866
20
-6.95246917452388
30
0
41
1
10
232.146389232574
20
-6.96743398039828
30
0
41
1
10
232.07548281841
20
-6.97120179270499
30
0
41
1
10
231.864638500875
20
-6.9714527569727
30
0
41
1
10
231.725265542007
20
-6.95714008118077
30
0
41
1
10
231.518002304065
20
-6.91377745679358
30
0
41
1
10
231.449250801407
20
-6.895595190932
30
0
41
1
10
231.315609609149
20
-6.85279589960396
30
0
41
1
10
231.184974083623
20
-6.80341064126631
30
0
41
1
10
231.060170741192
20
-6.74120979455441
30
0
41
1
10
230.938280817141
20
-6.67258490736558
30
0
41
1
10
230.878652878601
20
-6.63491775967077
30
0
41
1
10
230.707816034732
20
-6.51472637980544
30
0
41
1
10
230.603305592533
20
-6.42446294420395
30
0
41
1
10
230.45999331914
20
-6.27438589403229
30
0
41
1
10
230.414273539504
20
-6.22161041789278
30
0
41
1
10
230.328735784327
20
-6.11269614264728
30
0
41
1
10
230.288874346598
20
-6.05657569293706
30
0
41
1
10
230.177691633459
20
-5.88337730565525
30
0
41
1
10
230.114692790522
20
-5.76150713171955
30
0
41
1
10
230.011244925075
20
-5.50464319339397
30
0
41
1
10
229.972083630211
20
-5.37262850729414
30
0
41
1
10
229.932011973625
20
-5.17122481364902
30
0
41
1
10
229.921748625476
20
-5.10342240099524
30
0
41
1
10
229.907521081632
20
-4.96645315420881
30
0
41
1
10
229.903558868597
20
-4.89694488056227
30
0
41
1
10
229.901556685108
20
-4.68891066255375
30
0
41
1
10
229.913171870282
20
-4.55177466033106
30
0
41
1
10
229.949777370554
20
-4.3483933803378
30
0
41
1
10
229.965197741199
20
-4.28098967126604
30
0
41
1
10
230.002703946408
20
-4.14699816028181
30
0
41
1
10
230.024909558828
20
-4.08019098562991
30
0
41
1
10
230.100315677109
20
-3.88534214670671
30
0
41
1
10
230.162499749871
20
-3.76149704533739
30
0
41
1
10
230.310878718696
20
-3.52610253846581
30
0
41
1
10
230.398214815767
20
-3.41362186704185
30
0
41
1
10
230.590799970307
20
-3.21102688271185
30
0
41
1
10
230.696393319066
20
-3.1198546036199
30
0
41
1
10
230.869100877352
20
-2.99875658035285
30
0
41
1
10
230.929412327311
20
-2.96085847301461
30
0
41
1
10
231.052407391048
20
-2.89204419840385
30
0
41
1
10
231.115273343449
20
-2.86095388622604
30
0
41
1
10
231.3079008707
20
-2.77746312097258
30
0
41
1
10
231.441980389043
20
-2.7346718878689
30
0
41
1
10
231.720018312565
20
-2.67672560247439
30
0
41
1
10
231.860680361769
20
-2.66220232046703
30
0
41
1
10
232.002789113515
20
-2.66220232046703
30
0
0
SPLINE
5
314
100
AcDbEntity
8
1
62
256
6
ByLayer
370
13
48
1
60
0
100
AcDbSpline
70
4
71
3
72
26
73
22
40
0
40
0
40
0
40
0
40
0.136859794424559
40
0.136859794424559
40
0.273719588849117
40
0.273719588849117
40
0.410579383273676
40
0.410579383273676
40
0.479009280485955
40
0.479009280485955
40
0.547439177698235
40
0.547439177698235
40
0.684298972122793
40
0.684298972122793
40
0.752728869335073
40
0.752728869335073
40
0.821158766547354
40
0.821158766547354
40
0.958018560971912
40
0.958018560971912
40
1
40
1
40
1
40
1
41
1
10
212.766655675811
20
23.8519253377827
30
0
41
1
10
210.847714533324
20
23.9817449386514
30
0
41
1
10
208.927632611595
20
24.0655418926285
30
0
41
1
10
205.092083557146
20
24.1398831327354
30
0
41
1
10
203.175837667828
20
24.1305384991323
30
0
41
1
10
199.34273912661
20
24.0190698045911
30
0
41
1
10
197.42592701801
20
23.916943359889
30
0
41
1
10
194.547622890346
20
23.6944838737104
30
0
41
1
10
193.587954653576
20
23.6088053997556
30
0
41
1
10
191.670160586446
20
23.4148962696407
30
0
41
1
10
190.711672602893
20
23.306639467018
30
0
41
1
10
187.836649670692
20
22.9484926468273
30
0
41
1
10
185.920279144949
20
22.6654587561942
30
0
41
1
10
183.044754029791
20
22.1754998639268
30
0
41
1
10
182.086166700979
20
22.0012050824765
30
0
41
1
10
180.168893592767
20
21.6303278641637
30
0
41
1
10
179.21002995348
20
21.4337151809879
30
0
41
1
10
176.334170735897
20
20.8152254106223
30
0
41
1
10
174.416109384708
20
20.3644564451993
30
0
41
1
10
171.898371670179
20
19.7420893915553
30
0
41
1
10
171.30653887959
20
19.5936289745637
30
0
41
1
10
170.713747100154
20
19.4431580304671
30
0
0
SPLINE
5
315
100
AcDbEntity
8
1
62
256
6
ByLayer
370
13
48
1
60
0
100
AcDbSpline
70
4
71
3
72
8
73
4
40
0
40
0
40
0
40
0
40
1
40
1
40
1
40
1
41
1
10
239.061638806804
20
0.476338625936961
30
0
41
1
10
239.06005413883
20
0.524378723219797
30
0
41
1
10
239.059782899602
20
0.572276833814385
30
0
41
1
10
239.060771020952
20
0.617282866826542
30
0
0
SPLINE
5
316
100
AcDbEntity
8
1
62
256
6
ByLayer
370
13
48
1
60
0
100
AcDbSpline
70
4
71
3
72
8
73
4
40
0
40
0
40
0
40
0
40
1
40
1
40
1
40
1
41
1
10
239.080302466773
20
0.599414019527217
30
0
41
1
10
239.213643634828
20
0.618064747929878
30
0
41
1
10
239.346109895074
20
0.625199472215911
30
0
41
1
10
239.478737105267
20
0.622294861660606
30
0
0
SPLINE
5
317
100
AcDbEntity
8
1
62
256
6
ByLayer
370
13
48
1
60
0
100
AcDbSpline
70
4
71
3
72
14
73
10
40
0
40
0
40
0
40
0
40
0.124999999999973
40
0.124999999999973
40
0.249999999999946
40
0.249999999999946
40
0.499999999999964
40
0.499999999999964
40
1
40
1
40
1
40
1
41
1
10
233.762708723844
20
10.0373120533606
30
0
41
1
10
233.79933496079
20
10.0392315531025
30
0
41
1
10
233.836663465277
20
10.0420561773316
30
0
41
1
10
233.9105441693
20
10.0494115779791
30
0
41
1
10
233.947318261127
20
10.0539469476682
30
0
41
1
10
234.057213947035
20
10.070107893487
30
0
41
1
10
234.129908900444
20
10.0842796246944
30
0
41
1
10
234.346835960251
20
10.1371504480147
30
0
41
1
10
234.489843189205
20
10.1859880554107
30
0
41
1
10
234.633042717522
20
10.2508964606615
30
0
0
SPLINE
5
318
100
AcDbEntity
8
1
62
256
6
ByLayer
370
13
48
1
60
0
100
AcDbSpline
70
4
71
3
72
22
73
18
40
0
40
0
40
0
40
0
40
0.249999999999997
40
0.249999999999997
40
0.312499999999997
40
0.312499999999997
40
0.374999999999997
40
0.374999999999997
40
0.499999999999999
40
0.499999999999999
40
0.625
40
0.625
40
0.687500000000001
40
0.687500000000001
40
0.750000000000001
40
0.750000000000001
40
1
40
1
40
1
40
1
41
1
10
6.54395770310029
20
-22.9620233198233
30
0
41
1
10
6.3504865016691
20
-23.2927040571798
30
0
41
1
10
6.20254432618451
20
-23.6200067891463
30
0
41
1
10
6.07606718307193
20
-24.0237978873721
30
0
41
1
10
6.05373040411941
20
-24.104289989939
30
0
41
1
10
6.01516660876899
20
-24.264716104376
30
0
41
1
10
5.99898211517461
20
-24.3445717781576
30
0
41
1
10
5.96030158011047
20
-24.5802835349261
30
0
41
1
10
5.94738893460435
20
-24.7332934551076
30
0
41
1
10
5.94730798489459
20
-25.0311282236694
30
0
41
1
10
5.9600876927331
20
-25.1759599853119
30
0
41
1
10
5.99796780246241
20
-25.3871583368125
30
0
41
1
10
6.0137288231747
20
-25.4565469627231
30
0
41
1
10
6.05162532337987
20
-25.5932842081557
30
0
41
1
10
6.07383044535023
20
-25.6608068018064
30
0
41
1
10
6.20051947471576
20
-25.9910071214305
30
0
41
1
10
6.34985903982205
20
-26.2298315359772
30
0
41
1
10
6.54392593531162
20
-26.4457174758828
30
0
0
SPLINE
5
319
100
AcDbEntity
8
1
62
256
6
ByLayer
370
13
48
1
60
0
100
AcDbSpline
70
4
71
3
72
8
73
4
40
0
40
0
40
0
40
0
40
1
40
1
40
1
40
1
41
1
10
221.300174062668
20
7.56204120504182
30
0
41
1
10
221.336793261878
20
7.55445461912302
30
0
41
1
10
221.372003829393
20
7.54740665939806
30
0
41
1
10
221.405778053157
20
7.54085755061257
30
0
0
SPLINE
5
31A
100
AcDbEntity
8
1
62
256
6
ByLayer
370
13
48
1
60
0
100
AcDbSpline
70
4
71
3
72
18
73
14
40
0
40
0
40
0
40
0
40
0.250000000000048
40
0.250000000000048
40
0.375000000000062
40
0.375000000000062
40
0.500000000000075
40
0.500000000000075
40
0.750000000000038
40
0.750000000000038
40
0.875000000000019
40
0.875000000000019
40
1
40
1
40
1
40
1
41
1
10
226.698222874135
20
9.66707803820091
30
0
41
1
10
226.692902324299
20
9.66679919999942
30
0
41
1
10
226.69416626852
20
9.67705765213219
30
0
41
1
10
226.70943136418
20
9.70547598299831
30
0
41
1
10
226.716790018653
20
9.71698049177346
30
0
41
1
10
226.736732277843
20
9.74247885135333
30
0
41
1
10
226.749583358612
20
9.75672363625009
30
0
41
1
10
226.795666620216
20
9.79919064499887
30
0
41
1
10
226.837854314285
20
9.82788338412632
30
0
41
1
10
226.911143279684
20
9.85906865300629
30
0
41
1
10
226.937655393471
20
9.86774663528308
30
0
41
1
10
226.991800116248
20
9.88022817333643
30
0
41
1
10
227.019665439616
20
9.88418299569003
30
0
41
1
10
227.048333783951
20
9.88570100630247
30
0
0
SPLINE
5
31B
100
AcDbEntity
8
1
62
256
6
ByLayer
370
13
48
1
60
0
100
AcDbSpline
70
4
71
3
72
36
73
32
40
0
40
0
40
0
40
0
40
0.0151357476241128
40
0.0151357476241128
40
0.0669707082754746
40
0.0669707082754746
40
0.118805668926837
40
0.118805668926837
40
0.170640629578198
40
0.170640629578198
40
0.22247559022956
40
0.22247559022956
40
0.274310550880922
40
0.274310550880922
40
0.377980472183646
40
0.377980472183646
40
0.429815432835009
40
0.429815432835009
40
0.481650393486371
40
0.481650393486371
40
0.585320314789096
40
0.585320314789096
40
0.688990236091822
40
0.688990236091822
40
0.740825196743184
40
0.740825196743184
40
0.792660157394547
40
0.792660157394547
40
0.896330078697273
40
0.896330078697273
40
1
40
1
40
1
40
1
41
1
10
173.014634573022
20
-20.1115237814511
30
0
41
1
10
172.748978868936
20
-20.1762831558929
30
0
41
1
10
172.483347286291
20
-20.2403847665715
30
0
41
1
10
171.308127840768
20
-20.5210972108019
30
0
41
1
10
170.399165261994
20
-20.7303801321303
30
0
41
1
10
168.580355868951
20
-21.1301655181773
30
0
41
1
10
167.670476545759
20
-21.3206684714631
30
0
41
1
10
165.847166199393
20
-21.6807262580982
30
0
41
1
10
164.933437832847
20
-21.8503258505469
30
0
41
1
10
163.101150410997
20
-22.1669159182166
30
0
41
1
10
162.182803595567
20
-22.313822098234
30
0
41
1
10
160.339497217965
20
-22.5847442036143
30
0
41
1
10
159.414691463656
20
-22.7089536352613
30
0
41
1
10
156.630462634514
20
-23.0509760240215
30
0
41
1
10
154.761089742312
20
-23.2381357181634
30
0
41
1
10
151.936667993275
20
-23.4699060560922
30
0
41
1
10
150.991809559597
20
-23.5389922102734
30
0
41
1
10
149.095357235155
20
-23.6627533823118
30
0
41
1
10
148.143930262182
20
-23.7174253467433
30
0
41
1
10
145.284401677202
20
-23.8624779845718
30
0
41
1
10
143.369623022293
20
-23.9341113980412
30
0
41
1
10
139.523470602296
20
-24.0402192591016
30
0
41
1
10
137.592289621798
20
-24.0746583879422
30
0
41
1
10
134.681500120591
20
-24.1064131206952
30
0
41
1
10
133.708531351149
20
-24.1136796771347
30
0
41
1
10
131.759852547717
20
-24.122936796272
30
0
41
1
10
130.784040080212
20
-24.1249320476113
30
0
41
1
10
127.851808792292
20
-24.1251307776728
30
0
41
1
10
125.890435043877
20
-24.1176701360133
30
0
41
1
10
121.954739171187
20
-24.0975048762149
30
0
41
1
10
119.980461076985
20
-24.084790049176
30
0
41
1
10
118
20
-24.0728443565749
30
0
0
SPLINE
5
31C
100
AcDbEntity
8
1
62
256
6
ByLayer
370
13
48
1
60
0
100
AcDbSpline
70
4
71
3
72
10
73
6
40
0
40
0
40
0
40
0
40
0.5
40
0.5
40
1
40
1
40
1
40
1
41
1
10
225.622237410308
20
9.57628185407407
30
0
41
1
10
225.672552968058
20
9.57373968595022
30
0
41
1
10
225.720980192396
20
9.56634218822845
30
0
41
1
10
225.813185285844
20
9.54655888360176
30
0
41
1
10
225.855975529441
20
9.53456098673516
30
0
41
1
10
225.894599543143
20
9.52441717726671
30
0
0
SPLINE
5
31D
100
AcDbEntity
8
1
62
256
6
ByLayer
370
13
48
1
60
0
100
AcDbSpline
70
4
71
3
72
14
73
10
40
0
40
0
40
0
40
0
40
0.499999999999997
40
0.499999999999997
40
0.624999999999997
40
0.624999999999997
40
0.749999999999996
40
0.749999999999996
40
1
40
1
40
1
40
1
41
1
10
34.2449981456622
20
-24.3411893634302
30
0
41
1
10
33.6010923501894
20
-24.3834080750389
30
0
41
1
10
32.9700371795372
20
-24.4414563232872
30
0
41
1
10
32.1965367224839
20
-24.5293612000241
30
0
41
1
10
32.0426110890773
20
-24.5476859133132
30
0
41
1
10
31.7363245793895
20
-24.5856099013077
30
0
41
1
10
31.583452957551
20
-24.6052791209671
30
0
41
1
10
31.1324013647225
20
-24.6651044095026
30
0
41
1
10
30.841100582776
20
-24.7061540692922
30
0
41
1
10
30.558910055181
20
-24.7468728767274
30
0
0
SPLINE
5
31E
100
AcDbEntity
8
1
62
256
6
ByLayer
370
13
48
1
60
0
100
AcDbSpline
70
4
71
3
72
16
73
12
40
0
40
0
40
0
40
0
40
0.250000000000003
40
0.250000000000003
40
0.500000000000005
40
0.500000000000005
40
0.625000000000001
40
0.625000000000001
40
0.749999999999997
40
0.749999999999997
40
1
40
1
40
1
40
1
41
1
10
221.405778053157
20
7.54085755061257
30
0
41
1
10
221.922656580839
20
7.42808558451404
30
0
41
1
10
222.438676935614
20
7.35471960080307
30
0
41
1
10
223.469351729187
20
7.28023524185846
30
0
41
1
10
223.98400203021
20
7.27917638111649
30
0
41
1
10
224.754725410408
20
7.33083385505995
30
0
41
1
10
225.011419921191
20
7.35696204633584
30
0
41
1
10
225.52428691423
20
7.42726369002446
30
0
41
1
10
225.778278989539
20
7.47114014942173
30
0
41
1
10
226.53269006387
20
7.62825247159694
30
0
41
1
10
227.02569267656
20
7.76688860309253
30
0
41
1
10
227.508162955451
20
7.9389683822298
30
0
0
SPLINE
5
31F
100
AcDbEntity
8
1
62
256
6
ByLayer
370
13
48
1
60
0
100
AcDbSpline
70
4
71
3
72
10
73
6
40
0
40
0
40
0
40
0
40
0.5
40
0.5
40
1
40
1
40
1
40
1
41
1
10
229.136758314409
20
9.99515073452824
30
0
41
1
10
229.167337119694
20
9.99675330180639
30
0
41
1
10
229.198275052232
20
9.9954827578666
30
0
41
1
10
229.258456623205
20
9.98766223512453
30
0
41
1
10
229.287865549188
20
9.98115536289797
30
0
41
1
10
229.31656661371
20
9.97227175444934
30
0
0
SPLINE
5
320
100
AcDbEntity
8
1
62
256
6
ByLayer
370
13
48
1
60
0
100
AcDbSpline
70
4
71
3
72
26
73
22
40
0
40
0
40
0
40
0
40
0.0625000000000002
40
0.0625000000000002
40
0.0937500000000002
40
0.0937500000000002
40
0.125
40
0.125
40
0.15625
40
0.15625
40
0.187500000000001
40
0.187500000000001
40
0.250000000000001
40
0.250000000000001
40
0.312500000000001
40
0.312500000000001
40
0.375000000000001
40
0.375000000000001
40
0.500000000000001
40
0.500000000000001
40
1
40
1
40
1
40
1
41
1
10
118
20
-24.0728443565749
30
0
41
1
10
116.401599889039
20
-24.068501313296
30
0
41
1
10
114.801602343341
20
-24.0646187116444
30
0
41
1
10
112.398919169089
20
-24.0616738252289
30
0
41
1
10
111.597568805902
20
-24.0611775604224
30
0
41
1
10
109.993941902451
20
-24.0613843471269
30
0
41
1
10
109.191659688052
20
-24.0620599360883
30
0
41
1
10
107.587307966866
20
-24.0643007031347
30
0
41
1
10
106.785110291949
20
-24.0658639388698
30
0
41
1
10
105.180688923915
20
-24.069542811065
30
0
41
1
10
104.378465920034
20
-24.0716422512373
30
0
41
1
10
101.97177002336
20
-24.0785212997996
30
0
41
1
10
100.367269673454
20
-24.0838947430491
30
0
41
1
10
97.1582420038791
20
-24.0952240393454
30
0
41
1
10
95.5537146679036
20
-24.1011770952548
30
0
41
1
10
92.3446788172254
20
-24.1126720597608
30
0
41
1
10
90.7401623340109
20
-24.1182189544025
30
0
41
1
10
85.9266021964642
20
-24.1345273765641
30
0
41
1
10
82.7175563918979
20
-24.1450009888903
30
0
41
1
10
66.6723380703156
20
-24.1981135047532
30
0
41
1
10
53.8361731475568
20
-24.2412895817134
30
0
41
1
10
41
20
-24.283842759984
30
0
0
SPLINE
5
321
100
AcDbEntity
8
1
62
256
6
ByLayer
370
13
48
1
60
0
100
AcDbSpline
70
4
71
3
72
26
73
22
40
0
40
0
40
0
40
0
40
0.0625
40
0.0625
40
0.125
40
0.125
40
0.1875
40
0.1875
40
0.25
40
0.25
40
0.3125
40
0.3125
40
0.375
40
0.375
40
0.5
40
0.5
40
0.625
40
0.625
40
0.75
40
0.75
40
1
40
1
40
1
40
1
41
1
10
118
20
-9.22915243242477
30
0
41
1
10
116.400953247471
20
-9.10186097535851
30
0
41
1
10
114.800382444258
20
-8.99783608485708
30
0
41
1
10
111.595951826259
20
-8.84104899992448
30
0
41
1
10
109.991730393485
20
-8.78796876699184
30
0
41
1
10
106.783066100136
20
-8.71926824744281
30
0
41
1
10
105.178659293818
20
-8.70410690635921
30
0
41
1
10
101.969775002718
20
-8.69212862998512
30
0
41
1
10
100.365300994726
20
-8.69438984543669
30
0
41
1
10
97.1563427383103
20
-8.70156853960847
30
0
41
1
10
95.5518573708139
20
-8.70677362838006
30
0
41
1
10
92.3429010963996
20
-8.71343776348712
30
0
41
1
10
90.738427499133
20
-8.71559403836866
30
0
41
1
10
85.9250187403493
20
-8.71894697163665
30
0
41
1
10
82.7160925138121
20
-8.71782908953566
30
0
41
1
10
76.2982336812132
20
-8.7172419517033
30
0
41
1
10
73.0893039924124
20
-8.7170007804061
30
0
41
1
10
66.6714433659212
20
-8.71764293700846
30
0
41
1
10
63.4625125341136
20
-8.71838494536752
30
0
41
1
10
53.8357202129119
20
-8.72046331174758
30
0
41
1
10
47.4178589459617
20
-8.72161351523556
30
0
41
1
10
41
20
-8.72084907047969
30
0
0
SPLINE
5
322
100
AcDbEntity
8
1
62
256
6
ByLayer
370
13
48
1
60
0
100
AcDbSpline
70
4
71
3
72
34
73
30
40
0
40
0
40
0
40
0
40
0.110625599474766
40
0.110625599474766
40
0.221251198949533
40
0.221251198949533
40
0.331876798424299
40
0.331876798424299
40
0.387189598161685
40
0.387189598161685
40
0.442502397899071
40
0.442502397899071
40
0.553127997373849
40
0.553127997373849
40
0.663753596848627
40
0.663753596848627
40
0.719066396586013
40
0.719066396586013
40
0.774379196323399
40
0.774379196323399
40
0.885004795798177
40
0.885004795798177
40
0.940317595535568
40
0.940317595535568
40
0.967973995404264
40
0.967973995404264
40
0.99563039527296
40
0.99563039527296
40
1
40
1
40
1
40
1
41
1
10
217.219452012716
20
8.63390692181304
30
0
41
1
10
216.731497962306
20
8.75015259962254
30
0
41
1
10
216.238585181993
20
8.84602583802803
30
0
41
1
10
215.243791410265
20
9.00348596307737
30
0
41
1
10
214.741897261064
20
9.06501238984038
30
0
41
1
10
213.729075677854
20
9.15673882820516
30
0
41
1
10
213.218144528565
20
9.18691295227038
30
0
41
1
10
212.444378007447
20
9.20935056020755
30
0
41
1
10
212.185222105563
20
9.2130117192275
30
0
41
1
10
211.664277330927
20
9.21265864290794
30
0
41
1
10
211.40190140712
20
9.20862220455777
30
0
41
1
10
210.615443475058
20
9.184966731651
30
0
41
1
10
210.092602543289
20
9.153941537782
30
0
41
1
10
209.049734420073
20
9.0617912203667
30
0
41
1
10
208.529706312939
20
9.00067809854784
30
0
41
1
10
207.751778803263
20
8.88572236694372
30
0
41
1
10
207.49282307512
20
8.84351135196385
30
0
41
1
10
206.975635555817
20
8.75099803643926
30
0
41
1
10
206.716602449539
20
8.70052278085294
30
0
41
1
10
205.946978532404
20
8.53760055976147
30
0
41
1
10
205.445465664009
20
8.41424699436615
30
0
41
1
10
204.712935849857
20
8.20565041288177
30
0
41
1
10
204.472065058369
20
8.13216659280712
30
0
41
1
10
204.116242806287
20
8.01549800278551
30
0
41
1
10
203.998551403419
20
7.97553172099123
30
0
41
1
10
203.765119246443
20
7.89331480268984
30
0
41
1
10
203.649132195121
20
7.85096717150518
30
0
41
1
10
203.517107281372
20
7.80092310301376
30
0
41
1
10
203.499139165636
20
7.79407310932316
30
0
41
1
10
203.481216756744
20
7.78720081962217
30
0
0
SPLINE
5
323
100
AcDbEntity
8
1
62
256
6
ByLayer
370
13
48
1
60
0
100
AcDbSpline
70
4
71
3
72
42
73
38
40
0
40
0
40
0
40
0
40
0.0624999999999993
40
0.0624999999999993
40
0.124999999999999
40
0.124999999999999
40
0.187499999999998
40
0.187499999999998
40
0.249999999999997
40
0.249999999999997
40
0.281249999999997
40
0.281249999999997
40
0.312499999999997
40
0.312499999999997
40
0.374999999999997
40
0.374999999999997
40
0.406249999999997
40
0.406249999999997
40
0.437499999999997
40
0.437499999999997
40
0.499999999999997
40
0.499999999999997
40
0.562499999999998
40
0.562499999999998
40
0.624999999999998
40
0.624999999999998
40
0.687499999999998
40
0.687499999999998
40
0.718749999999998
40
0.718749999999998
40
0.749999999999999
40
0.749999999999999
40
0.875
40
0.875
40
0.9375
40
0.9375
40
1
40
1
40
1
40
1
41
1
10
6.54392593531159
20
-26.4457174758828
30
0
41
1
10
6.42744740515872
20
-26.6319737960594
30
0
41
1
10
6.33479966626915
20
-26.8134003768117
30
0
41
1
10
6.19631812399449
20
-27.166080548409
30
0
41
1
10
6.15047681602084
20
-27.337337975588
30
0
41
1
10
6.10837166901084
20
-27.6688299151565
30
0
41
1
10
6.11294476073255
20
-27.824721390078
30
0
41
1
10
6.16994191180869
20
-28.1176850610855
30
0
41
1
10
6.22196059437273
20
-28.2548604830114
30
0
41
1
10
6.33570696036674
20
-28.4467400367585
30
0
41
1
10
6.37973312445891
20
-28.5085044832863
30
0
41
1
10
6.47812971928663
20
-28.6256966925183
30
0
41
1
10
6.53263800358454
20
-28.6813470138742
30
0
41
1
10
6.71145248365929
20
-28.8398990922657
30
0
41
1
10
6.8509100023023
20
-28.9344538755269
30
0
41
1
10
7.08892383983678
20
-29.0607901020035
30
0
41
1
10
7.1731977988313
20
-29.1003466553978
30
0
41
1
10
7.35098269576371
20
-29.1742092417505
30
0
41
1
10
7.44383907993502
20
-29.2082554614822
30
0
41
1
10
7.73374371758121
20
-29.3022981775611
30
0
41
1
10
7.94208517055048
20
-29.354227991905
30
0
41
1
10
8.38714544310959
20
-29.438680993706
30
0
41
1
10
8.62427005633226
20
-29.4712260424024
30
0
41
1
10
9.12475448025448
20
-29.51804129006
30
0
41
1
10
9.38488185847493
20
-29.5320441632958
30
0
41
1
10
9.92383534608607
20
-29.5433320662892
30
0
41
1
10
10.2025948644336
20
-29.5406481076394
30
0
41
1
10
10.6344909441305
20
-29.5250725890255
30
0
41
1
10
10.7807378996812
20
-29.5179593125768
30
0
41
1
10
11.0777761414115
20
-29.5000146201052
30
0
41
1
10
11.2289420048406
20
-29.4891485679942
30
0
41
1
10
11.9902023591901
20
-29.4261810976022
30
0
41
1
10
12.6178973093363
20
-29.3485356142941
30
0
41
1
10
13.5870655317052
20
-29.1970972737741
30
0
41
1
10
13.9147912604382
20
-29.1406930892489
30
0
41
1
10
14.5800499075759
20
-29.0161282311766
30
0
41
1
10
14.9155774166931
20
-28.9483194578724
30
0
41
1
10
15.2523013128984
20
-28.8754117587969
30
0
0
SPLINE
5
324
100
AcDbEntity
8
1
62
256
6
ByLayer
370
13
48
1
60
0
100
AcDbSpline
70
4
71
3
72
8
73
4
40
0
40
0
40
0
40
0
40
1
40
1
40
1
40
1
41
1
10
223.589239013565
20
24.0751394973628
30
0
41
1
10
223.509324873107
20
24.0689702585244
30
0
41
1
10
223.427746902765
20
24.0635792613743
30
0
41
1
10
223.344536996597
20
24.0590109312891
30
0
0
SPLINE
5
325
100
AcDbEntity
8
1
62
256
6
ByLayer
370
13
48
1
60
0
100
AcDbSpline
70
4
71
3
72
16
73
12
40
0
40
0
40
0
40
0
40
0.447852459242743
40
0.447852459242743
40
0.671778688864115
40
0.671778688864115
40
0.783741803674801
40
0.783741803674801
40
0.895704918485487
40
0.895704918485487
40
1
40
1
40
1
40
1
41
1
10
6.54395770310029
20
-22.9620233198233
30
0
41
1
10
6.89081865425895
20
-21.7399854471464
30
0
41
1
10
7.33400630708786
20
-20.5400219195283
30
0
41
1
10
8.14800814921111
20
-18.7730402822695
30
0
41
1
10
8.44440085874898
20
-18.1895858169886
30
0
41
1
10
8.92881121508981
20
-17.3230753425013
30
0
41
1
10
9.09705320361279
20
-17.0354841576621
30
0
41
1
10
9.44682058732427
20
-16.4641499022675
30
0
41
1
10
9.62764084011204
20
-16.1815929509569
30
0
41
1
10
9.98802006292905
20
-15.6416509275718
30
0
41
1
10
10.1667668239149
20
-15.3838363204078
30
0
41
1
10
10.350412887253
20
-15.1285710747925
30
0
0
SPLINE
5
326
100
AcDbEntity
8
1
62
256
6
ByLayer
370
13
48
1
60
0
100
AcDbSpline
70
4
71
3
72
8
73
4
40
0
40
0
40
0
40
0
40
1
40
1
40
1
40
1
41
1
10
1.42E-14
20
4.97594212184995
30
0
41
1
10
0.031571657597965
20
5.1735845200318
30
0
41
1
10
0.0649171506606621
20
5.37085605809409
30
0
41
1
10
0.0999999999999801
20
5.56776436282993
30
0
0
SPLINE
5
327
100
AcDbEntity
8
1
62
256
6
ByLayer
370
13
48
1
60
0
100
AcDbSpline
70
4
71
3
72
36
73
32
40
0
40
0
40
0
40
0
40
0.0025723146411276
40
0.0025723146411276
40
0.0550685086073837
40
0.0550685086073837
40
0.10756470257364
40
0.10756470257364
40
0.160060896539896
40
0.160060896539896
40
0.212557090506152
40
0.212557090506152
40
0.265053284472408
40
0.265053284472408
40
0.317549478438665
40
0.317549478438665
40
0.343797575421793
40
0.343797575421793
40
0.370045672404921
40
0.370045672404921
40
0.422541866371178
40
0.422541866371178
40
0.475038060337434
40
0.475038060337434
40
0.580030448269947
40
0.580030448269947
40
0.68502283620246
40
0.68502283620246
40
0.790015224134973
40
0.790015224134973
40
1
40
1
40
1
40
1
41
1
10
141.798754084953
20
-12.6498834170447
30
0
41
1
10
141.709813425085
20
-12.6560392576573
30
0
41
1
10
141.620867775787
20
-12.6621702122591
30
0
41
1
10
139.71659942188
20
-12.7929030846011
30
0
41
1
10
137.899260514613
20
-12.907544900565
30
0
41
1
10
134.2597238309
20
-13.1125188500599
30
0
41
1
10
132.437512347798
20
-13.2027624257855
30
0
41
1
10
128.787339543549
20
-13.355140918819
30
0
41
1
10
126.959288150229
20
-13.4165736642314
30
0
41
1
10
123.297252104966
20
-13.5136023609715
30
0
41
1
10
121.463330310584
20
-13.5498005111703
30
0
41
1
10
117.790264766022
20
-13.6057999196891
30
0
41
1
10
115.951177054526
20
-13.6259423573794
30
0
41
1
10
112.267986684305
20
-13.6544613264422
30
0
41
1
10
110.423729219485
20
-13.6618303057386
30
0
41
1
10
107.653646504441
20
-13.6679184233226
30
0
41
1
10
106.729631848478
20
-13.6693452435157
30
0
41
1
10
104.881009214942
20
-13.6711241352079
30
0
41
1
10
103.956470431939
20
-13.6713683339526
30
0
41
1
10
101.182584163969
20
-13.6711705438651
30
0
41
1
10
99.3329676903884
20
-13.670344310891
30
0
41
1
10
95.6339700729535
20
-13.6702032156354
30
0
41
1
10
93.7844713635257
20
-13.6703808701331
30
0
41
1
10
88.235974827857
20
-13.6705386030002
30
0
41
1
10
84.5369767902299
20
-13.6704446561724
30
0
41
1
10
77.1389804733326
20
-13.6702685916601
30
0
41
1
10
73.4399822268093
20
-13.6701756823672
30
0
41
1
10
66.0419857881478
20
-13.670207432013
30
0
41
1
10
62.3429875652104
20
-13.6703187013195
30
0
41
1
10
51.2459928911283
20
-13.670483558923
30
0
41
1
10
43.8479964350095
20
-13.6704056959255
30
0
41
1
10
36.45
20
-13.670375939783
30
0
0
SPLINE
5
328
100
AcDbEntity
8
1
62
256
6
ByLayer
370
13
48
1
60
0
100
AcDbSpline
70
4
71
3
72
10
73
6
40
0
40
0
40
0
40
0
40
0.5
40
0.5
40
1
40
1
40
1
40
1
41
1
10
227.508162955451
20
7.93896838222983
30
0
41
1
10
228.061625566569
20
8.13636857049067
30
0
41
1
10
228.606007512503
20
8.28071347637248
30
0
41
1
10
229.679067291615
20
8.4873507442824
30
0
41
1
10
230.2076403875
20
8.54921476685595
30
0
41
1
10
230.726240312252
20
8.57639343724861
30
0
0
SPLINE
5
329
100
AcDbEntity
8
1
62
256
6
ByLayer
370
13
48
1
60
0
100
AcDbSpline
70
4
71
3
72
10
73
6
40
0
40
0
40
0
40
0
40
0.5
40
0.5
40
1
40
1
40
1
40
1
41
1
10
238.018951977615
20
-4.14531202368173
30
0
41
1
10
238.072799712882
20
-4.43881574003569
30
0
41
1
10
238.105728364729
20
-4.73210783914544
30
0
41
1
10
238.131970883963
20
-5.31813545306773
30
0
41
1
10
238.125279713131
20
-5.61087134497703
30
0
41
1
10
238.098636413486
20
-5.90331284197958
30
0
0
SPLINE
5
32A
100
AcDbEntity
8
1
62
256
6
ByLayer
370
13
48
1
60
0
100
AcDbSpline
70
4
71
3
72
8
73
4
40
0
40
0
40
0
40
0
40
1
40
1
40
1
40
1
41
1
10
221.900809752592
20
18.0831410887257
30
0
41
1
10
221.886940997104
20
18.0564008524031
30
0
41
1
10
221.871597586549
20
18.0323404396459
30
0
41
1
10
221.85566143541
20
18.0108370646733
30
0
0
SPLINE
5
32B
100
AcDbEntity
8
1
62
256
6
ByLayer
370
13
48
1
60
0
100
AcDbSpline
70
4
71
3
72
56
73
52
40
0
40
0
40
0
40
0
40
0.0624999999999922
40
0.0624999999999922
40
0.0781249999999905
40
0.0781249999999905
40
0.0937499999999887
40
0.0937499999999887
40
0.124999999999986
40
0.124999999999986
40
0.156249999999984
40
0.156249999999984
40
0.171874999999983
40
0.171874999999983
40
0.179687499999982
40
0.179687499999982
40
0.187499999999982
40
0.187499999999982
40
0.218749999999982
40
0.218749999999982
40
0.249999999999983
40
0.249999999999983
40
0.312499999999985
40
0.312499999999985
40
0.343749999999985
40
0.343749999999985
40
0.374999999999986
40
0.374999999999986
40
0.437499999999986
40
0.437499999999986
40
0.468749999999987
40
0.468749999999987
40
0.499999999999988
40
0.499999999999988
40
0.562499999999989
40
0.562499999999989
40
0.624999999999991
40
0.624999999999991
40
0.687499999999993
40
0.687499999999993
40
0.749999999999995
40
0.749999999999995
40
0.812499999999997
40
0.812499999999997
40
0.843749999999998
40
0.843749999999998
40
0.874999999999998
40
0.874999999999998
40
0.937499999999999
40
0.937499999999999
40
1
40
1
40
1
40
1
41
1
10
210.196761636306
20
-24.0143782751615
30
0
41
1
10
208.202670605115
20
-23.9888134706427
30
0
41
1
10
206.199418309534
20
-23.9680289915573
30
0
41
1
10
203.697822053941
20
-23.9373101403133
30
0
41
1
10
203.197631948187
20
-23.9308695238108
30
0
41
1
10
202.197997479199
20
-23.9167375480843
30
0
41
1
10
201.698379925927
20
-23.9090435975429
30
0
41
1
10
200.204625054782
20
-23.8829444441477
30
0
41
1
10
199.214897592193
20
-23.8616375871343
30
0
41
1
10
197.256956168986
20
-23.8026739500478
30
0
41
1
10
196.288811012056
20
-23.7651464093047
30
0
41
1
10
194.861784887606
20
-23.684582838809
30
0
41
1
10
194.39014421076
20
-23.6537319480214
30
0
41
1
10
193.689998380861
20
-23.5991032048852
30
0
41
1
10
193.458164916878
20
-23.5792405120634
30
0
41
1
10
192.996761916617
20
-23.5365104544076
30
0
41
1
10
192.766735843899
20
-23.5139977282494
30
0
41
1
10
191.615897938002
20
-23.3988446757284
30
0
41
1
10
190.695932306268
20
-23.2959934651967
30
0
41
1
10
188.855173335458
20
-23.0718455567392
30
0
41
1
10
187.934525037278
20
-22.9503863158678
30
0
41
1
10
185.174028740945
20
-22.5564385214965
30
0
41
1
10
183.335178408756
20
-22.2545231520216
30
0
41
1
10
180.575865156624
20
-21.7447180194759
30
0
41
1
10
179.65559714816
20
-21.565301343982
30
0
41
1
10
177.814899838855
20
-21.1893973457185
30
0
41
1
10
176.894431161085
20
-20.9928936369506
30
0
41
1
10
174.130689522385
20
-20.3806017794946
30
0
41
1
10
172.284794869175
20
-19.9420424697772
30
0
41
1
10
169.499655075456
20
-19.2590373107109
30
0
41
1
10
168.568382703889
20
-19.0270592118471
30
0
41
1
10
166.701138746099
20
-18.5576249039278
30
0
41
1
10
165.765346865067
20
-18.3202413828555
30
0
41
1
10
162.950374021072
20
-17.6040439168537
30
0
41
1
10
161.063740260752
20
-17.1209426716078
30
0
41
1
10
157.267709289788
20
-16.159481686784
30
0
41
1
10
155.357680287317
20
-15.6809936179806
30
0
41
1
10
151.520550063608
20
-14.7473027775037
30
0
41
1
10
149.592509509439
20
-14.2917674932004
30
0
41
1
10
145.715086428818
20
-13.4185606789093
30
0
41
1
10
143.764720704311
20
-13.0009013283178
30
0
41
1
10
139.849155067817
20
-12.2199800982056
30
0
41
1
10
137.883353618985
20
-11.8557419021373
30
0
41
1
10
134.923523524425
20
-11.3493234980967
30
0
41
1
10
133.935065143373
20
-11.1871341190766
30
0
41
1
10
131.954635130957
20
-10.8757969822902
30
0
41
1
10
130.962511502268
20
-10.7265735271005
30
0
41
1
10
127.98352846749
20
-10.2989611865628
30
0
41
1
10
125.993325103697
20
-10.0407665260772
30
0
41
1
10
122.003843065922
20
-9.58568543472768
30
0
41
1
10
120.004519866832
20
-9.38911449406103
30
0
41
1
10
118
20
-9.22915243242477
30
0
0
SPLINE
5
32C
100
AcDbEntity
8
1
62
256
6
ByLayer
370
13
48
1
60
0
100
AcDbSpline
70
4
71
3
72
54
73
50
40
0
40
0
40
0
40
0
40
0.125938636871544
40
0.125938636871544
40
0.15742329608943
40
0.15742329608943
40
0.188907955307316
40
0.188907955307316
40
0.251877273743089
40
0.251877273743089
40
0.314846592178862
40
0.314846592178862
40
0.346331251396748
40
0.346331251396748
40
0.377815910614634
40
0.377815910614634
40
0.409300569832521
40
0.409300569832521
40
0.440785229050407
40
0.440785229050407
40
0.472269888268293
40
0.472269888268293
40
0.503754547486179
40
0.503754547486179
40
0.535239206704065
40
0.535239206704065
40
0.566723865921951
40
0.566723865921951
40
0.598208525139837
40
0.598208525139837
40
0.629693184357723
40
0.629693184357723
40
0.661177843575609
40
0.661177843575609
40
0.692662502793495
40
0.692662502793495
40
0.755631821229268
40
0.755631821229268
40
0.787116480447155
40
0.787116480447155
40
0.818601139665041
40
0.818601139665041
40
0.850085798882927
40
0.850085798882927
40
0.881570458100813
40
0.881570458100813
40
0.944539776536586
40
0.944539776536586
40
1
40
1
40
1
40
1
41
1
10
207.145854758297
20
6.15024680812638
30
0
41
1
10
203.529775859048
20
7.72286363651793
30
0
41
1
10
199.919256106271
20
9.24987290722379
30
0
41
1
10
195.398754823767
20
11.0717379195991
30
0
41
1
10
194.493935163395
20
11.431900071824
30
0
41
1
10
192.685120307378
20
12.1420300872701
30
0
41
1
10
191.781237255925
20
12.4919589804592
30
0
41
1
10
189.070547348105
20
13.5251787171944
30
0
41
1
10
187.264710569467
20
14.1919082236517
30
0
41
1
10
183.652031295597
20
15.4746981078118
30
0
41
1
10
181.845099934612
20
16.0906121330457
30
0
41
1
10
179.131465618833
20
16.9722622212938
30
0
41
1
10
178.226604159423
20
17.2590491669671
30
0
41
1
10
176.418327754459
20
17.8172379332206
30
0
41
1
10
175.514600251264
20
18.0887839998267
30
0
41
1
10
173.707985868082
20
18.6167735763568
30
0
41
1
10
172.805136062935
20
18.8732677128512
30
0
41
1
10
171.000159915745
20
19.3708296317815
30
0
41
1
10
170.097932123199
20
19.6117391495859
30
0
41
1
10
168.292447006902
20
20.075782962013
30
0
41
1
10
167.389231335122
20
20.2989639456255
30
0
41
1
10
165.579901016933
20
20.7255825543827
30
0
41
1
10
164.67332416171
20
20.9289658329668
30
0
41
1
10
162.85570811814
20
21.3126524888965
30
0
41
1
10
161.944925490523
20
21.4928089562365
30
0
41
1
10
160.11683303108
20
21.8286725056223
30
0
41
1
10
159.199648416014
20
21.9845492485672
30
0
41
1
10
157.35752266625
20
22.2730167558281
30
0
41
1
10
156.432458475752
20
22.4054932211644
30
0
41
1
10
154.573656035285
20
22.6489205981914
30
0
41
1
10
153.640095681382
20
22.7600669378844
30
0
41
1
10
151.765644395654
20
22.9644009258134
30
0
41
1
10
150.824790227795
20
23.0576133080729
30
0
41
1
10
148.936568191232
20
23.2285819746141
30
0
41
1
10
147.989211697036
20
23.3062866031092
30
0
41
1
10
145.142188662196
20
23.5186917849557
30
0
41
1
10
143.236051250318
20
23.6329497588705
30
0
41
1
10
140.366561812873
20
23.7732536740484
30
0
41
1
10
139.408432837376
20
23.8148499215308
30
0
41
1
10
137.488595974682
20
23.8886596917911
30
0
41
1
10
136.526825299508
20
23.9208294673195
30
0
41
1
10
134.598731477524
20
23.976579240195
30
0
41
1
10
133.632052270078
20
24.0001661878108
30
0
41
1
10
131.695554505016
20
24.0398293062727
30
0
41
1
10
130.725682010372
20
24.055912612545
30
0
41
1
10
127.810324056602
20
24.0949534997478
30
0
41
1
10
125.858737327768
20
24.1087589706234
30
0
41
1
10
122.173958288498
20
24.1231341814677
30
0
41
1
10
120.442537181847
20
24.1250896614571
30
0
41
1
10
118.705754281356
20
24.1250038482672
30
0
0
SPLINE
5
32D
100
AcDbEntity
8
1
62
256
6
ByLayer
370
13
48
1
60
0
100
AcDbSpline
70
4
71
3
72
12
73
8
40
0
40
0
40
0
40
0
40
0.125109353863243
40
0.125109353863243
40
0.562554676931622
40
0.562554676931622
40
1
40
1
40
1
40
1
41
1
10
195.931641628297
20
10.8573213810768
30
0
41
1
10
196.41295273024
20
10.6655056969142
30
0
41
1
10
196.894315836196
20
10.4723761726485
30
0
41
1
10
199.059127908652
20
9.59829366430671
30
0
41
1
10
200.743564957605
20
8.90311256469857
30
0
41
1
10
204.109462926779
20
7.48969598022094
30
0
41
1
10
205.791842857221
20
6.77110667131393
30
0
41
1
10
207.474795117099
20
6.04307005230771
30
0
0
SPLINE
5
32E
100
AcDbEntity
8
1
62
256
6
ByLayer
370
13
48
1
60
0
100
AcDbSpline
70
4
71
3
72
8
73
4
40
0
40
0
40
0
40
0
40
1
40
1
40
1
40
1
41
1
10
218.023283933362
20
11.3688414346597
30
0
41
1
10
218.403888733491
20
11.3790857933292
30
0
41
1
10
218.769864729502
20
11.3586066927445
30
0
41
1
10
219.121349742154
20
11.306398703461
30
0
0
SPLINE
5
32F
100
AcDbEntity
8
1
62
256
6
ByLayer
370
13
48
1
60
0
100
AcDbSpline
70
4
71
3
72
12
73
8
40
0
40
0
40
0
40
0
40
0.250000000000059
40
0.250000000000059
40
0.500000000000119
40
0.500000000000119
40
1
40
1
40
1
40
1
41
1
10
217.795932765158
20
11.2455752258485
30
0
41
1
10
217.801081524913
20
11.2675085185851
30
0
41
1
10
217.813760520733
20
11.287097399544
30
0
41
1
10
217.846199445165
20
11.3185362594533
30
0
41
1
10
217.86585595543
20
11.3307466630592
30
0
41
1
10
217.928548489497
20
11.3590908081034
30
0
41
1
10
217.975587978691
20
11.3675578364907
30
0
41
1
10
218.023311448267
20
11.3688421751972
30
0
0
SPLINE
5
330
100
AcDbEntity
8
1
62
256
6
ByLayer
370
13
48
1
60
0
100
AcDbSpline
70
4
71
3
72
8
73
4
40
0
40
0
40
0
40
0
40
1
40
1
40
1
40
1
41
1
10
213.814656475791
20
2.88302505486126
30
0
41
1
10
211.686887881142
20
3.88946999982164
30
0
41
1
10
209.57400470806
20
4.94412665609539
30
0
41
1
10
207.474795117099
20
6.04307005230771
30
0
0
SPLINE
5
331
100
AcDbEntity
8
1
62
256
6
ByLayer
370
13
48
1
60
0
100
AcDbSpline
70
4
71
3
72
12
73
8
40
0
40
0
40
0
40
0
40
0.249999999999992
40
0.249999999999992
40
0.499999999999983
40
0.499999999999983
40
1
40
1
40
1
40
1
41
1
10
220.874601741334
20
11.1572373759296
30
0
41
1
10
220.865442807602
20
11.2247020824148
30
0
41
1
10
220.853071569065
20
11.2917687543637
30
0
41
1
10
220.821193426447
20
11.4250179227252
30
0
41
1
10
220.801544570212
20
11.491514058197
30
0
41
1
10
220.732182905383
20
11.6854009419489
30
0
41
1
10
220.671972506379
20
11.8081828200457
30
0
41
1
10
220.59708461683
20
11.9241603375392
30
0
0
SPLINE
5
332
100
AcDbEntity
8
1
62
256
6
ByLayer
370
13
48
1
60
0
100
AcDbSpline
70
4
71
3
72
50
73
46
40
0
40
0
40
0
40
0
40
0.124999999999992
40
0.124999999999992
40
0.249999999999984
40
0.249999999999984
40
0.312499999999981
40
0.312499999999981
40
0.374999999999979
40
0.374999999999979
40
0.406249999999977
40
0.406249999999977
40
0.437499999999976
40
0.437499999999976
40
0.499999999999977
40
0.499999999999977
40
0.562499999999978
40
0.562499999999978
40
0.578124999999978
40
0.578124999999978
40
0.593749999999978
40
0.593749999999978
40
0.624999999999981
40
0.624999999999981
40
0.656249999999984
40
0.656249999999984
40
0.671874999999985
40
0.671874999999985
40
0.687499999999986
40
0.687499999999986
40
0.749999999999989
40
0.749999999999989
40
0.78124999999999
40
0.78124999999999
40
0.79687499999999
40
0.79687499999999
40
0.812499999999991
40
0.812499999999991
40
0.874999999999994
40
0.874999999999994
40
0.906249999999995
40
0.906249999999995
40
0.937499999999996
40
0.937499999999996
40
1
40
1
40
1
40
1
41
1
10
218.69191799034
20
2.10653675938937
30
0
41
1
10
219.669532004308
20
1.89437445268433
30
0
41
1
10
220.655137768679
20
1.70726868957033
30
0
41
1
10
222.652152649029
20
1.41395843926316
30
0
41
1
10
223.663430376012
20
1.30734200801086
30
0
41
1
10
225.209263581859
20
1.23807965626364
30
0
41
1
10
225.722535421145
20
1.23058349162548
30
0
41
1
10
226.744364055541
20
1.25132578457084
30
0
41
1
10
227.252943401407
20
1.27952835051855
30
0
41
1
10
228.011720615154
20
1.35307998877306
30
0
41
1
10
228.263962538948
20
1.38281926839227
30
0
41
1
10
228.766948289025
20
1.45373831290922
30
0
41
1
10
229.015344911835
20
1.49460114558062
30
0
41
1
10
229.749076182241
20
1.63372992429944
30
0
41
1
10
230.223789039522
20
1.74855842353108
30
0
41
1
10
231.141234806514
20
2.02710212622944
30
0
41
1
10
231.584022081696
20
2.190734222971
30
0
41
1
10
232.114104019973
20
2.43104845708689
30
0
41
1
10
232.218878163817
20
2.48090171238846
30
0
41
1
10
232.423697224416
20
2.58320658343968
30
0
41
1
10
232.524033714915
20
2.63578677757403
30
0
41
1
10
232.818779741863
20
2.79784116373011
30
0
41
1
10
233.006936145868
20
2.91162205727983
30
0
41
1
10
233.366100252973
20
3.1509946187484
30
0
41
1
10
233.537110623122
20
3.27658444979767
30
0
41
1
10
233.780146394581
20
3.4742530882223
30
0
41
1
10
233.858908626913
20
3.54169205776981
30
0
41
1
10
234.011788090256
20
3.6797691349706
30
0
41
1
10
234.085896093134
20
3.75042890693419
30
0
41
1
10
234.440338375674
20
4.10765114644016
30
0
41
1
10
234.676413011787
20
4.40910917281798
30
0
41
1
10
234.959890646536
20
4.88462354196705
30
0
41
1
10
235.04254853977
20
5.04703678330512
30
0
41
1
10
235.148265059186
20
5.2966905080275
30
0
41
1
10
235.180470196173
20
5.38102392227097
30
0
41
1
10
235.238038203177
20
5.54973782321596
30
0
41
1
10
235.26351082104
20
5.63435280024589
30
0
41
1
10
235.374722466396
20
6.05868622243619
30
0
41
1
10
235.412346231612
20
6.40215385806829
30
0
41
1
10
235.395147857826
20
6.92309294982809
30
0
41
1
10
235.376874418483
20
7.09837434223746
30
0
41
1
10
235.316906051675
20
7.4445285827662
30
0
41
1
10
235.275283160178
20
7.61602961170672
30
0
41
1
10
235.11755893076
20
8.1260834628703
30
0
41
1
10
234.968582181684
20
8.46052210339377
30
0
41
1
10
234.779275761137
20
8.78880402448013
30
0
0
SPLINE
5
333
100
AcDbEntity
8
1
62
256
6
ByLayer
370
13
48
1
60
0
100
AcDbSpline
70
4
71
1
72
4
73
2
40
0
40
0
40
1
40
1
41
1
10
36.0099999986921
20
-23.6402565514822
30
0
41
1
10
36.0100000013079
20
-23.6538007917157
30
0
0
SPLINE
5
334
100
AcDbEntity
8
1
62
256
6
ByLayer
370
13
48
1
60
0
100
AcDbSpline
70
4
71
3
72
8
73
4
40
0
40
0
40
0
40
0
40
1
40
1
40
1
40
1
41
1
10
36.01
20
-23.6538007917306
30
0
41
1
10
35.4216660468121
20
-23.6540223880958
30
0
41
1
10
34.8333320938945
20
-23.654244511251
30
0
41
1
10
34.2449981408473
20
-23.6544663819046
30
0
0
SPLINE
5
335
100
AcDbEntity
8
1
62
256
6
ByLayer
370
13
48
1
60
0
100
AcDbSpline
70
4
71
3
72
8
73
4
40
0
40
0
40
0
40
0
40
1
40
1
40
1
40
1
41
1
10
218.023311120946
20
11.3688387050264
30
0
41
1
10
218.142518861247
20
12.6326447195313
30
0
41
1
10
218.258978899009
20
13.8950372324499
30
0
41
1
10
218.372010563584
20
15.1562429016649
30
0
0
SPLINE
5
336
100
AcDbEntity
8
1
62
256
6
ByLayer
370
13
48
1
60
0
100
AcDbSpline
70
4
71
3
72
18
73
14
40
0
40
0
40
0
40
0
40
0.249999999999958
40
0.249999999999958
40
0.374999999999937
40
0.374999999999937
40
0.499999999999915
40
0.499999999999915
40
0.749999999999958
40
0.749999999999958
40
0.874999999999979
40
0.874999999999979
40
1
40
1
40
1
40
1
41
1
10
236.892767032725
20
10.4016259275551
30
0
41
1
10
236.950143375315
20
10.4046328942535
30
0
41
1
10
237.00790019997
20
10.3974583146833
30
0
41
1
10
237.089198500554
20
10.3740821569067
30
0
41
1
10
237.115080972486
20
10.3643109497548
30
0
41
1
10
237.163228505425
20
10.3423665334575
30
0
41
1
10
237.185882986987
20
10.3299752627026
30
0
41
1
10
237.245871405469
20
10.2930510732139
30
0
41
1
10
237.276691628691
20
10.2681831160488
30
0
41
1
10
237.308902401287
20
10.2425434232428
30
0
41
1
10
237.317575045892
20
10.2357178904144
30
0
41
1
10
237.330658044537
20
10.2267814276001
30
0
41
1
10
237.335215172145
20
10.2245391827904
30
0
41
1
10
237.337875860782
20
10.2246786235732
30
0
0
SPLINE
5
337
100
AcDbEntity
8
1
62
256
6
ByLayer
370
13
48
1
60
0
100
AcDbSpline
70
4
71
1
72
4
73
2
40
0
40
0
40
1
40
1
41
1
10
195.776551972504
20
10.9190856786215
30
0
41
1
10
195.719821589176
20
10.9417554834833
30
0
0
SPLINE
5
338
100
AcDbEntity
8
1
62
256
6
ByLayer
370
13
48
1
60
0
100
AcDbSpline
70
4
71
3
72
15
73
11
40
0
40
0
40
0
40
0
40
0.186568906517221
40
0.373377093572536
40
0.560152378888128
40
0.648122711900979
40
0.73594842715928
40
0.823978422065485
40
0.912145520397788
40
1
40
1
40
1
40
1
41
1
10
5.29799999999997
20
-31.25
30
0
41
1
10
7.24349258689629
20
-30.9765010191283
30
0
41
1
10
11.1155819133068
20
-30.3248863458194
30
0
41
1
10
16.8694908543797
20
-29.037055807243
30
0
41
1
10
21.5426481687544
20
-27.7132268796952
30
0
41
1
10
25.1741291738305
20
-26.5468911118161
30
0
41
1
10
27.7784463506462
20
-25.5834304991725
30
0
41
1
10
30.4725885817844
20
-24.8884072765002
30
0
41
1
10
33.2245644425776
20
-24.4683680012634
30
0
41
1
10
35.072356087439
20
-24.3752371837803
30
0
41
1
10
36
20
-24.375
30
0
0
SPLINE
5
339
100
AcDbEntity
8
1
62
256
6
ByLayer
370
13
48
1
60
0
100
AcDbSpline
70
4
71
3
72
16
73
12
40
0
40
0
40
0
40
0
40
0.0931874410911266
40
0.186695875779929
40
0.279988883336413
40
0.373172379071685
40
0.466495201997937
40
0.559884594175543
40
0.706685481149756
40
0.853434581693048
40
1
40
1
40
1
40
1
41
1
10
36.0000000000001
20
24.3749999999999
30
0
41
1
10
35.0155676951979
20
24.3753002313637
30
0
41
1
10
33.0565544292568
20
24.481050546481
30
0
41
1
10
30.1401995793405
20
24.9488829959286
30
0
41
1
10
27.3000507329495
20
25.7461745583762
30
0
41
1
10
24.5381900347455
20
26.7657821266444
30
0
41
1
10
21.7266564396073
20
27.642395632623
30
0
41
1
10
18.3565814841073
20
28.6176837910987
30
0
41
1
10
14.4068610686028
20
29.6061265572693
30
0
41
1
10
9.87090305197769
20
30.5414197640479
30
0
41
1
10
6.82573247202902
20
31.0352615599983
30
0
41
1
10
5.29800000000004
20
31.25
30
0
0
SPLINE
5
33A
100
AcDbEntity
8
1
62
256
6
ByLayer
370
13
48
1
60
0
100
AcDbSpline
70
4
71
2
72
6
73
3
40
0
40
0
40
0
40
1
40
1
40
1
41
1
10
239.821210170497
20
9.33607465460014
30
0
41
1
10
239.889138076597
20
9.40706637220319
30
0
41
1
10
239.958380134285
20
9.46294126248182
30
0
0
SPLINE
5
33B
100
AcDbEntity
8
1
62
256
6
ByLayer
370
13
48
1
60
0
100
AcDbSpline
70
4
71
2
72
6
73
3
40
0
40
0
40
0
40
1
40
1
40
1
41
1
10
222.903732387315
20
8.5691450476086
30
0
41
1
10
222.978435646182
20
8.52081401170892
30
0
41
1
10
223.053412091251
20
8.45731159380034
30
0
0
LINE
5
7F
100
AcDbEntity
8
SK1
62
256
6
ByLayer
370
13
48
1
60
0
100
AcDbLine
10
-80
20
8.054018
30
0
11
-80
21
-8.054018
31
0
39
0
210
0
220
0
230
1
0
LINE
5
81
100
AcDbEntity
8
SK1
62
256
6
ByLayer
370
13
48
1
60
0
100
AcDbLine
10
-76.600002
20
10.670483
30
0
11
-6.5
21
10.670483
31
0
39
0
210
0
220
0
230
1
0
LINE
5
82
100
AcDbEntity
8
SK1
62
256
6
ByLayer
370
13
48
1
60
0
100
AcDbLine
10
-79
20
10.670483
30
0
11
-78.599999
21
10.670483
31
0
39
0
210
0
220
0
230
1
0
LINE
5
83
100
AcDbEntity
8
SK1
62
256
6
ByLayer
370
13
48
1
60
0
100
AcDbLine
10
-1.375195
20
-24.746
30
0
11
-1.375195
21
24.746
31
0
39
0
210
0
220
0
230
1
0
LINE
5
84
100
AcDbEntity
8
SK1
62
256
6
ByLayer
370
13
48
1
60
0
100
AcDbLine
10
-0.15
20
-24.746
30
0
11
-0.15
21
24.746
31
0
39
0
210
0
220
0
230
1
0
LINE
5
85
100
AcDbEntity
8
SK1
62
256
6
ByLayer
370
13
48
1
60
0
100
AcDbLine
10
-78.599999
20
-24.996
30
0
11
-78.599999
21
-10.670483
31
0
39
0
210
0
220
0
230
1
0
LINE
5
86
100
AcDbEntity
8
SK1
62
256
6
ByLayer
370
13
48
1
60
0
100
AcDbLine
10
-78.599999
20
10.670483
30
0
11
-78.599999
21
24.996
31
0
39
0
210
0
220
0
230
1
0
LINE
5
87
100
AcDbEntity
8
SK1
62
256
6
ByLayer
370
13
48
1
60
0
100
AcDbLine
10
-2
20
-24.996
30
0
11
-2
21
24.996
31
0
39
0
210
0
220
0
230
1
0
LINE
5
88
100
AcDbEntity
8
SK1
62
256
6
ByLayer
370
13
48
1
60
0
100
AcDbLine
10
-78.516222
20
24.892544
30
0
11
-78.516222
21
10.425829
31
0
39
0
210
0
220
0
230
1
0
LINE
5
89
100
AcDbEntity
8
SK1
62
256
6
ByLayer
370
13
48
1
60
0
100
AcDbLine
10
-78.516222
20
-10.425829
30
0
11
-78.516222
21
-24.892544
31
0
39
0
210
0
220
0
230
1
0
LINE
5
8A
100
AcDbEntity
8
SK1
62
256
6
ByLayer
370
13
48
1
60
0
100
AcDbLine
10
-1.544243
20
-24.783477
30
0
11
-1.544243
21
24.783477
31
0
39
0
210
0
220
0
230
1
0
LINE
5
8B
100
AcDbEntity
8
SK1
62
256
6
ByLayer
370
13
48
1
60
0
100
AcDbLine
10
-78.599999
20
-10.670483
30
0
11
-79
21
-10.670483
31
0
39
0
210
0
220
0
230
1
0
LINE
5
8C
100
AcDbEntity
8
SK1
62
256
6
ByLayer
370
13
48
1
60
0
100
AcDbLine
10
-79
20
-24.996
30
0
11
-79
21
-10.670483
31
0
39
0
210
0
220
0
230
1
0
LINE
5
8D
100
AcDbEntity
8
SK1
62
256
6
ByLayer
370
13
48
1
60
0
100
AcDbLine
10
-79
20
10.670483
30
0
11
-79
21
24.996
31
0
39
0
210
0
220
0
230
1
0
LINE
5
8E
100
AcDbEntity
8
1
62
256
6
ByLayer
370
18
48
1
60
0
100
AcDbLine
10
232.259001
20
17.735472
30
0
11
232.124314
21
17.728413
31
0
39
0
210
0
220
0
230
1
0
LINE
5
8F
100
AcDbEntity
8
1
62
256
6
ByLayer
370
18
48
1
60
0
100
AcDbLine
10
232.709386
20
16.328807
30
0
11
232.574699
21
16.321748
31
0
39
0
210
0
220
0
230
1
0
LINE
5
90
100
AcDbEntity
8
1
62
256
6
ByLayer
370
18
48
1
60
0
100
AcDbLine
10
230.962055
20
15.177372
30
0
11
230.826345
21
15.170259
31
0
39
0
210
0
220
0
230
1
0
LINE
5
91
100
AcDbEntity
8
1
62
256
6
ByLayer
370
18
48
1
60
0
100
AcDbLine
10
232.367997
20
15.655711
30
0
11
232.233309
21
15.648652
31
0
39
0
210
0
220
0
230
1
0
LINE
5
92
100
AcDbEntity
8
1
62
256
6
ByLayer
370
18
48
1
60
0
100
AcDbLine
10
232.243793
20
15.631638
30
0
11
232.233309
21
15.648652
31
0
39
0
210
0
220
0
230
1
0
LINE
5
93
100
AcDbEntity
8
1
62
256
6
ByLayer
370
18
48
1
60
0
100
AcDbLine
10
232.554101
20
17.095293
30
0
11
232.534191
21
17.094689
31
0
39
0
210
0
220
0
230
1
0
LINE
5
94
100
AcDbEntity
8
1
62
256
6
ByLayer
370
18
48
1
60
0
100
AcDbLine
10
232.668878
20
17.101748
30
0
11
232.534191
21
17.094689
31
0
39
0
210
0
220
0
230
1
0
LINE
5
95
100
AcDbEntity
8
1
62
256
6
ByLayer
370
18
48
1
60
0
100
AcDbLine
10
230.820955
20
18.047639
30
0
11
230.686268
21
18.04058
31
0
39
0
210
0
220
0
230
1
0
LINE
5
96
100
AcDbEntity
8
1
62
256
6
ByLayer
370
18
48
1
60
0
100
AcDbLine
10
229.814452
20
16.951715
30
0
11
229.746727
21
16.948165
31
0
39
0
210
0
220
0
230
1
0
LINE
5
97
100
AcDbEntity
8
1
62
256
6
ByLayer
370
18
48
1
60
0
100
AcDbLine
10
230.826345
20
15.170259
30
0
11
230.835771
21
15.187878
31
0
39
0
210
0
220
0
230
1
0
LINE
5
98
100
AcDbEntity
8
1
62
256
6
ByLayer
370
18
48
1
60
0
100
AcDbLine
10
232.574699
20
16.321748
30
0
11
232.594563
21
16.323228
31
0
39
0
210
0
220
0
230
1
0
LINE
5
99
100
AcDbEntity
8
1
62
256
6
ByLayer
370
18
48
1
60
0
100
AcDbLine
10
230.970459
20
15.194937
30
0
11
230.835771
21
15.187878
31
0
39
0
210
0
220
0
230
1
0
LINE
5
9A
100
AcDbEntity
8
1
62
256
6
ByLayer
370
18
48
1
60
0
100
AcDbLine
10
232.268671
20
17.753542
30
0
11
232.132962
21
17.74643
31
0
39
0
210
0
220
0
230
1
0
LINE
5
9B
100
AcDbEntity
8
1
62
256
6
ByLayer
370
18
48
1
60
0
100
AcDbLine
10
230.810761
20
18.064229
30
0
11
230.675051
21
18.057117
31
0
39
0
210
0
220
0
230
1
0
LINE
5
9C
100
AcDbEntity
8
1
62
256
6
ByLayer
370
18
48
1
60
0
100
AcDbLine
10
232.379503
20
15.63875
30
0
11
232.243793
21
15.631638
31
0
39
0
210
0
220
0
230
1
0
LINE
5
9D
100
AcDbEntity
8
1
62
256
6
ByLayer
370
18
48
1
60
0
100
AcDbLine
10
232.124314
20
17.728413
30
0
11
232.132962
21
17.74643
31
0
39
0
210
0
220
0
230
1
0
LINE
5
9E
100
AcDbEntity
8
1
62
256
6
ByLayer
370
18
48
1
60
0
100
AcDbLine
10
230.686268
20
18.04058
30
0
11
230.675051
21
18.057117
31
0
39
0
210
0
220
0
230
1
0
LINE
5
9F
100
AcDbEntity
8
1
62
256
6
ByLayer
370
18
48
1
60
0
100
AcDbLine
10
229.854915
20
16.179649
30
0
11
229.7866
21
16.176069
31
0
39
0
210
0
220
0
230
1
0
LINE
5
A0
100
AcDbEntity
8
1
62
256
6
ByLayer
370
18
48
1
60
0
100
AcDbLine
10
239.41142
20
-14.157012
30
0
11
239.355543
21
-14.172953
31
0
39
0
210
0
220
0
230
1
0
LINE
5
A1
100
AcDbEntity
8
1
62
256
6
ByLayer
370
18
48
1
60
0
100
AcDbLine
10
239.457189
20
0.042331
30
0
11
240.555958
21
-6.860115
31
0
39
0
210
0
220
0
230
1
0
LINE
5
A2
100
AcDbEntity
8
1
62
256
6
ByLayer
370
18
48
1
60
0
100
AcDbLine
10
239.062517
20
0.450825
30
0
11
239.129268
21
0.442081
31
0
39
0
210
0
220
0
230
1
0
LINE
5
A3
100
AcDbEntity
8
1
62
256
6
ByLayer
370
18
48
1
60
0
100
AcDbLine
10
240.558963
20
-7.088528
30
0
11
239.661953
21
-13.867717
31
0
39
0
210
0
220
0
230
1
0
LINE
5
A4
100
AcDbEntity
8
1
62
256
6
ByLayer
370
18
48
1
60
0
100
AcDbLine
10
239.260181
20
-14.193988
30
0
11
239.229613
21
-14.198805
31
0
39
0
210
0
220
0
230
1
0
LINE
5
A5
100
AcDbEntity
8
1
62
256
6
ByLayer
370
18
48
1
60
0
100
AcDbLine
10
239.420025
20
0.192809
30
0
11
239.436048
21
0.137213
31
0
39
0
210
0
220
0
230
1
0
LINE
5
A6
100
AcDbEntity
8
1
62
256
6
ByLayer
370
13
48
1
60
0
100
AcDbLine
10
224.925485
20
9.431609
30
0
11
224.874705
21
9.753145
31
0
39
0
210
0
220
0
230
1
0
LINE
5
A7
100
AcDbEntity
8
1
62
256
6
ByLayer
370
13
48
1
60
0
100
AcDbLine
10
237.990092
20
10.435323
30
0
11
237.98548
21
10.435081
31
0
39
0
210
0
220
0
230
1
0
LINE
5
A8
100
AcDbEntity
8
1
62
256
6
ByLayer
370
13
48
1
60
0
100
AcDbLine
10
221.773196
20
16.1708
30
0
11
222.590825
21
22.418293
31
0
39
0
210
0
220
0
230
1
0
LINE
5
A9
100
AcDbEntity
8
1
62
256
6
ByLayer
370
13
48
1
60
0
100
AcDbLine
10
239.729425
20
24.330152
30
0
11
240.837208
21
17.315707
31
0
39
0
210
0
220
0
230
1
0
LINE
5
AA
100
AcDbEntity
8
1
62
256
6
ByLayer
370
13
48
1
60
0
100
AcDbLine
10
238.014095
20
10.592972
30
0
11
239.860319
21
10.88623
31
0
39
0
210
0
220
0
230
1
0
LINE
5
AB
100
AcDbEntity
8
1
62
256
6
ByLayer
370
13
48
1
60
0
100
AcDbLine
10
239.734037
20
24.330393
30
0
11
240.84182
21
17.315949
31
0
39
0
210
0
220
0
230
1
0
LINE
5
AC
100
AcDbEntity
8
1
62
256
6
ByLayer
370
13
48
1
60
0
100
AcDbLine
10
238.619794
20
24.920914
30
0
11
238.615182
21
24.920672
31
0
39
0
210
0
220
0
230
1
0
LINE
5
AD
100
AcDbEntity
8
1
62
256
6
ByLayer
370
13
48
1
60
0
100
AcDbLine
10
238.356146
20
24.909742
30
0
11
238.351533
21
24.909501
31
0
39
0
210
0
220
0
230
1
0
LINE
5
AE
100
AcDbEntity
8
1
62
256
6
ByLayer
370
13
48
1
60
0
100
AcDbLine
10
238.352147
20
24.909528
30
0
11
238.579956
21
24.919465
31
0
39
0
210
0
220
0
230
1
0
LINE
5
AF
100
AcDbEntity
8
1
62
256
6
ByLayer
370
13
48
1
60
0
100
AcDbLine
10
240.844484
20
17.115078
30
0
11
240.839871
21
17.114837
31
0
39
0
210
0
220
0
230
1
0
LINE
5
B0
100
AcDbEntity
8
1
62
256
6
ByLayer
370
13
48
1
60
0
100
AcDbLine
10
237.710781
20
10.681359
30
0
11
238.552758
21
17.114893
31
0
39
0
210
0
220
0
230
1
0
LINE
5
B1
100
AcDbEntity
8
1
62
256
6
ByLayer
370
13
48
1
60
0
100
AcDbLine
10
239.897554
20
10.738799
30
0
11
237.98548
21
10.435081
31
0
39
0
210
0
220
0
230
1
0
LINE
5
B2
100
AcDbEntity
8
1
62
256
6
ByLayer
370
13
48
1
60
0
100
AcDbLine
10
224.727897
20
22.631636
30
0
11
224.74191
21
22.73871
31
0
39
0
210
0
220
0
230
1
0
LINE
5
B3
100
AcDbEntity
8
1
62
256
6
ByLayer
370
13
48
1
60
0
100
AcDbLine
10
237.824666
20
10.307797
30
0
11
239.570629
21
10.585129
31
0
39
0
210
0
220
0
230
1
0
LINE
5
B4
100
AcDbEntity
8
1
62
256
6
ByLayer
370
13
48
1
60
0
100
AcDbLine
10
237.825066
20
23.852645
30
0
11
238.858163
21
17.311113
31
0
39
0
210
0
220
0
230
1
0
LINE
5
B5
100
AcDbEntity
8
1
62
256
6
ByLayer
370
13
48
1
60
0
100
AcDbLine
10
240.84182
20
17.315949
30
0
11
240.837208
21
17.315707
31
0
39
0
210
0
220
0
230
1
0
LINE
5
B6
100
AcDbEntity
8
1
62
256
6
ByLayer
370
13
48
1
60
0
100
AcDbLine
10
240.940165
20
17.33157
30
0
11
239.832381
21
24.346015
31
0
39
0
210
0
220
0
230
1
0
LINE
5
B7
100
AcDbEntity
8
1
62
256
6
ByLayer
370
13
48
1
60
0
100
AcDbLine
10
224.737298
20
22.738468
30
0
11
223.881308
21
16.197859
31
0
39
0
210
0
220
0
230
1
0
LINE
5
B8
100
AcDbEntity
8
1
62
256
6
ByLayer
370
13
48
1
60
0
100
AcDbLine
10
240.185862
20
11.315154
30
0
11
240.06737
21
9.84631
31
0
39
0
210
0
220
0
230
1
0
LINE
5
B9
100
AcDbEntity
8
1
62
256
6
ByLayer
370
13
48
1
60
0
100
AcDbLine
10
221.50719
20
15.600302
30
0
11
221.452281
21
15.947985
31
0
39
0
210
0
220
0
230
1
0
LINE
5
BA
100
AcDbEntity
8
1
62
256
6
ByLayer
370
13
48
1
60
0
100
AcDbLine
10
237.887464
20
10.636532
30
0
11
237.875769
21
10.547169
31
0
39
0
210
0
220
0
230
1
0
LINE
5
BB
100
AcDbEntity
8
1
62
256
6
ByLayer
370
13
48
1
60
0
100
AcDbLine
10
222.720463
20
22.397715
30
0
11
221.902834
21
16.150221
31
0
39
0
210
0
220
0
230
1
0
LINE
5
BC
100
AcDbEntity
8
1
62
256
6
ByLayer
370
13
48
1
60
0
100
AcDbLine
10
221.50719
20
15.600302
30
0
11
222.755267
21
8.939021
31
0
39
0
210
0
220
0
230
1
0
LINE
5
BD
100
AcDbEntity
8
1
62
256
6
ByLayer
370
13
48
1
60
0
100
AcDbLine
10
223.885921
20
16.198101
30
0
11
224.727897
21
22.631636
31
0
39
0
210
0
220
0
230
1
0
LINE
5
BE
100
AcDbEntity
8
1
62
256
6
ByLayer
370
13
48
1
60
0
100
AcDbLine
10
240.844484
20
17.115078
30
0
11
240.026855
21
10.867585
31
0
39
0
210
0
220
0
230
1
0
LINE
5
BF
100
AcDbEntity
8
1
62
256
6
ByLayer
370
13
48
1
60
0
100
AcDbLine
10
237.692194
20
23.85427
30
0
11
237.740135
21
23.550709
31
0
39
0
210
0
220
0
230
1
0
LINE
5
C0
100
AcDbEntity
8
1
62
256
6
ByLayer
370
13
48
1
60
0
100
AcDbLine
10
224.103721
20
16.02944
30
0
11
225.089842
21
9.785355
31
0
39
0
210
0
220
0
230
1
0
LINE
5
C1
100
AcDbEntity
8
1
62
256
6
ByLayer
370
13
48
1
60
0
100
AcDbLine
10
224.74191
20
22.73871
30
0
11
224.737298
21
22.738468
31
0
39
0
210
0
220
0
230
1
0
LINE
5
C2
100
AcDbEntity
8
1
62
256
6
ByLayer
370
13
48
1
60
0
100
AcDbLine
10
238.256217
20
24.961895
30
0
11
238.488013
21
25.015589
31
0
39
0
210
0
220
0
230
1
0
LINE
5
C3
100
AcDbEntity
8
1
62
256
6
ByLayer
370
13
48
1
60
0
100
AcDbLine
10
221.904926
20
15.992394
30
0
11
223.01271
21
8.97795
31
0
39
0
210
0
220
0
230
1
0
LINE
5
C4
100
AcDbEntity
8
1
62
256
6
ByLayer
370
13
48
1
60
0
100
AcDbLine
10
223.719385
20
16.216746
30
0
11
224.566687
21
22.690973
31
0
39
0
210
0
220
0
230
1
0
LINE
5
C5
100
AcDbEntity
8
1
62
256
6
ByLayer
370
13
48
1
60
0
100
AcDbLine
10
224.755715
20
9.4313
30
0
11
223.722619
21
15.972832
31
0
39
0
210
0
220
0
230
1
0
LINE
5
C6
100
AcDbEntity
8
1
62
256
6
ByLayer
370
13
48
1
60
0
100
AcDbLine
10
237.977417
20
10.434137
30
0
11
237.98548
21
10.435081
31
0
39
0
210
0
220
0
230
1
0
LINE
5
C7
100
AcDbEntity
8
1
62
256
6
ByLayer
370
13
48
1
60
0
100
AcDbLine
10
222.715513
20
22.546838
30
0
11
224.627587
21
22.850556
31
0
39
0
210
0
220
0
230
1
0
LINE
5
C8
100
AcDbEntity
8
1
62
256
6
ByLayer
370
13
48
1
60
0
100
AcDbLine
10
221.641625
20
17.631036
30
0
11
221.449436
21
16.162525
31
0
39
0
210
0
220
0
230
1
0
LINE
5
C9
100
AcDbEntity
8
1
62
256
6
ByLayer
370
13
48
1
60
0
100
AcDbLine
10
224.566687
20
22.690973
30
0
11
222.720463
21
22.397715
31
0
39
0
210
0
220
0
230
1
0
LINE
5
CA
100
AcDbEntity
8
1
62
256
6
ByLayer
370
13
48
1
60
0
100
AcDbLine
10
239.902166
20
10.73904
30
0
11
239.897554
21
10.738799
31
0
39
0
210
0
220
0
230
1
0
LINE
5
CB
100
AcDbEntity
8
1
62
256
6
ByLayer
370
13
48
1
60
0
100
AcDbLine
10
223.888584
20
15.99723
30
0
11
223.883972
21
15.996989
31
0
39
0
210
0
220
0
230
1
0
LINE
5
CC
100
AcDbEntity
8
1
62
256
6
ByLayer
370
13
48
1
60
0
100
AcDbLine
10
238.333819
20
24.983289
30
0
11
238.223505
21
24.960181
31
0
39
0
210
0
220
0
230
1
0
LINE
5
CD
100
AcDbEntity
8
1
62
256
6
ByLayer
370
13
48
1
60
0
100
AcDbLine
10
240.839871
20
17.114837
30
0
11
240.022243
21
10.867343
31
0
39
0
210
0
220
0
230
1
0
LINE
5
CE
100
AcDbEntity
8
1
62
256
6
ByLayer
370
13
48
1
60
0
100
AcDbLine
10
224.874705
20
9.753145
30
0
11
223.888584
21
15.99723
31
0
39
0
210
0
220
0
230
1
0
LINE
5
CF
100
AcDbEntity
8
1
62
256
6
ByLayer
370
13
48
1
60
0
100
AcDbLine
10
239.062897
20
24.920814
30
0
11
239.058284
21
24.920572
31
0
39
0
210
0
220
0
230
1
0
LINE
5
D0
100
AcDbEntity
8
1
62
256
6
ByLayer
370
13
48
1
60
0
100
AcDbLine
10
240.943208
20
17.102004
30
0
11
240.127307
21
10.867712
31
0
39
0
210
0
220
0
230
1
0
LINE
5
D1
100
AcDbEntity
8
1
62
256
6
ByLayer
370
13
48
1
60
0
100
AcDbLine
10
223.885921
20
16.198101
30
0
11
223.881308
21
16.197859
31
0
39
0
210
0
220
0
230
1
0
LINE
5
D2
100
AcDbEntity
8
1
62
256
6
ByLayer
370
13
48
1
60
0
100
AcDbLine
10
224.793014
20
22.978081
30
0
11
222.704444
21
22.646329
31
0
39
0
210
0
220
0
230
1
0
LINE
5
D3
100
AcDbEntity
8
1
62
256
6
ByLayer
370
13
48
1
60
0
100
AcDbLine
10
238.861397
20
17.067199
30
0
11
238.014095
21
10.592972
31
0
39
0
210
0
220
0
230
1
0
LINE
5
D4
100
AcDbEntity
8
1
62
256
6
ByLayer
370
13
48
1
60
0
100
AcDbLine
10
224.361463
20
8.323983
30
0
11
224.129666
21
8.270289
31
0
39
0
210
0
220
0
230
1
0
LINE
5
D5
100
AcDbEntity
8
1
62
256
6
ByLayer
370
13
48
1
60
0
100
AcDbLine
10
224.899561
20
9.347325
30
0
11
224.894949
21
9.347083
31
0
39
0
210
0
220
0
230
1
0
LINE
5
D6
100
AcDbEntity
8
1
62
256
6
ByLayer
370
13
48
1
60
0
100
AcDbLine
10
224.925485
20
9.431609
30
0
11
224.920873
21
9.431367
31
0
39
0
210
0
220
0
230
1
0
LINE
5
D7
100
AcDbEntity
8
1
62
256
6
ByLayer
370
13
48
1
60
0
100
AcDbLine
10
221.677515
20
15.954308
30
0
11
222.785298
21
8.939864
31
0
39
0
210
0
220
0
230
1
0
LINE
5
D8
100
AcDbEntity
8
1
62
256
6
ByLayer
370
13
48
1
60
0
100
AcDbLine
10
239.916159
20
9.447887
30
0
11
239.881235
21
9.735273
31
0
39
0
210
0
220
0
230
1
0
LINE
5
D9
100
AcDbEntity
8
1
62
256
6
ByLayer
370
13
48
1
60
0
100
AcDbLine
10
239.902166
20
10.73904
30
0
11
237.990092
21
10.435323
31
0
39
0
210
0
220
0
230
1
0
LINE
5
DA
100
AcDbEntity
8
1
62
256
6
ByLayer
370
13
48
1
60
0
100
AcDbLine
10
222.490372
20
22.418166
30
0
11
222.467982
21
22.6315
31
0
39
0
210
0
220
0
230
1
0
LINE
5
DB
100
AcDbEntity
8
1
62
256
6
ByLayer
370
13
48
1
60
0
100
AcDbLine
10
237.917165
20
24.777787
30
0
11
238.075912
21
24.786107
31
0
39
0
210
0
220
0
230
1
0
LINE
5
DC
100
AcDbEntity
8
1
62
256
6
ByLayer
370
13
48
1
60
0
100
AcDbLine
10
222.605537
20
23.588719
30
0
11
222.462462
21
23.565993
31
0
39
0
210
0
220
0
230
1
0
LINE
5
DD
100
AcDbEntity
8
1
62
256
6
ByLayer
370
13
48
1
60
0
100
AcDbLine
10
223.883972
20
15.996989
30
0
11
224.920873
21
9.431367
31
0
39
0
210
0
220
0
230
1
0
LINE
5
DE
100
AcDbEntity
8
1
62
256
6
ByLayer
370
13
48
1
60
0
100
AcDbLine
10
240.026855
20
10.867585
30
0
11
240.022243
21
10.867343
31
0
39
0
210
0
220
0
230
1
0
LINE
5
DF
100
AcDbEntity
8
1
62
256
6
ByLayer
370
13
48
1
60
0
100
AcDbLine
10
224.261534
20
8.376136
30
0
11
224.033111
21
8.366171
31
0
39
0
210
0
220
0
230
1
0
LINE
5
E0
100
AcDbEntity
8
1
62
256
6
ByLayer
370
13
48
1
60
0
100
AcDbLine
10
224.445446
20
8.525163
30
0
11
224.440833
21
8.524921
31
0
39
0
210
0
220
0
230
1
0
LINE
5
E1
100
AcDbEntity
8
1
62
256
6
ByLayer
370
13
48
1
60
0
100
AcDbLine
10
238.584568
20
24.919707
30
0
11
238.579956
21
24.919465
31
0
39
0
210
0
220
0
230
1
0
LINE
5
E2
100
AcDbEntity
8
1
62
256
6
ByLayer
370
13
48
1
60
0
100
AcDbLine
10
239.860319
20
10.88623
30
0
11
240.677948
21
17.133724
31
0
39
0
210
0
220
0
230
1
0
LINE
5
E3
100
AcDbEntity
8
1
62
256
6
ByLayer
370
13
48
1
60
0
100
AcDbLine
10
238.356146
20
24.909742
30
0
11
238.584568
21
24.919707
31
0
39
0
210
0
220
0
230
1
0
LINE
5
E4
100
AcDbEntity
8
1
62
256
6
ByLayer
370
13
48
1
60
0
100
AcDbLine
10
222.897076
20
24.174284
30
0
11
223.009201
21
24.162833
31
0
39
0
210
0
220
0
230
1
0
LINE
5
E5
100
AcDbEntity
8
1
62
256
6
ByLayer
370
13
48
1
60
0
100
AcDbLine
10
224.008114
20
8.515062
30
0
11
224.236536
21
8.525026
31
0
39
0
210
0
220
0
230
1
0
LINE
5
E6
100
AcDbEntity
8
1
62
256
6
ByLayer
370
13
48
1
60
0
100
AcDbLine
10
239.458678
20
9.668154
30
0
11
239.913235
21
10.63955
31
0
39
0
210
0
220
0
230
1
0
LINE
5
E7
100
AcDbEntity
8
1
62
256
6
ByLayer
370
13
48
1
60
0
100
AcDbLine
10
239.570629
20
10.585129
30
0
11
239.913235
21
10.63955
31
0
39
0
210
0
220
0
230
1
0
LINE
5
E8
100
AcDbEntity
8
1
62
256
6
ByLayer
370
13
48
1
60
0
100
AcDbLine
10
221.451899
20
16.655313
30
0
11
221.531873
21
17.406421
31
0
39
0
210
0
220
0
230
1
0
LINE
5
E9
100
AcDbEntity
8
1
62
256
6
ByLayer
370
13
48
1
60
0
100
AcDbLine
10
224.943795
20
22.606454
30
0
11
224.101819
21
16.172919
31
0
39
0
210
0
220
0
230
1
0
LINE
5
EA
100
AcDbEntity
8
1
62
256
6
ByLayer
370
13
48
1
60
0
100
AcDbLine
10
238.550856
20
17.258372
30
0
11
237.564735
21
23.502458
31
0
39
0
210
0
220
0
230
1
0
LINE
5
EB
100
AcDbEntity
8
1
62
256
6
ByLayer
370
13
48
1
60
0
100
AcDbLine
10
239.458678
20
9.668154
30
0
11
239.881235
21
9.735273
31
0
39
0
210
0
220
0
230
1
0
LINE
5
EC
100
AcDbEntity
8
1
62
256
6
ByLayer
370
13
48
1
60
0
100
AcDbLine
10
238.572668
20
24.768883
30
0
11
238.344245
21
24.758919
31
0
39
0
210
0
220
0
230
1
0
LINE
5
ED
100
AcDbEntity
8
1
62
256
6
ByLayer
370
13
48
1
60
0
100
AcDbLine
10
240.675855
20
17.291551
30
0
11
239.568072
21
24.305995
31
0
39
0
210
0
220
0
230
1
0
LINE
5
EE
100
AcDbEntity
8
1
62
256
6
ByLayer
370
13
48
1
60
0
100
AcDbLine
10
221.451899
20
16.655313
30
0
11
221.457301
21
17.21223
31
0
39
0
210
0
220
0
230
1
0
LINE
5
EF
100
AcDbEntity
8
1
62
256
6
ByLayer
370
13
48
1
60
0
100
AcDbLine
10
238.223505
20
24.960181
30
0
11
238.256217
21
24.961895
31
0
39
0
210
0
220
0
230
1
0
LINE
5
F0
100
AcDbEntity
8
1
62
256
6
ByLayer
370
13
48
1
60
0
100
AcDbLine
10
221.674471
20
16.183875
30
0
11
222.490372
21
22.418166
31
0
39
0
210
0
220
0
230
1
0
LINE
5
F1
100
AcDbEntity
8
1
62
256
6
ByLayer
370
13
48
1
60
0
100
AcDbLine
10
239.960626
20
10.480909
30
0
11
239.881235
21
9.735273
31
0
39
0
210
0
220
0
230
1
0
LINE
5
F2
100
AcDbEntity
8
1
62
256
6
ByLayer
370
13
48
1
60
0
100
AcDbLine
10
222.605537
20
23.588719
30
0
11
222.704444
21
22.646329
31
0
39
0
210
0
220
0
230
1
0
LINE
5
F3
100
AcDbEntity
8
1
62
256
6
ByLayer
370
13
48
1
60
0
100
AcDbLine
10
222.883642
20
8.955485
30
0
11
221.775859
21
15.969929
31
0
39
0
210
0
220
0
230
1
0
LINE
5
F4
100
AcDbEntity
8
1
62
256
6
ByLayer
370
13
48
1
60
0
100
AcDbLine
10
237.119312
20
10.413499
30
0
11
226.181351
21
9.840264
31
0
39
0
210
0
220
0
230
1
0
LINE
5
F5
100
AcDbEntity
8
1
62
256
6
ByLayer
370
13
48
1
60
0
100
AcDbLine
10
223.40944
20
23.950538
30
0
11
223.086464
21
23.950742
31
0
39
0
210
0
220
0
230
1
0
LINE
5
F6
100
AcDbEntity
8
1
62
256
6
ByLayer
370
13
48
1
60
0
100
AcDbLine
10
225.498367
20
22.87238
30
0
11
236.436328
21
23.445614
31
0
39
0
210
0
220
0
230
1
0
LINE
5
F7
100
AcDbEntity
8
1
62
256
6
ByLayer
370
13
48
1
60
0
100
AcDbLine
10
238.59036
20
9.298821
30
0
11
238.812751
21
9.297484
31
0
39
0
210
0
220
0
230
1
0
LINE
5
F8
100
AcDbEntity
8
1
62
256
6
ByLayer
370
13
48
1
60
0
100
AcDbLine
10
239.570629
20
10.585129
30
0
11
239.257101
21
9.301346
31
0
39
0
210
0
220
0
230
1
0
LINE
5
F9
100
AcDbEntity
8
1
62
256
6
ByLayer
370
13
48
1
60
0
100
AcDbLine
10
221.744505
20
13.477598
30
0
11
222.483892
21
10.387399
31
0
39
0
210
0
220
0
230
1
0
LINE
5
FA
100
AcDbEntity
8
1
62
256
6
ByLayer
370
13
48
1
60
0
100
AcDbLine
10
239.734037
20
24.330393
30
0
11
239.729425
21
24.330152
31
0
39
0
210
0
220
0
230
1
0
LINE
5
FB
100
AcDbEntity
8
1
62
256
6
ByLayer
370
13
48
1
60
0
100
AcDbLine
10
221.451899
20
16.655313
30
0
11
221.433634
21
16.303795
31
0
39
0
210
0
220
0
230
1
0
LINE
5
FC
100
AcDbEntity
8
SK1
62
256
6
ByLayer
370
13
48
1
60
0
100
AcDbLine
10
-6.5
20
-10.670483
30
0
11
-6.5
21
10.670483
31
0
39
0
210
0
220
0
230
1
0
LINE
5
FD
100
AcDbEntity
8
SK1
62
256
6
ByLayer
370
13
48
1
60
0
100
AcDbLine
10
-6.5
20
-10.670483
30
0
11
-76.600002
21
-10.670483
31
0
39
0
210
0
220
0
230
1
0
LINE
5
FE
100
AcDbEntity
8
SK1
62
256
6
ByLayer
370
13
48
1
60
0
100
AcDbLine
10
-77.633813
20
24.639667
30
0
11
-77.633813
21
9.806751
31
0
39
0
210
0
220
0
230
1
0
LINE
5
FF
100
AcDbEntity
8
SK1
62
256
6
ByLayer
370
13
48
1
60
0
100
AcDbLine
10
-77.633813
20
-9.806751
30
0
11
-77.633813
21
-24.639667
31
0
39
0
210
0
220
0
230
1
0
LINE
5
100
100
AcDbEntity
8
SK1
62
256
6
ByLayer
370
13
48
1
60
0
100
AcDbLine
10
-80
20
-23.996
30
0
11
-80
21
-8.054018
31
0
39
0
210
0
220
0
230
1
0
LINE
5
101
100
AcDbEntity
8
SK1
62
256
6
ByLayer
370
13
48
1
60
0
100
AcDbLine
10
-80
20
8.054018
30
0
11
-80
21
23.996
31
0
39
0
210
0
220
0
230
1
0
LINE
5
102
100
AcDbEntity
8
SK1
62
256
6
ByLayer
370
13
48
1
60
0
100
AcDbLine
10
-76.600002
20
24.996
30
0
11
-76.600002
21
10.670483
31
0
39
0
210
0
220
0
230
1
0
LINE
5
103
100
AcDbEntity
8
SK1
62
256
6
ByLayer
370
13
48
1
60
0
100
AcDbLine
10
-76.600002
20
-10.670483
30
0
11
-76.600002
21
-24.996
31
0
39
0
210
0
220
0
230
1
0
LINE
5
104
100
AcDbEntity
8
1
62
256
6
ByLayer
370
13
48
1
60
0
100
AcDbLine
10
5.298
20
-5.567764
30
0
11
0.1
21
-5.567764
31
0
39
0
210
0
220
0
230
1
0
LINE
5
105
100
AcDbEntity
8
1
62
256
6
ByLayer
370
13
48
1
60
0
100
AcDbLine
10
36.01
20
-13.670376
30
0
11
36.01
21
-23.640257
31
0
39
0
210
0
220
0
230
1
0
LINE
5
106
100
AcDbEntity
8
1
62
256
6
ByLayer
370
13
48
1
60
0
100
AcDbLine
10
0.1
20
31.25
30
0
11
0.1
21
5.567764
31
0
39
0
210
0
220
0
230
1
0
LINE
5
107
100
AcDbEntity
8
1
62
256
6
ByLayer
370
13
48
1
60
0
100
AcDbLine
10
240.079658
20
-7.774613
30
0
11
238.098636
21
-5.903313
31
0
39
0
210
0
220
0
230
1
0
LINE
5
108
100
AcDbEntity
8
1
62
256
6
ByLayer
370
13
48
1
60
0
100
AcDbLine
10
239.617178
20
7.992842
30
0
11
239.581246
21
7.990959
31
0
39
0
210
0
220
0
230
1
0
LINE
5
109
100
AcDbEntity
8
1
62
256
6
ByLayer
370
13
48
1
60
0
100
AcDbLine
10
0
20
-4.975942
30
0
11
0
21
4.975942
31
0
39
0
210
0
220
0
230
1
0
LINE
5
10A
100
AcDbEntity
8
1
62
256
6
ByLayer
370
13
48
1
60
0
100
AcDbLine
10
118
20
24.125
30
0
11
118
21
-9.229152
31
0
39
0
210
0
220
0
230
1
0
LINE
5
10B
100
AcDbEntity
8
1
62
256
6
ByLayer
370
13
48
1
60
0
100
AcDbLine
10
237.948412
20
8.954891
30
0
11
237.312296
21
2.268916
31
0
39
0
210
0
220
0
230
1
0
LINE
5
10C
100
AcDbEntity
8
1
62
256
6
ByLayer
370
13
48
1
60
0
100
AcDbLine
10
219.432035
20
11.275352
30
0
11
220.597085
21
11.92416
31
0
39
0
210
0
220
0
230
1
0
LINE
5
10D
100
AcDbEntity
8
1
62
256
6
ByLayer
370
13
48
1
60
0
100
AcDbLine
10
217.107106
20
-24.014378
30
0
11
210.196762
21
-24.014378
31
0
39
0
210
0
220
0
230
1
0
LINE
5
10E
100
AcDbEntity
8
1
62
256
6
ByLayer
370
13
48
1
60
0
100
AcDbLine
10
239.496301
20
0.632694
30
0
11
239.485925
21
0.634053
31
0
39
0
210
0
220
0
230
1
0
LINE
5
10F
100
AcDbEntity
8
1
62
256
6
ByLayer
370
13
48
1
60
0
100
AcDbLine
10
239.596044
20
1.144153
30
0
11
239.57536
21
1.146863
31
0
39
0
210
0
220
0
230
1
0
LINE
5
110
100
AcDbEntity
8
1
62
256
6
ByLayer
370
13
48
1
60
0
100
AcDbLine
10
227.144499
20
7.91991
30
0
11
227.508163
21
7.938968
31
0
39
0
210
0
220
0
230
1
0
LINE
5
111
100
AcDbEntity
8
1
62
256
6
ByLayer
370
13
48
1
60
0
100
AcDbLine
10
239.544204
20
8.288264
30
0
11
239.495682
21
9.136118
31
0
39
0
210
0
220
0
230
1
0
LINE
5
112
100
AcDbEntity
8
1
62
256
6
ByLayer
370
13
48
1
60
0
100
AcDbLine
10
237.302144
20
1.470637
30
0
11
237.488179
21
-1.161435
31
0
39
0
210
0
220
0
230
1
0
LINE
5
113
100
AcDbEntity
8
1
62
256
6
ByLayer
370
13
48
1
60
0
100
AcDbLine
10
226.658567
20
9.574553
30
0
11
226.424077
21
9.562264
31
0
39
0
210
0
220
0
230
1
0
LINE
5
114
100
AcDbEntity
8
1
62
256
6
ByLayer
370
13
48
1
60
0
100
AcDbLine
10
239.596044
20
1.144153
30
0
11
239.790894
21
0.933107
31
0
39
0
210
0
220
0
230
1
0
LINE
5
115
100
AcDbEntity
8
1
62
256
6
ByLayer
370
13
48
1
60
0
100
AcDbLine
10
234.633043
20
10.250896
30
0
11
234.450907
21
10.241351
31
0
39
0
210
0
220
0
230
1
0
LINE
5
116
100
AcDbEntity
8
1
62
256
6
ByLayer
370
13
48
1
60
0
100
AcDbLine
10
222.474018
20
22.46302
30
0
11
221.90081
21
18.083141
31
0
39
0
210
0
220
0
230
1
0
LINE
5
117
100
AcDbEntity
8
1
62
256
6
ByLayer
370
13
48
1
60
0
100
AcDbLine
10
239.496301
20
0.632694
30
0
11
239.504087
21
0.624261
31
0
39
0
210
0
220
0
230
1
0
LINE
5
118
100
AcDbEntity
8
1
62
256
6
ByLayer
370
13
48
1
60
0
100
AcDbLine
10
223.550462
20
23.778847
30
0
11
223.589239
21
24.075139
31
0
39
0
210
0
220
0
230
1
0
LINE
5
119
100
AcDbEntity
8
1
62
256
6
ByLayer
370
13
48
1
60
0
100
AcDbLine
10
239.504087
20
0.624261
30
0
11
239.480987
21
0.627287
31
0
39
0
210
0
220
0
230
1
0
LINE
5
11A
100
AcDbEntity
8
1
62
256
6
ByLayer
370
13
48
1
60
0
100
AcDbLine
10
230.12676
20
8.544976
30
0
11
230.72624
21
8.576393
31
0
39
0
210
0
220
0
230
1
0
LINE
5
11B
100
AcDbEntity
8
1
62
256
6
ByLayer
370
13
48
1
60
0
100
AcDbLine
10
239.790894
20
0.933107
30
0
11
239.515262
21
0.832067
31
0
39
0
210
0
220
0
230
1
0
LINE
5
11C
100
AcDbEntity
8
1
62
256
6
ByLayer
370
13
48
1
60
0
100
AcDbLine
10
219.12135
20
11.306399
30
0
11
219.12135
21
14.194972
31
0
39
0
210
0
220
0
230
1
0
LINE
5
11D
100
AcDbEntity
8
1
62
256
6
ByLayer
370
13
48
1
60
0
100
AcDbLine
10
5.298
20
-5.567764
30
0
11
5.298
21
-31.25
31
0
39
0
210
0
220
0
230
1
0
LINE
5
11E
100
AcDbEntity
8
1
62
256
6
ByLayer
370
13
48
1
60
0
100
AcDbLine
10
238.018952
20
-4.145312
30
0
11
240.057238
21
-6.070705
31
0
39
0
210
0
220
0
230
1
0
LINE
5
11F
100
AcDbEntity
8
1
62
256
6
ByLayer
370
13
48
1
60
0
100
AcDbLine
10
222.472728
20
23.37011
30
0
11
222.428059
21
24.222455
31
0
39
0
210
0
220
0
230
1
0
LINE
5
120
100
AcDbEntity
8
1
62
256
6
ByLayer
370
13
48
1
60
0
100
AcDbLine
10
239.495682
20
9.136118
30
0
11
239.401119
21
9.131162
31
0
39
0
210
0
220
0
230
1
0
LINE
5
121
100
AcDbEntity
8
1
62
256
6
ByLayer
370
13
48
1
60
0
100
AcDbLine
10
237.312296
20
2.268916
30
0
11
239.060771
21
0.617283
31
0
39
0
210
0
220
0
230
1
0
LINE
5
122
100
AcDbEntity
8
1
62
256
6
ByLayer
370
13
48
1
60
0
100
AcDbLine
10
234.779276
20
8.788804
30
0
11
237.948412
21
8.954891
31
0
39
0
210
0
220
0
230
1
0
LINE
5
123
100
AcDbEntity
8
1
62
256
6
ByLayer
370
13
48
1
60
0
100
AcDbLine
10
221.978929
20
11.993212
30
0
11
221.35128
21
15.967467
31
0
39
0
210
0
220
0
230
1
0
LINE
5
124
100
AcDbEntity
8
1
62
256
6
ByLayer
370
13
48
1
60
0
100
AcDbLine
10
0.1
20
-31.25
30
0
11
0.1
21
-5.567764
31
0
39
0
210
0
220
0
230
1
0
LINE
5
125
100
AcDbEntity
8
1
62
256
6
ByLayer
370
13
48
1
60
0
100
AcDbLine
10
220.107106
20
-24.263123
30
0
11
220.107106
21
-0.621616
31
0
39
0
210
0
220
0
230
1
0
LINE
5
126
100
AcDbEntity
8
1
62
256
6
ByLayer
370
13
48
1
60
0
100
AcDbLine
10
239.597398
20
-15.172335
30
0
11
239.200702
21
-14.86414
31
0
39
0
210
0
220
0
230
1
0
LINE
5
127
100
AcDbEntity
8
1
62
256
6
ByLayer
370
13
48
1
60
0
100
AcDbLine
10
227.048334
20
9.885701
30
0
11
229.136758
21
9.995151
31
0
39
0
210
0
220
0
230
1
0
LINE
5
128
100
AcDbEntity
8
1
62
256
6
ByLayer
370
13
48
1
60
0
100
AcDbLine
10
41
20
-24.283843
30
0
11
41
21
-24.375
31
0
39
0
210
0
220
0
230
1
0
LINE
5
129
100
AcDbEntity
8
1
62
256
6
ByLayer
370
13
48
1
60
0
100
AcDbLine
10
239.591938
20
9.018987
30
0
11
239.50265
21
9.014308
31
0
39
0
210
0
220
0
230
1
0
LINE
5
12A
100
AcDbEntity
8
1
62
256
6
ByLayer
370
13
48
1
60
0
100
AcDbLine
10
217.107106
20
-24.014378
30
0
11
217.107106
21
-0.190287
31
0
39
0
210
0
220
0
230
1
0
LINE
5
12B
100
AcDbEntity
8
1
62
256
6
ByLayer
370
13
48
1
60
0
100
AcDbLine
10
229.98218
20
9.538771
30
0
11
237.586596
21
9.937302
31
0
39
0
210
0
220
0
230
1
0
LINE
5
12C
100
AcDbEntity
8
1
62
256
6
ByLayer
370
13
48
1
60
0
100
AcDbLine
10
217.107106
20
24.125
30
0
11
217.107106
21
23.909523
31
0
39
0
210
0
220
0
230
1
0
LINE
5
12D
100
AcDbEntity
8
1
62
256
6
ByLayer
370
13
48
1
60
0
100
AcDbLine
10
5.298
20
31.25
30
0
11
5.298
21
5.567764
31
0
39
0
210
0
220
0
230
1
0
LINE
5
12E
100
AcDbEntity
8
1
62
256
6
ByLayer
370
13
48
1
60
0
100
AcDbLine
10
0
20
31.15
30
0
11
0
21
4.975942
31
0
39
0
210
0
220
0
230
1
0
LINE
5
12F
100
AcDbEntity
8
1
62
256
6
ByLayer
370
13
48
1
60
0
100
AcDbLine
10
36
20
24.375
30
0
11
36
21
-8.719239
31
0
39
0
210
0
220
0
230
1
0
LINE
5
130
100
AcDbEntity
8
1
62
256
6
ByLayer
370
13
48
1
60
0
100
AcDbLine
10
239.131906
20
-0.25778
30
0
11
237.302144
21
1.470637
31
0
39
0
210
0
220
0
230
1
0
LINE
5
131
100
AcDbEntity
8
1
62
256
6
ByLayer
370
13
48
1
60
0
100
AcDbLine
10
118
20
-24.072844
30
0
11
118
21
-24.125
31
0
39
0
210
0
220
0
230
1
0
LINE
5
132
100
AcDbEntity
8
1
62
256
6
ByLayer
370
13
48
1
60
0
100
AcDbLine
10
237.948412
20
8.954891
30
0
11
239.083023
21
9.014354
31
0
39
0
210
0
220
0
230
1
0
LINE
5
133
100
AcDbEntity
8
1
62
256
6
ByLayer
370
13
48
1
60
0
100
AcDbLine
10
221.743922
20
17.80131
30
0
11
222.472728
21
23.37011
31
0
39
0
210
0
220
0
230
1
0
LINE
5
134
100
AcDbEntity
8
1
62
256
6
ByLayer
370
13
48
1
60
0
100
AcDbLine
10
237.3471
20
10.225162
30
0
11
226.707447
21
9.667561
31
0
39
0
210
0
220
0
230
1
0
LINE
5
135
100
AcDbEntity
8
1
62
256
6
ByLayer
370
13
48
1
60
0
100
AcDbLine
10
36
20
-24.283731
30
0
11
36
21
-24.375
31
0
39
0
210
0
220
0
230
1
0
LINE
5
136
100
AcDbEntity
8
1
62
256
6
ByLayer
370
13
48
1
60
0
100
AcDbLine
10
0.1
20
5.567764
30
0
11
5.298
21
5.567764
31
0
39
0
210
0
220
0
230
1
0
LINE
5
137
100
AcDbEntity
8
1
62
256
6
ByLayer
370
13
48
1
60
0
100
AcDbLine
10
220.597085
20
11.92416
30
0
11
219.12135
21
14.194972
31
0
39
0
210
0
220
0
230
1
0
LINE
5
138
100
AcDbEntity
8
1
62
256
6
ByLayer
370
13
48
1
60
0
100
AcDbLine
10
218.064059
20
1.960511
30
0
11
218.434517
21
-0.444654
31
0
39
0
210
0
220
0
230
1
0
LINE
5
139
100
AcDbEntity
8
1
62
256
6
ByLayer
370
13
48
1
60
0
100
AcDbLine
10
226.698223
20
9.667078
30
0
11
226.707447
21
9.667561
31
0
39
0
210
0
220
0
230
1
0
LINE
5
13A
100
AcDbEntity
8
1
62
256
6
ByLayer
370
13
48
1
60
0
100
AcDbLine
10
41
20
24.375
30
0
11
41
21
-8.720849
31
0
39
0
210
0
220
0
230
1
0
LINE
5
13B
100
AcDbEntity
8
1
62
256
6
ByLayer
370
13
48
1
60
0
100
AcDbLine
10
239.591938
20
9.018987
30
0
11
239.788923
21
8.639418
31
0
39
0
210
0
220
0
230
1
0
LINE
5
13C
100
AcDbEntity
8
1
62
256
6
ByLayer
370
13
48
1
60
0
100
AcDbLine
10
239.788923
20
8.639418
30
0
11
239.790894
21
0.933107
31
0
39
0
210
0
220
0
230
1
0
LINE
5
13D
100
AcDbEntity
8
1
62
256
6
ByLayer
370
13
48
1
60
0
100
AcDbLine
10
226.419656
20
9.551934
30
0
11
225.8946
21
9.524417
31
0
39
0
210
0
220
0
230
1
0
LINE
5
13E
100
AcDbEntity
8
1
62
256
6
ByLayer
370
13
48
1
60
0
100
AcDbLine
10
213.814656
20
2.883025
30
0
11
214.092286
21
1.080541
31
0
39
0
210
0
220
0
230
1
0
LINE
5
13F
100
AcDbEntity
8
1
62
256
6
ByLayer
370
13
48
1
60
0
100
AcDbLine
10
239.788923
20
8.639418
30
0
11
239.617178
21
7.992842
31
0
39
0
210
0
220
0
230
1
0
LINE
5
140
100
AcDbEntity
8
1
62
256
6
ByLayer
370
13
48
1
60
0
100
AcDbLine
10
0
20
-31.15
30
0
11
0
21
-4.975942
31
0
39
0
210
0
220
0
230
1
0
LINE
5
141
100
AcDbEntity
8
1
62
256
6
ByLayer
370
13
48
1
60
0
100
AcDbLine
10
240.079658
20
-7.774613
30
0
11
239.215161
21
-14.308081
31
0
39
0
210
0
220
0
230
1
0
LINE
5
142
100
AcDbEntity
8
1
62
256
6
ByLayer
370
13
48
1
60
0
100
AcDbLine
10
234.804343
20
10.292176
30
0
11
236.892767
21
10.401626
31
0
39
0
210
0
220
0
230
1
0
LINE
5
143
100
AcDbEntity
8
1
62
256
6
ByLayer
370
13
48
1
60
0
100
AcDbLine
10
239.131906
20
-0.25778
30
0
11
240.057238
21
-6.070705
31
0
39
0
210
0
220
0
230
1
0
LINE
5
144
100
AcDbEntity
8
1
62
256
6
ByLayer
370
13
48
1
60
0
100
AcDbLine
10
238.394521
20
-24.263123
30
0
11
220.107106
21
-24.263123
31
0
39
0
210
0
220
0
230
1
0
LINE
5
145
100
AcDbEntity
8
1
62
256
6
ByLayer
370
13
48
1
60
0
100
AcDbLine
10
220.893414
20
8.681009
30
0
11
220.928431
21
8.67025
31
0
39
0
210
0
220
0
230
1
0
LINE
5
146
100
AcDbEntity
8
1
62
256
6
ByLayer
370
13
48
1
60
0
100
AcDbLine
10
238.394521
20
-24.263123
30
0
11
239.597398
21
-15.172335
31
0
39
0
210
0
220
0
230
1
0
LINE
5
147
100
AcDbEntity
8
1
62
256
6
ByLayer
370
13
48
1
60
0
100
AcDbLine
10
220.107106
20
24.375
30
0
11
220.107106
21
24.197304
31
0
39
0
210
0
220
0
230
1
0
LINE
5
148
100
AcDbEntity
8
4
62
256
6
ByLayer
370
18
48
0.05
60
0
100
AcDbLine
10
241
20
0
30
0
11
0
21
0
31
0
39
0
210
0
220
0
230
1
0
LINE
5
14A
100
AcDbEntity
8
SK4
62
256
6
ByLayer
370
13
48
0.05
60
0
100
AcDbLine
10
241
20
0
30
0
11
-80
21
0
31
0
39
0
210
0
220
0
230
1
0
LINE
5
14C
100
AcDbEntity
8
SK1
62
256
6
ByLayer
370
13
48
1
60
0
100
AcDbLine
10
-77.633813
20
-24.639667
30
0
11
-76.600002
21
-24.996
31
0
39
0
210
0
220
0
230
1
0
LINE
5
14D
100
AcDbEntity
8
SK1
62
256
6
ByLayer
370
13
48
1
60
0
100
AcDbLine
10
-76.600002
20
24.996
30
0
11
-77.633813
21
24.639667
31
0
39
0
210
0
220
0
230
1
0
LINE
5
14E
100
AcDbEntity
8
SK1
62
256
6
ByLayer
370
13
48
1
60
0
100
AcDbLine
10
-78.516222
20
24.892544
30
0
11
-78.599999
21
24.996
31
0
39
0
210
0
220
0
230
1
0
LINE
5
14F
100
AcDbEntity
8
SK1
62
256
6
ByLayer
370
13
48
1
60
0
100
AcDbLine
10
-78.599999
20
-24.996
30
0
11
-78.516222
21
-24.892544
31
0
39
0
210
0
220
0
230
1
0
LINE
5
150
100
AcDbEntity
8
SK1
62
256
6
ByLayer
370
13
48
1
60
0
100
AcDbLine
10
-78.599999
20
24.996
30
0
11
-79
21
24.996
31
0
39
0
210
0
220
0
230
1
0
LINE
5
151
100
AcDbEntity
8
SK1
62
256
6
ByLayer
370
13
48
1
60
0
100
AcDbLine
10
-79
20
-24.996
30
0
11
-78.599999
21
-24.996
31
0
39
0
210
0
220
0
230
1
0
LINE
5
152
100
AcDbEntity
8
SK1
62
256
6
ByLayer
370
13
48
1
60
0
100
AcDbLine
10
-80
20
-23.996
30
0
11
-79
21
-24.996
31
0
39
0
210
0
220
0
230
1
0
LINE
5
153
100
AcDbEntity
8
SK1
62
256
6
ByLayer
370
13
48
1
60
0
100
AcDbLine
10
-79
20
24.996
30
0
11
-80
21
23.996
31
0
39
0
210
0
220
0
230
1
0
LINE
5
154
100
AcDbEntity
8
SK1
62
256
6
ByLayer
370
13
48
1
60
0
100
AcDbLine
10
-0.15
20
24.746
30
0
11
-1.375195
21
24.746
31
0
39
0
210
0
220
0
230
1
0
LINE
5
155
100
AcDbEntity
8
SK1
62
256
6
ByLayer
370
13
48
1
60
0
100
AcDbLine
10
-1.375195
20
-24.746
30
0
11
-0.15
21
-24.746
31
0
39
0
210
0
220
0
230
1
0
LINE
5
156
100
AcDbEntity
8
SK1
62
256
6
ByLayer
370
13
48
1
60
0
100
AcDbLine
10
-1.544243
20
24.783477
30
0
11
-2
21
24.996
31
0
39
0
210
0
220
0
230
1
0
LINE
5
157
100
AcDbEntity
8
SK1
62
256
6
ByLayer
370
13
48
1
60
0
100
AcDbLine
10
-2
20
-24.996
30
0
11
-1.544243
21
-24.783477
31
0
39
0
210
0
220
0
230
1
0
LINE
5
158
100
AcDbEntity
8
SK1
62
256
6
ByLayer
370
13
48
1
60
0
100
AcDbLine
10
-2
20
24.996
30
0
11
-76.600002
21
24.996
31
0
39
0
210
0
220
0
230
1
0
LINE
5
159
100
AcDbEntity
8
SK1
62
256
6
ByLayer
370
13
48
1
60
0
100
AcDbLine
10
-76.600002
20
-24.996
30
0
11
-2
21
-24.996
31
0
39
0
210
0
220
0
230
1
0
LINE
5
15A
100
AcDbEntity
8
1
62
256
6
ByLayer
370
13
48
1
60
0
100
AcDbLine
10
36
20
-24.375
30
0
11
41
21
-24.375
31
0
39
0
210
0
220
0
230
1
0
LINE
5
15B
100
AcDbEntity
8
1
62
256
6
ByLayer
370
13
48
1
60
0
100
AcDbLine
10
41
20
-24.375
30
0
11
118
21
-24.125
31
0
39
0
210
0
220
0
230
1
0
LINE
5
15C
100
AcDbEntity
8
1
62
256
6
ByLayer
370
13
48
1
60
0
100
AcDbLine
10
222.167137
20
24.375
30
0
11
220.107106
21
24.375
31
0
39
0
210
0
220
0
230
1
0
LINE
5
15D
100
AcDbEntity
8
1
62
256
6
ByLayer
370
13
48
1
60
0
100
AcDbLine
10
220.107106
20
24.375
30
0
11
217.107106
21
24.125
31
0
39
0
210
0
220
0
230
1
0
LINE
5
15E
100
AcDbEntity
8
1
62
256
6
ByLayer
370
13
48
1
60
0
100
AcDbLine
10
118
20
-24.125
30
0
11
129.739412
21
-24.125
31
0
39
0
210
0
220
0
230
1
0
LINE
5
15F
100
AcDbEntity
8
1
62
256
6
ByLayer
370
13
48
1
60
0
100
AcDbLine
10
217.107106
20
24.125
30
0
11
204.710526
21
24.125
31
0
39
0
210
0
220
0
230
1
0
LINE
5
160
100
AcDbEntity
8
1
62
256
6
ByLayer
370
13
48
1
60
0
100
AcDbLine
10
118.702826
20
24.125
30
0
11
118
21
24.125
31
0
39
0
210
0
220
0
230
1
0
LINE
5
161
100
AcDbEntity
8
1
62
256
6
ByLayer
370
13
48
1
60
0
100
AcDbLine
10
118
20
24.125
30
0
11
41
21
24.375
31
0
39
0
210
0
220
0
230
1
0
LINE
5
162
100
AcDbEntity
8
1
62
256
6
ByLayer
370
13
48
1
60
0
100
AcDbLine
10
41
20
24.375
30
0
11
36
21
24.375
31
0
39
0
210
0
220
0
230
1
0
LINE
5
163
100
AcDbEntity
8
1
62
256
6
ByLayer
370
13
48
1
60
0
100
AcDbLine
10
0.1
20
-31.25
30
0
11
5.298
21
-31.25
31
0
39
0
210
0
220
0
230
1
0
LINE
5
164
100
AcDbEntity
8
1
62
256
6
ByLayer
370
13
48
1
60
0
100
AcDbLine
10
0.1
20
31.25
30
0
11
0
21
31.15
31
0
39
0
210
0
220
0
230
1
0
LINE
5
165
100
AcDbEntity
8
1
62
256
6
ByLayer
370
13
48
1
60
0
100
AcDbLine
10
0
20
-31.15
30
0
11
0.1
21
-31.25
31
0
39
0
210
0
220
0
230
1
0
LINE
5
166
100
AcDbEntity
8
1
62
256
6
ByLayer
370
13
48
1
60
0
100
AcDbLine
10
5.298
20
31.25
30
0
11
0.1
21
31.25
31
0
39
0
210
0
220
0
230
1
0
LINE
5
167
100
AcDbEntity
8
1
62
256
6
ByLayer
370
13
48
1
60
0
100
AcDbLine
10
239.649065
20
9.81505
30
0
11
240.103622
21
10.786446
31
0
39
0
210
0
220
0
230
1
0
LINE
5
168
100
AcDbEntity
8
1
62
256
6
ByLayer
370
13
48
1
60
0
100
AcDbLine
10
238.729959
20
17.288605
30
0
11
237.743837
21
23.53269
31
0
39
0
210
0
220
0
230
1
0
LINE
5
169
100
AcDbEntity
8
1
62
256
6
ByLayer
370
13
48
1
60
0
100
AcDbLine
10
237.890641
20
10.654438
30
0
11
238.732618
21
17.087973
31
0
39
0
210
0
220
0
230
1
0
LINE
5
16A
100
AcDbEntity
8
1
62
256
6
ByLayer
370
18
48
1
60
0
100
AcDbLine
10
231.069124
20
17.922447
30
0
11
231.193846
21
17.928983
31
0
39
0
210
0
220
0
230
1
0
LINE
5
16B
100
AcDbEntity
8
1
62
256
6
ByLayer
370
18
48
1
60
0
100
AcDbLine
10
231.328904
20
15.35192
30
0
11
231.204182
21
15.345384
31
0
39
0
210
0
220
0
230
1
0
LINE
5
16C
100
AcDbEntity
8
1
62
256
6
ByLayer
370
18
48
1
60
0
100
AcDbLine
10
231.3573
20
13.791568
30
0
11
231.423789
21
13.795052
31
0
39
0
210
0
220
0
230
1
0
LINE
5
16D
100
AcDbEntity
8
1
62
256
6
ByLayer
370
18
48
1
60
0
100
AcDbLine
10
231.125474
20
19.487241
30
0
11
231.058985
21
19.483756
31
0
39
0
210
0
220
0
230
1
0
LINE
5
16E
100
AcDbEntity
8
81
62
256
6
ByLayer
370
18
48
1
60
0
100
AcDbLine
10
241
20
0
30
0
11
248
21
0
31
0
39
0
210
0
220
0
230
1
0
LINE
5
16F
100
AcDbEntity
8
80
62
256
6
ByLayer
370
18
48
1
60
0
100
AcDbLine
10
0
20
0
30
0
11
-7
21
0
31
0
39
0
210
0
220
0
230
1
0
LINE
5
170
100
AcDbEntity
8
SK2
62
256
6
ByLayer
370
13
48
1
60
0
100
AcDbLine
10
-100.725
20
25
30
0
11
-100.725
21
-25
31
0
39
0
210
0
220
0
230
1
0
LINE
5
172
100
AcDbEntity
8
SK2
62
256
6
ByLayer
370
13
48
1
60
0
100
AcDbLine
10
-81.5875
20
-25
30
0
11
-103.9
21
-25
31
0
39
0
210
0
220
0
230
1
0
LINE
5
173
100
AcDbEntity
8
SK2
62
256
6
ByLayer
370
13
48
1
60
0
100
AcDbLine
10
-81.5875
20
25
30
0
11
-103.9
21
25
31
0
39
0
210
0
220
0
230
1
0
LINE
5
174
100
AcDbEntity
8
1
62
256
6
ByLayer
370
18
48
1
60
1
100
AcDbLine
10
-100.725
20
-25
30
0
11
-101.650575
21
-20.825003
31
0
39
0
210
0
220
0
230
1
0
LINE
5
175
100
AcDbEntity
8
1
62
256
6
ByLayer
370
18
48
1
60
1
100
AcDbLine
10
-101.650575
20
-20.825003
30
0
11
-99.799425
21
-20.824997
31
0
39
0
210
0
220
0
230
1
0
LINE
5
176
100
AcDbEntity
8
1
62
256
6
ByLayer
370
18
48
1
60
1
100
AcDbLine
10
-99.799425
20
-20.824997
30
0
11
-100.725
21
-25
31
0
39
0
210
0
220
0
230
1
0
LINE
5
177
100
AcDbEntity
8
1
62
256
6
ByLayer
370
18
48
1
60
1
100
AcDbLine
10
-100.725
20
25
30
0
11
-99.799425
21
20.825003
31
0
39
0
210
0
220
0
230
1
0
LINE
5
178
100
AcDbEntity
8
1
62
256
6
ByLayer
370
18
48
1
60
1
100
AcDbLine
10
-99.799425
20
20.825003
30
0
11
-101.650575
21
20.824997
31
0
39
0
210
0
220
0
230
1
0
LINE
5
179
100
AcDbEntity
8
1
62
256
6
ByLayer
370
18
48
1
60
1
100
AcDbLine
10
-101.650575
20
20.824997
30
0
11
-100.725
21
25
31
0
39
0
210
0
220
0
230
1
0
LINE
5
17A
100
AcDbEntity
8
SK2
62
256
6
ByLayer
370
13
48
1
60
0
100
AcDbLine
10
-110.725
20
-31.25
30
0
11
-110.725
21
31.25
31
0
39
0
210
0
220
0
230
1
0
LINE
5
17B
100
AcDbEntity
8
SK2
62
256
6
ByLayer
370
13
48
1
60
0
100
AcDbLine
10
-1.5875
20
31.25
30
0
11
-113.9
21
31.25
31
0
39
0
210
0
220
0
230
1
0
LINE
5
17C
100
AcDbEntity
8
SK2
62
256
6
ByLayer
370
13
48
1
60
0
100
AcDbLine
10
-1.5875
20
-31.25
30
0
11
-113.9
21
-31.25
31
0
39
0
210
0
220
0
230
1
0
LINE
5
17D
100
AcDbEntity
8
1
62
256
6
ByLayer
370
18
48
1
60
1
100
AcDbLine
10
-110.725
20
31.25
30
0
11
-109.799425
21
27.075003
31
0
39
0
210
0
220
0
230
1
0
LINE
5
17E
100
AcDbEntity
8
1
62
256
6
ByLayer
370
18
48
1
60
1
100
AcDbLine
10
-109.799425
20
27.075003
30
0
11
-111.650575
21
27.074997
31
0
39
0
210
0
220
0
230
1
0
LINE
5
17F
100
AcDbEntity
8
1
62
256
6
ByLayer
370
18
48
1
60
1
100
AcDbLine
10
-111.650575
20
27.074997
30
0
11
-110.725
21
31.25
31
0
39
0
210
0
220
0
230
1
0
LINE
5
180
100
AcDbEntity
8
1
62
256
6
ByLayer
370
18
48
1
60
1
100
AcDbLine
10
-110.725
20
-31.25
30
0
11
-111.650575
21
-27.075003
31
0
39
0
210
0
220
0
230
1
0
LINE
5
181
100
AcDbEntity
8
1
62
256
6
ByLayer
370
18
48
1
60
1
100
AcDbLine
10
-111.650575
20
-27.075003
30
0
11
-109.799425
21
-27.074997
31
0
39
0
210
0
220
0
230
1
0
LINE
5
182
100
AcDbEntity
8
1
62
256
6
ByLayer
370
18
48
1
60
1
100
AcDbLine
10
-109.799425
20
-27.074997
30
0
11
-110.725
21
-31.25
31
0
39
0
210
0
220
0
230
1
0
LINE
5
183
100
AcDbEntity
8
2
62
256
6
ByLayer
370
13
48
1
60
0
100
AcDbLine
10
267.975
20
25
30
0
11
267.975
21
-25
31
0
39
0
210
0
220
0
230
1
0
LINE
5
185
100
AcDbEntity
8
2
62
256
6
ByLayer
370
13
48
1
60
0
100
AcDbLine
10
242.5875
20
-25
30
0
11
271.15
21
-25
31
0
39
0
210
0
220
0
230
1
0
LINE
5
186
100
AcDbEntity
8
2
62
256
6
ByLayer
370
13
48
1
60
0
100
AcDbLine
10
242.5875
20
25
30
0
11
271.15
21
25
31
0
39
0
210
0
220
0
230
1
0
LINE
5
187
100
AcDbEntity
8
1
62
256
6
ByLayer
370
18
48
1
60
1
100
AcDbLine
10
267.975
20
-25
30
0
11
267.049425
21
-20.825003
31
0
39
0
210
0
220
0
230
1
0
LINE
5
188
100
AcDbEntity
8
1
62
256
6
ByLayer
370
18
48
1
60
1
100
AcDbLine
10
267.049425
20
-20.825003
30
0
11
268.900575
21
-20.824997
31
0
39
0
210
0
220
0
230
1
0
LINE
5
189
100
AcDbEntity
8
1
62
256
6
ByLayer
370
18
48
1
60
1
100
AcDbLine
10
268.900575
20
-20.824997
30
0
11
267.975
21
-25
31
0
39
0
210
0
220
0
230
1
0
LINE
5
18A
100
AcDbEntity
8
1
62
256
6
ByLayer
370
18
48
1
60
1
100
AcDbLine
10
267.975
20
25
30
0
11
268.900575
21
20.825003
31
0
39
0
210
0
220
0
230
1
0
LINE
5
18B
100
AcDbEntity
8
1
62
256
6
ByLayer
370
18
48
1
60
1
100
AcDbLine
10
268.900575
20
20.825003
30
0
11
267.049425
21
20.824997
31
0
39
0
210
0
220
0
230
1
0
LINE
5
18C
100
AcDbEntity
8
1
62
256
6
ByLayer
370
18
48
1
60
1
100
AcDbLine
10
267.049425
20
20.824997
30
0
11
267.975
21
25
31
0
39
0
210
0
220
0
230
1
0
LINE
5
340
100
AcDbEntity
8
1
62
256
6
ByLayer
370
18
48
1
60
1
100
AcDbLine
10
-100.725
20
-25
30
0
11
-101.650575
21
-20.825003
31
0
39
0
210
0
220
0
230
1
0
LINE
5
341
100
AcDbEntity
8
1
62
256
6
ByLayer
370
18
48
1
60
1
100
AcDbLine
10
-101.650575
20
-20.825003
30
0
11
-99.799425
21
-20.824997
31
0
39
0
210
0
220
0
230
1
0
LINE
5
342
100
AcDbEntity
8
1
62
256
6
ByLayer
370
18
48
1
60
1
100
AcDbLine
10
-99.799425
20
-20.824997
30
0
11
-100.725
21
-25
31
0
39
0
210
0
220
0
230
1
0
LINE
5
344
100
AcDbEntity
8
1
62
256
6
ByLayer
370
18
48
1
60
1
100
AcDbLine
10
-100.725
20
25
30
0
11
-99.799425
21
20.825003
31
0
39
0
210
0
220
0
230
1
0
LINE
5
345
100
AcDbEntity
8
1
62
256
6
ByLayer
370
18
48
1
60
1
100
AcDbLine
10
-99.799425
20
20.825003
30
0
11
-101.650575
21
20.824997
31
0
39
0
210
0
220
0
230
1
0
LINE
5
346
100
AcDbEntity
8
1
62
256
6
ByLayer
370
18
48
1
60
1
100
AcDbLine
10
-101.650575
20
20.824997
30
0
11
-100.725
21
25
31
0
39
0
210
0
220
0
230
1
0
LINE
5
34A
100
AcDbEntity
8
1
62
256
6
ByLayer
370
18
48
1
60
1
100
AcDbLine
10
-110.725
20
31.25
30
0
11
-109.799425
21
27.075003
31
0
39
0
210
0
220
0
230
1
0
LINE
5
34B
100
AcDbEntity
8
1
62
256
6
ByLayer
370
18
48
1
60
1
100
AcDbLine
10
-109.799425
20
27.075003
30
0
11
-111.650575
21
27.074997
31
0
39
0
210
0
220
0
230
1
0
LINE
5
34C
100
AcDbEntity
8
1
62
256
6
ByLayer
370
18
48
1
60
1
100
AcDbLine
10
-111.650575
20
27.074997
30
0
11
-110.725
21
31.25
31
0
39
0
210
0
220
0
230
1
0
LINE
5
34E
100
AcDbEntity
8
1
62
256
6
ByLayer
370
18
48
1
60
1
100
AcDbLine
10
-110.725
20
-31.25
30
0
11
-111.650575
21
-27.075003
31
0
39
0
210
0
220
0
230
1
0
LINE
5
34F
100
AcDbEntity
8
1
62
256
6
ByLayer
370
18
48
1
60
1
100
AcDbLine
10
-111.650575
20
-27.075003
30
0
11
-109.799425
21
-27.074997
31
0
39
0
210
0
220
0
230
1
0
LINE
5
350
100
AcDbEntity
8
1
62
256
6
ByLayer
370
18
48
1
60
1
100
AcDbLine
10
-109.799425
20
-27.074997
30
0
11
-110.725
21
-31.25
31
0
39
0
210
0
220
0
230
1
0
LINE
5
354
100
AcDbEntity
8
1
62
256
6
ByLayer
370
18
48
1
60
1
100
AcDbLine
10
267.975
20
-25
30
0
11
267.049425
21
-20.825003
31
0
39
0
210
0
220
0
230
1
0
LINE
5
355
100
AcDbEntity
8
1
62
256
6
ByLayer
370
18
48
1
60
1
100
AcDbLine
10
267.049425
20
-20.825003
30
0
11
268.900575
21
-20.824997
31
0
39
0
210
0
220
0
230
1
0
LINE
5
356
100
AcDbEntity
8
1
62
256
6
ByLayer
370
18
48
1
60
1
100
AcDbLine
10
268.900575
20
-20.824997
30
0
11
267.975
21
-25
31
0
39
0
210
0
220
0
230
1
0
LINE
5
358
100
AcDbEntity
8
1
62
256
6
ByLayer
370
18
48
1
60
1
100
AcDbLine
10
267.975
20
25
30
0
11
268.900575
21
20.825003
31
0
39
0
210
0
220
0
230
1
0
LINE
5
359
100
AcDbEntity
8
1
62
256
6
ByLayer
370
18
48
1
60
1
100
AcDbLine
10
268.900575
20
20.825003
30
0
11
267.049425
21
20.824997
31
0
39
0
210
0
220
0
230
1
0
LINE
5
35A
100
AcDbEntity
8
1
62
256
6
ByLayer
370
18
48
1
60
1
100
AcDbLine
10
267.049425
20
20.824997
30
0
11
267.975
21
25
31
0
39
0
210
0
220
0
230
1
0
MTEXT
5
33C
100
AcDbEntity
8
SK2
62
256
6
ByLayer
370
18
48
1
60
0
100
AcDbMText
10
-102.736672
20
-6.949399
30
0
210
0
220
0
230
1
1
%%c
40
4.5
41
0
44
1.084337
50
90
71
7
72
5
7
iso_b_vert
0
MTEXT
5
33F
100
AcDbEntity
8
SK2
62
256
6
ByLayer
370
18
48
1
60
0
100
AcDbMText
10
-102.736672
20
4.265444
30
0
210
0
220
0
230
1
1
\W0.6740;50
40
4.5
41
0
44
1.084337
50
90
71
7
72
5
7
iso_b_vert
0
MTEXT
5
348
100
AcDbEntity
8
SK2
62
256
6
ByLayer
370
18
48
1
60
0
100
AcDbMText
10
-112.736672
20
-9.541655
30
0
210
0
220
0
230
1
1
%%c
40
4.5
41
0
44
1.084337
50
90
71
7
72
5
7
iso_b_vert
0
MTEXT
5
349
100
AcDbEntity
8
SK2
62
256
6
ByLayer
370
18
48
1
60
0
100
AcDbMText
10
-112.736672
20
1.673189
30
0
210
0
220
0
230
1
1
\W0.7346;62.5
40
4.5
41
0
44
1.084337
50
90
71
7
72
5
7
iso_b_vert
0
MTEXT
5
352
100
AcDbEntity
8
2
62
256
6
ByLayer
370
18
48
1
60
0
100
AcDbMText
10
265.963328
20
-6.949399
30
0
210
0
220
0
230
1
1
%%c
40
4.5
41
0
44
1.084337
50
90
71
7
72
5
7
iso_b_vert
0
MTEXT
5
353
100
AcDbEntity
8
2
62
256
6
ByLayer
370
18
48
1
60
0
100
AcDbMText
10
265.963328
20
4.265444
30
0
210
0
220
0
230
1
1
\W0.6740;50
40
4.5
41
0
44
1.084337
50
90
71
7
72
5
7
iso_b_vert
0
MTEXT
5
35C
100
AcDbEntity
8
SK6
62
256
6
ByLayer
370
18
48
1
60
0
100
AcDbMText
10
9.308916
20
-94.592562
30
0
210
0
220
0
230
1
1
\W0.7699;DS20-D5000L50-04
40
3.5
41
0
44
1.084337
50
0
71
7
72
5
7
iso_b_vert
0
HATCH
5
343
100
AcDbEntity
8
SK2
62
256
6
ByLayer
370
13
48
1
60
0
100
AcDbHatch
10
0
20
0
30
0
210
0
220
0
230
1
2
ANSI31
70
0
71
0
91
1
92
5
93
3
72
1
10
-100.725
20
-24.9999999999999
11
-101.650575216528
21
-20.8250033998275
72
1
10
-101.650575216528
20
-20.8250033998275
11
-99.7994247834721
21
-20.8249966001723
72
1
10
-99.7994247834721
20
-20.8249966001723
11
-100.725
21
-24.9999999999999
97
0
75
0
76
1
52
0
41
0.0062
77
0
78
1
53
45
43
0
44
0
45
-0.0139193969876572
46
0.0139193969876572
79
0
47
0
98
1
10
0
20
0
0
HATCH
5
347
100
AcDbEntity
8
SK2
62
256
6
ByLayer
370
13
48
1
60
0
100
AcDbHatch
10
0
20
0
30
0
210
0
220
0
230
1
2
ANSI31
70
0
71
0
91
1
92
5
93
3
72
1
10
-100.725
20
25.0000000000001
11
-99.7994247834721
21
20.8250033998277
72
1
10
-99.7994247834721
20
20.8250033998277
11
-101.650575216528
21
20.8249966001725
72
1
10
-101.650575216528
20
20.8249966001725
11
-100.725
21
25.0000000000001
97
0
75
0
76
1
52
0
41
0.0062
77
0
78
1
53
45
43
0
44
0
45
-0.0139193969876572
46
0.0139193969876572
79
0
47
0
98
1
10
0
20
0
0
HATCH
5
34D
100
AcDbEntity
8
SK2
62
256
6
ByLayer
370
13
48
1
60
0
100
AcDbHatch
10
0
20
0
30
0
210
0
220
0
230
1
2
ANSI31
70
0
71
0
91
1
92
5
93
3
72
1
10
-110.725
20
31.25
11
-109.799424783472
21
27.0750033998276
72
1
10
-109.799424783472
20
27.0750033998276
11
-111.650575216528
21
27.0749966001724
72
1
10
-111.650575216528
20
27.0749966001724
11
-110.725
21
31.25
97
0
75
0
76
1
52
0
41
0.0062
77
0
78
1
53
45
43
0
44
0
45
-0.0139193969876572
46
0.0139193969876572
79
0
47
0
98
1
10
0
20
0
0
HATCH
5
351
100
AcDbEntity
8
SK2
62
256
6
ByLayer
370
13
48
1
60
0
100
AcDbHatch
10
0
20
0
30
0
210
0
220
0
230
1
2
ANSI31
70
0
71
0
91
1
92
5
93
3
72
1
10
-110.725
20
-31.25
11
-111.650575216528
21
-27.0750033998276
72
1
10
-111.650575216528
20
-27.0750033998276
11
-109.799424783472
21
-27.0749966001724
72
1
10
-109.799424783472
20
-27.0749966001724
11
-110.725
21
-31.25
97
0
75
0
76
1
52
0
41
0.0062
77
0
78
1
53
45
43
0
44
0
45
-0.0139193969876572
46
0.0139193969876572
79
0
47
0
98
1
10
0
20
0
0
HATCH
5
357
100
AcDbEntity
8
2
62
256
6
ByLayer
370
13
48
1
60
0
100
AcDbHatch
10
0
20
0
30
0
210
0
220
0
230
1
2
ANSI31
70
0
71
0
91
1
92
5
93
3
72
1
10
267.975
20
-25.0000000000003
11
267.049424783472
21
-20.8250033998279
72
1
10
267.049424783472
20
-20.8250033998279
11
268.900575216528
21
-20.8249966001726
72
1
10
268.900575216528
20
-20.8249966001726
11
267.975
21
-25.0000000000003
97
0
75
0
76
1
52
0
41
0.0062
77
0
78
1
53
45
43
0
44
0
45
-0.0139193969876572
46
0.0139193969876572
79
0
47
0
98
1
10
0
20
0
0
HATCH
5
35B
100
AcDbEntity
8
2
62
256
6
ByLayer
370
13
48
1
60
0
100
AcDbHatch
10
0
20
0
30
0
210
0
220
0
230
1
2
ANSI31
70
0
71
0
91
1
92
5
93
3
72
1
10
267.975
20
24.9999999999997
11
268.900575216528
21
20.8250033998273
72
1
10
268.900575216528
20
20.8250033998273
11
267.049424783472
21
20.8249966001721
72
1
10
267.049424783472
20
20.8249966001721
11
267.975
21
24.9999999999997
97
0
75
0
76
1
52
0
41
0.0062
77
0
78
1
53
45
43
0
44
0
45
-0.0139193969876572
46
0.0139193969876572
79
0
47
0
98
1
10
0
20
0
0
DIMENSION
5
35F
100
AcDbEntity
8
2
62
256
6
ByLayer
370
18
48
1
60
0
100
AcDbDimension
2
_U0
10
241
20
-80.1
30
0
11
120.5
21
-80.1
31
0
70
32
71
1
72
1
41
1
210
0
220
0
230
1
3
Standard
100
AcDbAlignedDimension
13
0
23
-31.25
33
0
14
241
24
-25
34
0
50
0
100
AcDbRotatedDimension
1001
ACAD
1000
DSTYLE
1002
{
1070
   371
1070
    13
1070
   372
1070
    13
1070
   170
1070
     0
1070
   144
1040
1.0
1070
   277
1070
     2
1070
   284
1070
     8
1070
   278
1070
    46
1070
   146
1040
0.777778
1070
   345
1005
16
1070
   347
1005
16
1070
   346
1005
16
1070
   344
1005
0
1070
   343
1005
0
1070
   172
1070
     1
1070
    76
1070
     0
1070
    75
1070
     0
1070
   282
1070
     0
1070
   281
1070
     0
1070
    71
1070
     0
1070
    74
1070
     0
1070
   279
1070
     0
1070
   173
1070
     1
1070
   340
1005
33D
1070
   271
1070
     1
1070
   272
1070
     2
1070
    77
1070
     1
1070
    73
1070
     1
1070
   171
1070
     3
1070
   274
1070
     4
1070
   177
1070
   150
1070
   176
1070
     9
1070
   178
1070
    43
1070
    78
1070
     8
1070
    48
1040
-0.1
1070
    41
1040
4.175
1070
   147
1040
2.25
1070
    42
1040
1.5875
1070
    44
1040
3.175
1070
   140
1040
4.5
1002
}
1001
ACAD_DSTYLE_DIM_LINETYPE
1070
   380
1005
16
1001
ACAD_DSTYLE_DIM_EXT1_LINETYPE
1070
   381
1005
16
1001
ACAD_DSTYLE_DIM_EXT2_LINETYPE
1070
   382
1005
16
0
DIMENSION
5
378
100
AcDbEntity
8
SK2
62
256
6
ByLayer
370
18
48
1
60
0
100
AcDbDimension
2
_U1
10
0
20
-80.1
30
0
11
-40
21
-80.1
31
0
70
32
71
1
72
1
41
1
210
0
220
0
230
1
3
Standard
100
AcDbAlignedDimension
13
-80
23
-25
33
0
14
0
24
-31.25
34
0
50
0
100
AcDbRotatedDimension
1001
ACAD
1000
DSTYLE
1002
{
1070
   371
1070
    13
1070
   372
1070
    13
1070
   170
1070
     0
1070
   144
1040
1.0
1070
   277
1070
     2
1070
   284
1070
     8
1070
   278
1070
    46
1070
   146
1040
0.777778
1070
   345
1005
16
1070
   347
1005
16
1070
   346
1005
16
1070
   344
1005
0
1070
   343
1005
0
1070
   172
1070
     1
1070
    76
1070
     0
1070
    75
1070
     0
1070
   282
1070
     0
1070
   281
1070
     0
1070
    71
1070
     0
1070
    74
1070
     0
1070
   279
1070
     0
1070
   173
1070
     1
1070
   340
1005
33D
1070
   271
1070
     1
1070
   272
1070
     2
1070
    77
1070
     1
1070
    73
1070
     1
1070
   171
1070
     3
1070
   274
1070
     4
1070
   177
1070
   150
1070
   176
1070
     9
1070
   178
1070
    43
1070
    78
1070
     8
1070
    48
1040
-0.1
1070
    41
1040
4.175
1070
   147
1040
2.25
1070
    42
1040
1.5875
1070
    44
1040
3.175
1070
   140
1040
4.5
1002
}
1001
ACAD_DSTYLE_DIM_LINETYPE
1070
   380
1005
16
1001
ACAD_DSTYLE_DIM_EXT1_LINETYPE
1070
   381
1005
16
1001
ACAD_DSTYLE_DIM_EXT2_LINETYPE
1070
   382
1005
16
0
DIMENSION
5
390
100
AcDbEntity
8
SK2
62
256
6
ByLayer
370
18
48
1
60
0
100
AcDbDimension
2
_U2
10
5.798
20
-70.1
30
0
11
123.399
21
-70.1
31
0
70
32
71
1
72
1
41
1
210
0
220
0
230
1
3
Standard
100
AcDbAlignedDimension
13
241
23
-25
33
0
14
5.798
24
-31.25
34
0
50
0
100
AcDbRotatedDimension
1001
ACAD
1000
DSTYLE
1002
{
1070
   371
1070
    13
1070
   372
1070
    13
1070
   170
1070
     0
1070
   144
1040
1.0
1070
   277
1070
     2
1070
   284
1070
     8
1070
   278
1070
    46
1070
   146
1040
0.777778
1070
   345
1005
16
1070
   347
1005
16
1070
   346
1005
16
1070
   344
1005
0
1070
   343
1005
0
1070
   172
1070
     1
1070
    76
1070
     0
1070
    75
1070
     0
1070
   282
1070
     0
1070
   281
1070
     0
1070
    71
1070
     0
1070
    74
1070
     0
1070
   279
1070
     0
1070
   173
1070
     1
1070
   340
1005
33D
1070
   271
1070
     1
1070
   272
1070
     2
1070
    77
1070
     1
1070
    73
1070
     1
1070
   171
1070
     3
1070
   274
1070
     4
1070
   177
1070
   150
1070
   176
1070
     9
1070
   178
1070
    43
1070
    78
1070
     8
1070
    48
1040
-0.1
1070
    41
1040
4.175
1070
   147
1040
2.25
1070
    42
1040
1.5875
1070
    44
1040
3.175
1070
   140
1040
4.5
1002
}
1001
ACAD_DSTYLE_DIM_LINETYPE
1070
   380
1005
16
1001
ACAD_DSTYLE_DIM_EXT1_LINETYPE
1070
   381
1005
16
1001
ACAD_DSTYLE_DIM_EXT2_LINETYPE
1070
   382
1005
16
0
DIMENSION
5
3A8
100
AcDbEntity
8
SK2
62
256
6
ByLayer
370
18
48
1
60
0
100
AcDbDimension
2
_U3
10
241
20
-60.1
30
0
11
138.5
21
-60.1
31
0
70
32
71
1
72
1
41
1
210
0
220
0
230
1
3
Standard
100
AcDbAlignedDimension
13
36
23
-25
33
0
14
241
24
-25
34
0
50
0
100
AcDbRotatedDimension
1001
ACAD
1000
DSTYLE
1002
{
1070
   371
1070
    13
1070
   372
1070
    13
1070
   170
1070
     0
1070
   144
1040
1.0
1070
   277
1070
     2
1070
   284
1070
     8
1070
   278
1070
    46
1070
   146
1040
0.777778
1070
   345
1005
16
1070
   347
1005
16
1070
   346
1005
16
1070
   344
1005
0
1070
   343
1005
0
1070
   172
1070
     1
1070
    76
1070
     0
1070
    75
1070
     0
1070
   282
1070
     0
1070
   281
1070
     0
1070
    71
1070
     0
1070
    74
1070
     0
1070
   279
1070
     0
1070
   173
1070
     1
1070
   340
1005
33D
1070
   271
1070
     1
1070
   272
1070
     2
1070
    77
1070
     1
1070
    73
1070
     1
1070
   171
1070
     3
1070
   274
1070
     4
1070
   177
1070
   150
1070
   176
1070
     9
1070
   178
1070
    43
1070
    78
1070
     8
1070
    48
1040
-0.1
1070
    41
1040
4.175
1070
   147
1040
2.25
1070
    42
1040
1.5875
1070
    44
1040
3.175
1070
   140
1040
4.5
1002
}
1001
ACAD_DSTYLE_DIM_LINETYPE
1070
   380
1005
16
1001
ACAD_DSTYLE_DIM_EXT1_LINETYPE
1070
   381
1005
16
1001
ACAD_DSTYLE_DIM_EXT2_LINETYPE
1070
   382
1005
16
0
DIMENSION
5
3C0
100
AcDbEntity
8
2
62
256
6
ByLayer
370
18
48
1
60
0
100
AcDbDimension
2
_U4
10
241
20
-50.1
30
0
11
263.029464
21
-50.1
31
0
70
32
71
1
72
1
41
1
210
0
220
0
230
1
3
Standard
100
AcDbAlignedDimension
13
239.7234
23
-12.5
33
0
14
241
24
0
34
0
50
0
100
AcDbRotatedDimension
1001
ACAD
1000
DSTYLE
1002
{
1070
   371
1070
    13
1070
   372
1070
    13
1070
   170
1070
     0
1070
   144
1040
1.0
1070
   277
1070
     2
1070
   284
1070
     8
1070
   278
1070
    46
1070
   146
1040
0.777778
1070
   345
1005
16
1070
   347
1005
16
1070
   346
1005
16
1070
   344
1005
0
1070
   343
1005
0
1070
   172
1070
     1
1070
    76
1070
     0
1070
    75
1070
     0
1070
   282
1070
     0
1070
   281
1070
     0
1070
    71
1070
     0
1070
    74
1070
     0
1070
   279
1070
     0
1070
   173
1070
     1
1070
   340
1005
33D
1070
   271
1070
     2
1070
   272
1070
     2
1070
    77
1070
     1
1070
    73
1070
     1
1070
   171
1070
     3
1070
   274
1070
     4
1070
   177
1070
   150
1070
   176
1070
     9
1070
   178
1070
    43
1070
    78
1070
     8
1070
    48
1040
-0.1
1070
    41
1040
4.175
1070
   147
1040
2.25
1070
    42
1040
1.5875
1070
    44
1040
3.175
1070
   140
1040
4.5
1002
}
1001
ACAD_DSTYLE_DIM_LINETYPE
1070
   380
1005
16
1001
ACAD_DSTYLE_DIM_EXT1_LINETYPE
1070
   381
1005
16
1001
ACAD_DSTYLE_DIM_EXT2_LINETYPE
1070
   382
1005
16
0
ENDSEC
0
SECTION
2
OBJECTS
0
DICTIONARY
5
44a
330
0
100
AcDbDictionary
280
0
281
1
3
ACAD_GROUP
350
44b
3
ACAD_MLINESTYLE
350
44c
0
DICTIONARY
5
44b
330
0
100
AcDbDictionary
280
0
281
1
0
DICTIONARY
5
44c
330
0
100
AcDbDictionary
280
0
281
1
3
Standard
350
18
0
MLINESTYLE
5
18
330
44c
100
AcDbMlineStyle
2
Standard
70
0
3

62
256
51
90
52
90
71
2
49
-0.5
62
256
6
ByLayer
49
0.5
62
256
6
ByLayer
0
RASTERVARIABLES
5
438
330

100
AcDbRasterVariables
90
0
70
1
71
1
72
1
0
ENDSEC
0
EOF
