0
SECTION
2
HEADER
9
$ACADVER
1
AC1015
9
$DWGCODEPAGE
3
ANSI_1252
9
$HANDSEED
5
452
9
$ANGBASE
50
0
9
$ANGDIR
70
0
9
$ATTMODE
70
1
9
$AUNITS
70
0
9
$AUPREC
70
0
9
$CECOLOR
62
256
9
$CELTSCALE
40
1
9
$CELTYPE
6
ByLayer
9
$CELWEIGHT
370
18
9
$CLAYER
8
0
9
$CMLJUST
70
0
9
$CMLSCALE
40
1
9
$CMLSTYLE
2
Standard
9
$DIMSTYLE
2
Standard
9
$TEXTSIZE
40
0.2
9
$TEXTSTYLE
7
Standard
9
$LUNITS
70
2
9
$LUPREC
70
4
9
$EXTNAMES
290
1
9
$INSUNITS
70
4
9
$LTSCALE
40
1
9
$LWDISPLAY
290
1
9
$PDMODE
70
0
9
$PDSIZE
40
0
9
$PLINEGEN
70
0
0
ENDSEC
0
SECTION
2
CLASSES
0
CLASS
1
RASTERVARIABLES
2
AcDbRasterVariables
3
ISM
90
0
280
0
281
0
0
ENDSEC
0
SECTION
2
TABLES
0
TABLE
2
VPORT
5
448
100
AcDbSymbolTable
0
VPORT
5
1
100
AcDbSymbolTableRecord
100
AcDbViewportTableRecord
2
*Active
70
0
10
0
20
0
11
1
21
1
12
-1
22
1
13
0
23
0
14
0.5
24
0.5
15
10
25
10
16
0
26
0
36
1
17
0
27
0
37
0
0
ENDTAB
0
TABLE
2
LTYPE
5
449
100
AcDbSymbolTable
0
LTYPE
5
14
100
AcDbSymbolTableRecord
100
AcDbLinetypeTableRecord
70
0
2
ByBlock
3

72
65
73
0
40
0
0
LTYPE
5
15
100
AcDbSymbolTableRecord
100
AcDbLinetypeTableRecord
70
0
2
ByLayer
3

72
65
73
0
40
0
0
LTYPE
5
16
100
AcDbSymbolTableRecord
100
AcDbLinetypeTableRecord
70
0
2
Continuous
3
Solid line
72
65
73
0
40
0
0
LTYPE
5
6E
100
AcDbSymbolTableRecord
100
AcDbLinetypeTableRecord
70
0
2
CENTER
3
____ _ ____ _ ____ _ ____
72
65
73
4
40
47.5
49
22
74
0
49
-8.5
74
0
49
8.5
74
0
49
-8.5
74
0
0
LTYPE
5
6F
100
AcDbSymbolTableRecord
100
AcDbLinetypeTableRecord
70
0
2
DASHED
3
__ __ __ __ __ __ __ __ __
72
65
73
2
40
25.72
49
12.86
74
0
49
-12.86
74
0
0
ENDTAB
0
TABLE
2
LAYER
5
44a
100
AcDbSymbolTable
0
LAYER
5
10
100
AcDbSymbolTableRecord
100
AcDbLayerTableRecord
2
0
70
0
62
7
6
Continuous
290
1
370
-3
390
0
0
LAYER
5
71
100
AcDbSymbolTableRecord
100
AcDbLayerTableRecord
2
1
70
0
62
4
6
Continuous
290
1
370
-3
390
0
0
LAYER
5
73
100
AcDbSymbolTableRecord
100
AcDbLayerTableRecord
2
80
70
0
62
-6
6
Continuous
290
1
370
-3
390
0
0
LAYER
5
75
100
AcDbSymbolTableRecord
100
AcDbLayerTableRecord
2
81
70
0
62
-3
6
Continuous
290
1
370
-3
390
0
0
LAYER
5
14D
100
AcDbSymbolTableRecord
100
AcDbLayerTableRecord
2
4
70
0
62
-2
6
CENTER
290
1
370
-3
390
0
0
LAYER
5
187
100
AcDbSymbolTableRecord
100
AcDbLayerTableRecord
2
2
70
0
62
7
6
Continuous
290
1
370
-3
390
0
0
LAYER
5
35D
100
AcDbSymbolTableRecord
100
AcDbLayerTableRecord
2
Defpoints
70
0
62
7
6
Continuous
290
0
370
-3
390
0
0
LAYER
5
434
100
AcDbSymbolTableRecord
100
AcDbLayerTableRecord
2
SK1
70
0
62
4
6
Continuous
290
1
370
-3
390
0
0
LAYER
5
435
100
AcDbSymbolTableRecord
100
AcDbLayerTableRecord
2
SK4
70
0
62
2
6
CENTER
290
1
370
-3
390
0
0
LAYER
5
436
100
AcDbSymbolTableRecord
100
AcDbLayerTableRecord
2
SK2
70
0
62
7
6
Continuous
290
1
370
-3
390
0
0
LAYER
5
437
100
AcDbSymbolTableRecord
100
AcDbLayerTableRecord
2
SK6
70
0
62
5
6
Continuous
290
1
370
-3
390
0
0
ENDTAB
0
TABLE
2
STYLE
5
44b
100
AcDbSymbolTable
0
STYLE
5
11
100
AcDbSymbolTableRecord
100
AcDbTextStyleTableRecord
2
Standard
3
txt
70
0
71
0
40
0
41
1
42
0
50
0
0
STYLE
5
338
100
AcDbSymbolTableRecord
100
AcDbTextStyleTableRecord
2
iso_b_vert
3
simplex.shx
70
0
71
0
40
0
41
1
42
0
50
0
0
STYLE
5
339
100
AcDbSymbolTableRecord
100
AcDbTextStyleTableRecord
2
DWGDirectTextStyle
3
simplex
70
0
71
0
40
0
41
1
42
0
50
0
0
ENDTAB
0
TABLE
2
DIMSTYLE
5
44c
100
AcDbSymbolTable
100
AcDbDimStyleTable
0
DIMSTYLE
105
27
100
AcDbSymbolTableRecord
100
AcDbDimStyleTableRecord
2
Standard
70
0
3
<>
41
0.18
42
0.0625
44
0.18
140
0.18
147
0.09
73
0
74
0
77
1
271
2
275
0
278
52
280
0
340
11
0
ENDTAB
0
TABLE
2
VIEW
5
44d
100
AcDbSymbolTable
0
ENDTAB
0
TABLE
2
UCS
5
44e
100
AcDbSymbolTable
0
ENDTAB
0
TABLE
2
APPID
5
44f
100
AcDbSymbolTable
0
APPID
5
12
100
AcDbSymbolTableRecord
100
AcDbRegAppTableRecord
2
ACAD
70
0
0
APPID
5
359
100
AcDbSymbolTableRecord
100
AcDbRegAppTableRecord
2
ACAD_DSTYLE_DIMBREAK
70
0
0
APPID
5
3F3
100
AcDbSymbolTableRecord
100
AcDbRegAppTableRecord
2
ACAD_DSTYLE_DIM_LINETYPE
70
0
0
APPID
5
3F4
100
AcDbSymbolTableRecord
100
AcDbRegAppTableRecord
2
ACAD_DSTYLE_DIM_EXT1_LINETYPE
70
0
0
APPID
5
3F5
100
AcDbSymbolTableRecord
100
AcDbRegAppTableRecord
2
ACAD_DSTYLE_DIM_EXT2_LINETYPE
70
0
0
APPID
5
430
100
AcDbSymbolTableRecord
100
AcDbRegAppTableRecord
2
ACAD_MLEADERVER
70
0
0
ENDTAB
0
TABLE
2
BLOCK_RECORD
5
450
100
AcDbSymbolTable
0
BLOCK_RECORD
5
1F
100
AcDbSymbolTableRecord
100
AcDbBlockTableRecord
2
*Model_Space
340
0
70
0
0
BLOCK_RECORD
5
1B
100
AcDbSymbolTableRecord
100
AcDbBlockTableRecord
2
*Paper_Space
340
0
70
0
0
BLOCK_RECORD
5
23
100
AcDbSymbolTableRecord
100
AcDbBlockTableRecord
2
*Paper_Space0
340
0
70
0
0
BLOCK_RECORD
5
35E
100
AcDbSymbolTableRecord
100
AcDbBlockTableRecord
2
*D1
340
0
70
0
0
BLOCK_RECORD
5
36A
100
AcDbSymbolTableRecord
100
AcDbBlockTableRecord
2
_U0
340
0
70
0
0
BLOCK_RECORD
5
376
100
AcDbSymbolTableRecord
100
AcDbBlockTableRecord
2
*D3
340
0
70
0
0
BLOCK_RECORD
5
382
100
AcDbSymbolTableRecord
100
AcDbBlockTableRecord
2
_U1
340
0
70
0
0
BLOCK_RECORD
5
38E
100
AcDbSymbolTableRecord
100
AcDbBlockTableRecord
2
*D5
340
0
70
0
0
BLOCK_RECORD
5
39A
100
AcDbSymbolTableRecord
100
AcDbBlockTableRecord
2
_U2
340
0
70
0
0
BLOCK_RECORD
5
3A6
100
AcDbSymbolTableRecord
100
AcDbBlockTableRecord
2
*D7
340
0
70
0
0
BLOCK_RECORD
5
3B2
100
AcDbSymbolTableRecord
100
AcDbBlockTableRecord
2
_U3
340
0
70
0
0
BLOCK_RECORD
5
3BE
100
AcDbSymbolTableRecord
100
AcDbBlockTableRecord
2
*D9
340
0
70
0
0
BLOCK_RECORD
5
3CC
100
AcDbSymbolTableRecord
100
AcDbBlockTableRecord
2
_U4
340
0
70
0
0
ENDTAB
0
ENDSEC
0
SECTION
2
BLOCKS
0
BLOCK
5
20
100
AcDbEntity
8
0
100
AcDbBlockBegin
2
*Model_Space
70
0
10
0
20
0
30
0
3
*Model_Space
0
ENDBLK
5
21
100
AcDbEntity
8
0
100
AcDbBlockEnd
0
BLOCK
5
1C
100
AcDbEntity
8
0
100
AcDbBlockBegin
2
*Paper_Space
70
0
10
0
20
0
30
0
3
*Paper_Space
0
ENDBLK
5
1D
100
AcDbEntity
8
0
100
AcDbBlockEnd
0
BLOCK
5
24
100
AcDbEntity
8
0
100
AcDbBlockBegin
2
*Paper_Space0
70
0
10
0
20
0
30
0
3
*Paper_Space0
0
ENDBLK
5
25
100
AcDbEntity
8
0
100
AcDbBlockEnd
0
BLOCK
5
35F
100
AcDbEntity
8
0
100
AcDbBlockBegin
2
*D1
70
1
10
0
20
0
30
0
3
*D1
0
LINE
5
361
100
AcDbEntity
8
0
62
256
6
ByLayer
370
-2
48
1
60
0
100
AcDbLine
10
0
20
-32.8375
30
0
11
0
21
-83.275
31
0
39
0
210
0
220
0
230
1
0
LINE
5
362
100
AcDbEntity
8
0
62
256
6
ByLayer
370
-2
48
1
60
0
100
AcDbLine
10
257
20
-28.5875
30
0
11
257
21
-83.275
31
0
39
0
210
0
220
0
230
1
0
LINE
5
363
100
AcDbEntity
8
0
62
256
6
ByLayer
370
-2
48
1
60
0
100
AcDbLine
10
4.175
20
-80.1
30
0
11
252.825
21
-80.1
31
0
39
0
210
0
220
0
230
1
0
SOLID
5
364
100
AcDbEntity
8
0
62
256
6
ByLayer
370
-1
48
1
60
0
100
AcDbTrace
10
4.175
20
-79.404167
30
0
11
4.175
21
-80.795833
31
0
12
0
22
-80.1
32
0
13
0
23
-80.1
33
0
39
0
210
0
220
0
230
1
0
SOLID
5
365
100
AcDbEntity
8
0
62
256
6
ByLayer
370
-1
48
1
60
0
100
AcDbTrace
10
252.825
20
-80.795833
30
0
11
252.825
21
-79.404167
31
0
12
257
22
-80.1
32
0
13
257
23
-80.1
33
0
39
0
210
0
220
0
230
1
0
MTEXT
5
366
100
AcDbEntity
8
0
62
256
6
ByLayer
370
18
48
1
60
0
100
AcDbMText
10
128.5
20
-70.70625
30
0
210
0
220
0
230
1
1
\A1;257
40
4.5
41
0
44
1
50
0
71
5
72
5
7
iso_b_vert
0
POINT
5
367
100
AcDbEntity
8
Defpoints
62
0
6
ByLayer
370
-1
48
1
60
0
100
AcDbPoint
10
0
20
-31.25
30
0
39
0
210
0
220
0
230
1
50
360
0
POINT
5
368
100
AcDbEntity
8
Defpoints
62
0
6
ByLayer
370
-1
48
1
60
0
100
AcDbPoint
10
257
20
-27
30
0
39
0
210
0
220
0
230
1
50
360
0
POINT
5
369
100
AcDbEntity
8
Defpoints
62
0
6
ByLayer
370
-1
48
1
60
0
100
AcDbPoint
10
257
20
-80.1
30
0
39
0
210
0
220
0
230
1
50
360
0
ENDBLK
5
360
100
AcDbEntity
8
0
100
AcDbBlockEnd
0
BLOCK
5
371
100
AcDbEntity
8
0
100
AcDbBlockBegin
2
_U0
70
0
10
0
20
0
30
0
3
_U0
0
MTEXT
5
36B
100
AcDbEntity
8
2
62
256
6
ByLayer
370
18
48
1
60
0
100
AcDbMText
10
124.369387
20
-78.772328
30
0
210
0
220
0
230
1
1
\W0.7138;257
40
4.5
41
0
44
1.084337
50
0
71
7
72
5
7
iso_b_vert
0
LINE
5
36C
100
AcDbEntity
8
2
62
256
6
ByLayer
370
13
48
1
60
0
100
AcDbLine
10
0
20
-32.8375
30
0
11
0
21
-83.275
31
0
39
0
210
0
220
0
230
1
0
LINE
5
36D
100
AcDbEntity
8
2
62
256
6
ByLayer
370
13
48
1
60
0
100
AcDbLine
10
257
20
-28.5875
30
0
11
257
21
-83.275
31
0
39
0
210
0
220
0
230
1
0
LINE
5
36E
100
AcDbEntity
8
2
62
256
6
ByLayer
370
13
48
1
60
0
100
AcDbLine
10
0
20
-80.1
30
0
11
257
21
-80.1
31
0
39
0
210
0
220
0
230
1
0
SOLID
5
36F
100
AcDbEntity
8
2
62
256
6
ByLayer
370
18
48
1
60
0
100
AcDbTrace
10
0
20
-80.1
30
0
11
4.174997
21
-79.174425
31
0
12
4.175003
22
-81.025575
32
0
13
4.175003
23
-81.025575
33
0
39
0
210
0
220
0
230
1
0
SOLID
5
370
100
AcDbEntity
8
2
62
256
6
ByLayer
370
18
48
1
60
0
100
AcDbTrace
10
257
20
-80.1
30
0
11
252.825003
21
-81.025575
31
0
12
252.824997
22
-79.174425
32
0
13
252.824997
23
-79.174425
33
0
39
0
210
0
220
0
230
1
0
ENDBLK
5
372
100
AcDbEntity
8
0
100
AcDbBlockEnd
0
BLOCK
5
377
100
AcDbEntity
8
0
100
AcDbBlockBegin
2
*D3
70
1
10
0
20
0
30
0
3
*D3
0
LINE
5
379
100
AcDbEntity
8
0
62
256
6
ByLayer
370
-2
48
1
60
0
100
AcDbLine
10
-80
20
-26.5875
30
0
11
-80
21
-83.275
31
0
39
0
210
0
220
0
230
1
0
LINE
5
37A
100
AcDbEntity
8
0
62
256
6
ByLayer
370
-2
48
1
60
0
100
AcDbLine
10
0
20
-32.8375
30
0
11
0
21
-83.275
31
0
39
0
210
0
220
0
230
1
0
LINE
5
37B
100
AcDbEntity
8
0
62
256
6
ByLayer
370
-2
48
1
60
0
100
AcDbLine
10
-75.825
20
-80.1
30
0
11
-4.175
21
-80.1
31
0
39
0
210
0
220
0
230
1
0
SOLID
5
37C
100
AcDbEntity
8
0
62
256
6
ByLayer
370
-1
48
1
60
0
100
AcDbTrace
10
-75.825
20
-79.404167
30
0
11
-75.825
21
-80.795833
31
0
12
-80
22
-80.1
32
0
13
-80
23
-80.1
33
0
39
0
210
0
220
0
230
1
0
SOLID
5
37D
100
AcDbEntity
8
0
62
256
6
ByLayer
370
-1
48
1
60
0
100
AcDbTrace
10
-4.175
20
-80.795833
30
0
11
-4.175
21
-79.404167
31
0
12
0
22
-80.1
32
0
13
0
23
-80.1
33
0
39
0
210
0
220
0
230
1
0
MTEXT
5
37E
100
AcDbEntity
8
0
62
256
6
ByLayer
370
18
48
1
60
0
100
AcDbMText
10
-40
20
-70.70625
30
0
210
0
220
0
230
1
1
\A1;80
40
4.5
41
0
44
1
50
0
71
5
72
5
7
iso_b_vert
0
POINT
5
37F
100
AcDbEntity
8
Defpoints
62
0
6
ByLayer
370
-1
48
1
60
0
100
AcDbPoint
10
-80
20
-25
30
0
39
0
210
0
220
0
230
1
50
360
0
POINT
5
380
100
AcDbEntity
8
Defpoints
62
0
6
ByLayer
370
-1
48
1
60
0
100
AcDbPoint
10
0
20
-31.25
30
0
39
0
210
0
220
0
230
1
50
360
0
POINT
5
381
100
AcDbEntity
8
Defpoints
62
0
6
ByLayer
370
-1
48
1
60
0
100
AcDbPoint
10
0
20
-80.1
30
0
39
0
210
0
220
0
230
1
50
360
0
ENDBLK
5
378
100
AcDbEntity
8
0
100
AcDbBlockEnd
0
BLOCK
5
389
100
AcDbEntity
8
0
100
AcDbBlockBegin
2
_U1
70
0
10
0
20
0
30
0
3
_U1
0
MTEXT
5
383
100
AcDbEntity
8
SK2
62
256
6
ByLayer
370
18
48
1
60
0
100
AcDbMText
10
-42.449242
20
-78.772328
30
0
210
0
220
0
230
1
1
\W0.6740;80
40
4.5
41
0
44
1.084337
50
0
71
7
72
5
7
iso_b_vert
0
LINE
5
384
100
AcDbEntity
8
SK2
62
256
6
ByLayer
370
13
48
1
60
0
100
AcDbLine
10
-80
20
-26.5875
30
0
11
-80
21
-83.275
31
0
39
0
210
0
220
0
230
1
0
LINE
5
385
100
AcDbEntity
8
SK2
62
256
6
ByLayer
370
13
48
1
60
0
100
AcDbLine
10
0
20
-32.8375
30
0
11
0
21
-83.275
31
0
39
0
210
0
220
0
230
1
0
LINE
5
386
100
AcDbEntity
8
SK2
62
256
6
ByLayer
370
13
48
1
60
0
100
AcDbLine
10
-80
20
-80.1
30
0
11
0
21
-80.1
31
0
39
0
210
0
220
0
230
1
0
SOLID
5
387
100
AcDbEntity
8
SK2
62
256
6
ByLayer
370
18
48
1
60
0
100
AcDbTrace
10
-80
20
-80.1
30
0
11
-75.825003
21
-79.174425
31
0
12
-75.824997
22
-81.025575
32
0
13
-75.824997
23
-81.025575
33
0
39
0
210
0
220
0
230
1
0
SOLID
5
388
100
AcDbEntity
8
SK2
62
256
6
ByLayer
370
18
48
1
60
0
100
AcDbTrace
10
0
20
-80.1
30
0
11
-4.174997
21
-81.025575
31
0
12
-4.175003
22
-79.174425
32
0
13
-4.175003
23
-79.174425
33
0
39
0
210
0
220
0
230
1
0
ENDBLK
5
38A
100
AcDbEntity
8
0
100
AcDbBlockEnd
0
BLOCK
5
38F
100
AcDbEntity
8
0
100
AcDbBlockBegin
2
*D5
70
1
10
0
20
0
30
0
3
*D5
0
LINE
5
391
100
AcDbEntity
8
0
62
256
6
ByLayer
370
-2
48
1
60
0
100
AcDbLine
10
257
20
-28.5875
30
0
11
257
21
-73.275
31
0
39
0
210
0
220
0
230
1
0
LINE
5
392
100
AcDbEntity
8
0
62
256
6
ByLayer
370
-2
48
1
60
0
100
AcDbLine
10
6.1102
20
-32.8375
30
0
11
6.1102
21
-73.275
31
0
39
0
210
0
220
0
230
1
0
LINE
5
393
100
AcDbEntity
8
0
62
256
6
ByLayer
370
-2
48
1
60
0
100
AcDbLine
10
252.825
20
-70.1
30
0
11
10.2852
21
-70.1
31
0
39
0
210
0
220
0
230
1
0
SOLID
5
394
100
AcDbEntity
8
0
62
256
6
ByLayer
370
-1
48
1
60
0
100
AcDbTrace
10
252.825
20
-70.795833
30
0
11
252.825
21
-69.404167
31
0
12
257
22
-70.1
32
0
13
257
23
-70.1
33
0
39
0
210
0
220
0
230
1
0
SOLID
5
395
100
AcDbEntity
8
0
62
256
6
ByLayer
370
-1
48
1
60
0
100
AcDbTrace
10
10.2852
20
-69.404167
30
0
11
10.2852
21
-70.795833
31
0
12
6.1102
22
-70.1
32
0
13
6.1102
23
-70.1
33
0
39
0
210
0
220
0
230
1
0
MTEXT
5
396
100
AcDbEntity
8
0
62
256
6
ByLayer
370
18
48
1
60
0
100
AcDbMText
10
131.5551
20
-60.70625
30
0
210
0
220
0
230
1
1
\A1;250.9
40
4.5
41
0
44
1
50
0
71
5
72
5
7
iso_b_vert
0
POINT
5
397
100
AcDbEntity
8
Defpoints
62
0
6
ByLayer
370
-1
48
1
60
0
100
AcDbPoint
10
257
20
-27
30
0
39
0
210
0
220
0
230
1
50
360
0
POINT
5
398
100
AcDbEntity
8
Defpoints
62
0
6
ByLayer
370
-1
48
1
60
0
100
AcDbPoint
10
6.1102
20
-31.25
30
0
39
0
210
0
220
0
230
1
50
360
0
POINT
5
399
100
AcDbEntity
8
Defpoints
62
0
6
ByLayer
370
-1
48
1
60
0
100
AcDbPoint
10
6.1102
20
-70.1
30
0
39
0
210
0
220
0
230
1
50
360
0
ENDBLK
5
390
100
AcDbEntity
8
0
100
AcDbBlockEnd
0
BLOCK
5
3A1
100
AcDbEntity
8
0
100
AcDbBlockBegin
2
_U2
70
0
10
0
20
0
30
0
3
_U2
0
MTEXT
5
39B
100
AcDbEntity
8
SK2
62
256
6
ByLayer
370
18
48
1
60
0
100
AcDbMText
10
124.831544
20
-68.772328
30
0
210
0
220
0
230
1
1
\W0.7555;250.9
40
4.5
41
0
44
1.084337
50
0
71
7
72
5
7
iso_b_vert
0
LINE
5
39C
100
AcDbEntity
8
SK2
62
256
6
ByLayer
370
13
48
1
60
0
100
AcDbLine
10
257
20
-28.5875
30
0
11
257
21
-73.275
31
0
39
0
210
0
220
0
230
1
0
LINE
5
39D
100
AcDbEntity
8
SK2
62
256
6
ByLayer
370
13
48
1
60
0
100
AcDbLine
10
6.1102
20
-32.8375
30
0
11
6.1102
21
-73.275
31
0
39
0
210
0
220
0
230
1
0
LINE
5
39E
100
AcDbEntity
8
SK2
62
256
6
ByLayer
370
13
48
1
60
0
100
AcDbLine
10
257
20
-70.1
30
0
11
6.1102
21
-70.1
31
0
39
0
210
0
220
0
230
1
0
SOLID
5
39F
100
AcDbEntity
8
SK2
62
256
6
ByLayer
370
18
48
1
60
0
100
AcDbTrace
10
257
20
-70.1
30
0
11
252.825003
21
-71.025575
31
0
12
252.824997
22
-69.174425
32
0
13
252.824997
23
-69.174425
33
0
39
0
210
0
220
0
230
1
0
SOLID
5
3A0
100
AcDbEntity
8
SK2
62
256
6
ByLayer
370
18
48
1
60
0
100
AcDbTrace
10
6.1102
20
-70.1
30
0
11
10.285197
21
-69.174425
31
0
12
10.285203
22
-71.025575
32
0
13
10.285203
23
-71.025575
33
0
39
0
210
0
220
0
230
1
0
ENDBLK
5
3A2
100
AcDbEntity
8
0
100
AcDbBlockEnd
0
BLOCK
5
3A7
100
AcDbEntity
8
0
100
AcDbBlockBegin
2
*D7
70
1
10
0
20
0
30
0
3
*D7
0
LINE
5
3A9
100
AcDbEntity
8
0
62
256
6
ByLayer
370
-2
48
1
60
0
100
AcDbLine
10
36
20
-28.5875
30
0
11
36
21
-63.275
31
0
39
0
210
0
220
0
230
1
0
LINE
5
3AA
100
AcDbEntity
8
0
62
256
6
ByLayer
370
-2
48
1
60
0
100
AcDbLine
10
257
20
-28.5875
30
0
11
257
21
-63.275
31
0
39
0
210
0
220
0
230
1
0
LINE
5
3AB
100
AcDbEntity
8
0
62
256
6
ByLayer
370
-2
48
1
60
0
100
AcDbLine
10
40.175
20
-60.1
30
0
11
252.825
21
-60.1
31
0
39
0
210
0
220
0
230
1
0
SOLID
5
3AC
100
AcDbEntity
8
0
62
256
6
ByLayer
370
-1
48
1
60
0
100
AcDbTrace
10
40.175
20
-59.404167
30
0
11
40.175
21
-60.795833
31
0
12
36
22
-60.1
32
0
13
36
23
-60.1
33
0
39
0
210
0
220
0
230
1
0
SOLID
5
3AD
100
AcDbEntity
8
0
62
256
6
ByLayer
370
-1
48
1
60
0
100
AcDbTrace
10
252.825
20
-60.795833
30
0
11
252.825
21
-59.404167
31
0
12
257
22
-60.1
32
0
13
257
23
-60.1
33
0
39
0
210
0
220
0
230
1
0
MTEXT
5
3AE
100
AcDbEntity
8
0
62
256
6
ByLayer
370
18
48
1
60
0
100
AcDbMText
10
146.5
20
-50.70625
30
0
210
0
220
0
230
1
1
\A1;221
40
4.5
41
0
44
1
50
0
71
5
72
5
7
iso_b_vert
0
POINT
5
3AF
100
AcDbEntity
8
Defpoints
62
0
6
ByLayer
370
-1
48
1
60
0
100
AcDbPoint
10
36
20
-27
30
0
39
0
210
0
220
0
230
1
50
360
0
POINT
5
3B0
100
AcDbEntity
8
Defpoints
62
0
6
ByLayer
370
-1
48
1
60
0
100
AcDbPoint
10
257
20
-27
30
0
39
0
210
0
220
0
230
1
50
360
0
POINT
5
3B1
100
AcDbEntity
8
Defpoints
62
0
6
ByLayer
370
-1
48
1
60
0
100
AcDbPoint
10
257
20
-60.1
30
0
39
0
210
0
220
0
230
1
50
360
0
ENDBLK
5
3A8
100
AcDbEntity
8
0
100
AcDbBlockEnd
0
BLOCK
5
3B9
100
AcDbEntity
8
0
100
AcDbBlockBegin
2
_U3
70
0
10
0
20
0
30
0
3
_U3
0
MTEXT
5
3B3
100
AcDbEntity
8
SK2
62
256
6
ByLayer
370
18
48
1
60
0
100
AcDbMText
10
142.931801
20
-58.772328
30
0
210
0
220
0
230
1
1
\W0.6949;221
40
4.5
41
0
44
1.084337
50
0
71
7
72
5
7
iso_b_vert
0
LINE
5
3B4
100
AcDbEntity
8
SK2
62
256
6
ByLayer
370
13
48
1
60
0
100
AcDbLine
10
36
20
-28.5875
30
0
11
36
21
-63.275
31
0
39
0
210
0
220
0
230
1
0
LINE
5
3B5
100
AcDbEntity
8
SK2
62
256
6
ByLayer
370
13
48
1
60
0
100
AcDbLine
10
257
20
-28.5875
30
0
11
257
21
-63.275
31
0
39
0
210
0
220
0
230
1
0
LINE
5
3B6
100
AcDbEntity
8
SK2
62
256
6
ByLayer
370
13
48
1
60
0
100
AcDbLine
10
36
20
-60.1
30
0
11
257
21
-60.1
31
0
39
0
210
0
220
0
230
1
0
SOLID
5
3B7
100
AcDbEntity
8
SK2
62
256
6
ByLayer
370
18
48
1
60
0
100
AcDbTrace
10
36
20
-60.1
30
0
11
40.174997
21
-59.174425
31
0
12
40.175003
22
-61.025575
32
0
13
40.175003
23
-61.025575
33
0
39
0
210
0
220
0
230
1
0
SOLID
5
3B8
100
AcDbEntity
8
SK2
62
256
6
ByLayer
370
18
48
1
60
0
100
AcDbTrace
10
257
20
-60.1
30
0
11
252.825003
21
-61.025575
31
0
12
252.824997
22
-59.174425
32
0
13
252.824997
23
-59.174425
33
0
39
0
210
0
220
0
230
1
0
ENDBLK
5
3BA
100
AcDbEntity
8
0
100
AcDbBlockEnd
0
BLOCK
5
3BF
100
AcDbEntity
8
0
100
AcDbBlockBegin
2
*D9
70
1
10
0
20
0
30
0
3
*D9
0
LINE
5
3C1
100
AcDbEntity
8
0
62
256
6
ByLayer
370
-2
48
1
60
0
100
AcDbLine
10
255.4109
20
-15.0875
30
0
11
255.4109
21
-53.275
31
0
39
0
210
0
220
0
230
1
0
LINE
5
3C2
100
AcDbEntity
8
0
62
256
6
ByLayer
370
-2
48
1
60
0
100
AcDbLine
10
257
20
-1.5875
30
0
11
257
21
-53.275
31
0
39
0
210
0
220
0
230
1
0
LINE
5
3C3
100
AcDbEntity
8
0
62
256
6
ByLayer
370
-2
48
1
60
0
100
AcDbLine
10
257
20
-50.1
30
0
11
292.494643
21
-50.1
31
0
39
0
210
0
220
0
230
1
0
LINE
5
3C4
100
AcDbEntity
8
0
62
256
6
ByLayer
370
-2
48
1
60
0
100
AcDbLine
10
251.2359
20
-50.1
30
0
11
247.0609
21
-50.1
31
0
39
0
210
0
220
0
230
1
0
LINE
5
3C5
100
AcDbEntity
8
0
62
256
6
ByLayer
370
-2
48
1
60
0
100
AcDbLine
10
261.175
20
-50.1
30
0
11
265.35
21
-50.1
31
0
39
0
210
0
220
0
230
1
0
SOLID
5
3C6
100
AcDbEntity
8
0
62
256
6
ByLayer
370
-1
48
1
60
0
100
AcDbTrace
10
251.2359
20
-50.795833
30
0
11
251.2359
21
-49.404167
31
0
12
255.4109
22
-50.1
32
0
13
255.4109
23
-50.1
33
0
39
0
210
0
220
0
230
1
0
SOLID
5
3C7
100
AcDbEntity
8
0
62
256
6
ByLayer
370
-1
48
1
60
0
100
AcDbTrace
10
261.175
20
-49.404167
30
0
11
261.175
21
-50.795833
31
0
12
257
22
-50.1
32
0
13
257
23
-50.1
33
0
39
0
210
0
220
0
230
1
0
MTEXT
5
3C8
100
AcDbEntity
8
0
62
256
6
ByLayer
370
18
48
1
60
0
100
AcDbMText
10
278.922321
20
-40.70625
30
0
210
0
220
0
230
1
1
\A1;1.59
40
4.5
41
0
44
1
50
0
71
5
72
5
7
iso_b_vert
0
POINT
5
3C9
100
AcDbEntity
8
Defpoints
62
0
6
ByLayer
370
-1
48
1
60
0
100
AcDbPoint
10
255.4109
20
-13.5
30
0
39
0
210
0
220
0
230
1
50
360
0
POINT
5
3CA
100
AcDbEntity
8
Defpoints
62
0
6
ByLayer
370
-1
48
1
60
0
100
AcDbPoint
10
257
20
0
30
0
39
0
210
0
220
0
230
1
50
360
0
POINT
5
3CB
100
AcDbEntity
8
Defpoints
62
0
6
ByLayer
370
-1
48
1
60
0
100
AcDbPoint
10
257
20
-50.1
30
0
39
0
210
0
220
0
230
1
50
360
0
ENDBLK
5
3C0
100
AcDbEntity
8
0
100
AcDbBlockEnd
0
BLOCK
5
3D3
100
AcDbEntity
8
0
100
AcDbBlockBegin
2
_U4
70
0
10
0
20
0
30
0
3
_U4
0
MTEXT
5
3CD
100
AcDbEntity
8
2
62
256
6
ByLayer
370
18
48
1
60
0
100
AcDbMText
10
269.351
20
-48.772328
30
0
210
0
220
0
230
1
1
\W0.6662;1.59
40
4.5
41
0
44
1.084337
50
0
71
7
72
5
7
iso_b_vert
0
LINE
5
3CE
100
AcDbEntity
8
2
62
256
6
ByLayer
370
13
48
1
60
0
100
AcDbLine
10
255.4109
20
-15.0875
30
0
11
255.4109
21
-53.275
31
0
39
0
210
0
220
0
230
1
0
LINE
5
3CF
100
AcDbEntity
8
2
62
256
6
ByLayer
370
13
48
1
60
0
100
AcDbLine
10
257
20
-1.5875
30
0
11
257
21
-53.275
31
0
39
0
210
0
220
0
230
1
0
LINE
5
3D0
100
AcDbEntity
8
2
62
256
6
ByLayer
370
13
48
1
60
0
100
AcDbLine
10
278.549041
20
-50.1
30
0
11
244.1609
21
-50.1
31
0
39
0
210
0
220
0
230
1
0
SOLID
5
3D1
100
AcDbEntity
8
2
62
256
6
ByLayer
370
18
48
1
60
0
100
AcDbTrace
10
255.4109
20
-50.1
30
0
11
251.235903
21
-51.025575
31
0
12
251.235897
22
-49.174425
32
0
13
251.235897
23
-49.174425
33
0
39
0
210
0
220
0
230
1
0
SOLID
5
3D2
100
AcDbEntity
8
2
62
256
6
ByLayer
370
18
48
1
60
0
100
AcDbTrace
10
257
20
-50.1
30
0
11
261.174997
21
-49.174425
31
0
12
261.175003
22
-51.025575
32
0
13
261.175003
23
-51.025575
33
0
39
0
210
0
220
0
230
1
0
ENDBLK
5
3D4
100
AcDbEntity
8
0
100
AcDbBlockEnd
0
ENDSEC
0
SECTION
2
ENTITIES
0
ARC
5
190
100
AcDbEntity
8
SK1
62
256
6
ByLayer
370
13
48
1
60
0
100
AcDbCircle
39
0
10
-77.894505
20
-25.396
30
0
40
0.799999999999979
210
0
220
0
230
1
100
AcDbArc
50
70.982
51
141
0
ARC
5
191
100
AcDbEntity
8
SK1
62
256
6
ByLayer
370
13
48
1
60
0
100
AcDbCircle
39
0
10
-77.894505
20
25.396
30
0
40
0.799999999999979
210
0
220
0
230
1
100
AcDbArc
50
219
51
289.018
0
ARC
5
192
100
AcDbEntity
8
SK1
62
256
6
ByLayer
370
13
48
1
60
0
100
AcDbCircle
39
0
10
-0.15
20
25.146
30
0
40
0.399999999999999
210
0
220
0
230
1
100
AcDbArc
50
270
51
292.024313
0
ARC
5
193
100
AcDbEntity
8
SK1
62
256
6
ByLayer
370
13
48
1
60
0
100
AcDbCircle
39
0
10
-0.15
20
-25.146
30
0
40
0.399999999999999
210
0
220
0
230
1
100
AcDbArc
50
67.975687
51
90
0
ARC
5
194
100
AcDbEntity
8
SK1
62
256
6
ByLayer
370
13
48
1
60
0
100
AcDbCircle
39
0
10
-1.375195
20
25.146
30
0
40
0.400000000000004
210
0
220
0
230
1
100
AcDbArc
50
245
51
270
0
ARC
5
195
100
AcDbEntity
8
SK1
62
256
6
ByLayer
370
13
48
1
60
0
100
AcDbCircle
39
0
10
-1.375195
20
-25.146
30
0
40
0.400000000000004
210
0
220
0
230
1
100
AcDbArc
50
90
51
115
0
ARC
5
196
100
AcDbEntity
8
1
62
256
6
ByLayer
370
13
48
1
60
0
100
AcDbCircle
39
0
10
253.075268
20
25.193734
30
0
40
0.2
210
0
220
0
230
1
100
AcDbArc
50
8.973565
51
93
0
ARC
5
197
100
AcDbEntity
8
1
62
256
6
ByLayer
370
13
48
1
60
0
100
AcDbCircle
39
0
10
253.266338
20
8.937984
30
0
40
0.2
210
0
220
0
230
1
100
AcDbArc
50
273
51
352.54557
0
ARC
5
198
100
AcDbEntity
8
1
62
256
6
ByLayer
370
13
48
1
60
0
100
AcDbCircle
39
0
10
238.869
20
24.183496
30
0
40
0.2
210
0
220
0
230
1
100
AcDbArc
50
79.98854
51
93
0
ARC
5
199
100
AcDbEntity
8
1
62
256
6
ByLayer
370
13
48
1
60
0
100
AcDbCircle
39
0
10
239.060069
20
7.927746
30
0
40
0.2
210
0
220
0
230
1
100
AcDbArc
50
273
51
303.773583
0
ELLIPSE
5
19A
100
AcDbEntity
8
1
62
256
6
ByLayer
370
18
48
1
60
0
100
AcDbEllipse
10
245.222081
20
15.229999
30
0
11
-0.349414799997427
21
0.179424606472488
31
0
210
0
220
0
230
1
40
0.490808
41
2.51659138569081
42
-2.94320654539718
0
ELLIPSE
5
19B
100
AcDbEntity
8
1
62
256
6
ByLayer
370
18
48
1
60
0
100
AcDbEllipse
10
245.892243
20
16.551546
30
0
11
0.0675290843402719
21
-1.28853168869383
31
0
210
0
220
0
230
1
40
0.995562
41
3.14159265358979
42
-2.35315137984987
0
ELLIPSE
5
19C
100
AcDbEntity
8
1
62
256
6
ByLayer
370
18
48
1
60
0
100
AcDbEllipse
10
245.892243
20
16.551546
30
0
11
-0.067529084340268
21
1.28853168869383
31
0
210
0
220
0
230
1
40
0.995562
41
-3.03775684415655
42
-2.0943951023932
0
ELLIPSE
5
19D
100
AcDbEntity
8
1
62
256
6
ByLayer
370
18
48
1
60
0
100
AcDbEllipse
10
247.367036
20
16.628837
30
0
11
-0.0206256003553322
21
0.393559899646791
31
0
210
0
220
0
230
1
40
0.48755
41
-2.94566518558207
42
-0.320418374792106
0
ELLIPSE
5
19E
100
AcDbEntity
8
1
62
256
6
ByLayer
370
18
48
1
60
0
100
AcDbEllipse
10
246.04026
20
16.559304
30
0
11
0.0877359970456728
21
-1.67410255206257
31
0
210
0
220
0
230
1
40
0.995562
41
-2.61799387799146
42
-1.5707963267949
0
ELLIPSE
5
19F
100
AcDbEntity
8
1
62
256
6
ByLayer
370
18
48
1
60
0
100
AcDbEllipse
10
245.892243
20
16.551546
30
0
11
0.0675290843402719
21
-1.28853168869383
31
0
210
0
220
0
230
1
40
0.995562
41
1.0471975511966
42
2.0943951023932
0
ELLIPSE
5
1A0
100
AcDbEntity
8
1
62
256
6
ByLayer
370
18
48
1
60
0
100
AcDbEllipse
10
246.562405
20
17.873093
30
0
11
-0.349414799997447
21
0.179424606472471
31
0
210
0
220
0
230
1
40
0.490808
41
2.94818767871587
42
-0.625002372329191
0
ELLIPSE
5
1A1
100
AcDbEntity
8
1
62
256
6
ByLayer
370
18
48
1
60
0
100
AcDbEllipse
10
245.892243
20
16.551546
30
0
11
0.0675290843402719
21
-1.28853168869383
31
0
210
0
220
0
230
1
40
0.995562
41
2.0943951023932
42
-3.14159265358977
0
ELLIPSE
5
1A2
100
AcDbEntity
8
1
62
256
6
ByLayer
370
18
48
1
60
0
100
AcDbEllipse
10
245.892243
20
16.551546
30
0
11
0.0675290843402719
21
-1.28853168869383
31
0
210
0
220
0
230
1
40
0.995562
41
-1.89285840703663
42
-1.23277995487285
0
ELLIPSE
5
1A3
100
AcDbEntity
8
1
62
256
6
ByLayer
370
18
48
1
60
0
100
AcDbEllipse
10
247.13055
20
17.359111
30
0
11
-0.213369888117899
21
0.330824637123327
31
0
210
0
220
0
230
1
40
0.48863
41
1.57326889137006
42
2.85513231723974
0
ELLIPSE
5
1A4
100
AcDbEntity
8
1
62
256
6
ByLayer
370
18
48
1
60
0
100
AcDbEllipse
10
246.04026
20
16.559304
30
0
11
0.0877359970456728
21
-1.67410255206257
31
0
210
0
220
0
230
1
40
0.995562
41
-1.5707963267949
42
-0.523598775598316
0
ELLIPSE
5
1A5
100
AcDbEntity
8
1
62
256
6
ByLayer
370
18
48
1
60
0
100
AcDbEllipse
10
245.087613
20
17.795802
30
0
11
-0.328745690776231
21
-0.2149654917914
31
0
210
0
220
0
230
1
40
0.490808
41
2.94320654539735
42
-2.46828145615016
0
ELLIPSE
5
1A6
100
AcDbEntity
8
1
62
256
6
ByLayer
370
18
48
1
60
0
100
AcDbEllipse
10
245.965077
20
16.555363
30
0
11
-0.149157475292384
21
2.84609417405054
31
0
210
0
220
0
230
1
40
0.995562
41
0
42
3.1414943057158
0
ELLIPSE
5
1A7
100
AcDbEntity
8
1
62
256
6
ByLayer
370
18
48
1
60
0
100
AcDbEllipse
10
246.04026
20
16.559304
30
0
11
-0.0942047212372956
21
1.79753316255823
31
0
210
0
220
0
230
1
40
0.995562
41
0
42
6.28318530717959
0
ELLIPSE
5
1A8
100
AcDbEntity
8
1
62
256
6
ByLayer
370
18
48
1
60
0
100
AcDbEllipse
10
246.04026
20
16.559304
30
0
11
0.0877359970456728
21
-1.67410255206257
31
0
210
0
220
0
230
1
40
0.995562
41
1.5707963267949
42
2.61799387799149
0
ELLIPSE
5
1A9
100
AcDbEntity
8
1
62
256
6
ByLayer
370
18
48
1
60
0
100
AcDbEllipse
10
247.20818
20
15.877844
30
0
11
-0.177620434615998
21
-0.35131557165625
31
0
210
0
220
0
230
1
40
0.48863
41
-2.85513231723711
42
-1.57326889136242
0
ELLIPSE
5
1AA
100
AcDbEntity
8
1
62
256
6
ByLayer
370
18
48
1
60
0
100
AcDbEllipse
10
246.04026
20
16.559304
30
0
11
0.0877359970456728
21
-1.67410255206257
31
0
210
0
220
0
230
1
40
0.995562
41
2.61799387799149
42
-2.61799387799146
0
ELLIPSE
5
1AB
100
AcDbEntity
8
1
62
256
6
ByLayer
370
18
48
1
60
0
100
AcDbEllipse
10
246.696873
20
15.30729
30
0
11
-0.32874569077621
21
-0.214965491791413
31
0
210
0
220
0
230
1
40
0.490808
41
0.673312264881451
42
-2.94818767871595
0
ELLIPSE
5
1AC
100
AcDbEntity
8
1
62
256
6
ByLayer
370
18
48
1
60
0
100
AcDbEllipse
10
247.13055
20
17.359111
30
0
11
-0.213369888116266
21
0.3308246371261
31
0
210
0
220
0
230
1
40
0.48863
41
0.291405465521545
42
1.57326889138658
0
ELLIPSE
5
1AD
100
AcDbEntity
8
1
62
256
6
ByLayer
370
18
48
1
60
0
100
AcDbEllipse
10
245.892243
20
16.551546
30
0
11
0.0675290843402719
21
-1.28853168869383
31
0
210
0
220
0
230
1
40
0.995562
41
-0.771408608870135
42
0
0
ELLIPSE
5
1AE
100
AcDbEntity
8
1
62
256
6
ByLayer
370
18
48
1
60
0
100
AcDbEllipse
10
246.04026
20
16.559304
30
0
11
0.0877359970456728
21
-1.67410255206257
31
0
210
0
220
0
230
1
40
0.995562
41
0.523598775598307
42
1.5707963267949
0
ELLIPSE
5
1AF
100
AcDbEntity
8
1
62
256
6
ByLayer
370
18
48
1
60
0
100
AcDbEllipse
10
246.032817
20
16.558913
30
0
11
-0.149157475292384
21
2.84609417405054
31
0
210
0
220
0
230
1
40
0.995562
41
0
42
6.28318530717959
0
ELLIPSE
5
1B0
100
AcDbEntity
8
1
62
256
6
ByLayer
370
18
48
1
60
0
100
AcDbEllipse
10
247.20818
20
15.877844
30
0
11
-0.177620434612164
21
-0.351315571660293
31
0
210
0
220
0
230
1
40
0.48863
41
-1.57326889139208
42
-0.291405465521089
0
ELLIPSE
5
1B1
100
AcDbEntity
8
1
62
256
6
ByLayer
370
18
48
1
60
0
100
AcDbEllipse
10
245.814613
20
18.032813
30
0
11
-0.391813266881528
21
-0.0205340632110097
31
0
210
0
220
0
230
1
40
0.491907
41
0.288932900933743
42
1.5707963267949
0
ELLIPSE
5
1B2
100
AcDbEntity
8
1
62
256
6
ByLayer
370
18
48
1
60
0
100
AcDbEllipse
10
246.04026
20
16.559304
30
0
11
0.0877359970456728
21
-1.67410255206257
31
0
210
0
220
0
230
1
40
0.995562
41
-0.523598775598316
42
0.523598775598307
0
ELLIPSE
5
1B3
100
AcDbEntity
8
1
62
256
6
ByLayer
370
18
48
1
60
0
100
AcDbEllipse
10
245.969873
20
15.070279
30
0
11
-0.39181326688184
21
-0.0205340632106212
31
0
210
0
220
0
230
1
40
0.491907
41
-1.5707963267949
42
-0.288932900933766
0
ELLIPSE
5
1B4
100
AcDbEntity
8
1
62
256
6
ByLayer
370
18
48
1
60
0
100
AcDbEllipse
10
246.0001
20
-7.940137
30
0
11
-1.5
21
1.51595858262354E-15
31
0
210
0
220
0
230
1
40
0.993027
41
-2.85472616024685
42
-0.0426082629229961
0
ELLIPSE
5
1B5
100
AcDbEntity
8
1
62
256
6
ByLayer
370
18
48
1
60
0
100
AcDbEllipse
10
246.0001
20
-7.999081
30
0
11
2
21
0
31
0
210
0
220
0
230
1
40
0.993027
41
0.507858279235488
42
2.84107979382474
0
ELLIPSE
5
1B6
100
AcDbEntity
8
1
62
256
6
ByLayer
370
13
48
1
60
0
100
AcDbEllipse
10
254.714487
20
26.182481
30
0
11
-0.0287847759336189
21
0.549246244115033
31
0
210
0
220
0
230
1
40
0.995562
41
-1.46607657167527
42
-0.0801412288236973
0
ELLIPSE
5
1B7
100
AcDbEntity
8
1
62
256
6
ByLayer
370
13
48
1
60
0
100
AcDbEllipse
10
256.689646
20
17.275121
30
0
11
0.148164061728347
21
0.0233968120084477
31
0
210
0
220
0
230
1
40
0.009837
41
0.0937345075346783
42
1.66453083432158
0
ELLIPSE
5
1B8
100
AcDbEntity
8
1
62
256
6
ByLayer
370
13
48
1
60
0
100
AcDbEllipse
10
238.151774
20
6.43635
30
0
11
0.0126644888425917
21
-0.241652842685696
31
0
210
0
220
0
230
1
40
0.995562
41
0.174532925197781
42
1.32121290077
0
ELLIPSE
5
1B9
100
AcDbEntity
8
1
62
256
6
ByLayer
370
13
48
1
60
0
100
AcDbEllipse
10
238.095132
20
6.447731
30
0
11
0.0104671912485892
21
-0.19972590695092
31
0
210
0
220
0
230
1
40
0.995562
41
-0.00872664625970077
42
1.32121290077049
0
ELLIPSE
5
1BA
100
AcDbEntity
8
1
62
256
6
ByLayer
370
13
48
1
60
0
100
AcDbEllipse
10
254.02141
20
26.672764
30
0
11
-0.00261679781214737
21
0.049931476737734
31
0
210
0
220
0
230
1
40
0.995562
41
-0.00872664625810713
42
1.32121290077168
0
ELLIPSE
5
1BB
100
AcDbEntity
8
1
62
256
6
ByLayer
370
13
48
1
60
0
100
AcDbEllipse
10
239.267781
20
26.468439
30
0
11
-0.104671912485884
21
1.99725906950915
31
0
210
0
220
0
230
1
40
0.995562
41
2.85175890391561
42
3.14159265358844
0
ELLIPSE
5
1BC
100
AcDbEntity
8
1
62
256
6
ByLayer
370
13
48
1
60
0
100
AcDbEllipse
10
251.155611
20
27.091454
30
0
11
0.10467191248589
21
-1.99725906950915
31
0
210
0
220
0
230
1
40
0.995562
41
0
42
0.289833749674098
0
ELLIPSE
5
1BD
100
AcDbEntity
8
1
62
256
6
ByLayer
370
13
48
1
60
0
100
AcDbEllipse
10
255.661203
20
9.241188
30
0
11
0.00785039343644183
21
-0.149794430213188
31
0
210
0
220
0
230
1
40
0.995562
41
0.113446401377508
42
1.38753675533587
0
ELLIPSE
5
1BE
100
AcDbEntity
8
1
62
256
6
ByLayer
370
13
48
1
60
0
100
AcDbEllipse
10
256.153541
20
17.189455
30
0
11
0.0366351693700605
21
-0.699040674328184
31
0
210
0
220
0
230
1
40
0.995562
41
1.38753675533663
42
1.67551608191578
0
ELLIPSE
5
1BF
100
AcDbEntity
8
1
62
256
6
ByLayer
370
13
48
1
60
0
100
AcDbEllipse
10
239.060069
20
7.927746
30
0
11
0.197552082304462
21
0.0311957493445969
31
0
210
0
220
0
230
1
40
0.009837
41
-3.04785814606583
42
-1.47706181926795
0
ELLIPSE
5
1C0
100
AcDbEntity
8
1
62
256
6
ByLayer
370
13
48
1
60
0
100
AcDbEllipse
10
251.672296
20
27.118533
30
0
11
-1.74911089440604
21
-1.53532677657793
31
0
210
0
220
0
230
1
40
0.758703
41
1.05561565777852
42
2.06133695402403
0
ELLIPSE
5
1C1
100
AcDbEntity
8
1
62
256
6
ByLayer
370
13
48
1
60
0
100
AcDbEllipse
10
253.986691
20
26.683311
30
0
11
0.147123305935862
21
-0.029235814517519
31
0
210
0
220
0
230
1
40
0.023245
41
3.05024863021438
42
-1.66214035016936
0
ELLIPSE
5
1C2
100
AcDbEntity
8
1
62
256
6
ByLayer
370
13
48
1
60
0
100
AcDbEllipse
10
237.866233
20
6.387877
30
0
11
0.00415024464891698
21
-0.149942573905326
31
0
210
0
220
0
230
1
40
0.09408
41
-1.56847321010733
42
-0.0396676110907098
0
ELLIPSE
5
1C3
100
AcDbEntity
8
1
62
256
6
ByLayer
370
13
48
1
60
0
100
AcDbEllipse
10
237.801813
20
16.027283
30
0
11
-0.19830967214623
21
0.0259475226804902
31
0
210
0
220
0
230
1
40
0.01715
41
-1.66347501627475
42
-0.0926786894794932
0
ELLIPSE
5
1C4
100
AcDbEntity
8
1
62
256
6
ByLayer
370
13
48
1
60
0
100
AcDbEllipse
10
238.076336
20
6.446746
30
0
11
-0.00261679781214737
21
0.049931476737734
31
0
210
0
220
0
230
1
40
0.995562
41
3.13286600732996
42
-1.82037975281811
0
ELLIPSE
5
1C5
100
AcDbEntity
8
1
62
256
6
ByLayer
370
13
48
1
60
0
100
AcDbEllipse
10
253.858777
20
17.160559
30
0
11
-0.0261679781214711
21
0.49931476737729
31
0
210
0
220
0
230
1
40
0.995562
41
-1.75405589825431
42
-1.46607657167515
0
ELLIPSE
5
1C6
100
AcDbEntity
8
1
62
256
6
ByLayer
370
13
48
1
60
0
100
AcDbEllipse
10
237.82213
20
8.137438
30
0
11
0.0994383168615952
21
-1.89739611603369
31
0
210
0
220
0
230
1
40
0.995562
41
-0.0245785262973784
42
-0.00872664626134481
0
ELLIPSE
5
1C7
100
AcDbEntity
8
1
62
256
6
ByLayer
370
13
48
1
60
0
100
AcDbEllipse
10
238.581048
20
24.285193
30
0
11
0.0052335956242943
21
-0.0998629534754539
31
0
210
0
220
0
230
1
40
0.995562
41
1.3875367553349
42
-3.02814625221209
0
ELLIPSE
5
1C8
100
AcDbEntity
8
1
62
256
6
ByLayer
370
13
48
1
60
0
100
AcDbEllipse
10
253.764536
20
26.673651
30
0
11
-0.279576450839513
21
-0.214084669591457
31
0
210
0
220
0
230
1
40
0.473311
41
-2.36298044737067
42
-1.21630047179324
0
ELLIPSE
5
1C9
100
AcDbEntity
8
1
62
256
6
ByLayer
370
13
48
1
60
0
100
AcDbEllipse
10
240.340668
20
5.996534
30
0
11
-0.109905508110178
21
2.09712202298461
31
0
210
0
220
0
230
1
40
0.995562
41
0.718961233328067
42
1.32121290077023
0
ELLIPSE
5
1CA
100
AcDbEntity
8
1
62
256
6
ByLayer
370
13
48
1
60
0
100
AcDbEllipse
10
255.661203
20
9.241188
30
0
11
0.148732254109678
21
-0.0194606420103264
31
0
210
0
220
0
230
1
40
0.01715
41
-1.66347501627497
42
-0.0926786894794932
0
ELLIPSE
5
1CB
100
AcDbEntity
8
1
62
256
6
ByLayer
370
13
48
1
60
0
100
AcDbEllipse
10
236.363346
20
25.038788
30
0
11
-0.0433887818304957
21
-0.2617093602405
31
0
210
0
220
0
230
1
40
0.938419
41
-2.83001826194533
42
-2.21164798405557
0
ELLIPSE
5
1CC
100
AcDbEntity
8
1
62
256
6
ByLayer
370
13
48
1
60
0
100
AcDbEllipse
10
240.321872
20
5.995549
30
0
11
0.117755901546626
21
-2.2469164531978
31
0
210
0
220
0
230
1
40
0.995562
41
-2.4110634563618
42
-1.8203797528182
0
ELLIPSE
5
1CD
100
AcDbEntity
8
1
62
256
6
ByLayer
370
13
48
1
60
0
100
AcDbEllipse
10
254.308508
20
24.983796
30
0
11
0.0994383168615952
21
-1.89739611603369
31
0
210
0
220
0
230
1
40
0.995562
41
3.11701412729378
42
3.13286600732983
0
ELLIPSE
5
1CE
100
AcDbEntity
8
1
62
256
6
ByLayer
370
13
48
1
60
0
100
AcDbEllipse
10
238.869
20
24.183496
30
0
11
-0.0347690313671456
21
-0.196954599991446
31
0
210
0
220
0
230
1
40
0.091713
41
1.59198601757358
42
-3.12040296278306
0
ELLIPSE
5
1CF
100
AcDbEntity
8
1
62
256
6
ByLayer
370
13
48
1
60
0
100
AcDbEllipse
10
254.033324
20
26.723455
30
0
11
-0.00653707867981082
21
0.149857487641873
31
0
210
0
220
0
230
1
40
0.094105
41
0.000824900288349361
42
1.57162122708221
0
ELLIPSE
5
1D0
100
AcDbEntity
8
1
62
256
6
ByLayer
370
13
48
1
60
0
100
AcDbEllipse
10
254.508414
20
17.986783
30
0
11
0.465790010562209
21
-8.88780285931571
31
0
210
0
220
0
230
1
40
0.995562
41
3.06145142476754
42
3.1170141272951
0
ELLIPSE
5
1D1
100
AcDbEntity
8
1
62
256
6
ByLayer
370
13
48
1
60
0
100
AcDbEllipse
10
237.608127
20
15.133712
30
0
11
-0.457939617125742
21
8.73800842910253
31
0
210
0
220
0
230
1
40
0.995562
41
3.06145142476615
42
3.11701412729371
0
ELLIPSE
5
1D2
100
AcDbEntity
8
1
62
256
6
ByLayer
370
13
48
1
60
0
100
AcDbEllipse
10
238.438438
20
26.424982
30
0
11
-2.48301298522249
21
1.51818609645456
31
0
210
0
220
0
230
1
40
0.473313
41
1.21629753881453
42
1.24195523819438
0
ELLIPSE
5
1D3
100
AcDbEntity
8
1
62
256
6
ByLayer
370
13
48
1
60
0
100
AcDbEllipse
10
236.856552
20
6.851855
30
0
11
-0.148164061728345
21
-0.0233968120084617
31
0
210
0
220
0
230
1
40
0.009837
41
-1.47706181926789
42
0.0937345075244194
0
ELLIPSE
5
1D4
100
AcDbEntity
8
1
62
256
6
ByLayer
370
13
48
1
60
0
100
AcDbEllipse
10
255.269388
20
26.269132
30
0
11
0.148164061728347
21
0.0233968120084477
31
0
210
0
220
0
230
1
40
0.009837
41
0.0937345075298485
42
1.66453083432253
0
ELLIPSE
5
1D5
100
AcDbEntity
8
1
62
256
6
ByLayer
370
13
48
1
60
0
100
AcDbEllipse
10
254.489618
20
17.985798
30
0
11
-0.457939617125742
21
8.73800842910253
31
0
210
0
220
0
230
1
40
0.995562
41
-0.0801412288236027
42
-0.0245785262960364
0
ELLIPSE
5
1D6
100
AcDbEntity
8
1
62
256
6
ByLayer
370
13
48
1
60
0
100
AcDbEllipse
10
237.383259
20
6.937029
30
0
11
-0.0287847759336189
21
0.549246244115033
31
0
210
0
220
0
230
1
40
0.995562
41
1.67551608191447
42
3.06145142476609
0
ELLIPSE
5
1D7
100
AcDbEntity
8
1
62
256
6
ByLayer
370
13
48
1
60
0
100
AcDbEllipse
10
254.232107
20
26.732126
30
0
11
-0.00653707867981082
21
0.149857487641873
31
0
210
0
220
0
230
1
40
0.094105
41
0.000824900288349361
42
1.57162122708221
0
ELLIPSE
5
1D8
100
AcDbEntity
8
1
62
256
6
ByLayer
370
13
48
1
60
0
100
AcDbEllipse
10
253.321831
20
25.547231
30
0
11
0.0052335956242952
21
-0.099862953475471
31
0
210
0
220
0
230
1
40
0.995562
41
-2.42263142025755
42
-1.46607657167448
0
ELLIPSE
5
1D9
100
AcDbEntity
8
1
62
256
6
ByLayer
370
13
48
1
60
0
100
AcDbEllipse
10
253.266338
20
8.937984
30
0
11
0.0347690313671762
21
0.19695459999144
31
0
210
0
220
0
230
1
40
0.091713
41
-3.1204029628373
42
-1.54960663601607
0
ELLIPSE
5
1DA
100
AcDbEntity
8
1
62
256
6
ByLayer
370
13
48
1
60
0
100
AcDbEllipse
10
246.086465
20
16.561725
30
0
11
0.16459275201714
21
-3.14061679904834
31
0
210
0
220
0
230
1
40
0.995562
41
0
42
6.28318530717959
0
ELLIPSE
5
1DB
100
AcDbEntity
8
1
62
256
6
ByLayer
370
13
48
1
60
0
100
AcDbEllipse
10
238.869
20
24.183496
30
0
11
0.198309672146238
21
-0.025947522680435
31
0
210
0
220
0
230
1
40
0.01715
41
1.47811763731391
42
3.04891396411862
0
ELLIPSE
5
1DC
100
AcDbEntity
8
1
62
256
6
ByLayer
370
13
48
1
60
0
100
AcDbEllipse
10
254.671071
20
17.2921
30
0
11
0.148164061728347
21
0.0233968120084477
31
0
210
0
220
0
230
1
40
0.009837
41
1.66453083432423
42
2.85269002801732
0
ELLIPSE
5
1DD
100
AcDbEntity
8
1
62
256
6
ByLayer
370
13
48
1
60
0
100
AcDbEllipse
10
237.402055
20
6.938014
30
0
11
0.0366351693700623
21
-0.699040674328219
31
0
210
0
220
0
230
1
40
0.995562
41
-1.46607657167663
42
-0.0801412288249955
0
ELLIPSE
5
1DE
100
AcDbEntity
8
1
62
256
6
ByLayer
370
13
48
1
60
0
100
AcDbEllipse
10
254.313207
20
24.984042
30
0
11
0.0994383168615952
21
-1.89739611603369
31
0
210
0
220
0
230
1
40
0.995562
41
3.11701412729512
42
3.13286600733117
0
ELLIPSE
5
1DF
100
AcDbEntity
8
1
62
256
6
ByLayer
370
13
48
1
60
0
100
AcDbEllipse
10
236.716819
20
25.780218
30
0
11
-0.300422843312679
21
0.183688194601274
31
0
210
0
220
0
230
1
40
0.473311
41
-1.92529218178976
42
-0.778612206222294
0
ELLIPSE
5
1E0
100
AcDbEntity
8
1
62
256
6
ByLayer
370
13
48
1
60
0
100
AcDbEllipse
10
255.665902
20
9.241435
30
0
11
0.00785039343644183
21
-0.149794430213188
31
0
210
0
220
0
230
1
40
0.995562
41
0.11344640137922
42
1.38753675533721
0
ELLIPSE
5
1E1
100
AcDbEntity
8
1
62
256
6
ByLayer
370
13
48
1
60
0
100
AcDbEllipse
10
253.266338
20
8.937984
30
0
11
-0.19830967214623
21
0.0259475226804902
31
0
210
0
220
0
230
1
40
0.01715
41
-3.14146404080255
42
-1.66347501627593
0
ELLIPSE
5
1E2
100
AcDbEntity
8
1
62
256
6
ByLayer
370
13
48
1
60
0
100
AcDbEllipse
10
238.090433
20
6.447485
30
0
11
0.0104671912485892
21
-0.19972590695092
31
0
210
0
220
0
230
1
40
0.995562
41
0.0115983514805329
42
1.32121290077181
0
ELLIPSE
5
1E3
100
AcDbEntity
8
1
62
256
6
ByLayer
370
13
48
1
60
0
100
AcDbEllipse
10
254.743666
20
26.732998
30
0
11
0.00422000339726422
21
0.149940626820509
31
0
210
0
220
0
230
1
40
0.093806
41
0.00756732553555061
42
1.57836365232731
0
ELLIPSE
5
1E4
100
AcDbEntity
8
1
62
256
6
ByLayer
370
13
48
1
60
0
100
AcDbEllipse
10
238.276561
20
15.960921
30
0
11
0.0444855628065033
21
-0.848835104541391
31
0
210
0
220
0
230
1
40
0.995562
41
-1.75405589825435
42
-1.46607657167522
0
ELLIPSE
5
1E5
100
AcDbEntity
8
1
62
256
6
ByLayer
370
13
48
1
60
0
100
AcDbEllipse
10
235.4342
20
16.003693
30
0
11
-0.148732254109673
21
0.0194606420103677
31
0
210
0
220
0
230
1
40
0.01715
41
0.26594126833533
42
1.47811763731406
0
ELLIPSE
5
1E6
100
AcDbEntity
8
1
62
256
6
ByLayer
370
13
48
1
60
0
100
AcDbEllipse
10
239.060069
20
7.927746
30
0
11
0.111182483439522
21
-0.166248174053793
31
0
210
0
220
0
230
1
40
0.080951
41
-1.97154905394048E-05
42
1.5226274869703
0
ELLIPSE
5
1E7
100
AcDbEntity
8
1
62
256
6
ByLayer
370
13
48
1
60
0
100
AcDbEllipse
10
238.808807
20
7.574003
30
0
11
0.0052335956242952
21
-0.099862953475471
31
0
210
0
220
0
230
1
40
0.995562
41
0.718961233330114
42
1.67551608191503
0
ELLIPSE
5
1E8
100
AcDbEntity
8
1
62
256
6
ByLayer
370
13
48
1
60
0
100
AcDbEllipse
10
236.467627
20
23.865929
30
0
11
-0.0433887818558753
21
-0.2617093602323
31
0
210
0
220
0
230
1
40
0.938419
41
-2.83001826185315
42
-1.53436336020708
0
ELLIPSE
5
1E9
100
AcDbEntity
8
1
62
256
6
ByLayer
370
13
48
1
60
0
100
AcDbEllipse
10
240.335969
20
5.996288
30
0
11
-0.109905508110178
21
2.09712202298461
31
0
210
0
220
0
230
1
40
0.995562
41
0.718961233329382
42
1.32121290077157
0
ELLIPSE
5
1EA
100
AcDbEntity
8
1
62
256
6
ByLayer
370
13
48
1
60
0
100
AcDbEllipse
10
235.981797
20
15.932025
30
0
11
0.0366351693700605
21
-0.699040674328184
31
0
210
0
220
0
230
1
40
0.995562
41
-1.75405589825589
42
-1.46607657167675
0
ELLIPSE
5
1EB
100
AcDbEntity
8
1
62
256
6
ByLayer
370
13
48
1
60
0
100
AcDbEllipse
10
254.259707
20
26.73311
30
0
11
-0.0041502446489173
21
0.149942573905326
31
0
210
0
220
0
230
1
40
0.09408
41
0.00232311668849415
42
1.57311944348246
0
ELLIPSE
5
1EC
100
AcDbEntity
8
1
62
256
6
ByLayer
370
13
48
1
60
0
100
AcDbEllipse
10
237.803716
20
15.883804
30
0
11
-0.197552082304459
21
-0.0311957493446158
31
0
210
0
220
0
230
1
40
0.009837
41
0.0937345075280373
42
1.66453083432302
0
ELLIPSE
5
1ED
100
AcDbEntity
8
1
62
256
6
ByLayer
370
13
48
1
60
0
100
AcDbEllipse
10
239.060069
20
7.927746
30
0
11
0.010467191248589
21
-0.199725906950915
31
0
210
0
220
0
230
1
40
0.995562
41
-1.46607657167661
42
-2.46857419978819E-05
0
ELLIPSE
5
1EE
100
AcDbEntity
8
1
62
256
6
ByLayer
370
13
48
1
60
0
100
AcDbEllipse
10
254.333525
20
17.094197
30
0
11
0.198309672146238
21
-0.025947522680435
31
0
210
0
220
0
230
1
40
0.01715
41
0.000128612697652668
42
1.47811763731235
0
ELLIPSE
5
1EF
100
AcDbEntity
8
1
62
256
6
ByLayer
370
13
48
1
60
0
100
AcDbEllipse
10
252.350872
20
6.625962
30
0
11
-1.52607791223552
21
-1.67412290958091
31
0
210
0
220
0
230
1
40
0.751206
41
2.57996712273264
42
-2.78125477170152
0
ELLIPSE
5
1F0
100
AcDbEntity
8
1
62
256
6
ByLayer
370
13
48
1
60
0
100
AcDbEllipse
10
237.451633
20
16.072801
30
0
11
-0.148732254109673
21
0.0194606420103677
31
0
210
0
220
0
230
1
40
0.01715
41
1.47811763731161
42
3.04891396410683
0
ELLIPSE
5
1F1
100
AcDbEntity
8
1
62
256
6
ByLayer
370
13
48
1
60
0
100
AcDbEllipse
10
238.092616
20
6.397532
30
0
11
0.00653707867981016
21
-0.149857487641873
31
0
210
0
220
0
230
1
40
0.094105
41
-1.56997142650759
42
-0.0234595020654339
0
ELLIPSE
5
1F2
100
AcDbEntity
8
1
62
256
6
ByLayer
370
13
48
1
60
0
100
AcDbEllipse
10
252.228498
20
6.619549
30
0
11
0.10467191248589
21
-1.99725906950915
31
0
210
0
220
0
230
1
40
0.995562
41
2.05828056553723
42
2.7066247011559
0
ELLIPSE
5
1F3
100
AcDbEntity
8
1
62
256
6
ByLayer
370
13
48
1
60
0
100
AcDbEllipse
10
238.518229
20
24.224494
30
0
11
-0.0420204304819815
21
-0.159048282700627
31
0
210
0
220
0
230
1
40
0.081731
41
-3.11535881189192
42
-1.54456248511367
0
ELLIPSE
5
1F4
100
AcDbEntity
8
1
62
256
6
ByLayer
370
13
48
1
60
0
100
AcDbEllipse
10
237.382273
20
6.38799
30
0
11
-0.0042200033972645
21
-0.149940626820509
31
0
210
0
220
0
230
1
40
0.093806
41
-1.56322900126248
42
-0.0736942388980957
0
ELLIPSE
5
1F5
100
AcDbEntity
8
1
62
256
6
ByLayer
370
13
48
1
60
0
100
AcDbEllipse
10
256.134745
20
17.18847
30
0
11
-0.0287847759336171
21
0.549246244114998
31
0
210
0
220
0
230
1
40
0.995562
41
-1.75405589825453
42
-1.46607657167542
0
ELLIPSE
5
1F6
100
AcDbEntity
8
1
62
256
6
ByLayer
370
13
48
1
60
0
100
AcDbEllipse
10
238.518229
20
24.224494
30
0
11
-0.15745762778924
21
-0.0472734989148611
31
0
210
0
220
0
230
1
40
0.020424
41
-3.0580778280518
42
-1.48728150109166
0
ELLIPSE
5
1F7
100
AcDbEntity
8
1
62
256
6
ByLayer
370
13
48
1
60
0
100
AcDbEllipse
10
235.436294
20
15.845866
30
0
11
-0.148164061728345
21
-0.0233968120084617
31
0
210
0
220
0
230
1
40
0.009837
41
-1.47706181926821
42
0.0937345075141428
0
ELLIPSE
5
1F8
100
AcDbEntity
8
1
62
256
6
ByLayer
370
13
48
1
60
0
100
AcDbEllipse
10
251.775874
20
27.123961
30
0
11
0.117755901546626
21
-2.2469164531978
31
0
210
0
220
0
230
1
40
0.995562
41
0.730529197228013
42
1.32121290077164
0
ELLIPSE
5
1F9
100
AcDbEntity
8
1
62
256
6
ByLayer
370
13
48
1
60
0
100
AcDbEllipse
10
238.576349
20
24.284947
30
0
11
0.0052335956242943
21
-0.0998629534754539
31
0
210
0
220
0
230
1
40
0.995562
41
1.38753675533547
42
3.11795457934064
0
ELLIPSE
5
1FA
100
AcDbEntity
8
1
62
256
6
ByLayer
370
13
48
1
60
0
100
AcDbEllipse
10
254.503715
20
17.986537
30
0
11
0.465790010562209
21
-8.88780285931571
31
0
210
0
220
0
230
1
40
0.995562
41
3.06145142476619
42
3.11701412729376
0
ELLIPSE
5
1FB
100
AcDbEntity
8
1
62
256
6
ByLayer
370
13
48
1
60
0
100
AcDbEllipse
10
240.340668
20
5.996534
30
0
11
-0.104671912485884
21
1.99725906950915
31
0
210
0
220
0
230
1
40
0.995562
41
0
42
1.32121290077019
0
ELLIPSE
5
1FC
100
AcDbEntity
8
1
62
256
6
ByLayer
370
13
48
1
60
0
100
AcDbEllipse
10
255.667711
20
9.255551
30
0
11
-0.043388781844949
21
-0.261709360235778
31
0
210
0
220
0
230
1
40
0.938419
41
0.311574391696709
42
1.60722929333649
0
ELLIPSE
5
1FD
100
AcDbEntity
8
1
62
256
6
ByLayer
370
13
48
1
60
0
100
AcDbEllipse
10
253.075268
20
25.193734
30
0
11
0.010467191248589
21
-0.199725906950915
31
0
210
0
220
0
230
1
40
0.995562
41
3.14156912557336
42
-2.6064455590659
0
ELLIPSE
5
1FE
100
AcDbEntity
8
1
62
256
6
ByLayer
370
13
48
1
60
0
100
AcDbEllipse
10
253.266338
20
8.937984
30
0
11
0.010467191248589
21
-0.199725906950915
31
0
210
0
220
0
230
1
40
0.995562
41
-0.226119054301239
42
1.75822151909023E-05
0
ELLIPSE
5
1FF
100
AcDbEntity
8
1
62
256
6
ByLayer
370
13
48
1
60
0
100
AcDbEllipse
10
254.331622
20
17.237676
30
0
11
0.197552082304462
21
0.0311957493445969
31
0
210
0
220
0
230
1
40
0.009837
41
-1.47706181926912
42
8.3492161018961E-05
0
ELLIPSE
5
200
100
AcDbEntity
8
1
62
256
6
ByLayer
370
13
48
1
60
0
100
AcDbEllipse
10
254.728584
20
26.18322
30
0
11
0.0366351693700623
21
-0.699040674328219
31
0
210
0
220
0
230
1
40
0.995562
41
1.67551608191455
42
3.06145142476615
0
ELLIPSE
5
201
100
AcDbEntity
8
1
62
256
6
ByLayer
370
13
48
1
60
0
100
AcDbEllipse
10
251.79467
20
27.124946
30
0
11
-0.104671912485884
21
1.99725906950915
31
0
210
0
220
0
230
1
40
0.995562
41
-3.14159265358852
42
-1.82037975281689
0
ELLIPSE
5
202
100
AcDbEntity
8
1
62
256
6
ByLayer
370
13
48
1
60
0
100
AcDbEllipse
10
245.652645
20
24.479872
30
0
11
0.010467191248589
21
-0.199725906950915
31
0
210
0
220
0
230
1
40
0.094108
41
1.5707963267949
42
3.14159265358828
0
ELLIPSE
5
203
100
AcDbEntity
8
1
62
256
6
ByLayer
370
13
48
1
60
0
100
AcDbEllipse
10
256.69174
20
17.117294
30
0
11
0.148732254109678
21
-0.0194606420103264
31
0
210
0
220
0
230
1
40
0.01715
41
-1.66347501627592
42
-0.0926786894898942
0
ELLIPSE
5
204
100
AcDbEntity
8
1
62
256
6
ByLayer
370
13
48
1
60
0
100
AcDbEllipse
10
253.55429
20
8.836287
30
0
11
0.0052335956242943
21
-0.0998629534754539
31
0
210
0
220
0
230
1
40
0.995562
41
-1.7540558982523
42
0.113446401380594
0
ELLIPSE
5
205
100
AcDbEntity
8
1
62
256
6
ByLayer
370
13
48
1
60
0
100
AcDbEllipse
10
238.751095
20
26.441361
30
0
11
-1.90001443048676
21
1.34408422198011
31
0
210
0
220
0
230
1
40
0.758703
41
1.08025569956831
42
2.08597699581109
0
ELLIPSE
5
206
100
AcDbEntity
8
1
62
256
6
ByLayer
370
13
48
1
60
0
100
AcDbEllipse
10
255.26377
20
8.344344
30
0
11
-0.223427008536179
21
-1.09873081246311
31
0
210
0
220
0
230
1
40
0.060635
41
1.06536319164759
42
1.25922194498977
0
ELLIPSE
5
207
100
AcDbEntity
8
1
62
256
6
ByLayer
370
13
48
1
60
0
100
AcDbEllipse
10
236.469436
20
23.880045
30
0
11
0.00785039343644183
21
-0.149794430213188
31
0
210
0
220
0
230
1
40
0.995562
41
-3.028146252214
42
-1.75405589825547
0
ELLIPSE
5
208
100
AcDbEntity
8
1
62
256
6
ByLayer
370
13
48
1
60
0
100
AcDbEllipse
10
235.963001
20
15.931039
30
0
11
-0.0287847759336171
21
0.549246244114998
31
0
210
0
220
0
230
1
40
0.995562
41
1.38753675533521
42
1.67551608191437
0
ELLIPSE
5
209
100
AcDbEntity
8
1
62
256
6
ByLayer
370
13
48
1
60
0
100
AcDbEllipse
10
253.821185
20
17.158589
30
0
11
0.0444855628065033
21
-0.848835104541391
31
0
210
0
220
0
230
1
40
0.995562
41
1.38753675533548
42
1.67551608191464
0
ELLIPSE
5
20A
100
AcDbEntity
8
1
62
256
6
ByLayer
370
13
48
1
60
0
100
AcDbEllipse
10
238.869
20
24.183496
30
0
11
0.010467191248589
21
-0.199725906950915
31
0
210
0
220
0
230
1
40
0.995562
41
-3.14157046250216
42
-1.75405589825561
0
ELLIPSE
5
20B
100
AcDbEntity
8
1
62
256
6
ByLayer
370
13
48
1
60
0
100
AcDbEllipse
10
237.893833
20
6.388861
30
0
11
0.00653707867981016
21
-0.149857487641873
31
0
210
0
220
0
230
1
40
0.094105
41
-1.56997142650759
42
0.000824900288349361
0
ELLIPSE
5
20C
100
AcDbEntity
8
1
62
256
6
ByLayer
370
13
48
1
60
0
100
AcDbEllipse
10
255.132933
20
8.0492
30
0
11
-0.043388781856101
21
-0.261709360231983
31
0
210
0
220
0
230
1
40
0.938419
41
0.505433140734281
42
1.3019796221725
0
ELLIPSE
5
20D
100
AcDbEntity
8
1
62
256
6
ByLayer
370
13
48
1
60
0
100
AcDbEllipse
10
252.867557
20
6.65304
30
0
11
-0.104671912485884
21
1.99725906950915
31
0
210
0
220
0
230
1
40
0.995562
41
-0.289833749671455
42
1.37032354856794E-12
0
ELLIPSE
5
20E
100
AcDbEntity
8
1
62
256
6
ByLayer
370
13
48
1
60
0
100
AcDbEllipse
10
254.294412
20
24.983057
30
0
11
-0.091587923425148
21
1.7476016858205
31
0
210
0
220
0
230
1
40
0.995562
41
-0.0245785262959882
42
-0.00872664625995611
0
ELLIPSE
5
20F
100
AcDbEntity
8
1
62
256
6
ByLayer
370
13
48
1
60
0
100
AcDbEllipse
10
256.148842
20
17.189209
30
0
11
0.0366351693700605
21
-0.699040674328184
31
0
210
0
220
0
230
1
40
0.995562
41
1.38753675533531
42
1.67551608191439
0
ELLIPSE
5
210
100
AcDbEntity
8
1
62
256
6
ByLayer
370
13
48
1
60
0
100
AcDbEllipse
10
255.132933
20
8.0492
30
0
11
-0.0433887801099562
21
-0.261709361030021
31
0
210
0
220
0
230
1
40
0.938419
41
0.311574384925439
42
0.505433133718068
0
ELLIPSE
5
211
100
AcDbEntity
8
1
62
256
6
ByLayer
370
13
48
1
60
0
100
AcDbEllipse
10
238.813506
20
7.574249
30
0
11
0.0052335956242952
21
-0.099862953475471
31
0
210
0
220
0
230
1
40
0.995562
41
0.718961233329705
42
1.67551608191246
0
ELLIPSE
5
212
100
AcDbEntity
8
1
62
256
6
ByLayer
370
13
48
1
60
0
100
AcDbEllipse
10
251.79467
20
27.124946
30
0
11
-0.109905508110178
21
2.09712202298461
31
0
210
0
220
0
230
1
40
0.995562
41
-2.42263142025901
42
-1.82037975281684
0
ELLIPSE
5
213
100
AcDbEntity
8
1
62
256
6
ByLayer
370
13
48
1
60
0
100
AcDbEllipse
10
253.075268
20
25.193734
30
0
11
-0.197552082304459
21
-0.0311957493446158
31
0
210
0
220
0
230
1
40
0.009837
41
1.66453083432223
42
-3.14150916127528
0
ELLIPSE
5
214
100
AcDbEntity
8
1
62
256
6
ByLayer
370
13
48
1
60
0
100
AcDbEllipse
10
237.803334
20
8.136453
30
0
11
-0.091587923425148
21
1.7476016858205
31
0
210
0
220
0
230
1
40
0.995562
41
3.11701412729374
42
3.13286600732977
0
ELLIPSE
5
215
100
AcDbEntity
8
1
62
256
6
ByLayer
370
13
48
1
60
0
100
AcDbEllipse
10
246.482693
20
8.641608
30
0
11
0.010467191248589
21
-0.199725906950915
31
0
210
0
220
0
230
1
40
0.094108
41
0
42
1.5707963267949
0
ELLIPSE
5
216
100
AcDbEntity
8
1
62
256
6
ByLayer
370
13
48
1
60
0
100
AcDbEllipse
10
236.464737
20
23.879799
30
0
11
0.0248313114070528
21
-0.147930409226115
31
0
210
0
220
0
230
1
40
0.093503
41
-3.04696247449487
42
-1.58149677266258
0
ELLIPSE
5
217
100
AcDbEntity
8
1
62
256
6
ByLayer
370
13
48
1
60
0
100
AcDbEllipse
10
253.607711
20
8.896493
30
0
11
-0.0420204304815048
21
-0.1590482826981
31
0
210
0
220
0
230
1
40
0.081731
41
-1.54456248510255
42
0.0262338416927322
0
ELLIPSE
5
218
100
AcDbEntity
8
1
62
256
6
ByLayer
370
13
48
1
60
0
100
AcDbEllipse
10
237.454869
20
15.828887
30
0
11
-0.148164061728345
21
-0.0233968120084617
31
0
210
0
220
0
230
1
40
0.009837
41
-3.04785814606477
42
-1.47706181926945
0
ELLIPSE
5
219
100
AcDbEntity
8
1
62
256
6
ByLayer
370
13
48
1
60
0
100
AcDbEllipse
10
253.075268
20
25.193734
30
0
11
-0.111182483439504
21
0.166248174053806
31
0
210
0
220
0
230
1
40
0.080951
41
-1.61896516661977
42
-0.0481688398260118
0
ELLIPSE
5
21A
100
AcDbEntity
8
1
62
256
6
ByLayer
370
13
48
1
60
0
100
AcDbEllipse
10
253.983564
20
26.68513
30
0
11
0.0126644888425917
21
-0.241652842685696
31
0
210
0
220
0
230
1
40
0.995562
41
-2.96705972838926
42
-1.82037975281701
0
ELLIPSE
5
21B
100
AcDbEntity
8
1
62
256
6
ByLayer
370
13
48
1
60
0
100
AcDbEllipse
10
238.290657
20
15.96166
30
0
11
-0.0366351693700595
21
0.699040674328205
31
0
210
0
220
0
230
1
40
0.995562
41
1.38753675533544
42
1.67551608191459
0
ELLIPSE
5
21C
100
AcDbEntity
8
1
62
256
6
ByLayer
370
13
48
1
60
0
100
AcDbEllipse
10
253.839981
20
17.159574
30
0
11
0.0366351693700616
21
-0.699040674328205
31
0
210
0
220
0
230
1
40
0.995562
41
1.38753675533548
42
1.67551608191464
0
ELLIPSE
5
21D
100
AcDbEntity
8
1
62
256
6
ByLayer
370
13
48
1
60
0
100
AcDbEllipse
10
253.607711
20
8.896493
30
0
11
-0.157457627846834
21
-0.0472734989319987
31
0
210
0
220
0
230
1
40
0.020424
41
-1.48728150103949
42
0.0835148255185493
0
ELLIPSE
5
21E
100
AcDbEntity
8
1
62
256
6
ByLayer
370
13
48
1
60
0
100
AcDbEllipse
10
237.626923
20
15.134697
30
0
11
0.465790010562209
21
-8.88780285931571
31
0
210
0
220
0
230
1
40
0.995562
41
-0.0801412288249881
42
-0.0245785262974218
0
ELLIPSE
5
21F
100
AcDbEntity
8
1
62
256
6
ByLayer
370
13
48
1
60
0
100
AcDbEllipse
10
238.139249
20
6.437676
30
0
11
-0.147123305935862
21
0.0292358145175167
31
0
210
0
220
0
230
1
40
0.023245
41
1.47945230342085
42
3.05024863021643
0
ELLIPSE
5
220
100
AcDbEntity
8
1
62
256
6
ByLayer
370
13
48
1
60
0
100
AcDbEllipse
10
245.981192
20
16.556208
30
0
11
0.156043507061197
21
-2.97748748746713
31
0
210
0
220
0
230
1
40
0.995562
41
0
42
6.28318530717959
0
ELLIPSE
5
221
100
AcDbEntity
8
1
62
256
6
ByLayer
370
13
48
1
60
0
100
AcDbEllipse
10
238.295356
20
15.961906
30
0
11
0.0366351693700616
21
-0.699040674328205
31
0
210
0
220
0
230
1
40
0.995562
41
-1.75405589825431
42
-1.46607657167524
0
ELLIPSE
5
222
100
AcDbEntity
8
1
62
256
6
ByLayer
370
13
48
1
60
0
100
AcDbEllipse
10
236.464737
20
23.879799
30
0
11
-0.148732254109673
21
0.0194606420103677
31
0
210
0
220
0
230
1
40
0.01715
41
0.265915951144275
42
1.47811763731237
0
ELLIPSE
5
223
100
AcDbEntity
8
1
62
256
6
ByLayer
370
13
48
1
60
0
100
AcDbEllipse
10
254.040205
20
26.673749
30
0
11
0.0104671912485892
21
-0.19972590695092
31
0
210
0
220
0
230
1
40
0.995562
41
3.13286600733252
42
-1.82037975281666
0
ELLIPSE
5
224
100
AcDbEntity
8
1
62
256
6
ByLayer
370
13
48
1
60
0
100
AcDbEllipse
10
254.733283
20
26.183466
30
0
11
0.0366351693700623
21
-0.699040674328219
31
0
210
0
220
0
230
1
40
0.995562
41
1.67551608191586
42
3.0614514247675
0
ELLIPSE
5
225
100
AcDbEntity
8
1
62
256
6
ByLayer
370
13
48
1
60
0
100
AcDbEllipse
10
255.661203
20
9.241188
30
0
11
-0.0248313114070693
21
0.147930409226113
31
0
210
0
220
0
230
1
40
0.093503
41
1.56009588093782
42
3.1308922077277
0
ELLIPSE
5
226
100
AcDbEntity
8
1
62
256
6
ByLayer
370
13
48
1
60
0
100
AcDbEllipse
10
238.314152
20
15.962891
30
0
11
-0.0261679781214711
21
0.49931476737729
31
0
210
0
220
0
230
1
40
0.995562
41
1.38753675533542
42
1.67551608191459
0
ELLIPSE
5
227
100
AcDbEntity
8
1
62
256
6
ByLayer
370
13
48
1
60
0
100
AcDbEllipse
10
246.006755
20
16.557548
30
0
11
0.16148876483007
21
-3.08138919525491
31
0
210
0
220
0
230
1
40
0.995562
41
-0.832617303636134
42
0
0
ELLIPSE
5
228
100
AcDbEntity
8
1
62
256
6
ByLayer
370
13
48
1
60
0
100
AcDbEllipse
10
246.006755
20
16.557548
30
0
11
0.16148876483007
21
-3.08138919525491
31
0
210
0
220
0
230
1
40
0.995562
41
0
42
-2.30896949140971
0
ELLIPSE
5
229
100
AcDbEntity
8
1
62
256
6
ByLayer
370
13
48
1
60
0
100
AcDbEllipse
10
251.984943
20
27.134927
30
0
11
-2.31072731912126
21
-1.76941823731208
31
0
210
0
220
0
230
1
40
0.473314
41
1.89963900924478
42
1.92529662802836
0
ELLIPSE
5
22A
100
AcDbEntity
8
1
62
256
6
ByLayer
370
13
48
1
60
0
100
AcDbEllipse
10
254.674306
20
17.048186
30
0
11
0.148732254109678
21
-0.0194606420103264
31
0
210
0
220
0
230
1
40
0.01715
41
-2.8547288977245
42
-1.66347501627384
0
ELLIPSE
5
22B
100
AcDbEntity
8
1
62
256
6
ByLayer
370
13
48
1
60
0
100
AcDbEllipse
10
255.440778
20
7.501791
30
0
11
-0.0190934195957108
21
-0.501606840112606
31
0
210
0
220
0
230
1
40
0.197189
41
-0.688891549971409
42
-0.331191944134453
0
ELLIPSE
5
22C
100
AcDbEntity
8
1
62
256
6
ByLayer
370
13
48
1
60
0
100
AcDbEllipse
10
240.762681
20
6.768427
30
0
11
0.363113722374517
21
-0.931744828063629
31
0
210
0
220
0
230
1
40
0.089392
41
-1.60033673645362
42
-0.0295404096585964
0
ELLIPSE
5
22D
100
AcDbEntity
8
1
62
256
6
ByLayer
370
13
48
1
60
0
100
AcDbEllipse
10
256.811384
20
0
30
0
11
-55.2039334557129
21
23.7143947283202
31
0
210
0
220
0
230
1
40
0.195513
41
0.889672474056421
42
1.10944062068081
0
ELLIPSE
5
22E
100
AcDbEntity
8
1
62
256
6
ByLayer
370
13
48
1
60
0
100
AcDbEllipse
10
229
20
7.030271
30
0
11
-4
21
4.04255622032945E-15
31
0
210
0
220
0
230
1
40
0.760467
41
-2.61116550300025
42
-1.69131192002736
0
ELLIPSE
5
22F
100
AcDbEntity
8
1
62
256
6
ByLayer
370
13
48
1
60
0
100
AcDbEllipse
10
260.715302
20
0.785327
30
0
11
-6.03300378199247
21
-0.0231529392233647
31
0
210
0
220
0
230
1
40
0.987588
41
0.0314665319062097
42
0.152440853626293
0
ELLIPSE
5
230
100
AcDbEntity
8
1
62
256
6
ByLayer
370
13
48
1
60
0
100
AcDbEllipse
10
237.518224
20
15.1591
30
0
11
0.523359562429448
21
-9.98629534754574
31
0
210
0
220
0
230
1
40
0.995562
41
-5.9690215912664E-07
42
0.317924582301151
0
ELLIPSE
5
231
100
AcDbEntity
8
1
62
256
6
ByLayer
370
13
48
1
60
0
100
AcDbEllipse
10
245.541145
20
7.771138
30
0
11
-4.04277875885895
21
-0.708917705789808
31
0
210
0
220
0
230
1
40
0.014774
41
-3.02036303291213
42
-2.68601592129831
0
ELLIPSE
5
232
100
AcDbEntity
8
1
62
256
6
ByLayer
370
13
48
1
60
0
100
AcDbEllipse
10
250.033575
20
-8.828163
30
0
11
-6.03300383521788
21
-0.0231531524453786
31
0
210
0
220
0
230
1
40
0.987587
41
3.00761012726345
42
-2.98915183551723
0
ELLIPSE
5
233
100
AcDbEntity
8
1
62
256
6
ByLayer
370
13
48
1
60
0
100
AcDbEllipse
10
244.728129
20
-3.486841
30
0
11
-0.523359562429419
21
9.98629534754574
31
0
210
0
220
0
230
1
40
0.995562
41
0
42
0.317924582301158
0
ELLIPSE
5
234
100
AcDbEntity
8
1
62
256
6
ByLayer
370
13
48
1
60
0
100
AcDbEllipse
10
240.85448
20
7.52552
30
0
11
-0.318066032313786
21
-0.395588740071236
31
0
210
0
220
0
230
1
40
0.965978
41
-2.06962855847402
42
-1.29736636153833
0
ELLIPSE
5
235
100
AcDbEntity
8
1
62
256
6
ByLayer
370
13
48
1
60
0
100
AcDbEllipse
10
234.900521
20
6.553072
30
0
11
-0.293740802135514
21
-0.955885108766104
31
0
210
0
220
0
230
1
40
0.088433
41
-1.53847716189229
42
-7.17550741000096E-06
0
ELLIPSE
5
236
100
AcDbEntity
8
1
62
256
6
ByLayer
370
13
48
1
60
0
100
AcDbEllipse
10
244.634149
20
-3.491766
30
0
11
0.575695518672392
21
-10.9849248823003
31
0
210
0
220
0
230
1
40
0.995562
41
-3.14159265358977
42
-2.82366807128864
0
ELLIPSE
5
237
100
AcDbEntity
8
1
62
256
6
ByLayer
370
13
48
1
60
0
100
AcDbEllipse
10
235.095321
20
11.197691
30
0
11
-0.026167978121471
21
0.499314767377288
31
0
210
0
220
0
230
1
40
0.995562
41
-2.31498441521963
42
-1.46607657167532
0
ELLIPSE
5
238
100
AcDbEntity
8
1
62
256
6
ByLayer
370
13
48
1
60
0
100
AcDbEllipse
10
255.24949
20
-2.555314
30
0
11
-2.68934221456248
21
4.53237200764489
31
0
210
0
220
0
230
1
40
0.340196
41
-1.01883025626398
42
-0.882465343290207
0
ELLIPSE
5
239
100
AcDbEntity
8
1
62
256
6
ByLayer
370
13
48
1
60
0
100
AcDbEllipse
10
236.847889
20
8.847643
30
0
11
-2.74310165148817
21
2.20554168965694
31
0
210
0
220
0
230
1
40
0.772244
41
3.13694524741092
42
-2.77548047983143
0
ELLIPSE
5
23A
100
AcDbEntity
8
1
62
256
6
ByLayer
370
13
48
1
60
0
100
AcDbEllipse
10
245.798362
20
-7.754077
30
0
11
2
21
0
31
0
210
0
220
0
230
1
40
0.993027
41
0.324860447409082
42
2.82291744295563
0
ELLIPSE
5
23B
100
AcDbEntity
8
1
62
256
6
ByLayer
370
13
48
1
60
0
100
AcDbEllipse
10
254.956018
20
-18.047907
30
0
11
-0.0633283925922673
21
-0.51583581673408
31
0
210
0
220
0
230
1
40
0.114628
41
-1.65479541513924
42
-0.0839990883465502
0
ELLIPSE
5
23C
100
AcDbEntity
8
1
62
256
6
ByLayer
370
13
48
1
60
0
100
AcDbEllipse
10
255.177064
20
0.113775
30
0
11
-0.0113352524463659
21
0.505674831054183
31
0
210
0
220
0
230
1
40
0.101978
41
-0.132823370409256
42
0.273607752062403
0
ELLIPSE
5
23D
100
AcDbEntity
8
1
62
256
6
ByLayer
370
13
48
1
60
0
100
AcDbEllipse
10
237.179224
20
8.865008
30
0
11
-0.136073486231649
21
2.59643679036189
31
0
210
0
220
0
230
1
40
0.995562
41
2.40144888609817
42
2.9799801399012
0
ELLIPSE
5
23E
100
AcDbEntity
8
1
62
256
6
ByLayer
370
13
48
1
60
0
100
AcDbEllipse
10
237.179224
20
8.865008
30
0
11
-0.136073486231649
21
2.59643679036189
31
0
210
0
220
0
230
1
40
0.995562
41
-2.68543658663368
42
-2.07675099364108
0
ELLIPSE
5
23F
100
AcDbEntity
8
1
62
256
6
ByLayer
370
13
48
1
60
0
100
AcDbEllipse
10
252.60901
20
8.141549
30
0
11
-0.026167978121471
21
0.499314767377289
31
0
210
0
220
0
230
1
40
0.995562
41
-0.998377754702121
42
-0.927295218001587
0
ELLIPSE
5
240
100
AcDbEntity
8
1
62
256
6
ByLayer
370
13
48
1
60
0
100
AcDbEllipse
10
255.196775
20
10.229844
30
0
11
-0.0983463075673028
21
3.09891830238438
31
0
210
0
220
0
230
1
40
0.524517
41
2.87119974716037
42
-3.13383484963444
0
ELLIPSE
5
241
100
AcDbEntity
8
1
62
256
6
ByLayer
370
13
48
1
60
0
100
AcDbEllipse
10
266.651471
20
0.000343
30
0
11
-278.873154007643
21
0.13136412760142
31
0
210
0
220
0
230
1
40
0.094395
41
-1.46113147744268
42
-1.45173501373742
0
ELLIPSE
5
242
100
AcDbEntity
8
1
62
256
6
ByLayer
370
13
48
1
60
0
100
AcDbEllipse
10
254.781506
20
8.05513
30
0
11
-0.0204031419998127
21
1.00029744497803
31
0
210
0
220
0
230
1
40
0.104754
41
-3.13824300314359
42
-2.54338262159529
0
ELLIPSE
5
243
100
AcDbEntity
8
1
62
256
6
ByLayer
370
13
48
1
60
0
100
AcDbEllipse
10
241.175737
20
7.542357
30
0
11
-0.0261679781214709
21
0.499314767377287
31
0
210
0
220
0
230
1
40
0.995562
41
0.927295216956018
42
1.13183444118519
0
ELLIPSE
5
244
100
AcDbEntity
8
1
62
256
6
ByLayer
370
13
48
1
60
0
100
AcDbEllipse
10
229
20
0.454532
30
0
11
-0.604370540043905
21
16.7273515539932
31
0
210
0
220
0
230
1
40
0.35687
41
-0.538918539461998
42
-0.37431736278251
0
ELLIPSE
5
245
100
AcDbEntity
8
1
62
256
6
ByLayer
370
13
48
1
60
0
100
AcDbEllipse
10
254.212006
20
-17.941261
30
0
11
-0.291069012190279
21
-2.49508195625977
31
0
210
0
220
0
230
1
40
0.118745
41
0
42
6.28318530717959
0
ELLIPSE
5
246
100
AcDbEntity
8
1
62
256
6
ByLayer
370
13
48
1
60
0
100
AcDbEllipse
10
237.855876
20
8.90047
30
0
11
0.162241464353129
21
-3.09575155773918
31
0
210
0
220
0
230
1
40
0.995562
41
0.615809199294147
42
1.13183444118515
0
ELLIPSE
5
247
100
AcDbEntity
8
1
62
256
6
ByLayer
370
13
48
1
60
0
100
AcDbEllipse
10
237.586953
20
8.886376
30
0
11
-1.97200940109198
21
-2.45265018841956
31
0
210
0
220
0
230
1
40
0.965978
41
1.5573641761744
42
1.84422629220828
0
ELLIPSE
5
248
100
AcDbEntity
8
1
62
256
6
ByLayer
370
13
48
1
60
0
100
AcDbEllipse
10
255.281218
20
0.104442
30
0
11
-0.0226705049094338
21
1.01134966265664
31
0
210
0
220
0
230
1
40
0.101978
41
-0.132823370373284
42
1.05031271606908
0
ELLIPSE
5
249
100
AcDbEntity
8
1
62
256
6
ByLayer
370
13
48
1
60
0
100
AcDbEllipse
10
237.090465
20
7.328257
30
0
11
-4.04277875769486
21
-0.708917705581353
31
0
210
0
220
0
230
1
40
0.014774
41
-3.0203630325438
42
-2.66133983537805
0
ELLIPSE
5
24A
100
AcDbEntity
8
1
62
256
6
ByLayer
370
13
48
1
60
0
100
AcDbEllipse
10
255.515532
20
10.246549
30
0
11
0.162241464353129
21
-3.09575155773918
31
0
210
0
220
0
230
1
40
0.995562
41
-0.998377754702074
42
-0.804393367027793
0
ELLIPSE
5
24B
100
AcDbEntity
8
1
62
256
6
ByLayer
370
13
48
1
60
0
100
AcDbEllipse
10
239.516814
20
7.141549
30
0
11
1.49975373857393
21
0.0271794707661346
31
0
210
0
220
0
230
1
40
0.340502
41
-1.53279213817638
42
-1.51222596035922
0
ELLIPSE
5
24C
100
AcDbEntity
8
1
62
256
6
ByLayer
370
13
48
1
60
0
100
AcDbEllipse
10
257.842044
20
0
30
0
11
-3.16017487837174
21
-26.3223547348458
31
0
210
0
220
0
230
1
40
0.11809
41
-1.27560539491149
42
-0.0998073674592576
0
ELLIPSE
5
24D
100
AcDbEntity
8
1
62
256
6
ByLayer
370
13
48
1
60
0
100
AcDbEllipse
10
3519.077737
20
-1.515574
30
0
11
-3411.34964374886
21
1.59120180215593
31
0
210
0
220
0
230
1
40
0.028476
41
-0.272416870722223
42
-0.269129194858003
0
ELLIPSE
5
24E
100
AcDbEntity
8
1
62
256
6
ByLayer
370
13
48
1
60
0
100
AcDbEllipse
10
229
20
6.42384
30
0
11
-5.85795587584252
21
1.82372755812514
31
0
210
0
220
0
230
1
40
0.711634
41
1.39098853638276
42
1.59009981310186
0
ELLIPSE
5
24F
100
AcDbEntity
8
1
62
256
6
ByLayer
370
13
48
1
60
0
100
AcDbEllipse
10
248.067166
20
11.308187
30
0
11
-1.9720094007312
21
-2.45265018820052
31
0
210
0
220
0
230
1
40
0.965978
41
0.712391850985389
42
1.04314259877756
0
ELLIPSE
5
250
100
AcDbEntity
8
1
62
256
6
ByLayer
370
13
48
1
60
0
100
AcDbEllipse
10
237.424245
20
15.154175
30
0
11
-0.471023606186477
21
8.98766581279117
31
0
210
0
220
0
230
1
40
0.995562
41
-2.92946901796116
42
-2.82366807128864
0
ELLIPSE
5
251
100
AcDbEntity
8
1
62
256
6
ByLayer
370
13
48
1
60
0
100
AcDbEllipse
10
255.402484
20
6.472316
30
0
11
-0.0102015709967213
21
0.50014872243291
31
0
210
0
220
0
230
1
40
0.104754
41
1.9232118276416
42
-2.78917715274552
0
ELLIPSE
5
252
100
AcDbEntity
8
1
62
256
6
ByLayer
370
13
48
1
60
0
100
AcDbEllipse
10
237.254204
20
0
30
0
11
-1.39205602597575
21
26.324672028509
31
0
210
0
220
0
230
1
40
0.094396
41
-0.109665635342417
42
-0.00499363450229935
0
ELLIPSE
5
253
100
AcDbEntity
8
1
62
256
6
ByLayer
370
13
48
1
60
0
100
AcDbEllipse
10
255.129808
20
0
30
0
11
-4.4987755538043
21
26.3223248074616
31
0
210
0
220
0
230
1
40
0.083421
41
1.57804725118626
42
1.7679403781956
0
ELLIPSE
5
254
100
AcDbEntity
8
1
62
256
6
ByLayer
370
13
48
1
60
0
100
AcDbEllipse
10
237.883294
20
16.521158
30
0
11
0.162241464353129
21
-3.09575155773918
31
0
210
0
220
0
230
1
40
0.995562
41
-2.23430559079013
42
-1.46607657167524
0
ELLIPSE
5
255
100
AcDbEntity
8
1
62
256
6
ByLayer
370
13
48
1
60
0
100
AcDbEllipse
10
237.855876
20
8.90047
30
0
11
0.162241464353129
21
-3.09575155773918
31
0
210
0
220
0
230
1
40
0.995562
41
-2.31498441521961
42
-0.582560016270173
0
ELLIPSE
5
256
100
AcDbEntity
8
1
62
256
6
ByLayer
370
13
48
1
60
0
100
AcDbEllipse
10
237.226214
20
8.867471
30
0
11
0.162241464353129
21
-3.09575155773918
31
0
210
0
220
0
230
1
40
0.995562
41
0.0839997461782094
42
1.07850402440022
0
ELLIPSE
5
257
100
AcDbEntity
8
1
62
256
6
ByLayer
370
13
48
1
60
0
100
AcDbEllipse
10
266.65189
20
-1E-06
30
0
11
-276.014758119915
21
0.130056917061353
31
0
210
0
220
0
230
1
40
0.094396
41
-1.43953947034872
42
-1.41695686359402
0
ELLIPSE
5
258
100
AcDbEntity
8
1
62
256
6
ByLayer
370
13
48
1
60
0
100
AcDbEllipse
10
271.708871
20
12.55524
30
0
11
-25.1272836518165
21
-4.40658342029565
31
0
210
0
220
0
230
1
40
0.014761
41
0.450894872738867
42
0.455034613353168
0
ELLIPSE
5
259
100
AcDbEntity
8
1
62
256
6
ByLayer
370
13
48
1
60
0
100
AcDbEllipse
10
190.039305
20
0
30
0
11
-278.875006749779
21
0.131404460402133
31
0
210
0
220
0
230
1
40
0.094396
41
-1.79711451388374
42
-1.73919037678683
0
ELLIPSE
5
25A
100
AcDbEntity
8
1
62
256
6
ByLayer
370
13
48
1
60
0
100
AcDbEllipse
10
244.152433
20
7.498084
30
0
11
0.0523359562429448
21
-0.998629534754574
31
0
210
0
220
0
230
1
40
0.094108
41
-1.5707963267949
42
0
0
ELLIPSE
5
25B
100
AcDbEntity
8
1
62
256
6
ByLayer
370
13
48
1
60
0
100
AcDbEllipse
10
245.798362
20
-7.754077
30
0
11
-2.1
21
2.12234201567296E-15
31
0
210
0
220
0
230
1
40
0.993027
41
-2.77677526708981
42
-0.381409158726924
0
ELLIPSE
5
25C
100
AcDbEntity
8
1
62
256
6
ByLayer
370
13
48
1
60
0
100
AcDbEllipse
10
258.970998
20
2.726743
30
0
11
-5.90255131646396
21
-1.86895286887896
31
0
210
0
220
0
230
1
40
0.801564
41
-0.368759056109041
42
-0.221206986668361
0
ELLIPSE
5
25D
100
AcDbEntity
8
1
62
256
6
ByLayer
370
13
48
1
60
0
100
AcDbEllipse
10
237.424245
20
15.154175
30
0
11
-0.471023606186477
21
8.98766581279117
31
0
210
0
220
0
230
1
40
0.995562
41
2.79252680319577
42
2.96271820098514
0
ELLIPSE
5
25E
100
AcDbEntity
8
1
62
256
6
ByLayer
370
13
48
1
60
0
100
AcDbEllipse
10
2509.255107
20
5.4E-05
30
0
11
-4391.44111053918
21
22.2899113764834
31
0
210
0
220
0
230
1
40
0.00319
41
1.02604859206685
42
1.03121322709674
0
POINT
5
70
100
AcDbEntity
8
1
62
256
6
ByLayer
370
18
48
1
60
0
100
AcDbPoint
10
0
20
0
30
0
39
0
210
0
220
0
230
1
50
360
0
POINT
5
72
100
AcDbEntity
8
80
62
256
6
ByLayer
370
18
48
1
60
0
100
AcDbPoint
10
0
20
0
30
0
39
0
210
0
220
0
230
1
50
360
0
POINT
5
74
100
AcDbEntity
8
81
62
256
6
ByLayer
370
18
48
1
60
0
100
AcDbPoint
10
257
20
0
30
0
39
0
210
0
220
0
230
1
50
360
0
POINT
5
76
100
AcDbEntity
8
1
62
256
6
ByLayer
370
18
48
1
60
1
100
AcDbPoint
10
0
20
-31.25
30
0
39
0
210
0
220
0
230
1
50
360
0
POINT
5
77
100
AcDbEntity
8
1
62
256
6
ByLayer
370
18
48
1
60
1
100
AcDbPoint
10
257
20
-27
30
0
39
0
210
0
220
0
230
1
50
360
0
POINT
5
78
100
AcDbEntity
8
1
62
256
6
ByLayer
370
18
48
1
60
1
100
AcDbPoint
10
-80
20
-25
30
0
39
0
210
0
220
0
230
1
50
360
0
POINT
5
79
100
AcDbEntity
8
1
62
256
6
ByLayer
370
18
48
1
60
1
100
AcDbPoint
10
0
20
-31.25
30
0
39
0
210
0
220
0
230
1
50
360
0
POINT
5
7A
100
AcDbEntity
8
1
62
256
6
ByLayer
370
18
48
1
60
1
100
AcDbPoint
10
257
20
-27
30
0
39
0
210
0
220
0
230
1
50
360
0
POINT
5
7B
100
AcDbEntity
8
1
62
256
6
ByLayer
370
18
48
1
60
1
100
AcDbPoint
10
6.1102
20
-31.25
30
0
39
0
210
0
220
0
230
1
50
360
0
POINT
5
7C
100
AcDbEntity
8
1
62
256
6
ByLayer
370
18
48
1
60
1
100
AcDbPoint
10
36
20
-27
30
0
39
0
210
0
220
0
230
1
50
360
0
POINT
5
7D
100
AcDbEntity
8
1
62
256
6
ByLayer
370
18
48
1
60
1
100
AcDbPoint
10
257
20
-27
30
0
39
0
210
0
220
0
230
1
50
360
0
POINT
5
7E
100
AcDbEntity
8
1
62
256
6
ByLayer
370
18
48
1
60
1
100
AcDbPoint
10
255.4109
20
-13.5
30
0
39
0
210
0
220
0
230
1
50
360
0
SPLINE
5
25F
100
AcDbEntity
8
SK1
62
256
6
ByLayer
370
13
48
1
60
0
100
AcDbSpline
70
4
71
3
72
8
73
4
40
0
40
0
40
0
40
0
40
1
40
1
40
1
40
1
41
1
10
-78.5999993841624
20
10.6704826507521
30
0
41
1
10
-78.571842816211
20
10.5890315497
30
0
41
1
10
-78.5439155289718
20
10.5074810741399
30
0
41
1
10
-78.5162221138982
20
10.4258292340508
30
0
0
SPLINE
5
260
100
AcDbEntity
8
SK1
62
256
6
ByLayer
370
13
48
1
60
0
100
AcDbSpline
70
4
71
3
72
74
73
70
40
0
40
0
40
0
40
0
40
0.0156249999999999
40
0.0156249999999999
40
0.0234374999999999
40
0.0234374999999999
40
0.0312499999999998
40
0.0312499999999998
40
0.0468749999999997
40
0.0468749999999997
40
0.0624999999999996
40
0.0624999999999996
40
0.0781249999999995
40
0.0781249999999995
40
0.0937499999999994
40
0.0937499999999994
40
0.124999999999999
40
0.124999999999999
40
0.140624999999999
40
0.140624999999999
40
0.156249999999999
40
0.156249999999999
40
0.187499999999999
40
0.187499999999999
40
0.249999999999999
40
0.249999999999999
40
0.281249999999999
40
0.281249999999999
40
0.312499999999999
40
0.312499999999999
40
0.374999999999999
40
0.374999999999999
40
0.437499999999999
40
0.437499999999999
40
0.499999999999999
40
0.499999999999999
40
0.562499999999999
40
0.562499999999999
40
0.593749999999999
40
0.593749999999999
40
0.624999999999999
40
0.624999999999999
40
0.687499999999999
40
0.687499999999999
40
0.749999999999999
40
0.749999999999999
40
0.781249999999999
40
0.781249999999999
40
0.812499999999999
40
0.812499999999999
40
0.84375
40
0.84375
40
0.875
40
0.875
40
0.90625
40
0.90625
40
0.9375
40
0.9375
40
0.9453125
40
0.9453125
40
0.953125
40
0.953125
40
0.96875
40
0.96875
40
0.984375
40
0.984375
40
0.9921875
40
0.9921875
40
1
40
1
40
1
40
1
41
1
10
-6.50000000009537
20
10.670482650752
30
0
41
1
10
-6.37048388891068
20
10.6704826507608
30
0
41
1
10
-6.24446776465052
20
10.6528697557375
30
0
41
1
10
-6.06010517952292
20
10.6029156441243
30
0
41
1
10
-5.99927461449792
20
10.5821925812253
30
0
41
1
10
-5.88223506583904
20
10.5345394314587
30
0
41
1
10
-5.82559748012396
20
10.5075199899682
30
0
41
1
10
-5.66065779452136
20
10.417975973631
30
0
41
1
10
-5.55712762892128
20
10.3466184036529
30
0
41
1
10
-5.36736536971405
20
10.1913586531549
30
0
41
1
10
-5.27997153671004
20
10.1068512703449
30
0
41
1
10
-5.11666218977227
20
9.92704332772249
30
0
41
1
10
-5.04055810401205
20
9.83130794393438
30
0
41
1
10
-4.90046448763793
20
9.63491798753748
30
0
41
1
10
-4.83603834410378
20
9.5338271584321
30
0
41
1
10
-4.65598112089407
20
9.22347109153861
30
0
41
1
10
-4.55339976152399
20
9.00719880738419
30
0
41
1
10
-4.41750582616754
20
8.67228763084432
30
0
41
1
10
-4.37530268897782
20
8.55891791867154
30
0
41
1
10
-4.29686000058592
20
8.33134323345735
30
0
41
1
10
-4.26049265592715
20
8.21682554312125
30
0
41
1
10
-4.1585724311424
20
7.87130398108656
30
0
41
1
10
-4.10013853486055
20
7.63834185023578
30
0
41
1
10
-3.94578977994675
20
6.93282891322849
30
0
41
1
10
-3.87048459563749
20
6.45370790232082
30
0
41
1
10
-3.78175631324949
20
5.72457369042988
30
0
41
1
10
-3.75634074966133
20
5.47976683985843
30
0
41
1
10
-3.7120067271199
20
4.98691048522593
30
0
41
1
10
-3.69308648223611
20
4.73862820397792
30
0
41
1
10
-3.64424139462162
20
3.99444565639502
30
0
41
1
10
-3.62191393829291
20
3.49753056604814
30
0
41
1
10
-3.58913059568964
20
2.50225576491911
30
0
41
1
10
-3.57872244966512
20
2.00389538867495
30
0
41
1
10
-3.56529013292472
20
1.00580199142325
30
0
41
1
10
-3.56228022077386
20
0.506068785393097
30
0
41
1
10
-3.56223334097642
20
-0.494754197166372
30
0
41
1
10
-3.56519357916225
20
-0.995843898846687
30
0
41
1
10
-3.57526735092097
20
-1.74852495498422
30
0
41
1
10
-3.57958751937886
20
-1.99959349362723
30
0
41
1
10
-3.59064705878916
20
-2.50209075145548
30
0
41
1
10
-3.59739709579894
20
-2.75385038007658
30
0
41
1
10
-3.62227132036486
20
-3.50710000839359
30
0
41
1
10
-3.64484459181701
20
-4.00580366741292
30
0
41
1
10
-3.71010606722081
20
-4.99571816607531
30
0
41
1
10
-3.75268745857275
20
-5.48693664959626
30
0
41
1
10
-3.84180186701059
20
-6.21737273914593
30
0
41
1
10
-3.87576317934641
20
-6.45978205407951
30
0
41
1
10
-3.95487127334194
20
-6.94225537606115
30
0
41
1
10
-3.99994180570394
20
-7.18182085753699
30
0
41
1
10
-4.10416683371689
20
-7.65518824089065
30
0
41
1
10
-4.16332953330694
20
-7.88926779084468
30
0
41
1
10
-4.30073575990994
20
-8.35126379883343
30
0
41
1
10
-4.37869000461005
20
-8.57819056735369
30
0
41
1
10
-4.55882768232694
20
-9.01890405609001
30
0
41
1
10
-4.66096064418579
20
-9.23316248710555
30
0
41
1
10
-4.9012460930548
20
-9.6450662502447
30
0
41
1
10
-5.04044720826909
20
-9.84412891865716
30
0
41
1
10
-5.24436673816899
20
-10.0673788314332
30
0
41
1
10
-5.28672193295479
20
-10.1108128419076
30
0
41
1
10
-5.37506018490618
20
-10.1949099292502
30
0
41
1
10
-5.42113974977889
20
-10.2356293471388
30
0
41
1
10
-5.56352602684599
20
-10.3512474104623
30
0
41
1
10
-5.66447995477702
20
-10.4202823836625
30
0
41
1
10
-5.88197798496884
20
-10.5378913469096
30
0
41
1
10
-6.00024980803649
20
-10.5867345345007
30
0
41
1
10
-6.18283559041274
20
-10.6361515407661
30
0
41
1
10
-6.24478714200797
20
-10.6488401790656
30
0
41
1
10
-6.37105473569075
20
-10.6660269221224
30
0
41
1
10
-6.43557318110055
20
-10.6704826507564
30
0
41
1
10
-6.50000000009538
20
-10.6704826507521
30
0
0
SPLINE
5
261
100
AcDbEntity
8
SK1
62
256
6
ByLayer
370
13
48
1
60
0
100
AcDbSpline
70
4
71
3
72
22
73
18
40
0
40
0
40
0
40
0
40
0.250000000000013
40
0.250000000000013
40
0.375000000000011
40
0.375000000000011
40
0.500000000000009
40
0.500000000000009
40
0.625000000000006
40
0.625000000000006
40
0.687500000000005
40
0.687500000000005
40
0.750000000000004
40
0.750000000000004
40
0.875000000000002
40
0.875000000000002
40
1
40
1
40
1
40
1
41
1
10
-78.5162221138982
20
10.4258292340508
30
0
41
1
10
-78.4816010925007
20
10.3237518956136
30
0
41
1
10
-78.4411780188043
20
10.2239013321123
30
0
41
1
10
-78.3666785250411
20
10.0794467030181
30
0
41
1
10
-78.3393689035363
20
10.0320610579929
30
0
41
1
10
-78.2793566754053
20
9.94200016242738
30
0
41
1
10
-78.2466129799402
20
9.89906478118272
30
0
41
1
10
-78.1725895963645
20
9.81972659981167
30
0
41
1
10
-78.1310790894698
20
9.78319125007499
30
0
41
1
10
-78.0614135112523
20
9.74017151629326
30
0
41
1
10
-78.0367084860757
20
9.72773410304424
30
0
41
1
10
-77.9859900462305
20
9.70877612675764
30
0
41
1
10
-77.9597650984162
20
9.70209114959093
30
0
41
1
10
-77.8779326920127
20
9.69222679373803
30
0
41
1
10
-77.8229289559465
20
9.7004005561752
30
0
41
1
10
-77.720518632779
20
9.74066343125068
30
0
41
1
10
-77.6749703009745
20
9.77110884838677
30
0
41
1
10
-77.6338131992791
20
9.80675144594503
30
0
0
SPLINE
5
262
100
AcDbEntity
8
SK1
62
256
6
ByLayer
370
13
48
1
60
0
100
AcDbSpline
70
4
71
3
72
8
73
4
40
0
40
0
40
0
40
0
40
1
40
1
40
1
40
1
41
1
10
-78.5162221138915
20
-10.4258292340309
30
0
41
1
10
-78.5439104435588
20
-10.5074660802026
30
0
41
1
10
-78.5718376779285
20
-10.5890166857158
30
0
41
1
10
-78.5999993841625
20
-10.6704826507519
30
0
0
SPLINE
5
263
100
AcDbEntity
8
SK1
62
256
6
ByLayer
370
13
48
1
60
0
100
AcDbSpline
70
4
71
3
72
10
73
6
40
0
40
0
40
0
40
0
40
0.5
40
0.5
40
1
40
1
40
1
40
1
41
1
10
-80
20
8.0540176309716
30
0
41
1
10
-79.85176739512
20
8.49565927489135
30
0
41
1
10
-79.6935189817436
20
8.93491944720282
30
0
41
1
10
-79.3587118244384
20
9.80908612108971
30
0
41
1
10
-79.1828143207057
20
10.2422333475178
30
0
41
1
10
-79
20
10.6704826507521
30
0
0
SPLINE
5
264
100
AcDbEntity
8
SK1
62
256
6
ByLayer
370
13
48
1
60
0
100
AcDbSpline
70
4
71
3
72
8
73
4
40
0
40
0
40
0
40
0
40
1
40
1
40
1
40
1
41
1
10
-79
20
-10.6704826507519
30
0
41
1
10
-79.3663118043068
20
-9.81238370995035
30
0
41
1
10
-79.7021882940637
20
-8.9413126460914
30
0
41
1
10
-80
20
-8.05401763097143
30
0
0
SPLINE
5
265
100
AcDbEntity
8
SK1
62
256
6
ByLayer
370
13
48
1
60
0
100
AcDbSpline
70
4
71
3
72
8
73
4
40
0
40
0
40
0
40
0
40
1
40
1
40
1
40
1
41
1
10
-76.6000022063887
20
-10.6704826507519
30
0
41
1
10
-76.9486457469478
20
-10.3889796865166
30
0
41
1
10
-77.2935001928291
20
-10.1014670365259
30
0
41
1
10
-77.6338131992803
20
-9.80675144594593
30
0
0
SPLINE
5
266
100
AcDbEntity
8
SK1
62
256
6
ByLayer
370
13
48
1
60
0
100
AcDbSpline
70
4
71
3
72
18
73
14
40
0
40
0
40
0
40
0
40
0.124999999999994
40
0.124999999999994
40
0.249999999999988
40
0.249999999999988
40
0.374999999999981
40
0.374999999999981
40
0.499999999999975
40
0.499999999999975
40
0.749999999999988
40
0.749999999999988
40
1
40
1
40
1
40
1
41
1
10
-77.6338131992802
20
-9.80675144594582
30
0
41
1
10
-77.6747633651724
20
-9.77128805754603
30
0
41
1
10
-77.7208435774768
20
-9.74055738411698
30
0
41
1
10
-77.8223424340443
20
-9.70060949890774
30
0
41
1
10
-77.877225313581
20
-9.69229190808377
30
0
41
1
10
-77.9860246497556
20
-9.70510854686367
30
0
41
1
10
-78.0378757025226
20
-9.72573581195073
30
0
41
1
10
-78.1301404068999
20
-9.78251362708679
30
0
41
1
10
-78.1717204994047
20
-9.81892837813635
30
0
41
1
10
-78.2826414870913
20
-9.93741839107241
30
0
41
1
10
-78.3411195831128
20
-10.0300646017818
30
0
41
1
10
-78.4407354299096
20
-10.2228684878255
30
0
41
1
10
-78.4816839215995
20
-10.3239961106508
30
0
41
1
10
-78.5162221138915
20
-10.4258292340309
30
0
0
SPLINE
5
267
100
AcDbEntity
8
SK1
62
256
6
ByLayer
370
13
48
1
60
0
100
AcDbSpline
70
4
71
3
72
8
73
4
40
0
40
0
40
0
40
0
40
1
40
1
40
1
40
1
41
1
10
-77.6338131992799
20
9.80675144594619
30
0
41
1
10
-77.2939543866941
20
10.101073698597
30
0
41
1
10
-76.9490850005699
20
10.3886250228495
30
0
41
1
10
-76.6000022063887
20
10.6704826507521
30
0
0
SPLINE
5
268
100
AcDbEntity
8
1
62
256
6
ByLayer
370
18
48
1
60
0
100
AcDbSpline
70
4
71
3
72
8
73
4
40
0
40
0
40
0
40
0
40
1
40
1
40
1
40
1
41
1
10
245.034368971562
20
15.446286495274
30
0
41
1
10
245.036903314789
20
15.4522732129617
30
0
41
1
10
245.039438170456
20
15.4582607052639
30
0
41
1
10
245.041973558792
20
15.4642490023914
30
0
0
SPLINE
5
269
100
AcDbEntity
8
1
62
256
6
ByLayer
370
18
48
1
60
0
100
AcDbSpline
70
4
71
3
72
18
73
14
40
0
40
0
40
0
40
0
40
0.124999999999999
40
0.124999999999999
40
0.249999999999998
40
0.249999999999998
40
0.499999999999996
40
0.499999999999996
40
0.749999999999994
40
0.749999999999994
40
0.874999999999997
40
0.874999999999997
40
1
40
1
40
1
40
1
41
1
10
245.041973558792
20
15.4642490023914
30
0
41
1
10
245.054119530704
20
15.4929363982074
30
0
41
1
10
245.056595639897
20
15.5259709449088
30
0
41
1
10
245.051994819127
20
15.5933179835083
30
0
41
1
10
245.044726701382
20
15.6275147780119
30
0
41
1
10
245.013936404288
20
15.7287774438437
30
0
41
1
10
244.98151539874
20
15.7948192580133
30
0
41
1
10
244.902658290759
20
15.916738992255
30
0
41
1
10
244.856416181565
20
15.9724257786253
30
0
41
1
10
244.778048431653
20
16.0398420278966
30
0
41
1
10
244.750402415977
20
16.0595486232371
30
0
41
1
10
244.692522889423
20
16.0889293366583
30
0
41
1
10
244.662302614252
20
16.0988535212287
30
0
41
1
10
244.632157802695
20
16.0979757610642
30
0
0
SPLINE
5
26A
100
AcDbEntity
8
1
62
256
6
ByLayer
370
18
48
1
60
0
100
AcDbSpline
70
4
71
3
72
16
73
12
40
0
40
0
40
0
40
0
40
0.250000000000002
40
0.250000000000002
40
0.500000000000005
40
0.500000000000005
40
0.750000000000007
40
0.750000000000007
40
0.875000000000004
40
0.875000000000004
40
1
40
1
40
1
40
1
41
1
10
245.282905578768
20
15.0658148630184
30
0
41
1
10
245.243643728898
20
15.0859152245689
30
0
41
1
10
245.205846278802
20
15.1092214426919
30
0
41
1
10
245.134857674938
20
15.1623870633748
30
0
41
1
10
245.101618168275
20
15.1921667305902
30
0
41
1
10
245.044350057249
20
15.2596239622674
30
0
41
1
10
245.019912339907
20
15.2972649635521
30
0
41
1
10
245.003882904923
20
15.3587364087682
30
0
41
1
10
245.002594087239
20
15.379654467233
30
0
41
1
10
245.011074276246
20
15.4172383305523
30
0
41
1
10
245.020845443596
20
15.4336493185357
30
0
41
1
10
245.034368971562
20
15.446286495274
30
0
0
SPLINE
5
26B
100
AcDbEntity
8
1
62
256
6
ByLayer
370
18
48
1
60
0
100
AcDbSpline
70
4
71
3
72
16
73
12
40
0
40
0
40
0
40
0
40
0.124999999999998
40
0.124999999999998
40
0.249999999999997
40
0.249999999999997
40
0.499999999999998
40
0.499999999999998
40
0.749999999999999
40
0.749999999999999
40
1
40
1
40
1
40
1
41
1
10
244.923537391602
20
17.5610790218098
30
0
41
1
10
244.908711891487
20
17.5722749959353
30
0
41
1
10
244.897226442117
20
17.5876723184353
30
0
41
1
10
244.884891482587
20
17.6244420715718
30
0
41
1
10
244.884108877842
20
17.6456545801728
30
0
41
1
10
244.893737396034
20
17.7079478870368
30
0
41
1
10
244.914054063493
20
17.7479275146172
30
0
41
1
10
244.963861561669
20
17.820828948054
30
0
41
1
10
244.993823014291
20
17.8539467735881
30
0
41
1
10
245.058790035318
20
17.9141749595156
30
0
41
1
10
245.094022216223
20
17.9413679732009
30
0
41
1
10
245.130942374233
20
17.9654455402715
30
0
0
SPLINE
5
26C
100
AcDbEntity
8
1
62
256
6
ByLayer
370
18
48
1
60
0
100
AcDbSpline
70
4
71
3
72
8
73
4
40
0
40
0
40
0
40
0
40
1
40
1
40
1
40
1
41
1
10
246.492044260438
20
15.1355871778406
30
0
41
1
10
246.487959130938
20
15.1410805427565
30
0
41
1
10
246.483873668328
20
15.1465746192676
30
0
41
1
10
246.479787859872
20
15.1520694351279
30
0
0
SPLINE
5
26D
100
AcDbEntity
8
1
62
256
6
ByLayer
370
18
48
1
60
0
100
AcDbSpline
70
4
71
3
72
16
73
12
40
0
40
0
40
0
40
0
40
0.250000000000007
40
0.250000000000007
40
0.500000000000014
40
0.500000000000014
40
0.750000000000021
40
0.750000000000021
40
0.87500000000001
40
0.87500000000001
40
1
40
1
40
1
40
1
41
1
10
246.797615199911
20
18.0527921618567
30
0
41
1
10
246.836877049782
20
18.0326918003062
30
0
41
1
10
246.874477892119
20
18.0093752784072
30
0
41
1
10
246.944569817439
20
17.956162664793
30
0
41
1
10
246.977122117244
20
17.9263469825923
30
0
41
1
10
247.032064130495
20
17.8587678452964
30
0
41
1
10
247.054909553839
20
17.8210433954192
30
0
41
1
10
247.066816231699
20
17.7593558856577
30
0
41
1
10
247.066428752105
20
17.7383499761751
30
0
41
1
10
247.054139032063
20
17.7005664637942
30
0
41
1
10
247.042252053172
20
17.6840445908266
30
0
41
1
10
247.026642208376
20
17.6712980748563
30
0
0
SPLINE
5
26E
100
AcDbEntity
8
1
62
256
6
ByLayer
370
18
48
1
60
0
100
AcDbSpline
70
4
71
3
72
16
73
12
40
0
40
0
40
0
40
0
40
0.250000000000025
40
0.250000000000025
40
0.500000000000051
40
0.500000000000051
40
0.750000000000077
40
0.750000000000077
40
0.875000000000038
40
0.875000000000038
40
1
40
1
40
1
40
1
41
1
10
244.373587563661
20
16.4719568908523
30
0
41
1
10
244.371271423236
20
16.5161514829017
30
0
41
1
10
244.372407501275
20
16.560585793357
30
0
41
1
10
244.382520446237
20
16.6484959383825
30
0
41
1
10
244.391407291943
20
16.6919797614873
30
0
41
1
10
244.420383506409
20
16.7744545385535
30
0
41
1
10
244.44024721615
20
16.8138039761777
30
0
41
1
10
244.484290198764
20
16.8566112097667
30
0
41
1
10
244.501300020746
20
16.8674318571732
30
0
41
1
10
244.537082904702
20
16.8771251961068
30
0
41
1
10
244.555641302417
20
16.8758765082531
30
0
41
1
10
244.572830301093
20
16.8694916024985
30
0
0
SPLINE
5
26F
100
AcDbEntity
8
1
62
256
6
ByLayer
370
18
48
1
60
0
100
AcDbSpline
70
4
71
3
72
8
73
4
40
0
40
0
40
0
40
0
40
1
40
1
40
1
40
1
41
1
10
246.330284066841
20
18.0047717452891
30
0
41
1
10
246.333773128153
20
18.0106635432522
30
0
41
1
10
246.337261922797
20
18.0165545697656
30
0
41
1
10
246.340750460537
20
18.0224448537626
30
0
0
SPLINE
5
270
100
AcDbEntity
8
1
62
256
6
ByLayer
370
18
48
1
60
0
100
AcDbSpline
70
4
71
3
72
16
73
12
40
0
40
0
40
0
40
0
40
0.124999999999953
40
0.124999999999953
40
0.249999999999906
40
0.249999999999906
40
0.499999999999937
40
0.499999999999937
40
0.749999999999969
40
0.749999999999969
40
1
40
1
40
1
40
1
41
1
10
247.488180878845
20
16.2480929676318
30
0
41
1
10
247.507528113768
20
16.241793985924
30
0
41
1
10
247.528320760924
20
16.240666325203
30
0
41
1
10
247.568135799656
20
16.2507375446894
30
0
41
1
10
247.58697988605
20
16.2619020400359
30
0
41
1
10
247.634626218996
20
16.3047318772866
30
0
41
1
10
247.656108360969
20
16.3441148325452
30
0
41
1
10
247.687322985055
20
16.4265350098187
30
0
41
1
10
247.69690951314
20
16.4700839116038
30
0
41
1
10
247.707909221677
20
16.5579410171194
30
0
41
1
10
247.709247753615
20
16.6024861066936
30
0
41
1
10
247.706933215018
20
16.6466501340227
30
0
0
SPLINE
5
271
100
AcDbEntity
8
1
62
256
6
ByLayer
370
18
48
1
60
0
100
AcDbSpline
70
4
71
3
72
8
73
4
40
0
40
0
40
0
40
0
40
1
40
1
40
1
40
1
41
1
10
245.5689669195
20
17.9819973922897
30
0
41
1
10
245.572357333862
20
17.9764676188962
30
0
41
1
10
245.575748370017
20
17.9709371490367
30
0
41
1
10
245.579140052454
20
17.9654059555733
30
0
0
SPLINE
5
272
100
AcDbEntity
8
1
62
256
6
ByLayer
370
18
48
1
60
0
100
AcDbSpline
70
4
71
3
72
20
73
16
40
0
40
0
40
0
40
0
40
0.124999999999989
40
0.124999999999989
40
0.249999999999978
40
0.249999999999978
40
0.374999999999967
40
0.374999999999967
40
0.499999999999956
40
0.499999999999956
40
0.749999999999945
40
0.749999999999945
40
0.874999999999972
40
0.874999999999972
40
1
40
1
40
1
40
1
41
1
10
247.125949998954
20
15.5734655796985
30
0
41
1
10
247.107464932066
20
15.6006722284417
30
0
41
1
10
247.09860243763
20
15.6333543472249
30
0
41
1
10
247.091134339819
20
15.700617247681
30
0
41
1
10
247.092697118066
20
15.7350793010686
30
0
41
1
10
247.102670361392
20
15.8041046762748
30
0
41
1
10
247.111226002272
20
15.8387625966565
30
0
41
1
10
247.133501051588
20
15.906072871109
30
0
41
1
10
247.147296483196
20
15.9390973542928
30
0
41
1
10
247.196506972891
20
16.0363706946998
30
0
41
1
10
247.238581297132
20
16.0970214191189
30
0
41
1
10
247.314642702759
20
16.1726547175811
30
0
41
1
10
247.34222342813
20
16.1952929212984
30
0
41
1
10
247.401848798
20
16.2308936319538
30
0
41
1
10
247.433841232014
20
16.2441028917023
30
0
41
1
10
247.467278257244
20
16.246558128087
30
0
0
SPLINE
5
273
100
AcDbEntity
8
1
62
256
6
ByLayer
370
18
48
1
60
0
100
AcDbSpline
70
4
71
3
72
16
73
12
40
0
40
0
40
0
40
0
40
0.124999999999957
40
0.124999999999957
40
0.249999999999915
40
0.249999999999915
40
0.499999999999943
40
0.499999999999943
40
0.749999999999972
40
0.749999999999972
40
1
40
1
40
1
40
1
41
1
10
244.613292521034
20
16.0974264531123
30
0
41
1
10
244.596803796393
20
16.0892493883453
30
0
41
1
10
244.578370456003
20
16.0860659807267
30
0
41
1
10
244.541549359111
20
16.0921208705323
30
0
41
1
10
244.523329308087
20
16.1013429167457
30
0
41
1
10
244.475541772401
20
16.139171276873
30
0
41
1
10
244.45165677727
20
16.1761766412235
30
0
41
1
10
244.41431737361
20
16.2550040541419
30
0
41
1
10
244.400919490776
20
16.2973483939926
30
0
41
1
10
244.381692291382
20
16.383621374389
30
0
41
1
10
244.375902102258
20
16.4277928635232
30
0
41
1
10
244.373587563661
20
16.4719568908523
30
0
0
SPLINE
5
274
100
AcDbEntity
8
1
62
256
6
ByLayer
370
18
48
1
60
0
100
AcDbSpline
70
4
71
3
72
18
73
14
40
0
40
0
40
0
40
0
40
0.125000000000028
40
0.125000000000028
40
0.250000000000055
40
0.250000000000055
40
0.500000000000037
40
0.500000000000037
40
0.750000000000018
40
0.750000000000018
40
0.875000000000009
40
0.875000000000009
40
1
40
1
40
1
40
1
41
1
10
247.426770109632
20
17.019499629637
30
0
41
1
10
247.393280638529
20
17.018446955985
30
0
41
1
10
247.360047969452
20
17.0282353668423
30
0
41
1
10
247.296897293633
20
17.0574891309218
30
0
41
1
10
247.267182824586
20
17.0770938932999
30
0
41
1
10
247.183816470686
20
17.1442144427559
30
0
41
1
10
247.135632487232
20
17.2000807838982
30
0
41
1
10
247.056795670404
20
17.322176964216
30
0
41
1
10
247.026369829482
20
17.3879723115695
30
0
41
1
10
247.000785310678
20
17.4890225883616
30
0
41
1
10
246.995609726893
20
17.5235137696528
30
0
41
1
10
246.996028779963
20
17.5906625195641
30
0
41
1
10
247.001385459357
20
17.6241825405166
30
0
41
1
10
247.016954353535
20
17.6532263883097
30
0
0
SPLINE
5
275
100
AcDbEntity
8
1
62
256
6
ByLayer
370
18
48
1
60
0
100
AcDbSpline
70
4
71
3
72
8
73
4
40
0
40
0
40
0
40
0
40
1
40
1
40
1
40
1
41
1
10
244.572830301093
20
16.8694916024985
30
0
41
1
10
244.579102416251
20
16.8699667510315
30
0
41
1
10
244.585375521301
20
16.8704419701485
30
0
41
1
10
244.591649655083
20
16.8709172626141
30
0
0
SPLINE
5
276
100
AcDbEntity
8
1
62
256
6
ByLayer
370
18
48
1
60
0
100
AcDbSpline
70
4
71
3
72
8
73
4
40
0
40
0
40
0
40
0
40
1
40
1
40
1
40
1
41
1
10
247.026642208376
20
17.6712980748563
30
0
41
1
10
247.023413150011
20
17.665274948691
30
0
41
1
10
247.020183867889
20
17.6592510630404
30
0
41
1
10
247.016954353535
20
17.6532263883097
30
0
0
SPLINE
5
277
100
AcDbEntity
8
1
62
256
6
ByLayer
370
18
48
1
60
0
100
AcDbSpline
70
4
71
3
72
18
73
14
40
0
40
0
40
0
40
0
40
0.125000000000002
40
0.125000000000002
40
0.250000000000004
40
0.250000000000004
40
0.500000000000009
40
0.500000000000009
40
0.750000000000013
40
0.750000000000013
40
0.875000000000007
40
0.875000000000007
40
1
40
1
40
1
40
1
41
1
10
244.591649655083
20
16.8709172626141
30
0
41
1
10
244.621706373273
20
16.8731941875562
30
0
41
1
10
244.650759011504
20
16.8862252209097
30
0
41
1
10
244.705368342991
20
16.9215956289911
30
0
41
1
10
244.730735245917
20
16.9440546216288
30
0
41
1
10
244.801477950946
20
17.019143590089
30
0
41
1
10
244.84180102841
20
17.0795612239043
30
0
41
1
10
244.907460822347
20
17.2090680793179
30
0
41
1
10
244.932727396397
20
17.2778882887754
30
0
41
1
10
244.952799747394
20
17.3820286521627
30
0
41
1
10
244.956439009856
20
17.416873429269
30
0
41
1
10
244.953961033485
20
17.4841729202515
30
0
41
1
10
244.948063376041
20
17.5167358278865
30
0
41
1
10
244.932977913372
20
17.5440098110026
30
0
0
SPLINE
5
278
100
AcDbEntity
8
1
62
256
6
ByLayer
370
18
48
1
60
0
100
AcDbSpline
70
4
71
3
72
16
73
12
40
0
40
0
40
0
40
0
40
0.25
40
0.25
40
0.5
40
0.5
40
0.75
40
0.75
40
0.875
40
0.875
40
1
40
1
40
1
40
1
41
1
10
247.706933215018
20
16.6466501340227
30
0
41
1
10
247.704617074593
20
16.6908447260721
30
0
41
1
10
247.69864596216
20
16.7349065644578
30
0
41
1
10
247.678502626059
20
16.8212310449835
30
0
41
1
10
247.664431959361
20
16.8635117158453
30
0
41
1
10
247.624667420151
20
16.942383942665
30
0
41
1
10
247.599207095646
20
16.9793580483064
30
0
41
1
10
247.54680805363
20
17.0171109695549
30
0
41
1
10
247.52708405031
20
17.0260064787527
30
0
41
1
10
247.486674427879
20
17.0317067376285
30
0
41
1
10
247.46623240689
20
17.0284141244395
30
0
41
1
10
247.447718658904
20
17.020158117018
30
0
0
SPLINE
5
279
100
AcDbEntity
8
1
62
256
6
ByLayer
370
18
48
1
60
0
100
AcDbSpline
70
4
71
3
72
8
73
4
40
0
40
0
40
0
40
0
40
1
40
1
40
1
40
1
41
1
10
247.447718658904
20
17.020158117018
30
0
41
1
10
247.440736521365
20
17.0199386396012
30
0
41
1
10
247.433753680662
20
17.0197191440389
30
0
41
1
10
247.426770109632
20
17.019499629637
30
0
0
SPLINE
5
27A
100
AcDbEntity
8
1
62
256
6
ByLayer
370
18
48
1
60
0
100
AcDbSpline
70
4
71
3
72
8
73
4
40
0
40
0
40
0
40
0
40
1
40
1
40
1
40
1
41
1
10
247.467278257244
20
16.246558128087
30
0
41
1
10
247.474246517044
20
16.2470697981559
30
0
41
1
10
247.481214048549
20
16.2475814106212
30
0
41
1
10
247.488180878845
20
16.2480929676318
30
0
0
SPLINE
5
27B
100
AcDbEntity
8
1
62
256
6
ByLayer
370
18
48
1
60
0
100
AcDbSpline
70
4
71
3
72
16
73
12
40
0
40
0
40
0
40
0
40
0.124999999999952
40
0.124999999999952
40
0.249999999999904
40
0.249999999999904
40
0.499999999999936
40
0.499999999999936
40
0.749999999999968
40
0.749999999999968
40
1
40
1
40
1
40
1
41
1
10
245.720260719401
20
15.0951397163677
30
0
41
1
10
245.719644545488
20
15.0758215510726
30
0
41
1
10
245.713760419381
20
15.0572965705109
30
0
41
1
10
245.691188562014
20
15.0266820303433
30
0
41
1
10
245.674595022252
20
15.0147357952221
30
0
41
1
10
245.61921632974
20
14.9903776220703
30
0
41
1
10
245.575812719756
20
14.9874451830053
30
0
41
1
10
245.489825556881
20
14.9934319418304
30
0
41
1
10
245.446810335939
20
15.0026764904245
30
0
41
1
10
245.363064025426
20
15.0287447588569
30
0
41
1
10
245.322140275375
20
15.0457284027599
30
0
41
1
10
245.282905578768
20
15.0658148630184
30
0
0
SPLINE
5
27C
100
AcDbEntity
8
1
62
256
6
ByLayer
370
18
48
1
60
0
100
AcDbSpline
70
4
71
3
72
16
73
12
40
0
40
0
40
0
40
0
40
0.124999999999995
40
0.124999999999995
40
0.24999999999999
40
0.24999999999999
40
0.499999999999993
40
0.499999999999993
40
0.749999999999997
40
0.749999999999997
40
1
40
1
40
1
40
1
41
1
10
247.137473788336
20
15.5565055483206
30
0
41
1
10
247.154393389677
20
15.5454193213899
30
0
41
1
10
247.168006368874
20
15.5301334980035
30
0
41
1
10
247.184169888393
20
15.4935643911938
30
0
41
1
10
247.186640306172
20
15.4724403371258
30
0
41
1
10
247.181086510712
20
15.4103605774314
30
0
41
1
10
247.162365948466
20
15.3704645981807
30
0
41
1
10
247.114877928212
20
15.2976847234309
30
0
41
1
10
247.085604704618
20
15.2646029664518
30
0
41
1
10
247.021533503406
20
15.2044217284515
30
0
41
1
10
246.986498562457
20
15.1772390516742
30
0
41
1
10
246.949578404447
20
15.1531614846036
30
0
0
SPLINE
5
27D
100
AcDbEntity
8
1
62
256
6
ByLayer
370
18
48
1
60
0
100
AcDbSpline
70
4
71
3
72
8
73
4
40
0
40
0
40
0
40
0
40
1
40
1
40
1
40
1
41
1
10
244.932977913372
20
17.5440098110026
30
0
41
1
10
244.929830466664
20
17.5497002833655
30
0
41
1
10
244.926683633831
20
17.5553900109908
30
0
41
1
10
244.923537391602
20
17.5610790218098
30
0
0
SPLINE
5
27E
100
AcDbEntity
8
1
62
256
6
ByLayer
370
18
48
1
60
0
100
AcDbSpline
70
4
71
3
72
18
73
14
40
0
40
0
40
0
40
0
40
0.125000000000034
40
0.125000000000034
40
0.250000000000067
40
0.250000000000067
40
0.500000000000044
40
0.500000000000044
40
0.750000000000021
40
0.750000000000021
40
0.875000000000011
40
0.875000000000011
40
1
40
1
40
1
40
1
41
1
10
246.479787859872
20
15.1520694351279
30
0
41
1
10
246.460214481679
20
15.1783927711553
30
0
41
1
10
246.432165936971
20
15.1983191394309
30
0
41
1
10
246.370413532282
20
15.2301625361446
30
0
41
1
10
246.336720675929
20
15.2418448991917
30
0
41
1
10
246.232637717771
20
15.2678849590302
30
0
41
1
10
246.159024775319
20
15.2734636043907
30
0
41
1
10
246.014509044511
20
15.265876544594
30
0
41
1
10
245.943865063843
20
15.2527884386486
30
0
41
1
10
245.847980543296
20
15.2161982568241
30
0
41
1
10
245.81775667198
20
15.2011157010328
30
0
41
1
10
245.764892363344
20
15.1633298946665
30
0
41
1
10
245.742039748872
20
15.140768211208
30
0
41
1
10
245.728643845485
20
15.1127036454121
30
0
0
SPLINE
5
27F
100
AcDbEntity
8
1
62
256
6
ByLayer
370
18
48
1
60
0
100
AcDbSpline
70
4
71
3
72
18
73
14
40
0
40
0
40
0
40
0
40
0.12499999999999
40
0.12499999999999
40
0.24999999999998
40
0.24999999999998
40
0.499999999999957
40
0.499999999999957
40
0.749999999999935
40
0.749999999999935
40
0.874999999999967
40
0.874999999999967
40
1
40
1
40
1
40
1
41
1
10
245.579140052454
20
17.9654059555733
30
0
41
1
10
245.595388166816
20
17.9389083498529
30
0
41
1
10
245.620492680186
20
17.9188276914327
30
0
41
1
10
245.67716058001
20
17.8867178271103
30
0
41
1
10
245.708737764999
20
17.8749245864254
30
0
41
1
10
245.807720811087
20
17.8486172515208
30
0
41
1
10
245.879596034659
20
17.8429475361728
30
0
41
1
10
246.024114107686
20
17.8505347187199
30
0
41
1
10
246.096487493506
20
17.8637134589488
30
0
41
1
10
246.197483174777
20
17.9005715053564
30
0
41
1
10
246.229829859739
20
17.9157653130967
30
0
41
1
10
246.287768651469
20
17.953817061853
30
0
41
1
10
246.31356127245
20
17.9765328245237
30
0
41
1
10
246.330284066841
20
18.0047717452891
30
0
0
SPLINE
5
280
100
AcDbEntity
8
1
62
256
6
ByLayer
370
18
48
1
60
0
100
AcDbSpline
70
4
71
3
72
16
73
12
40
0
40
0
40
0
40
0
40
0.125
40
0.125
40
0.25
40
0.25
40
0.5
40
0.5
40
0.75
40
0.75
40
1
40
1
40
1
40
1
41
1
10
246.340750460537
20
18.0224448537626
30
0
41
1
10
246.343460735676
20
18.0418727662526
30
0
41
1
10
246.351472391609
20
18.0605092459279
30
0
41
1
10
246.377872808966
20
18.0913244324224
30
0
41
1
10
246.396154161762
20
18.1033591220765
30
0
41
1
10
246.455607577007
20
18.1279308423979
30
0
41
1
10
246.500607292203
20
18.1309469297926
30
0
41
1
10
246.588913933
20
18.1250817296546
30
0
41
1
10
246.63261738297
20
18.1158732496154
30
0
41
1
10
246.717259513298
20
18.0898519291102
30
0
41
1
10
246.758380503305
20
18.0728786221152
30
0
41
1
10
246.797615199911
20
18.0527921618567
30
0
0
SPLINE
5
281
100
AcDbEntity
8
1
62
256
6
ByLayer
370
18
48
1
60
0
100
AcDbSpline
70
4
71
3
72
8
73
4
40
0
40
0
40
0
40
0
40
1
40
1
40
1
40
1
41
1
10
247.125949998954
20
15.5734655796985
30
0
41
1
10
247.129791571682
20
15.5678114849389
30
0
41
1
10
247.133632830969
20
15.5621581506619
30
0
41
1
10
247.137473788336
20
15.5565055483206
30
0
0
SPLINE
5
282
100
AcDbEntity
8
1
62
256
6
ByLayer
370
18
48
1
60
0
100
AcDbSpline
70
4
71
3
72
16
73
12
40
0
40
0
40
0
40
0
40
0.250000000000035
40
0.250000000000035
40
0.500000000000071
40
0.500000000000071
40
0.750000000000106
40
0.750000000000106
40
0.875000000000053
40
0.875000000000053
40
1
40
1
40
1
40
1
41
1
10
246.949578404447
20
15.1531614846036
30
0
41
1
10
246.912632695002
20
15.1290672541048
30
0
41
1
10
246.873600862987
20
15.1079340098844
30
0
41
1
10
246.792050974888
20
15.0731659890762
30
0
41
1
10
246.749581019091
20
15.0594438256942
30
0
41
1
10
246.662173644713
20
15.0443653274958
30
0
41
1
10
246.617076070631
20
15.04261516686
30
0
41
1
10
246.554942274469
20
15.0611713462145
30
0
41
1
10
246.535805486164
20
15.0712248317639
30
0
41
1
10
246.506598025698
20
15.0990155316188
30
0
41
1
10
246.496752889563
20
15.1166197649637
30
0
41
1
10
246.492044260438
20
15.1355871778406
30
0
0
SPLINE
5
283
100
AcDbEntity
8
1
62
256
6
ByLayer
370
18
48
1
60
0
100
AcDbSpline
70
4
71
3
72
16
73
12
40
0
40
0
40
0
40
0
40
0.249999999999966
40
0.249999999999966
40
0.499999999999932
40
0.499999999999932
40
0.749999999999899
40
0.749999999999899
40
0.874999999999949
40
0.874999999999949
40
1
40
1
40
1
40
1
41
1
10
245.130942374233
20
17.9654455402715
30
0
41
1
10
245.167888083678
20
17.9895397707703
30
0
41
1
10
245.206723307934
20
18.0106627112147
30
0
41
1
10
245.287376517488
20
18.0453837390916
30
0
41
1
10
245.329159266427
20
18.0590698874883
30
0
41
1
10
245.414240543032
20
18.074026480068
30
0
41
1
10
245.457745823116
20
18.0756931921113
30
0
41
1
10
245.515756862152
20
18.0569209482114
30
0
41
1
10
245.533217353179
20
18.0467796116442
30
0
41
1
10
245.558615282611
20
18.0187892627278
30
0
41
1
10
245.566344607205
20
18.0010741443986
30
0
41
1
10
245.5689669195
20
17.9819973922897
30
0
0
SPLINE
5
284
100
AcDbEntity
8
1
62
256
6
ByLayer
370
18
48
1
60
0
100
AcDbSpline
70
4
71
3
72
8
73
4
40
0
40
0
40
0
40
0
40
1
40
1
40
1
40
1
41
1
10
245.728643845485
20
15.1127036454121
30
0
41
1
10
245.725848910192
20
15.1068482250522
30
0
41
1
10
245.723054542004
20
15.1009935918871
30
0
41
1
10
245.720260719401
20
15.0951397163677
30
0
0
SPLINE
5
285
100
AcDbEntity
8
1
62
256
6
ByLayer
370
18
48
1
60
0
100
AcDbSpline
70
4
71
3
72
8
73
4
40
0
40
0
40
0
40
0
40
1
40
1
40
1
40
1
41
1
10
244.632157802695
20
16.0979757610642
30
0
41
1
10
244.625868357683
20
16.0977926242654
30
0
41
1
10
244.619579943435
20
16.0976095220516
30
0
41
1
10
244.613292521034
20
16.0974264531123
30
0
0
SPLINE
5
286
100
AcDbEntity
8
1
62
256
6
ByLayer
370
18
48
1
60
0
100
AcDbSpline
70
4
71
2
72
6
73
3
40
0
40
0
40
0
40
1
40
1
40
1
41
1
10
255.086559657898
20
0.13562395908599
30
0
41
1
10
255.078905304516
20
0.183614652703142
30
0
41
1
10
255.065418342179
20
0.230321304629911
30
0
0
SPLINE
5
287
100
AcDbEntity
8
1
62
256
6
ByLayer
370
18
48
1
60
0
100
AcDbSpline
70
4
71
1
72
4
73
2
40
0
40
0
40
1
40
1
41
1
10
256.493919067303
20
-8.68813300625717
30
0
41
1
10
256.990150541487
20
-9.15323283355931
30
0
0
SPLINE
5
288
100
AcDbEntity
8
1
62
256
6
ByLayer
370
18
48
1
60
0
100
AcDbSpline
70
4
71
3
72
8
73
4
40
0
40
0
40
0
40
0
40
1
40
1
40
1
40
1
41
1
10
256.999933060269
20
-9.26710906468404
30
0
41
1
10
257.000436224147
20
-9.30527773652571
30
0
41
1
10
256.998063746236
20
-9.343324804639
30
0
41
1
10
256.994132053512
20
-9.38130024633381
30
0
0
SPLINE
5
289
100
AcDbEntity
8
1
62
256
6
ByLayer
370
18
48
1
60
0
100
AcDbSpline
70
4
71
1
72
4
73
2
40
0
40
0
40
1
40
1
41
1
10
255.566951992564
20
-0.230168813654302
30
0
41
1
10
255.086559657899
20
0.135623959085962
30
0
0
SPLINE
5
28A
100
AcDbEntity
8
1
62
256
6
ByLayer
370
18
48
1
60
0
100
AcDbSpline
70
4
71
1
72
4
73
2
40
0
40
0
40
1
40
1
41
1
10
255.154124004915
20
0.462841896484349
30
0
41
1
10
254.590020271326
20
0.536589703006484
30
0
0
SPLINE
5
28B
100
AcDbEntity
8
1
62
256
6
ByLayer
370
18
48
1
60
0
100
AcDbSpline
70
4
71
1
72
4
73
2
40
0
40
0
40
1
40
1
41
1
10
254.7707680494
20
0.492588324681691
30
0
41
1
10
255.154124004915
20
0.462841896484321
30
0
0
SPLINE
5
28C
100
AcDbEntity
8
1
62
256
6
ByLayer
370
18
48
1
60
0
100
AcDbSpline
70
4
71
1
72
4
73
2
40
0
40
0
40
1
40
1
41
1
10
256.971827802728
20
-9.54207281998518
30
0
41
1
10
256.993155758072
20
-9.38120056438177
30
0
0
SPLINE
5
28D
100
AcDbEntity
8
1
62
256
6
ByLayer
370
18
48
1
60
0
100
AcDbSpline
70
4
71
1
72
4
73
2
40
0
40
0
40
1
40
1
41
1
10
256.990150541487
20
-9.15323283355957
30
0
41
1
10
256.964700644908
20
-8.99366897182517
30
0
0
SPLINE
5
28E
100
AcDbEntity
8
1
62
256
6
ByLayer
370
18
48
1
60
0
100
AcDbSpline
70
4
71
3
72
10
73
6
40
0
40
0
40
0
40
0
40
0.505192035316291
40
0.505192035316291
40
1
40
1
40
1
40
1
41
1
10
255.200063329208
20
-18.7504764851029
30
0
41
1
10
255.259703430151
20
-18.7334935542683
30
0
41
1
10
255.319343531509
20
-18.7165124452454
30
0
41
1
10
255.437397849338
20
-18.6828976952031
30
0
41
1
10
255.495812066394
20
-18.6662640114886
30
0
41
1
10
255.554226282952
20
-18.6496314498399
30
0
0
SPLINE
5
28F
100
AcDbEntity
8
1
62
256
6
ByLayer
370
18
48
1
60
0
100
AcDbSpline
70
4
71
3
72
8
73
4
40
0
40
0
40
0
40
0
40
1
40
1
40
1
40
1
41
1
10
255.200063329223
20
-18.7504316728809
30
0
41
1
10
255.16870691113
20
-18.7593602841579
30
0
41
1
10
255.13691947359
20
-18.7663582495146
30
0
41
1
10
255.104701016602
20
-18.7714255689512
30
0
0
SPLINE
5
290
100
AcDbEntity
8
1
62
256
6
ByLayer
370
18
48
1
60
0
100
AcDbSpline
70
4
71
1
72
4
73
2
40
0
40
0
40
1
40
1
41
1
10
256.964700644908
20
-8.99366897182517
30
0
41
1
10
256.915156809868
20
-8.68304273335369
30
0
0
SPLINE
5
291
100
AcDbEntity
8
1
62
256
6
ByLayer
370
18
48
1
60
0
100
AcDbSpline
70
4
71
2
72
12
73
9
40
0
40
0
40
0
40
0.25
40
0.5
40
0.5
40
0.75
40
0.75
40
0.875
40
1
40
1
40
1
41
1
10
255.107138951123
20
-17.7979728653446
30
0
41
1
10
255.155623071268
20
-17.7841672112511
30
0
41
1
10
255.241353049893
20
-17.7301346515837
30
0
41
1
10
255.275618576761
20
-17.6909746938383
30
0
41
1
10
255.308388915866
20
-17.6535234939895
30
0
41
1
10
255.329955610028
20
-17.6062444865532
30
0
41
1
10
255.339971554229
20
-17.584287301238
30
0
41
1
10
255.354254536055
20
-17.5350169331237
30
0
41
1
10
255.357671578092
20
-17.5092429078769
30
0
0
SPLINE
5
292
100
AcDbEntity
8
1
62
256
6
ByLayer
370
18
48
1
60
0
100
AcDbSpline
70
4
71
1
72
4
73
2
40
0
40
0
40
1
40
1
41
1
10
255.093562912643
20
-17.8018385865466
30
0
41
1
10
255.200063329223
20
-18.7504316728808
30
0
0
SPLINE
5
293
100
AcDbEntity
8
1
62
256
6
ByLayer
370
18
48
1
60
0
100
AcDbSpline
70
4
71
3
72
12
73
8
40
0
40
0
40
0
40
0
40
0.499999999999844
40
0.499999999999844
40
0.749999999999922
40
0.749999999999922
40
1
40
1
40
1
40
1
41
1
10
255.154124004915
20
0.462796665682333
30
0
41
1
10
255.22124943548
20
0.453958884870246
30
0
41
1
10
255.285500339689
20
0.425125043309635
30
0
41
1
10
255.362472678804
20
0.359406354933668
30
0
41
1
10
255.384884950946
20
0.333712502619392
30
0
41
1
10
255.4212665296
20
0.277097512762197
30
0
41
1
10
255.434727430482
20
0.246089946215335
30
0
41
1
10
255.444881431244
20
0.214010047283182
30
0
0
SPLINE
5
294
100
AcDbEntity
8
1
62
256
6
ByLayer
370
18
48
1
60
0
100
AcDbSpline
70
4
71
1
72
4
73
2
40
0
40
0
40
1
40
1
41
1
10
255.444881431244
20
0.214056248457638
30
0
41
1
10
255.061525475772
20
0.243802676641764
30
0
0
SPLINE
5
295
100
AcDbEntity
8
1
62
256
6
ByLayer
370
18
48
1
60
0
100
AcDbSpline
70
4
71
2
72
6
73
3
40
0
40
0
40
0
40
1
40
1
40
1
41
1
10
254.998200600021
20
-17.8228324826173
30
0
41
1
10
255.046528285495
20
-17.8152315034648
30
0
41
1
10
255.093562912643
20
-17.8018385865466
30
0
0
SPLINE
5
296
100
AcDbEntity
8
1
62
256
6
ByLayer
370
18
48
1
60
0
100
AcDbSpline
70
4
71
1
72
4
73
2
40
0
40
0
40
1
40
1
41
1
10
256.930382905473
20
-9.85468291303408
30
0
41
1
10
256.971827802728
20
-9.54207281998518
30
0
0
SPLINE
5
297
100
AcDbEntity
8
1
62
256
6
ByLayer
370
18
48
1
60
0
100
AcDbSpline
70
4
71
1
72
4
73
2
40
0
40
0
40
1
40
1
41
1
10
256.915156809868
20
-8.68304273335369
30
0
41
1
10
256.82455311511
20
-8.11498245154749
30
0
0
SPLINE
5
298
100
AcDbEntity
8
1
62
256
6
ByLayer
370
18
48
1
60
0
100
AcDbSpline
70
4
71
2
72
7
73
4
40
0
40
0
40
0
40
0.5
40
1
40
1
40
1
41
1
10
256.496924283895
20
-8.91610073707957
30
0
41
1
10
256.504416423597
20
-8.85958911206708
30
0
41
1
10
256.502990374569
20
-8.74500761144486
30
0
41
1
10
256.493919067303
20
-8.68813300625737
30
0
0
SPLINE
5
299
100
AcDbEntity
8
1
62
256
6
ByLayer
370
18
48
1
60
0
100
AcDbSpline
70
4
71
3
72
12
73
8
40
0
40
0
40
0
40
0
40
0.49999999999999
40
0.49999999999999
40
0.749999999999995
40
0.749999999999995
40
1
40
1
40
1
40
1
41
1
10
255.802578065244
20
-18.3615214862075
30
0
41
1
10
255.793678272097
20
-18.428178893608
30
0
41
1
10
255.764643241044
20
-18.4919830459452
30
0
41
1
10
255.698462089716
20
-18.5684176745114
30
0
41
1
10
255.672587931261
20
-18.5906737804498
30
0
41
1
10
255.615575711373
20
-18.6268019877579
30
0
41
1
10
255.584350504035
20
-18.6401691194117
30
0
41
1
10
255.552045438284
20
-18.650252414047
30
0
0
SPLINE
5
29A
100
AcDbEntity
8
1
62
256
6
ByLayer
370
18
48
1
60
0
100
AcDbSpline
70
4
71
1
72
4
73
2
40
0
40
0
40
1
40
1
41
1
10
255.552045438284
20
-18.6502062128726
30
0
41
1
10
255.107138951123
20
-17.7979728653451
30
0
0
SPLINE
5
29B
100
AcDbEntity
8
1
62
256
6
ByLayer
370
18
48
1
60
0
100
AcDbSpline
70
4
71
3
72
12
73
8
40
0
40
0
40
0
40
0
40
0.250320940265682
40
0.250320940265682
40
0.500642181295399
40
0.500642181295399
40
1
40
1
40
1
40
1
41
1
10
255.104701016602
20
-18.7714726976293
30
0
41
1
10
255.112756568402
20
-18.7702053853604
30
0
41
1
10
255.120793615866
20
-18.7688160334474
30
0
41
1
10
255.136819285032
20
-18.7657941669044
30
0
41
1
10
255.144809777525
20
-18.7641612986701
30
0
41
1
10
255.168650849019
20
-18.7589100339005
30
0
41
1
10
255.184428971294
20
-18.7549284765474
30
0
41
1
10
255.200063329223
20
-18.7504764850987
30
0
0
SPLINE
5
29C
100
AcDbEntity
8
1
62
256
6
ByLayer
370
18
48
1
60
0
100
AcDbSpline
70
4
71
3
72
8
73
4
40
0
40
0
40
0
40
0
40
1
40
1
40
1
40
1
41
1
10
256.991114580244
20
-9.15310888678468
30
0
41
1
10
256.996050494172
20
-9.19096869566917
30
0
41
1
10
256.999429899272
20
-9.22894061132038
30
0
41
1
10
256.999933060269
20
-9.26710906468404
30
0
0
SPLINE
5
29D
100
AcDbEntity
8
1
62
256
6
ByLayer
370
18
48
1
60
0
100
AcDbSpline
70
4
71
1
72
4
73
2
40
0
40
0
40
1
40
1
41
1
10
255.065418342179
20
0.230321304629939
30
0
41
1
10
255.545810676801
20
-0.135471468119306
30
0
0
SPLINE
5
29E
100
AcDbEntity
8
1
62
256
6
ByLayer
370
18
48
1
60
0
100
AcDbSpline
70
4
71
3
72
29
73
25
40
0
40
0
40
0
40
0
40
0.0029611272774829
40
0.0106724165991209
40
0.0260949952423967
40
0.0569401525289484
40
0.118630467102052
40
0.242011096248258
40
0.365391725394465
40
0.427082039967568
40
0.484916709879853
40
0.488772354540672
40
0.49648364386231
40
0.504194933183948
40
0.519617511827223
40
0.550462669113775
40
0.612152983686878
40
0.735533612833085
40
0.858914241979292
40
0.978439226464679
40
0.982294871125498
40
0.990006160447136
40
0.997717449768774
40
1
40
1
40
1
40
1
41
1
10
254.947780660151
20
-17.6283075370099
30
0
41
1
10
254.969066527798
20
-17.6190780945395
30
0
41
1
10
255.04545242958
20
-17.5800603021043
30
0
41
1
10
255.203912298436
20
-17.4289120268996
30
0
41
1
10
255.22143699443
20
-17.04513804459
30
0
41
1
10
255.323300052748
20
-16.4193135951147
30
0
41
1
10
255.482926719381
20
-15.1195212826676
30
0
41
1
10
255.734168104075
20
-13.2839091524538
30
0
41
1
10
255.97239915112
20
-11.4411772305188
30
0
41
1
10
256.173213606233
20
-9.99225294830262
30
0
41
1
10
256.269990981292
20
-9.25498242034348
30
0
41
1
10
256.323738627898
20
-8.82968993959744
30
0
41
1
10
256.316425230224
20
-8.69440105417013
30
0
41
1
10
256.27245180171
20
-8.50638928916482
30
0
41
1
10
256.230451521237
20
-8.18914189485784
30
0
41
1
10
256.122295761827
20
-7.54572427866668
30
0
41
1
10
255.921268209833
20
-6.26226584041359
30
0
41
1
10
255.626933134507
20
-4.42785642022417
30
0
41
1
10
255.279492452615
20
-2.24978876728986
30
0
41
1
10
255.045802387021
20
-0.782600174979194
30
0
41
1
10
254.922305911493
20
0.0076402539735909
30
0
41
1
10
254.869790043799
20
0.153902475222736
30
0
41
1
10
254.766517814014
20
0.260665671567892
30
0
41
1
10
254.702496853602
20
0.296287267663615
30
0
41
1
10
254.687642199804
20
0.303338136917006
30
0
0
SPLINE
5
29F
100
AcDbEntity
8
1
62
256
6
ByLayer
370
18
48
1
60
0
100
AcDbSpline
70
4
71
1
72
4
73
2
40
0
40
0
40
1
40
1
41
1
10
255.104701016602
20
-18.7714255689512
30
0
41
1
10
254.998200600021
20
-17.8228324826174
30
0
0
SPLINE
5
2A0
100
AcDbEntity
8
1
62
256
6
ByLayer
370
18
48
1
60
0
100
AcDbSpline
70
4
71
3
72
8
73
4
40
0
40
0
40
0
40
0
40
1
40
1
40
1
40
1
41
1
10
255.545810676801
20
-0.135471468119079
30
0
41
1
10
255.554801985017
20
-0.166609236068325
30
0
41
1
10
255.561849090272
20
-0.198175017913457
30
0
41
1
10
255.566951992564
20
-0.230168813654501
30
0
0
SPLINE
5
2A1
100
AcDbEntity
8
1
62
256
6
ByLayer
370
18
48
1
60
0
100
AcDbSpline
70
4
71
3
72
26
73
22
40
0
40
0
40
0
40
0
40
0.003272271724319
40
0.0190044475167723
40
0.0504687991016791
40
0.113397502271493
40
0.23925490861112
40
0.365112314950747
40
0.428041018120561
40
0.487036677342261
40
0.490969721290374
40
0.498835809186601
40
0.506701897082828
40
0.522434072875281
40
0.553898424460188
40
0.616827127630001
40
0.742684533969628
40
0.868541940309255
40
0.990466302700769
40
0.994399346648883
40
1
40
1
40
1
40
1
41
1
10
254.990289534857
20
-17.4161258665197
30
0
41
1
10
255.002147897657
20
-17.4035600173033
30
0
41
1
10
255.063069195708
20
-17.3239466578377
30
0
41
1
10
255.077074434101
20
-17.0172454110269
30
0
41
1
10
255.179817856292
20
-16.3860121976195
30
0
41
1
10
255.339223859706
20
-15.0880166799116
30
0
41
1
10
255.590526984383
20
-13.2519534669214
30
0
41
1
10
255.828773542462
20
-11.4091015661771
30
0
41
1
10
256.029607127536
20
-9.96003925672611
30
0
41
1
10
256.126272831557
20
-9.2236194623683
30
0
41
1
10
256.178363153968
20
-8.81144099800156
30
0
41
1
10
256.172424334605
20
-8.70158012508796
30
0
41
1
10
256.129720348684
20
-8.51899595921395
30
0
41
1
10
256.087126261423
20
-8.19726326970888
30
0
41
1
10
255.979251845854
20
-7.55551936544225
30
0
41
1
10
255.77814197451
20
-6.27153536010473
30
0
41
1
10
255.483838807005
20
-4.43732480172579
30
0
41
1
10
255.136385227814
20
-2.2591762970309
30
0
41
1
10
254.902659614205
20
-0.791764521759973
30
0
41
1
10
254.783288752429
20
-0.0279234436097511
30
0
41
1
10
254.766947779327
20
0.023594591725896
30
0
41
1
10
254.753953144979
20
0.0514566334764197
30
0
0
SPLINE
5
2A2
100
AcDbEntity
8
1
62
256
6
ByLayer
370
18
48
1
60
0
100
AcDbSpline
70
4
71
1
72
4
73
2
40
0
40
0
40
1
40
1
41
1
10
256.82455311511
20
-8.11498245154749
30
0
41
1
10
255.566951992564
20
-0.230168813654501
30
0
0
SPLINE
5
2A3
100
AcDbEntity
8
1
62
256
6
ByLayer
370
18
48
1
60
0
100
AcDbSpline
70
4
71
1
72
4
73
2
40
0
40
0
40
1
40
1
41
1
10
255.357671578092
20
-17.5092429078764
30
0
41
1
10
255.802578065244
20
-18.3614762554053
30
0
0
SPLINE
5
2A4
100
AcDbEntity
8
1
62
256
6
ByLayer
370
18
48
1
60
0
100
AcDbSpline
70
4
71
1
72
4
73
2
40
0
40
0
40
1
40
1
41
1
10
256.854591959392
20
-10.4263579870717
30
0
41
1
10
256.930382905473
20
-9.85468291303408
30
0
0
SPLINE
5
2A5
100
AcDbEntity
8
1
62
256
6
ByLayer
370
18
48
1
60
0
100
AcDbSpline
70
4
71
2
72
12
73
9
40
0
40
0
40
0
40
0.25
40
0.5
40
0.5
40
0.75
40
0.75
40
0.875
40
1
40
1
40
1
41
1
10
255.061525475772
20
0.243802676641764
30
0
41
1
10
255.047622878045
20
0.291948714150124
30
0
41
1
10
254.993210900405
20
0.377080892548065
30
0
41
1
10
254.953775960467
20
0.411107483849122
30
0
41
1
10
254.916061777362
20
0.443649313425141
30
0
41
1
10
254.868450775563
20
0.465065621734681
30
0
41
1
10
254.846339406348
20
0.475011724155394
30
0
41
1
10
254.796723060489
20
0.489195109887106
30
0
41
1
10
254.7707680494
20
0.492588324681606
30
0
0
SPLINE
5
2A6
100
AcDbEntity
8
1
62
256
6
ByLayer
370
18
48
1
60
0
100
AcDbSpline
70
4
71
1
72
4
73
2
40
0
40
0
40
1
40
1
41
1
10
255.802578065244
20
-18.3614762554054
30
0
41
1
10
256.854591959392
20
-10.4263579870717
30
0
0
SPLINE
5
2A7
100
AcDbEntity
8
1
62
256
6
ByLayer
370
18
48
1
60
0
100
AcDbSpline
70
4
71
1
72
4
73
2
40
0
40
0
40
1
40
1
41
1
10
256.993155758073
20
-9.38120056438208
30
0
41
1
10
256.496924283895
20
-8.91610073707983
30
0
0
SPLINE
5
2A8
100
AcDbEntity
8
1
62
256
6
ByLayer
370
13
48
1
60
0
100
AcDbSpline
70
4
71
2
72
6
73
3
40
0
40
0
40
0
40
1
40
1
40
1
41
1
10
256.949929314873
20
17.1997413130889
30
0
41
0.997409491337352
10
256.950694565624
20
17.1420511986927
30
0
41
1
10
256.943210379186
20
17.0848516510902
30
0
0
SPLINE
5
2A9
100
AcDbEntity
8
1
62
256
6
ByLayer
370
13
48
1
60
0
100
AcDbSpline
70
4
71
3
72
9
73
5
40
0
40
0
40
0
40
0
40
0.806009473587706
40
1
40
1
40
1
40
1
41
1
10
254.257434069999
20
26.9832586791673
30
0
41
1
10
254.23823009862
20
26.982727134474
30
0
41
1
10
254.214418890825
20
26.9816375860112
30
0
41
1
10
254.190606729467
20
26.9805883078568
30
0
41
1
10
254.185987370755
20
26.9803858134079
30
0
0
SPLINE
5
2AA
100
AcDbEntity
8
1
62
256
6
ByLayer
370
13
48
1
60
0
100
AcDbSpline
70
4
71
3
72
12
73
8
40
0
40
0
40
0
40
0
40
0.0925377658720195
40
0.0925377658720195
40
0.591129664731732
40
0.591129664731732
40
1
40
1
40
1
40
1
41
1
10
255.629849285374
20
7.31081798099265
30
0
41
1
10
255.621288260395
20
7.30185661749073
30
0
41
1
10
255.612519004889
20
7.29309944174543
30
0
41
1
10
255.555208317598
20
7.23849384048549
30
0
41
1
10
255.500248778492
20
7.19795221792864
30
0
41
1
10
255.394395050787
20
7.13872175969374
30
0
41
1
10
255.343679649676
20
7.11683104010689
30
0
41
1
10
255.291277735251
20
7.10020364615849
30
0
0
SPLINE
5
2AB
100
AcDbEntity
8
1
62
256
6
ByLayer
370
13
48
1
60
0
100
AcDbSpline
70
4
71
3
72
24
73
20
40
0
40
0
40
0
40
0
40
0.0612470953002204
40
0.0612470953002204
40
0.122494190600441
40
0.122494190600441
40
0.183741285900661
40
0.183741285900661
40
0.244988381200882
40
0.244988381200882
40
0.367482571801323
40
0.367482571801323
40
0.489976762401764
40
0.489976762401764
40
0.734965143602647
40
0.734965143602647
40
0.979953524803529
40
0.979953524803529
40
1
40
1
40
1
40
1
41
1
10
255.878628430143
20
7.82332305389303
30
0
41
1
10
255.877378751968
20
7.80600345317691
30
0
41
1
10
255.87565363583
20
7.7869996828322
30
0
41
1
10
255.871632945899
20
7.74960113675075
30
0
41
1
10
255.869404039446
20
7.73209045051249
30
0
41
1
10
255.865046226659
20
7.70176819877682
30
0
41
1
10
255.862882897152
20
7.68850571492311
30
0
41
1
10
255.858729906827
20
7.66486334298762
30
0
41
1
10
255.856709599938
20
7.65431566635337
30
0
41
1
10
255.850850702832
20
7.62544772998723
30
0
41
1
10
255.847178314922
20
7.60971698913408
30
0
41
1
10
255.84008906334
20
7.58192800588654
30
0
41
1
10
255.836700838002
20
7.57003928599187
30
0
41
1
10
255.82682589246
20
7.53808880088479
30
0
41
1
10
255.820656014936
20
7.52177634999879
30
0
41
1
10
255.808771195501
20
7.49430039075014
30
0
41
1
10
255.803074131046
20
7.4832966531994
30
0
41
1
10
255.797089812659
20
7.47338643760858
30
0
41
1
10
255.796638316678
20
7.47264903405224
30
0
41
1
10
255.79618794181
20
7.4719235935263
30
0
0
SPLINE
5
2AC
100
AcDbEntity
8
1
62
256
6
ByLayer
370
13
48
1
60
0
100
AcDbSpline
70
4
71
3
72
10
73
6
40
0
40
0
40
0
40
0
40
0.121795173981716
40
0.121795173981716
40
1
40
1
40
1
40
1
41
1
10
255.770289539036
20
7.4409915324145
30
0
41
1
10
255.768888621851
20
7.439867558381
30
0
41
1
10
255.767496080968
20
7.43883181870945
30
0
41
1
10
255.756125135292
20
7.43098399364598
30
0
41
1
10
255.746570804232
20
7.42840527193076
30
0
41
1
10
255.737304815315
20
7.42870756241976
30
0
0
SPLINE
5
2AD
100
AcDbEntity
8
1
62
256
6
ByLayer
370
13
48
1
60
0
100
AcDbSpline
70
4
71
1
72
4
73
2
40
0
40
0
40
1
40
1
41
1
10
234.91753433748
20
16.0474055785023
30
0
41
1
10
234.861536318056
20
16.0441255393873
30
0
0
SPLINE
5
2AE
100
AcDbEntity
8
1
62
256
6
ByLayer
370
13
48
1
60
0
100
AcDbSpline
70
4
71
3
72
28
73
24
40
0
40
0
40
0
40
0
40
0.125000000000081
40
0.125000000000081
40
0.250000000000162
40
0.250000000000162
40
0.375000000000243
40
0.375000000000243
40
0.500000000000324
40
0.500000000000324
40
0.625000000000405
40
0.625000000000405
40
0.687500000000445
40
0.687500000000445
40
0.750000000000485
40
0.750000000000485
40
0.781250000000506
40
0.781250000000506
40
0.812500000000526
40
0.812500000000526
40
0.875000000000351
40
0.875000000000351
40
1
40
1
40
1
40
1
41
1
10
255.737304815315
20
7.42870756241985
30
0
41
1
10
255.718607248925
20
7.41795984473254
30
0
41
1
10
255.698778985874
20
7.4073514229791
30
0
41
1
10
255.656248346215
20
7.3864886552785
30
0
41
1
10
255.633349298503
20
7.37616976692638
30
0
41
1
10
255.58484889396
20
7.35660942607828
30
0
41
1
10
255.559217785615
20
7.34731058394743
30
0
41
1
10
255.504192918098
20
7.33002440836745
30
0
41
1
10
255.475164664666
20
7.32223187343416
30
0
41
1
10
255.415790725446
20
7.30950837877268
30
0
41
1
10
255.385541022075
20
7.30460715225635
30
0
41
1
10
255.342051050467
20
7.30000602955056
30
0
41
1
10
255.327691665576
20
7.29889358487031
30
0
41
1
10
255.299502478508
20
7.29711363805399
30
0
41
1
10
255.285546434428
20
7.29636169047484
30
0
41
1
10
255.26502158217
20
7.29564143641173
30
0
41
1
10
255.258147997227
20
7.29536950501648
30
0
41
1
10
255.243814828191
20
7.29424185776301
30
0
41
1
10
255.236398516225
20
7.2934275265016
30
0
41
1
10
255.213887857709
20
7.2907144417822
30
0
41
1
10
255.199078594615
20
7.28910683406676
30
0
41
1
10
255.155939174761
20
7.28559369336708
30
0
41
1
10
255.127396658904
20
7.28347228831129
30
0
41
1
10
255.099151700739
20
7.28165336334018
30
0
0
SPLINE
5
2AF
100
AcDbEntity
8
1
62
256
6
ByLayer
370
13
48
1
60
0
100
AcDbSpline
70
4
71
2
72
6
73
3
40
0
40
0
40
0
40
1
40
1
40
1
41
1
10
256.949929314873
20
17.1997413130889
30
0
41
0.997409491337351
10
256.949164064123
20
17.2574314274868
30
0
41
1
10
256.940165214752
20
17.3144180833224
30
0
0
SPLINE
5
2B0
100
AcDbEntity
8
1
62
256
6
ByLayer
370
13
48
1
60
0
100
AcDbSpline
70
4
71
1
72
4
73
2
40
0
40
0
40
1
40
1
41
1
10
235.195172435203
20
15.8070617720435
30
0
41
1
10
234.933997650062
20
15.7995861686514
30
0
0
SPLINE
5
2B1
100
AcDbEntity
8
1
62
256
6
ByLayer
370
13
48
1
60
0
100
AcDbSpline
70
4
71
3
72
20
73
16
40
0
40
0
40
0
40
0
40
0.0624999999999714
40
0.0624999999999714
40
0.124999999999943
40
0.124999999999943
40
0.140624999999936
40
0.140624999999936
40
0.156249999999928
40
0.156249999999928
40
0.187499999999925
40
0.187499999999925
40
0.24999999999993
40
0.49999999999995
40
1
40
1
40
1
40
1
41
1
10
239.170474822345
20
7.76125748842796
30
0
41
1
10
239.300874297868
20
7.84846528851597
30
0
41
1
10
239.438471529459
20
7.91965168127814
30
0
41
1
10
239.72751223505
20
8.03120426568651
30
0
41
1
10
239.88063984559
20
8.07151562502932
30
0
41
1
10
240.071713490459
20
8.09968842445494
30
0
41
1
10
240.109997755
20
8.1042712132969
30
0
41
1
10
240.186708728764
20
8.11128222182759
30
0
41
1
10
240.225153718443
20
8.11343393763187
30
0
41
1
10
240.340521309555
20
8.11939565472383
30
0
41
1
10
240.4174266915
20
8.1234661120929
30
0
41
1
10
240.648150746856
20
8.13555784746131
30
0
41
1
10
241.417230931379
20
8.17586363202278
30
0
41
1
10
243.416839411138
20
8.28065867188243
30
0
41
1
10
245.262631853996
20
8.37739255483001
30
0
41
1
10
246.493160149232
20
8.44188181012831
30
0
0
SPLINE
5
2B2
100
AcDbEntity
8
1
62
256
6
ByLayer
370
13
48
1
60
0
100
AcDbSpline
70
4
71
3
72
8
73
4
40
0
40
0
40
0
40
0
40
1
40
1
40
1
40
1
41
1
10
254.005734699259
20
26.9426896918008
30
0
41
1
10
254.065827711855
20
26.9552572127341
30
0
41
1
10
254.125855029528
20
26.9678087048889
30
0
41
1
10
254.185987370756
20
26.9803858134079
30
0
0
SPLINE
5
2B3
100
AcDbEntity
8
1
62
256
6
ByLayer
370
13
48
1
60
0
100
AcDbSpline
70
4
71
2
72
6
73
3
40
0
40
0
40
0
40
1
40
1
40
1
41
1
10
234.915426832951
20
16.1539384683405
30
0
41
0.997409491337352
10
234.9126560276
20
16.1005974765002
30
0
41
1
10
234.91753433748
20
16.0474055785023
30
0
0
SPLINE
5
2B4
100
AcDbEntity
8
1
62
256
6
ByLayer
370
13
48
1
60
0
100
AcDbSpline
70
4
71
3
72
8
73
4
40
0
40
0
40
0
40
0
40
1
40
1
40
1
40
1
41
1
10
254.528786202938
20
26.9866369575933
30
0
41
1
10
254.438369970163
20
26.9868836247508
30
0
41
1
10
254.347918919547
20
26.9857440092366
30
0
41
1
10
254.257434069999
20
26.9832586791672
30
0
0
SPLINE
5
2B5
100
AcDbEntity
8
1
62
256
6
ByLayer
370
13
48
1
60
0
100
AcDbSpline
70
4
71
3
72
9
73
5
40
0
40
0
40
0
40
0
40
0.806009473589145
40
1
40
1
40
1
40
1
41
1
10
237.877903579957
20
6.1382211761987
30
0
41
1
10
237.897107551336
20
6.13875272089197
30
0
41
1
10
237.92091875913
20
6.13984226935472
30
0
41
1
10
237.944730920489
20
6.14089154750911
30
0
41
1
10
237.9493502792
20
6.14109404195801
30
0
0
SPLINE
5
2B6
100
AcDbEntity
8
1
62
256
6
ByLayer
370
13
48
1
60
0
100
AcDbSpline
70
4
71
3
72
10
73
6
40
0
40
0
40
0
40
0
40
0.5
40
0.5
40
1
40
1
40
1
40
1
41
1
10
238.878223886348
20
7.50228872688871
30
0
41
1
10
238.87447634121
20
7.50209232637027
30
0
41
1
10
238.857399510896
20
7.51188335787285
30
0
41
1
10
238.806916880651
20
7.54485536470079
30
0
41
1
10
238.773471540529
20
7.56800234741203
30
0
41
1
10
238.741532311568
20
7.59087481231663
30
0
0
SPLINE
5
2B7
100
AcDbEntity
8
1
62
256
6
ByLayer
370
13
48
1
60
0
100
AcDbSpline
70
4
71
1
72
4
73
2
40
0
40
0
40
1
40
1
41
1
10
236.638995237126
20
25.8021079949701
30
0
41
1
10
236.448819731773
20
26.0225707672938
30
0
0
SPLINE
5
2B8
100
AcDbEntity
8
1
62
256
6
ByLayer
370
13
48
1
60
0
100
AcDbSpline
70
4
71
3
72
10
73
6
40
0
40
0
40
0
40
0
40
0.469672452898939
40
0.469672452898939
40
1
40
1
40
1
40
1
41
1
10
253.218170841786
20
25.5312873571891
30
0
41
1
10
253.218204346068
20
25.5310667050811
30
0
41
1
10
253.231024251566
20
25.530672427528
30
0
41
1
10
253.279055682205
20
25.5296955727403
30
0
41
1
10
253.316989071679
20
25.5291046476218
30
0
41
1
10
253.356213601929
20
25.5286349436221
30
0
0
SPLINE
5
2B9
100
AcDbEntity
8
1
62
256
6
ByLayer
370
13
48
1
60
0
100
AcDbSpline
70
4
71
3
72
20
73
16
40
0
40
0
40
0
40
0
40
0.500000000000018
40
0.500000000000018
40
0.750000000000027
40
0.750000000000027
40
0.875000000000032
40
0.875000000000032
40
0.906250000000027
40
0.906250000000027
40
0.921875000000024
40
0.921875000000024
40
0.937500000000022
40
0.937500000000022
40
1
40
1
40
1
40
1
41
1
10
245.642177500722
20
24.6795980452377
30
0
41
1
10
244.519734204561
20
24.6207732847148
30
0
41
1
10
243.397290624052
20
24.5619533592205
30
0
41
1
10
241.713625717882
20
24.4737164560523
30
0
41
1
10
241.15240498148
20
24.4442924660131
30
0
41
1
10
240.310572529675
20
24.4001739977848
30
0
41
1
10
240.029960034861
20
24.3854896537802
30
0
41
1
10
239.679197239102
20
24.3670975212155
30
0
41
1
10
239.609045268929
20
24.3634114365777
30
0
41
1
10
239.503816531222
20
24.3578924833126
30
0
41
1
10
239.468739294766
20
24.3560657117566
30
0
41
1
10
239.398585922312
20
24.3523978601056
30
0
41
1
10
239.363530050725
20
24.3502932946184
30
0
41
1
10
239.18781829178
20
24.3453927051588
30
0
41
1
10
239.046188241718
20
24.3552631051283
30
0
41
1
10
238.903378384815
20
24.3804737901992
30
0
0
SPLINE
5
2BA
100
AcDbEntity
8
1
62
256
6
ByLayer
370
13
48
1
60
0
100
AcDbSpline
70
4
71
2
72
6
73
3
40
0
40
0
40
0
40
1
40
1
40
1
41
0.998850556413365
10
234.927420910473
20
15.9769042738213
30
0
41
0.998270163111948
10
234.924485202886
20
15.9413903291642
30
0
41
1
10
234.924957890198
20
15.905755754382
30
0
0
SPLINE
5
2BB
100
AcDbEntity
8
1
62
256
6
ByLayer
370
13
48
1
60
0
100
AcDbSpline
70
4
71
3
72
22
73
18
40
0
40
0
40
0
40
0
40
0.0624999999999955
40
0.0624999999999955
40
0.0937499999999832
40
0.0937499999999832
40
0.124999999999971
40
0.124999999999971
40
0.156249999999959
40
0.156249999999959
40
0.171874999999953
40
0.171874999999953
40
0.187499999999946
40
0.187499999999946
40
0.249999999999966
40
0.499999999999977
40
1
40
1
40
1
40
1
41
1
10
253.094064212913
20
25.1947187029373
30
0
41
1
10
252.961005900457
20
25.1057327414048
30
0
41
1
10
252.820839324879
20
25.0318408072168
30
0
41
1
10
252.600228061627
20
24.9430048001479
30
0
41
1
10
252.524581694802
20
24.9169724155535
30
0
41
1
10
252.371448563971
20
24.8730354889507
30
0
41
1
10
252.294557569088
20
24.8552801781495
30
0
41
1
10
252.140156351691
20
24.8278110592447
30
0
41
1
10
252.062653232396
20
24.8180050062916
30
0
41
1
10
251.945925729183
20
24.809436185236
30
0
41
1
10
251.906934890419
20
24.8076405195579
30
0
41
1
10
251.828990531512
20
24.8035645557625
30
0
41
1
10
251.790018989498
20
24.8015182958489
30
0
41
1
10
251.595159803852
20
24.7913061586562
30
0
41
1
10
250.815723061266
20
24.7504576098857
30
0
41
1
10
248.789187530544
20
24.6442513830824
30
0
41
1
10
246.918539348338
20
24.5462148660331
30
0
41
1
10
245.671440560201
20
24.4808571880003
30
0
0
SPLINE
5
2BC
100
AcDbEntity
8
1
62
256
6
ByLayer
370
13
48
1
60
0
100
AcDbSpline
70
4
71
1
72
4
73
2
40
0
40
0
40
1
40
1
41
1
10
234.924957890198
20
15.9057557543821
30
0
41
1
10
235.185408335082
20
15.921738542277
30
0
0
SPLINE
5
2BD
100
AcDbEntity
8
1
62
256
6
ByLayer
370
13
48
1
60
0
100
AcDbSpline
70
4
71
3
72
9
73
5
40
0
40
0
40
0
40
0
40
0.806009473588538
40
1
40
1
40
1
40
1
41
1
10
236.194258582616
20
26.0366077650737
30
0
41
1
10
236.213412914181
20
26.0380864938548
30
0
41
1
10
236.237207570514
20
26.0394918630118
30
0
41
1
10
236.260998965794
20
26.0409373815468
30
0
41
1
10
236.265614185608
20
26.0412188508511
30
0
0
SPLINE
5
2BE
100
AcDbEntity
8
1
62
256
6
ByLayer
370
13
48
1
60
0
100
AcDbSpline
70
4
71
3
72
18
73
14
40
0
40
0
40
0
40
0
40
0.499999999999963
40
0.499999999999963
40
0.749999999999945
40
0.749999999999945
40
0.874999999999948
40
0.874999999999948
40
0.906249999999961
40
0.906249999999961
40
0.937499999999974
40
0.937499999999974
40
1
40
1
40
1
40
1
41
1
10
246.501488826214
20
8.64259276679272
30
0
41
1
10
247.631701020454
20
8.70182467801143
30
0
41
1
10
248.761913443815
20
8.76105155636108
30
0
41
1
10
250.457231781616
20
8.84989948052771
30
0
41
1
10
251.022337390054
20
8.87952800149685
30
0
41
1
10
251.869996628216
20
8.92395023999339
30
0
41
1
10
252.152550680093
20
8.93873345208746
30
0
41
1
10
252.505741377347
20
8.9572589428638
30
0
41
1
10
252.576379002362
20
8.96097684291368
30
0
41
1
10
252.717656118226
20
8.96836621115142
30
0
41
1
10
252.788254549761
20
8.97305945358212
30
0
41
1
10
253.000523485942
20
8.97535245779059
30
0
41
1
10
253.142548097759
20
8.96414014868193
30
0
41
1
10
253.285133633641
20
8.93896906372487
30
0
0
SPLINE
5
2BF
100
AcDbEntity
8
1
62
256
6
ByLayer
370
13
48
1
60
0
100
AcDbSpline
70
4
71
3
72
12
73
8
40
0
40
0
40
0
40
0
40
0.25
40
0.25
40
0.500000000000001
40
0.500000000000001
40
1
40
1
40
1
40
1
41
1
10
236.4015222825
20
25.801095256185
30
0
41
1
10
236.421721186659
20
25.8016317078448
30
0
41
1
10
236.441368851602
20
25.8015604281499
30
0
41
1
10
236.480863054127
20
25.8016371159636
30
0
41
1
10
236.500644262184
20
25.8017114881594
30
0
41
1
10
236.559952954152
20
25.8018977045496
30
0
41
1
10
236.599467877658
20
25.8019962838617
30
0
41
1
10
236.638995237126
20
25.8021079949701
30
0
0
SPLINE
5
2C0
100
AcDbEntity
8
1
62
256
6
ByLayer
370
13
48
1
60
0
100
AcDbSpline
70
4
71
3
72
10
73
6
40
0
40
0
40
0
40
0
40
0.5
40
0.5
40
1
40
1
40
1
40
1
41
1
10
238.907135535841
20
7.58962340820642
30
0
41
1
10
238.903386919157
20
7.58942695153064
30
0
41
1
10
238.883000894353
20
7.58947855335776
30
0
41
1
10
238.821690327672
20
7.58997141158741
30
0
41
1
10
238.780756841818
20
7.59040510831696
30
0
41
1
10
238.741532311568
20
7.59087481231663
30
0
0
SPLINE
5
2C1
100
AcDbEntity
8
1
62
256
6
ByLayer
370
13
48
1
60
0
100
AcDbSpline
70
4
71
3
72
8
73
4
40
0
40
0
40
0
40
0
40
1
40
1
40
1
40
1
41
1
10
236.448819731773
20
26.0225707672938
30
0
41
1
10
236.387742251337
20
26.0287880117726
30
0
41
1
10
236.326731781405
20
26.0349961822697
30
0
41
1
10
236.265614185608
20
26.0412188508511
30
0
0
SPLINE
5
2C2
100
AcDbEntity
8
1
62
256
6
ByLayer
370
13
48
1
60
0
100
AcDbSpline
70
4
71
3
72
8
73
4
40
0
40
0
40
0
40
0
40
1
40
1
40
1
40
1
41
1
10
236.163226817674
20
25.7943248519328
30
0
41
1
10
236.243709352996
20
25.7984757002433
30
0
41
1
10
236.323177855135
20
25.800417078484
30
0
41
1
10
236.4015222825
20
25.801095256185
30
0
0
SPLINE
5
2C3
100
AcDbEntity
8
1
62
256
6
ByLayer
370
13
48
1
60
0
100
AcDbSpline
70
4
71
3
72
10
73
6
40
0
40
0
40
0
40
0
40
0.5
40
0.5
40
1
40
1
40
1
40
1
41
1
10
253.247715829493
20
25.6186986036204
30
0
41
1
10
253.243968284355
20
25.618502203102
30
0
41
1
10
253.253714624294
20
25.6083269968778
30
0
41
1
10
253.293829011785
20
25.574811613472
30
0
41
1
10
253.324274372969
20
25.5515074085266
30
0
41
1
10
253.356213601929
20
25.5286349436221
30
0
0
SPLINE
5
2C4
100
AcDbEntity
8
1
62
256
6
ByLayer
370
13
48
1
60
0
100
AcDbSpline
70
4
71
2
72
6
73
3
40
0
40
0
40
0
40
1
40
1
40
1
41
1
10
235.185408335082
20
15.921738542277
30
0
41
0.997409491337352
10
235.184643084332
20
15.9794286566733
30
0
41
1
10
235.19212727077
20
16.0366282042757
30
0
0
SPLINE
5
2C5
100
AcDbEntity
8
1
62
256
6
ByLayer
370
13
48
1
60
0
100
AcDbSpline
70
4
71
3
72
22
73
18
40
0
40
0
40
0
40
0
40
0.0624999999999994
40
0.0624999999999994
40
0.0937500000000041
40
0.0937500000000041
40
0.125000000000009
40
0.125000000000009
40
0.156250000000013
40
0.156250000000013
40
0.17187500000001
40
0.17187500000001
40
0.187500000000007
40
0.187500000000007
40
0.250000000000006
40
0.5
40
1
40
1
40
1
40
1
41
1
10
239.078865173501
20
7.92873125185582
30
0
41
1
10
239.211923485957
20
8.01771721338829
30
0
41
1
10
239.352090061534
20
8.09160914757626
30
0
41
1
10
239.572701324787
20
8.18044515464518
30
0
41
1
10
239.648347691612
20
8.20647753923953
30
0
41
1
10
239.801480822443
20
8.2504144658424
30
0
41
1
10
239.878371817326
20
8.26816977664356
30
0
41
1
10
240.032773034723
20
8.29563889554845
30
0
41
1
10
240.110276154018
20
8.30544494850147
30
0
41
1
10
240.227003657231
20
8.31401376955716
30
0
41
1
10
240.265994495995
20
8.31580943523522
30
0
41
1
10
240.343938854902
20
8.31988539903062
30
0
41
1
10
240.382910396915
20
8.32193165894424
30
0
41
1
10
240.577769582562
20
8.33214379613688
30
0
41
1
10
241.357206325148
20
8.37299234490743
30
0
41
1
10
243.383741855871
20
8.47919857171078
30
0
41
1
10
245.254390038076
20
8.57723508875998
30
0
41
1
10
246.501488826213
20
8.6425927667928
30
0
0
SPLINE
5
2C6
100
AcDbEntity
8
1
62
256
6
ByLayer
370
13
48
1
60
0
100
AcDbSpline
70
4
71
1
72
4
73
2
40
0
40
0
40
1
40
1
41
1
10
235.19212727077
20
16.0366282042757
30
0
41
1
10
234.931178388186
20
16.0121224387095
30
0
0
SPLINE
5
2C7
100
AcDbEntity
8
1
62
256
6
ByLayer
370
13
48
1
60
0
100
AcDbSpline
70
4
71
2
72
6
73
3
40
0
40
0
40
0
40
1
40
1
40
1
41
1
10
234.931178388186
20
16.0121224387095
30
0
41
0.999139328225403
10
234.928880286603
20
15.9945586898685
30
0
41
0.998850556413365
10
234.927420910473
20
15.9769042738213
30
0
0
SPLINE
5
2C8
100
AcDbEntity
8
1
62
256
6
ByLayer
370
13
48
1
60
0
100
AcDbSpline
70
4
71
3
72
24
73
20
40
0
40
0
40
0
40
0
40
0.0436863032248858
40
0.0436863032248858
40
0.0873726064497715
40
0.0873726064497715
40
0.131058909674657
40
0.131058909674657
40
0.174745212899543
40
0.174745212899543
40
0.262117819349304
40
0.262117819349304
40
0.349490425799065
40
0.349490425799065
40
0.524235638698588
40
0.524235638698588
40
0.698980851598111
40
0.698980851598111
40
1
40
1
40
1
40
1
41
1
10
236.584703922021
20
6.81217131676786
30
0
41
1
10
236.587757145576
20
6.79507722157609
30
0
41
1
10
236.591459246258
20
6.77635787961216
30
0
41
1
10
236.599367122979
20
6.73958448321886
30
0
41
1
10
236.603414184373
20
6.72240270651855
30
0
41
1
10
236.610917662981
20
6.69270207872424
30
0
41
1
10
236.6144554486
20
6.67973837765365
30
0
41
1
10
236.621056989216
20
6.65665962680237
30
0
41
1
10
236.624168761082
20
6.64638091101867
30
0
41
1
10
236.633013083562
20
6.61828353773944
30
0
41
1
10
236.638309663915
20
6.60302284059523
30
0
41
1
10
236.648264819549
20
6.57612711687923
30
0
41
1
10
236.652877193455
20
6.56465769062399
30
0
41
1
10
236.666037778121
20
6.53391444649972
30
0
41
1
10
236.673878971833
20
6.51833628474239
30
0
41
1
10
236.688570704782
20
6.4922531435852
30
0
41
1
10
236.695386763898
20
6.48190519105276
30
0
41
1
10
236.712971947651
20
6.45867518144527
30
0
41
1
10
236.723031338218
20
6.44929161687637
30
0
41
1
10
236.732413692026
20
6.44325884529377
30
0
0
SPLINE
5
2C9
100
AcDbEntity
8
1
62
256
6
ByLayer
370
13
48
1
60
0
100
AcDbSpline
70
4
71
2
72
6
73
3
40
0
40
0
40
0
40
1
40
1
40
1
41
1
10
234.933997650062
20
15.7995861686514
30
0
41
0.997409491337352
10
234.925666371567
20
15.8523453249319
30
0
41
1
10
234.924957890198
20
15.9057557543821
30
0
0
SPLINE
5
2CA
100
AcDbEntity
8
1
62
256
6
ByLayer
370
13
48
1
60
0
100
AcDbSpline
70
4
71
1
72
4
73
2
40
0
40
0
40
1
40
1
41
1
10
234.837431349626
20
16.1511308542385
30
0
41
1
10
234.915426832951
20
16.1539384683405
30
0
0
SPLINE
5
2CB
100
AcDbEntity
8
1
62
256
6
ByLayer
370
13
48
1
60
0
100
AcDbSpline
70
4
71
3
72
20
73
16
40
0
40
0
40
0
40
0
40
0.125
40
0.125
40
0.25
40
0.25
40
0.375
40
0.375
40
0.5
40
0.5
40
0.625
40
0.625
40
0.75
40
0.75
40
1
40
1
40
1
40
1
41
1
10
236.615430367332
20
6.81305079952042
30
0
41
1
10
236.625293573938
20
6.74590808927726
30
0
41
1
10
236.643746437041
20
6.68176412388252
30
0
41
1
10
236.696318786879
20
6.55894558606988
30
0
41
1
10
236.731061374143
20
6.50004924667559
30
0
41
1
10
236.814026867595
20
6.39325764275304
30
0
41
1
10
236.861706500048
20
6.34585708978696
30
0
41
1
10
236.967483604301
20
6.2643524663373
30
0
41
1
10
237.026379822806
20
6.22977777119536
30
0
41
1
10
237.148865592665
20
6.17720640498396
30
0
41
1
10
237.213831321855
20
6.15848371802235
30
0
41
1
10
237.346216568487
20
6.13734228545269
30
0
41
1
10
237.412673453025
20
6.137293208269
30
0
41
1
10
237.611958725926
20
6.1337465182846
30
0
41
1
10
237.744895589321
20
6.13456787113992
30
0
41
1
10
237.877903579957
20
6.1382211761987
30
0
0
SPLINE
5
2CC
100
AcDbEntity
8
1
62
256
6
ByLayer
370
13
48
1
60
0
100
AcDbSpline
70
4
71
3
72
18
73
14
40
0
40
0
40
0
40
0
40
0.5
40
0.5
40
0.749999999999994
40
0.749999999999994
40
0.874999999999997
40
0.874999999999997
40
0.906249999999997
40
0.906249999999997
40
0.937499999999998
40
0.937499999999998
40
1
40
1
40
1
40
1
41
1
10
245.6714405602
20
24.4808571880004
30
0
41
1
10
244.54122836596
20
24.4216252767817
30
0
41
1
10
243.411015942598
20
24.362398398432
30
0
41
1
10
241.715697604797
20
24.2735504742654
30
0
41
1
10
241.15059199636
20
24.2439219532963
30
0
41
1
10
240.302932758198
20
24.1994997147997
30
0
41
1
10
240.02037870632
20
24.1847165027056
30
0
41
1
10
239.667188009067
20
24.1661910119293
30
0
41
1
10
239.596550384051
20
24.1624731118794
30
0
41
1
10
239.455273268188
20
24.1550837436417
30
0
41
1
10
239.384674836653
20
24.150390501211
30
0
41
1
10
239.172405900472
20
24.1480974970025
30
0
41
1
10
239.030381288655
20
24.1593098061112
30
0
41
1
10
238.887795752773
20
24.1844808910682
30
0
0
SPLINE
5
2CD
100
AcDbEntity
8
1
62
256
6
ByLayer
370
13
48
1
60
0
100
AcDbSpline
70
4
71
2
72
6
73
3
40
0
40
0
40
0
40
1
40
1
40
1
41
0.998850556413353
10
234.927420910473
20
15.976904273822
30
0
41
0.998270163111965
10
234.92078906694
20
16.0119168043713
30
0
41
1
10
234.91753433748
20
16.0474055785023
30
0
0
SPLINE
5
2CE
100
AcDbEntity
8
1
62
256
6
ByLayer
370
13
48
1
60
0
100
AcDbSpline
70
4
71
3
72
20
73
16
40
0
40
0
40
0
40
0
40
0.0624999999999333
40
0.0624999999999333
40
0.124999999999867
40
0.124999999999867
40
0.140624999999861
40
0.140624999999861
40
0.156249999999855
40
0.156249999999855
40
0.187499999999867
40
0.187499999999867
40
0.249999999999867
40
0.499999999999911
40
1
40
1
40
1
40
1
41
1
10
252.964862827606
20
25.3602223669347
30
0
41
1
10
252.834463352082
20
25.2730145668469
30
0
41
1
10
252.696866120491
20
25.2018281740849
30
0
41
1
10
252.407825414898
20
25.0902755896771
30
0
41
1
10
252.254697804358
20
25.0499642303348
30
0
41
1
10
252.063624159488
20
25.0217914309099
30
0
41
1
10
252.025339894947
20
25.0172086420681
30
0
41
1
10
251.948628921183
20
25.0101976335377
30
0
41
1
10
251.910183931504
20
25.0080459177336
30
0
41
1
10
251.794816340391
20
25.0020842006416
30
0
41
1
10
251.717910958446
20
24.9980137432725
30
0
41
1
10
251.487186903089
20
24.9859220079041
30
0
41
1
10
250.718106718563
20
24.9456162233425
30
0
41
1
10
248.718498238785
20
24.8408211834818
30
0
41
1
10
246.872705795963
20
24.7440873005361
30
0
41
1
10
245.642177500723
20
24.6795980452376
30
0
0
SPLINE
5
2CF
100
AcDbEntity
8
1
62
256
6
ByLayer
370
13
48
1
60
0
100
AcDbSpline
70
4
71
3
72
20
73
16
40
0
40
0
40
0
40
0
40
0.499999999999957
40
0.499999999999957
40
0.749999999999942
40
0.749999999999942
40
0.874999999999922
40
0.874999999999922
40
0.906249999999911
40
0.906249999999911
40
0.921874999999918
40
0.921874999999918
40
0.937499999999924
40
0.937499999999924
40
1
40
1
40
1
40
1
41
1
10
246.493160149233
20
8.44188181012822
30
0
41
1
10
247.615603445394
20
8.50070657065118
30
0
41
1
10
248.738047025903
20
8.55952649614542
30
0
41
1
10
250.421711932073
20
8.64776339931359
30
0
41
1
10
250.982932668474
20
8.67718738935272
30
0
41
1
10
251.82476512028
20
8.72130585758106
30
0
41
1
10
252.105377615094
20
8.73599020158565
30
0
41
1
10
252.456140410852
20
8.75438233415039
30
0
41
1
10
252.526292381025
20
8.75806841878818
30
0
41
1
10
252.631521118733
20
8.76358737205334
30
0
41
1
10
252.666598355188
20
8.76541414360929
30
0
41
1
10
252.736751727643
20
8.76908199526025
30
0
41
1
10
252.771807599229
20
8.77118656074748
30
0
41
1
10
252.947519358174
20
8.77608715020713
30
0
41
1
10
253.089149408238
20
8.76621675023762
30
0
41
1
10
253.23195926514
20
8.7410060651668
30
0
0
SPLINE
5
2D0
100
AcDbEntity
8
1
62
256
6
ByLayer
370
13
48
1
60
0
100
AcDbSpline
70
4
71
2
72
6
73
3
40
0
40
0
40
0
40
1
40
1
40
1
41
1
10
235.185408335082
20
15.921738542277
30
0
41
0.997409491337351
10
235.186173585833
20
15.8640484278792
30
0
41
1
10
235.195172435203
20
15.8070617720435
30
0
0
SPLINE
5
2D1
100
AcDbEntity
8
1
62
256
6
ByLayer
370
13
48
1
60
0
100
AcDbSpline
70
4
71
3
72
24
73
20
40
0
40
0
40
0
40
0
40
0.125000000000014
40
0.125000000000014
40
0.250000000000029
40
0.250000000000029
40
0.375000000000044
40
0.375000000000044
40
0.500000000000058
40
0.500000000000058
40
0.625000000000073
40
0.625000000000073
40
0.750000000000087
40
0.750000000000087
40
0.812500000000034
40
0.812500000000034
40
0.874999999999981
40
0.874999999999981
40
1
40
1
40
1
40
1
41
1
10
255.519907282623
20
26.3084290558455
30
0
41
1
10
255.511721551862
20
26.3641525310382
30
0
41
1
10
255.497654013588
20
26.4178226016521
30
0
41
1
10
255.45842322215
20
26.5212891051069
30
0
41
1
10
255.433179888663
20
26.5715987164105
30
0
41
1
10
255.372216245981
20
26.6657088610016
30
0
41
1
10
255.336632512929
20
26.7097196806282
30
0
41
1
10
255.258178011294
20
26.7882550655722
30
0
41
1
10
255.215132113954
20
26.8230658355454
30
0
41
1
10
255.121563263657
20
26.8839605511599
30
0
41
1
10
255.071591174819
20
26.9093726882523
30
0
41
1
10
254.968456472258
20
26.9491653772621
30
0
41
1
10
254.914301168586
20
26.963853453551
30
0
41
1
10
254.831909322841
20
26.9774354361773
30
0
41
1
10
254.804407766997
20
26.980465419401
30
0
41
1
10
254.749337181475
20
26.9838388950619
30
0
41
1
10
254.72176592502
20
26.9840937276955
30
0
41
1
10
254.639074223895
20
26.9857368792173
30
0
41
1
10
254.583937737627
20
26.9864864970855
30
0
41
1
10
254.528786202938
20
26.9866369575933
30
0
0
SPLINE
5
2D2
100
AcDbEntity
8
1
62
256
6
ByLayer
370
13
48
1
60
0
100
AcDbSpline
70
4
71
1
72
4
73
2
40
0
40
0
40
1
40
1
41
1
10
236.194258582616
20
26.0366077650737
30
0
41
1
10
236.4015222825
20
25.801095256185
30
0
0
SPLINE
5
2D3
100
AcDbEntity
8
1
62
256
6
ByLayer
370
13
48
1
60
0
100
AcDbSpline
70
4
71
1
72
4
73
2
40
0
40
0
40
1
40
1
41
1
10
234.85113815845
20
15.9354806211348
30
0
41
1
10
234.92565030073
20
15.9415262560827
30
0
0
SPLINE
5
2D4
100
AcDbEntity
8
1
62
256
6
ByLayer
370
13
48
1
60
0
100
AcDbSpline
70
4
71
3
72
8
73
4
40
0
40
0
40
0
40
0
40
1
40
1
40
1
40
1
41
1
10
255.099151700739
20
7.28165336334018
30
0
41
1
10
255.007159633022
20
7.2757292381161
30
0
41
1
10
254.918638184616
20
7.27353941175721
30
0
41
1
10
254.832443851761
20
7.27314571973443
30
0
0
SPLINE
5
2D5
100
AcDbEntity
8
1
62
256
6
ByLayer
370
13
48
1
60
0
100
AcDbSpline
70
4
71
1
72
4
73
2
40
0
40
0
40
1
40
1
41
1
10
236.615430367332
20
6.81305079952042
30
0
41
1
10
236.584703922021
20
6.81217131676786
30
0
0
SPLINE
5
2D6
100
AcDbEntity
8
1
62
256
6
ByLayer
370
13
48
1
60
0
100
AcDbSpline
70
4
71
3
72
8
73
4
40
0
40
0
40
0
40
0
40
1
40
1
40
1
40
1
41
1
10
36.01
20
-25.5838030849826
30
0
41
1
10
35.421666254023
20
-25.5843298407723
30
0
41
1
10
34.8333325101859
20
-25.5848583510769
30
0
41
1
10
34.2449987653455
20
-25.5853860386565
30
0
0
SPLINE
5
2D7
100
AcDbEntity
8
1
62
256
6
ByLayer
370
13
48
1
60
0
100
AcDbSpline
70
4
71
3
72
18
73
14
40
0
40
0
40
0
40
0
40
0.25
40
0.25
40
0.375
40
0.375
40
0.5
40
0.625
40
0.625
40
0.75
40
0.875
40
0.875
40
1
40
1
40
1
40
1
41
1
10
36.0049999108608
20
-14.4820087400974
30
0
41
1
10
33.8314706443334
20
-14.9530955388412
30
0
41
1
10
31.6718048818028
20
-15.6392309021461
30
0
41
1
10
28.5819258199663
20
-16.9861911617426
30
0
41
1
10
27.5770325772247
20
-17.4886923872897
30
0
41
1
10
25.6377497000173
20
-18.5945611406796
30
0
41
1
10
23.7687023478207
20
-19.8000326505485
30
0
41
1
10
22.0787301580415
20
-21.1823008871962
30
0
41
1
10
20.4975961029762
20
-22.6417620275039
30
0
41
1
10
19.0252394157625
20
-24.1783728878431
30
0
41
1
10
17.7889756266437
20
-25.8326145567226
30
0
41
1
10
16.6800273679173
20
-27.5273373144043
30
0
41
1
10
16.1899781963568
20
-28.3949349211181
30
0
41
1
10
15.7658885516545
20
-29.2736190398522
30
0
0
SPLINE
5
2D8
100
AcDbEntity
8
1
62
256
6
ByLayer
370
13
48
1
60
0
100
AcDbSpline
70
4
71
3
72
10
73
6
40
0
40
0
40
0
40
0
40
0.5
40
0.5
40
1
40
1
40
1
40
1
41
1
10
228.084939732362
20
0.89210019713326
30
0
41
1
10
228.47213495761
20
0.679248109089002
30
0
41
1
10
228.870103773949
20
0.494685814679997
30
0
41
1
10
229.68789581491
20
0.183008366290125
30
0
41
1
10
230.107705987762
20
0.0558588057067482
30
0
41
1
10
230.539169144041
20
-0.0406365572252696
30
0
0
SPLINE
5
2D9
100
AcDbEntity
8
1
62
256
6
ByLayer
370
13
48
1
60
0
100
AcDbSpline
70
4
71
3
72
8
73
4
40
0
40
0
40
0
40
0
40
1
40
1
40
1
40
1
41
1
10
230.219479407342
20
12.1883203804631
30
0
41
1
10
230.628287475584
20
12.1945437432624
30
0
41
1
10
231.02326896216
20
12.170110576345
30
0
41
1
10
231.404595159103
20
12.1142527459472
30
0
0
SPLINE
5
2DA
100
AcDbEntity
8
1
62
256
6
ByLayer
370
13
48
1
60
0
100
AcDbSpline
70
4
71
3
72
14
73
10
40
0
40
0
40
0
40
0
40
0.249999999999992
40
0.249999999999992
40
0.37499999999999
40
0.37499999999999
40
0.499999999999989
40
0.499999999999989
40
1
40
1
40
1
40
1
41
1
10
30.7921003809348
20
-10.1886308616147
30
0
41
1
10
31.0591254055548
20
-10.0615006221892
30
0
41
1
10
31.3329776105119
20
-9.94908760904093
30
0
41
1
10
31.7541053670329
20
-9.8029047873203
30
0
41
1
10
31.8962101287091
20
-9.75792482860646
30
0
41
1
10
32.1839454867239
20
-9.67562520777781
30
0
41
1
10
32.329144826437
20
-9.63845133645401
30
0
41
1
10
33.0561669589973
20
-9.47368008024233
30
0
41
1
10
33.6462559903563
20
-9.40706781159807
30
0
41
1
10
34.244999134978
20
-9.40653979867579
30
0
0
SPLINE
5
2DB
100
AcDbEntity
8
1
62
256
6
ByLayer
370
13
48
1
60
0
100
AcDbSpline
70
4
71
3
72
16
73
12
40
0
40
0
40
0
40
0
40
0.250000000000023
40
0.250000000000023
40
0.500000000000045
40
0.500000000000045
40
0.625000000000034
40
0.625000000000034
40
0.750000000000022
40
0.750000000000022
40
1
40
1
40
1
40
1
41
1
10
239.717701577099
20
6.72261370572863
30
0
41
1
10
239.690107789471
20
6.6967778023232
30
0
41
1
10
239.664394051742
20
6.6741248948172
30
0
41
1
10
239.618609168737
20
6.63609995325004
30
0
41
1
10
239.599216294091
20
6.62130610909725
30
0
41
1
10
239.578650480848
20
6.6075864395616
30
0
41
1
10
239.573297702049
20
6.60447844453466
30
0
41
1
10
239.56591692229
20
6.601420179716
30
0
41
1
10
239.563951400956
20
6.60152543632236
30
0
41
1
10
239.563502567892
20
6.60673434830946
30
0
41
1
10
239.570602023601
20
6.61699396711756
30
0
41
1
10
239.583045292648
20
6.63228074794634
30
0
0
SPLINE
5
2DC
100
AcDbEntity
8
1
62
256
6
ByLayer
370
13
48
1
60
0
100
AcDbSpline
70
4
71
3
72
54
73
50
40
0
40
0
40
0
40
0
40
0.124999999999999
40
0.124999999999999
40
0.249999999999997
40
0.249999999999997
40
0.28125
40
0.28125
40
0.312500000000002
40
0.312500000000002
40
0.375000000000007
40
0.375000000000007
40
0.406250000000009
40
0.406250000000009
40
0.437500000000012
40
0.437500000000012
40
0.500000000000017
40
0.500000000000017
40
0.531250000000018
40
0.531250000000018
40
0.546875000000016
40
0.546875000000016
40
0.562500000000015
40
0.562500000000015
40
0.625000000000014
40
0.625000000000014
40
0.656250000000013
40
0.656250000000013
40
0.671875000000012
40
0.671875000000012
40
0.687500000000012
40
0.687500000000012
40
0.75000000000001
40
0.75000000000001
40
0.765625000000009
40
0.765625000000009
40
0.781250000000009
40
0.781250000000009
40
0.812500000000008
40
0.812500000000008
40
0.875000000000007
40
0.875000000000007
40
0.890625000000006
40
0.890625000000006
40
0.906250000000005
40
0.906250000000005
40
0.937500000000004
40
0.937500000000004
40
1
40
1
40
1
40
1
41
1
10
232.012296494421
20
1.64386309315651
30
0
41
1
10
232.913291397322
20
1.50834684248642
30
0
41
1
10
233.820427252321
20
1.39064401457719
30
0
41
1
10
235.653672600428
20
1.21027631241509
30
0
41
1
10
236.579691544976
20
1.14734877859931
30
0
41
1
10
237.754991383081
20
1.12025371196032
30
0
41
1
10
237.990582943455
20
1.11746975991303
30
0
41
1
10
238.459799770225
20
1.11765389218254
30
0
41
1
10
238.693847586792
20
1.12061016524893
30
0
41
1
10
239.394176687859
20
1.13874887284015
30
0
41
1
10
239.858652791445
20
1.16315435593782
30
0
41
1
10
240.551094239667
20
1.22159273919843
30
0
41
1
10
240.781193964322
20
1.24472064338443
30
0
41
1
10
241.239821924782
20
1.29900551848178
30
0
41
1
10
241.468501867009
20
1.3302216947535
30
0
41
1
10
242.142589121534
20
1.43558768769174
30
0
41
1
10
242.579132604774
20
1.5217089196727
30
0
41
1
10
243.212255812261
20
1.67769717828404
30
0
41
1
10
243.419670871763
20
1.73417418953386
30
0
41
1
10
243.724915911196
20
1.8261530241237
30
0
41
1
10
243.825683504518
20
1.85802462397993
30
0
41
1
10
244.025167516152
20
1.92430261050632
30
0
41
1
10
244.123886064241
20
1.95872075474571
30
0
41
1
10
244.607332097631
20
2.13561494441802
30
0
41
1
10
244.96572108614
20
2.29369230613133
30
0
41
1
10
245.458404232891
20
2.55702253561344
30
0
41
1
10
245.615121810327
20
2.6491839266987
30
0
41
1
10
245.838338568558
20
2.79435001449079
30
0
41
1
10
245.910913012362
20
2.84401181228236
30
0
41
1
10
246.050498442051
20
2.94461711591654
30
0
41
1
10
246.117675617859
20
2.99565769070478
30
0
41
1
10
246.440673978285
20
3.25449652491773
30
0
41
1
10
246.658058639089
20
3.47313889466073
30
0
41
1
10
246.879244328936
20
3.76070217432257
30
0
41
1
10
246.920940176646
20
3.81893180539197
30
0
41
1
10
246.999210920846
20
3.93683584334409
30
0
41
1
10
247.035872854892
20
3.99667254955747
30
0
41
1
10
247.137342172831
20
4.17701064320434
30
0
41
1
10
247.193643161763
20
4.29818154039003
30
0
41
1
10
247.330459647464
20
4.66436829251032
30
0
41
1
10
247.379056283069
20
4.91204423870258
30
0
41
1
10
247.389885418458
20
5.22579918416565
30
0
41
1
10
247.389530401042
20
5.28887719919049
30
0
41
1
10
247.383899669071
20
5.4145162276277
30
0
41
1
10
247.378636367467
20
5.4771500806946
30
0
41
1
10
247.355788681985
20
5.66451634980089
30
0
41
1
10
247.331157542001
20
5.78871431189282
30
0
41
1
10
247.230891132575
20
6.15930796598798
30
0
41
1
10
247.128980152209
20
6.40373667775896
30
0
41
1
10
246.995138254718
20
6.6456916981692
30
0
0
SPLINE
5
2DD
100
AcDbEntity
8
1
62
256
6
ByLayer
370
13
48
1
60
0
100
AcDbSpline
70
4
71
3
72
8
73
4
40
0
40
0
40
0
40
0
40
1
40
1
40
1
40
1
41
1
10
244.085172465964
20
8.1955198415875
30
0
41
1
10
244.141760801967
20
8.19848551061077
30
0
41
1
10
244.19828360401
20
8.19165600566549
30
0
41
1
10
244.252115878551
20
8.17645307660717
30
0
0
SPLINE
5
2DE
100
AcDbEntity
8
1
62
256
6
ByLayer
370
13
48
1
60
0
100
AcDbSpline
70
4
71
3
72
14
73
10
40
0
40
0
40
0
40
0
40
0.5
40
0.5
40
0.624999999999997
40
0.624999999999997
40
0.749999999999993
40
0.749999999999993
40
1
40
1
40
1
40
1
41
1
10
233.637697605663
20
10.0069340695748
30
0
41
1
10
233.658096718579
20
10.3643894962227
30
0
41
1
10
233.644549050454
20
10.7198906901027
30
0
41
1
10
233.56949503408
20
11.1609213896129
30
0
41
1
10
233.551448522987
20
11.2492680597897
30
0
41
1
10
233.509197244728
20
11.4239878211301
30
0
41
1
10
233.48506818294
20
11.5101485375266
30
0
41
1
10
233.403261010932
20
11.7648696071979
30
0
41
1
10
233.336207458115
20
11.9296866658747
30
0
41
1
10
233.25511112849
20
12.0888969225231
30
0
0
SPLINE
5
2DF
100
AcDbEntity
8
1
62
256
6
ByLayer
370
13
48
1
60
0
100
AcDbSpline
70
4
71
3
72
14
73
10
40
0
40
0
40
0
40
0
40
0.25
40
0.25
40
0.5
40
0.5
40
0.75
40
0.75
40
1
40
1
40
1
40
1
41
1
10
229.938817091405
20
12.0543879257898
30
0
41
1
10
229.946301273936
20
12.0802912840314
30
0
41
1
10
229.963562241138
20
12.1022789720339
30
0
41
1
10
230.005099988645
20
12.1365949388396
30
0
41
1
10
230.029611984727
20
12.1495396911913
30
0
41
1
10
230.080758341453
20
12.169283591218
30
0
41
1
10
230.108006440023
20
12.1762560128199
30
0
41
1
10
230.163040357742
20
12.1855224106119
30
0
41
1
10
230.191058612255
20
12.1878878187245
30
0
41
1
10
230.219506119436
20
12.1883207870622
30
0
0
SPLINE
5
2E0
100
AcDbEntity
8
1
62
256
6
ByLayer
370
13
48
1
60
0
100
AcDbSpline
70
4
71
3
72
8
73
4
40
0
40
0
40
0
40
0
40
1
40
1
40
1
40
1
41
1
10
235.49854280623
20
18.5522872207873
30
0
41
1
10
235.486759801547
20
18.5316631181792
30
0
41
1
10
235.474199875524
20
18.5128624529182
30
0
41
1
10
235.461358086286
20
18.4957978725653
30
0
0
SPLINE
5
2E1
100
AcDbEntity
8
1
62
256
6
ByLayer
370
13
48
1
60
0
100
AcDbSpline
70
4
71
3
72
16
73
12
40
0
40
0
40
0
40
0
40
0.5
40
0.5
40
0.75
40
0.75
40
0.8125
40
0.8125
40
0.875
40
0.875
40
1
40
1
40
1
40
1
41
1
10
15.7658885516545
20
-29.2736190398522
30
0
41
1
10
18.2861070086726
20
-28.8618913704036
30
0
41
1
10
20.7986805156092
20
-28.4182819060103
30
0
41
1
10
24.5557265631697
20
-27.7035988054598
30
0
41
1
10
25.8060292547522
20
-27.4571703485401
30
0
41
1
10
27.3671986840708
20
-27.1384751247689
30
0
41
1
10
27.6793376216044
20
-27.0742046061584
30
0
41
1
10
28.3034243488597
20
-26.9445936178965
30
0
41
1
10
28.6159534921742
20
-26.8825072785218
30
0
41
1
10
29.5558666444493
20
-26.7092665053147
30
0
41
1
10
30.185203546588
20
-26.6090434029429
30
0
41
1
10
30.8172864220874
20
-26.5241909031848
30
0
0
SPLINE
5
2E2
100
AcDbEntity
8
1
62
256
6
ByLayer
370
13
48
1
60
0
100
AcDbSpline
70
4
71
3
72
36
73
32
40
0
40
0
40
0
40
0
40
0.111018598411215
40
0.111018598411215
40
0.22203719682243
40
0.22203719682243
40
0.333055795233645
40
0.333055795233645
40
0.388565094439255
40
0.388565094439255
40
0.444074393644865
40
0.444074393644865
40
0.55509299205608
40
0.55509299205608
40
0.666111590467294
40
0.666111590467294
40
0.721620889672905
40
0.721620889672905
40
0.74937553927571
40
0.74937553927571
40
0.777130188878515
40
0.777130188878515
40
0.888148787289724
40
0.888148787289724
40
0.943658086495331
40
0.943658086495331
40
0.971412736098135
40
0.971412736098135
40
0.999167385700939
40
0.999167385700939
40
1
40
1
40
1
40
1
41
1
10
229.270242889818
20
9.34504111019913
30
0
41
1
10
228.736619439711
20
9.47804261517732
30
0
41
1
10
228.197022610836
20
9.58809685902614
30
0
41
1
10
227.106988917118
20
9.76944163913913
30
0
41
1
10
226.556536109329
20
9.84066341176691
30
0
41
1
10
225.444637549675
20
9.94746785958449
30
0
41
1
10
224.883187890427
20
9.98302219804424
30
0
41
1
10
224.031963731422
20
10.0101751957376
30
0
41
1
10
223.746707140254
20
10.014846637964
30
0
41
1
10
223.172942919221
20
10.0153418613451
30
0
41
1
10
222.884202281101
20
10.0111358093826
30
0
41
1
10
222.020831535272
20
9.98531121943336
30
0
41
1
10
221.4465034794
20
9.95057360284579
30
0
41
1
10
220.30015165564
20
9.84621471760821
30
0
41
1
10
219.728127065617
20
9.77661435638555
30
0
41
1
10
218.871740813137
20
9.64486188087795
30
0
41
1
10
218.586554638616
20
9.59637060887442
30
0
41
1
10
218.15918988298
20
9.51642771108189
30
0
41
1
10
218.016627183823
20
9.48853802472635
30
0
41
1
10
217.73345053874
20
9.43065437827374
30
0
41
1
10
217.592655686269
20
9.4006296300291
30
0
41
1
10
216.892750017982
20
9.24505909335667
30
0
41
1
10
216.34572122127
20
9.10336503126413
30
0
41
1
10
215.547739849547
20
8.86235202384611
30
0
41
1
10
215.285528046766
20
8.77723523451328
30
0
41
1
10
214.898614623174
20
8.64156124199607
30
0
41
1
10
214.770638354398
20
8.59495985223896
30
0
41
1
10
214.519418686122
20
8.49983087303031
30
0
41
1
10
214.395872368476
20
8.451200919558
30
0
41
1
10
214.270835019416
20
8.39996256241034
30
0
41
1
10
214.267195189668
20
8.39846922863788
30
0
41
1
10
214.263557291239
20
8.39697489431327
30
0
0
SPLINE
5
2E3
100
AcDbEntity
8
1
62
256
6
ByLayer
370
13
48
1
60
0
100
AcDbSpline
70
4
71
3
72
12
73
8
40
0
40
0
40
0
40
0
40
0.5
40
0.5
40
0.75
40
0.75
40
1
40
1
40
1
40
1
41
1
10
240.018925842043
20
7.54661323898119
30
0
41
1
10
240.024244869616
20
7.57081096985448
30
0
41
1
10
240.014461052574
20
7.59528482533153
30
0
41
1
10
239.974680658669
20
7.62844293312364
30
0
41
1
10
239.957238452054
20
7.6389013716944
30
0
41
1
10
239.915436284573
20
7.65767612566881
30
0
41
1
10
239.890447553605
20
7.66623731353471
30
0
41
1
10
239.863019877619
20
7.6734269846614
30
0
0
SPLINE
5
2E4
100
AcDbEntity
8
1
62
256
6
ByLayer
370
13
48
1
60
0
100
AcDbSpline
70
4
71
3
72
8
73
4
40
0
40
0
40
0
40
0
40
1
40
1
40
1
40
1
41
1
10
226.6750104812
20
2.64868978120668
30
0
41
1
10
224.012000568945
20
3.8716542360122
30
0
41
1
10
221.364915805373
20
5.14285195788636
30
0
41
1
10
218.731701325699
20
6.45605927859611
30
0
0
SPLINE
5
2E5
100
AcDbEntity
8
1
62
256
6
ByLayer
370
13
48
1
60
0
100
AcDbSpline
70
4
71
3
72
14
73
10
40
0
40
0
40
0
40
0
40
0.499999999999997
40
0.499999999999997
40
0.749999999999998
40
0.749999999999998
40
0.874999999999999
40
0.874999999999999
40
1
40
1
40
1
40
1
41
1
10
224.283738202676
20
25.6328358184108
30
0
41
1
10
225.072147722487
20
23.8787288359641
30
0
41
1
10
225.973845175304
20
22.1933503010205
30
0
41
1
10
227.545072779346
20
19.7979500689833
30
0
41
1
10
228.105296366766
20
19.0216153036514
30
0
41
1
10
229.006220179314
20
17.8938703699256
30
0
41
1
10
229.317004336883
20
17.5236935479675
30
0
41
1
10
229.95559119279
20
16.8005396254553
30
0
41
1
10
230.283760456584
20
16.4470624567246
30
0
41
1
10
230.620876319036
20
16.1017496563142
30
0
0
SPLINE
5
2E6
100
AcDbEntity
8
1
62
256
6
ByLayer
370
13
48
1
60
0
100
AcDbSpline
70
4
71
3
72
8
73
4
40
0
40
0
40
0
40
0
40
1
40
1
40
1
40
1
41
1
10
230.219895939232
20
12.1920357109363
30
0
41
1
10
230.356812107983
20
13.4968516899852
30
0
41
1
10
230.490723016111
20
14.8001102101523
30
0
41
1
10
230.620906203917
20
16.1020485289314
30
0
0
SPLINE
5
2E7
100
AcDbEntity
8
1
62
256
6
ByLayer
370
13
48
1
60
0
100
AcDbSpline
70
4
71
3
72
10
73
6
40
0
40
0
40
0
40
0
40
0.161411973231683
40
0.161411973231683
40
1
40
1
40
1
40
1
41
1
10
205.907523996936
20
11.8112313574045
30
0
41
1
10
206.59817506364
20
11.5360565364096
30
0
41
1
10
207.288724038485
20
11.2584337427573
30
0
41
1
10
211.564678133591
20
9.52495065040605
30
0
41
1
10
215.145681066915
20
8.01060437856816
30
0
41
1
10
218.731701325699
20
6.45605927859603
30
0
0
SPLINE
5
2E8
100
AcDbEntity
8
1
62
256
6
ByLayer
370
13
48
1
60
0
100
AcDbSpline
70
4
71
3
72
22
73
18
40
0
40
0
40
0
40
0
40
0.0401499759607459
40
0.0401499759607459
40
0.096611742080702
40
0.096611742080702
40
0.322458806560527
40
0.322458806560527
40
0.548305871040352
40
0.548305871040352
40
0.604767637160308
40
0.604767637160308
40
0.661229403280264
40
0.661229403280264
40
0.774152935520176
40
0.774152935520176
40
1
40
1
40
1
40
1
41
1
10
17.2209144315472
20
-12.2979354408
30
0
41
1
10
17.0181581035083
20
-12.4508702373884
30
0
41
1
10
16.8173193038913
20
-12.6061236671788
30
0
41
1
10
16.3403563052483
20
-12.9840546912312
30
0
41
1
10
16.0670323716422
20
-13.2082773235923
30
0
41
1
10
14.727337326615
20
-14.3459907426129
30
0
41
1
10
13.7420348762796
20
-15.3099170327764
30
0
41
1
10
11.9343772356203
20
-17.3397350925599
30
0
41
1
10
11.1117725528627
20
-18.4052421651795
30
0
41
1
10
10.1895882856385
20
-19.802450844741
30
0
41
1
10
10.0103314322146
20
-20.085474887499
30
0
41
1
10
9.6636167218137
20
-20.6570267766605
30
0
41
1
10
9.49668442912676
20
-20.9447402395548
30
0
41
1
10
9.01462285057761
20
-21.8137355779507
30
0
41
1
10
8.71813291729333
20
-22.4007577488472
30
0
41
1
10
7.89928838216933
20
-24.183467354257
30
0
41
1
10
7.44689419843287
20
-25.4006056787086
30
0
41
1
10
7.08502349178382
20
-26.644902081318
30
0
0
SPLINE
5
2E9
100
AcDbEntity
8
1
62
256
6
ByLayer
370
13
48
1
60
0
100
AcDbSpline
70
4
71
3
72
14
73
10
40
0
40
0
40
0
40
0
40
0.124999999999992
40
0.124999999999992
40
0.249999999999984
40
0.249999999999984
40
0.499999999999968
40
0.499999999999968
40
1
40
1
40
1
40
1
41
1
10
248.424967649591
20
8.22268440050505
30
0
41
1
10
248.465658114987
20
8.22481689743447
30
0
41
1
10
248.507114571248
20
8.22788529272992
30
0
41
1
10
248.588916168714
20
8.23574112996073
30
0
41
1
10
248.629667993413
20
8.24054805906113
30
0
41
1
10
248.751549328171
20
8.25759531807307
30
0
41
1
10
248.83230421287
20
8.27245413116941
30
0
41
1
10
249.073641151445
20
8.32770803818232
30
0
41
1
10
249.233219567449
20
8.37858025192372
30
0
41
1
10
249.393438565166
20
8.44589838119018
30
0
0
SPLINE
5
2EA
100
AcDbEntity
8
1
62
256
6
ByLayer
370
13
48
1
60
0
100
AcDbSpline
70
4
71
3
72
10
73
6
40
0
40
0
40
0
40
0
40
0.5
40
0.5
40
1
40
1
40
1
40
1
41
1
10
253.857687025959
20
-5.52376246781245
30
0
41
1
10
253.913513192693
20
-5.82053802330054
30
0
41
1
10
253.948339704464
20
-6.11705439930478
30
0
41
1
10
253.978329419023
20
-6.70940891374744
30
0
41
1
10
253.973487047753
20
-7.00524751539291
30
0
41
1
10
253.948729874521
20
-7.30072358508275
30
0
0
SPLINE
5
2EB
100
AcDbEntity
8
1
62
256
6
ByLayer
370
13
48
1
60
0
100
AcDbSpline
70
4
71
3
72
12
73
8
40
0
40
0
40
0
40
0
40
0.499999999999987
40
0.499999999999987
40
0.749999999999993
40
0.749999999999993
40
1
40
1
40
1
40
1
41
1
10
227.81548748602
20
2.22069496694124
30
0
41
1
10
228.234172925901
20
2.09663061314976
30
0
41
1
10
228.654383602478
20
2.01778840608566
30
0
41
1
10
229.28515342237
20
1.96370811009103
30
0
41
1
10
229.495471339229
20
1.95645288212543
30
0
41
1
10
229.915736213255
20
1.9636536948899
30
0
41
1
10
230.126585725319
20
1.97828922197988
30
0
41
1
10
230.333171995732
20
2.00349753973637
30
0
0
SPLINE
5
2EC
100
AcDbEntity
8
1
62
256
6
ByLayer
370
13
48
1
60
0
100
AcDbSpline
70
4
71
3
72
8
73
4
40
0
40
0
40
0
40
0
40
1
40
1
40
1
40
1
41
1
10
34.2449987653455
20
-25.5853860386565
30
0
41
1
10
34.2449987735498
20
-25.8136767614786
30
0
41
1
10
34.2449987818592
20
-26.0419674842161
30
0
41
1
10
34.2449987902737
20
-26.270258206869
30
0
0
SPLINE
5
2ED
100
AcDbEntity
8
1
62
256
6
ByLayer
370
13
48
1
60
0
100
AcDbSpline
70
4
71
3
72
22
73
18
40
0
40
0
40
0
40
0
40
0.249999999999999
40
0.249999999999999
40
0.312499999999999
40
0.312499999999999
40
0.374999999999999
40
0.374999999999999
40
0.499999999999999
40
0.499999999999999
40
0.625
40
0.625
40
0.6875
40
0.6875
40
0.75
40
0.75
40
1
40
1
40
1
40
1
41
1
10
7.08510402601036
20
-22.6484169523486
30
0
41
1
10
6.82628265181681
20
-23.0305050449391
30
0
41
1
10
6.62808751697987
20
-23.4109821456486
30
0
41
1
10
6.45792231191921
20
-23.8821389867174
30
0
41
1
10
6.4278234133499
20
-23.9761519994323
30
0
41
1
10
6.37579889362621
20
-24.1636957830264
30
0
41
1
10
6.35406195409027
20
-24.2566137309531
30
0
41
1
10
6.30201963004941
20
-24.5309527630833
30
0
41
1
10
6.28460727014141
20
-24.7087520807724
30
0
41
1
10
6.28466321516166
20
-25.0541486790047
30
0
41
1
10
6.30203825033882
20
-25.2217563093381
30
0
41
1
10
6.35383059177347
20
-25.4655317307503
30
0
41
1
10
6.37551108299161
20
-25.5457932492659
30
0
41
1
10
6.42730028982808
20
-25.7022431843475
30
0
41
1
10
6.45737190978394
20
-25.7782839847993
30
0
41
1
10
6.62750394929665
20
-26.1481607447821
30
0
41
1
10
6.82666938899321
20
-26.4111486672456
30
0
41
1
10
7.0850234917838
20
-26.644902081318
30
0
0
SPLINE
5
2EE
100
AcDbEntity
8
1
62
256
6
ByLayer
370
13
48
1
60
0
100
AcDbSpline
70
4
71
3
72
8
73
4
40
0
40
0
40
0
40
0
40
1
40
1
40
1
40
1
41
1
10
36
20
-9.40653500608184
30
0
41
1
10
35.4143616785506
20
-9.40602135599875
30
0
41
1
10
34.8293621713642
20
-9.40602446712438
30
0
41
1
10
34.2449991349782
20
-9.40653979867579
30
0
0
SPLINE
5
2EF
100
AcDbEntity
8
1
62
256
6
ByLayer
370
13
48
1
60
0
100
AcDbSpline
70
4
71
3
72
18
73
14
40
0
40
0
40
0
40
0
40
0.125
40
0.125
40
0.15625
40
0.15625
40
0.1875
40
0.1875
40
0.25
40
0.25
40
0.5
40
0.5
40
1
40
1
40
1
40
1
41
1
10
30.7921003809307
20
-10.1886308616022
30
0
41
1
10
30.1611588151209
20
-10.261254452887
30
0
41
1
10
29.5329474665712
20
-10.3469472980797
30
0
41
1
10
28.751074401016
20
-10.4702962788442
30
0
41
1
10
28.594869434687
20
-10.495778155743
30
0
41
1
10
28.2827986226966
20
-10.5483652433963
30
0
41
1
10
28.1269828738868
20
-10.5757102623452
30
0
41
1
10
27.6596897566953
20
-10.6584831191382
30
0
41
1
10
27.3480659799167
20
-10.7132101158646
30
0
41
1
10
25.7894750397551
20
-10.9845854173396
30
0
41
1
10
24.5412395254261
20
-11.1944348356069
30
0
41
1
10
20.7903734676832
20
-11.8030695711636
30
0
41
1
10
18.2819425093793
20
-12.1808961267769
30
0
41
1
10
15.7658879568782
20
-12.5316106757647
30
0
0
SPLINE
5
2F0
100
AcDbEntity
8
1
62
256
6
ByLayer
370
13
48
1
60
0
100
AcDbSpline
70
4
71
3
72
12
73
8
40
0
40
0
40
0
40
0
40
0.5
40
0.5
40
0.75
40
0.75
40
1
40
1
40
1
40
1
41
1
10
34.2449987902737
20
-26.2702582068711
30
0
41
1
10
33.6497169789514
20
-26.2994040203004
30
0
41
1
10
33.0652871220758
20
-26.3371788989556
30
0
41
1
10
32.2042697735216
20
-26.403186932801
30
0
41
1
10
31.919890558061
20
-26.4266953703122
30
0
41
1
10
31.3565493647405
20
-26.4753915873361
30
0
41
1
10
31.0829159491812
20
-26.5001075474663
30
0
41
1
10
30.8172864220874
20
-26.5241909031848
30
0
0
SPLINE
5
2F1
100
AcDbEntity
8
1
62
256
6
ByLayer
370
13
48
1
60
0
100
AcDbSpline
70
4
71
1
72
4
73
2
40
0
40
0
40
1
40
1
41
1
10
36.45
20
-14.4779234473752
30
0
41
1
10
36
20
-14.4779234473752
30
0
0
SPLINE
5
2F2
100
AcDbEntity
8
1
62
256
6
ByLayer
370
13
48
1
60
0
100
AcDbSpline
70
4
71
3
72
14
73
10
40
0
40
0
40
0
40
0
40
0.5
40
0.5
40
0.750000000000036
40
0.750000000000036
40
0.875000000000018
40
0.875000000000018
40
1
40
1
40
1
40
1
41
1
10
244.252115878551
20
8.17645307660717
30
0
41
1
10
244.428094872949
20
8.1267543375069
30
0
41
1
10
244.60345890345
20
8.09343571357439
30
0
41
1
10
244.867370356775
20
8.06466075276731
30
0
41
1
10
244.955473112969
20
8.05865139364514
30
0
41
1
10
245.087996003557
20
8.05493689512377
30
0
41
1
10
245.132231659222
20
8.05458397113614
30
0
41
1
10
245.220854336183
20
8.05565969166403
30
0
41
1
10
245.265679991525
20
8.05711315022944
30
0
41
1
10
245.309581836172
20
8.05941394841383
30
0
0
SPLINE
5
2F3
100
AcDbEntity
8
1
62
256
6
ByLayer
370
13
48
1
60
0
100
AcDbSpline
70
4
71
3
72
18
73
14
40
0
40
0
40
0
40
0
40
0.125000000000006
40
0.125000000000006
40
0.250000000000012
40
0.250000000000012
40
0.500000000000008
40
0.500000000000008
40
0.750000000000003
40
0.750000000000003
40
0.875000000000002
40
0.875000000000002
40
1
40
1
40
1
40
1
41
1
10
233.637697605662
20
10.0069340695738
30
0
41
1
10
233.572122124472
20
10.108143346738
30
0
41
1
10
233.502936482424
20
10.2089879691775
30
0
41
1
10
233.356718688152
20
10.4095966394986
30
0
41
1
10
233.279614947923
20
10.5093866421899
30
0
41
1
10
233.039712780281
20
10.8017566787732
30
0
41
1
10
232.867209819191
20
10.9890271282413
30
0
41
1
10
232.495525863812
20
11.3458432777552
30
0
41
1
10
232.296330640254
20
11.515355046239
30
0
41
1
10
231.975606483391
20
11.7539526893348
30
0
41
1
10
231.8644814043
20
11.8312221105944
30
0
41
1
10
231.637651404643
20
11.9783182320193
30
0
41
1
10
231.522132919328
20
12.0480903626181
30
0
41
1
10
231.404595159103
20
12.1142527459471
30
0
0
SPLINE
5
2F4
100
AcDbEntity
8
1
62
256
6
ByLayer
370
13
48
1
60
0
100
AcDbSpline
70
4
71
3
72
8
73
4
40
0
40
0
40
0
40
0
40
1
40
1
40
1
40
1
41
1
10
218.449404136094
20
6.54739035905152
30
0
41
1
10
218.543604972194
20
6.51663286184672
30
0
41
1
10
218.637705047666
20
6.48618604715537
30
0
41
1
10
218.731701325699
20
6.45605927859603
30
0
0
SPLINE
5
2F5
100
AcDbEntity
8
1
62
256
6
ByLayer
370
13
48
1
60
0
100
AcDbSpline
70
4
71
3
72
10
73
6
40
0
40
0
40
0
40
0
40
0.5
40
0.5
40
1
40
1
40
1
40
1
41
1
10
233.25511112849
20
12.088896922523
30
0
41
1
10
233.228213157009
20
12.1939865678185
30
0
41
1
10
233.193590605773
20
12.2966700073268
30
0
41
1
10
233.107396311414
20
12.4967572148397
30
0
41
1
10
233.055380761938
20
12.5947182642434
30
0
41
1
10
232.995488968369
20
12.6875534996184
30
0
0
SPLINE
5
2F6
100
AcDbEntity
8
1
62
256
6
ByLayer
370
13
48
1
60
0
100
AcDbSpline
70
4
71
3
72
34
73
30
40
0
40
0
40
0
40
0
40
0.0233844826910851
40
0.0233844826910851
40
0.0776409003193574
40
0.0776409003193574
40
0.104769109133494
40
0.104769109133494
40
0.13189731794763
40
0.13189731794763
40
0.186153735575903
40
0.186153735575903
40
0.240410153204176
40
0.240410153204176
40
0.294666570832449
40
0.294666570832449
40
0.348922988460722
40
0.348922988460722
40
0.403179406088996
40
0.403179406088996
40
0.457435823717269
40
0.457435823717269
40
0.565948658973815
40
0.565948658973815
40
0.674461494230361
40
0.674461494230361
40
0.782974329486908
40
0.782974329486908
40
1
40
1
40
1
40
1
41
1
10
144.017359667956
20
-13.420014034711
30
0
41
1
10
143.18617160124
20
-13.4774847546255
30
0
41
1
10
142.354394796611
20
-13.5329196414219
30
0
41
1
10
139.590665409136
20
-13.7098020637098
30
0
41
1
10
137.655943021251
20
-13.8214426617155
30
0
41
1
10
134.747859576718
20
-13.9674463067682
30
0
41
1
10
133.777494439168
20
-14.012525063638
30
0
41
1
10
131.834623593053
20
-14.0951098937657
30
0
41
1
10
130.862086927282
20
-14.1326507093952
30
0
41
1
10
127.945240285473
20
-14.2337529146208
30
0
41
1
10
126.000363361994
20
-14.2849612031795
30
0
41
1
10
122.110012383171
20
-14.3644838148622
30
0
41
1
10
120.164545541535
20
-14.39352234184
30
0
41
1
10
116.273053753924
20
-14.4378481805967
30
0
41
1
10
114.327033720609
20
-14.4529612889803
30
0
41
1
10
110.434346668262
20
-14.472828200058
30
0
41
1
10
108.487642923629
20
-14.477119466956
30
0
41
1
10
104.594024293294
20
-14.4796368164087
30
0
41
1
10
102.647093061112
20
-14.4789683440434
30
0
41
1
10
98.753152067979
20
-14.4787919388409
30
0
41
1
10
96.8061372579381
20
-14.4788476603285
30
0
41
1
10
90.9651123075958
20
-14.4789142508239
30
0
41
1
10
87.0711398090482
20
-14.4777017410096
30
0
41
1
10
79.2832691148955
20
-14.4769447338269
30
0
41
1
10
75.3893646477272
20
-14.4770998018944
30
0
41
1
10
67.6015265585642
20
-14.4775428835031
30
0
41
1
10
63.7075916011919
20
-14.4779762746395
30
0
41
1
10
52.0257578865412
20
-14.4783874208435
30
0
41
1
10
44.2378327863409
20
-14.4776287990275
30
0
41
1
10
36.4499999999998
20
-14.4779234464976
30
0
0
SPLINE
5
2F7
100
AcDbEntity
8
1
62
256
6
ByLayer
370
13
48
1
60
0
100
AcDbSpline
70
4
71
3
72
42
73
38
40
0
40
0
40
0
40
0
40
0.124999999999999
40
0.124999999999999
40
0.187499999999999
40
0.187499999999999
40
0.249999999999999
40
0.249999999999999
40
0.312499999999999
40
0.312499999999999
40
0.343749999999999
40
0.343749999999999
40
0.374999999999999
40
0.374999999999999
40
0.437499999999999
40
0.437499999999999
40
0.468749999999999
40
0.468749999999999
40
0.499999999999999
40
0.499999999999999
40
0.562499999999999
40
0.562499999999999
40
0.593749999999999
40
0.593749999999999
40
0.624999999999999
40
0.624999999999999
40
0.687499999999999
40
0.687499999999999
40
0.749999999999999
40
0.749999999999999
40
0.781249999999999
40
0.781249999999999
40
0.812499999999999
40
0.812499999999999
40
0.874999999999999
40
0.874999999999999
40
1
40
1
40
1
40
1
41
1
10
5.61020000000001
20
-5.5677643628307
30
0
41
1
10
6.05375318425713
20
-5.21788574297483
30
0
41
1
10
6.47716464412115
20
-4.84678457567318
30
0
41
1
10
7.07022989664036
20
-4.24582434265506
30
0
41
1
10
7.26107281451566
20
-4.03778491140093
30
0
41
1
10
7.62445259973562
20
-3.60453799708489
30
0
41
1
10
7.79530004420681
20
-3.38136169739081
30
0
41
1
10
8.11150351699278
20
-2.91960286926576
30
0
41
1
10
8.25688187666283
20
-2.68103383721982
30
0
41
1
10
8.45190376163576
20
-2.30925220359711
30
0
41
1
10
8.51305679477521
20
-2.18299559494326
30
0
41
1
10
8.62678724077939
20
-1.92529953621545
30
0
41
1
10
8.67950540798449
20
-1.79346214354925
30
0
41
1
10
8.82226752446601
20
-1.39191602599612
30
0
41
1
10
8.89569826549304
20
-1.12001109503873
30
0
41
1
10
8.97034032815145
20
-0.705283575962739
30
0
41
1
10
8.98929685941432
20
-0.56589473048129
30
0
41
1
10
9.0147861560289
20
-0.284713009607856
30
0
41
1
10
9.02130878551121
20
-0.142246045112017
30
0
41
1
10
9.0213278142307
20
0.283863320430669
30
0
41
1
10
8.99558806433896
20
0.56398332314896
30
0
41
1
10
8.9212257736343
20
0.978675419682389
30
0
41
1
10
8.89047234570765
20
1.11599035901787
30
0
41
1
10
8.81743528056873
20
1.38885039141334
30
0
41
1
10
8.77492820276304
20
1.5249820176322
30
0
41
1
10
8.63253170797941
20
1.92575383622159
30
0
41
1
10
8.51821985821023
20
2.18259978018133
30
0
41
1
10
8.25787216084052
20
2.67937414495637
30
0
41
1
10
8.11180335349097
20
2.91928498925691
30
0
41
1
10
7.87259291708888
20
3.26842863327823
30
0
41
1
10
7.78928387127623
20
3.38328193075196
30
0
41
1
10
7.61755457366644
20
3.60821640187825
30
0
41
1
10
7.52922332555981
20
3.71821929032359
30
0
41
1
10
7.25761216588356
20
4.0416165824829
30
0
41
1
10
7.06774731843574
20
4.24843206284231
30
0
41
1
10
6.4765134483619
20
4.84725893446446
30
0
41
1
10
6.05374598415688
20
5.21789142247673
30
0
41
1
10
5.61020000000002
20
5.56776436283073
30
0
0
SPLINE
5
2F8
100
AcDbEntity
8
1
62
256
6
ByLayer
370
13
48
1
60
0
100
AcDbSpline
70
4
71
3
72
10
73
6
40
0
40
0
40
0
40
0
40
0.5
40
0.5
40
1
40
1
40
1
40
1
41
1
10
249.393438565164
20
8.44589838119018
30
0
41
1
10
249.417895995687
20
8.45617449384204
30
0
41
1
10
249.443960152779
20
8.46456733438492
30
0
41
1
10
249.497295542558
20
8.47671902303048
30
0
41
1
10
249.524744011791
20
8.48058004107571
30
0
41
1
10
249.552985779336
20
8.48207575710032
30
0
0
SPLINE
5
2F9
100
AcDbEntity
8
1
62
256
6
ByLayer
370
13
48
1
60
0
100
AcDbSpline
70
4
71
3
72
10
73
6
40
0
40
0
40
0
40
0
40
0.831982487584096
40
0.831982487584096
40
1
40
1
40
1
40
1
41
1
10
235.461358086286
20
18.4957978725653
30
0
41
1
10
235.425887053883
20
18.4486628299803
30
0
41
1
10
235.395054038124
20
18.4034865306999
30
0
41
1
10
235.367673478873
20
18.3583900436635
30
0
41
1
10
235.363434019059
20
18.3511728919888
30
0
41
1
10
235.359650573211
20
18.3444728377601
30
0
0
SPLINE
5
2FA
100
AcDbEntity
8
1
62
256
6
ByLayer
370
13
48
1
60
0
100
AcDbSpline
70
4
71
3
72
8
73
4
40
0
40
0
40
0
40
0
40
1
40
1
40
1
40
1
41
1
10
231.183587739781
20
8.42830392551451
30
0
41
1
10
230.569517368671
20
8.75996999614168
30
0
41
1
10
229.92996917776
20
9.06360548039851
30
0
41
1
10
229.270242889823
20
9.34504111019723
30
0
0
SPLINE
5
2FB
100
AcDbEntity
8
1
62
256
6
ByLayer
370
13
48
1
60
0
100
AcDbSpline
70
4
71
3
72
8
73
4
40
0
40
0
40
0
40
0
40
1
40
1
40
1
40
1
41
1
10
124.4
20
26.0545157315938
30
0
41
1
10
123.881698024496
20
26.0565606826117
30
0
41
1
10
123.363155339478
20
26.0583857030157
30
0
41
1
10
122.844370843989
20
26.060039442165
30
0
0
SPLINE
5
2FC
100
AcDbEntity
8
1
62
256
6
ByLayer
370
13
48
1
60
0
100
AcDbSpline
70
4
71
3
72
14
73
10
40
0
40
0
40
0
40
0
40
0.25
40
0.25
40
0.5
40
0.5
40
0.75
40
0.75
40
1
40
1
40
1
40
1
41
1
10
239.863019877619
20
7.67342698466101
30
0
41
1
10
239.838189913335
20
7.67993571246515
30
0
41
1
10
239.811463401323
20
7.68725162942462
30
0
41
1
10
239.755744850538
20
7.70115121983534
30
0
41
1
10
239.726563757483
20
7.70778552512849
30
0
41
1
10
239.66508514717
20
7.71859366605395
30
0
41
1
10
239.633782163179
20
7.72255284784487
30
0
41
1
10
239.570407159337
20
7.72667918388586
30
0
41
1
10
239.537888888429
20
7.72681999896406
30
0
41
1
10
239.506226946961
20
7.72516066692407
30
0
0
SPLINE
5
2FD
100
AcDbEntity
8
1
62
256
6
ByLayer
370
13
48
1
60
0
100
AcDbSpline
70
4
71
3
72
26
73
22
40
0
40
0
40
0
40
0
40
0.0625
40
0.0625
40
0.125
40
0.125
40
0.1875
40
0.1875
40
0.25
40
0.25
40
0.3125
40
0.3125
40
0.375
40
0.375
40
0.5
40
0.5
40
0.625
40
0.625
40
0.75
40
0.75
40
1
40
1
40
1
40
1
41
1
10
124.4
20
-26.0285968787202
30
0
41
1
10
122.673640597404
20
-26.0245675948936
30
0
41
1
10
120.944306851406
20
-26.0193844944541
30
0
41
1
10
117.479767296419
20
-26.0105736521621
30
0
41
1
10
115.743967761174
20
-26.0069282995347
30
0
41
1
10
112.271764876624
20
-26.0033017226534
30
0
41
1
10
110.535000667968
20
-26.0033081539683
30
0
41
1
10
107.060306273043
20
-26.0076026309692
30
0
41
1
10
105.322393632928
20
-26.0118097314015
30
0
41
1
10
101.84601751421
20
-26.0223866682918
30
0
41
1
10
100.107541028373
20
-26.0287271966674
30
0
41
1
10
96.63065056391
20
-26.0415093236763
30
0
41
1
10
94.8922034358293
20
-26.0478079394834
30
0
41
1
10
89.6768498962
20
-26.066135830127
30
0
41
1
10
86.1999353208063
20
-26.0777845861656
30
0
41
1
10
79.2460987856615
20
-26.1007447119549
30
0
41
1
10
75.7691765532716
20
-26.1120422995367
30
0
41
1
10
68.8153362633423
20
-26.134828987381
30
0
41
1
10
65.3384177015348
20
-26.1463056619475
30
0
41
1
10
54.907665439931
20
-26.1810141374473
30
0
41
1
10
47.9538370534247
20
-26.204605654963
30
0
41
1
10
40.9999999999999
20
-26.2275821804093
30
0
0
SPLINE
5
2FE
100
AcDbEntity
8
1
62
256
6
ByLayer
370
13
48
1
60
0
100
AcDbSpline
70
4
71
3
72
8
73
4
40
0
40
0
40
0
40
0
40
1
40
1
40
1
40
1
41
1
10
230.333171995732
20
2.00349753973637
30
0
41
1
10
230.890364448796
20
1.84717225657829
30
0
41
1
10
231.450517551664
20
1.72835877207976
30
0
41
1
10
232.012296494436
20
1.6438630931541
30
0
0
SPLINE
5
2FF
100
AcDbEntity
8
1
62
256
6
ByLayer
370
13
48
1
60
0
100
AcDbSpline
70
4
71
3
72
8
73
4
40
0
40
0
40
0
40
0
40
1
40
1
40
1
40
1
41
1
10
245.116550501942
20
6.54723908585788
30
0
41
1
10
245.778947067767
20
6.58195381887751
30
0
41
1
10
246.40675903999
20
6.61485605014897
30
0
41
1
10
246.995138254718
20
6.6456916981692
30
0
0
SPLINE
5
300
100
AcDbEntity
8
1
62
256
6
ByLayer
370
13
48
1
60
0
100
AcDbSpline
70
4
71
3
72
12
73
8
40
0
40
0
40
0
40
0
40
0.0716983454170674
40
0.0716983454170674
40
0.502894378512603
40
0.502894378512603
40
1
40
1
40
1
40
1
41
1
10
36.45
20
-25.570125517179
30
0
41
1
10
36.45
20
-25.3050280001756
30
0
41
1
10
36.45
20
-25.0399304835428
30
0
41
1
10
36.45
20
-23.1805284302541
30
0
41
1
10
36.45
20
-21.5862239066319
30
0
41
1
10
36.45
20
-18.1539207286208
30
0
41
1
10
36.45
20
-16.3159220786444
30
0
41
1
10
36.45
20
-14.4779234464976
30
0
0
SPLINE
5
301
100
AcDbEntity
8
1
62
256
6
ByLayer
370
13
48
1
60
0
100
AcDbSpline
70
4
71
3
72
18
73
14
40
0
40
0
40
0
40
0
40
0.249999999999984
40
0.249999999999984
40
0.374999999999987
40
0.374999999999987
40
0.499999999999989
40
0.499999999999989
40
0.749999999999995
40
0.749999999999995
40
0.874999999999997
40
0.874999999999997
40
1
40
1
40
1
40
1
41
1
10
240.752959616462
20
7.82061149684708
30
0
41
1
10
240.747539013917
20
7.82032741511031
30
0
41
1
10
240.748703062169
20
7.83058045624986
30
0
41
1
10
240.763828497661
20
7.85899111763825
30
0
41
1
10
240.771142838895
20
7.87049313747212
30
0
41
1
10
240.791002901135
20
7.89598691488251
30
0
41
1
10
240.80381542306
20
7.91022954156415
30
0
41
1
10
240.849796732535
20
7.95269090097705
30
0
41
1
10
240.891932277397
20
7.98138088030535
30
0
41
1
10
240.965166391257
20
8.01256358794743
30
0
41
1
10
240.991663651416
20
8.02124095251602
30
0
41
1
10
241.045785704868
20
8.03372171573571
30
0
41
1
10
241.073642941723
20
8.0376763681825
30
0
41
1
10
241.102306336233
20
8.03919441405435
30
0
0
SPLINE
5
302
100
AcDbEntity
8
1
62
256
6
ByLayer
370
13
48
1
60
0
100
AcDbSpline
70
4
71
3
72
10
73
6
40
0
40
0
40
0
40
0
40
0.5
40
0.5
40
1
40
1
40
1
40
1
41
1
10
231.544877894967
20
12.122510788429
30
0
41
1
10
231.619063218973
20
12.1308307638222
30
0
41
1
10
231.693676785888
20
12.1368625481491
30
0
41
1
10
231.844278832505
20
12.1415796713882
30
0
41
1
10
231.920231649134
20
12.1404555655359
30
0
41
1
10
231.997505580567
20
12.1322724680931
30
0
0
SPLINE
5
303
100
AcDbEntity
8
1
62
256
6
ByLayer
370
13
48
1
60
0
100
AcDbSpline
70
4
71
3
72
10
73
6
40
0
40
0
40
0
40
0
40
0.5
40
0.5
40
1
40
1
40
1
40
1
41
1
10
231.997505580568
20
12.1322724680926
30
0
41
1
10
232.217116299644
20
12.1110346229703
30
0
41
1
10
232.430327012346
20
12.0982912536162
30
0
41
1
10
232.848390942235
20
12.0851833582748
30
0
41
1
10
233.053215564809
20
12.0847860506963
30
0
41
1
10
233.25511112849
20
12.0888969225234
30
0
0
SPLINE
5
304
100
AcDbEntity
8
1
62
256
6
ByLayer
370
13
48
1
60
0
100
AcDbSpline
70
4
71
3
72
18
73
14
40
0
40
0
40
0
40
0
40
0.249999999999998
40
0.249999999999998
40
0.499999999999995
40
0.499999999999995
40
0.562499999999995
40
0.562499999999995
40
0.624999999999994
40
0.624999999999994
40
0.749999999999993
40
0.749999999999993
40
1
40
1
40
1
40
1
41
1
10
234.771277206508
20
5.60531684124271
30
0
41
1
10
235.34622503624
20
5.44240861740025
30
0
41
1
10
235.923856180485
20
5.3281917115882
30
0
41
1
10
237.085691870244
20
5.1893716695964
30
0
41
1
10
237.669891890971
20
5.1648292142109
30
0
41
1
10
238.405092655847
20
5.19098839979281
30
0
41
1
10
238.552380856899
20
5.19908252870763
30
0
41
1
10
238.847476632378
20
5.22109792534033
30
0
41
1
10
238.995425056808
20
5.23504328653922
30
0
41
1
10
239.437405630453
20
5.28547425654412
30
0
41
1
10
239.730370271125
20
5.33057584681083
30
0
41
1
10
240.604233826408
20
5.50057465803479
30
0
41
1
10
241.180184658903
20
5.65990392378623
30
0
41
1
10
241.748737918589
20
5.86891407574137
30
0
0
SPLINE
5
305
100
AcDbEntity
8
1
62
256
6
ByLayer
370
13
48
1
60
0
100
AcDbSpline
70
4
71
3
72
52
73
48
40
0
40
0
40
0
40
0
40
0.125
40
0.125
40
0.15625
40
0.15625
40
0.1875
40
0.1875
40
0.250000000000001
40
0.250000000000001
40
0.281250000000001
40
0.281250000000001
40
0.312500000000001
40
0.312500000000001
40
0.375
40
0.375
40
0.40625
40
0.40625
40
0.4375
40
0.4375
40
0.468749999999999
40
0.468749999999999
40
0.499999999999999
40
0.499999999999999
40
0.531249999999999
40
0.531249999999999
40
0.562499999999998
40
0.562499999999998
40
0.593749999999998
40
0.593749999999998
40
0.624999999999998
40
0.624999999999998
40
0.687499999999997
40
0.687499999999997
40
0.749999999999997
40
0.749999999999997
40
0.781249999999997
40
0.781249999999997
40
0.812499999999997
40
0.812499999999997
40
0.874999999999997
40
0.874999999999997
40
0.906249999999998
40
0.906249999999998
40
0.937499999999998
40
0.937499999999998
40
1
40
1
40
1
40
1
41
1
10
218.449404136094
20
6.54739035905149
30
0
41
1
10
214.630626586967
20
8.20996665085983
30
0
41
1
10
210.816274425157
20
9.82679763681165
30
0
41
1
10
206.039219572723
20
11.7598626508587
30
0
41
1
10
205.083778515096
20
12.1418967601543
30
0
41
1
10
203.174175456441
20
12.8954035169334
30
0
41
1
10
202.219759151736
20
13.2669835557089
30
0
41
1
10
199.357070109849
20
14.3650624338073
30
0
41
1
10
197.4493674056
20
15.0749080565832
30
0
41
1
10
194.586345393181
20
16.1015283216426
30
0
41
1
10
193.631757263412
20
16.4373742464826
30
0
41
1
10
191.72162580395
20
17.0955248007255
30
0
41
1
10
190.765961736487
20
17.4178636724683
30
0
41
1
10
187.900938356843
20
18.3621062340836
30
0
41
1
10
185.991959550597
20
18.9613006526526
30
0
41
1
10
183.128949580768
20
19.8131472190331
30
0
41
1
10
182.174755888491
20
20.089366839954
30
0
41
1
10
180.26674630353
20
20.6263406069746
30
0
41
1
10
179.312901452682
20
20.8870387269329
30
0
41
1
10
177.404481716028
20
21.3913157715591
30
0
41
1
10
176.449589558015
20
21.6349828732937
30
0
41
1
10
174.5400213807
20
22.103237237856
30
0
41
1
10
173.5852058097
20
22.3277061100434
30
0
41
1
10
171.6721056438
20
22.7538091219896
30
0
41
1
10
170.713799454974
20
22.9554169699883
30
0
41
1
10
168.790125435054
20
23.3333545845973
30
0
41
1
10
167.824866776137
20
23.509838846117
30
0
41
1
10
165.885848306561
20
23.8383357341338
30
0
41
1
10
164.912056246148
20
23.9903180221194
30
0
41
1
10
162.954315442654
20
24.270764686499
30
0
41
1
10
161.970191287154
20
24.3994358204986
30
0
41
1
10
159.006426099432
20
24.7550615135866
30
0
41
1
10
157.018554343171
20
24.9516289890428
30
0
41
1
10
153.022207414554
20
25.2838761112833
30
0
41
1
10
151.013650707381
20
25.4194313858793
30
0
41
1
10
147.987841407512
20
25.5880082711352
30
0
41
1
10
146.977111402269
20
25.6383902806139
30
0
41
1
10
144.951644005347
20
25.7288720152992
30
0
41
1
10
143.937196240802
20
25.7688911327423
30
0
41
1
10
140.888683786296
20
25.8745803087118
30
0
41
1
10
138.84916334766
20
25.9258368514694
30
0
41
1
10
135.774537600189
20
25.9807721061931
30
0
41
1
10
134.7467918414
20
25.9954426849255
30
0
41
1
10
132.687720636705
20
26.0189348959194
30
0
41
1
10
131.656265712623
20
26.0277885383325
30
0
41
1
10
128.556157837065
20
26.0479669183689
30
0
41
1
10
126.481659463722
20
26.0530224309512
30
0
41
1
10
124.4
20
26.0545157315938
30
0
0
SPLINE
5
306
100
AcDbEntity
8
1
62
256
6
ByLayer
370
13
48
1
60
0
100
AcDbSpline
70
4
71
3
72
18
73
14
40
0
40
0
40
0
40
0
40
0.249999999999746
40
0.249999999999746
40
0.374999999999731
40
0.374999999999731
40
0.499999999999717
40
0.499999999999717
40
0.74999999999986
40
0.74999999999986
40
0.87499999999993
40
0.87499999999993
40
1
40
1
40
1
40
1
41
1
10
252.535851908978
20
8.63840118462866
30
0
41
1
10
252.593218874438
20
8.64140765989259
30
0
41
1
10
252.650978754447
20
8.63423324043916
30
0
41
1
10
252.732306124869
20
8.61085860613275
30
0
41
1
10
252.75820243134
20
8.60108812401126
30
0
41
1
10
252.806386965567
20
8.57914564685731
30
0
41
1
10
252.829065104019
20
8.56675561590146
30
0
41
1
10
252.889137596936
20
8.529835832554
30
0
41
1
10
252.920033886236
20
8.50497186184191
30
0
41
1
10
252.952375108359
20
8.47933900561893
30
0
41
1
10
252.961094706919
20
8.4725159335504
30
0
41
1
10
252.974273120033
20
8.46358447121997
30
0
41
1
10
252.978879126339
20
8.46134478805291
30
0
41
1
10
252.981589869296
20
8.46148685207152
30
0
0
SPLINE
5
307
100
AcDbEntity
8
1
62
256
6
ByLayer
370
13
48
1
60
0
100
AcDbSpline
70
4
71
3
72
12
73
8
40
0
40
0
40
0
40
0
40
0.311740774595228
40
0.311740774595228
40
0.655870387297614
40
0.655870387297614
40
1
40
1
40
1
40
1
41
1
10
36.4499372038546
20
-9.40095650428489
30
0
41
1
10
36.4498070745461
20
-9.88013524721958
30
0
41
1
10
36.44970203568
20
-10.4054689127951
30
0
41
1
10
36.4495461382822
20
-11.548315027358
30
0
41
1
10
36.4495020916445
20
-12.1693754095919
30
0
41
1
10
36.4494953013915
20
-13.3725501849934
30
0
41
1
10
36.4495325598055
20
-13.9543050040302
30
0
41
1
10
36.4496080185985
20
-14.4779234613288
30
0
0
SPLINE
5
308
100
AcDbEntity
8
1
62
256
6
ByLayer
370
13
48
1
60
0
100
AcDbSpline
70
4
71
3
72
8
73
4
40
0
40
0
40
0
40
0
40
1
40
1
40
1
40
1
41
1
10
232.102890510012
20
6.36717199694584
30
0
41
1
10
233.013334203649
20
6.10540305257541
30
0
41
1
10
233.903416900132
20
5.8512201628055
30
0
41
1
10
234.771277206508
20
5.60531684124277
30
0
0
SPLINE
5
309
100
AcDbEntity
8
1
62
256
6
ByLayer
370
13
48
1
60
0
100
AcDbSpline
70
4
71
3
72
20
73
16
40
0
40
0
40
0
40
0
40
0.250000000000022
40
0.250000000000022
40
0.500000000000045
40
0.500000000000045
40
0.625000000000055
40
0.625000000000055
40
0.687500000000045
40
0.687500000000045
40
0.750000000000036
40
0.750000000000036
40
0.875000000000018
40
0.875000000000018
40
1
40
1
40
1
40
1
41
1
10
233.637697605663
20
10.0069340695749
30
0
41
1
10
233.63304694639
20
9.83559568811654
30
0
41
1
10
233.60732246846
20
9.66752419661313
30
0
41
1
10
233.503113111104
20
9.33956019760834
30
0
41
1
10
233.42645496929
20
9.18629759614674
30
0
41
1
10
233.268502939882
20
8.98190988870198
30
0
41
1
10
233.21020220651
20
8.92013514922681
30
0
41
1
10
233.114109440775
20
8.83719213379706
30
0
41
1
10
233.080631639803
20
8.81117173545559
30
0
41
1
10
233.010673454236
20
8.76250787938949
30
0
41
1
10
232.97394180088
20
8.73973616710097
30
0
41
1
10
232.861135804463
20
8.67788353911965
30
0
41
1
10
232.782696337729
20
8.64519395106291
30
0
41
1
10
232.619881063829
20
8.5954937936616
30
0
41
1
10
232.534872904425
20
8.57855538805123
30
0
41
1
10
232.450364211775
20
8.56915873736648
30
0
0
SPLINE
5
30A
100
AcDbEntity
8
1
62
256
6
ByLayer
370
13
48
1
60
0
100
AcDbSpline
70
2053
71
3
72
95
73
91
40
0
40
0
40
0
40
0
40
0.0312499999999902
40
0.0312499999999902
40
0.0468749999999883
40
0.0468749999999883
40
0.0624999999999864
40
0.0624999999999864
40
0.093749999999977
40
0.093749999999977
40
0.109374999999972
40
0.109374999999972
40
0.124999999999968
40
0.140624999999963
40
0.140624999999963
40
0.156249999999958
40
0.156249999999958
40
0.187499999999946
40
0.187499999999946
40
0.218749999999934
40
0.218749999999934
40
0.249999999999921
40
0.249999999999921
40
0.265624999999915
40
0.265624999999915
40
0.281249999999909
40
0.281249999999909
40
0.312499999999897
40
0.312499999999897
40
0.328124999999891
40
0.328124999999891
40
0.343749999999885
40
0.343749999999885
40
0.37499999999987
40
0.37499999999987
40
0.390624999999865
40
0.390624999999865
40
0.40624999999986
40
0.421874999999854
40
0.421874999999854
40
0.437499999999849
40
0.437499999999849
40
0.468749999999838
40
0.468749999999838
40
0.484374999999835
40
0.484374999999835
40
0.499999999999833
40
0.499999999999833
40
0.531249999999828
40
0.531249999999828
40
0.546874999999828
40
0.546874999999828
40
0.562499999999829
40
0.578124999999829
40
0.578124999999829
40
0.59374999999983
40
0.59374999999983
40
0.624999999999835
40
0.624999999999835
40
0.64062499999984
40
0.64062499999984
40
0.656249999999845
40
0.656249999999845
40
0.687499999999856
40
0.687499999999856
40
0.718749999999866
40
0.718749999999866
40
0.734374999999871
40
0.734374999999871
40
0.749999999999876
40
0.749999999999876
40
0.781249999999887
40
0.781249999999887
40
0.796874999999893
40
0.796874999999893
40
0.812499999999899
40
0.812499999999899
40
0.843749999999914
40
0.843749999999914
40
0.874999999999928
40
0.874999999999928
40
0.906249999999942
40
0.906249999999942
40
0.921874999999952
40
0.921874999999952
40
0.937499999999962
40
0.937499999999962
40
0.968749999999981
40
0.968749999999981
40
1
40
1
40
1
40
1
41
1
10
245.798361855938
20
-4.00959962345635
30
0
41
1
10
245.941899469758
20
-4.00959962345635
30
0
41
1
10
246.082848012346
20
-4.02453540144435
30
0
41
1
10
246.290555410006
20
-4.06835529237927
30
0
41
1
10
246.359166939463
20
-4.08655998975536
30
0
41
1
10
246.495109674879
20
-4.13034157787018
30
0
41
1
10
246.562119982341
20
-4.15586315517675
30
0
41
1
10
246.756680678182
20
-4.24163727486069
30
0
41
1
10
246.879279715619
20
-4.31145474179556
30
0
41
1
10
247.05258852185
20
-4.43492862622549
30
0
41
1
10
247.108729913431
20
-4.4794153228892
30
0
41
1
10
247.215032118912
20
-4.57274067074215
30
0
41
1
10
247.315972960733
20
-4.67079864882274
30
0
41
1
10
247.406504581504
20
-4.77801377740758
30
0
41
1
10
247.491839996061
20
-4.88978433657664
30
0
41
1
10
247.532097396437
20
-4.94826813552166
30
0
41
1
10
247.643290046163
20
-5.12805659348953
30
0
41
1
10
247.704676967793
20
-5.25321911056614
30
0
41
1
10
247.803296565907
20
-5.51348631798123
30
0
41
1
10
247.84057830502
20
-5.64983012703755
30
0
41
1
10
247.888501645746
20
-5.9227660818328
30
0
41
1
10
247.899669328634
20
-6.06014115742479
30
0
41
1
10
247.897527523812
20
-6.26751812990423
30
0
41
1
10
247.893596726787
20
-6.33719817821046
30
0
41
1
10
247.879457955584
20
-6.47484302240636
30
0
41
1
10
247.869285794657
20
-6.54288607768788
30
0
41
1
10
247.829705453832
20
-6.74474595547159
30
0
41
1
10
247.791318195693
20
-6.87631268210555
30
0
41
1
10
247.715182299413
20
-7.06907804391497
30
0
41
1
10
247.686636070841
20
-7.13257850441579
30
0
41
1
10
247.624389674262
20
-7.2554753290149
30
0
41
1
10
247.590569923272
20
-7.31520569581033
30
0
41
1
10
247.481051951103
20
-7.4892923499302
30
0
41
1
10
247.397384001083
20
-7.59859850331731
30
0
41
1
10
247.254550753161
20
-7.75172388329096
30
0
41
1
10
247.204366841665
20
-7.80053598773654
30
0
41
1
10
247.100242539528
20
-7.8923814619391
30
0
41
1
10
246.99196208358
20
-7.97888011746718
30
0
41
1
10
246.875266327325
20
-8.05460635836323
30
0
41
1
10
246.754177809163
20
-8.12473574507538
30
0
41
1
10
246.691139323539
20
-8.1571346682407
30
0
41
1
10
246.496970609035
20
-8.24442352257239
30
0
41
1
10
246.363363133065
20
-8.28851948826093
30
0
41
1
10
246.156684504484
20
-8.33354522494136
30
0
41
1
10
246.086739649273
20
-8.3450084181404
30
0
41
1
10
245.944644674864
20
-8.36051296640713
30
0
41
1
10
245.872822937625
20
-8.36446173269374
30
0
41
1
10
245.659704551582
20
-8.36482590201629
30
0
41
1
10
245.51896839196
20
-8.35009736730825
30
0
41
1
10
245.309880535026
20
-8.30548278258979
30
0
41
1
10
245.240575380122
20
-8.28677844768202
30
0
41
1
10
245.106001338202
20
-8.24279847090691
30
0
41
1
10
244.974577389232
20
-8.19208674274029
30
0
41
1
10
244.849241659994
20
-8.12832433314884
30
0
41
1
10
244.726936394858
20
-8.05804142697326
30
0
41
1
10
244.66733531564
20
-8.01960224287606
30
0
41
1
10
244.496761992772
20
-7.89715293616234
30
0
41
1
10
244.392567859386
20
-7.8053471432855
30
0
41
1
10
244.249867181135
20
-7.65295930568183
30
0
41
1
10
244.204453990918
20
-7.59948802719563
30
0
41
1
10
244.119794176388
20
-7.48961243911165
30
0
41
1
10
244.080341543391
20
-7.43302113490532
30
0
41
1
10
243.970301483421
20
-7.25843400220003
30
0
41
1
10
243.907846554516
20
-7.13539510270866
30
0
41
1
10
243.805713088302
20
-6.87737185345262
30
0
41
1
10
243.767225362877
20
-6.74554358158457
30
0
41
1
10
243.727570757974
20
-6.54369171678567
30
0
41
1
10
243.717387317052
20
-6.47571839802512
30
0
41
1
10
243.703215106853
20
-6.33835958577154
30
0
41
1
10
243.69923585485
20
-6.26862382855717
30
0
41
1
10
243.697003921101
20
-6.06067145855823
30
0
41
1
10
243.708186967625
20
-5.92334840203591
30
0
41
1
10
243.743905598821
20
-5.71935003023108
30
0
41
1
10
243.758989633708
20
-5.65168413703137
30
0
41
1
10
243.795764777597
20
-5.51705515815542
30
0
41
1
10
243.817559256219
20
-5.44991928684834
30
0
41
1
10
243.891679472437
20
-5.25395162353414
30
0
41
1
10
243.952963102011
20
-5.12911275339007
30
0
41
1
10
244.099651232024
20
-4.89134571767283
30
0
41
1
10
244.186265271647
20
-4.7773448392586
30
0
41
1
10
244.378045697912
20
-4.57140093635206
30
0
41
1
10
244.483394745226
20
-4.47855659639183
30
0
41
1
10
244.656036514142
20
-4.35503554176026
30
0
41
1
10
244.716429893565
20
-4.31629692658342
30
0
41
1
10
244.840075023728
20
-4.2457188801427
30
0
41
1
10
244.903299849797
20
-4.21382639655408
30
0
41
1
10
245.097100606876
20
-4.1281608912382
30
0
41
1
10
245.231758155056
20
-4.08429223249294
30
0
41
1
10
245.512591002752
20
-4.02457317820137
30
0
41
1
10
245.654824242118
20
-4.00959962345635
30
0
41
1
10
245.798361855938
20
-4.00959962345635
30
0
0
SPLINE
5
30B
100
AcDbEntity
8
1
62
256
6
ByLayer
370
13
48
1
60
0
100
AcDbSpline
70
4
71
3
72
8
73
4
40
0
40
0
40
0
40
0
40
1
40
1
40
1
40
1
41
1
10
1.42E-14
20
4.97594212184995
30
0
41
1
10
0.031571657597965
20
5.1735845200318
30
0
41
1
10
0.0649171506606621
20
5.37085605809409
30
0
41
1
10
0.0999999999999801
20
5.56776436282993
30
0
0
SPLINE
5
30C
100
AcDbEntity
8
1
62
256
6
ByLayer
370
13
48
1
60
0
100
AcDbSpline
70
4
71
3
72
14
73
10
40
0
40
0
40
0
40
0
40
0.500000000000003
40
0.500000000000003
40
0.625000000000003
40
0.625000000000003
40
0.750000000000002
40
0.750000000000002
40
1
40
1
40
1
40
1
41
1
10
34.2449987653455
20
-25.5853860386565
30
0
41
1
10
33.6297050069164
20
-25.5859379071783
30
0
41
1
10
33.0326709494822
20
-25.6713243153586
30
0
41
1
10
32.3070943763028
20
-25.8743038197856
30
0
41
1
10
32.1625031656923
20
-25.9199853402213
30
0
41
1
10
31.8794584891972
20
-26.0195862547081
30
0
41
1
10
31.7406833039004
20
-26.0735541790549
30
0
41
1
10
31.3320993321117
20
-26.2472020368438
30
0
41
1
10
31.0700041675316
20
-26.3785836360253
30
0
41
1
10
30.8172864220874
20
-26.5241909031848
30
0
0
SPLINE
5
30D
100
AcDbEntity
8
1
62
256
6
ByLayer
370
13
48
1
60
0
100
AcDbSpline
70
4
71
3
72
14
73
10
40
0
40
0
40
0
40
0
40
0.379974135994549
40
0.379974135994549
40
0.569961203991824
40
0.569961203991824
40
0.7599482719891
40
0.7599482719891
40
1
40
1
40
1
40
1
41
1
10
7.08510402601037
20
-22.6484169523486
30
0
41
1
10
7.44708515330207
20
-21.4634256194188
30
0
41
1
10
7.9000536140326
20
-20.2990705211952
30
0
41
1
10
8.72151614959768
20
-18.5838389031984
30
0
41
1
10
9.01942209090517
20
-18.0169224293317
30
0
41
1
10
9.66481001034576
20
-16.895885419531
30
0
41
1
10
10.0099977421725
20
-16.3462153739923
30
0
41
1
10
10.8407980861431
20
-15.126934924289
30
0
41
1
10
11.3389241198239
20
-14.4634264136286
30
0
41
1
10
11.8708496417908
20
-13.8165867103367
30
0
0
SPLINE
5
30E
100
AcDbEntity
8
1
62
256
6
ByLayer
370
13
48
1
60
0
100
AcDbSpline
70
4
71
3
72
8
73
4
40
0
40
0
40
0
40
0
40
1
40
1
40
1
40
1
41
1
10
0.0999999999999659
20
-5.56776436282993
30
0
41
1
10
0.0648944344305846
20
-5.37072855948904
30
0
41
1
10
0.03155109950454
20
-5.17345582387856
30
0
41
1
10
0
20
-4.97594212184998
30
0
0
SPLINE
5
30F
100
AcDbEntity
8
1
62
256
6
ByLayer
370
13
48
1
60
0
100
AcDbSpline
70
4
71
3
72
14
73
10
40
0
40
0
40
0
40
0
40
0.0145581563107005
40
0.0145581563107005
40
0.3430387708738
40
0.3430387708738
40
0.6715193854369
40
0.6715193854369
40
1
40
1
40
1
40
1
41
1
10
236.191890710356
20
24.6985720233335
30
0
41
1
10
236.191899997023
20
24.695398993981
30
0
41
1
10
236.19191178338
20
24.6922171572183
30
0
41
1
10
236.192240074466
20
24.617097928315
30
0
41
1
10
236.193704453329
20
24.5404191418772
30
0
41
1
10
236.197343052513
20
24.3858358837278
30
0
41
1
10
236.199589420293
20
24.3074276186168
30
0
41
1
10
236.204543214699
20
24.1497205994597
30
0
41
1
10
236.207258979333
20
24.0704153370182
30
0
41
1
10
236.210137023227
20
23.9908031674379
30
0
0
SPLINE
5
310
100
AcDbEntity
8
1
62
256
6
ByLayer
370
13
48
1
60
0
100
AcDbSpline
70
4
71
3
72
8
73
4
40
0
40
0
40
0
40
0
40
1
40
1
40
1
40
1
41
1
10
254.696096874826
20
0.571026347154572
30
0
41
1
10
254.849164005749
20
0.593127899967868
30
0
41
1
10
255.000797380016
20
0.602311315230082
30
0
41
1
10
255.152216466253
20
0.60032740456964
30
0
0
SPLINE
5
311
100
AcDbEntity
8
1
62
256
6
ByLayer
370
13
48
1
60
0
100
AcDbSpline
70
4
71
1
72
4
73
2
40
0
40
0
40
1
40
1
41
1
10
36.01
20
-25.579654127048
30
0
41
1
10
36.01
20
-14.4820090422755
30
0
0
SPLINE
5
312
100
AcDbEntity
8
1
62
256
6
ByLayer
370
13
48
1
60
0
100
AcDbSpline
70
4
71
3
72
52
73
48
40
0
40
0
40
0
40
0
40
0.0312500000000002
40
0.0312500000000002
40
0.0625000000000005
40
0.0625000000000005
40
0.0781250000000006
40
0.0781250000000006
40
0.0937500000000007
40
0.0937500000000007
40
0.125000000000001
40
0.125000000000001
40
0.140625000000001
40
0.140625000000001
40
0.156250000000002
40
0.156250000000002
40
0.164062500000002
40
0.164062500000002
40
0.171875000000003
40
0.171875000000003
40
0.187500000000002
40
0.187500000000002
40
0.250000000000002
40
0.250000000000002
40
0.281250000000002
40
0.281250000000002
40
0.312500000000003
40
0.312500000000003
40
0.375000000000002
40
0.375000000000002
40
0.437500000000002
40
0.437500000000002
40
0.500000000000002
40
0.500000000000002
40
0.562500000000001
40
0.562500000000001
40
0.593750000000002
40
0.593750000000002
40
0.625000000000002
40
0.625000000000002
40
0.75
40
0.75
40
0.8125
40
0.8125
40
0.875
40
0.875
40
1
40
1
40
1
40
1
41
1
10
215.571139648335
20
-25.8860539922339
30
0
41
1
10
214.581601286726
20
-25.8749170587216
30
0
41
1
10
213.591258386999
20
-25.8641130434328
30
0
41
1
10
211.611320523801
20
-25.8407185738612
30
0
41
1
10
210.621756462767
20
-25.8281142944593
30
0
41
1
10
209.140368905976
20
-25.8044552849927
30
0
41
1
10
208.647066705054
20
-25.7957655203272
30
0
41
1
10
207.661852393288
20
-25.7760254580634
30
0
41
1
10
207.169658056035
20
-25.7649681970042
30
0
41
1
10
205.699942676741
20
-25.7269649856621
30
0
41
1
10
204.728407420687
20
-25.695333150781
30
0
41
1
10
203.290365776727
20
-25.6296982421142
30
0
41
1
10
202.814219650655
20
-25.6047531093456
30
0
41
1
10
201.869383224842
20
-25.5466924025543
30
0
41
1
10
201.40057820667
20
-25.5136110429499
30
0
41
1
10
200.704691069181
20
-25.4553272992517
30
0
41
1
10
200.474911729394
20
-25.4343661012165
30
0
41
1
10
200.017163351611
20
-25.3904173329955
30
0
41
1
10
199.788428692549
20
-25.3678262410565
30
0
41
1
10
199.102262801952
20
-25.2983878829951
30
0
41
1
10
198.645860128514
20
-25.2493376869073
30
0
41
1
10
196.36429046479
20
-24.9925723483231
30
0
41
1
10
194.536569969775
20
-24.7530938969128
30
0
41
1
10
191.795536621569
20
-24.3409812534194
30
0
41
1
10
190.881916579201
20
-24.194767810948
30
0
41
1
10
189.055297038473
20
-23.8839780008874
30
0
41
1
10
188.142329532562
20
-23.7192001362214
30
0
41
1
10
185.405240899962
20
-23.1990650873685
30
0
41
1
10
183.581747049707
20
-22.8178633895795
30
0
41
1
10
179.92404387383
20
-22.0036259133202
30
0
41
1
10
178.089629254986
20
-21.5704754027751
30
0
41
1
10
174.402518708705
20
-20.6714453923694
30
0
41
1
10
172.552401902286
20
-20.2060534181318
30
0
41
1
10
168.833475469966
20
-19.2610606475707
30
0
41
1
10
166.964874129788
20
-18.7811644377771
30
0
41
1
10
164.145811028882
20
-18.061336356733
30
0
41
1
10
163.203444497833
20
-17.8214085470879
30
0
41
1
10
161.315456318871
20
-17.3441375726328
30
0
41
1
10
160.369516081506
20
-17.1067250223702
30
0
41
1
10
155.629218015575
20
-15.9304403329472
30
0
41
1
10
151.803272656781
20
-15.0233665410486
30
0
41
1
10
146.000996850758
20
-13.7937280563589
30
0
41
1
10
144.055187041168
20
-13.4052490943431
30
0
41
1
10
140.15391709126
20
-12.6763392718653
30
0
41
1
10
138.197616665853
20
-12.3356756591634
30
0
41
1
10
132.312292000414
20
-11.3881757497302
30
0
41
1
10
128.366891139211
20
-10.8558838366851
30
0
41
1
10
124.4
20
-10.4327668048397
30
0
0
SPLINE
5
313
100
AcDbEntity
8
1
62
256
6
ByLayer
370
13
48
1
60
0
100
AcDbSpline
70
4
71
3
72
24
73
20
40
0
40
0
40
0
40
0
40
0.124999999999995
40
0.124999999999995
40
0.249999999999989
40
0.249999999999989
40
0.374999999999984
40
0.374999999999984
40
0.499999999999978
40
0.499999999999978
40
0.624999999999972
40
0.624999999999972
40
0.68749999999997
40
0.68749999999997
40
0.749999999999967
40
0.749999999999967
40
0.874999999999983
40
0.874999999999983
40
1
40
1
40
1
40
1
41
1
10
239.768544146329
20
6.46668611836097
30
0
41
1
10
239.647874541018
20
6.37103249482627
30
0
41
1
10
239.520289913449
20
6.28421096142617
30
0
41
1
10
239.252114252457
20
6.12995925061642
30
0
41
1
10
239.113975934331
20
6.06386837804916
30
0
41
1
10
238.829133499698
20
5.95293477042529
30
0
41
1
10
238.682046219437
20
5.90800905799492
30
0
41
1
10
238.38004818898
20
5.84057138189999
30
0
41
1
10
238.228125409138
20
5.81866938757003
30
0
41
1
10
237.922389134893
20
5.79759114437729
30
0
41
1
10
237.76857568002
20
5.79841608859869
30
0
41
1
10
237.536484744181
20
5.81719550314202
30
0
41
1
10
237.458773169933
20
5.826437511265
30
0
41
1
10
237.305544477614
20
5.85051177359907
30
0
41
1
10
237.229702311493
20
5.86535831155388
30
0
41
1
10
237.004479409823
20
5.91817548368692
30
0
41
1
10
236.857385677806
20
5.96437195381634
30
0
41
1
10
236.569629179865
20
6.07917365096563
30
0
41
1
10
236.428669404933
20
6.14819395089953
30
0
41
1
10
236.295745705764
20
6.22647766270876
30
0
0
SPLINE
5
314
100
AcDbEntity
8
1
62
256
6
ByLayer
370
13
48
1
60
0
100
AcDbSpline
70
4
71
3
72
8
73
4
40
0
40
0
40
0
40
0
40
1
40
1
40
1
40
1
41
1
10
229.480896307072
20
10.0500773893485
30
0
41
1
10
229.481502784754
20
10.0522221856033
30
0
41
1
10
229.482163726512
20
10.0543601563875
30
0
41
1
10
229.482878074459
20
10.0564914499028
30
0
0
SPLINE
5
315
100
AcDbEntity
8
1
62
256
6
ByLayer
370
13
48
1
60
0
100
AcDbSpline
70
4
71
3
72
10
73
6
40
0
40
0
40
0
40
0
40
0.616522878015974
40
0.616522878015974
40
1
40
1
40
1
40
1
41
1
10
229.482878074459
20
10.0564914499028
30
0
41
1
10
225.496336689109
20
10.1895395599763
30
0
41
1
10
221.512929524533
20
10.2480454646826
30
0
41
1
10
215.05286625526
20
10.2234591044417
30
0
41
1
10
212.575817127608
20
10.1855373230127
30
0
41
1
10
210.098397020692
20
10.1197613660177
30
0
0
SPLINE
5
316
100
AcDbEntity
8
1
62
256
6
ByLayer
370
13
48
1
60
0
100
AcDbSpline
70
4
71
3
72
10
73
6
40
0
40
0
40
0
40
0
40
0.5
40
0.5
40
1
40
1
40
1
40
1
41
1
10
239.929458131622
20
6.94868667155774
30
0
41
1
10
239.893998060842
20
6.90573713772923
30
0
41
1
10
239.857776562227
20
6.86481367969523
30
0
41
1
10
239.786685914891
20
6.78926053647172
30
0
41
1
10
239.751589834791
20
6.75434308496702
30
0
41
1
10
239.717701577099
20
6.72261370572764
30
0
0
SPLINE
5
317
100
AcDbEntity
8
1
62
256
6
ByLayer
370
13
48
1
60
0
100
AcDbSpline
70
4
71
3
72
18
73
14
40
0
40
0
40
0
40
0
40
0.141114765345314
40
0.141114765345314
40
0.312891812276251
40
0.312891812276251
40
0.484668859207189
40
0.484668859207189
40
0.656445906138126
40
0.656445906138126
40
0.828222953069063
40
0.828222953069063
40
1
40
1
40
1
40
1
41
1
10
36
20
-9.39515444648518
30
0
41
1
10
36
20
-9.6127375972554
30
0
41
1
10
36
20
-9.84148124231768
30
0
41
1
10
36
20
-10.357836154898
30
0
41
1
10
36
20
-10.6495539011492
30
0
41
1
10
36
20
-11.2496445946367
30
0
41
1
10
36
20
-11.557820540719
30
0
41
1
10
36
20
-12.1659352030384
30
0
41
1
10
36
20
-12.4690295714635
30
0
41
1
10
36
20
-13.0732406244778
30
0
41
1
10
36
20
-13.3700970115376
30
0
41
1
10
36
20
-13.9392104955489
30
0
41
1
10
36
20
-14.2137785640304
30
0
41
1
10
36
20
-14.4779234464976
30
0
0
SPLINE
5
318
100
AcDbEntity
8
1
62
256
6
ByLayer
370
13
48
1
60
0
100
AcDbSpline
70
4
71
3
72
8
73
4
40
0
40
0
40
0
40
0
40
1
40
1
40
1
40
1
41
1
10
254.686004314098
20
0.574734909719922
30
0
41
1
10
254.684098615661
20
0.628093964757909
30
0
41
1
10
254.68383289637
20
0.681217493345883
30
0
41
1
10
254.685107434306
20
0.730124503609261
30
0
0
SPLINE
5
319
100
AcDbEntity
8
1
62
256
6
ByLayer
370
13
48
1
60
0
100
AcDbSpline
70
4
71
3
72
12
73
8
40
0
40
0
40
0
40
0
40
0.497361144778436
40
0.497361144778436
40
0.748680572389218
40
0.748680572389218
40
1
40
1
40
1
40
1
41
1
10
206.179501967588
20
11.6855517950808
30
0
41
1
10
210.117472384608
20
11.9152893608561
30
0
41
1
10
214.054369362376
20
12.0637704614659
30
0
41
1
10
219.984206319264
20
12.1587137346179
30
0
41
1
10
221.975548352168
20
12.1687949400046
30
0
41
1
10
225.957187275817
20
12.144772640007
30
0
41
1
10
227.947859708232
20
12.110680711937
30
0
41
1
10
229.938817091413
20
12.0543879258021
30
0
0
SPLINE
5
31A
100
AcDbEntity
8
1
62
256
6
ByLayer
370
13
48
1
60
0
100
AcDbSpline
70
4
71
3
72
14
73
10
40
0
40
0
40
0
40
0
40
0.25
40
0.25
40
0.5
40
0.5
40
0.75
40
0.75
40
1
40
1
40
1
40
1
41
1
10
241.748737918589
20
5.8689140757414
30
0
41
1
10
242.05248022442
20
5.98057507568339
30
0
41
1
10
242.349589391759
20
6.07432291969687
30
0
41
1
10
242.932601197095
20
6.23351547636676
30
0
41
1
10
243.218474539643
20
6.29889571795741
30
0
41
1
10
243.779602096878
20
6.40615291638298
30
0
41
1
10
244.054843576778
20
6.44800029801826
30
0
41
1
10
244.594512029305
20
6.51181146126822
30
0
41
1
10
244.859465022994
20
6.53376580682013
30
0
41
1
10
245.116550501942
20
6.54723908585788
30
0
0
SPLINE
5
31B
100
AcDbEntity
8
1
62
256
6
ByLayer
370
13
48
1
60
0
100
AcDbSpline
70
4
71
3
72
30
73
26
40
0
40
0
40
0
40
0
40
0.12272942630658
40
0.12272942630658
40
0.245458852613161
40
0.245458852613161
40
0.368188278919741
40
0.368188278919741
40
0.429552992073031
40
0.429552992073031
40
0.490917705226322
40
0.490917705226322
40
0.613647131532904
40
0.613647131532904
40
0.736376557839486
40
0.736376557839486
40
0.859105984146068
40
0.859105984146068
40
0.920470697299359
40
0.920470697299359
40
0.951153053876004
40
0.951153053876004
40
0.98183541045265
40
0.98183541045265
40
1
40
1
40
1
40
1
41
1
10
224.28373820266
20
25.6328358184118
30
0
41
1
10
222.435527585873
20
25.7561303154601
30
0
41
1
10
220.58806632783
20
25.8404080259647
30
0
41
1
10
216.891871991625
20
25.9304434706629
30
0
41
1
10
215.044613900156
20
25.9361376708574
30
0
41
1
10
211.352833299438
20
25.8680188912235
30
0
41
1
10
209.507716277235
20
25.7941800477286
30
0
41
1
10
206.738920745119
20
25.6226711311563
30
0
41
1
10
205.815797400469
20
25.5554342092767
30
0
41
1
10
203.968783482522
20
25.4012925444082
30
0
41
1
10
203.044583354008
20
25.3143534341052
30
0
41
1
10
200.273351381488
20
25.0251028227751
30
0
41
1
10
198.42736577597
20
24.7943979903384
30
0
41
1
10
194.735739692335
20
24.2617943223257
30
0
41
1
10
192.890249194353
20
23.9594214578538
30
0
41
1
10
189.196936942124
20
23.2690100222687
30
0
41
1
10
187.348166232662
20
22.8812860068041
30
0
41
1
10
184.576900492474
20
22.2658704379864
30
0
41
1
10
183.653375397929
20
22.0552459841779
30
0
41
1
10
182.266488900351
20
21.7298514048991
30
0
41
1
10
181.803948701228
20
21.6198998422422
30
0
41
1
10
180.877820558049
20
21.3963098056254
30
0
41
1
10
180.414012353257
20
21.2819642914799
30
0
41
1
10
179.673889145038
20
21.0955060567949
30
0
41
1
10
179.39836545834
20
21.0254900788928
30
0
41
1
10
179.122649509486
20
20.9551300471966
30
0
0
SPLINE
5
31C
100
AcDbEntity
8
1
62
256
6
ByLayer
370
13
48
1
60
0
100
AcDbSpline
70
4
71
3
72
8
73
4
40
0
40
0
40
0
40
0
40
1
40
1
40
1
40
1
41
1
10
232.418607486697
20
-0.359544436681972
30
0
41
1
10
232.792124205704
20
-0.38311464578527
30
0
41
1
10
233.165644782147
20
-0.406666060217276
30
0
41
1
10
233.539169144042
20
-0.430198982337771
30
0
0
SPLINE
5
31D
100
AcDbEntity
8
1
62
256
6
ByLayer
370
13
48
1
60
0
100
AcDbSpline
70
4
71
3
72
8
73
4
40
0
40
0
40
0
40
0
40
1
40
1
40
1
40
1
41
1
10
41
20
-26.2275821804096
30
0
41
1
10
39.3333331729283
20
-26.2275543644188
30
0
41
1
10
37.6666663238422
20
-26.2274907473912
30
0
41
1
10
36
20
-26.2273758842862
30
0
0
SPLINE
5
31E
100
AcDbEntity
8
1
62
256
6
ByLayer
370
13
48
1
60
0
100
AcDbSpline
70
4
71
3
72
8
73
4
40
0
40
0
40
0
40
0
40
1
40
1
40
1
40
1
41
1
10
231.183587739781
20
8.42830392551451
30
0
41
1
10
231.095981374548
20
8.19870519007813
30
0
41
1
10
230.99159086642
20
7.97518286545696
30
0
41
1
10
230.870953334967
20
7.75754249672994
30
0
0
SPLINE
5
31F
100
AcDbEntity
8
1
62
256
6
ByLayer
370
13
48
1
60
0
100
AcDbSpline
70
4
71
3
72
20
73
16
40
0
40
0
40
0
40
0
40
0.125000000000001
40
0.125000000000001
40
0.250000000000001
40
0.250000000000001
40
0.500000000000002
40
0.500000000000002
40
0.625000000000002
40
0.625000000000002
40
0.750000000000001
40
0.750000000000001
40
0.875000000000001
40
0.875000000000001
40
1
40
1
40
1
40
1
41
1
10
229.482878074459
20
10.0564914499028
30
0
41
1
10
229.505286991084
20
10.1233495950296
30
0
41
1
10
229.526723477662
20
10.193928886522
30
0
41
1
10
229.568469646198
20
10.342413209841
30
0
41
1
10
229.588900447776
20
10.4208689430995
30
0
41
1
10
229.648290506562
20
10.6636171283975
30
0
41
1
10
229.684867602196
20
10.8329072447939
30
0
41
1
10
229.738344177784
20
11.0974450353654
30
0
41
1
10
229.755875550305
20
11.187166554806
30
0
41
1
10
229.790211416679
20
11.365073953548
30
0
41
1
10
229.807124415785
20
11.4538727677844
30
0
41
1
10
229.841593896175
20
11.6309297453352
30
0
41
1
10
229.859168305577
20
11.719412939217
30
0
41
1
10
229.896203036488
20
11.8906380970107
30
0
41
1
10
229.91559476462
20
11.9740135833463
30
0
41
1
10
229.938817091409
20
12.0543879258034
30
0
0
SPLINE
5
320
100
AcDbEntity
8
1
62
256
6
ByLayer
370
13
48
1
60
0
100
AcDbSpline
70
4
71
3
72
8
73
4
40
0
40
0
40
0
40
0
40
1
40
1
40
1
40
1
41
1
10
233.539169144042
20
-26.1541736311455
30
0
41
1
10
232.539169143315
20
-26.0648004261955
30
0
41
1
10
231.539169143307
20
-25.9754272133081
30
0
41
1
10
230.539169144042
20
-25.8860539922339
30
0
0
SPLINE
5
321
100
AcDbEntity
8
1
62
256
6
ByLayer
370
13
48
1
60
0
100
AcDbSpline
70
4
71
3
72
28
73
24
40
0
40
0
40
0
40
0
40
0.0669232072236493
40
0.0669232072236493
40
0.133846414447299
40
0.133846414447299
40
0.267692828894597
40
0.267692828894597
40
0.334616036118247
40
0.334616036118247
40
0.401539243341897
40
0.401539243341897
40
0.535385657789197
40
0.535385657789197
40
0.669232072236497
40
0.669232072236497
40
0.736155279460147
40
0.736155279460147
40
0.803078486683797
40
0.803078486683797
40
0.936924901131097
40
0.936924901131097
40
1
40
1
40
1
40
1
41
1
10
224.369349516136
20
25.7668994868449
30
0
41
1
10
223.355951980293
20
25.8346319634795
30
0
41
1
10
222.342267399856
20
25.8905033575558
30
0
41
1
10
220.316339658108
20
25.978272168965
30
0
41
1
10
219.303822584275
20
26.0101914282757
30
0
41
1
10
216.266899082916
20
26.0700000373764
30
0
41
1
10
214.243110027196
20
26.0619355822554
30
0
41
1
10
211.20597149301
20
25.9778827253036
30
0
41
1
10
210.193351926137
20
25.9378741588394
30
0
41
1
10
208.167216070699
20
25.8338689453897
30
0
41
1
10
207.153818647382
20
25.7698595991466
30
0
41
1
10
204.116077082099
20
25.5423326591672
30
0
41
1
10
202.092641977133
20
25.3432193463757
30
0
41
1
10
198.044508486609
20
24.8528035565095
30
0
41
1
10
196.019472319957
20
24.5618116162818
30
0
41
1
10
192.979106686646
20
24.0575955895802
30
0
41
1
10
191.965727819994
20
23.878216921491
30
0
41
1
10
189.941237606797
20
23.496910535769
30
0
41
1
10
188.929791107062
20
23.2949373321636
30
0
41
1
10
185.894932912775
20
22.6579398690263
30
0
41
1
10
183.871320523669
20
22.1911342436763
30
0
41
1
10
180.880761660494
20
21.4608133593481
30
0
41
1
10
179.920764113322
20
21.2205169121278
30
0
41
1
10
178.957877669592
20
20.9754598661378
30
0
0
SPLINE
5
322
100
AcDbEntity
8
1
62
256
6
ByLayer
370
13
48
1
60
0
100
AcDbSpline
70
4
71
3
72
16
73
12
40
0
40
0
40
0
40
0
40
0.25
40
0.25
40
0.500000000000001
40
0.500000000000001
40
0.750000000000001
40
0.750000000000001
40
0.875000000000001
40
0.875000000000001
40
1
40
1
40
1
40
1
41
1
10
254.857377301785
20
7.22974317104132
30
0
41
1
10
254.72606581666
20
7.25905635108785
30
0
41
1
10
254.597323268415
20
7.29611012550779
30
0
41
1
10
254.343367893112
20
7.38666582273396
30
0
41
1
10
254.217827739113
20
7.44033281691552
30
0
41
1
10
253.971119772969
20
7.56599410508008
30
0
41
1
10
253.852073959224
20
7.63686599285919
30
0
41
1
10
253.680016730212
20
7.75644186061024
30
0
41
1
10
253.623754371349
20
7.79852364042279
30
0
41
1
10
253.513480788484
20
7.88754426665798
30
0
41
1
10
253.459556885622
20
7.93444951078482
30
0
41
1
10
253.407741221223
20
7.98313432506552
30
0
0
SPLINE
5
323
100
AcDbEntity
8
1
62
256
6
ByLayer
370
13
48
1
60
0
100
AcDbSpline
70
4
71
3
72
8
73
4
40
0
40
0
40
0
40
0
40
1
40
1
40
1
40
1
41
1
10
36
20
-26.2273758842863
30
0
41
1
10
35.4143758891194
20
-26.2273355243157
30
0
41
1
10
34.8293762173628
20
-26.2416462870405
30
0
41
1
10
34.2449987902738
20
-26.2702582068712
30
0
0
SPLINE
5
324
100
AcDbEntity
8
1
62
256
6
ByLayer
370
13
48
1
60
0
100
AcDbSpline
70
4
71
3
72
44
73
40
40
0
40
0
40
0
40
0
40
0.0625000000000005
40
0.0625000000000005
40
0.125000000000001
40
0.125000000000001
40
0.187500000000001
40
0.187500000000001
40
0.250000000000002
40
0.250000000000002
40
0.281250000000002
40
0.281250000000002
40
0.312500000000002
40
0.312500000000002
40
0.375000000000002
40
0.375000000000002
40
0.406250000000002
40
0.406250000000002
40
0.437500000000002
40
0.437500000000002
40
0.500000000000002
40
0.500000000000002
40
0.531250000000002
40
0.531250000000002
40
0.562500000000002
40
0.562500000000002
40
0.625000000000002
40
0.625000000000002
40
0.687500000000001
40
0.687500000000001
40
0.750000000000001
40
0.750000000000001
40
0.875
40
0.875
40
0.90625
40
0.90625
40
0.9375
40
0.9375
40
1
40
1
40
1
40
1
41
1
10
7.08502349178382
20
-26.644902081318
30
0
41
1
10
6.94601516139665
20
-26.8306488781134
30
0
41
1
10
6.83239682979357
20
-27.0123037400242
30
0
41
1
10
6.65459661676938
20
-27.3664263154695
30
0
41
1
10
6.59040857141443
20
-27.538899689418
30
0
41
1
10
6.51414359761722
20
-27.8734939933448
30
0
41
1
10
6.50314388417897
20
-28.0313593747726
30
0
41
1
10
6.53357638097921
20
-28.3275777935496
30
0
41
1
10
6.57454410231114
20
-28.4662148894249
30
0
41
1
10
6.67375538539473
20
-28.6602306471374
30
0
41
1
10
6.71333274333493
20
-28.7225676877258
30
0
41
1
10
6.80378388918288
20
-28.8407194300681
30
0
41
1
10
6.8547298110767
20
-28.896818713435
30
0
41
1
10
7.02413657068374
20
-29.0566339891987
30
0
41
1
10
7.15912087699236
20
-29.1518888039245
30
0
41
1
10
7.39272783627908
20
-29.279322070558
30
0
41
1
10
7.47612104241048
20
-29.3193256995246
30
0
41
1
10
7.6516224188571
20
-29.3936086077181
30
0
41
1
10
7.74368494202874
20
-29.4279105029599
30
0
41
1
10
8.03222344184572
20
-29.5229060383967
30
0
41
1
10
8.24100178714423
20
-29.5757180037484
30
0
41
1
10
8.57747876670764
20
-29.6409608597276
30
0
41
1
10
8.69353553575775
20
-29.6603715521404
30
0
41
1
10
8.93336587208736
20
-29.6947391098304
30
0
41
1
10
9.05736397818072
20
-29.7097064603541
30
0
41
1
10
9.43688890379809
20
-29.7478554043504
30
0
41
1
10
9.70095906693936
20
-29.7645260538318
30
0
41
1
10
10.2502862090593
20
-29.7826143517374
30
0
41
1
10
10.5354930275665
20
-29.7840493814504
30
0
41
1
10
11.1269735130445
20
-29.773217975484
30
0
41
1
10
11.434595875058
20
-29.7608386843809
30
0
41
1
10
12.3718475827864
20
-29.7059775383868
30
0
41
1
10
13.0199247248972
20
-29.6459844618084
30
0
41
1
10
13.8601498643493
20
-29.5469707865143
30
0
41
1
10
14.0297330739369
20
-29.5259347324704
30
0
41
1
10
14.3720719614289
20
-29.4814374203205
30
0
41
1
10
14.5450895930225
20
-29.4579354947173
30
0
41
1
10
15.0651556139031
20
-29.3843441887863
30
0
41
1
10
15.4142493719387
20
-29.3310664294011
30
0
41
1
10
15.7658885516545
20
-29.2736190398522
30
0
0
SPLINE
5
325
100
AcDbEntity
8
1
62
256
6
ByLayer
370
13
48
1
60
0
100
AcDbSpline
70
4
71
3
72
8
73
4
40
0
40
0
40
0
40
0
40
1
40
1
40
1
40
1
41
1
10
41
20
-9.40918669009096
30
0
41
1
10
39.3333331117996
20
-9.40881638020181
30
0
41
1
10
37.6666662004813
20
-9.40799680118809
30
0
41
1
10
36
20
-9.40653500608181
30
0
0
SPLINE
5
326
100
AcDbEntity
8
1
62
256
6
ByLayer
370
13
48
1
60
0
100
AcDbSpline
70
4
71
3
72
8
73
4
40
0
40
0
40
0
40
0
40
1
40
1
40
1
40
1
41
1
10
224.283738202672
20
25.6328358184044
30
0
41
1
10
224.312343534672
20
25.6774791917441
30
0
41
1
10
224.340880444229
20
25.7221672084138
30
0
41
1
10
224.369349516142
20
25.7668994868537
30
0
0
SPLINE
5
327
100
AcDbEntity
8
1
62
256
6
ByLayer
370
13
48
1
60
0
100
AcDbSpline
70
4
71
3
72
8
73
4
40
0
40
0
40
0
40
0
40
1
40
1
40
1
40
1
41
1
10
36.45
20
-25.570125224917
30
0
41
1
10
36.2999999943866
20
-25.570249906514
30
0
41
1
10
36.1499999941221
20
-25.5703794144301
30
0
41
1
10
36
20
-25.5705138705407
30
0
0
SPLINE
5
328
100
AcDbEntity
8
1
62
256
6
ByLayer
370
13
48
1
60
0
100
AcDbSpline
70
4
71
3
72
24
73
20
40
0
40
0
40
0
40
0
40
0.0624999999999992
40
0.0624999999999992
40
0.124999999999999
40
0.124999999999999
40
0.249999999999999
40
0.249999999999999
40
0.374999999999999
40
0.374999999999999
40
0.499999999999999
40
0.499999999999999
40
0.624999999999999
40
0.624999999999999
40
0.749999999999999
40
0.749999999999999
40
0.875
40
0.875
40
1
40
1
40
1
40
1
41
1
10
230.870953334967
20
7.75754249672994
30
0
41
1
10
230.847813892949
20
7.71579697498177
30
0
41
1
10
230.829643385228
20
7.67032601800284
30
0
41
1
10
230.806827912981
20
7.57879471409805
30
0
41
1
10
230.801755181766
20
7.53176189793081
30
0
41
1
10
230.804431366701
20
7.39244149112508
30
0
41
1
10
230.829617201991
20
7.30381149535023
30
0
41
1
10
230.903870094406
20
7.14414562065809
30
0
41
1
10
230.953732825032
20
7.07088365316935
30
0
41
1
10
231.064683330059
20
6.93903695535869
30
0
41
1
10
231.12633746594
20
6.87953510053475
30
0
41
1
10
231.258381079468
20
6.76963987906476
30
0
41
1
10
231.328512334113
20
6.71964479505831
30
0
41
1
10
231.472618441547
20
6.62890641010674
30
0
41
1
10
231.547006635856
20
6.58786793436468
30
0
41
1
10
231.699680789738
20
6.51301635035512
30
0
41
1
10
231.777974890212
20
6.47921817783885
30
0
41
1
10
231.938122611759
20
6.41820268569117
30
0
41
1
10
232.020242506904
20
6.39093478500092
30
0
41
1
10
232.102890510012
20
6.36717199694584
30
0
0
SPLINE
5
329
100
AcDbEntity
8
1
62
256
6
ByLayer
370
13
48
1
60
0
100
AcDbSpline
70
4
71
3
72
28
73
24
40
0
40
0
40
0
40
0
40
0.0625000000000001
40
0.0625000000000001
40
0.125
40
0.125
40
0.15625
40
0.15625
40
0.1875
40
0.1875
40
0.25
40
0.25
40
0.3125
40
0.3125
40
0.375
40
0.375
40
0.4375
40
0.4375
40
0.5
40
0.5
40
0.75
40
0.75
40
1
40
1
40
1
40
1
41
1
10
124.4
20
-10.4327668048397
30
0
41
1
10
122.672522442447
20
-10.2489547463578
30
0
41
1
10
120.942862889767
20
-10.0854451180147
30
0
41
1
10
117.478270060178
20
-9.80927299515275
30
0
41
1
10
115.742616071663
20
-9.69776295266229
30
0
41
1
10
113.138534322887
20
-9.57073293901507
30
0
41
1
10
112.270332182132
20
-9.53493771438386
30
0
41
1
10
110.533593801705
20
-9.47594308744289
30
0
41
1
10
109.665055245467
20
-9.45283167930936
30
0
41
1
10
107.059030842322
20
-9.39897181928777
30
0
41
1
10
105.321137393591
20
-9.3836622315583
30
0
41
1
10
101.844800160753
20
-9.37396490761014
30
0
41
1
10
100.106345228918
20
-9.37956719771987
30
0
41
1
10
96.6294936506736
20
-9.39125360417179
30
0
41
1
10
94.8910674581522
20
-9.39760825624734
30
0
41
1
10
91.4142186807671
20
-9.40569250270187
30
0
41
1
10
89.6757965166661
20
-9.40688601488728
30
0
41
1
10
86.1989537970414
20
-9.40721219789282
30
0
41
1
10
84.460532938351
20
-9.40673218827209
30
0
41
1
10
75.7684285008136
20
-9.40450643641503
30
0
41
1
10
68.8147464645339
20
-9.40074269503697
30
0
41
1
10
54.9073747968396
20
-9.4029607318808
30
0
41
1
10
47.9536844410408
20
-9.40990327984261
30
0
41
1
10
41
20
-9.40918669009099
30
0
0
SPLINE
5
32A
100
AcDbEntity
8
1
62
256
6
ByLayer
370
13
48
1
60
0
100
AcDbSpline
70
4
71
3
72
8
73
4
40
0
40
0
40
0
40
0
40
1
40
1
40
1
40
1
41
1
10
231.544877894966
20
12.1225107884348
30
0
41
1
10
231.498895902352
20
12.1168043458819
30
0
41
1
10
231.452107668488
20
12.1142579579433
30
0
41
1
10
231.404595159103
20
12.114252745947
30
0
0
SPLINE
5
32B
100
AcDbEntity
8
1
62
256
6
ByLayer
370
13
48
1
60
0
100
AcDbSpline
70
4
71
3
72
8
73
4
40
0
40
0
40
0
40
0
40
1
40
1
40
1
40
1
41
1
10
230.539169144042
20
-0.0406365572254401
30
0
41
1
10
231.15869081479
20
-0.212657490514971
30
0
41
1
10
231.785177621532
20
-0.319572800569546
30
0
41
1
10
232.418607486696
20
-0.359544436682313
30
0
0
SPLINE
5
32C
100
AcDbEntity
8
1
62
256
6
ByLayer
370
13
48
1
60
0
100
AcDbSpline
70
4
71
3
72
8
73
4
40
0
40
0
40
0
40
0
40
1
40
1
40
1
40
1
41
1
10
229.270242889815
20
9.34504111018836
30
0
41
1
10
229.344631373964
20
9.57926824623061
30
0
41
1
10
229.414252432343
20
9.81439265219583
30
0
41
1
10
229.480896307072
20
10.0500773893485
30
0
0
SPLINE
5
32D
100
AcDbEntity
8
1
62
256
6
ByLayer
370
13
48
1
60
0
100
AcDbSpline
70
4
71
3
72
32
73
28
40
0
40
0
40
0
40
0
40
0.0554506094598637
40
0.0554506094598637
40
0.111012338315165
40
0.111012338315165
40
0.166574067170467
40
0.166574067170467
40
0.222135796025768
40
0.222135796025768
40
0.333259253736371
40
0.333259253736371
40
0.388820982591673
40
0.388820982591673
40
0.444382711446974
40
0.444382711446974
40
0.555506169157578
40
0.555506169157578
40
0.666629626868183
40
0.666629626868183
40
0.722191355723486
40
0.722191355723486
40
0.777753084578789
40
0.777753084578789
40
0.888876542289394
40
0.888876542289394
40
1
40
1
40
1
40
1
41
1
10
178.871736413735
20
-21.7382320571044
30
0
41
1
10
177.905492264732
20
-21.9731786149506
30
0
41
1
10
176.939551429064
20
-22.1997101435058
30
0
41
1
10
175.005158636405
20
-22.6349128676144
30
0
41
1
10
174.036632665326
20
-22.8436951014261
30
0
41
1
10
172.098998777897
20
-23.2407142267724
30
0
41
1
10
171.12954763762
20
-23.428758150117
30
0
41
1
10
169.18552437437
20
-23.7808969429308
30
0
41
1
10
168.210734369284
20
-23.9447907229563
30
0
41
1
10
165.274342024478
20
-24.3996308056603
30
0
41
1
10
163.30177134846
20
-24.6549439995989
30
0
41
1
10
160.319283407462
20
-24.9784561224246
30
0
41
1
10
159.3207261452
20
-25.0764088923584
30
0
41
1
10
157.318239324487
20
-25.2541822464786
30
0
41
1
10
156.314295554484
20
-25.3339939980192
30
0
41
1
10
153.294376930168
20
-25.5494952609517
30
0
41
1
10
151.270380850521
20
-25.6614260040838
30
0
41
1
10
147.20234685085
20
-25.8374853849886
30
0
41
1
10
145.158527494964
20
-25.9016465681978
30
0
41
1
10
142.078041649448
20
-25.9711068065261
30
0
41
1
10
141.048706770427
20
-25.9897476440061
30
0
41
1
10
138.986552280705
20
-26.0193543317391
30
0
41
1
10
137.953488947878
20
-26.0303268247975
30
0
41
1
10
134.847810009569
20
-26.0539035427289
30
0
41
1
10
132.767758534668
20
-26.0571824782492
30
0
41
1
10
128.594352106179
20
-26.050402711731
30
0
41
1
10
126.500739474368
20
-26.040401846029
30
0
41
1
10
124.4
20
-26.0285968787203
30
0
0
SPLINE
5
32E
100
AcDbEntity
8
1
62
256
6
ByLayer
370
13
48
1
60
0
100
AcDbSpline
70
4
71
3
72
16
73
12
40
0
40
0
40
0
40
0
40
0.249999999999988
40
0.249999999999988
40
0.374999999999983
40
0.374999999999983
40
0.499999999999978
40
0.499999999999978
40
0.749999999999989
40
0.749999999999989
40
1
40
1
40
1
40
1
41
1
10
254.685107434306
20
0.730124503609261
30
0
41
1
10
254.686362211968
20
0.77827326585907
30
0
41
1
10
254.68847144075
20
0.823594112525029
30
0
41
1
10
254.692711319336
20
0.882639409991128
30
0
41
1
10
254.694299421714
20
0.900879307964772
30
0
41
1
10
254.697829229915
20
0.934442503897799
30
0
41
1
10
254.699788239622
20
0.949846669354258
30
0
41
1
10
254.706021925419
20
0.990076529592585
30
0
41
1
10
254.710743807894
20
1.00969836945066
30
0
41
1
10
254.720965667765
20
1.03260933438367
30
0
41
1
10
254.726313146684
20
1.03579845222066
30
0
41
1
10
254.731904704741
20
1.03045805908789
30
0
0
SPLINE
5
32F
100
AcDbEntity
8
1
62
256
6
ByLayer
370
13
48
1
60
0
100
AcDbSpline
70
4
71
3
72
46
73
42
40
0
40
0
40
0
40
0
40
0.10341682952503
40
0.181634394692658
40
0.26548329460663
40
0.355053235705102
40
0.450375437036669
40
0.55141812495402
40
0.560436491600572
40
0.569736427886727
40
0.579318618816127
40
0.589183730733097
40
0.599332409341629
40
0.609765277506582
40
0.620482932851947
40
0.631485945168508
40
0.642774853641492
40
0.654350163907326
40
0.666212344947649
40
0.678361825827964
40
0.69079899228779
40
0.703524183188961
40
0.716537686828503
40
0.729839737122665
40
0.743430509668722
40
0.757310117691567
40
0.771478607882375
40
0.785935956137193
40
0.800682063203771
40
0.815716750245651
40
0.831039754333205
40
0.846650723872064
40
0.862549213980251
40
0.878734681826174
40
0.895206481940656
40
0.911963861517065
40
0.929005955714806
40
0.946331782982421
40
0.963940240417742
40
0.981830099183748
40
1
40
1
40
1
40
1
41
1
10
32.426750351596
20
-9.49382088878974
30
0
41
1
10
32.5037354563771
20
-9.66493904993581
30
0
41
1
10
32.6495795635771
20
-9.97068747554675
30
0
41
1
10
32.8883004278035
20
-10.4280780375986
30
0
41
1
10
33.1366314528901
20
-10.8680406958079
30
0
41
1
10
33.4261891746932
20
-11.3413245992233
30
0
41
1
10
33.7594973384887
20
-11.8445219437874
30
0
41
1
10
34.0157815113274
20
-12.2024764736974
30
0
41
1
10
34.1688405397689
20
-12.4081465934983
30
0
41
1
10
34.2047412426464
20
-12.4561640371653
30
0
41
1
10
34.2418825561784
20
-12.5055511190961
30
0
41
1
10
34.2802830535923
20
-12.5562943575303
30
0
41
1
10
34.3199651377614
20
-12.6083745554653
30
0
41
1
10
34.3609494819177
20
-12.6617724315101
30
0
41
1
10
34.4032564503008
20
-12.7164669648706
30
0
41
1
10
34.4469055598094
20
-12.7724357792321
30
0
41
1
10
34.4919154838152
20
-12.829654956631
30
0
41
1
10
34.5383038990864
20
-12.888099010728
30
0
41
1
10
34.586087371017
20
-12.9477408160838
30
0
41
1
10
34.6352812227665
20
-13.0085515504299
30
0
41
1
10
34.6858994035399
20
-13.0705006343286
30
0
41
1
10
34.7379543518659
20
-13.1335556728516
30
0
41
1
10
34.7914568551547
20
-13.1976823982884
30
0
41
1
10
34.8464159053349
20
-13.2628446144688
30
0
41
1
10
34.9028385508186
20
-13.3290041428585
30
0
41
1
10
34.9607297449481
20
-13.3961207707189
30
0
41
1
10
35.0200921911454
20
-13.4641522015887
30
0
41
1
10
35.0809261850035
20
-13.5330540083938
30
0
41
1
10
35.1432294535897
20
-13.602779589379
30
0
41
1
10
35.2069969922913
20
-13.6732801275216
30
0
41
1
10
35.2722208994561
20
-13.7445045523274
30
0
41
1
10
35.338890209559
20
-13.816399509704
30
0
41
1
10
35.4069907239658
20
-13.8889093195535
30
0
41
1
10
35.4765048449176
20
-13.961976000706
30
0
41
1
10
35.5474113934344
20
-14.0355390594724
30
0
41
1
10
35.6196854875518
20
-14.1095362072349
30
0
41
1
10
35.6932981908866
20
-14.1839005451168
30
0
41
1
10
35.7682170445379
20
-14.258571297768
30
0
41
1
10
35.8444032269554
20
-14.3334527406244
30
0
41
1
10
35.9218216183258
20
-14.4085712533281
30
0
41
1
10
35.9738059683473
20
-14.4581237498014
30
0
41
1
10
36
20
-14.4830924117268
30
0
0
SPLINE
5
330
100
AcDbEntity
8
1
62
256
6
ByLayer
370
13
48
1
60
0
100
AcDbSpline
70
4
71
3
72
42
73
38
40
0
40
0
40
0
40
0
40
0.125000000000001
40
0.125000000000001
40
0.187500000000002
40
0.187500000000002
40
0.218750000000002
40
0.218750000000002
40
0.250000000000002
40
0.250000000000002
40
0.375000000000001
40
0.375000000000001
40
0.437500000000001
40
0.437500000000001
40
0.500000000000001
40
0.500000000000001
40
0.5625
40
0.5625
40
0.59375
40
0.59375
40
0.625000000000001
40
0.625000000000001
40
0.6875
40
0.6875
40
0.75
40
0.75
40
0.78125
40
0.78125
40
0.8125
40
0.8125
40
0.875
40
0.875
40
0.90625
40
0.90625
40
0.9375
40
0.9375
40
1
40
1
40
1
40
1
41
1
10
15.7658879568782
20
-12.5316106757647
30
0
41
1
10
15.0613112199452
20
-12.6298239081689
30
0
41
1
10
14.3747398215566
20
-12.7951803168125
30
0
41
1
10
13.3682174341942
20
-13.1309776609543
30
0
41
1
10
13.036646307423
20
-13.2577199316627
30
0
41
1
10
12.5451133098857
20
-13.4699044681913
30
0
41
1
10
12.3819751455804
20
-13.5444651762972
30
0
41
1
10
12.0610768557073
20
-13.6993467039292
30
0
41
1
10
11.9029298314732
20
-13.7798374720514
30
0
41
1
10
11.1233018746067
20
-14.1968997793341
30
0
41
1
10
10.5346835987058
20
-14.5767216024344
30
0
41
1
10
9.70638195846102
20
-15.2162010158143
30
0
41
1
10
9.43827980457937
20
-15.4423003932147
30
0
41
1
10
8.93391179981238
20
-15.907297689927
30
0
41
1
10
8.6962894138594
20
-16.147203693062
30
0
41
1
10
8.25068786491182
20
-16.6414702413817
30
0
41
1
10
8.04269858570996
20
-16.8958275728892
30
0
41
1
10
7.75444576331108
20
-17.2884937081606
30
0
41
1
10
7.66232912171118
20
-17.4212435301567
30
0
41
1
10
7.48646009265029
20
-17.690598117929
30
0
41
1
10
7.40239372849909
20
-17.827772478003
30
0
41
1
10
7.16632527343727
20
-18.2404922786547
30
0
41
1
10
7.03033017764939
20
-18.5167950788262
30
0
41
1
10
6.80300164886302
20
-19.071389701792
30
0
41
1
10
6.71151448860708
20
-19.3496563639671
30
0
41
1
10
6.61064647378703
20
-19.7684387908565
30
0
41
1
10
6.58311369011618
20
-19.908331938579
30
0
41
1
10
6.54128875982505
20
-20.1834997614463
30
0
41
1
10
6.52682235062252
20
-20.3194121983258
30
0
41
1
10
6.50304288701899
20
-20.7221248859509
30
0
41
1
10
6.51352066337589
20
-20.9838869581418
30
0
41
1
10
6.56900682792087
20
-21.3664386114549
30
0
41
1
10
6.59415148994614
20
-21.4922708364631
30
0
41
1
10
6.65813932012493
20
-21.7405138459289
30
0
41
1
10
6.696658284398
20
-21.8616040426259
30
0
41
1
10
6.83094465970828
20
-22.2149142338151
30
0
41
1
10
6.94546027164242
20
-22.4377688180781
30
0
41
1
10
7.08510402601037
20
-22.6484169523486
30
0
0
SPLINE
5
331
100
AcDbEntity
8
1
62
256
6
ByLayer
370
13
48
1
60
0
100
AcDbSpline
70
4
71
3
72
64
73
60
40
0
40
0
40
0
40
0
40
0.0152028045893521
40
0.0152028045893521
40
0.0357194128270737
40
0.0357194128270737
40
0.0459777169459347
40
0.0459777169459347
40
0.0562360210647957
40
0.0562360210647957
40
0.0767526293025177
40
0.0767526293025177
40
0.0972692375402397
40
0.0972692375402397
40
0.138302454015683
40
0.138302454015683
40
0.179335670491127
40
0.179335670491127
40
0.22036888696657
40
0.22036888696657
40
0.261402103442013
40
0.261402103442013
40
0.281918711679735
40
0.281918711679735
40
0.302435319917457
40
0.302435319917457
40
0.3434685363929
40
0.3434685363929
40
0.363985144630622
40
0.363985144630622
40
0.384501752868344
40
0.384501752868344
40
0.405018361106067
40
0.405018361106067
40
0.425534969343789
40
0.425534969343789
40
0.446051577581511
40
0.446051577581511
40
0.466568185819233
40
0.466568185819233
40
0.487084794056955
40
0.487084794056955
40
0.507601402294677
40
0.507601402294677
40
0.548634618770121
40
0.548634618770121
40
0.569151227007842
40
0.569151227007842
40
0.589667835245564
40
0.589667835245564
40
0.630701051721008
40
0.630701051721008
40
0.671734268196451
40
0.671734268196451
40
0.753800701147338
40
0.753800701147338
40
0.835867134098225
40
0.835867134098225
40
1
40
1
40
1
40
1
41
1
10
178.341825779117
20
-21.6093776520852
30
0
41
1
10
177.670839012813
20
-21.7669784707529
30
0
41
1
10
176.999880999989
20
-21.9207597903376
30
0
41
1
10
175.423189032324
20
-22.2719087806127
30
0
41
1
10
174.517388556345
20
-22.4658455598558
30
0
41
1
10
173.157670200148
20
-22.7425547408203
30
0
41
1
10
172.704250305505
20
-22.8322224706595
30
0
41
1
10
171.796649840507
20
-23.0057953198829
30
0
41
1
10
171.342528064708
20
-23.0898301561901
30
0
41
1
10
169.978695457706
20
-23.3351212484239
30
0
41
1
10
169.067200150304
20
-23.490132691896
30
0
41
1
10
167.237449941671
20
-23.7775323431824
30
0
41
1
10
166.319251841867
20
-23.9106425967329
30
0
41
1
10
163.553950769579
20
-24.2850352655662
30
0
41
1
10
161.697388830285
20
-24.4999956042619
30
0
41
1
10
157.962836674977
20
-24.8651208319696
30
0
41
1
10
156.083156552447
20
-25.0145723321797
30
0
41
1
10
152.308286200962
20
-25.2562142724846
30
0
41
1
10
150.412584127766
20
-25.3491696866748
30
0
41
1
10
146.60519497183
20
-25.4948688829877
30
0
41
1
10
144.693677310465
20
-25.5482355383468
30
0
41
1
10
141.814218577354
20
-25.6070006053413
30
0
41
1
10
140.852043810002
20
-25.6229440958508
30
0
41
1
10
138.924848595238
20
-25.6484994322595
30
0
41
1
10
137.959827750274
20
-25.658114134393
30
0
41
1
10
135.06016090469
20
-25.6788726018194
30
0
41
1
10
133.120864422466
20
-25.6814507786974
30
0
41
1
10
130.201549595221
20
-25.6761682481933
30
0
41
1
10
129.226733281542
20
-25.6730597559173
30
0
41
1
10
127.273587041325
20
-25.6660945616747
30
0
41
1
10
126.295253246323
20
-25.662333507273
30
0
41
1
10
124.335103308526
20
-25.65365851428
30
0
41
1
10
123.353606612679
20
-25.6487343215861
30
0
41
1
10
121.389851562112
20
-25.6371510451164
30
0
41
1
10
120.407290897271
20
-25.6304150033632
30
0
41
1
10
118.44084191266
20
-25.6153797335746
30
0
41
1
10
117.456955115926
20
-25.6070932665377
30
0
41
1
10
115.487898992685
20
-25.5897286970371
30
0
41
1
10
114.502723416319
20
-25.5808315585511
30
0
41
1
10
112.5310044596
20
-25.5692251093623
30
0
41
1
10
111.544452548535
20
-25.566947056768
30
0
41
1
10
109.569960407941
20
-25.5735337667174
30
0
41
1
10
108.581930629649
20
-25.5799488073473
30
0
41
1
10
105.617688428525
20
-25.5872865512989
30
0
41
1
10
103.641492542704
20
-25.5822172179649
30
0
41
1
10
100.67717594276
20
-25.5744012790125
30
0
41
1
10
99.689066571611
20
-25.5716652907668
30
0
41
1
10
97.7128446476905
20
-25.5678562119459
30
0
41
1
10
96.7247321974186
20
-25.5670533754589
30
0
41
1
10
93.7603958196603
20
-25.5677551176037
30
0
41
1
10
91.7841752094542
20
-25.5695248452528
30
0
41
1
10
87.831734574185
20
-25.5709917240353
30
0
41
1
10
85.8555141713
20
-25.5713951827486
30
0
41
1
10
79.9268528034091
20
-25.5718892664017
30
0
41
1
10
75.9744116900415
20
-25.5712272707835
30
0
41
1
10
68.0695294853873
20
-25.5692969690999
30
0
41
1
10
64.1170883093448
20
-25.5692858651886
30
0
41
1
10
52.2597647026189
20
-25.5698389379125
30
0
41
1
10
44.3548822041198
20
-25.5706740151367
30
0
41
1
10
36.4499999999999
20
-25.570125517179
30
0
0
SPLINE
5
332
100
AcDbEntity
8
1
62
256
6
ByLayer
370
13
48
1
60
0
100
AcDbSpline
70
4
71
1
72
4
73
2
40
0
40
0
40
1
40
1
41
1
10
205.901735327691
20
11.8135455877212
30
0
41
1
10
205.850196020022
20
11.8341704116805
30
0
0
SPLINE
5
333
100
AcDbEntity
8
1
62
256
6
ByLayer
370
13
48
1
60
0
100
AcDbSpline
70
4
71
1
72
4
73
2
40
0
40
0
40
1
40
1
41
1
10
255.628979123819
20
7.30995178494521
30
0
41
1
10
255.773654116805
20
7.43951629778422
30
0
0
SPLINE
5
334
100
AcDbEntity
8
1
62
256
6
ByLayer
370
13
48
1
60
0
100
AcDbSpline
70
4
71
1
72
4
73
2
40
0
40
0
40
1
40
1
41
1
10
236.729221905496
20
6.44143989788307
30
0
41
1
10
236.886647533153
20
6.32770780769198
30
0
0
SPLINE
5
335
100
AcDbEntity
8
1
62
256
6
ByLayer
370
13
48
1
60
0
100
AcDbSpline
70
4
71
3
72
13
73
9
40
0
40
0
40
0
40
0
40
0.28000786280573
40
0.560055247393576
40
0.670061263204064
40
0.780009009012238
40
0.890046901553677
40
1
40
1
40
1
40
1
41
1
10
5.61019999999998
20
-31.2500000000001
30
0
41
1
10
8.45967927454276
20
-30.8495129297442
30
0
41
1
10
14.1447881749768
20
-29.9671327472944
30
0
41
1
10
20.9117334543564
20
-28.697782534687
30
0
41
1
10
25.9442745304621
20
-27.6691506145315
30
0
41
1
10
29.2465586754131
20
-26.8987805391133
30
0
41
1
10
32.6108777409767
20
-26.4288842919998
30
0
41
1
10
34.8668487434835
20
-26.3252214072213
30
0
41
1
10
36
20
-26.3250000000001
30
0
0
SPLINE
5
336
100
AcDbEntity
8
1
62
256
6
ByLayer
370
13
48
1
60
0
100
AcDbSpline
70
4
71
3
72
15
73
11
40
0
40
0
40
0
40
0
40
0.093283356701959
40
0.186678858481258
40
0.279950790572113
40
0.373278656458082
40
0.466619032624389
40
0.559967370456225
40
0.780004011877464
40
1
40
1
40
1
40
1
41
1
10
36.0000000000001
20
26.325
30
0
41
1
10
35.0394716295326
20
26.3251147407109
30
0
41
1
10
33.1245406038249
20
26.4021933819176
30
0
41
1
10
30.2619387619876
20
26.7297751118604
30
0
41
1
10
27.4462142104335
20
27.3253195870847
30
0
41
1
10
24.6363585450005
20
27.9364486686391
30
0
41
1
10
21.8168707436936
20
28.5083207869031
30
0
41
1
10
17.7147197465177
20
29.3028909696095
30
0
41
1
10
12.3174928220336
20
30.2540924220903
30
0
41
1
10
7.84875075607356
20
30.9353850152267
30
0
41
1
10
5.61020000000005
20
31.2500000000001
30
0
0
LINE
5
7F
100
AcDbEntity
8
SK1
62
256
6
ByLayer
370
13
48
1
60
0
100
AcDbLine
10
-79
20
-24.996
30
0
11
-79
21
-10.670483
31
0
39
0
210
0
220
0
230
1
0
LINE
5
81
100
AcDbEntity
8
SK1
62
256
6
ByLayer
370
13
48
1
60
0
100
AcDbLine
10
-79
20
10.670483
30
0
11
-79
21
24.996
31
0
39
0
210
0
220
0
230
1
0
LINE
5
82
100
AcDbEntity
8
SK1
62
256
6
ByLayer
370
13
48
1
60
0
100
AcDbLine
10
-6.5
20
-10.670483
30
0
11
-76.600002
21
-10.670483
31
0
39
0
210
0
220
0
230
1
0
LINE
5
83
100
AcDbEntity
8
SK1
62
256
6
ByLayer
370
13
48
1
60
0
100
AcDbLine
10
-76.600002
20
24.996
30
0
11
-76.600002
21
10.670483
31
0
39
0
210
0
220
0
230
1
0
LINE
5
84
100
AcDbEntity
8
SK1
62
256
6
ByLayer
370
13
48
1
60
0
100
AcDbLine
10
-76.600002
20
-10.670483
30
0
11
-76.600002
21
-24.996
31
0
39
0
210
0
220
0
230
1
0
LINE
5
85
100
AcDbEntity
8
SK1
62
256
6
ByLayer
370
13
48
1
60
0
100
AcDbLine
10
-79
20
10.670483
30
0
11
-78.599999
21
10.670483
31
0
39
0
210
0
220
0
230
1
0
LINE
5
86
100
AcDbEntity
8
SK1
62
256
6
ByLayer
370
13
48
1
60
0
100
AcDbLine
10
-78.599999
20
-10.670483
30
0
11
-79
21
-10.670483
31
0
39
0
210
0
220
0
230
1
0
LINE
5
87
100
AcDbEntity
8
SK1
62
256
6
ByLayer
370
13
48
1
60
0
100
AcDbLine
10
-80
20
-23.996
30
0
11
-80
21
-8.054018
31
0
39
0
210
0
220
0
230
1
0
LINE
5
88
100
AcDbEntity
8
SK1
62
256
6
ByLayer
370
13
48
1
60
0
100
AcDbLine
10
-80
20
8.054018
30
0
11
-80
21
23.996
31
0
39
0
210
0
220
0
230
1
0
LINE
5
89
100
AcDbEntity
8
SK1
62
256
6
ByLayer
370
13
48
1
60
0
100
AcDbLine
10
-78.516222
20
24.892544
30
0
11
-78.516222
21
10.425829
31
0
39
0
210
0
220
0
230
1
0
LINE
5
8A
100
AcDbEntity
8
SK1
62
256
6
ByLayer
370
13
48
1
60
0
100
AcDbLine
10
-78.516222
20
-10.425829
30
0
11
-78.516222
21
-24.892544
31
0
39
0
210
0
220
0
230
1
0
LINE
5
8B
100
AcDbEntity
8
SK1
62
256
6
ByLayer
370
13
48
1
60
0
100
AcDbLine
10
-2
20
-24.996
30
0
11
-2
21
24.996
31
0
39
0
210
0
220
0
230
1
0
LINE
5
8C
100
AcDbEntity
8
SK1
62
256
6
ByLayer
370
13
48
1
60
0
100
AcDbLine
10
-6.5
20
-10.670483
30
0
11
-6.5
21
10.670483
31
0
39
0
210
0
220
0
230
1
0
LINE
5
8D
100
AcDbEntity
8
SK1
62
256
6
ByLayer
370
13
48
1
60
0
100
AcDbLine
10
-1.544243
20
-24.783477
30
0
11
-1.544243
21
24.783477
31
0
39
0
210
0
220
0
230
1
0
LINE
5
8E
100
AcDbEntity
8
SK1
62
256
6
ByLayer
370
13
48
1
60
0
100
AcDbLine
10
-77.633813
20
24.639667
30
0
11
-77.633813
21
9.806751
31
0
39
0
210
0
220
0
230
1
0
LINE
5
8F
100
AcDbEntity
8
SK1
62
256
6
ByLayer
370
13
48
1
60
0
100
AcDbLine
10
-77.633813
20
-9.806751
30
0
11
-77.633813
21
-24.639667
31
0
39
0
210
0
220
0
230
1
0
LINE
5
90
100
AcDbEntity
8
SK1
62
256
6
ByLayer
370
13
48
1
60
0
100
AcDbLine
10
-1.375195
20
-24.746
30
0
11
-1.375195
21
24.746
31
0
39
0
210
0
220
0
230
1
0
LINE
5
91
100
AcDbEntity
8
SK1
62
256
6
ByLayer
370
13
48
1
60
0
100
AcDbLine
10
-0.15
20
-24.746
30
0
11
-0.15
21
24.746
31
0
39
0
210
0
220
0
230
1
0
LINE
5
92
100
AcDbEntity
8
SK1
62
256
6
ByLayer
370
13
48
1
60
0
100
AcDbLine
10
-78.599999
20
-24.996
30
0
11
-78.599999
21
-10.670483
31
0
39
0
210
0
220
0
230
1
0
LINE
5
93
100
AcDbEntity
8
SK1
62
256
6
ByLayer
370
13
48
1
60
0
100
AcDbLine
10
-78.599999
20
10.670483
30
0
11
-78.599999
21
24.996
31
0
39
0
210
0
220
0
230
1
0
LINE
5
94
100
AcDbEntity
8
SK1
62
256
6
ByLayer
370
13
48
1
60
0
100
AcDbLine
10
-80
20
8.054018
30
0
11
-80
21
-8.054018
31
0
39
0
210
0
220
0
230
1
0
LINE
5
95
100
AcDbEntity
8
SK1
62
256
6
ByLayer
370
13
48
1
60
0
100
AcDbLine
10
-76.600002
20
10.670483
30
0
11
-6.5
21
10.670483
31
0
39
0
210
0
220
0
230
1
0
LINE
5
96
100
AcDbEntity
8
1
62
256
6
ByLayer
370
18
48
1
60
0
100
AcDbLine
10
245.581998
20
15.087894
30
0
11
245.591423
21
15.105512
31
0
39
0
210
0
220
0
230
1
0
LINE
5
97
100
AcDbEntity
8
1
62
256
6
ByLayer
370
18
48
1
60
0
100
AcDbLine
10
247.12595
20
15.573466
30
0
11
246.988729
21
15.566274
31
0
39
0
210
0
220
0
230
1
0
LINE
5
98
100
AcDbEntity
8
1
62
256
6
ByLayer
370
18
48
1
60
0
100
AcDbLine
10
246.879733
20
17.646035
30
0
11
246.88838
21
17.664052
31
0
39
0
210
0
220
0
230
1
0
LINE
5
99
100
AcDbEntity
8
1
62
256
6
ByLayer
370
18
48
1
60
0
100
AcDbLine
10
244.613293
20
16.097426
30
0
11
244.545058
21
16.09385
31
0
39
0
210
0
220
0
230
1
0
LINE
5
9A
100
AcDbEntity
8
1
62
256
6
ByLayer
370
18
48
1
60
0
100
AcDbLine
10
247.016954
20
17.653226
30
0
11
246.879733
21
17.646035
31
0
39
0
210
0
220
0
230
1
0
LINE
5
9B
100
AcDbEntity
8
1
62
256
6
ByLayer
370
18
48
1
60
0
100
AcDbLine
10
247.026642
20
17.671298
30
0
11
246.88838
21
17.664052
31
0
39
0
210
0
220
0
230
1
0
LINE
5
9C
100
AcDbEntity
8
1
62
256
6
ByLayer
370
18
48
1
60
0
100
AcDbLine
10
244.57283
20
16.869492
30
0
11
244.505185
21
16.865946
31
0
39
0
210
0
220
0
230
1
0
LINE
5
9D
100
AcDbEntity
8
1
62
256
6
ByLayer
370
18
48
1
60
0
100
AcDbLine
10
247.309456
20
17.012912
30
0
11
247.289549
21
17.012308
31
0
39
0
210
0
220
0
230
1
0
LINE
5
9E
100
AcDbEntity
8
1
62
256
6
ByLayer
370
18
48
1
60
0
100
AcDbLine
10
245.568967
20
17.981997
30
0
11
245.430704
21
17.974751
31
0
39
0
210
0
220
0
230
1
0
LINE
5
9F
100
AcDbEntity
8
1
62
256
6
ByLayer
370
18
48
1
60
0
100
AcDbLine
10
247.42677
20
17.0195
30
0
11
247.289549
21
17.012308
31
0
39
0
210
0
220
0
230
1
0
LINE
5
A0
100
AcDbEntity
8
1
62
256
6
ByLayer
370
18
48
1
60
0
100
AcDbLine
10
245.57914
20
17.965406
30
0
11
245.441919
21
17.958215
31
0
39
0
210
0
220
0
230
1
0
LINE
5
A1
100
AcDbEntity
8
1
62
256
6
ByLayer
370
18
48
1
60
0
100
AcDbLine
10
245.441919
20
17.958215
30
0
11
245.430704
21
17.974751
31
0
39
0
210
0
220
0
230
1
0
LINE
5
A2
100
AcDbEntity
8
1
62
256
6
ByLayer
370
18
48
1
60
0
100
AcDbLine
10
247.330057
20
16.239367
30
0
11
247.349918
21
16.240847
31
0
39
0
210
0
220
0
230
1
0
LINE
5
A3
100
AcDbEntity
8
1
62
256
6
ByLayer
370
18
48
1
60
0
100
AcDbLine
10
246.999211
20
15.54926
30
0
11
246.988729
21
15.566274
31
0
39
0
210
0
220
0
230
1
0
LINE
5
A4
100
AcDbEntity
8
1
62
256
6
ByLayer
370
18
48
1
60
0
100
AcDbLine
10
245.720261
20
15.09514
30
0
11
245.581998
21
15.087894
31
0
39
0
210
0
220
0
230
1
0
LINE
5
A5
100
AcDbEntity
8
1
62
256
6
ByLayer
370
18
48
1
60
0
100
AcDbLine
10
247.137474
20
15.556506
30
0
11
246.999211
21
15.54926
31
0
39
0
210
0
220
0
230
1
0
LINE
5
A6
100
AcDbEntity
8
1
62
256
6
ByLayer
370
18
48
1
60
0
100
AcDbLine
10
247.467278
20
16.246558
30
0
11
247.330057
21
16.239367
31
0
39
0
210
0
220
0
230
1
0
LINE
5
A7
100
AcDbEntity
8
1
62
256
6
ByLayer
370
18
48
1
60
0
100
AcDbLine
10
245.728644
20
15.112704
30
0
11
245.591423
21
15.105512
31
0
39
0
210
0
220
0
230
1
0
LINE
5
A8
100
AcDbEntity
8
1
62
256
6
ByLayer
370
18
48
1
60
0
100
AcDbLine
10
255.200063
20
-18.750432
30
0
11
255.552045
21
-18.650206
31
0
39
0
210
0
220
0
230
1
0
LINE
5
A9
100
AcDbEntity
8
1
62
256
6
ByLayer
370
18
48
1
60
0
100
AcDbLine
10
255.061525
20
0.243803
30
0
11
255.065418
21
0.230321
31
0
39
0
210
0
220
0
230
1
0
LINE
5
AA
100
AcDbEntity
8
1
62
256
6
ByLayer
370
18
48
1
60
0
100
AcDbLine
10
256.496924
20
-8.916101
30
0
11
255.357672
21
-17.509243
31
0
39
0
210
0
220
0
230
1
0
LINE
5
AB
100
AcDbEntity
8
1
62
256
6
ByLayer
370
18
48
1
60
0
100
AcDbLine
10
255.545811
20
-0.135471
30
0
11
255.444881
21
0.214056
31
0
39
0
210
0
220
0
230
1
0
LINE
5
AC
100
AcDbEntity
8
1
62
256
6
ByLayer
370
18
48
1
60
0
100
AcDbLine
10
254.998201
20
-17.822832
30
0
11
254.923922
21
-17.834515
31
0
39
0
210
0
220
0
230
1
0
LINE
5
AD
100
AcDbEntity
8
1
62
256
6
ByLayer
370
18
48
1
60
0
100
AcDbLine
10
255.107139
20
-17.797973
30
0
11
255.093563
21
-17.801839
31
0
39
0
210
0
220
0
230
1
0
LINE
5
AE
100
AcDbEntity
8
1
62
256
6
ByLayer
370
18
48
1
60
0
100
AcDbLine
10
255.08656
20
0.135624
30
0
11
256.493919
21
-8.688133
31
0
39
0
210
0
220
0
230
1
0
LINE
5
AF
100
AcDbEntity
8
1
62
256
6
ByLayer
370
18
48
1
60
0
100
AcDbLine
10
254.688966
20
0.503283
30
0
11
254.770768
21
0.492588
31
0
39
0
210
0
220
0
230
1
0
LINE
5
B0
100
AcDbEntity
8
1
62
256
6
ByLayer
370
13
48
1
60
0
100
AcDbLine
10
255.166921
20
7.78761
30
0
11
255.214142
21
7.795536
31
0
39
0
210
0
220
0
230
1
0
LINE
5
B1
100
AcDbEntity
8
1
62
256
6
ByLayer
370
13
48
1
60
0
100
AcDbLine
10
256.844502
20
17.097927
30
0
11
255.813965
21
9.221822
31
0
39
0
210
0
220
0
230
1
0
LINE
5
B2
100
AcDbEntity
8
1
62
256
6
ByLayer
370
13
48
1
60
0
100
AcDbLine
10
255.258691
20
7.994624
30
0
11
255.701699
21
8.993961
31
0
39
0
210
0
220
0
230
1
0
LINE
5
B3
100
AcDbEntity
8
1
62
256
6
ByLayer
370
13
48
1
60
0
100
AcDbLine
10
238.103864
20
6.247922
30
0
11
237.905081
21
6.23925
31
0
39
0
210
0
220
0
230
1
0
LINE
5
B4
100
AcDbEntity
8
1
62
256
6
ByLayer
370
13
48
1
60
0
100
AcDbLine
10
238.882923
20
7.502535
30
0
11
238.878224
21
7.502289
31
0
39
0
210
0
220
0
230
1
0
LINE
5
B5
100
AcDbEntity
8
1
62
256
6
ByLayer
370
13
48
1
60
0
100
AcDbLine
10
256.94321
20
17.084852
30
0
11
255.914721
21
9.224394
31
0
39
0
210
0
220
0
230
1
0
LINE
5
B6
100
AcDbEntity
8
1
62
256
6
ByLayer
370
13
48
1
60
0
100
AcDbLine
10
254.230257
20
26.88223
30
0
11
254.225558
21
26.881983
31
0
39
0
210
0
220
0
230
1
0
LINE
5
B7
100
AcDbEntity
8
1
62
256
6
ByLayer
370
13
48
1
60
0
100
AcDbLine
10
237.604395
20
16.053434
30
0
11
238.671582
21
24.209647
31
0
39
0
210
0
220
0
230
1
0
LINE
5
B8
100
AcDbEntity
8
1
62
256
6
ByLayer
370
13
48
1
60
0
100
AcDbLine
10
253.223503
20
25.53161
30
0
11
253.269033
21
25.243286
31
0
39
0
210
0
220
0
230
1
0
LINE
5
B9
100
AcDbEntity
8
1
62
256
6
ByLayer
370
13
48
1
60
0
100
AcDbLine
10
252.762885
20
8.650299
30
0
11
240.235996
21
7.993793
31
0
39
0
210
0
220
0
230
1
0
LINE
5
BA
100
AcDbEntity
8
1
62
256
6
ByLayer
370
13
48
1
60
0
100
AcDbLine
10
255.421579
20
26.292809
30
0
11
255.41688
21
26.292562
31
0
39
0
210
0
220
0
230
1
0
LINE
5
BB
100
AcDbEntity
8
1
62
256
6
ByLayer
370
13
48
1
60
0
100
AcDbLine
10
235.431691
20
12.259124
30
0
11
236.068417
21
9.597646
31
0
39
0
210
0
220
0
230
1
0
LINE
5
BC
100
AcDbEntity
8
1
62
256
6
ByLayer
370
13
48
1
60
0
100
AcDbLine
10
255.690584
20
9.093488
30
0
11
253.570745
21
8.737656
31
0
39
0
210
0
220
0
230
1
0
LINE
5
BD
100
AcDbEntity
8
1
62
256
6
ByLayer
370
13
48
1
60
0
100
AcDbLine
10
255.473748
20
8.955697
30
0
11
255.701699
21
8.993961
31
0
39
0
210
0
220
0
230
1
0
LINE
5
BE
100
AcDbEntity
8
1
62
256
6
ByLayer
370
13
48
1
60
0
100
AcDbLine
10
255.690584
20
9.093488
30
0
11
255.685885
21
9.093242
31
0
39
0
210
0
220
0
230
1
0
LINE
5
BF
100
AcDbEntity
8
1
62
256
6
ByLayer
370
13
48
1
60
0
100
AcDbLine
10
256.839803
20
17.097681
30
0
11
255.809266
21
9.221575
31
0
39
0
210
0
220
0
230
1
0
LINE
5
C0
100
AcDbEntity
8
1
62
256
6
ByLayer
370
13
48
1
60
0
100
AcDbLine
10
253.572462
20
26.723437
30
0
11
253.74731
21
26.732601
31
0
39
0
210
0
220
0
230
1
0
LINE
5
C1
100
AcDbEntity
8
1
62
256
6
ByLayer
370
13
48
1
60
0
100
AcDbLine
10
236.444754
20
24.027992
30
0
11
238.564593
21
24.383824
31
0
39
0
210
0
220
0
230
1
0
LINE
5
C2
100
AcDbEntity
8
1
62
256
6
ByLayer
370
13
48
1
60
0
100
AcDbLine
10
255.41688
20
26.292562
30
0
11
256.837138
21
17.298551
31
0
39
0
210
0
220
0
230
1
0
LINE
5
C3
100
AcDbEntity
8
1
62
256
6
ByLayer
370
13
48
1
60
0
100
AcDbLine
10
254.21801
20
26.731388
30
0
11
254.019227
21
26.722716
31
0
39
0
210
0
220
0
230
1
0
LINE
5
C4
100
AcDbEntity
8
1
62
256
6
ByLayer
370
13
48
1
60
0
100
AcDbLine
10
256.844502
20
17.097927
30
0
11
256.839803
21
17.097681
31
0
39
0
210
0
220
0
230
1
0
LINE
5
C5
100
AcDbEntity
8
1
62
256
6
ByLayer
370
13
48
1
60
0
100
AcDbLine
10
256.841837
20
17.298798
30
0
11
256.837138
21
17.298551
31
0
39
0
210
0
220
0
230
1
0
LINE
5
C6
100
AcDbEntity
8
1
62
256
6
ByLayer
370
13
48
1
60
0
100
AcDbLine
10
254.031474
20
26.873558
30
0
11
254.026775
21
26.873312
31
0
39
0
210
0
220
0
230
1
0
LINE
5
C7
100
AcDbEntity
8
1
62
256
6
ByLayer
370
13
48
1
60
0
100
AcDbLine
10
253.570745
20
8.737656
30
0
11
253.566046
21
8.73741
31
0
39
0
210
0
220
0
230
1
0
LINE
5
C8
100
AcDbEntity
8
1
62
256
6
ByLayer
370
13
48
1
60
0
100
AcDbLine
10
234.944309
20
16.709958
30
0
11
234.915427
21
16.153938
31
0
39
0
210
0
220
0
230
1
0
LINE
5
C9
100
AcDbEntity
8
1
62
256
6
ByLayer
370
13
48
1
60
0
100
AcDbLine
10
254.350417
20
17.238661
30
0
11
253.094064
21
25.194719
31
0
39
0
210
0
220
0
230
1
0
LINE
5
CA
100
AcDbEntity
8
1
62
256
6
ByLayer
370
13
48
1
60
0
100
AcDbLine
10
255.813965
20
9.221822
30
0
11
255.809266
21
9.221575
31
0
39
0
210
0
220
0
230
1
0
LINE
5
CB
100
AcDbEntity
8
1
62
256
6
ByLayer
370
13
48
1
60
0
100
AcDbLine
10
238.671582
20
24.209647
30
0
11
238.679756
21
24.272117
31
0
39
0
210
0
220
0
230
1
0
LINE
5
CC
100
AcDbEntity
8
1
62
256
6
ByLayer
370
13
48
1
60
0
100
AcDbLine
10
238.504132
20
24.223755
30
0
11
236.45064
21
23.87906
31
0
39
0
210
0
220
0
230
1
0
LINE
5
CD
100
AcDbEntity
8
1
62
256
6
ByLayer
370
13
48
1
60
0
100
AcDbLine
10
254.005735
20
26.94269
30
0
11
253.892401
21
26.918988
31
0
39
0
210
0
220
0
230
1
0
LINE
5
CE
100
AcDbEntity
8
1
62
256
6
ByLayer
370
13
48
1
60
0
100
AcDbLine
10
256.675549
20
17.274382
30
0
11
255.255291
21
26.268393
31
0
39
0
210
0
220
0
230
1
0
LINE
5
CF
100
AcDbEntity
8
1
62
256
6
ByLayer
370
13
48
1
60
0
100
AcDbLine
10
255.737305
20
7.428708
30
0
11
255.695374
21
7.876315
31
0
39
0
210
0
220
0
230
1
0
LINE
5
D0
100
AcDbEntity
8
1
62
256
6
ByLayer
370
13
48
1
60
0
100
AcDbLine
10
236.44882
20
26.022571
30
0
11
236.56401
21
26.010845
31
0
39
0
210
0
220
0
230
1
0
LINE
5
D1
100
AcDbEntity
8
1
62
256
6
ByLayer
370
13
48
1
60
0
100
AcDbLine
10
253.557172
20
8.736329
30
0
11
253.566046
21
8.73741
31
0
39
0
210
0
220
0
230
1
0
LINE
5
D2
100
AcDbEntity
8
1
62
256
6
ByLayer
370
13
48
1
60
0
100
AcDbLine
10
253.33552
20
8.596778
30
0
11
255.473748
21
8.955697
31
0
39
0
210
0
220
0
230
1
0
LINE
5
D3
100
AcDbEntity
8
1
62
256
6
ByLayer
370
13
48
1
60
0
100
AcDbLine
10
238.799817
20
24.524702
30
0
11
236.433638
21
24.127519
31
0
39
0
210
0
220
0
230
1
0
LINE
5
D4
100
AcDbEntity
8
1
62
256
6
ByLayer
370
13
48
1
60
0
100
AcDbLine
10
238.911835
20
7.58987
30
0
11
238.863413
21
7.896506
31
0
39
0
210
0
220
0
230
1
0
LINE
5
D5
100
AcDbEntity
8
1
62
256
6
ByLayer
370
13
48
1
60
0
100
AcDbLine
10
235.290836
20
16.023553
30
0
11
236.321373
21
23.899658
31
0
39
0
210
0
220
0
230
1
0
LINE
5
D6
100
AcDbEntity
8
1
62
256
6
ByLayer
370
13
48
1
60
0
100
AcDbLine
10
234.944309
20
16.709958
30
0
11
234.954454
21
17.5
31
0
39
0
210
0
220
0
230
1
0
LINE
5
D7
100
AcDbEntity
8
1
62
256
6
ByLayer
370
13
48
1
60
0
100
AcDbLine
10
255.647106
20
9.24045
30
0
11
256.677643
21
17.116555
31
0
39
0
210
0
220
0
230
1
0
LINE
5
D8
100
AcDbEntity
8
1
62
256
6
ByLayer
370
13
48
1
60
0
100
AcDbLine
10
253.593614
20
8.895754
30
0
11
255.647106
21
9.24045
31
0
39
0
210
0
220
0
230
1
0
LINE
5
D9
100
AcDbEntity
8
1
62
256
6
ByLayer
370
13
48
1
60
0
100
AcDbLine
10
253.356214
20
25.528635
30
0
11
254.656974
21
17.291362
31
0
39
0
210
0
220
0
230
1
0
LINE
5
DA
100
AcDbEntity
8
1
62
256
6
ByLayer
370
13
48
1
60
0
100
AcDbLine
10
254.031474
20
26.873558
30
0
11
254.230257
21
26.88223
31
0
39
0
210
0
220
0
230
1
0
LINE
5
DB
100
AcDbEntity
8
1
62
256
6
ByLayer
370
13
48
1
60
0
100
AcDbLine
10
234.944309
20
16.709958
30
0
11
235.049055
21
17.749558
31
0
39
0
210
0
220
0
230
1
0
LINE
5
DC
100
AcDbEntity
8
1
62
256
6
ByLayer
370
13
48
1
60
0
100
AcDbLine
10
255.421579
20
26.292809
30
0
11
256.841837
21
17.298798
31
0
39
0
210
0
220
0
230
1
0
LINE
5
DD
100
AcDbEntity
8
1
62
256
6
ByLayer
370
13
48
1
60
0
100
AcDbLine
10
236.220617
20
23.897086
30
0
11
236.166768
21
24.502721
31
0
39
0
210
0
220
0
230
1
0
LINE
5
DE
100
AcDbEntity
8
1
62
256
6
ByLayer
370
13
48
1
60
0
100
AcDbLine
10
236.329357
20
25.300378
30
0
11
236.189845
21
25.27696
31
0
39
0
210
0
220
0
230
1
0
LINE
5
DF
100
AcDbEntity
8
1
62
256
6
ByLayer
370
13
48
1
60
0
100
AcDbLine
10
235.192127
20
16.036628
30
0
11
236.220617
21
23.897086
31
0
39
0
210
0
220
0
230
1
0
LINE
5
E0
100
AcDbEntity
8
1
62
256
6
ByLayer
370
13
48
1
60
0
100
AcDbLine
10
237.604395
20
16.053434
30
0
11
237.599696
21
16.053188
31
0
39
0
210
0
220
0
230
1
0
LINE
5
E1
100
AcDbEntity
8
1
62
256
6
ByLayer
370
13
48
1
60
0
100
AcDbLine
10
237.60706
20
15.852564
30
0
11
237.602361
21
15.852317
31
0
39
0
210
0
220
0
230
1
0
LINE
5
E2
100
AcDbEntity
8
1
62
256
6
ByLayer
370
13
48
1
60
0
100
AcDbLine
10
235.020842
20
15.249632
30
0
11
234.933998
21
15.799586
31
0
39
0
210
0
220
0
230
1
0
LINE
5
E3
100
AcDbEntity
8
1
62
256
6
ByLayer
370
13
48
1
60
0
100
AcDbLine
10
254.660209
20
17.047447
30
0
11
253.593614
21
8.895754
31
0
39
0
210
0
220
0
230
1
0
LINE
5
E4
100
AcDbEntity
8
1
62
256
6
ByLayer
370
13
48
1
60
0
100
AcDbLine
10
254.752479
20
26.883183
30
0
11
254.74778
21
26.882937
31
0
39
0
210
0
220
0
230
1
0
LINE
5
E5
100
AcDbEntity
8
1
62
256
6
ByLayer
370
13
48
1
60
0
100
AcDbLine
10
255.214142
20
7.795536
30
0
11
255.695374
21
7.876315
31
0
39
0
210
0
220
0
230
1
0
LINE
5
E6
100
AcDbEntity
8
1
62
256
6
ByLayer
370
13
48
1
60
0
100
AcDbLine
10
238.675057
20
24.271871
30
0
11
237.599696
21
16.053188
31
0
39
0
210
0
220
0
230
1
0
LINE
5
E7
100
AcDbEntity
8
1
62
256
6
ByLayer
370
13
48
1
60
0
100
AcDbLine
10
239.372452
20
24.47118
30
0
11
251.899342
21
25.127687
31
0
39
0
210
0
220
0
230
1
0
LINE
5
E8
100
AcDbEntity
8
1
62
256
6
ByLayer
370
13
48
1
60
0
100
AcDbLine
10
238.863413
20
7.896506
30
0
11
237.60706
21
15.852564
31
0
39
0
210
0
220
0
230
1
0
LINE
5
E9
100
AcDbEntity
8
1
62
256
6
ByLayer
370
13
48
1
60
0
100
AcDbLine
10
238.679756
20
24.272117
30
0
11
238.675057
21
24.271871
31
0
39
0
210
0
220
0
230
1
0
LINE
5
EA
100
AcDbEntity
8
1
62
256
6
ByLayer
370
13
48
1
60
0
100
AcDbLine
10
253.285134
20
8.938969
30
0
11
254.352321
21
17.095182
31
0
39
0
210
0
220
0
230
1
0
LINE
5
EB
100
AcDbEntity
8
1
62
256
6
ByLayer
370
13
48
1
60
0
100
AcDbLine
10
237.602361
20
15.852317
30
0
11
238.907136
21
7.589623
31
0
39
0
210
0
220
0
230
1
0
LINE
5
EC
100
AcDbEntity
8
1
62
256
6
ByLayer
370
13
48
1
60
0
100
AcDbLine
10
254.260223
20
26.883298
30
0
11
254.255524
21
26.883052
31
0
39
0
210
0
220
0
230
1
0
LINE
5
ED
100
AcDbEntity
8
1
62
256
6
ByLayer
370
13
48
1
60
0
100
AcDbLine
10
255.473748
20
8.955697
30
0
11
255.258691
21
7.994624
31
0
39
0
210
0
220
0
230
1
0
LINE
5
EE
100
AcDbEntity
8
1
62
256
6
ByLayer
370
13
48
1
60
0
100
AcDbLine
10
254.027436
20
26.873341
30
0
11
254.225558
21
26.881983
31
0
39
0
210
0
220
0
230
1
0
LINE
5
EF
100
AcDbEntity
8
1
62
256
6
ByLayer
370
13
48
1
60
0
100
AcDbLine
10
238.741532
20
7.590875
30
0
11
237.440772
21
15.828148
31
0
39
0
210
0
220
0
230
1
0
LINE
5
F0
100
AcDbEntity
8
1
62
256
6
ByLayer
370
13
48
1
60
0
100
AcDbLine
10
237.879736
20
6.388122
30
0
11
238.078519
21
6.396793
31
0
39
0
210
0
220
0
230
1
0
LINE
5
F1
100
AcDbEntity
8
1
62
256
6
ByLayer
370
13
48
1
60
0
100
AcDbLine
10
255.166921
20
7.78761
30
0
11
255.258691
21
7.994624
31
0
39
0
210
0
220
0
230
1
0
LINE
5
F2
100
AcDbEntity
8
1
62
256
6
ByLayer
370
13
48
1
60
0
100
AcDbLine
10
255.685885
20
9.093242
30
0
11
253.566046
21
8.73741
31
0
39
0
210
0
220
0
230
1
0
LINE
5
F3
100
AcDbEntity
8
1
62
256
6
ByLayer
370
13
48
1
60
0
100
AcDbLine
10
238.911835
20
7.58987
30
0
11
238.907136
21
7.589623
31
0
39
0
210
0
220
0
230
1
0
LINE
5
F4
100
AcDbEntity
8
1
62
256
6
ByLayer
370
13
48
1
60
0
100
AcDbLine
10
253.929315
20
26.920922
30
0
11
254.185987
21
26.980386
31
0
39
0
210
0
220
0
230
1
0
LINE
5
F5
100
AcDbEntity
8
1
62
256
6
ByLayer
370
13
48
1
60
0
100
AcDbLine
10
235.422197
20
15.845128
30
0
11
236.842455
21
6.851117
31
0
39
0
210
0
220
0
230
1
0
LINE
5
F6
100
AcDbEntity
8
1
62
256
6
ByLayer
370
13
48
1
60
0
100
AcDbLine
10
238.887796
20
24.184481
30
0
11
237.820609
21
16.028268
31
0
39
0
210
0
220
0
230
1
0
LINE
5
F7
100
AcDbEntity
8
1
62
256
6
ByLayer
370
13
48
1
60
0
100
AcDbLine
10
238.206022
20
6.200558
30
0
11
237.94935
21
6.141094
31
0
39
0
210
0
220
0
230
1
0
LINE
5
F8
100
AcDbEntity
8
1
62
256
6
ByLayer
370
13
48
1
60
0
100
AcDbLine
10
237.822512
20
15.884789
30
0
11
239.078865
21
7.928731
31
0
39
0
210
0
220
0
230
1
0
LINE
5
F9
100
AcDbEntity
8
1
62
256
6
ByLayer
370
13
48
1
60
0
100
AcDbLine
10
255.214142
20
7.795536
30
0
11
255.099152
21
7.281653
31
0
39
0
210
0
220
0
230
1
0
LINE
5
FA
100
AcDbEntity
8
1
62
256
6
ByLayer
370
13
48
1
60
0
100
AcDbLine
10
235.197857
20
18.050274
30
0
11
234.931178
21
16.012122
31
0
39
0
210
0
220
0
230
1
0
LINE
5
FB
100
AcDbEntity
8
1
62
256
6
ByLayer
370
13
48
1
60
0
100
AcDbLine
10
253.461395
20
8.893795
30
0
11
253.455581
21
8.849363
31
0
39
0
210
0
220
0
230
1
0
LINE
5
FC
100
AcDbEntity
8
1
62
256
6
ByLayer
370
13
48
1
60
0
100
AcDbLine
10
253.892401
20
26.918988
30
0
11
253.929315
21
26.920922
31
0
39
0
210
0
220
0
230
1
0
LINE
5
FD
100
AcDbEntity
8
1
62
256
6
ByLayer
370
13
48
1
60
0
100
AcDbLine
10
237.437536
20
16.072062
30
0
11
238.504132
21
24.223755
31
0
39
0
210
0
220
0
230
1
0
LINE
5
FE
100
AcDbEntity
8
1
62
256
6
ByLayer
370
13
48
1
60
0
100
AcDbLine
10
236.713758
20
6.828671
30
0
11
235.293501
21
15.822682
31
0
39
0
210
0
220
0
230
1
0
LINE
5
FF
100
AcDbEntity
8
1
62
256
6
ByLayer
370
13
48
1
60
0
100
AcDbLine
10
256.940165
20
17.314418
30
0
11
255.519907
21
26.308429
31
0
39
0
210
0
220
0
230
1
0
LINE
5
100
100
AcDbEntity
8
1
62
256
6
ByLayer
370
13
48
1
60
0
100
AcDbLine
10
235.020842
20
15.249632
30
0
11
236.584704
21
6.812171
31
0
39
0
210
0
220
0
230
1
0
LINE
5
101
100
AcDbEntity
8
1
62
256
6
ByLayer
370
13
48
1
60
0
100
AcDbLine
10
238.290396
20
6.408496
30
0
11
238.285697
21
6.40825
31
0
39
0
210
0
220
0
230
1
0
LINE
5
102
100
AcDbEntity
8
1
62
256
6
ByLayer
370
13
48
1
60
0
100
AcDbLine
10
256.100915
20
10.647446
30
0
11
255.878628
21
7.823323
31
0
39
0
210
0
220
0
230
1
0
LINE
5
103
100
AcDbEntity
8
1
62
256
6
ByLayer
370
13
48
1
60
0
100
AcDbLine
10
255.802917
20
8.943679
30
0
11
255.695374
21
7.876315
31
0
39
0
210
0
220
0
230
1
0
LINE
5
104
100
AcDbEntity
8
1
62
256
6
ByLayer
370
13
48
1
60
0
100
AcDbLine
10
235.195172
20
15.807062
30
0
11
236.61543
21
6.813051
31
0
39
0
210
0
220
0
230
1
0
LINE
5
105
100
AcDbEntity
8
1
62
256
6
ByLayer
370
13
48
1
60
0
100
AcDbLine
10
236.329357
20
25.300378
30
0
11
236.433638
21
24.127519
31
0
39
0
210
0
220
0
230
1
0
LINE
5
106
100
AcDbEntity
8
1
62
256
6
ByLayer
370
13
48
1
60
0
100
AcDbLine
10
236.45064
20
23.87906
30
0
11
235.420103
21
16.002955
31
0
39
0
210
0
220
0
230
1
0
LINE
5
107
100
AcDbEntity
8
1
62
256
6
ByLayer
370
13
48
1
60
0
100
AcDbLine
10
236.956484
20
25.803005
30
0
11
236.638995
21
25.802108
31
0
39
0
210
0
220
0
230
1
0
LINE
5
108
100
AcDbEntity
8
1
62
256
6
ByLayer
370
13
48
1
60
0
100
AcDbLine
10
253.857687
20
-5.523762
30
0
11
255.993144
21
-7.900532
31
0
39
0
210
0
220
0
230
1
0
LINE
5
109
100
AcDbEntity
8
1
62
256
6
ByLayer
370
13
48
1
60
0
100
AcDbLine
10
232.450364
20
8.569159
30
0
11
231.183588
21
8.428304
31
0
39
0
210
0
220
0
230
1
0
LINE
5
10A
100
AcDbEntity
8
1
62
256
6
ByLayer
370
13
48
1
60
0
100
AcDbLine
10
5.6102
20
31.25
30
0
11
5.6102
21
5.567764
31
0
39
0
210
0
220
0
230
1
0
LINE
5
10B
100
AcDbEntity
8
1
62
256
6
ByLayer
370
13
48
1
60
0
100
AcDbLine
10
240.714645
20
7.730983
30
0
11
240.400657
21
7.714528
31
0
39
0
210
0
220
0
230
1
0
LINE
5
10C
100
AcDbEntity
8
1
62
256
6
ByLayer
370
13
48
1
60
0
100
AcDbLine
10
36
20
26.325
30
0
11
36
21
-9.406535
31
0
39
0
210
0
220
0
230
1
0
LINE
5
10D
100
AcDbEntity
8
1
62
256
6
ByLayer
370
13
48
1
60
0
100
AcDbLine
10
256.015564
20
-9.601115
30
0
11
254.902411
21
-17.997395
31
0
39
0
210
0
220
0
230
1
0
LINE
5
10E
100
AcDbEntity
8
1
62
256
6
ByLayer
370
13
48
1
60
0
100
AcDbLine
10
255.180466
20
0.60538
30
0
11
255.155409
21
0.608656
31
0
39
0
210
0
220
0
230
1
0
LINE
5
10F
100
AcDbEntity
8
1
62
256
6
ByLayer
370
13
48
1
60
0
100
AcDbLine
10
255.338256
20
-18.985619
30
0
11
254.887952
21
-18.561315
31
0
39
0
210
0
220
0
230
1
0
LINE
5
110
100
AcDbEntity
8
1
62
256
6
ByLayer
370
13
48
1
60
0
100
AcDbLine
10
253.542526
20
6.988826
30
0
11
254.80226
21
7.054846
31
0
39
0
210
0
220
0
230
1
0
LINE
5
111
100
AcDbEntity
8
1
62
256
6
ByLayer
370
13
48
1
60
0
100
AcDbLine
10
246.995138
20
6.645692
30
0
11
253.542526
21
6.988826
31
0
39
0
210
0
220
0
230
1
0
LINE
5
112
100
AcDbEntity
8
1
62
256
6
ByLayer
370
13
48
1
60
0
100
AcDbLine
10
239.341632
20
7.716535
30
0
11
239.506227
21
7.725161
31
0
39
0
210
0
220
0
230
1
0
LINE
5
113
100
AcDbEntity
8
1
62
256
6
ByLayer
370
13
48
1
60
0
100
AcDbLine
10
255.390559
20
7.028668
30
0
11
255.59643
21
6.635755
31
0
39
0
210
0
220
0
230
1
0
LINE
5
114
100
AcDbEntity
8
1
62
256
6
ByLayer
370
13
48
1
60
0
100
AcDbLine
10
254.755733
20
-0.142305
30
0
11
252.883581
21
1.941406
31
0
39
0
210
0
220
0
230
1
0
LINE
5
115
100
AcDbEntity
8
1
62
256
6
ByLayer
370
13
48
1
60
0
100
AcDbLine
10
232.995489
20
12.687553
30
0
11
231.544878
21
14.921709
31
0
39
0
210
0
220
0
230
1
0
LINE
5
116
100
AcDbEntity
8
1
62
256
6
ByLayer
370
13
48
1
60
0
100
AcDbLine
10
231.544878
20
12.122511
30
0
11
231.544878
21
14.921709
31
0
39
0
210
0
220
0
230
1
0
LINE
5
117
100
AcDbEntity
8
1
62
256
6
ByLayer
370
13
48
1
60
0
100
AcDbLine
10
236.212221
20
24.850113
30
0
11
236.142477
21
26.180915
31
0
39
0
210
0
220
0
230
1
0
LINE
5
118
100
AcDbEntity
8
1
62
256
6
ByLayer
370
13
48
1
60
0
100
AcDbLine
10
124.4
20
-10.432767
30
0
11
124.4
21
26.054516
31
0
39
0
210
0
220
0
230
1
0
LINE
5
119
100
AcDbEntity
8
1
62
256
6
ByLayer
370
13
48
1
60
0
100
AcDbLine
10
239.33997
20
7.726056
30
0
11
239.341632
21
7.716535
31
0
39
0
210
0
220
0
230
1
0
LINE
5
11A
100
AcDbEntity
8
1
62
256
6
ByLayer
370
13
48
1
60
0
100
AcDbLine
10
36
20
-26.227376
30
0
11
36
21
-26.325
31
0
39
0
210
0
220
0
230
1
0
LINE
5
11B
100
AcDbEntity
8
1
62
256
6
ByLayer
370
13
48
1
60
0
100
AcDbLine
10
240.394886
20
7.701301
30
0
11
239.86302
21
7.673427
31
0
39
0
210
0
220
0
230
1
0
LINE
5
11C
100
AcDbEntity
8
1
62
256
6
ByLayer
370
13
48
1
60
0
100
AcDbLine
10
41
20
26.325
30
0
11
41
21
-9.409187
31
0
39
0
210
0
220
0
230
1
0
LINE
5
11D
100
AcDbEntity
8
1
62
256
6
ByLayer
370
13
48
1
60
0
100
AcDbLine
10
244.058454
20
7.493159
30
0
11
253.407741
21
7.983134
31
0
39
0
210
0
220
0
230
1
0
LINE
5
11E
100
AcDbEntity
8
1
62
256
6
ByLayer
370
13
48
1
60
0
100
AcDbLine
10
241.123176
20
5.83613
30
0
11
241.748738
21
5.868914
31
0
39
0
210
0
220
0
230
1
0
LINE
5
11F
100
AcDbEntity
8
1
62
256
6
ByLayer
370
13
48
1
60
0
100
AcDbLine
10
255.272406
20
1.10719
30
0
11
255.248211
21
1.110353
31
0
39
0
210
0
220
0
230
1
0
LINE
5
120
100
AcDbEntity
8
1
62
256
6
ByLayer
370
13
48
1
60
0
100
AcDbLine
10
254.755733
20
-0.142305
30
0
11
255.993144
21
-7.900532
31
0
39
0
210
0
220
0
230
1
0
LINE
5
121
100
AcDbEntity
8
1
62
256
6
ByLayer
370
13
48
1
60
0
100
AcDbLine
10
255.356833
20
6.298679
30
0
11
255.307728
21
7.131419
31
0
39
0
210
0
220
0
230
1
0
LINE
5
122
100
AcDbEntity
8
1
62
256
6
ByLayer
370
13
48
1
60
0
100
AcDbLine
10
252.883581
20
1.941406
30
0
11
252.966659
21
-0.566141
31
0
39
0
210
0
220
0
230
1
0
LINE
5
123
100
AcDbEntity
8
1
62
256
6
ByLayer
370
13
48
1
60
0
100
AcDbLine
10
252.990988
20
8.461979
30
0
11
240.762358
21
7.821104
31
0
39
0
210
0
220
0
230
1
0
LINE
5
124
100
AcDbEntity
8
1
62
256
6
ByLayer
370
13
48
1
60
0
100
AcDbLine
10
235.586961
20
11.275793
30
0
11
234.835123
21
16.036927
31
0
39
0
210
0
220
0
230
1
0
LINE
5
125
100
AcDbEntity
8
1
62
256
6
ByLayer
370
13
48
1
60
0
100
AcDbLine
10
0
20
31.15
30
0
11
0
21
4.975942
31
0
39
0
210
0
220
0
230
1
0
LINE
5
126
100
AcDbEntity
8
1
62
256
6
ByLayer
370
13
48
1
60
0
100
AcDbLine
10
255.59643
20
6.635755
30
0
11
255.606051
21
0.68979
31
0
39
0
210
0
220
0
230
1
0
LINE
5
127
100
AcDbEntity
8
1
62
256
6
ByLayer
370
13
48
1
60
0
100
AcDbLine
10
241.102307
20
8.039194
30
0
11
244.085172
21
8.19552
31
0
39
0
210
0
220
0
230
1
0
LINE
5
128
100
AcDbEntity
8
1
62
256
6
ByLayer
370
13
48
1
60
0
100
AcDbLine
10
230.870953
20
7.757542
30
0
11
234.806542
21
6.548147
31
0
39
0
210
0
220
0
230
1
0
LINE
5
129
100
AcDbEntity
8
1
62
256
6
ByLayer
370
13
48
1
60
0
100
AcDbLine
10
255.390559
20
7.028668
30
0
11
255.314016
21
7.024657
31
0
39
0
210
0
220
0
230
1
0
LINE
5
12A
100
AcDbEntity
8
1
62
256
6
ByLayer
370
13
48
1
60
0
100
AcDbLine
10
0.1
20
31.25
30
0
11
0.1
21
5.567764
31
0
39
0
210
0
220
0
230
1
0
LINE
5
12B
100
AcDbEntity
8
1
62
256
6
ByLayer
370
13
48
1
60
0
100
AcDbLine
10
230.539169
20
-25.886054
30
0
11
215.57114
21
-25.886054
31
0
39
0
210
0
220
0
230
1
0
LINE
5
12C
100
AcDbEntity
8
1
62
256
6
ByLayer
370
13
48
1
60
0
100
AcDbLine
10
254.38787
20
-26.154174
30
0
11
255.338256
21
-18.985619
31
0
39
0
210
0
220
0
230
1
0
LINE
5
12D
100
AcDbEntity
8
1
62
256
6
ByLayer
370
13
48
1
60
0
100
AcDbLine
10
253.542526
20
6.988826
30
0
11
252.925246
21
2.688855
31
0
39
0
210
0
220
0
230
1
0
LINE
5
12E
100
AcDbEntity
8
1
62
256
6
ByLayer
370
13
48
1
60
0
100
AcDbLine
10
244.204769
20
6.499455
30
0
11
245.116551
21
6.547239
31
0
39
0
210
0
220
0
230
1
0
LINE
5
12F
100
AcDbEntity
8
1
62
256
6
ByLayer
370
13
48
1
60
0
100
AcDbLine
10
232.012296
20
1.643863
30
0
11
232.418607
21
-0.359544
31
0
39
0
210
0
220
0
230
1
0
LINE
5
130
100
AcDbEntity
8
1
62
256
6
ByLayer
370
13
48
1
60
0
100
AcDbLine
10
233.539169
20
-26.154174
30
0
11
233.539169
21
-0.430199
31
0
39
0
210
0
220
0
230
1
0
LINE
5
131
100
AcDbEntity
8
1
62
256
6
ByLayer
370
13
48
1
60
0
100
AcDbLine
10
240.75296
20
7.820611
30
0
11
240.762358
21
7.821104
31
0
39
0
210
0
220
0
230
1
0
LINE
5
132
100
AcDbEntity
8
1
62
256
6
ByLayer
370
13
48
1
60
0
100
AcDbLine
10
5.6102
20
-5.567764
30
0
11
5.6102
21
-31.25
31
0
39
0
210
0
220
0
230
1
0
LINE
5
133
100
AcDbEntity
8
1
62
256
6
ByLayer
370
13
48
1
60
0
100
AcDbLine
10
252.925246
20
2.688855
30
0
11
254.685107
21
0.730125
31
0
39
0
210
0
220
0
230
1
0
LINE
5
134
100
AcDbEntity
8
1
62
256
6
ByLayer
370
13
48
1
60
0
100
AcDbLine
10
0.1
20
5.567764
30
0
11
5.6102
21
5.567764
31
0
39
0
210
0
220
0
230
1
0
LINE
5
135
100
AcDbEntity
8
1
62
256
6
ByLayer
370
13
48
1
60
0
100
AcDbLine
10
230.539169
20
26.055
30
0
11
230.539169
21
25.84758
31
0
39
0
210
0
220
0
230
1
0
LINE
5
136
100
AcDbEntity
8
1
62
256
6
ByLayer
370
13
48
1
60
0
100
AcDbLine
10
255.59643
20
6.635755
30
0
11
255.430143
21
6.003274
31
0
39
0
210
0
220
0
230
1
0
LINE
5
137
100
AcDbEntity
8
1
62
256
6
ByLayer
370
13
48
1
60
0
100
AcDbLine
10
255.172658
20
0.615149
30
0
11
255.180466
21
0.60538
31
0
39
0
210
0
220
0
230
1
0
LINE
5
138
100
AcDbEntity
8
1
62
256
6
ByLayer
370
13
48
1
60
0
100
AcDbLine
10
249.552986
20
8.482076
30
0
11
252.535852
21
8.638401
31
0
39
0
210
0
220
0
230
1
0
LINE
5
139
100
AcDbEntity
8
1
62
256
6
ByLayer
370
13
48
1
60
0
100
AcDbLine
10
231.997506
20
12.132272
30
0
11
232.995489
21
12.687553
31
0
39
0
210
0
220
0
230
1
0
LINE
5
13A
100
AcDbEntity
8
1
62
256
6
ByLayer
370
13
48
1
60
0
100
AcDbLine
10
233.539169
20
26.325
30
0
11
233.539169
21
26.153914
31
0
39
0
210
0
220
0
230
1
0
LINE
5
13B
100
AcDbEntity
8
1
62
256
6
ByLayer
370
13
48
1
60
0
100
AcDbLine
10
255.606051
20
0.68979
30
0
11
255.112247
21
0.468305
31
0
39
0
210
0
220
0
230
1
0
LINE
5
13C
100
AcDbEntity
8
1
62
256
6
ByLayer
370
13
48
1
60
0
100
AcDbLine
10
0
20
-4.975942
30
0
11
0
21
4.975942
31
0
39
0
210
0
220
0
230
1
0
LINE
5
13D
100
AcDbEntity
8
1
62
256
6
ByLayer
370
13
48
1
60
0
100
AcDbLine
10
255.430143
20
6.003274
30
0
11
255.394325
21
6.001397
31
0
39
0
210
0
220
0
230
1
0
LINE
5
13E
100
AcDbEntity
8
1
62
256
6
ByLayer
370
13
48
1
60
0
100
AcDbLine
10
255.272406
20
1.10719
30
0
11
255.606051
21
0.68979
31
0
39
0
210
0
220
0
230
1
0
LINE
5
13F
100
AcDbEntity
8
1
62
256
6
ByLayer
370
13
48
1
60
0
100
AcDbLine
10
235.355252
20
18.300534
30
0
11
236.212221
21
24.850113
31
0
39
0
210
0
220
0
230
1
0
LINE
5
140
100
AcDbEntity
8
1
62
256
6
ByLayer
370
13
48
1
60
0
100
AcDbLine
10
254.38787
20
-26.154174
30
0
11
233.539169
21
-26.154174
31
0
39
0
210
0
220
0
230
1
0
LINE
5
141
100
AcDbEntity
8
1
62
256
6
ByLayer
370
13
48
1
60
0
100
AcDbLine
10
0.1
20
-31.25
30
0
11
0.1
21
-5.567764
31
0
39
0
210
0
220
0
230
1
0
LINE
5
142
100
AcDbEntity
8
1
62
256
6
ByLayer
370
13
48
1
60
0
100
AcDbLine
10
255.172658
20
0.615149
30
0
11
255.16055
21
0.616732
31
0
39
0
210
0
220
0
230
1
0
LINE
5
143
100
AcDbEntity
8
1
62
256
6
ByLayer
370
13
48
1
60
0
100
AcDbLine
10
41
20
-26.227582
30
0
11
41
21
-26.325
31
0
39
0
210
0
220
0
230
1
0
LINE
5
144
100
AcDbEntity
8
1
62
256
6
ByLayer
370
13
48
1
60
0
100
AcDbLine
10
227.815487
20
2.220695
30
0
11
228.08494
21
0.8921
31
0
39
0
210
0
220
0
230
1
0
LINE
5
145
100
AcDbEntity
8
1
62
256
6
ByLayer
370
13
48
1
60
0
100
AcDbLine
10
256.015564
20
-9.601115
30
0
11
253.94873
21
-7.300724
31
0
39
0
210
0
220
0
230
1
0
LINE
5
146
100
AcDbEntity
8
1
62
256
6
ByLayer
370
13
48
1
60
0
100
AcDbLine
10
124.4
20
-26.028597
30
0
11
124.4
21
-26.055
31
0
39
0
210
0
220
0
230
1
0
LINE
5
147
100
AcDbEntity
8
1
62
256
6
ByLayer
370
13
48
1
60
0
100
AcDbLine
10
5.6102
20
-5.567764
30
0
11
0.1
21
-5.567764
31
0
39
0
210
0
220
0
230
1
0
LINE
5
148
100
AcDbEntity
8
1
62
256
6
ByLayer
370
13
48
1
60
0
100
AcDbLine
10
0
20
-31.15
30
0
11
0
21
-4.975942
31
0
39
0
210
0
220
0
230
1
0
LINE
5
149
100
AcDbEntity
8
1
62
256
6
ByLayer
370
13
48
1
60
0
100
AcDbLine
10
230.539169
20
-25.886054
30
0
11
230.539169
21
-0.040637
31
0
39
0
210
0
220
0
230
1
0
LINE
5
14A
100
AcDbEntity
8
1
62
256
6
ByLayer
370
13
48
1
60
0
100
AcDbLine
10
236.210137
20
23.990803
30
0
11
235.498543
21
18.552287
31
0
39
0
210
0
220
0
230
1
0
LINE
5
14B
100
AcDbEntity
8
1
62
256
6
ByLayer
370
13
48
1
60
0
100
AcDbLine
10
249.393439
20
8.445898
30
0
11
249.166982
21
8.43403
31
0
39
0
210
0
220
0
230
1
0
LINE
5
14C
100
AcDbEntity
8
4
62
256
6
ByLayer
370
18
48
0.05
60
0
100
AcDbLine
10
257
20
0
30
0
11
0
21
0
31
0
39
0
210
0
220
0
230
1
0
LINE
5
14E
100
AcDbEntity
8
SK4
62
256
6
ByLayer
370
13
48
0.05
60
0
100
AcDbLine
10
257
20
0
30
0
11
-80
21
0
31
0
39
0
210
0
220
0
230
1
0
LINE
5
150
100
AcDbEntity
8
SK1
62
256
6
ByLayer
370
13
48
1
60
0
100
AcDbLine
10
-77.633813
20
-24.639667
30
0
11
-76.600002
21
-24.996
31
0
39
0
210
0
220
0
230
1
0
LINE
5
151
100
AcDbEntity
8
SK1
62
256
6
ByLayer
370
13
48
1
60
0
100
AcDbLine
10
-76.600002
20
24.996
30
0
11
-77.633813
21
24.639667
31
0
39
0
210
0
220
0
230
1
0
LINE
5
152
100
AcDbEntity
8
SK1
62
256
6
ByLayer
370
13
48
1
60
0
100
AcDbLine
10
-78.516222
20
24.892544
30
0
11
-78.599999
21
24.996
31
0
39
0
210
0
220
0
230
1
0
LINE
5
153
100
AcDbEntity
8
SK1
62
256
6
ByLayer
370
13
48
1
60
0
100
AcDbLine
10
-78.599999
20
-24.996
30
0
11
-78.516222
21
-24.892544
31
0
39
0
210
0
220
0
230
1
0
LINE
5
154
100
AcDbEntity
8
SK1
62
256
6
ByLayer
370
13
48
1
60
0
100
AcDbLine
10
-78.599999
20
24.996
30
0
11
-79
21
24.996
31
0
39
0
210
0
220
0
230
1
0
LINE
5
155
100
AcDbEntity
8
SK1
62
256
6
ByLayer
370
13
48
1
60
0
100
AcDbLine
10
-79
20
-24.996
30
0
11
-78.599999
21
-24.996
31
0
39
0
210
0
220
0
230
1
0
LINE
5
156
100
AcDbEntity
8
SK1
62
256
6
ByLayer
370
13
48
1
60
0
100
AcDbLine
10
-80
20
-23.996
30
0
11
-79
21
-24.996
31
0
39
0
210
0
220
0
230
1
0
LINE
5
157
100
AcDbEntity
8
SK1
62
256
6
ByLayer
370
13
48
1
60
0
100
AcDbLine
10
-79
20
24.996
30
0
11
-80
21
23.996
31
0
39
0
210
0
220
0
230
1
0
LINE
5
158
100
AcDbEntity
8
SK1
62
256
6
ByLayer
370
13
48
1
60
0
100
AcDbLine
10
-0.15
20
24.746
30
0
11
-1.375195
21
24.746
31
0
39
0
210
0
220
0
230
1
0
LINE
5
159
100
AcDbEntity
8
SK1
62
256
6
ByLayer
370
13
48
1
60
0
100
AcDbLine
10
-1.375195
20
-24.746
30
0
11
-0.15
21
-24.746
31
0
39
0
210
0
220
0
230
1
0
LINE
5
15A
100
AcDbEntity
8
SK1
62
256
6
ByLayer
370
13
48
1
60
0
100
AcDbLine
10
-2
20
24.996
30
0
11
-76.600002
21
24.996
31
0
39
0
210
0
220
0
230
1
0
LINE
5
15B
100
AcDbEntity
8
SK1
62
256
6
ByLayer
370
13
48
1
60
0
100
AcDbLine
10
-76.600002
20
-24.996
30
0
11
-2
21
-24.996
31
0
39
0
210
0
220
0
230
1
0
LINE
5
15C
100
AcDbEntity
8
SK1
62
256
6
ByLayer
370
13
48
1
60
0
100
AcDbLine
10
-1.544243
20
24.783477
30
0
11
-2
21
24.996
31
0
39
0
210
0
220
0
230
1
0
LINE
5
15D
100
AcDbEntity
8
SK1
62
256
6
ByLayer
370
13
48
1
60
0
100
AcDbLine
10
-2
20
-24.996
30
0
11
-1.544243
21
-24.783477
31
0
39
0
210
0
220
0
230
1
0
LINE
5
15E
100
AcDbEntity
8
1
62
256
6
ByLayer
370
13
48
1
60
0
100
AcDbLine
10
255.358182
20
7.94044
30
0
11
255.89296
21
9.146791
31
0
39
0
210
0
220
0
230
1
0
LINE
5
15F
100
AcDbEntity
8
1
62
256
6
ByLayer
370
13
48
1
60
0
100
AcDbLine
10
254.529174
20
17.268871
30
0
11
253.27282
21
25.224929
31
0
39
0
210
0
220
0
230
1
0
LINE
5
160
100
AcDbEntity
8
1
62
256
6
ByLayer
370
13
48
1
60
0
100
AcDbLine
10
253.464647
20
8.912036
30
0
11
254.531834
21
17.068249
31
0
39
0
210
0
220
0
230
1
0
LINE
5
161
100
AcDbEntity
8
1
62
256
6
ByLayer
370
18
48
1
60
0
100
AcDbLine
10
246.08684
20
15.269674
30
0
11
245.959772
21
15.263015
31
0
39
0
210
0
220
0
230
1
0
LINE
5
162
100
AcDbEntity
8
1
62
256
6
ByLayer
370
18
48
1
60
0
100
AcDbLine
10
245.824714
20
17.840078
30
0
11
245.951782
21
17.846737
31
0
39
0
210
0
220
0
230
1
0
LINE
5
163
100
AcDbEntity
8
1
62
256
6
ByLayer
370
18
48
1
60
0
100
AcDbLine
10
246.114234
20
13.709269
30
0
11
246.181975
21
13.712819
31
0
39
0
210
0
220
0
230
1
0
LINE
5
164
100
AcDbEntity
8
1
62
256
6
ByLayer
370
18
48
1
60
0
100
AcDbLine
10
245.88366
20
19.405008
30
0
11
245.815919
21
19.401457
31
0
39
0
210
0
220
0
230
1
0
LINE
5
165
100
AcDbEntity
8
1
62
256
6
ByLayer
370
13
48
1
60
0
100
AcDbLine
10
36
20
-26.325
30
0
11
41
21
-26.325
31
0
39
0
210
0
220
0
230
1
0
LINE
5
166
100
AcDbEntity
8
1
62
256
6
ByLayer
370
13
48
1
60
0
100
AcDbLine
10
41
20
-26.325
30
0
11
124.4
21
-26.055
31
0
39
0
210
0
220
0
230
1
0
LINE
5
167
100
AcDbEntity
8
1
62
256
6
ByLayer
370
13
48
1
60
0
100
AcDbLine
10
235.874569
20
26.325
30
0
11
233.539169
21
26.325
31
0
39
0
210
0
220
0
230
1
0
LINE
5
168
100
AcDbEntity
8
1
62
256
6
ByLayer
370
13
48
1
60
0
100
AcDbLine
10
233.539169
20
26.325
30
0
11
230.539169
21
26.055
31
0
39
0
210
0
220
0
230
1
0
LINE
5
169
100
AcDbEntity
8
1
62
256
6
ByLayer
370
13
48
1
60
0
100
AcDbLine
10
124.4
20
-26.055
30
0
11
132.044377
21
-26.055
31
0
39
0
210
0
220
0
230
1
0
LINE
5
16A
100
AcDbEntity
8
1
62
256
6
ByLayer
370
13
48
1
60
0
100
AcDbLine
10
230.539169
20
26.055
30
0
11
215.766131
21
26.055
31
0
39
0
210
0
220
0
230
1
0
LINE
5
16B
100
AcDbEntity
8
1
62
256
6
ByLayer
370
13
48
1
60
0
100
AcDbLine
10
122.844541
20
26.060036
30
0
11
41
21
26.325
31
0
39
0
210
0
220
0
230
1
0
LINE
5
16C
100
AcDbEntity
8
1
62
256
6
ByLayer
370
13
48
1
60
0
100
AcDbLine
10
41
20
26.325
30
0
11
36
21
26.325
31
0
39
0
210
0
220
0
230
1
0
LINE
5
16D
100
AcDbEntity
8
1
62
256
6
ByLayer
370
13
48
1
60
0
100
AcDbLine
10
0.1
20
31.25
30
0
11
0
21
31.15
31
0
39
0
210
0
220
0
230
1
0
LINE
5
16E
100
AcDbEntity
8
1
62
256
6
ByLayer
370
13
48
1
60
0
100
AcDbLine
10
0.1
20
-31.25
30
0
11
5.6102
21
-31.25
31
0
39
0
210
0
220
0
230
1
0
LINE
5
16F
100
AcDbEntity
8
1
62
256
6
ByLayer
370
13
48
1
60
0
100
AcDbLine
10
0
20
-31.15
30
0
11
0.1
21
-31.25
31
0
39
0
210
0
220
0
230
1
0
LINE
5
170
100
AcDbEntity
8
1
62
256
6
ByLayer
370
13
48
1
60
0
100
AcDbLine
10
5.6102
20
31.25
30
0
11
0.1
21
31.25
31
0
39
0
210
0
220
0
230
1
0
LINE
5
171
100
AcDbEntity
8
81
62
256
6
ByLayer
370
18
48
1
60
0
100
AcDbLine
10
257
20
0
30
0
11
264
21
0
31
0
39
0
210
0
220
0
230
1
0
LINE
5
172
100
AcDbEntity
8
80
62
256
6
ByLayer
370
18
48
1
60
0
100
AcDbLine
10
0
20
0
30
0
11
-7
21
0
31
0
39
0
210
0
220
0
230
1
0
LINE
5
173
100
AcDbEntity
8
SK2
62
256
6
ByLayer
370
13
48
1
60
0
100
AcDbLine
10
-100.725
20
25
30
0
11
-100.725
21
-25
31
0
39
0
210
0
220
0
230
1
0
LINE
5
175
100
AcDbEntity
8
SK2
62
256
6
ByLayer
370
13
48
1
60
0
100
AcDbLine
10
-81.5875
20
-25
30
0
11
-103.9
21
-25
31
0
39
0
210
0
220
0
230
1
0
LINE
5
176
100
AcDbEntity
8
SK2
62
256
6
ByLayer
370
13
48
1
60
0
100
AcDbLine
10
-81.5875
20
25
30
0
11
-103.9
21
25
31
0
39
0
210
0
220
0
230
1
0
LINE
5
177
100
AcDbEntity
8
1
62
256
6
ByLayer
370
18
48
1
60
1
100
AcDbLine
10
-100.725
20
-25
30
0
11
-101.650575
21
-20.825003
31
0
39
0
210
0
220
0
230
1
0
LINE
5
178
100
AcDbEntity
8
1
62
256
6
ByLayer
370
18
48
1
60
1
100
AcDbLine
10
-101.650575
20
-20.825003
30
0
11
-99.799425
21
-20.824997
31
0
39
0
210
0
220
0
230
1
0
LINE
5
179
100
AcDbEntity
8
1
62
256
6
ByLayer
370
18
48
1
60
1
100
AcDbLine
10
-99.799425
20
-20.824997
30
0
11
-100.725
21
-25
31
0
39
0
210
0
220
0
230
1
0
LINE
5
17A
100
AcDbEntity
8
1
62
256
6
ByLayer
370
18
48
1
60
1
100
AcDbLine
10
-100.725
20
25
30
0
11
-99.799425
21
20.825003
31
0
39
0
210
0
220
0
230
1
0
LINE
5
17B
100
AcDbEntity
8
1
62
256
6
ByLayer
370
18
48
1
60
1
100
AcDbLine
10
-99.799425
20
20.825003
30
0
11
-101.650575
21
20.824997
31
0
39
0
210
0
220
0
230
1
0
LINE
5
17C
100
AcDbEntity
8
1
62
256
6
ByLayer
370
18
48
1
60
1
100
AcDbLine
10
-101.650575
20
20.824997
30
0
11
-100.725
21
25
31
0
39
0
210
0
220
0
230
1
0
LINE
5
17D
100
AcDbEntity
8
SK2
62
256
6
ByLayer
370
13
48
1
60
0
100
AcDbLine
10
-110.725
20
-31.25
30
0
11
-110.725
21
31.25
31
0
39
0
210
0
220
0
230
1
0
LINE
5
17E
100
AcDbEntity
8
SK2
62
256
6
ByLayer
370
13
48
1
60
0
100
AcDbLine
10
-1.5875
20
31.25
30
0
11
-113.9
21
31.25
31
0
39
0
210
0
220
0
230
1
0
LINE
5
17F
100
AcDbEntity
8
SK2
62
256
6
ByLayer
370
13
48
1
60
0
100
AcDbLine
10
-1.5875
20
-31.25
30
0
11
-113.9
21
-31.25
31
0
39
0
210
0
220
0
230
1
0
LINE
5
180
100
AcDbEntity
8
1
62
256
6
ByLayer
370
18
48
1
60
1
100
AcDbLine
10
-110.725
20
31.25
30
0
11
-109.799425
21
27.075003
31
0
39
0
210
0
220
0
230
1
0
LINE
5
181
100
AcDbEntity
8
1
62
256
6
ByLayer
370
18
48
1
60
1
100
AcDbLine
10
-109.799425
20
27.075003
30
0
11
-111.650575
21
27.074997
31
0
39
0
210
0
220
0
230
1
0
LINE
5
182
100
AcDbEntity
8
1
62
256
6
ByLayer
370
18
48
1
60
1
100
AcDbLine
10
-111.650575
20
27.074997
30
0
11
-110.725
21
31.25
31
0
39
0
210
0
220
0
230
1
0
LINE
5
183
100
AcDbEntity
8
1
62
256
6
ByLayer
370
18
48
1
60
1
100
AcDbLine
10
-110.725
20
-31.25
30
0
11
-111.650575
21
-27.075003
31
0
39
0
210
0
220
0
230
1
0
LINE
5
184
100
AcDbEntity
8
1
62
256
6
ByLayer
370
18
48
1
60
1
100
AcDbLine
10
-111.650575
20
-27.075003
30
0
11
-109.799425
21
-27.074997
31
0
39
0
210
0
220
0
230
1
0
LINE
5
185
100
AcDbEntity
8
1
62
256
6
ByLayer
370
18
48
1
60
1
100
AcDbLine
10
-109.799425
20
-27.074997
30
0
11
-110.725
21
-31.25
31
0
39
0
210
0
220
0
230
1
0
LINE
5
186
100
AcDbEntity
8
2
62
256
6
ByLayer
370
13
48
1
60
0
100
AcDbLine
10
283.975
20
27
30
0
11
283.975
21
-27
31
0
39
0
210
0
220
0
230
1
0
LINE
5
188
100
AcDbEntity
8
2
62
256
6
ByLayer
370
13
48
1
60
0
100
AcDbLine
10
258.5875
20
-27
30
0
11
287.15
21
-27
31
0
39
0
210
0
220
0
230
1
0
LINE
5
189
100
AcDbEntity
8
2
62
256
6
ByLayer
370
13
48
1
60
0
100
AcDbLine
10
258.5875
20
27
30
0
11
287.15
21
27
31
0
39
0
210
0
220
0
230
1
0
LINE
5
18A
100
AcDbEntity
8
1
62
256
6
ByLayer
370
18
48
1
60
1
100
AcDbLine
10
283.975
20
-27
30
0
11
283.049425
21
-22.825003
31
0
39
0
210
0
220
0
230
1
0
LINE
5
18B
100
AcDbEntity
8
1
62
256
6
ByLayer
370
18
48
1
60
1
100
AcDbLine
10
283.049425
20
-22.825003
30
0
11
284.900575
21
-22.824997
31
0
39
0
210
0
220
0
230
1
0
LINE
5
18C
100
AcDbEntity
8
1
62
256
6
ByLayer
370
18
48
1
60
1
100
AcDbLine
10
284.900575
20
-22.824997
30
0
11
283.975
21
-27
31
0
39
0
210
0
220
0
230
1
0
LINE
5
18D
100
AcDbEntity
8
1
62
256
6
ByLayer
370
18
48
1
60
1
100
AcDbLine
10
283.975
20
27
30
0
11
284.900575
21
22.825003
31
0
39
0
210
0
220
0
230
1
0
LINE
5
18E
100
AcDbEntity
8
1
62
256
6
ByLayer
370
18
48
1
60
1
100
AcDbLine
10
284.900575
20
22.825003
30
0
11
283.049425
21
22.824997
31
0
39
0
210
0
220
0
230
1
0
LINE
5
18F
100
AcDbEntity
8
1
62
256
6
ByLayer
370
18
48
1
60
1
100
AcDbLine
10
283.049425
20
22.824997
30
0
11
283.975
21
27
31
0
39
0
210
0
220
0
230
1
0
LINE
5
33B
100
AcDbEntity
8
1
62
256
6
ByLayer
370
18
48
1
60
1
100
AcDbLine
10
-100.725
20
-25
30
0
11
-101.650575
21
-20.825003
31
0
39
0
210
0
220
0
230
1
0
LINE
5
33C
100
AcDbEntity
8
1
62
256
6
ByLayer
370
18
48
1
60
1
100
AcDbLine
10
-101.650575
20
-20.825003
30
0
11
-99.799425
21
-20.824997
31
0
39
0
210
0
220
0
230
1
0
LINE
5
33D
100
AcDbEntity
8
1
62
256
6
ByLayer
370
18
48
1
60
1
100
AcDbLine
10
-99.799425
20
-20.824997
30
0
11
-100.725
21
-25
31
0
39
0
210
0
220
0
230
1
0
LINE
5
33F
100
AcDbEntity
8
1
62
256
6
ByLayer
370
18
48
1
60
1
100
AcDbLine
10
-100.725
20
25
30
0
11
-99.799425
21
20.825003
31
0
39
0
210
0
220
0
230
1
0
LINE
5
340
100
AcDbEntity
8
1
62
256
6
ByLayer
370
18
48
1
60
1
100
AcDbLine
10
-99.799425
20
20.825003
30
0
11
-101.650575
21
20.824997
31
0
39
0
210
0
220
0
230
1
0
LINE
5
341
100
AcDbEntity
8
1
62
256
6
ByLayer
370
18
48
1
60
1
100
AcDbLine
10
-101.650575
20
20.824997
30
0
11
-100.725
21
25
31
0
39
0
210
0
220
0
230
1
0
LINE
5
345
100
AcDbEntity
8
1
62
256
6
ByLayer
370
18
48
1
60
1
100
AcDbLine
10
-110.725
20
31.25
30
0
11
-109.799425
21
27.075003
31
0
39
0
210
0
220
0
230
1
0
LINE
5
346
100
AcDbEntity
8
1
62
256
6
ByLayer
370
18
48
1
60
1
100
AcDbLine
10
-109.799425
20
27.075003
30
0
11
-111.650575
21
27.074997
31
0
39
0
210
0
220
0
230
1
0
LINE
5
347
100
AcDbEntity
8
1
62
256
6
ByLayer
370
18
48
1
60
1
100
AcDbLine
10
-111.650575
20
27.074997
30
0
11
-110.725
21
31.25
31
0
39
0
210
0
220
0
230
1
0
LINE
5
349
100
AcDbEntity
8
1
62
256
6
ByLayer
370
18
48
1
60
1
100
AcDbLine
10
-110.725
20
-31.25
30
0
11
-111.650575
21
-27.075003
31
0
39
0
210
0
220
0
230
1
0
LINE
5
34A
100
AcDbEntity
8
1
62
256
6
ByLayer
370
18
48
1
60
1
100
AcDbLine
10
-111.650575
20
-27.075003
30
0
11
-109.799425
21
-27.074997
31
0
39
0
210
0
220
0
230
1
0
LINE
5
34B
100
AcDbEntity
8
1
62
256
6
ByLayer
370
18
48
1
60
1
100
AcDbLine
10
-109.799425
20
-27.074997
30
0
11
-110.725
21
-31.25
31
0
39
0
210
0
220
0
230
1
0
LINE
5
34F
100
AcDbEntity
8
1
62
256
6
ByLayer
370
18
48
1
60
1
100
AcDbLine
10
283.975
20
-27
30
0
11
283.049425
21
-22.825003
31
0
39
0
210
0
220
0
230
1
0
LINE
5
350
100
AcDbEntity
8
1
62
256
6
ByLayer
370
18
48
1
60
1
100
AcDbLine
10
283.049425
20
-22.825003
30
0
11
284.900575
21
-22.824997
31
0
39
0
210
0
220
0
230
1
0
LINE
5
351
100
AcDbEntity
8
1
62
256
6
ByLayer
370
18
48
1
60
1
100
AcDbLine
10
284.900575
20
-22.824997
30
0
11
283.975
21
-27
31
0
39
0
210
0
220
0
230
1
0
LINE
5
353
100
AcDbEntity
8
1
62
256
6
ByLayer
370
18
48
1
60
1
100
AcDbLine
10
283.975
20
27
30
0
11
284.900575
21
22.825003
31
0
39
0
210
0
220
0
230
1
0
LINE
5
354
100
AcDbEntity
8
1
62
256
6
ByLayer
370
18
48
1
60
1
100
AcDbLine
10
284.900575
20
22.825003
30
0
11
283.049425
21
22.824997
31
0
39
0
210
0
220
0
230
1
0
LINE
5
355
100
AcDbEntity
8
1
62
256
6
ByLayer
370
18
48
1
60
1
100
AcDbLine
10
283.049425
20
22.824997
30
0
11
283.975
21
27
31
0
39
0
210
0
220
0
230
1
0
MTEXT
5
337
100
AcDbEntity
8
SK2
62
256
6
ByLayer
370
18
48
1
60
0
100
AcDbMText
10
-102.736672
20
-6.949399
30
0
210
0
220
0
230
1
1
%%c
40
4.5
41
0
44
1.084337
50
90
71
7
72
5
7
iso_b_vert
0
MTEXT
5
33A
100
AcDbEntity
8
SK2
62
256
6
ByLayer
370
18
48
1
60
0
100
AcDbMText
10
-102.736672
20
4.265444
30
0
210
0
220
0
230
1
1
\W0.6740;50
40
4.5
41
0
44
1.084337
50
90
71
7
72
5
7
iso_b_vert
0
MTEXT
5
343
100
AcDbEntity
8
SK2
62
256
6
ByLayer
370
18
48
1
60
0
100
AcDbMText
10
-112.736672
20
-9.541655
30
0
210
0
220
0
230
1
1
%%c
40
4.5
41
0
44
1.084337
50
90
71
7
72
5
7
iso_b_vert
0
MTEXT
5
344
100
AcDbEntity
8
SK2
62
256
6
ByLayer
370
18
48
1
60
0
100
AcDbMText
10
-112.736672
20
1.673189
30
0
210
0
220
0
230
1
1
\W0.7346;62.5
40
4.5
41
0
44
1.084337
50
90
71
7
72
5
7
iso_b_vert
0
MTEXT
5
34D
100
AcDbEntity
8
2
62
256
6
ByLayer
370
18
48
1
60
0
100
AcDbMText
10
281.963328
20
-7.186314
30
0
210
0
220
0
230
1
1
%%c
40
4.5
41
0
44
1.084337
50
90
71
7
72
5
7
iso_b_vert
0
MTEXT
5
34E
100
AcDbEntity
8
2
62
256
6
ByLayer
370
18
48
1
60
0
100
AcDbMText
10
281.963328
20
4.02853
30
0
210
0
220
0
230
1
1
\W0.7167;54
40
4.5
41
0
44
1.084337
50
90
71
7
72
5
7
iso_b_vert
0
MTEXT
5
357
100
AcDbEntity
8
SK6
62
256
6
ByLayer
370
18
48
1
60
0
100
AcDbMText
10
9.308916
20
-94.592562
30
0
210
0
220
0
230
1
1
\W0.7769;DS20-D5400L50-04
40
3.5
41
0
44
1.084337
50
0
71
7
72
5
7
iso_b_vert
0
HATCH
5
33E
100
AcDbEntity
8
SK2
62
256
6
ByLayer
370
13
48
1
60
0
100
AcDbHatch
10
0
20
0
30
0
210
0
220
0
230
1
2
ANSI31
70
0
71
0
91
1
92
5
93
3
72
1
10
-100.725
20
-24.9999999999999
11
-101.650575216528
21
-20.8250033998275
72
1
10
-101.650575216528
20
-20.8250033998275
11
-99.7994247834721
21
-20.8249966001723
72
1
10
-99.7994247834721
20
-20.8249966001723
11
-100.725
21
-24.9999999999999
97
0
75
0
76
1
52
0
41
0.0062
77
0
78
1
53
45
43
0
44
0
45
-0.0139193969876572
46
0.0139193969876572
79
0
47
0
98
1
10
0
20
0
0
HATCH
5
342
100
AcDbEntity
8
SK2
62
256
6
ByLayer
370
13
48
1
60
0
100
AcDbHatch
10
0
20
0
30
0
210
0
220
0
230
1
2
ANSI31
70
0
71
0
91
1
92
5
93
3
72
1
10
-100.725
20
25.0000000000001
11
-99.7994247834721
21
20.8250033998277
72
1
10
-99.7994247834721
20
20.8250033998277
11
-101.650575216528
21
20.8249966001725
72
1
10
-101.650575216528
20
20.8249966001725
11
-100.725
21
25.0000000000001
97
0
75
0
76
1
52
0
41
0.0062
77
0
78
1
53
45
43
0
44
0
45
-0.0139193969876572
46
0.0139193969876572
79
0
47
0
98
1
10
0
20
0
0
HATCH
5
348
100
AcDbEntity
8
SK2
62
256
6
ByLayer
370
13
48
1
60
0
100
AcDbHatch
10
0
20
0
30
0
210
0
220
0
230
1
2
ANSI31
70
0
71
0
91
1
92
5
93
3
72
1
10
-110.725
20
31.25
11
-109.799424783472
21
27.0750033998276
72
1
10
-109.799424783472
20
27.0750033998276
11
-111.650575216528
21
27.0749966001724
72
1
10
-111.650575216528
20
27.0749966001724
11
-110.725
21
31.25
97
0
75
0
76
1
52
0
41
0.0062
77
0
78
1
53
45
43
0
44
0
45
-0.0139193969876572
46
0.0139193969876572
79
0
47
0
98
1
10
0
20
0
0
HATCH
5
34C
100
AcDbEntity
8
SK2
62
256
6
ByLayer
370
13
48
1
60
0
100
AcDbHatch
10
0
20
0
30
0
210
0
220
0
230
1
2
ANSI31
70
0
71
0
91
1
92
5
93
3
72
1
10
-110.725
20
-31.25
11
-111.650575216528
21
-27.0750033998276
72
1
10
-111.650575216528
20
-27.0750033998276
11
-109.799424783472
21
-27.0749966001724
72
1
10
-109.799424783472
20
-27.0749966001724
11
-110.725
21
-31.25
97
0
75
0
76
1
52
0
41
0.0062
77
0
78
1
53
45
43
0
44
0
45
-0.0139193969876572
46
0.0139193969876572
79
0
47
0
98
1
10
0
20
0
0
HATCH
5
352
100
AcDbEntity
8
2
62
256
6
ByLayer
370
13
48
1
60
0
100
AcDbHatch
10
0
20
0
30
0
210
0
220
0
230
1
2
ANSI31
70
0
71
0
91
1
92
5
93
3
72
1
10
283.975
20
-27.0000000000003
11
283.049424783472
21
-22.8250033998279
72
1
10
283.049424783472
20
-22.8250033998279
11
284.900575216528
21
-22.8249966001727
72
1
10
284.900575216528
20
-22.8249966001727
11
283.975
21
-27.0000000000003
97
0
75
0
76
1
52
0
41
0.0062
77
0
78
1
53
45
43
0
44
0
45
-0.0139193969876572
46
0.0139193969876572
79
0
47
0
98
1
10
0
20
0
0
HATCH
5
356
100
AcDbEntity
8
2
62
256
6
ByLayer
370
13
48
1
60
0
100
AcDbHatch
10
0
20
0
30
0
210
0
220
0
230
1
2
ANSI31
70
0
71
0
91
1
92
5
93
3
72
1
10
283.975
20
26.9999999999997
11
284.900575216528
21
22.8250033998273
72
1
10
284.900575216528
20
22.8250033998273
11
283.049424783472
21
22.8249966001721
72
1
10
283.049424783472
20
22.8249966001721
11
283.975
21
26.9999999999997
97
0
75
0
76
1
52
0
41
0.0062
77
0
78
1
53
45
43
0
44
0
45
-0.0139193969876572
46
0.0139193969876572
79
0
47
0
98
1
10
0
20
0
0
DIMENSION
5
35A
100
AcDbEntity
8
2
62
256
6
ByLayer
370
18
48
1
60
0
100
AcDbDimension
2
_U0
10
257
20
-80.1
30
0
11
128.5
21
-80.1
31
0
70
32
71
1
72
1
41
1
210
0
220
0
230
1
3
Standard
100
AcDbAlignedDimension
13
0
23
-31.25
33
0
14
257
24
-27
34
0
50
0
100
AcDbRotatedDimension
1001
ACAD
1000
DSTYLE
1002
{
1070
   371
1070
    13
1070
   372
1070
    13
1070
   170
1070
     0
1070
   144
1040
1.0
1070
   277
1070
     2
1070
   284
1070
     8
1070
   278
1070
    46
1070
   146
1040
0.777778
1070
   345
1005
16
1070
   347
1005
16
1070
   346
1005
16
1070
   344
1005
0
1070
   343
1005
0
1070
   172
1070
     1
1070
    76
1070
     0
1070
    75
1070
     0
1070
   282
1070
     0
1070
   281
1070
     0
1070
    71
1070
     0
1070
    74
1070
     0
1070
   279
1070
     0
1070
   173
1070
     1
1070
   340
1005
338
1070
   271
1070
     1
1070
   272
1070
     2
1070
    77
1070
     1
1070
    73
1070
     1
1070
   171
1070
     3
1070
   274
1070
     4
1070
   177
1070
   150
1070
   176
1070
     9
1070
   178
1070
    43
1070
    78
1070
     8
1070
    48
1040
-0.1
1070
    41
1040
4.175
1070
   147
1040
2.25
1070
    42
1040
1.5875
1070
    44
1040
3.175
1070
   140
1040
4.5
1002
}
1001
ACAD_DSTYLE_DIM_LINETYPE
1070
   380
1005
16
1001
ACAD_DSTYLE_DIM_EXT1_LINETYPE
1070
   381
1005
16
1001
ACAD_DSTYLE_DIM_EXT2_LINETYPE
1070
   382
1005
16
0
DIMENSION
5
373
100
AcDbEntity
8
SK2
62
256
6
ByLayer
370
18
48
1
60
0
100
AcDbDimension
2
_U1
10
0
20
-80.1
30
0
11
-40
21
-80.1
31
0
70
32
71
1
72
1
41
1
210
0
220
0
230
1
3
Standard
100
AcDbAlignedDimension
13
-80
23
-25
33
0
14
0
24
-31.25
34
0
50
0
100
AcDbRotatedDimension
1001
ACAD
1000
DSTYLE
1002
{
1070
   371
1070
    13
1070
   372
1070
    13
1070
   170
1070
     0
1070
   144
1040
1.0
1070
   277
1070
     2
1070
   284
1070
     8
1070
   278
1070
    46
1070
   146
1040
0.777778
1070
   345
1005
16
1070
   347
1005
16
1070
   346
1005
16
1070
   344
1005
0
1070
   343
1005
0
1070
   172
1070
     1
1070
    76
1070
     0
1070
    75
1070
     0
1070
   282
1070
     0
1070
   281
1070
     0
1070
    71
1070
     0
1070
    74
1070
     0
1070
   279
1070
     0
1070
   173
1070
     1
1070
   340
1005
338
1070
   271
1070
     1
1070
   272
1070
     2
1070
    77
1070
     1
1070
    73
1070
     1
1070
   171
1070
     3
1070
   274
1070
     4
1070
   177
1070
   150
1070
   176
1070
     9
1070
   178
1070
    43
1070
    78
1070
     8
1070
    48
1040
-0.1
1070
    41
1040
4.175
1070
   147
1040
2.25
1070
    42
1040
1.5875
1070
    44
1040
3.175
1070
   140
1040
4.5
1002
}
1001
ACAD_DSTYLE_DIM_LINETYPE
1070
   380
1005
16
1001
ACAD_DSTYLE_DIM_EXT1_LINETYPE
1070
   381
1005
16
1001
ACAD_DSTYLE_DIM_EXT2_LINETYPE
1070
   382
1005
16
0
DIMENSION
5
38B
100
AcDbEntity
8
SK2
62
256
6
ByLayer
370
18
48
1
60
0
100
AcDbDimension
2
_U2
10
6.1102
20
-70.1
30
0
11
131.5551
21
-70.1
31
0
70
32
71
1
72
1
41
1
210
0
220
0
230
1
3
Standard
100
AcDbAlignedDimension
13
257
23
-27
33
0
14
6.1102
24
-31.25
34
0
50
0
100
AcDbRotatedDimension
1001
ACAD
1000
DSTYLE
1002
{
1070
   371
1070
    13
1070
   372
1070
    13
1070
   170
1070
     0
1070
   144
1040
1.0
1070
   277
1070
     2
1070
   284
1070
     8
1070
   278
1070
    46
1070
   146
1040
0.777778
1070
   345
1005
16
1070
   347
1005
16
1070
   346
1005
16
1070
   344
1005
0
1070
   343
1005
0
1070
   172
1070
     1
1070
    76
1070
     0
1070
    75
1070
     0
1070
   282
1070
     0
1070
   281
1070
     0
1070
    71
1070
     0
1070
    74
1070
     0
1070
   279
1070
     0
1070
   173
1070
     1
1070
   340
1005
338
1070
   271
1070
     1
1070
   272
1070
     2
1070
    77
1070
     1
1070
    73
1070
     1
1070
   171
1070
     3
1070
   274
1070
     4
1070
   177
1070
   150
1070
   176
1070
     9
1070
   178
1070
    43
1070
    78
1070
     8
1070
    48
1040
-0.1
1070
    41
1040
4.175
1070
   147
1040
2.25
1070
    42
1040
1.5875
1070
    44
1040
3.175
1070
   140
1040
4.5
1002
}
1001
ACAD_DSTYLE_DIM_LINETYPE
1070
   380
1005
16
1001
ACAD_DSTYLE_DIM_EXT1_LINETYPE
1070
   381
1005
16
1001
ACAD_DSTYLE_DIM_EXT2_LINETYPE
1070
   382
1005
16
0
DIMENSION
5
3A3
100
AcDbEntity
8
SK2
62
256
6
ByLayer
370
18
48
1
60
0
100
AcDbDimension
2
_U3
10
257
20
-60.1
30
0
11
146.5
21
-60.1
31
0
70
32
71
1
72
1
41
1
210
0
220
0
230
1
3
Standard
100
AcDbAlignedDimension
13
36
23
-27
33
0
14
257
24
-27
34
0
50
0
100
AcDbRotatedDimension
1001
ACAD
1000
DSTYLE
1002
{
1070
   371
1070
    13
1070
   372
1070
    13
1070
   170
1070
     0
1070
   144
1040
1.0
1070
   277
1070
     2
1070
   284
1070
     8
1070
   278
1070
    46
1070
   146
1040
0.777778
1070
   345
1005
16
1070
   347
1005
16
1070
   346
1005
16
1070
   344
1005
0
1070
   343
1005
0
1070
   172
1070
     1
1070
    76
1070
     0
1070
    75
1070
     0
1070
   282
1070
     0
1070
   281
1070
     0
1070
    71
1070
     0
1070
    74
1070
     0
1070
   279
1070
     0
1070
   173
1070
     1
1070
   340
1005
338
1070
   271
1070
     1
1070
   272
1070
     2
1070
    77
1070
     1
1070
    73
1070
     1
1070
   171
1070
     3
1070
   274
1070
     4
1070
   177
1070
   150
1070
   176
1070
     9
1070
   178
1070
    43
1070
    78
1070
     8
1070
    48
1040
-0.1
1070
    41
1040
4.175
1070
   147
1040
2.25
1070
    42
1040
1.5875
1070
    44
1040
3.175
1070
   140
1040
4.5
1002
}
1001
ACAD_DSTYLE_DIM_LINETYPE
1070
   380
1005
16
1001
ACAD_DSTYLE_DIM_EXT1_LINETYPE
1070
   381
1005
16
1001
ACAD_DSTYLE_DIM_EXT2_LINETYPE
1070
   382
1005
16
0
DIMENSION
5
3BB
100
AcDbEntity
8
2
62
256
6
ByLayer
370
18
48
1
60
0
100
AcDbDimension
2
_U4
10
257
20
-50.1
30
0
11
278.922321
21
-50.1
31
0
70
32
71
1
72
1
41
1
210
0
220
0
230
1
3
Standard
100
AcDbAlignedDimension
13
255.4109
23
-13.5
33
0
14
257
24
0
34
0
50
0
100
AcDbRotatedDimension
1001
ACAD
1000
DSTYLE
1002
{
1070
   371
1070
    13
1070
   372
1070
    13
1070
   170
1070
     0
1070
   144
1040
1.0
1070
   277
1070
     2
1070
   284
1070
     8
1070
   278
1070
    46
1070
   146
1040
0.777778
1070
   345
1005
16
1070
   347
1005
16
1070
   346
1005
16
1070
   344
1005
0
1070
   343
1005
0
1070
   172
1070
     1
1070
    76
1070
     0
1070
    75
1070
     0
1070
   282
1070
     0
1070
   281
1070
     0
1070
    71
1070
     0
1070
    74
1070
     0
1070
   279
1070
     0
1070
   173
1070
     1
1070
   340
1005
338
1070
   271
1070
     2
1070
   272
1070
     2
1070
    77
1070
     1
1070
    73
1070
     1
1070
   171
1070
     3
1070
   274
1070
     4
1070
   177
1070
   150
1070
   176
1070
     9
1070
   178
1070
    43
1070
    78
1070
     8
1070
    48
1040
-0.1
1070
    41
1040
4.175
1070
   147
1040
2.25
1070
    42
1040
1.5875
1070
    44
1040
3.175
1070
   140
1040
4.5
1002
}
1001
ACAD_DSTYLE_DIM_LINETYPE
1070
   380
1005
16
1001
ACAD_DSTYLE_DIM_EXT1_LINETYPE
1070
   381
1005
16
1001
ACAD_DSTYLE_DIM_EXT2_LINETYPE
1070
   382
1005
16
0
ENDSEC
0
SECTION
2
OBJECTS
0
DICTIONARY
5
445
330
0
100
AcDbDictionary
280
0
281
1
3
ACAD_GROUP
350
446
3
ACAD_MLINESTYLE
350
447
0
DICTIONARY
5
446
330
0
100
AcDbDictionary
280
0
281
1
0
DICTIONARY
5
447
330
0
100
AcDbDictionary
280
0
281
1
3
Standard
350
18
0
MLINESTYLE
5
18
330
447
100
AcDbMlineStyle
2
Standard
70
0
3

62
256
51
90
52
90
71
2
49
-0.5
62
256
6
ByLayer
49
0.5
62
256
6
ByLayer
0
RASTERVARIABLES
5
433
330

100
AcDbRasterVariables
90
0
70
1
71
1
72
1
0
ENDSEC
0
EOF
