0
SECTION
2
HEADER
9
$ACADVER
1
AC1015
9
$DWGCODEPAGE
3
ANSI_1252
9
$HANDSEED
5
452
9
$ANGBASE
50
0
9
$ANGDIR
70
0
9
$ATTMODE
70
1
9
$AUNITS
70
0
9
$AUPREC
70
0
9
$CECOLOR
62
256
9
$CELTSCALE
40
1
9
$CELTYPE
6
ByLayer
9
$CELWEIGHT
370
18
9
$CLAYER
8
0
9
$CMLJUST
70
0
9
$CMLSCALE
40
1
9
$CMLSTYLE
2
Standard
9
$DIMSTYLE
2
Standard
9
$TEXTSIZE
40
0.2
9
$TEXTSTYLE
7
Standard
9
$LUNITS
70
2
9
$LUPREC
70
4
9
$EXTNAMES
290
1
9
$INSUNITS
70
4
9
$LTSCALE
40
1
9
$LWDISPLAY
290
1
9
$PDMODE
70
0
9
$PDSIZE
40
0
9
$PLINEGEN
70
0
0
ENDSEC
0
SECTION
2
CLASSES
0
CLASS
1
RASTERVARIABLES
2
AcDbRasterVariables
3
ISM
90
0
280
0
281
0
0
ENDSEC
0
SECTION
2
TABLES
0
TABLE
2
VPORT
5
448
100
AcDbSymbolTable
0
VPORT
5
1
100
AcDbSymbolTableRecord
100
AcDbViewportTableRecord
2
*Active
70
0
10
0
20
0
11
1
21
1
12
-1
22
1
13
0
23
0
14
0.5
24
0.5
15
10
25
10
16
0
26
0
36
1
17
0
27
0
37
0
0
ENDTAB
0
TABLE
2
LTYPE
5
449
100
AcDbSymbolTable
0
LTYPE
5
14
100
AcDbSymbolTableRecord
100
AcDbLinetypeTableRecord
70
0
2
ByBlock
3

72
65
73
0
40
0
0
LTYPE
5
15
100
AcDbSymbolTableRecord
100
AcDbLinetypeTableRecord
70
0
2
ByLayer
3

72
65
73
0
40
0
0
LTYPE
5
16
100
AcDbSymbolTableRecord
100
AcDbLinetypeTableRecord
70
0
2
Continuous
3
Solid line
72
65
73
0
40
0
0
LTYPE
5
6E
100
AcDbSymbolTableRecord
100
AcDbLinetypeTableRecord
70
0
2
CENTER
3
____ _ ____ _ ____ _ ____
72
65
73
4
40
47.5
49
22
74
0
49
-8.5
74
0
49
8.5
74
0
49
-8.5
74
0
0
LTYPE
5
6F
100
AcDbSymbolTableRecord
100
AcDbLinetypeTableRecord
70
0
2
DASHED
3
__ __ __ __ __ __ __ __ __
72
65
73
2
40
25.72
49
12.86
74
0
49
-12.86
74
0
0
ENDTAB
0
TABLE
2
LAYER
5
44a
100
AcDbSymbolTable
0
LAYER
5
10
100
AcDbSymbolTableRecord
100
AcDbLayerTableRecord
2
0
70
0
62
7
6
Continuous
290
1
370
-3
390
0
0
LAYER
5
71
100
AcDbSymbolTableRecord
100
AcDbLayerTableRecord
2
1
70
0
62
4
6
Continuous
290
1
370
-3
390
0
0
LAYER
5
73
100
AcDbSymbolTableRecord
100
AcDbLayerTableRecord
2
80
70
0
62
-6
6
Continuous
290
1
370
-3
390
0
0
LAYER
5
75
100
AcDbSymbolTableRecord
100
AcDbLayerTableRecord
2
81
70
0
62
-3
6
Continuous
290
1
370
-3
390
0
0
LAYER
5
14C
100
AcDbSymbolTableRecord
100
AcDbLayerTableRecord
2
4
70
0
62
-2
6
CENTER
290
1
370
-3
390
0
0
LAYER
5
187
100
AcDbSymbolTableRecord
100
AcDbLayerTableRecord
2
2
70
0
62
7
6
Continuous
290
1
370
-3
390
0
0
LAYER
5
35D
100
AcDbSymbolTableRecord
100
AcDbLayerTableRecord
2
Defpoints
70
0
62
7
6
Continuous
290
0
370
-3
390
0
0
LAYER
5
434
100
AcDbSymbolTableRecord
100
AcDbLayerTableRecord
2
SK1
70
0
62
4
6
Continuous
290
1
370
-3
390
0
0
LAYER
5
435
100
AcDbSymbolTableRecord
100
AcDbLayerTableRecord
2
SK4
70
0
62
2
6
CENTER
290
1
370
-3
390
0
0
LAYER
5
436
100
AcDbSymbolTableRecord
100
AcDbLayerTableRecord
2
SK2
70
0
62
7
6
Continuous
290
1
370
-3
390
0
0
LAYER
5
437
100
AcDbSymbolTableRecord
100
AcDbLayerTableRecord
2
SK6
70
0
62
5
6
Continuous
290
1
370
-3
390
0
0
ENDTAB
0
TABLE
2
STYLE
5
44b
100
AcDbSymbolTable
0
STYLE
5
11
100
AcDbSymbolTableRecord
100
AcDbTextStyleTableRecord
2
Standard
3
txt
70
0
71
0
40
0
41
1
42
0
50
0
0
STYLE
5
338
100
AcDbSymbolTableRecord
100
AcDbTextStyleTableRecord
2
iso_b_vert
3
simplex.shx
70
0
71
0
40
0
41
1
42
0
50
0
0
STYLE
5
339
100
AcDbSymbolTableRecord
100
AcDbTextStyleTableRecord
2
DWGDirectTextStyle
3
simplex
70
0
71
0
40
0
41
1
42
0
50
0
0
ENDTAB
0
TABLE
2
DIMSTYLE
5
44c
100
AcDbSymbolTable
100
AcDbDimStyleTable
0
DIMSTYLE
105
27
100
AcDbSymbolTableRecord
100
AcDbDimStyleTableRecord
2
Standard
70
0
3
<>
41
0.18
42
0.0625
44
0.18
140
0.18
147
0.09
73
0
74
0
77
1
271
2
275
0
278
52
280
0
340
11
0
ENDTAB
0
TABLE
2
VIEW
5
44d
100
AcDbSymbolTable
0
ENDTAB
0
TABLE
2
UCS
5
44e
100
AcDbSymbolTable
0
ENDTAB
0
TABLE
2
APPID
5
44f
100
AcDbSymbolTable
0
APPID
5
12
100
AcDbSymbolTableRecord
100
AcDbRegAppTableRecord
2
ACAD
70
0
0
APPID
5
359
100
AcDbSymbolTableRecord
100
AcDbRegAppTableRecord
2
ACAD_DSTYLE_DIMBREAK
70
0
0
APPID
5
3F3
100
AcDbSymbolTableRecord
100
AcDbRegAppTableRecord
2
ACAD_DSTYLE_DIM_LINETYPE
70
0
0
APPID
5
3F4
100
AcDbSymbolTableRecord
100
AcDbRegAppTableRecord
2
ACAD_DSTYLE_DIM_EXT1_LINETYPE
70
0
0
APPID
5
3F5
100
AcDbSymbolTableRecord
100
AcDbRegAppTableRecord
2
ACAD_DSTYLE_DIM_EXT2_LINETYPE
70
0
0
APPID
5
430
100
AcDbSymbolTableRecord
100
AcDbRegAppTableRecord
2
ACAD_MLEADERVER
70
0
0
ENDTAB
0
TABLE
2
BLOCK_RECORD
5
450
100
AcDbSymbolTable
0
BLOCK_RECORD
5
1F
100
AcDbSymbolTableRecord
100
AcDbBlockTableRecord
2
*Model_Space
340
0
70
0
0
BLOCK_RECORD
5
1B
100
AcDbSymbolTableRecord
100
AcDbBlockTableRecord
2
*Paper_Space
340
0
70
0
0
BLOCK_RECORD
5
23
100
AcDbSymbolTableRecord
100
AcDbBlockTableRecord
2
*Paper_Space0
340
0
70
0
0
BLOCK_RECORD
5
35E
100
AcDbSymbolTableRecord
100
AcDbBlockTableRecord
2
*D1
340
0
70
0
0
BLOCK_RECORD
5
36A
100
AcDbSymbolTableRecord
100
AcDbBlockTableRecord
2
_U0
340
0
70
0
0
BLOCK_RECORD
5
376
100
AcDbSymbolTableRecord
100
AcDbBlockTableRecord
2
*D3
340
0
70
0
0
BLOCK_RECORD
5
382
100
AcDbSymbolTableRecord
100
AcDbBlockTableRecord
2
_U1
340
0
70
0
0
BLOCK_RECORD
5
38E
100
AcDbSymbolTableRecord
100
AcDbBlockTableRecord
2
*D5
340
0
70
0
0
BLOCK_RECORD
5
39A
100
AcDbSymbolTableRecord
100
AcDbBlockTableRecord
2
_U2
340
0
70
0
0
BLOCK_RECORD
5
3A6
100
AcDbSymbolTableRecord
100
AcDbBlockTableRecord
2
*D7
340
0
70
0
0
BLOCK_RECORD
5
3B2
100
AcDbSymbolTableRecord
100
AcDbBlockTableRecord
2
_U3
340
0
70
0
0
BLOCK_RECORD
5
3BE
100
AcDbSymbolTableRecord
100
AcDbBlockTableRecord
2
*D9
340
0
70
0
0
BLOCK_RECORD
5
3CC
100
AcDbSymbolTableRecord
100
AcDbBlockTableRecord
2
_U4
340
0
70
0
0
ENDTAB
0
ENDSEC
0
SECTION
2
BLOCKS
0
BLOCK
5
20
100
AcDbEntity
8
0
100
AcDbBlockBegin
2
*Model_Space
70
0
10
0
20
0
30
0
3
*Model_Space
0
ENDBLK
5
21
100
AcDbEntity
8
0
100
AcDbBlockEnd
0
BLOCK
5
1C
100
AcDbEntity
8
0
100
AcDbBlockBegin
2
*Paper_Space
70
0
10
0
20
0
30
0
3
*Paper_Space
0
ENDBLK
5
1D
100
AcDbEntity
8
0
100
AcDbBlockEnd
0
BLOCK
5
24
100
AcDbEntity
8
0
100
AcDbBlockBegin
2
*Paper_Space0
70
0
10
0
20
0
30
0
3
*Paper_Space0
0
ENDBLK
5
25
100
AcDbEntity
8
0
100
AcDbBlockEnd
0
BLOCK
5
35F
100
AcDbEntity
8
0
100
AcDbBlockBegin
2
*D1
70
1
10
0
20
0
30
0
3
*D1
0
LINE
5
361
100
AcDbEntity
8
0
62
256
6
ByLayer
370
-2
48
1
60
0
100
AcDbLine
10
0
20
-32.8375
30
0
11
0
21
-83.275
31
0
39
0
210
0
220
0
230
1
0
LINE
5
362
100
AcDbEntity
8
0
62
256
6
ByLayer
370
-2
48
1
60
0
100
AcDbLine
10
311
20
-28.5875
30
0
11
311
21
-83.275
31
0
39
0
210
0
220
0
230
1
0
LINE
5
363
100
AcDbEntity
8
0
62
256
6
ByLayer
370
-2
48
1
60
0
100
AcDbLine
10
4.175
20
-80.1
30
0
11
306.825
21
-80.1
31
0
39
0
210
0
220
0
230
1
0
SOLID
5
364
100
AcDbEntity
8
0
62
256
6
ByLayer
370
-1
48
1
60
0
100
AcDbTrace
10
4.175
20
-79.404167
30
0
11
4.175
21
-80.795833
31
0
12
0
22
-80.1
32
0
13
0
23
-80.1
33
0
39
0
210
0
220
0
230
1
0
SOLID
5
365
100
AcDbEntity
8
0
62
256
6
ByLayer
370
-1
48
1
60
0
100
AcDbTrace
10
306.825
20
-80.795833
30
0
11
306.825
21
-79.404167
31
0
12
311
22
-80.1
32
0
13
311
23
-80.1
33
0
39
0
210
0
220
0
230
1
0
MTEXT
5
366
100
AcDbEntity
8
0
62
256
6
ByLayer
370
18
48
1
60
0
100
AcDbMText
10
155.5
20
-70.70625
30
0
210
0
220
0
230
1
1
\A1;311
40
4.5
41
0
44
1
50
0
71
5
72
5
7
iso_b_vert
0
POINT
5
367
100
AcDbEntity
8
Defpoints
62
0
6
ByLayer
370
-1
48
1
60
0
100
AcDbPoint
10
0
20
-31.25
30
0
39
0
210
0
220
0
230
1
50
360
0
POINT
5
368
100
AcDbEntity
8
Defpoints
62
0
6
ByLayer
370
-1
48
1
60
0
100
AcDbPoint
10
311
20
-27
30
0
39
0
210
0
220
0
230
1
50
360
0
POINT
5
369
100
AcDbEntity
8
Defpoints
62
0
6
ByLayer
370
-1
48
1
60
0
100
AcDbPoint
10
311
20
-80.1
30
0
39
0
210
0
220
0
230
1
50
360
0
ENDBLK
5
360
100
AcDbEntity
8
0
100
AcDbBlockEnd
0
BLOCK
5
371
100
AcDbEntity
8
0
100
AcDbBlockBegin
2
_U0
70
0
10
0
20
0
30
0
3
_U0
0
MTEXT
5
36B
100
AcDbEntity
8
2
62
256
6
ByLayer
370
18
48
1
60
0
100
AcDbMText
10
152.494215
20
-78.772328
30
0
210
0
220
0
230
1
1
\W0.5919;311
40
4.5
41
0
44
1.084337
50
0
71
7
72
5
7
iso_b_vert
0
LINE
5
36C
100
AcDbEntity
8
2
62
256
6
ByLayer
370
13
48
1
60
0
100
AcDbLine
10
0
20
-32.8375
30
0
11
0
21
-83.275
31
0
39
0
210
0
220
0
230
1
0
LINE
5
36D
100
AcDbEntity
8
2
62
256
6
ByLayer
370
13
48
1
60
0
100
AcDbLine
10
311
20
-28.5875
30
0
11
311
21
-83.275
31
0
39
0
210
0
220
0
230
1
0
LINE
5
36E
100
AcDbEntity
8
2
62
256
6
ByLayer
370
13
48
1
60
0
100
AcDbLine
10
0
20
-80.1
30
0
11
311
21
-80.1
31
0
39
0
210
0
220
0
230
1
0
SOLID
5
36F
100
AcDbEntity
8
2
62
256
6
ByLayer
370
18
48
1
60
0
100
AcDbTrace
10
0
20
-80.1
30
0
11
4.174997
21
-79.174425
31
0
12
4.175003
22
-81.025575
32
0
13
4.175003
23
-81.025575
33
0
39
0
210
0
220
0
230
1
0
SOLID
5
370
100
AcDbEntity
8
2
62
256
6
ByLayer
370
18
48
1
60
0
100
AcDbTrace
10
311
20
-80.1
30
0
11
306.825003
21
-81.025575
31
0
12
306.824997
22
-79.174425
32
0
13
306.824997
23
-79.174425
33
0
39
0
210
0
220
0
230
1
0
ENDBLK
5
372
100
AcDbEntity
8
0
100
AcDbBlockEnd
0
BLOCK
5
377
100
AcDbEntity
8
0
100
AcDbBlockBegin
2
*D3
70
1
10
0
20
0
30
0
3
*D3
0
LINE
5
379
100
AcDbEntity
8
0
62
256
6
ByLayer
370
-2
48
1
60
0
100
AcDbLine
10
-80
20
-26.5875
30
0
11
-80
21
-83.275
31
0
39
0
210
0
220
0
230
1
0
LINE
5
37A
100
AcDbEntity
8
0
62
256
6
ByLayer
370
-2
48
1
60
0
100
AcDbLine
10
0
20
-32.8375
30
0
11
0
21
-83.275
31
0
39
0
210
0
220
0
230
1
0
LINE
5
37B
100
AcDbEntity
8
0
62
256
6
ByLayer
370
-2
48
1
60
0
100
AcDbLine
10
-75.825
20
-80.1
30
0
11
-4.175
21
-80.1
31
0
39
0
210
0
220
0
230
1
0
SOLID
5
37C
100
AcDbEntity
8
0
62
256
6
ByLayer
370
-1
48
1
60
0
100
AcDbTrace
10
-75.825
20
-79.404167
30
0
11
-75.825
21
-80.795833
31
0
12
-80
22
-80.1
32
0
13
-80
23
-80.1
33
0
39
0
210
0
220
0
230
1
0
SOLID
5
37D
100
AcDbEntity
8
0
62
256
6
ByLayer
370
-1
48
1
60
0
100
AcDbTrace
10
-4.175
20
-80.795833
30
0
11
-4.175
21
-79.404167
31
0
12
0
22
-80.1
32
0
13
0
23
-80.1
33
0
39
0
210
0
220
0
230
1
0
MTEXT
5
37E
100
AcDbEntity
8
0
62
256
6
ByLayer
370
18
48
1
60
0
100
AcDbMText
10
-40
20
-70.70625
30
0
210
0
220
0
230
1
1
\A1;80
40
4.5
41
0
44
1
50
0
71
5
72
5
7
iso_b_vert
0
POINT
5
37F
100
AcDbEntity
8
Defpoints
62
0
6
ByLayer
370
-1
48
1
60
0
100
AcDbPoint
10
-80
20
-25
30
0
39
0
210
0
220
0
230
1
50
360
0
POINT
5
380
100
AcDbEntity
8
Defpoints
62
0
6
ByLayer
370
-1
48
1
60
0
100
AcDbPoint
10
0
20
-31.25
30
0
39
0
210
0
220
0
230
1
50
360
0
POINT
5
381
100
AcDbEntity
8
Defpoints
62
0
6
ByLayer
370
-1
48
1
60
0
100
AcDbPoint
10
0
20
-80.1
30
0
39
0
210
0
220
0
230
1
50
360
0
ENDBLK
5
378
100
AcDbEntity
8
0
100
AcDbBlockEnd
0
BLOCK
5
389
100
AcDbEntity
8
0
100
AcDbBlockBegin
2
_U1
70
0
10
0
20
0
30
0
3
_U1
0
MTEXT
5
383
100
AcDbEntity
8
SK2
62
256
6
ByLayer
370
18
48
1
60
0
100
AcDbMText
10
-42.449242
20
-78.772328
30
0
210
0
220
0
230
1
1
\W0.6740;80
40
4.5
41
0
44
1.084337
50
0
71
7
72
5
7
iso_b_vert
0
LINE
5
384
100
AcDbEntity
8
SK2
62
256
6
ByLayer
370
13
48
1
60
0
100
AcDbLine
10
-80
20
-26.5875
30
0
11
-80
21
-83.275
31
0
39
0
210
0
220
0
230
1
0
LINE
5
385
100
AcDbEntity
8
SK2
62
256
6
ByLayer
370
13
48
1
60
0
100
AcDbLine
10
0
20
-32.8375
30
0
11
0
21
-83.275
31
0
39
0
210
0
220
0
230
1
0
LINE
5
386
100
AcDbEntity
8
SK2
62
256
6
ByLayer
370
13
48
1
60
0
100
AcDbLine
10
-80
20
-80.1
30
0
11
0
21
-80.1
31
0
39
0
210
0
220
0
230
1
0
SOLID
5
387
100
AcDbEntity
8
SK2
62
256
6
ByLayer
370
18
48
1
60
0
100
AcDbTrace
10
-80
20
-80.1
30
0
11
-75.825003
21
-79.174425
31
0
12
-75.824997
22
-81.025575
32
0
13
-75.824997
23
-81.025575
33
0
39
0
210
0
220
0
230
1
0
SOLID
5
388
100
AcDbEntity
8
SK2
62
256
6
ByLayer
370
18
48
1
60
0
100
AcDbTrace
10
0
20
-80.1
30
0
11
-4.174997
21
-81.025575
31
0
12
-4.175003
22
-79.174425
32
0
13
-4.175003
23
-79.174425
33
0
39
0
210
0
220
0
230
1
0
ENDBLK
5
38A
100
AcDbEntity
8
0
100
AcDbBlockEnd
0
BLOCK
5
38F
100
AcDbEntity
8
0
100
AcDbBlockBegin
2
*D5
70
1
10
0
20
0
30
0
3
*D5
0
LINE
5
391
100
AcDbEntity
8
0
62
256
6
ByLayer
370
-2
48
1
60
0
100
AcDbLine
10
311
20
-28.5875
30
0
11
311
21
-73.275
31
0
39
0
210
0
220
0
230
1
0
LINE
5
392
100
AcDbEntity
8
0
62
256
6
ByLayer
370
-2
48
1
60
0
100
AcDbLine
10
6.1102
20
-32.8375
30
0
11
6.1102
21
-73.275
31
0
39
0
210
0
220
0
230
1
0
LINE
5
393
100
AcDbEntity
8
0
62
256
6
ByLayer
370
-2
48
1
60
0
100
AcDbLine
10
306.825
20
-70.1
30
0
11
10.2852
21
-70.1
31
0
39
0
210
0
220
0
230
1
0
SOLID
5
394
100
AcDbEntity
8
0
62
256
6
ByLayer
370
-1
48
1
60
0
100
AcDbTrace
10
306.825
20
-70.795833
30
0
11
306.825
21
-69.404167
31
0
12
311
22
-70.1
32
0
13
311
23
-70.1
33
0
39
0
210
0
220
0
230
1
0
SOLID
5
395
100
AcDbEntity
8
0
62
256
6
ByLayer
370
-1
48
1
60
0
100
AcDbTrace
10
10.2852
20
-69.404167
30
0
11
10.2852
21
-70.795833
31
0
12
6.1102
22
-70.1
32
0
13
6.1102
23
-70.1
33
0
39
0
210
0
220
0
230
1
0
MTEXT
5
396
100
AcDbEntity
8
0
62
256
6
ByLayer
370
18
48
1
60
0
100
AcDbMText
10
158.5551
20
-60.70625
30
0
210
0
220
0
230
1
1
\A1;304.9
40
4.5
41
0
44
1
50
0
71
5
72
5
7
iso_b_vert
0
POINT
5
397
100
AcDbEntity
8
Defpoints
62
0
6
ByLayer
370
-1
48
1
60
0
100
AcDbPoint
10
311
20
-27
30
0
39
0
210
0
220
0
230
1
50
360
0
POINT
5
398
100
AcDbEntity
8
Defpoints
62
0
6
ByLayer
370
-1
48
1
60
0
100
AcDbPoint
10
6.1102
20
-31.25
30
0
39
0
210
0
220
0
230
1
50
360
0
POINT
5
399
100
AcDbEntity
8
Defpoints
62
0
6
ByLayer
370
-1
48
1
60
0
100
AcDbPoint
10
6.1102
20
-70.1
30
0
39
0
210
0
220
0
230
1
50
360
0
ENDBLK
5
390
100
AcDbEntity
8
0
100
AcDbBlockEnd
0
BLOCK
5
3A1
100
AcDbEntity
8
0
100
AcDbBlockBegin
2
_U2
70
0
10
0
20
0
30
0
3
_U2
0
MTEXT
5
39B
100
AcDbEntity
8
SK2
62
256
6
ByLayer
370
18
48
1
60
0
100
AcDbMText
10
151.59463
20
-68.772328
30
0
210
0
220
0
230
1
1
\W0.7783;304.9
40
4.5
41
0
44
1.084337
50
0
71
7
72
5
7
iso_b_vert
0
LINE
5
39C
100
AcDbEntity
8
SK2
62
256
6
ByLayer
370
13
48
1
60
0
100
AcDbLine
10
311
20
-28.5875
30
0
11
311
21
-73.275
31
0
39
0
210
0
220
0
230
1
0
LINE
5
39D
100
AcDbEntity
8
SK2
62
256
6
ByLayer
370
13
48
1
60
0
100
AcDbLine
10
6.1102
20
-32.8375
30
0
11
6.1102
21
-73.275
31
0
39
0
210
0
220
0
230
1
0
LINE
5
39E
100
AcDbEntity
8
SK2
62
256
6
ByLayer
370
13
48
1
60
0
100
AcDbLine
10
311
20
-70.1
30
0
11
6.1102
21
-70.1
31
0
39
0
210
0
220
0
230
1
0
SOLID
5
39F
100
AcDbEntity
8
SK2
62
256
6
ByLayer
370
18
48
1
60
0
100
AcDbTrace
10
311
20
-70.1
30
0
11
306.825003
21
-71.025575
31
0
12
306.824997
22
-69.174425
32
0
13
306.824997
23
-69.174425
33
0
39
0
210
0
220
0
230
1
0
SOLID
5
3A0
100
AcDbEntity
8
SK2
62
256
6
ByLayer
370
18
48
1
60
0
100
AcDbTrace
10
6.1102
20
-70.1
30
0
11
10.285197
21
-69.174425
31
0
12
10.285203
22
-71.025575
32
0
13
10.285203
23
-71.025575
33
0
39
0
210
0
220
0
230
1
0
ENDBLK
5
3A2
100
AcDbEntity
8
0
100
AcDbBlockEnd
0
BLOCK
5
3A7
100
AcDbEntity
8
0
100
AcDbBlockBegin
2
*D7
70
1
10
0
20
0
30
0
3
*D7
0
LINE
5
3A9
100
AcDbEntity
8
0
62
256
6
ByLayer
370
-2
48
1
60
0
100
AcDbLine
10
36
20
-28.5875
30
0
11
36
21
-63.275
31
0
39
0
210
0
220
0
230
1
0
LINE
5
3AA
100
AcDbEntity
8
0
62
256
6
ByLayer
370
-2
48
1
60
0
100
AcDbLine
10
311
20
-28.5875
30
0
11
311
21
-63.275
31
0
39
0
210
0
220
0
230
1
0
LINE
5
3AB
100
AcDbEntity
8
0
62
256
6
ByLayer
370
-2
48
1
60
0
100
AcDbLine
10
40.175
20
-60.1
30
0
11
306.825
21
-60.1
31
0
39
0
210
0
220
0
230
1
0
SOLID
5
3AC
100
AcDbEntity
8
0
62
256
6
ByLayer
370
-1
48
1
60
0
100
AcDbTrace
10
40.175
20
-59.404167
30
0
11
40.175
21
-60.795833
31
0
12
36
22
-60.1
32
0
13
36
23
-60.1
33
0
39
0
210
0
220
0
230
1
0
SOLID
5
3AD
100
AcDbEntity
8
0
62
256
6
ByLayer
370
-1
48
1
60
0
100
AcDbTrace
10
306.825
20
-60.795833
30
0
11
306.825
21
-59.404167
31
0
12
311
22
-60.1
32
0
13
311
23
-60.1
33
0
39
0
210
0
220
0
230
1
0
MTEXT
5
3AE
100
AcDbEntity
8
0
62
256
6
ByLayer
370
18
48
1
60
0
100
AcDbMText
10
173.5
20
-50.70625
30
0
210
0
220
0
230
1
1
\A1;275
40
4.5
41
0
44
1
50
0
71
5
72
5
7
iso_b_vert
0
POINT
5
3AF
100
AcDbEntity
8
Defpoints
62
0
6
ByLayer
370
-1
48
1
60
0
100
AcDbPoint
10
36
20
-27
30
0
39
0
210
0
220
0
230
1
50
360
0
POINT
5
3B0
100
AcDbEntity
8
Defpoints
62
0
6
ByLayer
370
-1
48
1
60
0
100
AcDbPoint
10
311
20
-27
30
0
39
0
210
0
220
0
230
1
50
360
0
POINT
5
3B1
100
AcDbEntity
8
Defpoints
62
0
6
ByLayer
370
-1
48
1
60
0
100
AcDbPoint
10
311
20
-60.1
30
0
39
0
210
0
220
0
230
1
50
360
0
ENDBLK
5
3A8
100
AcDbEntity
8
0
100
AcDbBlockEnd
0
BLOCK
5
3B9
100
AcDbEntity
8
0
100
AcDbBlockBegin
2
_U3
70
0
10
0
20
0
30
0
3
_U3
0
MTEXT
5
3B3
100
AcDbEntity
8
SK2
62
256
6
ByLayer
370
18
48
1
60
0
100
AcDbMText
10
169.369387
20
-58.772328
30
0
210
0
220
0
230
1
1
\W0.7138;275
40
4.5
41
0
44
1.084337
50
0
71
7
72
5
7
iso_b_vert
0
LINE
5
3B4
100
AcDbEntity
8
SK2
62
256
6
ByLayer
370
13
48
1
60
0
100
AcDbLine
10
36
20
-28.5875
30
0
11
36
21
-63.275
31
0
39
0
210
0
220
0
230
1
0
LINE
5
3B5
100
AcDbEntity
8
SK2
62
256
6
ByLayer
370
13
48
1
60
0
100
AcDbLine
10
311
20
-28.5875
30
0
11
311
21
-63.275
31
0
39
0
210
0
220
0
230
1
0
LINE
5
3B6
100
AcDbEntity
8
SK2
62
256
6
ByLayer
370
13
48
1
60
0
100
AcDbLine
10
36
20
-60.1
30
0
11
311
21
-60.1
31
0
39
0
210
0
220
0
230
1
0
SOLID
5
3B7
100
AcDbEntity
8
SK2
62
256
6
ByLayer
370
18
48
1
60
0
100
AcDbTrace
10
36
20
-60.1
30
0
11
40.174997
21
-59.174425
31
0
12
40.175003
22
-61.025575
32
0
13
40.175003
23
-61.025575
33
0
39
0
210
0
220
0
230
1
0
SOLID
5
3B8
100
AcDbEntity
8
SK2
62
256
6
ByLayer
370
18
48
1
60
0
100
AcDbTrace
10
311
20
-60.1
30
0
11
306.825003
21
-61.025575
31
0
12
306.824997
22
-59.174425
32
0
13
306.824997
23
-59.174425
33
0
39
0
210
0
220
0
230
1
0
ENDBLK
5
3BA
100
AcDbEntity
8
0
100
AcDbBlockEnd
0
BLOCK
5
3BF
100
AcDbEntity
8
0
100
AcDbBlockBegin
2
*D9
70
1
10
0
20
0
30
0
3
*D9
0
LINE
5
3C1
100
AcDbEntity
8
0
62
256
6
ByLayer
370
-2
48
1
60
0
100
AcDbLine
10
309.4109
20
-15.0875
30
0
11
309.4109
21
-53.275
31
0
39
0
210
0
220
0
230
1
0
LINE
5
3C2
100
AcDbEntity
8
0
62
256
6
ByLayer
370
-2
48
1
60
0
100
AcDbLine
10
311
20
-1.5875
30
0
11
311
21
-53.275
31
0
39
0
210
0
220
0
230
1
0
LINE
5
3C3
100
AcDbEntity
8
0
62
256
6
ByLayer
370
-2
48
1
60
0
100
AcDbLine
10
311
20
-50.1
30
0
11
346.494643
21
-50.1
31
0
39
0
210
0
220
0
230
1
0
LINE
5
3C4
100
AcDbEntity
8
0
62
256
6
ByLayer
370
-2
48
1
60
0
100
AcDbLine
10
305.2359
20
-50.1
30
0
11
301.0609
21
-50.1
31
0
39
0
210
0
220
0
230
1
0
LINE
5
3C5
100
AcDbEntity
8
0
62
256
6
ByLayer
370
-2
48
1
60
0
100
AcDbLine
10
315.175
20
-50.1
30
0
11
319.35
21
-50.1
31
0
39
0
210
0
220
0
230
1
0
SOLID
5
3C6
100
AcDbEntity
8
0
62
256
6
ByLayer
370
-1
48
1
60
0
100
AcDbTrace
10
305.2359
20
-50.795833
30
0
11
305.2359
21
-49.404167
31
0
12
309.4109
22
-50.1
32
0
13
309.4109
23
-50.1
33
0
39
0
210
0
220
0
230
1
0
SOLID
5
3C7
100
AcDbEntity
8
0
62
256
6
ByLayer
370
-1
48
1
60
0
100
AcDbTrace
10
315.175
20
-49.404167
30
0
11
315.175
21
-50.795833
31
0
12
311
22
-50.1
32
0
13
311
23
-50.1
33
0
39
0
210
0
220
0
230
1
0
MTEXT
5
3C8
100
AcDbEntity
8
0
62
256
6
ByLayer
370
18
48
1
60
0
100
AcDbMText
10
332.922321
20
-40.70625
30
0
210
0
220
0
230
1
1
\A1;1.59
40
4.5
41
0
44
1
50
0
71
5
72
5
7
iso_b_vert
0
POINT
5
3C9
100
AcDbEntity
8
Defpoints
62
0
6
ByLayer
370
-1
48
1
60
0
100
AcDbPoint
10
309.4109
20
-13.5
30
0
39
0
210
0
220
0
230
1
50
360
0
POINT
5
3CA
100
AcDbEntity
8
Defpoints
62
0
6
ByLayer
370
-1
48
1
60
0
100
AcDbPoint
10
311
20
0
30
0
39
0
210
0
220
0
230
1
50
360
0
POINT
5
3CB
100
AcDbEntity
8
Defpoints
62
0
6
ByLayer
370
-1
48
1
60
0
100
AcDbPoint
10
311
20
-50.1
30
0
39
0
210
0
220
0
230
1
50
360
0
ENDBLK
5
3C0
100
AcDbEntity
8
0
100
AcDbBlockEnd
0
BLOCK
5
3D3
100
AcDbEntity
8
0
100
AcDbBlockBegin
2
_U4
70
0
10
0
20
0
30
0
3
_U4
0
MTEXT
5
3CD
100
AcDbEntity
8
2
62
256
6
ByLayer
370
18
48
1
60
0
100
AcDbMText
10
323.351
20
-48.772328
30
0
210
0
220
0
230
1
1
\W0.6662;1.59
40
4.5
41
0
44
1.084337
50
0
71
7
72
5
7
iso_b_vert
0
LINE
5
3CE
100
AcDbEntity
8
2
62
256
6
ByLayer
370
13
48
1
60
0
100
AcDbLine
10
309.4109
20
-15.0875
30
0
11
309.4109
21
-53.275
31
0
39
0
210
0
220
0
230
1
0
LINE
5
3CF
100
AcDbEntity
8
2
62
256
6
ByLayer
370
13
48
1
60
0
100
AcDbLine
10
311
20
-1.5875
30
0
11
311
21
-53.275
31
0
39
0
210
0
220
0
230
1
0
LINE
5
3D0
100
AcDbEntity
8
2
62
256
6
ByLayer
370
13
48
1
60
0
100
AcDbLine
10
332.549041
20
-50.1
30
0
11
298.1609
21
-50.1
31
0
39
0
210
0
220
0
230
1
0
SOLID
5
3D1
100
AcDbEntity
8
2
62
256
6
ByLayer
370
18
48
1
60
0
100
AcDbTrace
10
309.4109
20
-50.1
30
0
11
305.235903
21
-51.025575
31
0
12
305.235897
22
-49.174425
32
0
13
305.235897
23
-49.174425
33
0
39
0
210
0
220
0
230
1
0
SOLID
5
3D2
100
AcDbEntity
8
2
62
256
6
ByLayer
370
18
48
1
60
0
100
AcDbTrace
10
311
20
-50.1
30
0
11
315.174997
21
-49.174425
31
0
12
315.175003
22
-51.025575
32
0
13
315.175003
23
-51.025575
33
0
39
0
210
0
220
0
230
1
0
ENDBLK
5
3D4
100
AcDbEntity
8
0
100
AcDbBlockEnd
0
ENDSEC
0
SECTION
2
ENTITIES
0
ARC
5
190
100
AcDbEntity
8
SK1
62
256
6
ByLayer
370
13
48
1
60
0
100
AcDbCircle
39
0
10
-77.894505
20
-25.396
30
0
40
0.799999999999979
210
0
220
0
230
1
100
AcDbArc
50
70.982
51
141
0
ARC
5
191
100
AcDbEntity
8
SK1
62
256
6
ByLayer
370
13
48
1
60
0
100
AcDbCircle
39
0
10
-77.894505
20
25.396
30
0
40
0.799999999999979
210
0
220
0
230
1
100
AcDbArc
50
219
51
289.018
0
ARC
5
192
100
AcDbEntity
8
SK1
62
256
6
ByLayer
370
13
48
1
60
0
100
AcDbCircle
39
0
10
-0.15
20
25.146
30
0
40
0.399999999999999
210
0
220
0
230
1
100
AcDbArc
50
270
51
292.024313
0
ARC
5
193
100
AcDbEntity
8
SK1
62
256
6
ByLayer
370
13
48
1
60
0
100
AcDbCircle
39
0
10
-0.15
20
-25.146
30
0
40
0.399999999999999
210
0
220
0
230
1
100
AcDbArc
50
67.975687
51
90
0
ARC
5
194
100
AcDbEntity
8
SK1
62
256
6
ByLayer
370
13
48
1
60
0
100
AcDbCircle
39
0
10
-1.375195
20
25.146
30
0
40
0.400000000000004
210
0
220
0
230
1
100
AcDbArc
50
245
51
270
0
ARC
5
195
100
AcDbEntity
8
SK1
62
256
6
ByLayer
370
13
48
1
60
0
100
AcDbCircle
39
0
10
-1.375195
20
-25.146
30
0
40
0.400000000000004
210
0
220
0
230
1
100
AcDbArc
50
90
51
115
0
ARC
5
196
100
AcDbEntity
8
1
62
256
6
ByLayer
370
13
48
1
60
0
100
AcDbCircle
39
0
10
307.075268
20
25.193734
30
0
40
0.2
210
0
220
0
230
1
100
AcDbArc
50
8.973565
51
93
0
ARC
5
197
100
AcDbEntity
8
1
62
256
6
ByLayer
370
13
48
1
60
0
100
AcDbCircle
39
0
10
307.266338
20
8.937984
30
0
40
0.2
210
0
220
0
230
1
100
AcDbArc
50
273
51
352.54557
0
ARC
5
198
100
AcDbEntity
8
1
62
256
6
ByLayer
370
13
48
1
60
0
100
AcDbCircle
39
0
10
292.869
20
24.183496
30
0
40
0.2
210
0
220
0
230
1
100
AcDbArc
50
79.98854
51
93
0
ARC
5
199
100
AcDbEntity
8
1
62
256
6
ByLayer
370
13
48
1
60
0
100
AcDbCircle
39
0
10
293.060069
20
7.927746
30
0
40
0.2
210
0
220
0
230
1
100
AcDbArc
50
273
51
303.773583
0
ELLIPSE
5
19A
100
AcDbEntity
8
1
62
256
6
ByLayer
370
18
48
1
60
0
100
AcDbEllipse
10
301.13055
20
17.359111
30
0
11
-0.213369888117919
21
0.330824637124186
31
0
210
0
220
0
230
1
40
0.48863
41
1.57326889137251
42
2.85513231724078
0
ELLIPSE
5
19B
100
AcDbEntity
8
1
62
256
6
ByLayer
370
18
48
1
60
0
100
AcDbEllipse
10
299.892243
20
16.551546
30
0
11
0.0675290843402799
21
-1.28853168869383
31
0
210
0
220
0
230
1
40
0.995562
41
2.0943951023932
42
-3.14159265358975
0
ELLIPSE
5
19C
100
AcDbEntity
8
1
62
256
6
ByLayer
370
18
48
1
60
0
100
AcDbEllipse
10
299.892243
20
16.551546
30
0
11
0.0675290843402799
21
-1.28853168869383
31
0
210
0
220
0
230
1
40
0.995562
41
1.0471975511966
42
2.09439510239319
0
ELLIPSE
5
19D
100
AcDbEntity
8
1
62
256
6
ByLayer
370
18
48
1
60
0
100
AcDbEllipse
10
299.892243
20
16.551546
30
0
11
-0.067529084340268
21
1.28853168869383
31
0
210
0
220
0
230
1
40
0.995562
41
-3.03775684415655
42
-2.0943951023932
0
ELLIPSE
5
19E
100
AcDbEntity
8
1
62
256
6
ByLayer
370
18
48
1
60
0
100
AcDbEllipse
10
300.04026
20
16.559304
30
0
11
0.0877359970456833
21
-1.67410255206257
31
0
210
0
220
0
230
1
40
0.995562
41
-1.5707963267949
42
-0.523598775598303
0
ELLIPSE
5
19F
100
AcDbEntity
8
1
62
256
6
ByLayer
370
18
48
1
60
0
100
AcDbEllipse
10
301.367036
20
16.628837
30
0
11
-0.0206256003553436
21
0.393559899646806
31
0
210
0
220
0
230
1
40
0.48755
41
-2.94566518558253
42
-0.32041837479266
0
ELLIPSE
5
1A0
100
AcDbEntity
8
1
62
256
6
ByLayer
370
18
48
1
60
0
100
AcDbEllipse
10
299.892243
20
16.551546
30
0
11
0.0675290843402799
21
-1.28853168869383
31
0
210
0
220
0
230
1
40
0.995562
41
-3.14159265358975
42
-2.35315137984981
0
ELLIPSE
5
1A1
100
AcDbEntity
8
1
62
256
6
ByLayer
370
18
48
1
60
0
100
AcDbEllipse
10
300.562405
20
17.873093
30
0
11
-0.349414799997391
21
0.179424606472491
31
0
210
0
220
0
230
1
40
0.490808
41
2.94818767871616
42
-0.625002372328909
0
ELLIPSE
5
1A2
100
AcDbEntity
8
1
62
256
6
ByLayer
370
18
48
1
60
0
100
AcDbEllipse
10
300.04026
20
16.559304
30
0
11
0.0877359970456833
21
-1.67410255206257
31
0
210
0
220
0
230
1
40
0.995562
41
0.523598775598323
42
1.5707963267949
0
ELLIPSE
5
1A3
100
AcDbEntity
8
1
62
256
6
ByLayer
370
18
48
1
60
0
100
AcDbEllipse
10
299.814613
20
18.032813
30
0
11
-0.391813266880296
21
-0.0205340632102589
31
0
210
0
220
0
230
1
40
0.491907
41
0.288932900934657
42
1.5707963267949
0
ELLIPSE
5
1A4
100
AcDbEntity
8
1
62
256
6
ByLayer
370
18
48
1
60
0
100
AcDbEllipse
10
300.696873
20
15.30729
30
0
11
-0.328745690776159
21
-0.214965491791418
31
0
210
0
220
0
230
1
40
0.490808
41
0.673312264880874
42
-2.9481876787166
0
ELLIPSE
5
1A5
100
AcDbEntity
8
1
62
256
6
ByLayer
370
18
48
1
60
0
100
AcDbEllipse
10
301.20818
20
15.877844
30
0
11
-0.177620434620998
21
-0.351315571666608
31
0
210
0
220
0
230
1
40
0.48863
41
-1.57326889136264
42
-0.291405465515655
0
ELLIPSE
5
1A6
100
AcDbEntity
8
1
62
256
6
ByLayer
370
18
48
1
60
0
100
AcDbEllipse
10
299.969873
20
15.070279
30
0
11
-0.391813266881831
21
-0.0205340632105625
31
0
210
0
220
0
230
1
40
0.491907
41
-1.5707963267949
42
-0.288932900934054
0
ELLIPSE
5
1A7
100
AcDbEntity
8
1
62
256
6
ByLayer
370
18
48
1
60
0
100
AcDbEllipse
10
301.13055
20
17.359111
30
0
11
-0.213369888121059
21
0.330824637128715
31
0
210
0
220
0
230
1
40
0.48863
41
0.291405465518092
42
1.57326889137161
0
ELLIPSE
5
1A8
100
AcDbEntity
8
1
62
256
6
ByLayer
370
18
48
1
60
0
100
AcDbEllipse
10
300.04026
20
16.559304
30
0
11
0.0877359970456833
21
-1.67410255206257
31
0
210
0
220
0
230
1
40
0.995562
41
2.61799387799147
42
-2.61799387799149
0
ELLIPSE
5
1A9
100
AcDbEntity
8
1
62
256
6
ByLayer
370
18
48
1
60
0
100
AcDbEllipse
10
300.04026
20
16.559304
30
0
11
0.0877359970456833
21
-1.67410255206257
31
0
210
0
220
0
230
1
40
0.995562
41
-2.61799387799149
42
-1.5707963267949
0
ELLIPSE
5
1AA
100
AcDbEntity
8
1
62
256
6
ByLayer
370
18
48
1
60
0
100
AcDbEllipse
10
300.04026
20
16.559304
30
0
11
-0.0942047212372956
21
1.79753316255823
31
0
210
0
220
0
230
1
40
0.995562
41
0
42
6.28318530717959
0
ELLIPSE
5
1AB
100
AcDbEntity
8
1
62
256
6
ByLayer
370
18
48
1
60
0
100
AcDbEllipse
10
299.892243
20
16.551546
30
0
11
0.0675290843402799
21
-1.28853168869383
31
0
210
0
220
0
230
1
40
0.995562
41
-0.771408608870109
42
0
0
ELLIPSE
5
1AC
100
AcDbEntity
8
1
62
256
6
ByLayer
370
18
48
1
60
0
100
AcDbEllipse
10
299.965077
20
16.555363
30
0
11
-0.149157475292384
21
2.84609417405054
31
0
210
0
220
0
230
1
40
0.995562
41
0
42
3.1414943057158
0
ELLIPSE
5
1AD
100
AcDbEntity
8
1
62
256
6
ByLayer
370
18
48
1
60
0
100
AcDbEllipse
10
300.04026
20
16.559304
30
0
11
0.0877359970456833
21
-1.67410255206257
31
0
210
0
220
0
230
1
40
0.995562
41
-0.523598775598303
42
0.523598775598323
0
ELLIPSE
5
1AE
100
AcDbEntity
8
1
62
256
6
ByLayer
370
18
48
1
60
0
100
AcDbEllipse
10
299.222081
20
15.229999
30
0
11
-0.349414799997416
21
0.17942460647246
31
0
210
0
220
0
230
1
40
0.490808
41
2.51659138569076
42
-2.94320654539724
0
ELLIPSE
5
1AF
100
AcDbEntity
8
1
62
256
6
ByLayer
370
18
48
1
60
0
100
AcDbEllipse
10
299.087613
20
17.795802
30
0
11
-0.328745690776174
21
-0.214965491791401
31
0
210
0
220
0
230
1
40
0.490808
41
2.94320654539749
42
-2.46828145615018
0
ELLIPSE
5
1B0
100
AcDbEntity
8
1
62
256
6
ByLayer
370
18
48
1
60
0
100
AcDbEllipse
10
301.20818
20
15.877844
30
0
11
-0.177620434615871
21
-0.35131557166261
31
0
210
0
220
0
230
1
40
0.48863
41
-2.85513231724047
42
-1.57326889137957
0
ELLIPSE
5
1B1
100
AcDbEntity
8
1
62
256
6
ByLayer
370
18
48
1
60
0
100
AcDbEllipse
10
299.892243
20
16.551546
30
0
11
0.0675290843402799
21
-1.28853168869383
31
0
210
0
220
0
230
1
40
0.995562
41
-1.89285840703661
42
-1.23277995487282
0
ELLIPSE
5
1B2
100
AcDbEntity
8
1
62
256
6
ByLayer
370
18
48
1
60
0
100
AcDbEllipse
10
300.04026
20
16.559304
30
0
11
0.0877359970456833
21
-1.67410255206257
31
0
210
0
220
0
230
1
40
0.995562
41
1.5707963267949
42
2.61799387799147
0
ELLIPSE
5
1B3
100
AcDbEntity
8
1
62
256
6
ByLayer
370
18
48
1
60
0
100
AcDbEllipse
10
300.032817
20
16.558913
30
0
11
-0.149157475292384
21
2.84609417405054
31
0
210
0
220
0
230
1
40
0.995562
41
0
42
6.28318530717959
0
ELLIPSE
5
1B4
100
AcDbEntity
8
1
62
256
6
ByLayer
370
18
48
1
60
0
100
AcDbEllipse
10
300.0001
20
-7.995375
30
0
11
2
21
0
31
0
210
0
220
0
230
1
40
0.993027
41
0.507269144268835
42
2.85541335742287
0
ELLIPSE
5
1B5
100
AcDbEntity
8
1
62
256
6
ByLayer
370
18
48
1
60
0
100
AcDbEllipse
10
300.0001
20
-7.936431
30
0
11
-1.5
21
1.51595858262354E-15
31
0
210
0
220
0
230
1
40
0.993027
41
-2.85639486693305
42
-0.040545906929472
0
ELLIPSE
5
1B6
100
AcDbEntity
8
1
62
256
6
ByLayer
370
13
48
1
60
0
100
AcDbEllipse
10
309.26377
20
8.344344
30
0
11
-0.223427026962982
21
-1.09873092469316
31
0
210
0
220
0
230
1
40
0.060635
41
1.0653631695036
42
1.25922190570112
0
ELLIPSE
5
1B7
100
AcDbEntity
8
1
62
256
6
ByLayer
370
13
48
1
60
0
100
AcDbEllipse
10
291.893833
20
6.388861
30
0
11
0.0065370786798103
21
-0.149857487641873
31
0
210
0
220
0
230
1
40
0.094105
41
-1.56997142650778
42
0.000824900290362992
0
ELLIPSE
5
1B8
100
AcDbEntity
8
1
62
256
6
ByLayer
370
13
48
1
60
0
100
AcDbEllipse
10
291.451633
20
16.072801
30
0
11
-0.148732254109673
21
0.0194606420103707
31
0
210
0
220
0
230
1
40
0.01715
41
1.47811763731161
42
3.0489139641096
0
ELLIPSE
5
1B9
100
AcDbEntity
8
1
62
256
6
ByLayer
370
13
48
1
60
0
100
AcDbEllipse
10
299.981192
20
16.556208
30
0
11
0.156043507061215
21
-2.97748748746711
31
0
210
0
220
0
230
1
40
0.995562
41
0
42
6.28318530717959
0
ELLIPSE
5
1BA
100
AcDbEntity
8
1
62
256
6
ByLayer
370
13
48
1
60
0
100
AcDbEllipse
10
306.867557
20
6.65304
30
0
11
-0.104671912485884
21
1.99725906950915
31
0
210
0
220
0
230
1
40
0.995562
41
-0.289833749672744
42
-2.25666238027513E-12
0
ELLIPSE
5
1BB
100
AcDbEntity
8
1
62
256
6
ByLayer
370
13
48
1
60
0
100
AcDbEllipse
10
291.454869
20
15.828887
30
0
11
-0.148164061728341
21
-0.0233968120084844
31
0
210
0
220
0
230
1
40
0.009837
41
-3.04785814605871
42
-1.47706181926945
0
ELLIPSE
5
1BC
100
AcDbEntity
8
1
62
256
6
ByLayer
370
13
48
1
60
0
100
AcDbEllipse
10
305.155611
20
27.091454
30
0
11
0.104671912485902
21
-1.99725906950915
31
0
210
0
220
0
230
1
40
0.995562
41
0
42
0.289833749668384
0
ELLIPSE
5
1BD
100
AcDbEntity
8
1
62
256
6
ByLayer
370
13
48
1
60
0
100
AcDbEllipse
10
290.467627
20
23.865929
30
0
11
-0.0433887818670583
21
-0.261709360228594
31
0
210
0
220
0
230
1
40
0.938419
41
-2.83001826181146
42
-1.53436336015902
0
ELLIPSE
5
1BE
100
AcDbEntity
8
1
62
256
6
ByLayer
370
13
48
1
60
0
100
AcDbEllipse
10
300.482693
20
8.641608
30
0
11
0.0104671912485902
21
-0.199725906950915
31
0
210
0
220
0
230
1
40
0.094108
41
0
42
1.5707963267949
0
ELLIPSE
5
1BF
100
AcDbEntity
8
1
62
256
6
ByLayer
370
13
48
1
60
0
100
AcDbEllipse
10
307.607711
20
8.896493
30
0
11
-0.042020430478918
21
-0.159048282690427
31
0
210
0
220
0
230
1
40
0.081731
41
-1.54456248515052
42
0.0262338416995709
0
ELLIPSE
5
1C0
100
AcDbEntity
8
1
62
256
6
ByLayer
370
13
48
1
60
0
100
AcDbEllipse
10
293.060069
20
7.927746
30
0
11
0.111182483439533
21
-0.166248174053786
31
0
210
0
220
0
230
1
40
0.080951
41
-1.97154910879978E-05
42
1.52262748697044
0
ELLIPSE
5
1C1
100
AcDbEntity
8
1
62
256
6
ByLayer
370
13
48
1
60
0
100
AcDbEllipse
10
305.79467
20
27.124946
30
0
11
-0.104671912485884
21
1.99725906950915
31
0
210
0
220
0
230
1
40
0.995562
41
3.14159265358754
42
-1.82037975282034
0
ELLIPSE
5
1C2
100
AcDbEntity
8
1
62
256
6
ByLayer
370
13
48
1
60
0
100
AcDbEllipse
10
291.801813
20
16.027283
30
0
11
-0.19830967214623
21
0.0259475226804943
31
0
210
0
220
0
230
1
40
0.01715
41
-1.66347501627447
42
-0.0926786894753416
0
ELLIPSE
5
1C3
100
AcDbEntity
8
1
62
256
6
ByLayer
370
13
48
1
60
0
100
AcDbEllipse
10
291.402055
20
6.938014
30
0
11
0.0366351693700666
21
-0.699040674328219
31
0
210
0
220
0
230
1
40
0.995562
41
-1.46607657167296
42
-0.0801412288213185
0
ELLIPSE
5
1C4
100
AcDbEntity
8
1
62
256
6
ByLayer
370
13
48
1
60
0
100
AcDbEllipse
10
289.436294
20
15.845866
30
0
11
-0.148164061728341
21
-0.0233968120084844
31
0
210
0
220
0
230
1
40
0.009837
41
-1.47706181926708
42
-0.267630172926763
0
ELLIPSE
5
1C5
100
AcDbEntity
8
1
62
256
6
ByLayer
370
13
48
1
60
0
100
AcDbEllipse
10
307.075268
20
25.193734
30
0
11
-0.111182483439505
21
0.166248174053805
31
0
210
0
220
0
230
1
40
0.080951
41
-1.61896516661963
42
-0.0481688398326077
0
ELLIPSE
5
1C6
100
AcDbEntity
8
1
62
256
6
ByLayer
370
13
48
1
60
0
100
AcDbEllipse
10
308.232107
20
26.732126
30
0
11
-0.00653707867981058
21
0.149857487641873
31
0
210
0
220
0
230
1
40
0.094105
41
0.000824900282309094
42
1.57162122708202
0
ELLIPSE
5
1C7
100
AcDbEntity
8
1
62
256
6
ByLayer
370
13
48
1
60
0
100
AcDbEllipse
10
292.276561
20
15.960921
30
0
11
0.0444855628065086
21
-0.848835104541391
31
0
210
0
220
0
230
1
40
0.995562
41
-1.75405589825431
42
-1.46607657167519
0
ELLIPSE
5
1C8
100
AcDbEntity
8
1
62
256
6
ByLayer
370
13
48
1
60
0
100
AcDbEllipse
10
310.689646
20
17.275121
30
0
11
0.148164061728345
21
0.0233968120084578
31
0
210
0
220
0
230
1
40
0.009837
41
0.0937345075250187
42
1.66453083432158
0
ELLIPSE
5
1C9
100
AcDbEntity
8
1
62
256
6
ByLayer
370
13
48
1
60
0
100
AcDbEllipse
10
289.981797
20
15.932025
30
0
11
0.0366351693700677
21
-0.69904067432824
31
0
210
0
220
0
230
1
40
0.995562
41
-1.75405589825232
42
-1.46607657167312
0
ELLIPSE
5
1CA
100
AcDbEntity
8
1
62
256
6
ByLayer
370
13
48
1
60
0
100
AcDbEllipse
10
290.469436
20
23.880045
30
0
11
0.0078503934364425
21
-0.149794430213183
31
0
210
0
220
0
230
1
40
0.995562
41
-3.02814625221364
42
-1.75405589825278
0
ELLIPSE
5
1CB
100
AcDbEntity
8
1
62
256
6
ByLayer
370
13
48
1
60
0
100
AcDbEllipse
10
292.576349
20
24.284947
30
0
11
0.00523359562429638
21
-0.0998629534754816
31
0
210
0
220
0
230
1
40
0.995562
41
1.38753675533668
42
3.1415894521632
0
ELLIPSE
5
1CC
100
AcDbEntity
8
1
62
256
6
ByLayer
370
13
48
1
60
0
100
AcDbEllipse
10
290.363346
20
25.038788
30
0
11
-0.0433887818131027
21
-0.261709360246073
31
0
210
0
220
0
230
1
40
0.938419
41
-2.83001826200861
42
-2.21164798412401
0
ELLIPSE
5
1CD
100
AcDbEntity
8
1
62
256
6
ByLayer
370
13
48
1
60
0
100
AcDbEllipse
10
293.060069
20
7.927746
30
0
11
0.19755208230446
21
0.0311957493446105
31
0
210
0
220
0
230
1
40
0.009837
41
-3.04785814606402
42
-1.4770618192672
0
ELLIPSE
5
1CE
100
AcDbEntity
8
1
62
256
6
ByLayer
370
13
48
1
60
0
100
AcDbEllipse
10
292.581048
20
24.285193
30
0
11
0.00523359562429638
21
-0.0998629534754816
31
0
210
0
220
0
230
1
40
0.995562
41
1.38753675533899
42
-3.02814625220925
0
ELLIPSE
5
1CF
100
AcDbEntity
8
1
62
256
6
ByLayer
370
13
48
1
60
0
100
AcDbEllipse
10
294.340668
20
5.996534
30
0
11
-0.109905508110177
21
2.09712202298459
31
0
210
0
220
0
230
1
40
0.995562
41
0.718961233331388
42
1.32121290077369
0
ELLIPSE
5
1D0
100
AcDbEntity
8
1
62
256
6
ByLayer
370
13
48
1
60
0
100
AcDbEllipse
10
292.076336
20
6.446746
30
0
11
-0.00261679781214718
21
0.0499314767377304
31
0
210
0
220
0
230
1
40
0.995562
41
3.13286600733224
42
-1.82037975281813
0
ELLIPSE
5
1D1
100
AcDbEntity
8
1
62
256
6
ByLayer
370
13
48
1
60
0
100
AcDbEllipse
10
292.869
20
24.183496
30
0
11
0.0104671912485902
21
-0.199725906950915
31
0
210
0
220
0
230
1
40
0.995562
41
-3.14157548478775
42
-1.75405589825229
0
ELLIPSE
5
1D2
100
AcDbEntity
8
1
62
256
6
ByLayer
370
13
48
1
60
0
100
AcDbEllipse
10
308.489618
20
17.985798
30
0
11
-0.457939617125742
21
8.73800842910253
31
0
210
0
220
0
230
1
40
0.995562
41
-0.0801412288236394
42
-0.0245785262960327
0
ELLIPSE
5
1D3
100
AcDbEntity
8
1
62
256
6
ByLayer
370
13
48
1
60
0
100
AcDbEllipse
10
307.549591
20
8.836041
30
0
11
0.00523359562429638
21
-0.0998629534754816
31
0
210
0
220
0
230
1
40
0.995562
41
-4.94053654458538E-06
42
0.113446401382795
0
ELLIPSE
5
1D4
100
AcDbEntity
8
1
62
256
6
ByLayer
370
13
48
1
60
0
100
AcDbEllipse
10
292.518229
20
24.224494
30
0
11
-0.157457627838011
21
-0.0472734989303868
31
0
210
0
220
0
230
1
40
0.020424
41
-3.05807782802159
42
-1.48728150142681
0
ELLIPSE
5
1D5
100
AcDbEntity
8
1
62
256
6
ByLayer
370
13
48
1
60
0
100
AcDbEllipse
10
310.69174
20
17.117294
30
0
11
0.148732254109672
21
-0.0194606420103756
31
0
210
0
220
0
230
1
40
0.01715
41
-1.66347501627629
42
-0.0926786894801983
0
ELLIPSE
5
1D6
100
AcDbEntity
8
1
62
256
6
ByLayer
370
13
48
1
60
0
100
AcDbEllipse
10
307.266338
20
8.937984
30
0
11
0.0104671912485902
21
-0.199725906950915
31
0
210
0
220
0
230
1
40
0.995562
41
-0.22611905428479
42
1.75822315794749E-05
0
ELLIPSE
5
1D7
100
AcDbEntity
8
1
62
256
6
ByLayer
370
13
48
1
60
0
100
AcDbEllipse
10
292.751095
20
26.441361
30
0
11
-1.90001443048494
21
1.34408422197862
31
0
210
0
220
0
230
1
40
0.758703
41
1.08025569956776
42
2.08597699581389
0
ELLIPSE
5
1D8
100
AcDbEntity
8
1
62
256
6
ByLayer
370
13
48
1
60
0
100
AcDbEllipse
10
292.314152
20
15.962891
30
0
11
-0.0261679781214711
21
0.49931476737729
31
0
210
0
220
0
230
1
40
0.995562
41
1.3875367553356
42
1.67551608191459
0
ELLIPSE
5
1D9
100
AcDbEntity
8
1
62
256
6
ByLayer
370
13
48
1
60
0
100
AcDbEllipse
10
291.82213
20
8.137438
30
0
11
0.099438316861607
21
-1.89739611603369
31
0
210
0
220
0
230
1
40
0.995562
41
-0.0245785262938025
42
-0.00872664625779948
0
ELLIPSE
5
1DA
100
AcDbEntity
8
1
62
256
6
ByLayer
370
13
48
1
60
0
100
AcDbEllipse
10
310.134745
20
17.18847
30
0
11
-0.0287847759336201
21
0.549246244115055
31
0
210
0
220
0
230
1
40
0.995562
41
-1.75405589825451
42
-1.46607657167533
0
ELLIPSE
5
1DB
100
AcDbEntity
8
1
62
256
6
ByLayer
370
13
48
1
60
0
100
AcDbEllipse
10
292.808807
20
7.574003
30
0
11
0.00523359562429622
21
-0.0998629534754786
31
0
210
0
220
0
230
1
40
0.995562
41
0.718961233326851
42
1.67551608191159
0
ELLIPSE
5
1DC
100
AcDbEntity
8
1
62
256
6
ByLayer
370
13
48
1
60
0
100
AcDbEllipse
10
307.821185
20
17.158589
30
0
11
0.0444855628065086
21
-0.848835104541391
31
0
210
0
220
0
230
1
40
0.995562
41
1.38753675533555
42
1.67551608191467
0
ELLIPSE
5
1DD
100
AcDbEntity
8
1
62
256
6
ByLayer
370
13
48
1
60
0
100
AcDbEllipse
10
292.518229
20
24.224494
30
0
11
-0.0420204304826648
21
-0.159048282703888
31
0
210
0
220
0
230
1
40
0.081731
41
-3.11535881188849
42
-1.54456248513443
0
ELLIPSE
5
1DE
100
AcDbEntity
8
1
62
256
6
ByLayer
370
13
48
1
60
0
100
AcDbEllipse
10
307.266338
20
8.937984
30
0
11
-0.19830967214623
21
0.0259475226804943
31
0
210
0
220
0
230
1
40
0.01715
41
-3.14146404084242
42
-1.6634750162765
0
ELLIPSE
5
1DF
100
AcDbEntity
8
1
62
256
6
ByLayer
370
13
48
1
60
0
100
AcDbEllipse
10
308.508414
20
17.986783
30
0
11
0.465790010562265
21
-8.88780285931571
31
0
210
0
220
0
230
1
40
0.995562
41
3.06145142476398
42
3.1170141272916
0
ELLIPSE
5
1E0
100
AcDbEntity
8
1
62
256
6
ByLayer
370
13
48
1
60
0
100
AcDbEllipse
10
309.667711
20
9.255551
30
0
11
-0.0433887818450116
21
-0.261709360235581
31
0
210
0
220
0
230
1
40
0.938419
41
0.311574391697454
42
1.60722929333748
0
ELLIPSE
5
1E1
100
AcDbEntity
8
1
62
256
6
ByLayer
370
13
48
1
60
0
100
AcDbEllipse
10
292.869
20
24.183496
30
0
11
-0.0347690313632471
21
-0.196954599992134
31
0
210
0
220
0
230
1
40
0.091713
41
1.59198601757173
42
-3.1204029628466
0
ELLIPSE
5
1E2
100
AcDbEntity
8
1
62
256
6
ByLayer
370
13
48
1
60
0
100
AcDbEllipse
10
294.340668
20
5.996534
30
0
11
-0.104671912485884
21
1.99725906950915
31
0
210
0
220
0
230
1
40
0.995562
41
0
42
1.32121290077377
0
ELLIPSE
5
1E3
100
AcDbEntity
8
1
62
256
6
ByLayer
370
13
48
1
60
0
100
AcDbEllipse
10
290.464737
20
23.879799
30
0
11
0.0248313114065447
21
-0.147930409226201
31
0
210
0
220
0
230
1
40
0.093503
41
-3.04696247418904
42
-1.58149677262184
0
ELLIPSE
5
1E4
100
AcDbEntity
8
1
62
256
6
ByLayer
370
13
48
1
60
0
100
AcDbEllipse
10
308.674306
20
17.048186
30
0
11
0.148732254109672
21
-0.0194606420103756
31
0
210
0
220
0
230
1
40
0.01715
41
-2.85472889772593
42
-1.66347501627441
0
ELLIPSE
5
1E5
100
AcDbEntity
8
1
62
256
6
ByLayer
370
13
48
1
60
0
100
AcDbEllipse
10
305.775874
20
27.123961
30
0
11
0.117755901546639
21
-2.24691645319778
31
0
210
0
220
0
230
1
40
0.995562
41
0.730529197227599
42
1.32121290077155
0
ELLIPSE
5
1E6
100
AcDbEntity
8
1
62
256
6
ByLayer
370
13
48
1
60
0
100
AcDbEllipse
10
292.869
20
24.183496
30
0
11
0.198309672146229
21
-0.0259475226805007
31
0
210
0
220
0
230
1
40
0.01715
41
1.47811763731447
42
3.04891396409573
0
ELLIPSE
5
1E7
100
AcDbEntity
8
1
62
256
6
ByLayer
370
13
48
1
60
0
100
AcDbEllipse
10
299.652645
20
24.479872
30
0
11
0.0104671912485902
21
-0.199725906950915
31
0
210
0
220
0
230
1
40
0.094108
41
1.5707963267949
42
3.14159265358979
0
ELLIPSE
5
1E8
100
AcDbEntity
8
1
62
256
6
ByLayer
370
13
48
1
60
0
100
AcDbEllipse
10
307.764536
20
26.673651
30
0
11
-0.279576450841445
21
-0.214084669593527
31
0
210
0
220
0
230
1
40
0.473311
41
-2.36298044736571
42
-1.2163004717997
0
ELLIPSE
5
1E9
100
AcDbEntity
8
1
62
256
6
ByLayer
370
13
48
1
60
0
100
AcDbEllipse
10
289.963001
20
15.931039
30
0
11
-0.0287847759336201
21
0.549246244115055
31
0
210
0
220
0
230
1
40
0.995562
41
1.38753675533528
42
1.67551608191457
0
ELLIPSE
5
1EA
100
AcDbEntity
8
1
62
256
6
ByLayer
370
13
48
1
60
0
100
AcDbEllipse
10
307.607711
20
8.896493
30
0
11
-0.157457627847295
21
-0.0472734989320989
31
0
210
0
220
0
230
1
40
0.020424
41
-1.48728150103644
42
0.0835148255140722
0
ELLIPSE
5
1EB
100
AcDbEntity
8
1
62
256
6
ByLayer
370
13
48
1
60
0
100
AcDbEllipse
10
308.033324
20
26.723455
30
0
11
-0.00653707867981058
21
0.149857487641873
31
0
210
0
220
0
230
1
40
0.094105
41
0.000824900282309094
42
1.57162122708202
0
ELLIPSE
5
1EC
100
AcDbEntity
8
1
62
256
6
ByLayer
370
13
48
1
60
0
100
AcDbEllipse
10
308.733283
20
26.183466
30
0
11
0.0366351693700666
21
-0.699040674328219
31
0
210
0
220
0
230
1
40
0.995562
41
1.67551608191251
42
3.06145142476398
0
ELLIPSE
5
1ED
100
AcDbEntity
8
1
62
256
6
ByLayer
370
13
48
1
60
0
100
AcDbEllipse
10
292.095132
20
6.447731
30
0
11
0.0104671912485903
21
-0.199725906950916
31
0
210
0
220
0
230
1
40
0.995562
41
-0.00872664625584564
42
1.32121290077371
0
ELLIPSE
5
1EE
100
AcDbEntity
8
1
62
256
6
ByLayer
370
13
48
1
60
0
100
AcDbEllipse
10
292.290657
20
15.96166
30
0
11
-0.0366351693700595
21
0.699040674328205
31
0
210
0
220
0
230
1
40
0.995562
41
1.38753675533548
42
1.67551608191464
0
ELLIPSE
5
1EF
100
AcDbEntity
8
1
62
256
6
ByLayer
370
13
48
1
60
0
100
AcDbEllipse
10
306.350872
20
6.625962
30
0
11
-1.52607791222355
21
-1.67412290957686
31
0
210
0
220
0
230
1
40
0.751206
41
2.57980957995286
42
-2.78125477170043
0
ELLIPSE
5
1F0
100
AcDbEntity
8
1
62
256
6
ByLayer
370
13
48
1
60
0
100
AcDbEllipse
10
305.984901
20
27.134939
30
0
11
-2.31077056103971
21
-1.76943250631614
31
0
210
0
220
0
230
1
40
0.473319
41
1.89964585801685
42
1.9253031363744
0
ELLIPSE
5
1F1
100
AcDbEntity
8
1
62
256
6
ByLayer
370
13
48
1
60
0
100
AcDbEllipse
10
292.151774
20
6.43635
30
0
11
0.0126644888425904
21
-0.241652842685642
31
0
210
0
220
0
230
1
40
0.995562
41
0.174532925201929
42
1.32121290077297
0
ELLIPSE
5
1F2
100
AcDbEntity
8
1
62
256
6
ByLayer
370
13
48
1
60
0
100
AcDbEllipse
10
307.55429
20
8.836287
30
0
11
0.00523359562429638
21
-0.0998629534754816
31
0
210
0
220
0
230
1
40
0.995562
41
-1.75405589825543
42
0.113446401375959
0
ELLIPSE
5
1F3
100
AcDbEntity
8
1
62
256
6
ByLayer
370
13
48
1
60
0
100
AcDbEllipse
10
309.132933
20
8.0492
30
0
11
-0.043388782679797
21
-0.261709359768317
31
0
210
0
220
0
230
1
40
0.938419
41
0.311574395064592
42
0.505433144190854
0
ELLIPSE
5
1F4
100
AcDbEntity
8
1
62
256
6
ByLayer
370
13
48
1
60
0
100
AcDbEllipse
10
292.139249
20
6.437676
30
0
11
-0.14712330593585
21
0.0292358145175791
31
0
210
0
220
0
230
1
40
0.023245
41
1.47945230342045
42
3.05024863021233
0
ELLIPSE
5
1F5
100
AcDbEntity
8
1
62
256
6
ByLayer
370
13
48
1
60
0
100
AcDbEllipse
10
292.813506
20
7.574249
30
0
11
0.00523359562429622
21
-0.0998629534754786
31
0
210
0
220
0
230
1
40
0.995562
41
0.718961233330121
42
1.67551608191731
0
ELLIPSE
5
1F6
100
AcDbEntity
8
1
62
256
6
ByLayer
370
13
48
1
60
0
100
AcDbEllipse
10
294.321872
20
5.995549
30
0
11
0.117755901546639
21
-2.24691645319778
31
0
210
0
220
0
230
1
40
0.995562
41
-2.41106345636226
42
-1.82037975281827
0
ELLIPSE
5
1F7
100
AcDbEntity
8
1
62
256
6
ByLayer
370
13
48
1
60
0
100
AcDbEllipse
10
309.661203
20
9.241188
30
0
11
0.148732254109672
21
-0.0194606420103756
31
0
210
0
220
0
230
1
40
0.01715
41
-1.66347501628541
42
-0.0926786894767254
0
ELLIPSE
5
1F8
100
AcDbEntity
8
1
62
256
6
ByLayer
370
13
48
1
60
0
100
AcDbEllipse
10
291.626923
20
15.134697
30
0
11
0.465790010562265
21
-8.88780285931571
31
0
210
0
220
0
230
1
40
0.995562
41
-0.0801412288214848
42
-0.0245785262938908
0
ELLIPSE
5
1F9
100
AcDbEntity
8
1
62
256
6
ByLayer
370
13
48
1
60
0
100
AcDbEllipse
10
309.665902
20
9.241435
30
0
11
0.0078503934364425
21
-0.149794430213183
31
0
210
0
220
0
230
1
40
0.995562
41
0.11344640137196
42
1.38753675533278
0
ELLIPSE
5
1FA
100
AcDbEntity
8
1
62
256
6
ByLayer
370
13
48
1
60
0
100
AcDbEllipse
10
307.983564
20
26.68513
30
0
11
0.0126644888425904
21
-0.241652842685642
31
0
210
0
220
0
230
1
40
0.995562
41
-2.967059728392
42
-1.82037975282118
0
ELLIPSE
5
1FB
100
AcDbEntity
8
1
62
256
6
ByLayer
370
13
48
1
60
0
100
AcDbEllipse
10
307.266338
20
8.937984
30
0
11
0.0347690313632358
21
0.196954599992136
31
0
210
0
220
0
230
1
40
0.091713
41
-3.1204029627816
42
-1.54960663601778
0
ELLIPSE
5
1FC
100
AcDbEntity
8
1
62
256
6
ByLayer
370
13
48
1
60
0
100
AcDbEllipse
10
309.269388
20
26.269132
30
0
11
0.148164061728345
21
0.0233968120084578
31
0
210
0
220
0
230
1
40
0.009837
41
0.0937345075201889
42
1.66453083432196
0
ELLIPSE
5
1FD
100
AcDbEntity
8
1
62
256
6
ByLayer
370
13
48
1
60
0
100
AcDbEllipse
10
307.075268
20
25.193734
30
0
11
0.0104671912485902
21
-0.199725906950915
31
0
210
0
220
0
230
1
40
0.995562
41
3.14156912556462
42
-2.60644555907459
0
ELLIPSE
5
1FE
100
AcDbEntity
8
1
62
256
6
ByLayer
370
13
48
1
60
0
100
AcDbEllipse
10
290.464737
20
23.879799
30
0
11
-0.148732254109673
21
0.0194606420103707
31
0
210
0
220
0
230
1
40
0.01715
41
0.26591595118857
42
1.47811763732419
0
ELLIPSE
5
1FF
100
AcDbEntity
8
1
62
256
6
ByLayer
370
13
48
1
60
0
100
AcDbEllipse
10
308.259707
20
26.73311
30
0
11
-0.00415024464891743
21
0.149942573905326
31
0
210
0
220
0
230
1
40
0.09408
41
0.00232311668849371
42
1.57311944348265
0
ELLIPSE
5
200
100
AcDbEntity
8
1
62
256
6
ByLayer
370
13
48
1
60
0
100
AcDbEllipse
10
307.321831
20
25.547231
30
0
11
0.00523359562429622
21
-0.0998629534754786
31
0
210
0
220
0
230
1
40
0.995562
41
-2.42263142026473
42
-1.46607657167649
0
ELLIPSE
5
201
100
AcDbEntity
8
1
62
256
6
ByLayer
370
13
48
1
60
0
100
AcDbEllipse
10
300.006755
20
16.557548
30
0
11
0.161488764830088
21
-3.08138919525488
31
0
210
0
220
0
230
1
40
0.995562
41
-0.832617303636161
42
0
0
ELLIPSE
5
202
100
AcDbEntity
8
1
62
256
6
ByLayer
370
13
48
1
60
0
100
AcDbEllipse
10
300.006755
20
16.557548
30
0
11
0.161488764830088
21
-3.08138919525488
31
0
210
0
220
0
230
1
40
0.995562
41
0
42
-2.30896949140968
0
ELLIPSE
5
203
100
AcDbEntity
8
1
62
256
6
ByLayer
370
13
48
1
60
0
100
AcDbEllipse
10
305.672296
20
27.118533
30
0
11
-1.74911089441393
21
-1.53532677658452
31
0
210
0
220
0
230
1
40
0.758703
41
1.05561565777887
42
2.06133695402187
0
ELLIPSE
5
204
100
AcDbEntity
8
1
62
256
6
ByLayer
370
13
48
1
60
0
100
AcDbEllipse
10
308.040205
20
26.673749
30
0
11
0.0104671912485903
21
-0.199725906950916
31
0
210
0
220
0
230
1
40
0.995562
41
3.13286600733024
42
-1.82037975282048
0
ELLIPSE
5
205
100
AcDbEntity
8
1
62
256
6
ByLayer
370
13
48
1
60
0
100
AcDbEllipse
10
308.728584
20
26.18322
30
0
11
0.0366351693700666
21
-0.699040674328219
31
0
210
0
220
0
230
1
40
0.995562
41
1.67551608191463
42
3.06145142476619
0
ELLIPSE
5
206
100
AcDbEntity
8
1
62
256
6
ByLayer
370
13
48
1
60
0
100
AcDbEllipse
10
307.986691
20
26.683311
30
0
11
0.147123305935851
21
-0.029235814517576
31
0
210
0
220
0
230
1
40
0.023245
41
3.05024863021436
42
-1.66214035016899
0
ELLIPSE
5
207
100
AcDbEntity
8
1
62
256
6
ByLayer
370
13
48
1
60
0
100
AcDbEllipse
10
291.383259
20
6.937029
30
0
11
-0.0287847759336189
21
0.549246244115033
31
0
210
0
220
0
230
1
40
0.995562
41
1.67551608191457
42
3.06145142476625
0
ELLIPSE
5
208
100
AcDbEntity
8
1
62
256
6
ByLayer
370
13
48
1
60
0
100
AcDbEllipse
10
305.79467
20
27.124946
30
0
11
-0.109905508110177
21
2.09712202298459
31
0
210
0
220
0
230
1
40
0.995562
41
-2.42263142026273
42
-1.8203797528204
0
ELLIPSE
5
209
100
AcDbEntity
8
1
62
256
6
ByLayer
370
13
48
1
60
0
100
AcDbEllipse
10
309.661203
20
9.241188
30
0
11
0.0078503934364425
21
-0.149794430213183
31
0
210
0
220
0
230
1
40
0.995562
41
0.113446401373449
42
1.38753675533509
0
ELLIPSE
5
20A
100
AcDbEntity
8
1
62
256
6
ByLayer
370
13
48
1
60
0
100
AcDbEllipse
10
308.313207
20
24.984042
30
0
11
0.099438316861607
21
-1.89739611603369
31
0
210
0
220
0
230
1
40
0.995562
41
3.11701412729169
42
3.13286600732767
0
ELLIPSE
5
20B
100
AcDbEntity
8
1
62
256
6
ByLayer
370
13
48
1
60
0
100
AcDbEllipse
10
292.295356
20
15.961906
30
0
11
0.0366351693700659
21
-0.699040674328205
31
0
210
0
220
0
230
1
40
0.995562
41
-1.75405589825423
42
-1.46607657167516
0
ELLIPSE
5
20C
100
AcDbEntity
8
1
62
256
6
ByLayer
370
13
48
1
60
0
100
AcDbEllipse
10
308.671071
20
17.2921
30
0
11
0.148164061728345
21
0.0233968120084578
31
0
210
0
220
0
230
1
40
0.009837
41
1.66453083432347
42
2.85269002801485
0
ELLIPSE
5
20D
100
AcDbEntity
8
1
62
256
6
ByLayer
370
13
48
1
60
0
100
AcDbEllipse
10
308.503715
20
17.986537
30
0
11
0.465790010562265
21
-8.88780285931571
31
0
210
0
220
0
230
1
40
0.995562
41
3.06145142476615
42
3.11701412729375
0
ELLIPSE
5
20E
100
AcDbEntity
8
1
62
256
6
ByLayer
370
13
48
1
60
0
100
AcDbEllipse
10
291.608127
20
15.133712
30
0
11
-0.457939617125742
21
8.73800842910253
31
0
210
0
220
0
230
1
40
0.995562
41
3.06145142476612
42
3.11701412729372
0
ELLIPSE
5
20F
100
AcDbEntity
8
1
62
256
6
ByLayer
370
13
48
1
60
0
100
AcDbEllipse
10
310.148842
20
17.189209
30
0
11
0.0366351693700677
21
-0.69904067432824
31
0
210
0
220
0
230
1
40
0.995562
41
1.38753675533532
42
1.67551608191447
0
ELLIPSE
5
210
100
AcDbEntity
8
1
62
256
6
ByLayer
370
13
48
1
60
0
100
AcDbEllipse
10
291.382273
20
6.38799
30
0
11
-0.00422000339726424
21
-0.149940626820509
31
0
210
0
220
0
230
1
40
0.093806
41
-1.56322900126248
42
-0.0736942388980957
0
ELLIPSE
5
211
100
AcDbEntity
8
1
62
256
6
ByLayer
370
13
48
1
60
0
100
AcDbEllipse
10
308.02141
20
26.672764
30
0
11
-0.00261679781214718
21
0.0499314767377304
31
0
210
0
220
0
230
1
40
0.995562
41
-0.00872664625753618
42
1.32121290077166
0
ELLIPSE
5
212
100
AcDbEntity
8
1
62
256
6
ByLayer
370
13
48
1
60
0
100
AcDbEllipse
10
308.714487
20
26.182481
30
0
11
-0.0287847759336189
21
0.549246244115033
31
0
210
0
220
0
230
1
40
0.995562
41
-1.46607657167512
42
-0.0801412288235379
0
ELLIPSE
5
213
100
AcDbEntity
8
1
62
256
6
ByLayer
370
13
48
1
60
0
100
AcDbEllipse
10
291.803716
20
15.883804
30
0
11
-0.197552082304455
21
-0.0311957493446458
31
0
210
0
220
0
230
1
40
0.009837
41
0.0937345075253272
42
1.66453083432316
0
ELLIPSE
5
214
100
AcDbEntity
8
1
62
256
6
ByLayer
370
13
48
1
60
0
100
AcDbEllipse
10
308.333525
20
17.094197
30
0
11
0.198309672146229
21
-0.0259475226805007
31
0
210
0
220
0
230
1
40
0.01715
41
0.000128612684187554
42
1.47811763731221
0
ELLIPSE
5
215
100
AcDbEntity
8
1
62
256
6
ByLayer
370
13
48
1
60
0
100
AcDbEllipse
10
292.092616
20
6.397532
30
0
11
0.0065370786798103
21
-0.149857487641873
31
0
210
0
220
0
230
1
40
0.094105
41
-1.56997142650778
42
-0.0234595020678872
0
ELLIPSE
5
216
100
AcDbEntity
8
1
62
256
6
ByLayer
370
13
48
1
60
0
100
AcDbEllipse
10
290.716819
20
25.780218
30
0
11
-0.300422843307118
21
0.183688194594839
31
0
210
0
220
0
230
1
40
0.473311
41
-1.92529218181289
42
-0.778612206218179
0
ELLIPSE
5
217
100
AcDbEntity
8
1
62
256
6
ByLayer
370
13
48
1
60
0
100
AcDbEllipse
10
308.331622
20
17.237676
30
0
11
0.19755208230446
21
0.0311957493446105
31
0
210
0
220
0
230
1
40
0.009837
41
-1.47706181926926
42
8.34921519900048E-05
0
ELLIPSE
5
218
100
AcDbEntity
8
1
62
256
6
ByLayer
370
13
48
1
60
0
100
AcDbEllipse
10
291.803334
20
8.136453
30
0
11
-0.091587923425148
21
1.7476016858205
31
0
210
0
220
0
230
1
40
0.995562
41
3.11701412729381
42
3.13286600732979
0
ELLIPSE
5
219
100
AcDbEntity
8
1
62
256
6
ByLayer
370
13
48
1
60
0
100
AcDbEllipse
10
310.153541
20
17.189455
30
0
11
0.0366351693700677
21
-0.69904067432824
31
0
210
0
220
0
230
1
40
0.995562
41
1.38753675533309
42
1.67551608191234
0
ELLIPSE
5
21A
100
AcDbEntity
8
1
62
256
6
ByLayer
370
13
48
1
60
0
100
AcDbEllipse
10
289.4342
20
16.003693
30
0
11
-0.148732254109673
21
0.0194606420103707
31
0
210
0
220
0
230
1
40
0.01715
41
0.265941268332416
42
1.4781176373135
0
ELLIPSE
5
21B
100
AcDbEntity
8
1
62
256
6
ByLayer
370
13
48
1
60
0
100
AcDbEllipse
10
291.866233
20
6.387877
30
0
11
0.00415024464891671
21
-0.149942573905326
31
0
210
0
220
0
230
1
40
0.09408
41
-1.56847321010714
42
-0.039667611092282
0
ELLIPSE
5
21C
100
AcDbEntity
8
1
62
256
6
ByLayer
370
13
48
1
60
0
100
AcDbEllipse
10
307.839981
20
17.159574
30
0
11
0.0366351693700659
21
-0.699040674328205
31
0
210
0
220
0
230
1
40
0.995562
41
1.38753675533556
42
1.67551608191464
0
ELLIPSE
5
21D
100
AcDbEntity
8
1
62
256
6
ByLayer
370
13
48
1
60
0
100
AcDbEllipse
10
292.438383
20
26.42496
30
0
11
-2.4829520882348
21
1.51817268170147
31
0
210
0
220
0
230
1
40
0.473306
41
1.2163062905943
42
1.24196445790138
0
ELLIPSE
5
21E
100
AcDbEntity
8
1
62
256
6
ByLayer
370
13
48
1
60
0
100
AcDbEllipse
10
306.228498
20
6.619549
30
0
11
0.104671912485902
21
-1.99725906950915
31
0
210
0
220
0
230
1
40
0.995562
41
2.05848726653164
42
2.70662470115242
0
ELLIPSE
5
21F
100
AcDbEntity
8
1
62
256
6
ByLayer
370
13
48
1
60
0
100
AcDbEllipse
10
300.086465
20
16.561725
30
0
11
0.16459275201716
21
-3.14061679904834
31
0
210
0
220
0
230
1
40
0.995562
41
0
42
6.28318530717959
0
ELLIPSE
5
220
100
AcDbEntity
8
1
62
256
6
ByLayer
370
13
48
1
60
0
100
AcDbEllipse
10
307.075268
20
25.193734
30
0
11
-0.197552082304455
21
-0.0311957493446458
31
0
210
0
220
0
230
1
40
0.009837
41
1.66453083432138
42
-3.14150916136196
0
ELLIPSE
5
221
100
AcDbEntity
8
1
62
256
6
ByLayer
370
13
48
1
60
0
100
AcDbEllipse
10
294.335969
20
5.996288
30
0
11
-0.109905508110177
21
2.09712202298459
31
0
210
0
220
0
230
1
40
0.995562
41
0.718961233329202
42
1.32121290077154
0
ELLIPSE
5
222
100
AcDbEntity
8
1
62
256
6
ByLayer
370
13
48
1
60
0
100
AcDbEllipse
10
309.132933
20
8.0492
30
0
11
-0.0433887818646771
21
-0.261709360229252
31
0
210
0
220
0
230
1
40
0.938419
41
0.505433140766991
42
1.30197962220861
0
ELLIPSE
5
223
100
AcDbEntity
8
1
62
256
6
ByLayer
370
13
48
1
60
0
100
AcDbEllipse
10
308.743666
20
26.732998
30
0
11
0.00422000339726409
21
0.149940626820509
31
0
210
0
220
0
230
1
40
0.093806
41
0.00756732552747127
42
1.57836365232731
0
ELLIPSE
5
224
100
AcDbEntity
8
1
62
256
6
ByLayer
370
13
48
1
60
0
100
AcDbEllipse
10
309.661203
20
9.241188
30
0
11
-0.0248313114065695
21
0.147930409226196
31
0
210
0
220
0
230
1
40
0.093503
41
1.56009588089784
42
3.1308922077277
0
ELLIPSE
5
225
100
AcDbEntity
8
1
62
256
6
ByLayer
370
13
48
1
60
0
100
AcDbEllipse
10
292.090433
20
6.447485
30
0
11
0.0104671912485903
21
-0.199725906950916
31
0
210
0
220
0
230
1
40
0.995562
41
0.0115983514800261
42
1.32121290077136
0
ELLIPSE
5
226
100
AcDbEntity
8
1
62
256
6
ByLayer
370
13
48
1
60
0
100
AcDbEllipse
10
307.858777
20
17.160559
30
0
11
-0.0261679781214711
21
0.49931476737729
31
0
210
0
220
0
230
1
40
0.995562
41
-1.7540558982542
42
-1.46607657167509
0
ELLIPSE
5
227
100
AcDbEntity
8
1
62
256
6
ByLayer
370
13
48
1
60
0
100
AcDbEllipse
10
308.294412
20
24.983057
30
0
11
-0.091587923425148
21
1.7476016858205
31
0
210
0
220
0
230
1
40
0.995562
41
-0.0245785262959559
42
-0.00872664626000519
0
ELLIPSE
5
228
100
AcDbEntity
8
1
62
256
6
ByLayer
370
13
48
1
60
0
100
AcDbEllipse
10
293.060069
20
7.927746
30
0
11
0.0104671912485902
21
-0.199725906950915
31
0
210
0
220
0
230
1
40
0.995562
41
-1.46607657167303
42
-2.46857384427131E-05
0
ELLIPSE
5
229
100
AcDbEntity
8
1
62
256
6
ByLayer
370
13
48
1
60
0
100
AcDbEllipse
10
308.308508
20
24.983796
30
0
11
0.099438316861607
21
-1.89739611603369
31
0
210
0
220
0
230
1
40
0.995562
41
3.1170141272938
42
3.1328660073298
0
ELLIPSE
5
22A
100
AcDbEntity
8
1
62
256
6
ByLayer
370
13
48
1
60
0
100
AcDbEllipse
10
293.267781
20
26.468439
30
0
11
-0.104671912485884
21
1.99725906950915
31
0
210
0
220
0
230
1
40
0.995562
41
2.85175890392132
42
-3.14159265358774
0
ELLIPSE
5
22B
100
AcDbEntity
8
1
62
256
6
ByLayer
370
13
48
1
60
0
100
AcDbEllipse
10
290.856552
20
6.851855
30
0
11
-0.148164061728341
21
-0.0233968120084844
31
0
210
0
220
0
230
1
40
0.009837
41
-1.47706181926713
42
-0.267604978109426
0
ELLIPSE
5
22C
100
AcDbEntity
8
1
62
256
6
ByLayer
370
13
48
1
60
0
100
AcDbEllipse
10
308.956018
20
-18.044201
30
0
11
-0.0633283925923217
21
-0.515835816734322
31
0
210
0
220
0
230
1
40
0.114628
41
-1.65479541513876
42
-0.0839990883472266
0
ELLIPSE
5
22D
100
AcDbEntity
8
1
62
256
6
ByLayer
370
13
48
1
60
0
100
AcDbEllipse
10
309.24949
20
-2.551608
30
0
11
-2.68934222188404
21
4.53237203415075
31
0
210
0
220
0
230
1
40
0.340196
41
-1.01883025375381
42
-0.882465341290733
0
ELLIPSE
5
22E
100
AcDbEntity
8
1
62
256
6
ByLayer
370
13
48
1
60
0
100
AcDbEllipse
10
309.440778
20
7.501791
30
0
11
-0.0190934195945123
21
-0.501606840107199
31
0
210
0
220
0
230
1
40
0.197189
41
-0.688891549972296
42
-0.331191944130243
0
ELLIPSE
5
22F
100
AcDbEntity
8
1
62
256
6
ByLayer
370
13
48
1
60
0
100
AcDbEllipse
10
310.811384
20
0
30
0
11
-55.2039334313476
21
23.7143947217631
31
0
210
0
220
0
230
1
40
0.195513
41
0.890012447398758
42
1.1094406208745
0
ELLIPSE
5
230
100
AcDbEntity
8
1
62
256
6
ByLayer
370
13
48
1
60
0
100
AcDbEllipse
10
283
20
0.454533
30
0
11
-0.604370553331188
21
16.7273514605647
31
0
210
0
220
0
230
1
40
0.35687
41
-0.538918541288243
42
-0.374110878727137
0
ELLIPSE
5
231
100
AcDbEntity
8
1
62
256
6
ByLayer
370
13
48
1
60
0
100
AcDbEllipse
10
326.206326
20
12.646167
30
0
11
-25.6275617526872
21
-4.49764162616975
31
0
210
0
220
0
230
1
40
0.014662
41
0.446639577047167
42
0.450734427073973
0
ELLIPSE
5
232
100
AcDbEntity
8
1
62
256
6
ByLayer
370
13
48
1
60
0
100
AcDbEllipse
10
311.845171
20
0
30
0
11
-3.16017487836225
21
-26.3223547348049
31
0
210
0
220
0
230
1
40
0.11809
41
-1.27561354568547
42
-0.100946976080956
0
ELLIPSE
5
233
100
AcDbEntity
8
1
62
256
6
ByLayer
370
13
48
1
60
0
100
AcDbEllipse
10
291.883294
20
16.521158
30
0
11
0.162241464353148
21
-3.09575155773918
31
0
210
0
220
0
230
1
40
0.995562
41
-2.2343055907902
42
-1.46607657167527
0
ELLIPSE
5
234
100
AcDbEntity
8
1
62
256
6
ByLayer
370
13
48
1
60
0
100
AcDbEllipse
10
304.033575
20
-8.824458
30
0
11
-6.03300383673889
21
-0.0231531508117969
31
0
210
0
220
0
230
1
40
0.987587
41
3.00761012754865
42
-2.98915183527081
0
ELLIPSE
5
235
100
AcDbEntity
8
1
62
256
6
ByLayer
370
13
48
1
60
0
100
AcDbEllipse
10
308.211299
20
-17.936544
30
0
11
-0.291094474308246
21
-2.49505205749904
31
0
210
0
220
0
230
1
40
0.118733
41
0
42
6.28318530717959
0
ELLIPSE
5
236
100
AcDbEntity
8
1
62
256
6
ByLayer
370
13
48
1
60
0
100
AcDbEllipse
10
302.067166
20
11.308187
30
0
11
-1.97200940003018
21
-2.45265018888678
31
0
210
0
220
0
230
1
40
0.965978
41
0.712391850678839
42
1.04314259846368
0
ELLIPSE
5
237
100
AcDbEntity
8
1
62
256
6
ByLayer
370
13
48
1
60
0
100
AcDbEllipse
10
314.715302
20
0.789033
30
0
11
-6.03300394427365
21
-0.0231535882691616
31
0
210
0
220
0
230
1
40
0.987587
41
0.0314664252792236
42
0.152440745395416
0
ELLIPSE
5
238
100
AcDbEntity
8
1
62
256
6
ByLayer
370
13
48
1
60
0
100
AcDbEllipse
10
298.728129
20
-3.486841
30
0
11
-0.523359562429419
21
9.98629534754574
31
0
210
0
220
0
230
1
40
0.995562
41
0
42
0.317924582301119
0
ELLIPSE
5
239
100
AcDbEntity
8
1
62
256
6
ByLayer
370
13
48
1
60
0
100
AcDbEllipse
10
299.798362
20
-7.750371
30
0
11
-2.1
21
2.12234201567296E-15
31
0
210
0
220
0
230
1
40
0.993027
41
-2.77756052120837
42
-0.380918114681528
0
ELLIPSE
5
23A
100
AcDbEntity
8
1
62
256
6
ByLayer
370
13
48
1
60
0
100
AcDbEllipse
10
309.515532
20
10.246549
30
0
11
0.162241464353148
21
-3.09575155773918
31
0
210
0
220
0
230
1
40
0.995562
41
-0.998377754702073
42
-0.804393367027713
0
ELLIPSE
5
23B
100
AcDbEntity
8
1
62
256
6
ByLayer
370
13
48
1
60
0
100
AcDbEllipse
10
293.516814
20
7.141549
30
0
11
1.49975373857928
21
0.0271794707663116
31
0
210
0
220
0
230
1
40
0.340502
41
-1.5327921381881
42
-1.51222596037102
0
ELLIPSE
5
23C
100
AcDbEntity
8
1
62
256
6
ByLayer
370
13
48
1
60
0
100
AcDbEllipse
10
309.19828
20
10.229923
30
0
11
-0.0983463075574288
21
3.0989183026876
31
0
210
0
220
0
230
1
40
0.524517
41
2.87218161714197
42
-3.13280218163409
0
ELLIPSE
5
23D
100
AcDbEntity
8
1
62
256
6
ByLayer
370
13
48
1
60
0
100
AcDbEllipse
10
299.798362
20
-7.750371
30
0
11
2
21
0
31
0
210
0
220
0
230
1
40
0.993027
41
0.323485837742241
42
2.82419346794492
0
ELLIPSE
5
23E
100
AcDbEntity
8
1
62
256
6
ByLayer
370
13
48
1
60
0
100
AcDbEllipse
10
309.132993
20
0
30
0
11
-4.49877554852219
21
26.3223247740775
31
0
210
0
220
0
230
1
40
0.083421
41
1.57804809724874
42
1.76793244052618
0
ELLIPSE
5
23F
100
AcDbEntity
8
1
62
256
6
ByLayer
370
13
48
1
60
0
100
AcDbEllipse
10
291.254204
20
0
30
0
11
-1.39205602767362
21
26.3246720630314
31
0
210
0
220
0
230
1
40
0.094396
41
-0.109665635270056
42
-0.0049936344986205
0
ELLIPSE
5
240
100
AcDbEntity
8
1
62
256
6
ByLayer
370
13
48
1
60
0
100
AcDbEllipse
10
291.424245
20
15.154175
30
0
11
-0.471023606186477
21
8.98766581279117
31
0
210
0
220
0
230
1
40
0.995562
41
-2.92946901796118
42
-2.82366807128868
0
ELLIPSE
5
241
100
AcDbEntity
8
1
62
256
6
ByLayer
370
13
48
1
60
0
100
AcDbEllipse
10
294.762681
20
6.768427
30
0
11
0.363113722374463
21
-0.931744828063651
31
0
210
0
220
0
230
1
40
0.089392
41
-1.60033673645362
42
-0.0295404096585972
0
ELLIPSE
5
242
100
AcDbEntity
8
1
62
256
6
ByLayer
370
13
48
1
60
0
100
AcDbEllipse
10
291.179224
20
8.865008
30
0
11
-0.136073486231649
21
2.59643679036189
31
0
210
0
220
0
230
1
40
0.995562
41
2.40144888609819
42
2.97998013990121
0
ELLIPSE
5
243
100
AcDbEntity
8
1
62
256
6
ByLayer
370
13
48
1
60
0
100
AcDbEllipse
10
291.179224
20
8.865008
30
0
11
-0.136073486231649
21
2.59643679036189
31
0
210
0
220
0
230
1
40
0.995562
41
-2.68543658663366
42
-2.07675099364108
0
ELLIPSE
5
244
100
AcDbEntity
8
1
62
256
6
ByLayer
370
13
48
1
60
0
100
AcDbEllipse
10
291.855876
20
8.90047
30
0
11
0.162241464353148
21
-3.09575155773918
31
0
210
0
220
0
230
1
40
0.995562
41
0.615809199294294
42
1.13183444118514
0
ELLIPSE
5
245
100
AcDbEntity
8
1
62
256
6
ByLayer
370
13
48
1
60
0
100
AcDbEllipse
10
294.85448
20
7.52552
30
0
11
-0.318066032261178
21
-0.39558874014387
31
0
210
0
220
0
230
1
40
0.965978
41
-2.06962855862718
42
-1.29736636172777
0
ELLIPSE
5
246
100
AcDbEntity
8
1
62
256
6
ByLayer
370
13
48
1
60
0
100
AcDbEllipse
10
290.847889
20
8.847643
30
0
11
-2.74310165210915
21
2.20554168986791
31
0
210
0
220
0
230
1
40
0.772244
41
3.13694524735756
42
-2.77548047991315
0
ELLIPSE
5
247
100
AcDbEntity
8
1
62
256
6
ByLayer
370
13
48
1
60
0
100
AcDbEllipse
10
3573.475885
20
-1.51891
30
0
11
-3411.74806764335
21
1.59442505499451
31
0
210
0
220
0
230
1
40
0.028475
41
-0.272401139058397
42
-0.269113662300762
0
ELLIPSE
5
248
100
AcDbEntity
8
1
62
256
6
ByLayer
370
13
48
1
60
0
100
AcDbEllipse
10
299.541145
20
7.771138
30
0
11
-4.04277876675144
21
-0.708917707208351
31
0
210
0
220
0
230
1
40
0.014774
41
-3.02036303287642
42
-2.68601592174881
0
ELLIPSE
5
249
100
AcDbEntity
8
1
62
256
6
ByLayer
370
13
48
1
60
0
100
AcDbEllipse
10
291.586953
20
8.886376
30
0
11
-1.97200939826344
21
-2.45265018978796
31
0
210
0
220
0
230
1
40
0.965978
41
1.55736417516379
42
1.84422629126099
0
ELLIPSE
5
24A
100
AcDbEntity
8
1
62
256
6
ByLayer
370
13
48
1
60
0
100
AcDbEllipse
10
244.039305
20
0
30
0
11
-278.875007502628
21
0.131404434212218
31
0
210
0
220
0
230
1
40
0.094396
41
-1.7971145143166
42
-1.73919037737032
0
ELLIPSE
5
24B
100
AcDbEntity
8
1
62
256
6
ByLayer
370
13
48
1
60
0
100
AcDbEllipse
10
283
20
7.030271
30
0
11
-4
21
4.04255622032945E-15
31
0
210
0
220
0
230
1
40
0.760467
41
-2.61116550300071
42
-1.69138837819592
0
ELLIPSE
5
24C
100
AcDbEntity
8
1
62
256
6
ByLayer
370
13
48
1
60
0
100
AcDbEllipse
10
298.152433
20
7.498084
30
0
11
0.0523359562429511
21
-0.998629534754574
31
0
210
0
220
0
230
1
40
0.094108
41
-1.5707963267949
42
0
0
ELLIPSE
5
24D
100
AcDbEntity
8
1
62
256
6
ByLayer
370
13
48
1
60
0
100
AcDbEllipse
10
283
20
6.42384
30
0
11
-5.85795587503985
21
1.82372755818611
31
0
210
0
220
0
230
1
40
0.711634
41
1.3918003339297
42
1.59009981317222
0
ELLIPSE
5
24E
100
AcDbEntity
8
1
62
256
6
ByLayer
370
13
48
1
60
0
100
AcDbEllipse
10
309.281218
20
0.108148
30
0
11
-0.022670504910733
21
1.01134966267671
31
0
210
0
220
0
230
1
40
0.101978
41
-0.132823370371806
42
1.05031271605828
0
ELLIPSE
5
24F
100
AcDbEntity
8
1
62
256
6
ByLayer
370
13
48
1
60
0
100
AcDbEllipse
10
291.226214
20
8.867471
30
0
11
0.162241464353148
21
-3.09575155773918
31
0
210
0
220
0
230
1
40
0.995562
41
0.0839997461782142
42
1.07850402440023
0
ELLIPSE
5
250
100
AcDbEntity
8
1
62
256
6
ByLayer
370
13
48
1
60
0
100
AcDbEllipse
10
312.974179
20
2.726907
30
0
11
-5.90255129938151
21
-1.86895287347015
31
0
210
0
220
0
230
1
40
0.801564
41
-0.368759057786801
42
-0.221206988164068
0
ELLIPSE
5
251
100
AcDbEntity
8
1
62
256
6
ByLayer
370
13
48
1
60
0
100
AcDbEllipse
10
306.60901
20
8.141549
30
0
11
-0.026167978121471
21
0.499314767377289
31
0
210
0
220
0
230
1
40
0.995562
41
-0.998377754701993
42
-0.927295218001452
0
ELLIPSE
5
252
100
AcDbEntity
8
1
62
256
6
ByLayer
370
13
48
1
60
0
100
AcDbEllipse
10
320.651832
20
4.6E-05
30
0
11
-278.874760220335
21
0.131399042744208
31
0
210
0
220
0
230
1
40
0.094396
41
-1.46113079780459
42
-1.45173438752809
0
ELLIPSE
5
253
100
AcDbEntity
8
1
62
256
6
ByLayer
370
13
48
1
60
0
100
AcDbEllipse
10
291.424245
20
15.154175
30
0
11
-0.471023606186477
21
8.98766581279117
31
0
210
0
220
0
230
1
40
0.995562
41
2.79252680319576
42
2.96271820098499
0
ELLIPSE
5
254
100
AcDbEntity
8
1
62
256
6
ByLayer
370
13
48
1
60
0
100
AcDbEllipse
10
308.784688
20
8.055297
30
0
11
-0.0204031419821836
21
1.00029744462052
31
0
210
0
220
0
230
1
40
0.104754
41
-3.13824300314363
42
-2.54488912697943
0
ELLIPSE
5
255
100
AcDbEntity
8
1
62
256
6
ByLayer
370
13
48
1
60
0
100
AcDbEllipse
10
291.518224
20
15.1591
30
0
11
0.523359562429511
21
-9.98629534754574
31
0
210
0
220
0
230
1
40
0.995562
41
-5.96902190351459E-07
42
0.31792458230112
0
ELLIPSE
5
256
100
AcDbEntity
8
1
62
256
6
ByLayer
370
13
48
1
60
0
100
AcDbEllipse
10
291.090465
20
7.328257
30
0
11
-4.04277876221924
21
-0.70891770639448
31
0
210
0
220
0
230
1
40
0.014774
41
-3.02036303290452
42
-2.66133983565186
0
ELLIPSE
5
257
100
AcDbEntity
8
1
62
256
6
ByLayer
370
13
48
1
60
0
100
AcDbEllipse
10
289.095321
20
11.197691
30
0
11
-0.026167978121471
21
0.499314767377288
31
0
210
0
220
0
230
1
40
0.995562
41
-2.31498441521978
42
-1.46607657167521
0
ELLIPSE
5
258
100
AcDbEntity
8
1
62
256
6
ByLayer
370
13
48
1
60
0
100
AcDbEllipse
10
320.651888
20
0
30
0
11
-276.014751060318
21
0.130056735375729
31
0
210
0
220
0
230
1
40
0.094396
41
-1.43953947394078
42
-1.41694994765755
0
ELLIPSE
5
259
100
AcDbEntity
8
1
62
256
6
ByLayer
370
13
48
1
60
0
100
AcDbEllipse
10
291.855876
20
8.90047
30
0
11
0.162241464353148
21
-3.09575155773918
31
0
210
0
220
0
230
1
40
0.995562
41
-2.31498441521958
42
-0.582560016270475
0
ELLIPSE
5
25A
100
AcDbEntity
8
1
62
256
6
ByLayer
370
13
48
1
60
0
100
AcDbEllipse
10
295.175737
20
7.542357
30
0
11
-0.0261679781214709
21
0.499314767377287
31
0
210
0
220
0
230
1
40
0.995562
41
0.92729521695637
42
1.13183444118531
0
ELLIPSE
5
25B
100
AcDbEntity
8
1
62
256
6
ByLayer
370
13
48
1
60
0
100
AcDbEllipse
10
309.177064
20
0.117481
30
0
11
-0.0113352524563185
21
0.505674831364265
31
0
210
0
220
0
230
1
40
0.101978
41
-0.132823370369216
42
0.273607751923245
0
ELLIPSE
5
25C
100
AcDbEntity
8
1
62
256
6
ByLayer
370
13
48
1
60
0
100
AcDbEllipse
10
298.634149
20
-3.491766
30
0
11
0.575695518672461
21
-10.9849248823003
31
0
210
0
220
0
230
1
40
0.995562
41
-3.14159265358978
42
-2.82366807128868
0
ELLIPSE
5
25D
100
AcDbEntity
8
1
62
256
6
ByLayer
370
13
48
1
60
0
100
AcDbEllipse
10
2563.292822
20
6.1E-05
30
0
11
-4391.4872631278
21
22.290042751409
31
0
210
0
220
0
230
1
40
0.00319
41
1.02604491833592
42
1.03121035680556
0
ELLIPSE
5
25E
100
AcDbEntity
8
1
62
256
6
ByLayer
370
13
48
1
60
0
100
AcDbEllipse
10
288.900521
20
6.553072
30
0
11
-0.293740802135514
21
-0.955885108766104
31
0
210
0
220
0
230
1
40
0.088433
41
-1.53847716189229
42
-7.17550717900005E-06
0
ELLIPSE
5
25F
100
AcDbEntity
8
1
62
256
6
ByLayer
370
13
48
1
60
0
100
AcDbEllipse
10
309.405667
20
6.472483
30
0
11
-0.0102015709968959
21
0.500148722427025
31
0
210
0
220
0
230
1
40
0.104754
41
1.92321182763352
42
-2.78917715274344
0
POINT
5
70
100
AcDbEntity
8
1
62
256
6
ByLayer
370
18
48
1
60
0
100
AcDbPoint
10
0
20
0
30
0
39
0
210
0
220
0
230
1
50
360
0
POINT
5
72
100
AcDbEntity
8
80
62
256
6
ByLayer
370
18
48
1
60
0
100
AcDbPoint
10
0
20
0
30
0
39
0
210
0
220
0
230
1
50
360
0
POINT
5
74
100
AcDbEntity
8
81
62
256
6
ByLayer
370
18
48
1
60
0
100
AcDbPoint
10
311
20
0
30
0
39
0
210
0
220
0
230
1
50
360
0
POINT
5
76
100
AcDbEntity
8
1
62
256
6
ByLayer
370
18
48
1
60
1
100
AcDbPoint
10
0
20
-31.25
30
0
39
0
210
0
220
0
230
1
50
360
0
POINT
5
77
100
AcDbEntity
8
1
62
256
6
ByLayer
370
18
48
1
60
1
100
AcDbPoint
10
311
20
-27
30
0
39
0
210
0
220
0
230
1
50
360
0
POINT
5
78
100
AcDbEntity
8
1
62
256
6
ByLayer
370
18
48
1
60
1
100
AcDbPoint
10
-80
20
-25
30
0
39
0
210
0
220
0
230
1
50
360
0
POINT
5
79
100
AcDbEntity
8
1
62
256
6
ByLayer
370
18
48
1
60
1
100
AcDbPoint
10
0
20
-31.25
30
0
39
0
210
0
220
0
230
1
50
360
0
POINT
5
7A
100
AcDbEntity
8
1
62
256
6
ByLayer
370
18
48
1
60
1
100
AcDbPoint
10
311
20
-27
30
0
39
0
210
0
220
0
230
1
50
360
0
POINT
5
7B
100
AcDbEntity
8
1
62
256
6
ByLayer
370
18
48
1
60
1
100
AcDbPoint
10
6.1102
20
-31.25
30
0
39
0
210
0
220
0
230
1
50
360
0
POINT
5
7C
100
AcDbEntity
8
1
62
256
6
ByLayer
370
18
48
1
60
1
100
AcDbPoint
10
36
20
-27
30
0
39
0
210
0
220
0
230
1
50
360
0
POINT
5
7D
100
AcDbEntity
8
1
62
256
6
ByLayer
370
18
48
1
60
1
100
AcDbPoint
10
311
20
-27
30
0
39
0
210
0
220
0
230
1
50
360
0
POINT
5
7E
100
AcDbEntity
8
1
62
256
6
ByLayer
370
18
48
1
60
1
100
AcDbPoint
10
309.4109
20
-13.5
30
0
39
0
210
0
220
0
230
1
50
360
0
SPLINE
5
260
100
AcDbEntity
8
SK1
62
256
6
ByLayer
370
13
48
1
60
0
100
AcDbSpline
70
4
71
3
72
8
73
4
40
0
40
0
40
0
40
0
40
1
40
1
40
1
40
1
41
1
10
-78.5999993841624
20
10.6704826507521
30
0
41
1
10
-78.571842816211
20
10.5890315497
30
0
41
1
10
-78.5439155289718
20
10.5074810741399
30
0
41
1
10
-78.5162221138982
20
10.4258292340508
30
0
0
SPLINE
5
261
100
AcDbEntity
8
SK1
62
256
6
ByLayer
370
13
48
1
60
0
100
AcDbSpline
70
4
71
3
72
22
73
18
40
0
40
0
40
0
40
0
40
0.250000000000013
40
0.250000000000013
40
0.375000000000011
40
0.375000000000011
40
0.500000000000009
40
0.500000000000009
40
0.625000000000006
40
0.625000000000006
40
0.687500000000005
40
0.687500000000005
40
0.750000000000004
40
0.750000000000004
40
0.875000000000002
40
0.875000000000002
40
1
40
1
40
1
40
1
41
1
10
-78.5162221138982
20
10.4258292340508
30
0
41
1
10
-78.4816010925007
20
10.3237518956136
30
0
41
1
10
-78.4411780188043
20
10.2239013321123
30
0
41
1
10
-78.3666785250411
20
10.0794467030181
30
0
41
1
10
-78.3393689035363
20
10.0320610579929
30
0
41
1
10
-78.2793566754053
20
9.94200016242738
30
0
41
1
10
-78.2466129799402
20
9.89906478118272
30
0
41
1
10
-78.1725895963645
20
9.81972659981167
30
0
41
1
10
-78.1310790894698
20
9.78319125007499
30
0
41
1
10
-78.0614135112523
20
9.74017151629326
30
0
41
1
10
-78.0367084860757
20
9.72773410304424
30
0
41
1
10
-77.9859900462305
20
9.70877612675764
30
0
41
1
10
-77.9597650984162
20
9.70209114959093
30
0
41
1
10
-77.8779326920127
20
9.69222679373803
30
0
41
1
10
-77.8229289559465
20
9.7004005561752
30
0
41
1
10
-77.720518632779
20
9.74066343125068
30
0
41
1
10
-77.6749703009745
20
9.77110884838677
30
0
41
1
10
-77.6338131992791
20
9.80675144594503
30
0
0
SPLINE
5
262
100
AcDbEntity
8
SK1
62
256
6
ByLayer
370
13
48
1
60
0
100
AcDbSpline
70
4
71
3
72
18
73
14
40
0
40
0
40
0
40
0
40
0.124999999999994
40
0.124999999999994
40
0.249999999999988
40
0.249999999999988
40
0.374999999999981
40
0.374999999999981
40
0.499999999999975
40
0.499999999999975
40
0.749999999999988
40
0.749999999999988
40
1
40
1
40
1
40
1
41
1
10
-77.6338131992802
20
-9.80675144594582
30
0
41
1
10
-77.6747633651724
20
-9.77128805754603
30
0
41
1
10
-77.7208435774768
20
-9.74055738411698
30
0
41
1
10
-77.8223424340443
20
-9.70060949890774
30
0
41
1
10
-77.877225313581
20
-9.69229190808377
30
0
41
1
10
-77.9860246497556
20
-9.70510854686367
30
0
41
1
10
-78.0378757025226
20
-9.72573581195073
30
0
41
1
10
-78.1301404068999
20
-9.78251362708679
30
0
41
1
10
-78.1717204994047
20
-9.81892837813635
30
0
41
1
10
-78.2826414870913
20
-9.93741839107241
30
0
41
1
10
-78.3411195831128
20
-10.0300646017818
30
0
41
1
10
-78.4407354299096
20
-10.2228684878255
30
0
41
1
10
-78.4816839215995
20
-10.3239961106508
30
0
41
1
10
-78.5162221138915
20
-10.4258292340309
30
0
0
SPLINE
5
263
100
AcDbEntity
8
SK1
62
256
6
ByLayer
370
13
48
1
60
0
100
AcDbSpline
70
4
71
3
72
8
73
4
40
0
40
0
40
0
40
0
40
1
40
1
40
1
40
1
41
1
10
-76.6000022063887
20
-10.6704826507519
30
0
41
1
10
-76.9486457469478
20
-10.3889796865166
30
0
41
1
10
-77.2935001928291
20
-10.1014670365259
30
0
41
1
10
-77.6338131992803
20
-9.80675144594593
30
0
0
SPLINE
5
264
100
AcDbEntity
8
1
62
256
6
ByLayer
370
18
48
1
60
0
100
AcDbSpline
70
4
71
3
72
16
73
12
40
0
40
0
40
0
40
0
40
0.250000000000066
40
0.250000000000066
40
0.500000000000133
40
0.500000000000133
40
0.750000000000199
40
0.750000000000199
40
0.875000000000099
40
0.875000000000099
40
1
40
1
40
1
40
1
41
1
10
299.130942374232
20
17.9654455402714
30
0
41
1
10
299.167888083678
20
17.9895397707703
30
0
41
1
10
299.206723307933
20
18.0106627112146
30
0
41
1
10
299.287376517488
20
18.0453837390915
30
0
41
1
10
299.329159266427
20
18.0590698874883
30
0
41
1
10
299.414240543031
20
18.0740264800679
30
0
41
1
10
299.457745823115
20
18.0756931921113
30
0
41
1
10
299.515756862152
20
18.0569209482114
30
0
41
1
10
299.533217353178
20
18.0467796116442
30
0
41
1
10
299.558615282611
20
18.0187892627277
30
0
41
1
10
299.566344607204
20
18.0010741443985
30
0
41
1
10
299.568966919499
20
17.9819973922896
30
0
0
SPLINE
5
265
100
AcDbEntity
8
1
62
256
6
ByLayer
370
18
48
1
60
0
100
AcDbSpline
70
4
71
3
72
8
73
4
40
0
40
0
40
0
40
0
40
1
40
1
40
1
40
1
41
1
10
298.932977913372
20
17.5440098110026
30
0
41
1
10
298.929830466663
20
17.5497002833654
30
0
41
1
10
298.926683633831
20
17.5553900109907
30
0
41
1
10
298.923537391602
20
17.5610790218097
30
0
0
SPLINE
5
266
100
AcDbEntity
8
1
62
256
6
ByLayer
370
18
48
1
60
0
100
AcDbSpline
70
4
71
3
72
8
73
4
40
0
40
0
40
0
40
0
40
1
40
1
40
1
40
1
41
1
10
300.492044260438
20
15.1355871778406
30
0
41
1
10
300.487959130938
20
15.1410805427565
30
0
41
1
10
300.483873668328
20
15.1465746192676
30
0
41
1
10
300.479787859872
20
15.1520694351279
30
0
0
SPLINE
5
267
100
AcDbEntity
8
1
62
256
6
ByLayer
370
18
48
1
60
0
100
AcDbSpline
70
4
71
3
72
16
73
12
40
0
40
0
40
0
40
0
40
0.25
40
0.25
40
0.5
40
0.5
40
0.75
40
0.75
40
0.875
40
0.875
40
1
40
1
40
1
40
1
41
1
10
300.797615199911
20
18.0527921618566
30
0
41
1
10
300.836877049782
20
18.0326918003061
30
0
41
1
10
300.874477892118
20
18.0093752784071
30
0
41
1
10
300.944569817438
20
17.9561626647929
30
0
41
1
10
300.977122117244
20
17.9263469825923
30
0
41
1
10
301.032064130495
20
17.8587678452964
30
0
41
1
10
301.054909553839
20
17.8210433954192
30
0
41
1
10
301.066816231699
20
17.7593558856576
30
0
41
1
10
301.066428752104
20
17.738349976175
30
0
41
1
10
301.054139032063
20
17.7005664637942
30
0
41
1
10
301.042252053172
20
17.6840445908266
30
0
41
1
10
301.026642208375
20
17.6712980748562
30
0
0
SPLINE
5
268
100
AcDbEntity
8
1
62
256
6
ByLayer
370
18
48
1
60
0
100
AcDbSpline
70
4
71
3
72
16
73
12
40
0
40
0
40
0
40
0
40
0.12499999999992
40
0.12499999999992
40
0.24999999999984
40
0.24999999999984
40
0.499999999999893
40
0.499999999999893
40
0.749999999999947
40
0.749999999999947
40
1
40
1
40
1
40
1
41
1
10
301.488180878844
20
16.2480929676317
30
0
41
1
10
301.507528113767
20
16.241793985924
30
0
41
1
10
301.528320760923
20
16.2406663252029
30
0
41
1
10
301.568135799656
20
16.2507375446893
30
0
41
1
10
301.586979886049
20
16.2619020400358
30
0
41
1
10
301.634626218995
20
16.3047318772865
30
0
41
1
10
301.656108360969
20
16.3441148325451
30
0
41
1
10
301.687322985055
20
16.4265350098186
30
0
41
1
10
301.69690951314
20
16.4700839116037
30
0
41
1
10
301.707909221676
20
16.5579410171193
30
0
41
1
10
301.709247753614
20
16.6024861066936
30
0
41
1
10
301.706933215018
20
16.6466501340227
30
0
0
SPLINE
5
269
100
AcDbEntity
8
1
62
256
6
ByLayer
370
18
48
1
60
0
100
AcDbSpline
70
4
71
3
72
18
73
14
40
0
40
0
40
0
40
0
40
0.125
40
0.125
40
0.25
40
0.25
40
0.5
40
0.5
40
0.75
40
0.75
40
0.875
40
0.875
40
1
40
1
40
1
40
1
41
1
10
299.041973558791
20
15.4642490023914
30
0
41
1
10
299.054119530704
20
15.4929363982074
30
0
41
1
10
299.056595639896
20
15.5259709449087
30
0
41
1
10
299.051994819127
20
15.5933179835082
30
0
41
1
10
299.044726701381
20
15.6275147780119
30
0
41
1
10
299.013936404287
20
15.7287774438436
30
0
41
1
10
298.98151539874
20
15.7948192580132
30
0
41
1
10
298.902658290759
20
15.9167389922549
30
0
41
1
10
298.856416181564
20
15.9724257786252
30
0
41
1
10
298.778048431653
20
16.0398420278965
30
0
41
1
10
298.750402415976
20
16.059548623237
30
0
41
1
10
298.692522889423
20
16.0889293366583
30
0
41
1
10
298.662302614252
20
16.0988535212286
30
0
41
1
10
298.632157802694
20
16.0979757610641
30
0
0
SPLINE
5
26A
100
AcDbEntity
8
1
62
256
6
ByLayer
370
18
48
1
60
0
100
AcDbSpline
70
4
71
3
72
8
73
4
40
0
40
0
40
0
40
0
40
1
40
1
40
1
40
1
41
1
10
299.034368971562
20
15.4462864952739
30
0
41
1
10
299.036903314789
20
15.4522732129617
30
0
41
1
10
299.039438170456
20
15.4582607052639
30
0
41
1
10
299.041973558791
20
15.4642490023914
30
0
0
SPLINE
5
26B
100
AcDbEntity
8
1
62
256
6
ByLayer
370
18
48
1
60
0
100
AcDbSpline
70
4
71
3
72
8
73
4
40
0
40
0
40
0
40
0
40
1
40
1
40
1
40
1
41
1
10
300.330284066841
20
18.004771745289
30
0
41
1
10
300.333773128153
20
18.0106635432521
30
0
41
1
10
300.337261922796
20
18.0165545697656
30
0
41
1
10
300.340750460536
20
18.0224448537626
30
0
0
SPLINE
5
26C
100
AcDbEntity
8
1
62
256
6
ByLayer
370
18
48
1
60
0
100
AcDbSpline
70
4
71
3
72
16
73
12
40
0
40
0
40
0
40
0
40
0.250000000000073
40
0.250000000000073
40
0.500000000000145
40
0.500000000000145
40
0.750000000000217
40
0.750000000000217
40
0.875000000000109
40
0.875000000000109
40
1
40
1
40
1
40
1
41
1
10
300.949578404447
20
15.1531614846035
30
0
41
1
10
300.912632695001
20
15.1290672541047
30
0
41
1
10
300.873600862987
20
15.1079340098844
30
0
41
1
10
300.792050974888
20
15.0731659890762
30
0
41
1
10
300.749581019091
20
15.0594438256941
30
0
41
1
10
300.662173644713
20
15.0443653274957
30
0
41
1
10
300.61707607063
20
15.04261516686
30
0
41
1
10
300.554942274469
20
15.0611713462144
30
0
41
1
10
300.535805486164
20
15.0712248317639
30
0
41
1
10
300.506598025698
20
15.0990155316187
30
0
41
1
10
300.496752889563
20
15.1166197649637
30
0
41
1
10
300.492044260438
20
15.1355871778406
30
0
0
SPLINE
5
26D
100
AcDbEntity
8
1
62
256
6
ByLayer
370
18
48
1
60
0
100
AcDbSpline
70
4
71
3
72
8
73
4
40
0
40
0
40
0
40
0
40
1
40
1
40
1
40
1
41
1
10
298.572830301093
20
16.8694916024985
30
0
41
1
10
298.579102416251
20
16.8699667510315
30
0
41
1
10
298.5853755213
20
16.8704419701484
30
0
41
1
10
298.591649655082
20
16.8709172626141
30
0
0
SPLINE
5
26E
100
AcDbEntity
8
1
62
256
6
ByLayer
370
18
48
1
60
0
100
AcDbSpline
70
4
71
3
72
8
73
4
40
0
40
0
40
0
40
0
40
1
40
1
40
1
40
1
41
1
10
298.632157802694
20
16.0979757610641
30
0
41
1
10
298.625868357683
20
16.0977926242654
30
0
41
1
10
298.619579943435
20
16.0976095220515
30
0
41
1
10
298.613292521034
20
16.0974264531122
30
0
0
SPLINE
5
26F
100
AcDbEntity
8
1
62
256
6
ByLayer
370
18
48
1
60
0
100
AcDbSpline
70
4
71
3
72
16
73
12
40
0
40
0
40
0
40
0
40
0.124999999999997
40
0.124999999999997
40
0.249999999999994
40
0.249999999999994
40
0.499999999999996
40
0.499999999999996
40
0.749999999999998
40
0.749999999999998
40
1
40
1
40
1
40
1
41
1
10
300.340750460536
20
18.0224448537626
30
0
41
1
10
300.343460735676
20
18.0418727662526
30
0
41
1
10
300.351472391609
20
18.0605092459278
30
0
41
1
10
300.377872808965
20
18.0913244324223
30
0
41
1
10
300.396154161762
20
18.1033591220764
30
0
41
1
10
300.455607577006
20
18.1279308423979
30
0
41
1
10
300.500607292203
20
18.1309469297926
30
0
41
1
10
300.588913933
20
18.1250817296545
30
0
41
1
10
300.632617382969
20
18.1158732496154
30
0
41
1
10
300.717259513298
20
18.0898519291101
30
0
41
1
10
300.758380503305
20
18.0728786221152
30
0
41
1
10
300.797615199911
20
18.0527921618566
30
0
0
SPLINE
5
270
100
AcDbEntity
8
1
62
256
6
ByLayer
370
18
48
1
60
0
100
AcDbSpline
70
4
71
3
72
20
73
16
40
0
40
0
40
0
40
0
40
0.125000000000024
40
0.125000000000024
40
0.250000000000048
40
0.250000000000048
40
0.375000000000073
40
0.375000000000073
40
0.500000000000097
40
0.500000000000097
40
0.750000000000048
40
0.750000000000048
40
0.875000000000024
40
0.875000000000024
40
1
40
1
40
1
40
1
41
1
10
301.125949998954
20
15.5734655796985
30
0
41
1
10
301.107464932066
20
15.6006722284416
30
0
41
1
10
301.09860243763
20
15.6333543472248
30
0
41
1
10
301.091134339818
20
15.7006172476809
30
0
41
1
10
301.092697118066
20
15.7350793010686
30
0
41
1
10
301.102670361392
20
15.8041046762748
30
0
41
1
10
301.111226002271
20
15.8387625966564
30
0
41
1
10
301.133501051587
20
15.906072871109
30
0
41
1
10
301.147296483195
20
15.9390973542928
30
0
41
1
10
301.196506972891
20
16.0363706946998
30
0
41
1
10
301.238581297131
20
16.0970214191189
30
0
41
1
10
301.314642702759
20
16.1726547175811
30
0
41
1
10
301.342223428129
20
16.1952929212983
30
0
41
1
10
301.401848798
20
16.2308936319538
30
0
41
1
10
301.433841232013
20
16.2441028917022
30
0
41
1
10
301.467278257243
20
16.246558128087
30
0
0
SPLINE
5
271
100
AcDbEntity
8
1
62
256
6
ByLayer
370
18
48
1
60
0
100
AcDbSpline
70
4
71
3
72
16
73
12
40
0
40
0
40
0
40
0
40
0.125
40
0.125
40
0.25
40
0.25
40
0.5
40
0.5
40
0.75
40
0.75
40
1
40
1
40
1
40
1
41
1
10
299.720260719401
20
15.0951397163677
30
0
41
1
10
299.719644545488
20
15.0758215510725
30
0
41
1
10
299.713760419381
20
15.0572965705108
30
0
41
1
10
299.691188562014
20
15.0266820303432
30
0
41
1
10
299.674595022251
20
15.0147357952221
30
0
41
1
10
299.619216329739
20
14.9903776220702
30
0
41
1
10
299.575812719756
20
14.9874451830052
30
0
41
1
10
299.489825556881
20
14.9934319418303
30
0
41
1
10
299.446810335939
20
15.0026764904244
30
0
41
1
10
299.363064025426
20
15.0287447588569
30
0
41
1
10
299.322140275374
20
15.0457284027598
30
0
41
1
10
299.282905578768
20
15.0658148630183
30
0
0
SPLINE
5
272
100
AcDbEntity
8
1
62
256
6
ByLayer
370
18
48
1
60
0
100
AcDbSpline
70
4
71
3
72
8
73
4
40
0
40
0
40
0
40
0
40
1
40
1
40
1
40
1
41
1
10
301.026642208375
20
17.6712980748562
30
0
41
1
10
301.023413150011
20
17.665274948691
30
0
41
1
10
301.020183867888
20
17.6592510630404
30
0
41
1
10
301.016954353535
20
17.6532263883097
30
0
0
SPLINE
5
273
100
AcDbEntity
8
1
62
256
6
ByLayer
370
18
48
1
60
0
100
AcDbSpline
70
4
71
3
72
8
73
4
40
0
40
0
40
0
40
0
40
1
40
1
40
1
40
1
41
1
10
299.728643845485
20
15.1127036454121
30
0
41
1
10
299.725848910192
20
15.1068482250521
30
0
41
1
10
299.723054542003
20
15.100993591887
30
0
41
1
10
299.720260719401
20
15.0951397163676
30
0
0
SPLINE
5
274
100
AcDbEntity
8
1
62
256
6
ByLayer
370
18
48
1
60
0
100
AcDbSpline
70
4
71
3
72
8
73
4
40
0
40
0
40
0
40
0
40
1
40
1
40
1
40
1
41
1
10
301.125949998954
20
15.5734655796984
30
0
41
1
10
301.129791571681
20
15.5678114849388
30
0
41
1
10
301.133632830969
20
15.5621581506618
30
0
41
1
10
301.137473788336
20
15.5565055483205
30
0
0
SPLINE
5
275
100
AcDbEntity
8
1
62
256
6
ByLayer
370
18
48
1
60
0
100
AcDbSpline
70
4
71
3
72
16
73
12
40
0
40
0
40
0
40
0
40
0.125000000000004
40
0.125000000000004
40
0.250000000000008
40
0.250000000000008
40
0.500000000000006
40
0.500000000000006
40
0.750000000000003
40
0.750000000000003
40
1
40
1
40
1
40
1
41
1
10
298.613292521034
20
16.0974264531122
30
0
41
1
10
298.596803796393
20
16.0892493883452
30
0
41
1
10
298.578370456002
20
16.0860659807267
30
0
41
1
10
298.54154935911
20
16.0921208705322
30
0
41
1
10
298.523329308087
20
16.1013429167457
30
0
41
1
10
298.4755417724
20
16.1391712768729
30
0
41
1
10
298.451656777269
20
16.1761766412235
30
0
41
1
10
298.414317373609
20
16.2550040541419
30
0
41
1
10
298.400919490775
20
16.2973483939926
30
0
41
1
10
298.381692291382
20
16.3836213743889
30
0
41
1
10
298.375902102258
20
16.4277928635232
30
0
41
1
10
298.373587563661
20
16.4719568908523
30
0
0
SPLINE
5
276
100
AcDbEntity
8
1
62
256
6
ByLayer
370
18
48
1
60
0
100
AcDbSpline
70
4
71
3
72
16
73
12
40
0
40
0
40
0
40
0
40
0.12499999999999
40
0.12499999999999
40
0.24999999999998
40
0.24999999999998
40
0.499999999999987
40
0.499999999999987
40
0.749999999999994
40
0.749999999999994
40
1
40
1
40
1
40
1
41
1
10
301.137473788336
20
15.5565055483205
30
0
41
1
10
301.154393389677
20
15.5454193213899
30
0
41
1
10
301.168006368874
20
15.5301334980034
30
0
41
1
10
301.184169888393
20
15.4935643911937
30
0
41
1
10
301.186640306171
20
15.4724403371257
30
0
41
1
10
301.181086510712
20
15.4103605774314
30
0
41
1
10
301.162365948466
20
15.3704645981807
30
0
41
1
10
301.114877928212
20
15.2976847234308
30
0
41
1
10
301.085604704617
20
15.2646029664518
30
0
41
1
10
301.021533503406
20
15.2044217284514
30
0
41
1
10
300.986498562456
20
15.1772390516741
30
0
41
1
10
300.949578404447
20
15.1531614846035
30
0
0
SPLINE
5
277
100
AcDbEntity
8
1
62
256
6
ByLayer
370
18
48
1
60
0
100
AcDbSpline
70
4
71
3
72
16
73
12
40
0
40
0
40
0
40
0
40
0.124999999999983
40
0.124999999999983
40
0.249999999999966
40
0.249999999999966
40
0.499999999999977
40
0.499999999999977
40
0.749999999999989
40
0.749999999999989
40
1
40
1
40
1
40
1
41
1
10
298.923537391602
20
17.5610790218097
30
0
41
1
10
298.908711891487
20
17.5722749959352
30
0
41
1
10
298.897226442116
20
17.5876723184352
30
0
41
1
10
298.884891482586
20
17.6244420715717
30
0
41
1
10
298.884108877842
20
17.6456545801728
30
0
41
1
10
298.893737396034
20
17.7079478870367
30
0
41
1
10
298.914054063493
20
17.7479275146171
30
0
41
1
10
298.963861561669
20
17.8208289480539
30
0
41
1
10
298.993823014291
20
17.853946773588
30
0
41
1
10
299.058790035318
20
17.9141749595155
30
0
41
1
10
299.094022216223
20
17.9413679732008
30
0
41
1
10
299.130942374232
20
17.9654455402714
30
0
0
SPLINE
5
278
100
AcDbEntity
8
1
62
256
6
ByLayer
370
18
48
1
60
0
100
AcDbSpline
70
4
71
3
72
18
73
14
40
0
40
0
40
0
40
0
40
0.125
40
0.125
40
0.250000000000001
40
0.250000000000001
40
0.500000000000001
40
0.500000000000001
40
0.750000000000002
40
0.750000000000002
40
0.875000000000001
40
0.875000000000001
40
1
40
1
40
1
40
1
41
1
10
300.479787859872
20
15.1520694351278
30
0
41
1
10
300.460214481679
20
15.1783927711553
30
0
41
1
10
300.43216593697
20
15.1983191394308
30
0
41
1
10
300.370413532282
20
15.2301625361446
30
0
41
1
10
300.336720675928
20
15.2418448991916
30
0
41
1
10
300.232637717771
20
15.2678849590301
30
0
41
1
10
300.159024775319
20
15.2734636043906
30
0
41
1
10
300.014509044511
20
15.265876544594
30
0
41
1
10
299.943865063843
20
15.2527884386485
30
0
41
1
10
299.847980543295
20
15.216198256824
30
0
41
1
10
299.81775667198
20
15.2011157010328
30
0
41
1
10
299.764892363344
20
15.1633298946665
30
0
41
1
10
299.742039748872
20
15.1407682112079
30
0
41
1
10
299.728643845485
20
15.1127036454121
30
0
0
SPLINE
5
279
100
AcDbEntity
8
1
62
256
6
ByLayer
370
18
48
1
60
0
100
AcDbSpline
70
4
71
3
72
18
73
14
40
0
40
0
40
0
40
0
40
0.124999999999996
40
0.124999999999996
40
0.249999999999992
40
0.249999999999992
40
0.499999999999991
40
0.499999999999991
40
0.74999999999999
40
0.74999999999999
40
0.874999999999995
40
0.874999999999995
40
1
40
1
40
1
40
1
41
1
10
301.426770109631
20
17.0194996296369
30
0
41
1
10
301.393280638529
20
17.0184469559849
30
0
41
1
10
301.360047969451
20
17.0282353668422
30
0
41
1
10
301.296897293633
20
17.0574891309218
30
0
41
1
10
301.267182824586
20
17.0770938932999
30
0
41
1
10
301.183816470686
20
17.1442144427558
30
0
41
1
10
301.135632487231
20
17.2000807838981
30
0
41
1
10
301.056795670404
20
17.3221769642159
30
0
41
1
10
301.026369829482
20
17.3879723115694
30
0
41
1
10
301.000785310678
20
17.4890225883615
30
0
41
1
10
300.995609726893
20
17.5235137696527
30
0
41
1
10
300.996028779963
20
17.5906625195641
30
0
41
1
10
301.001385459356
20
17.6241825405166
30
0
41
1
10
301.016954353535
20
17.6532263883097
30
0
0
SPLINE
5
27A
100
AcDbEntity
8
1
62
256
6
ByLayer
370
18
48
1
60
0
100
AcDbSpline
70
4
71
3
72
16
73
12
40
0
40
0
40
0
40
0
40
0.250000000000002
40
0.250000000000002
40
0.500000000000004
40
0.500000000000004
40
0.750000000000006
40
0.750000000000006
40
0.875000000000003
40
0.875000000000003
40
1
40
1
40
1
40
1
41
1
10
299.282905578768
20
15.0658148630183
30
0
41
1
10
299.243643728897
20
15.0859152245688
30
0
41
1
10
299.205846278802
20
15.1092214426918
30
0
41
1
10
299.134857674937
20
15.1623870633747
30
0
41
1
10
299.101618168274
20
15.1921667305901
30
0
41
1
10
299.044350057249
20
15.2596239622673
30
0
41
1
10
299.019912339907
20
15.297264963552
30
0
41
1
10
299.003882904922
20
15.3587364087682
30
0
41
1
10
299.002594087238
20
15.379654467233
30
0
41
1
10
299.011074276246
20
15.4172383305522
30
0
41
1
10
299.020845443596
20
15.4336493185356
30
0
41
1
10
299.034368971562
20
15.446286495274
30
0
0
SPLINE
5
27B
100
AcDbEntity
8
1
62
256
6
ByLayer
370
18
48
1
60
0
100
AcDbSpline
70
4
71
3
72
8
73
4
40
0
40
0
40
0
40
0
40
1
40
1
40
1
40
1
41
1
10
301.467278257243
20
16.246558128087
30
0
41
1
10
301.474246517044
20
16.2470697981558
30
0
41
1
10
301.481214048549
20
16.2475814106211
30
0
41
1
10
301.488180878844
20
16.2480929676317
30
0
0
SPLINE
5
27C
100
AcDbEntity
8
1
62
256
6
ByLayer
370
18
48
1
60
0
100
AcDbSpline
70
4
71
3
72
16
73
12
40
0
40
0
40
0
40
0
40
0.249999999999936
40
0.249999999999936
40
0.499999999999872
40
0.499999999999872
40
0.749999999999809
40
0.749999999999809
40
0.874999999999904
40
0.874999999999904
40
1
40
1
40
1
40
1
41
1
10
301.706933215018
20
16.6466501340227
30
0
41
1
10
301.704617074592
20
16.690844726072
30
0
41
1
10
301.69864596216
20
16.7349065644578
30
0
41
1
10
301.678502626059
20
16.8212310449834
30
0
41
1
10
301.664431959361
20
16.8635117158452
30
0
41
1
10
301.62466742015
20
16.942383942665
30
0
41
1
10
301.599207095646
20
16.9793580483063
30
0
41
1
10
301.54680805363
20
17.0171109695548
30
0
41
1
10
301.527084050309
20
17.0260064787526
30
0
41
1
10
301.486674427878
20
17.0317067376285
30
0
41
1
10
301.46623240689
20
17.0284141244395
30
0
41
1
10
301.447718658903
20
17.020158117018
30
0
0
SPLINE
5
27D
100
AcDbEntity
8
1
62
256
6
ByLayer
370
18
48
1
60
0
100
AcDbSpline
70
4
71
3
72
8
73
4
40
0
40
0
40
0
40
0
40
1
40
1
40
1
40
1
41
1
10
301.447718658903
20
17.020158117018
30
0
41
1
10
301.440736521365
20
17.0199386396011
30
0
41
1
10
301.433753680662
20
17.0197191440389
30
0
41
1
10
301.426770109631
20
17.0194996296369
30
0
0
SPLINE
5
27E
100
AcDbEntity
8
1
62
256
6
ByLayer
370
18
48
1
60
0
100
AcDbSpline
70
4
71
3
72
18
73
14
40
0
40
0
40
0
40
0
40
0.125
40
0.125
40
0.25
40
0.25
40
0.5
40
0.5
40
0.75
40
0.75
40
0.875
40
0.875
40
1
40
1
40
1
40
1
41
1
10
298.591649655082
20
16.8709172626141
30
0
41
1
10
298.621706373272
20
16.8731941875562
30
0
41
1
10
298.650759011504
20
16.8862252209097
30
0
41
1
10
298.705368342991
20
16.9215956289911
30
0
41
1
10
298.730735245917
20
16.9440546216288
30
0
41
1
10
298.801477950945
20
17.019143590089
30
0
41
1
10
298.84180102841
20
17.0795612239043
30
0
41
1
10
298.907460822346
20
17.2090680793178
30
0
41
1
10
298.932727396396
20
17.2778882887753
30
0
41
1
10
298.952799747394
20
17.3820286521627
30
0
41
1
10
298.956439009856
20
17.416873429269
30
0
41
1
10
298.953961033485
20
17.4841729202515
30
0
41
1
10
298.948063376041
20
17.5167358278865
30
0
41
1
10
298.932977913372
20
17.5440098110026
30
0
0
SPLINE
5
27F
100
AcDbEntity
8
1
62
256
6
ByLayer
370
18
48
1
60
0
100
AcDbSpline
70
4
71
3
72
18
73
14
40
0
40
0
40
0
40
0
40
0.125000000000022
40
0.125000000000022
40
0.250000000000044
40
0.250000000000044
40
0.500000000000088
40
0.500000000000088
40
0.750000000000133
40
0.750000000000133
40
0.875000000000066
40
0.875000000000066
40
1
40
1
40
1
40
1
41
1
10
299.579140052454
20
17.9654059555732
30
0
41
1
10
299.595388166816
20
17.9389083498529
30
0
41
1
10
299.620492680185
20
17.9188276914327
30
0
41
1
10
299.67716058001
20
17.8867178271103
30
0
41
1
10
299.708737764999
20
17.8749245864253
30
0
41
1
10
299.807720811087
20
17.8486172515207
30
0
41
1
10
299.879596034659
20
17.8429475361727
30
0
41
1
10
300.024114107685
20
17.8505347187198
30
0
41
1
10
300.096487493506
20
17.8637134589488
30
0
41
1
10
300.197483174777
20
17.9005715053563
30
0
41
1
10
300.229829859738
20
17.9157653130966
30
0
41
1
10
300.287768651469
20
17.953817061853
30
0
41
1
10
300.313561272449
20
17.9765328245236
30
0
41
1
10
300.330284066841
20
18.004771745289
30
0
0
SPLINE
5
280
100
AcDbEntity
8
1
62
256
6
ByLayer
370
18
48
1
60
0
100
AcDbSpline
70
4
71
3
72
16
73
12
40
0
40
0
40
0
40
0
40
0.249999999999997
40
0.249999999999997
40
0.499999999999994
40
0.499999999999994
40
0.749999999999991
40
0.749999999999991
40
0.874999999999995
40
0.874999999999995
40
1
40
1
40
1
40
1
41
1
10
298.373587563661
20
16.4719568908523
30
0
41
1
10
298.371271423235
20
16.5161514829016
30
0
41
1
10
298.372407501275
20
16.560585793357
30
0
41
1
10
298.382520446237
20
16.6484959383824
30
0
41
1
10
298.391407291942
20
16.6919797614872
30
0
41
1
10
298.420383506408
20
16.7744545385534
30
0
41
1
10
298.440247216149
20
16.8138039761777
30
0
41
1
10
298.484290198764
20
16.8566112097666
30
0
41
1
10
298.501300020746
20
16.8674318571731
30
0
41
1
10
298.537082904702
20
16.8771251961067
30
0
41
1
10
298.555641302417
20
16.875876508253
30
0
41
1
10
298.572830301093
20
16.8694916024985
30
0
0
SPLINE
5
281
100
AcDbEntity
8
1
62
256
6
ByLayer
370
18
48
1
60
0
100
AcDbSpline
70
4
71
3
72
8
73
4
40
0
40
0
40
0
40
0
40
1
40
1
40
1
40
1
41
1
10
299.568966919499
20
17.9819973922896
30
0
41
1
10
299.572357333862
20
17.9764676188961
30
0
41
1
10
299.575748370017
20
17.9709371490367
30
0
41
1
10
299.579140052454
20
17.9654059555732
30
0
0
SPLINE
5
282
100
AcDbEntity
8
1
62
256
6
ByLayer
370
18
48
1
60
0
100
AcDbSpline
70
4
71
1
72
4
73
2
40
0
40
0
40
1
40
1
41
1
10
310.493919067275
20
-8.6844273031237
30
0
41
1
10
310.990150541475
20
-9.14952713051753
30
0
0
SPLINE
5
283
100
AcDbEntity
8
1
62
256
6
ByLayer
370
18
48
1
60
0
100
AcDbSpline
70
4
71
1
72
4
73
2
40
0
40
0
40
1
40
1
41
1
10
309.10470101664
20
-18.767719866044
30
0
41
1
10
308.998200600034
20
-17.8191267797142
30
0
0
SPLINE
5
284
100
AcDbEntity
8
1
62
256
6
ByLayer
370
18
48
1
60
0
100
AcDbSpline
70
4
71
3
72
12
73
8
40
0
40
0
40
0
40
0
40
0.250320940111032
40
0.250320940111032
40
0.500642180984134
40
0.500642180984134
40
1
40
1
40
1
40
1
41
1
10
309.10470101664
20
-18.7677669947228
30
0
41
1
10
309.112756568435
20
-18.7664996824537
30
0
41
1
10
309.120793615894
20
-18.7651103305407
30
0
41
1
10
309.13681928505
20
-18.7620884639983
30
0
41
1
10
309.144809777538
20
-18.7604555957645
30
0
41
1
10
309.168650849037
20
-18.7552043309933
30
0
41
1
10
309.184428971323
20
-18.751222773638
30
0
41
1
10
309.200063329262
20
-18.7467707821882
30
0
0
SPLINE
5
285
100
AcDbEntity
8
1
62
256
6
ByLayer
370
18
48
1
60
0
100
AcDbSpline
70
4
71
3
72
10
73
6
40
0
40
0
40
0
40
0
40
0.505192034564017
40
0.505192034564017
40
1
40
1
40
1
40
1
41
1
10
309.200063329253
20
-18.7467707821907
30
0
41
1
10
309.259703430108
20
-18.7297878513811
30
0
41
1
10
309.319343531377
20
-18.7128067423832
30
0
41
1
10
309.437397849208
20
-18.6791919923403
30
0
41
1
10
309.495812066353
20
-18.6625583086002
30
0
41
1
10
309.554226283001
20
-18.6459257469259
30
0
0
SPLINE
5
286
100
AcDbEntity
8
1
62
256
6
ByLayer
370
18
48
1
60
0
100
AcDbSpline
70
4
71
3
72
8
73
4
40
0
40
0
40
0
40
0
40
1
40
1
40
1
40
1
41
1
10
309.545810676908
20
-0.131765765557731
30
0
41
1
10
309.554801985075
20
-0.162903533312829
30
0
41
1
10
309.561849090314
20
-0.194469315156681
30
0
41
1
10
309.566951992627
20
-0.226463111089345
30
0
0
SPLINE
5
287
100
AcDbEntity
8
1
62
256
6
ByLayer
370
18
48
1
60
0
100
AcDbSpline
70
4
71
3
72
8
73
4
40
0
40
0
40
0
40
0
40
1
40
1
40
1
40
1
41
1
10
309.200063329262
20
-18.7467259699699
30
0
41
1
10
309.168706911148
20
-18.755654581249
30
0
41
1
10
309.136919473608
20
-18.762652546607
30
0
41
1
10
309.10470101664
20
-18.7677198660441
30
0
0
SPLINE
5
288
100
AcDbEntity
8
1
62
256
6
ByLayer
370
18
48
1
60
0
100
AcDbSpline
70
4
71
2
72
6
73
3
40
0
40
0
40
0
40
1
40
1
40
1
41
1
10
309.086559657851
20
0.139329662339804
30
0
41
1
10
309.07890530438
20
0.187320355975714
30
0
41
1
10
309.065418342089
20
0.234027007876051
30
0
0
SPLINE
5
289
100
AcDbEntity
8
1
62
256
6
ByLayer
370
18
48
1
60
0
100
AcDbSpline
70
4
71
1
72
4
73
2
40
0
40
0
40
1
40
1
41
1
10
309.093562912656
20
-17.798132883643
30
0
41
1
10
309.200063329262
20
-18.7467259699699
30
0
0
SPLINE
5
28A
100
AcDbEntity
8
1
62
256
6
ByLayer
370
18
48
1
60
0
100
AcDbSpline
70
4
71
2
72
12
73
9
40
0
40
0
40
0
40
0.25
40
0.5
40
0.5
40
0.75
40
0.75
40
0.875
40
1
40
1
40
1
41
1
10
309.107138951162
20
-17.7942671624333
30
0
41
1
10
309.155623071311
20
-17.7804615083396
30
0
41
1
10
309.241353049934
20
-17.7264289486697
30
0
41
1
10
309.275618576794
20
-17.6872689909283
30
0
41
1
10
309.308388915893
20
-17.6498177910809
30
0
41
1
10
309.329955610052
20
-17.6025387836413
30
0
41
1
10
309.339971554248
20
-17.5805815983318
30
0
41
1
10
309.354254536069
20
-17.5313112302107
30
0
41
1
10
309.357671578102
20
-17.5055372049644
30
0
0
SPLINE
5
28B
100
AcDbEntity
8
1
62
256
6
ByLayer
370
18
48
1
60
0
100
AcDbSpline
70
4
71
1
72
4
73
2
40
0
40
0
40
1
40
1
41
1
10
310.824553115927
20
-8.11127675370807
30
0
41
1
10
309.566951992627
20
-0.226463111089373
30
0
0
SPLINE
5
28C
100
AcDbEntity
8
1
62
256
6
ByLayer
370
18
48
1
60
0
100
AcDbSpline
70
4
71
1
72
4
73
2
40
0
40
0
40
1
40
1
41
1
10
309.357671578102
20
-17.505537204964
30
0
41
1
10
309.802578065256
20
-18.3577705524841
30
0
0
SPLINE
5
28D
100
AcDbEntity
8
1
62
256
6
ByLayer
370
18
48
1
60
0
100
AcDbSpline
70
4
71
3
72
12
73
8
40
0
40
0
40
0
40
0
40
0.500000000000124
40
0.500000000000124
40
0.750000000000062
40
0.750000000000062
40
1
40
1
40
1
40
1
41
1
10
309.802578065256
20
-18.357815783285
30
0
41
1
10
309.793678272144
20
-18.4244731907216
30
0
41
1
10
309.764643241099
20
-18.4882773430846
30
0
41
1
10
309.698462089772
20
-18.5647119716583
30
0
41
1
10
309.67258793132
20
-18.5869680775883
30
0
41
1
10
309.61557571143
20
-18.6230962848734
30
0
41
1
10
309.584350504081
20
-18.6364634165115
30
0
41
1
10
309.552045438333
20
-18.6465467111331
30
0
0
SPLINE
5
28E
100
AcDbEntity
8
1
62
256
6
ByLayer
370
18
48
1
60
0
100
AcDbSpline
70
4
71
1
72
4
73
2
40
0
40
0
40
1
40
1
41
1
10
309.802578065256
20
-18.3577705524839
30
0
41
1
10
310.854591960087
20
-10.4226522789936
30
0
0
SPLINE
5
28F
100
AcDbEntity
8
1
62
256
6
ByLayer
370
18
48
1
60
0
100
AcDbSpline
70
4
71
1
72
4
73
2
40
0
40
0
40
1
40
1
41
1
10
310.971827802804
20
-9.53836711658184
30
0
41
1
10
310.9931557581
20
-9.37749486134027
30
0
0
SPLINE
5
290
100
AcDbEntity
8
1
62
256
6
ByLayer
370
18
48
1
60
0
100
AcDbSpline
70
4
71
3
72
8
73
4
40
0
40
0
40
0
40
0
40
1
40
1
40
1
40
1
41
1
10
310.999933060269
20
-9.26340336178134
30
0
41
1
10
311.000436224146
20
-9.30157203357609
30
0
41
1
10
310.998063746241
20
-9.33961910164268
30
0
41
1
10
310.994132053527
20
-9.37759454329088
30
0
0
SPLINE
5
291
100
AcDbEntity
8
1
62
256
6
ByLayer
370
18
48
1
60
0
100
AcDbSpline
70
4
71
3
72
29
73
25
40
0
40
0
40
0
40
0
40
0.0029611272527797
40
0.0106724165744121
40
0.0260949952176769
40
0.0569401525042065
40
0.118630467077266
40
0.242011096223384
40
0.365391725369502
40
0.427082039942562
40
0.484916709854805
40
0.488772354515621
40
0.496483643837253
40
0.504194933158886
40
0.519617511802151
40
0.55046266908868
40
0.612152983661739
40
0.735533612807858
40
0.858914241953976
40
0.978439226439278
40
0.982294871100095
40
0.990006160421727
40
0.997717449743359
40
1
40
1
40
1
40
1
41
1
10
308.947780660692
20
-17.6246018338768
30
0
41
1
10
308.96906652816
20
-17.6153723914568
30
0
41
1
10
309.045452429739
20
-17.5763545990592
30
0
41
1
10
309.203912298444
20
-17.4252063239979
30
0
41
1
10
309.221436994439
20
-17.0414323416881
30
0
41
1
10
309.323300052757
20
-16.4156078922128
30
0
41
1
10
309.48292671939
20
-15.1158155797657
30
0
41
1
10
309.734168104084
20
-13.2802034495519
30
0
41
1
10
309.972399151129
20
-11.4374715276172
30
0
41
1
10
310.173213606242
20
-9.98854724540033
30
0
41
1
10
310.269990981301
20
-9.2512767174411
30
0
41
1
10
310.323738627907
20
-8.82598423669509
30
0
41
1
10
310.316425230233
20
-8.69069535126789
30
0
41
1
10
310.27245180172
20
-8.50268358626317
30
0
41
1
10
310.230451521247
20
-8.18543619195586
30
0
41
1
10
310.122295761836
20
-7.5420185757649
30
0
41
1
10
309.921268209842
20
-6.25856013751172
30
0
41
1
10
309.626933134516
20
-4.42415071732236
30
0
41
1
10
309.279492452624
20
-2.24608306438805
30
0
41
1
10
309.04580238703
20
-0.778894472077383
30
0
41
1
10
308.922305911503
20
0.0113459568752887
30
0
41
1
10
308.869790043809
20
0.157608178124406
30
0
41
1
10
308.766517813875
20
0.264371374623096
30
0
41
1
10
308.702496853286
20
0.299992970746843
30
0
41
1
10
308.687642199318
20
0.307043840054575
30
0
0
SPLINE
5
292
100
AcDbEntity
8
1
62
256
6
ByLayer
370
18
48
1
60
0
100
AcDbSpline
70
4
71
1
72
4
73
2
40
0
40
0
40
1
40
1
41
1
10
309.065418342089
20
0.234027007875852
30
0
41
1
10
309.545810676908
20
-0.131765765557674
30
0
0
SPLINE
5
293
100
AcDbEntity
8
1
62
256
6
ByLayer
370
18
48
1
60
0
100
AcDbSpline
70
4
71
2
72
7
73
4
40
0
40
0
40
0
40
0.5
40
1
40
1
40
1
41
1
10
310.496924283934
20
-8.91239503394775
30
0
41
1
10
310.504416423604
20
-8.85588340899329
30
0
41
1
10
310.502990374546
20
-8.74130190836974
30
0
41
1
10
310.493919067275
20
-8.68442730312347
30
0
0
SPLINE
5
294
100
AcDbEntity
8
1
62
256
6
ByLayer
370
18
48
1
60
0
100
AcDbSpline
70
4
71
3
72
12
73
8
40
0
40
0
40
0
40
0
40
0.500000000000156
40
0.500000000000156
40
0.750000000000078
40
0.750000000000078
40
1
40
1
40
1
40
1
41
1
10
309.15412400493
20
0.466502368585196
30
0
41
1
10
309.221249435533
20
0.457664587801645
30
0
41
1
10
309.285500339769
20
0.428830746242909
30
0
41
1
10
309.362472678888
20
0.36311205785637
30
0
41
1
10
309.384884951019
20
0.337418205541809
30
0
41
1
10
309.421266529644
20
0.280803215676087
30
0
41
1
10
309.434727430506
20
0.249795649115896
30
0
41
1
10
309.444881431253
20
0.217715750185221
30
0
0
SPLINE
5
295
100
AcDbEntity
8
1
62
256
6
ByLayer
370
18
48
1
60
0
100
AcDbSpline
70
4
71
1
72
4
73
2
40
0
40
0
40
1
40
1
41
1
10
310.915156809625
20
-8.67933702886739
30
0
41
1
10
310.824553115927
20
-8.11127675370807
30
0
0
SPLINE
5
296
100
AcDbEntity
8
1
62
256
6
ByLayer
370
18
48
1
60
0
100
AcDbSpline
70
4
71
1
72
4
73
2
40
0
40
0
40
1
40
1
41
1
10
309.15412400493
20
0.466547599386217
30
0
41
1
10
308.590020271341
20
0.540295405908353
30
0
0
SPLINE
5
297
100
AcDbEntity
8
1
62
256
6
ByLayer
370
18
48
1
60
0
100
AcDbSpline
70
4
71
2
72
6
73
3
40
0
40
0
40
0
40
1
40
1
40
1
41
1
10
308.998200600034
20
-17.8191267797142
30
0
41
1
10
309.046528285486
20
-17.8115258005662
30
0
41
1
10
309.093562912656
20
-17.798132883643
30
0
0
SPLINE
5
298
100
AcDbEntity
8
1
62
256
6
ByLayer
370
18
48
1
60
0
100
AcDbSpline
70
4
71
2
72
12
73
9
40
0
40
0
40
0
40
0.25
40
0.5
40
0.5
40
0.75
40
0.75
40
0.875
40
1
40
1
40
1
41
1
10
309.061525475782
20
0.24750837953988
30
0
41
1
10
309.047622878045
20
0.295654417036559
30
0
41
1
10
308.993210900418
20
0.380786595413753
30
0
41
1
10
308.953775960492
20
0.414813186721119
30
0
41
1
10
308.916061777401
20
0.447355016299468
30
0
41
1
10
308.868450775613
20
0.468771324616427
30
0
41
1
10
308.846339406403
20
0.478717427040863
30
0
41
1
10
308.796723060557
20
0.492900812779112
30
0
41
1
10
308.770768049474
20
0.4962940275758
30
0
0
SPLINE
5
299
100
AcDbEntity
8
1
62
256
6
ByLayer
370
18
48
1
60
0
100
AcDbSpline
70
4
71
1
72
4
73
2
40
0
40
0
40
1
40
1
41
1
10
309.552045438333
20
-18.6465005099581
30
0
41
1
10
309.107138951162
20
-17.7942671624332
30
0
0
SPLINE
5
29A
100
AcDbEntity
8
1
62
256
6
ByLayer
370
18
48
1
60
0
100
AcDbSpline
70
4
71
3
72
8
73
4
40
0
40
0
40
0
40
0
40
1
40
1
40
1
40
1
41
1
10
310.991114580226
20
-9.14940318374317
30
0
41
1
10
310.996050494163
20
-9.18726299267323
30
0
41
1
10
310.999429899271
20
-9.22523490837054
30
0
41
1
10
310.999933060269
20
-9.26340336178134
30
0
0
SPLINE
5
29B
100
AcDbEntity
8
1
62
256
6
ByLayer
370
18
48
1
60
0
100
AcDbSpline
70
4
71
1
72
4
73
2
40
0
40
0
40
1
40
1
41
1
10
309.444881431253
20
0.217761951359478
30
0
41
1
10
309.061525475782
20
0.247508379539852
30
0
0
SPLINE
5
29C
100
AcDbEntity
8
1
62
256
6
ByLayer
370
18
48
1
60
0
100
AcDbSpline
70
4
71
1
72
4
73
2
40
0
40
0
40
1
40
1
41
1
10
310.854591960087
20
-10.4226522789936
30
0
41
1
10
310.930382905267
20
-9.85097721175546
30
0
0
SPLINE
5
29D
100
AcDbEntity
8
1
62
256
6
ByLayer
370
18
48
1
60
0
100
AcDbSpline
70
4
71
1
72
4
73
2
40
0
40
0
40
1
40
1
41
1
10
310.930382905267
20
-9.85097721175546
30
0
41
1
10
310.971827802804
20
-9.53836711658184
30
0
0
SPLINE
5
29E
100
AcDbEntity
8
1
62
256
6
ByLayer
370
18
48
1
60
0
100
AcDbSpline
70
4
71
1
72
4
73
2
40
0
40
0
40
1
40
1
41
1
10
308.770768049474
20
0.496294027575857
30
0
41
1
10
309.15412400493
20
0.466547599386217
30
0
0
SPLINE
5
29F
100
AcDbEntity
8
1
62
256
6
ByLayer
370
18
48
1
60
0
100
AcDbSpline
70
4
71
1
72
4
73
2
40
0
40
0
40
1
40
1
41
1
10
310.964700644997
20
-8.98996326942367
30
0
41
1
10
310.915156809625
20
-8.67933702886739
30
0
0
SPLINE
5
2A0
100
AcDbEntity
8
1
62
256
6
ByLayer
370
18
48
1
60
0
100
AcDbSpline
70
4
71
1
72
4
73
2
40
0
40
0
40
1
40
1
41
1
10
310.9931557581
20
-9.37749486134027
30
0
41
1
10
310.496924283934
20
-8.91239503394752
30
0
0
SPLINE
5
2A1
100
AcDbEntity
8
1
62
256
6
ByLayer
370
18
48
1
60
0
100
AcDbSpline
70
4
71
3
72
26
73
22
40
0
40
0
40
0
40
0
40
0.0032722718232113
40
0.0190044476156317
40
0.0504687992004726
40
0.113397502370154
40
0.239254908709518
40
0.365112315048881
40
0.428041018218563
40
0.48703667744014
40
0.490969721388245
40
0.498835809284455
40
0.506701897180665
40
0.522434072973086
40
0.553898424557927
40
0.616827127727609
40
0.742684534066972
40
0.868541940406336
40
0.990466302797594
40
0.994399346745699
40
1
40
1
40
1
40
1
41
1
10
308.990289533791
20
-17.412420164757
30
0
41
1
10
309.002147897031
20
-17.3998543152298
30
0
41
1
10
309.063069195689
20
-17.3202409555368
30
0
41
1
10
309.07707443411
20
-17.0135397081249
30
0
41
1
10
309.179817856301
20
-16.3823064947177
30
0
41
1
10
309.339223859715
20
-15.0843109770097
30
0
41
1
10
309.590526984392
20
-13.2482477640194
30
0
41
1
10
309.828773542471
20
-11.4053958632755
30
0
41
1
10
310.029607127544
20
-9.95633355382381
30
0
41
1
10
310.126272831566
20
-9.21991375946581
30
0
41
1
10
310.178363153977
20
-8.80773529509909
30
0
41
1
10
310.172424334615
20
-8.69787442218578
30
0
41
1
10
310.129720348693
20
-8.51529025631237
30
0
41
1
10
310.087126261432
20
-8.19355756680693
30
0
41
1
10
309.979251845863
20
-7.5518136625405
30
0
41
1
10
309.778141974519
20
-6.2678296572029
30
0
41
1
10
309.483838807014
20
-4.43361909882398
30
0
41
1
10
309.136385227822
20
-2.25547059412912
30
0
41
1
10
308.902659614214
20
-0.788058818858161
30
0
41
1
10
308.783288752526
20
-0.0242177412704052
30
0
41
1
10
308.766947779668
20
0.0273002935815612
30
0
41
1
10
308.753953145662
20
0.0551623349335557
30
0
0
SPLINE
5
2A2
100
AcDbEntity
8
1
62
256
6
ByLayer
370
18
48
1
60
0
100
AcDbSpline
70
4
71
1
72
4
73
2
40
0
40
0
40
1
40
1
41
1
10
309.566951992627
20
-0.226463111089373
30
0
41
1
10
309.086559657851
20
0.139329662340032
30
0
0
SPLINE
5
2A3
100
AcDbEntity
8
1
62
256
6
ByLayer
370
18
48
1
60
0
100
AcDbSpline
70
4
71
1
72
4
73
2
40
0
40
0
40
1
40
1
41
1
10
310.990150541474
20
-9.1495271305175
30
0
41
1
10
310.964700644997
20
-8.98996326942367
30
0
0
SPLINE
5
2A4
100
AcDbEntity
8
1
62
256
6
ByLayer
370
13
48
1
60
0
100
AcDbSpline
70
4
71
3
72
10
73
6
40
0
40
0
40
0
40
0
40
0.5
40
0.5
40
1
40
1
40
1
40
1
41
1
10
292.878223886348
20
7.50228872688911
30
0
41
1
10
292.87447634121
20
7.50209232637067
30
0
41
1
10
292.857399510896
20
7.51188335787342
30
0
41
1
10
292.806916880651
20
7.54485536470136
30
0
41
1
10
292.77347154053
20
7.56800234741436
30
0
41
1
10
292.741532311568
20
7.5908748123172
30
0
0
SPLINE
5
2A5
100
AcDbEntity
8
1
62
256
6
ByLayer
370
13
48
1
60
0
100
AcDbSpline
70
4
71
2
72
6
73
3
40
0
40
0
40
0
40
1
40
1
40
1
41
1
10
289.185408335082
20
15.921738542277
30
0
41
0.997409491337352
10
289.186173585833
20
15.8640484278791
30
0
41
1
10
289.195172435203
20
15.8070617720435
30
0
0
SPLINE
5
2A6
100
AcDbEntity
8
1
62
256
6
ByLayer
370
13
48
1
60
0
100
AcDbSpline
70
4
71
3
72
20
73
16
40
0
40
0
40
0
40
0
40
0.062500000000036
40
0.062500000000036
40
0.125000000000072
40
0.125000000000072
40
0.140625000000076
40
0.140625000000076
40
0.156250000000079
40
0.156250000000079
40
0.187500000000064
40
0.187500000000064
40
0.250000000000056
40
0.500000000000044
40
1
40
1
40
1
40
1
41
1
10
306.964862827594
20
25.3602223669272
30
0
41
1
10
306.834463352072
20
25.2730145668415
30
0
41
1
10
306.696866120477
20
25.2018281740779
30
0
41
1
10
306.407825414865
20
25.0902755896665
30
0
41
1
10
306.254697804317
20
25.049964230326
30
0
41
1
10
306.063624159449
20
25.021791430905
30
0
41
1
10
306.025339894908
20
25.0172086420639
30
0
41
1
10
305.948628921144
20
25.010197633535
30
0
41
1
10
305.910183931465
20
25.0080459177317
30
0
41
1
10
305.794816340351
20
25.0020842006398
30
0
41
1
10
305.717910958407
20
24.9980137432706
30
0
41
1
10
305.48718690305
20
24.9859220079021
30
0
41
1
10
304.718106718524
20
24.9456162233406
30
0
41
1
10
302.718498238726
20
24.8408211834788
30
0
41
1
10
300.872705795963
20
24.7440873005362
30
0
41
1
10
299.642177500723
20
24.6795980452377
30
0
0
SPLINE
5
2A7
100
AcDbEntity
8
1
62
256
6
ByLayer
370
13
48
1
60
0
100
AcDbSpline
70
4
71
1
72
4
73
2
40
0
40
0
40
1
40
1
41
1
10
290.615430367333
20
6.81305079952037
30
0
41
1
10
290.584703922022
20
6.81217131676783
30
0
0
SPLINE
5
2A8
100
AcDbEntity
8
1
62
256
6
ByLayer
370
13
48
1
60
0
100
AcDbSpline
70
4
71
3
72
24
73
20
40
0
40
0
40
0
40
0
40
0.0436863032251575
40
0.0436863032251575
40
0.0873726064503148
40
0.0873726064503148
40
0.131058909675472
40
0.131058909675472
40
0.17474521290063
40
0.17474521290063
40
0.262117819350964
40
0.262117819350964
40
0.349490425801298
40
0.349490425801298
40
0.524235638701982
40
0.524235638701982
40
0.698980851602665
40
0.698980851602665
40
1
40
1
40
1
40
1
41
1
10
290.584703922022
20
6.81217131676783
30
0
41
1
10
290.587757145576
20
6.79507722157575
30
0
41
1
10
290.591459246258
20
6.77635787961412
30
0
41
1
10
290.599367122979
20
6.73958448322
30
0
41
1
10
290.603414184373
20
6.72240270651906
30
0
41
1
10
290.610917662981
20
6.69270207872472
30
0
41
1
10
290.6144554486
20
6.67973837765396
30
0
41
1
10
290.621056989216
20
6.65665962680322
30
0
41
1
10
290.624168761082
20
6.64638091101943
30
0
41
1
10
290.633013083562
20
6.61828353774021
30
0
41
1
10
290.638309663915
20
6.60302284059586
30
0
41
1
10
290.648264819549
20
6.57612711687955
30
0
41
1
10
290.652877193455
20
6.5646576906243
30
0
41
1
10
290.666037778121
20
6.53391444649981
30
0
41
1
10
290.673878971833
20
6.51833628474242
30
0
41
1
10
290.688570704782
20
6.49225314358543
30
0
41
1
10
290.695386763898
20
6.48190519105307
30
0
41
1
10
290.71297194765
20
6.45867518144593
30
0
41
1
10
290.723031338217
20
6.44929161687696
30
0
41
1
10
290.732413692025
20
6.44325884529422
30
0
0
SPLINE
5
2A9
100
AcDbEntity
8
1
62
256
6
ByLayer
370
13
48
1
60
0
100
AcDbSpline
70
4
71
1
72
4
73
2
40
0
40
0
40
1
40
1
41
1
10
289.195172435203
20
15.8070617720435
30
0
41
1
10
288.933997650062
20
15.7995861686524
30
0
0
SPLINE
5
2AA
100
AcDbEntity
8
1
62
256
6
ByLayer
370
13
48
1
60
0
100
AcDbSpline
70
4
71
3
72
18
73
14
40
0
40
0
40
0
40
0
40
0.500000000000012
40
0.500000000000012
40
0.750000000000018
40
0.750000000000018
40
0.875000000000033
40
0.875000000000033
40
0.906250000000025
40
0.906250000000025
40
0.937500000000017
40
0.937500000000017
40
1
40
1
40
1
40
1
41
1
10
300.501488826214
20
8.6425927667926
30
0
41
1
10
301.631701020453
20
8.70182467801132
30
0
41
1
10
302.761913443815
20
8.76105155636097
30
0
41
1
10
304.457231781616
20
8.8498994805276
30
0
41
1
10
305.022337390054
20
8.87952800149674
30
0
41
1
10
305.869996628215
20
8.92395023999327
30
0
41
1
10
306.152550680093
20
8.93873345208735
30
0
41
1
10
306.505741377347
20
8.95725894286369
30
0
41
1
10
306.576379002362
20
8.96097684291357
30
0
41
1
10
306.717656118226
20
8.96836621115131
30
0
41
1
10
306.78825454976
20
8.97305945358198
30
0
41
1
10
307.000523485942
20
8.97535245779051
30
0
41
1
10
307.142548097759
20
8.96414014868182
30
0
41
1
10
307.285133633641
20
8.93896906372484
30
0
0
SPLINE
5
2AB
100
AcDbEntity
8
1
62
256
6
ByLayer
370
13
48
1
60
0
100
AcDbSpline
70
4
71
3
72
18
73
14
40
0
40
0
40
0
40
0
40
0.499999999999976
40
0.499999999999976
40
0.749999999999964
40
0.749999999999964
40
0.874999999999958
40
0.874999999999958
40
0.906249999999968
40
0.906249999999968
40
0.937499999999979
40
0.937499999999979
40
1
40
1
40
1
40
1
41
1
10
299.6714405602
20
24.4808571880004
30
0
41
1
10
298.54122836596
20
24.4216252767817
30
0
41
1
10
297.411015942598
20
24.362398398432
30
0
41
1
10
295.715697604797
20
24.2735504742654
30
0
41
1
10
295.15059199636
20
24.2439219532963
30
0
41
1
10
294.302932758198
20
24.1994997147997
30
0
41
1
10
294.020378706321
20
24.1847165027056
30
0
41
1
10
293.667188009067
20
24.1661910119293
30
0
41
1
10
293.596550384051
20
24.1624731118794
30
0
41
1
10
293.455273268188
20
24.1550837436417
30
0
41
1
10
293.384674836653
20
24.150390501211
30
0
41
1
10
293.172405900472
20
24.1480974970025
30
0
41
1
10
293.030381288655
20
24.1593098061112
30
0
41
1
10
292.887795752773
20
24.1844808910682
30
0
0
SPLINE
5
2AC
100
AcDbEntity
8
1
62
256
6
ByLayer
370
13
48
1
60
0
100
AcDbSpline
70
4
71
3
72
8
73
4
40
0
40
0
40
0
40
0
40
1
40
1
40
1
40
1
41
1
10
308.528786202938
20
26.986636957593
30
0
41
1
10
308.438369970162
20
26.9868836247505
30
0
41
1
10
308.347918919546
20
26.9857440092364
30
0
41
1
10
308.257434069998
20
26.9832586791669
30
0
0
SPLINE
5
2AD
100
AcDbEntity
8
1
62
256
6
ByLayer
370
13
48
1
60
0
100
AcDbSpline
70
4
71
1
72
4
73
2
40
0
40
0
40
1
40
1
41
1
10
288.924957890198
20
15.905755754382
30
0
41
1
10
289.185408335082
20
15.921738542277
30
0
0
SPLINE
5
2AE
100
AcDbEntity
8
1
62
256
6
ByLayer
370
13
48
1
60
0
100
AcDbSpline
70
4
71
3
72
28
73
24
40
0
40
0
40
0
40
0
40
0.124999999999709
40
0.124999999999709
40
0.249999999999419
40
0.249999999999419
40
0.374999999999128
40
0.374999999999128
40
0.499999999998838
40
0.499999999998838
40
0.624999999998548
40
0.624999999998548
40
0.687499999998511
40
0.687499999998511
40
0.749999999998475
40
0.749999999998475
40
0.781249999998558
40
0.781249999998558
40
0.812499999998641
40
0.812499999998641
40
0.874999999999023
40
0.874999999999023
40
1
40
1
40
1
40
1
41
1
10
309.737304815314
20
7.42870756241962
30
0
41
1
10
309.718607248923
20
7.41795984473154
30
0
41
1
10
309.698778985871
20
7.40735142297777
30
0
41
1
10
309.656248346212
20
7.38648865527728
30
0
41
1
10
309.6333492985
20
7.37616976692519
30
0
41
1
10
309.584848893953
20
7.35660942607595
30
0
41
1
10
309.559217785607
20
7.34731058394487
30
0
41
1
10
309.504192918089
20
7.33002440836512
30
0
41
1
10
309.475164664658
20
7.32223187343237
30
0
41
1
10
309.41579072544
20
7.30950837877151
30
0
41
1
10
309.385541022069
20
7.30460715225558
30
0
41
1
10
309.342051050462
20
7.30000602955027
30
0
41
1
10
309.327691665571
20
7.29889358487014
30
0
41
1
10
309.299502478504
20
7.29711363805387
30
0
41
1
10
309.285546434424
20
7.29636169047475
30
0
41
1
10
309.265021582167
20
7.2956414364117
30
0
41
1
10
309.258147997224
20
7.29536950501642
30
0
41
1
10
309.243814828188
20
7.29424185776293
30
0
41
1
10
309.236398516222
20
7.29342752650143
30
0
41
1
10
309.213887857707
20
7.290714441782
30
0
41
1
10
309.199078594613
20
7.28910683406664
30
0
41
1
10
309.15593917476
20
7.28559369336708
30
0
41
1
10
309.127396658903
20
7.28347228831137
30
0
41
1
10
309.099151700739
20
7.2816533633403
30
0
0
SPLINE
5
2AF
100
AcDbEntity
8
1
62
256
6
ByLayer
370
13
48
1
60
0
100
AcDbSpline
70
4
71
3
72
12
73
8
40
0
40
0
40
0
40
0
40
0.0955695215711715
40
0.0955695215711715
40
0.610496468259503
40
0.610496468259503
40
1
40
1
40
1
40
1
41
1
10
309.629849285382
20
7.31081798100121
30
0
41
1
10
309.621288260404
20
7.30185661749917
30
0
41
1
10
309.612519004897
20
7.29309944175387
30
0
41
1
10
309.555208317609
20
7.23849384049441
30
0
41
1
10
309.500248778504
20
7.197952217937
30
0
41
1
10
309.398095482455
20
7.14079233640379
30
0
41
1
10
309.351531177053
20
7.12025678570859
30
0
41
1
10
309.303443783045
20
7.10416869067569
30
0
0
SPLINE
5
2B0
100
AcDbEntity
8
1
62
256
6
ByLayer
370
13
48
1
60
0
100
AcDbSpline
70
4
71
2
72
6
73
3
40
0
40
0
40
0
40
1
40
1
40
1
41
1
10
288.933997650061
20
15.7995861686524
30
0
41
0.997409491337352
10
288.925666371566
20
15.8523453249329
30
0
41
1
10
288.924957890198
20
15.905755754382
30
0
0
SPLINE
5
2B1
100
AcDbEntity
8
1
62
256
6
ByLayer
370
13
48
1
60
0
100
AcDbSpline
70
4
71
2
72
6
73
3
40
0
40
0
40
0
40
1
40
1
40
1
41
0.998850556413359
10
288.927420910473
20
15.9769042738222
30
0
41
0.998270163111957
10
288.92078906694
20
16.0119168043714
30
0
41
1
10
288.91753433748
20
16.0474055785022
30
0
0
SPLINE
5
2B2
100
AcDbEntity
8
1
62
256
6
ByLayer
370
13
48
1
60
0
100
AcDbSpline
70
4
71
3
72
8
73
4
40
0
40
0
40
0
40
0
40
1
40
1
40
1
40
1
41
1
10
309.099151700739
20
7.2816533633403
30
0
41
1
10
309.007159633022
20
7.27572923811624
30
0
41
1
10
308.918638184616
20
7.27353941175735
30
0
41
1
10
308.832443851761
20
7.27314571973454
30
0
0
SPLINE
5
2B3
100
AcDbEntity
8
1
62
256
6
ByLayer
370
13
48
1
60
0
100
AcDbSpline
70
4
71
3
72
24
73
20
40
0
40
0
40
0
40
0
40
0.124999999999984
40
0.124999999999984
40
0.249999999999968
40
0.249999999999968
40
0.374999999999952
40
0.374999999999952
40
0.499999999999936
40
0.499999999999936
40
0.624999999999921
40
0.624999999999921
40
0.749999999999905
40
0.749999999999905
40
0.812499999999897
40
0.812499999999897
40
0.87499999999989
40
0.87499999999989
40
1
40
1
40
1
40
1
41
1
10
309.519907282623
20
26.3084290558454
30
0
41
1
10
309.511721551862
20
26.3641525310377
30
0
41
1
10
309.497654013588
20
26.4178226016501
30
0
41
1
10
309.458423222152
20
26.521289105101
30
0
41
1
10
309.433179888667
20
26.5715987164016
30
0
41
1
10
309.372216245987
20
26.6657088609936
30
0
41
1
10
309.336632512934
20
26.7097196806204
30
0
41
1
10
309.2581780113
20
26.7882550655669
30
0
41
1
10
309.21513211396
20
26.8230658355401
30
0
41
1
10
309.121563263669
20
26.8839605511529
30
0
41
1
10
309.071591174827
20
26.9093726882478
30
0
41
1
10
308.968456472267
20
26.949165377259
30
0
41
1
10
308.9143011686
20
26.9638534535476
30
0
41
1
10
308.831909322851
20
26.9774354361756
30
0
41
1
10
308.804407767007
20
26.9804654193997
30
0
41
1
10
308.749337181483
20
26.9838388950616
30
0
41
1
10
308.721765925026
20
26.9840937276951
30
0
41
1
10
308.639074223898
20
26.985736879217
30
0
41
1
10
308.583937737628
20
26.9864864970852
30
0
41
1
10
308.528786202938
20
26.986636957593
30
0
0
SPLINE
5
2B4
100
AcDbEntity
8
1
62
256
6
ByLayer
370
13
48
1
60
0
100
AcDbSpline
70
4
71
2
72
6
73
3
40
0
40
0
40
0
40
1
40
1
40
1
41
1
10
289.185408335082
20
15.921738542277
30
0
41
0.997409491337352
10
289.184643084332
20
15.9794286566734
30
0
41
1
10
289.19212727077
20
16.0366282042756
30
0
0
SPLINE
5
2B5
100
AcDbEntity
8
1
62
256
6
ByLayer
370
13
48
1
60
0
100
AcDbSpline
70
4
71
1
72
4
73
2
40
0
40
0
40
1
40
1
41
1
10
290.638995237126
20
25.8021079949699
30
0
41
1
10
290.448819731773
20
26.0225707672936
30
0
0
SPLINE
5
2B6
100
AcDbEntity
8
1
62
256
6
ByLayer
370
13
48
1
60
0
100
AcDbSpline
70
4
71
3
72
20
73
16
40
0
40
0
40
0
40
0
40
0.499999999999939
40
0.499999999999939
40
0.749999999999896
40
0.749999999999896
40
0.874999999999875
40
0.874999999999875
40
0.906249999999876
40
0.906249999999876
40
0.921874999999888
40
0.921874999999888
40
0.937499999999901
40
0.937499999999901
40
1
40
1
40
1
40
1
41
1
10
300.493160149233
20
8.44188181012811
30
0
41
1
10
301.615899162106
20
8.50072206850723
30
0
41
1
10
302.738638428837
20
8.55955748290964
30
0
41
1
10
304.422746959895
20
8.64781764631624
30
0
41
1
10
304.984115855182
20
8.67724943634559
30
0
41
1
10
305.826170123185
20
8.7213794709514
30
0
41
1
10
306.106856028709
20
8.73606754962387
30
0
41
1
10
306.45771146577
20
8.75446475552167
30
0
41
1
10
306.527882140548
20
8.75815206972916
30
0
41
1
10
306.633138727711
20
8.76367207016216
30
0
41
1
10
306.668224927354
20
8.76549834929887
30
0
41
1
10
306.738396521055
20
8.76916886692476
30
0
41
1
10
306.773471082844
20
8.77126034326298
30
0
41
1
10
306.949093813227
20
8.77601822346108
30
0
41
1
10
307.090196802316
20
8.76603185037962
30
0
41
1
10
307.231959265144
20
8.74100606516606
30
0
0
SPLINE
5
2B7
100
AcDbEntity
8
1
62
256
6
ByLayer
370
13
48
1
60
0
100
AcDbSpline
70
4
71
1
72
4
73
2
40
0
40
0
40
1
40
1
41
1
10
288.837431349627
20
16.1511308542375
30
0
41
1
10
288.915426832951
20
16.1539384683392
30
0
0
SPLINE
5
2B8
100
AcDbEntity
8
1
62
256
6
ByLayer
370
13
48
1
60
0
100
AcDbSpline
70
4
71
3
72
8
73
4
40
0
40
0
40
0
40
0
40
1
40
1
40
1
40
1
41
1
10
290.448819731773
20
26.0225707672936
30
0
41
1
10
290.387742251337
20
26.0287880117723
30
0
41
1
10
290.326731781405
20
26.0349961822694
30
0
41
1
10
290.265614185608
20
26.0412188508508
30
0
0
SPLINE
5
2B9
100
AcDbEntity
8
1
62
256
6
ByLayer
370
13
48
1
60
0
100
AcDbSpline
70
4
71
3
72
8
73
4
40
0
40
0
40
0
40
0
40
1
40
1
40
1
40
1
41
1
10
308.005734699259
20
26.9426896918007
30
0
41
1
10
308.065827711855
20
26.9552572127339
30
0
41
1
10
308.125855029527
20
26.9678087048887
30
0
41
1
10
308.185987370755
20
26.9803858134077
30
0
0
SPLINE
5
2BA
100
AcDbEntity
8
1
62
256
6
ByLayer
370
13
48
1
60
0
100
AcDbSpline
70
4
71
2
72
6
73
3
40
0
40
0
40
0
40
1
40
1
40
1
41
1
10
310.949929314873
20
17.1997413130889
30
0
41
0.997409491337352
10
310.949164064123
20
17.2574314274868
30
0
41
1
10
310.940165214752
20
17.3144180833223
30
0
0
SPLINE
5
2BB
100
AcDbEntity
8
1
62
256
6
ByLayer
370
13
48
1
60
0
100
AcDbSpline
70
4
71
3
72
8
73
4
40
0
40
0
40
0
40
0
40
1
40
1
40
1
40
1
41
1
10
290.163226817675
20
25.7943248519326
30
0
41
1
10
290.243709352997
20
25.7984757002431
30
0
41
1
10
290.323177855135
20
25.8004170784838
30
0
41
1
10
290.4015222825
20
25.8010952561847
30
0
0
SPLINE
5
2BC
100
AcDbEntity
8
1
62
256
6
ByLayer
370
13
48
1
60
0
100
AcDbSpline
70
4
71
3
72
22
73
18
40
0
40
0
40
0
40
0
40
0.0624999999999442
40
0.0624999999999442
40
0.0937499999999261
40
0.0937499999999261
40
0.124999999999908
40
0.124999999999908
40
0.15624999999989
40
0.15624999999989
40
0.171874999999881
40
0.171874999999881
40
0.187499999999872
40
0.187499999999872
40
0.24999999999988
40
0.499999999999913
40
1
40
1
40
1
40
1
41
1
10
307.094064212913
20
25.1947187029371
30
0
41
1
10
306.961005900456
20
25.1057327414047
30
0
41
1
10
306.820839324879
20
25.0318408072168
30
0
41
1
10
306.600228061627
20
24.943004800148
30
0
41
1
10
306.524581694802
20
24.9169724155537
30
0
41
1
10
306.371448563971
20
24.8730354889508
30
0
41
1
10
306.294557569087
20
24.8552801781496
30
0
41
1
10
306.14015635169
20
24.8278110592448
30
0
41
1
10
306.062653232395
20
24.8180050062917
30
0
41
1
10
305.945925729183
20
24.809436185236
30
0
41
1
10
305.906934890418
20
24.807640519558
30
0
41
1
10
305.828990531511
20
24.8035645557626
30
0
41
1
10
305.790018989498
20
24.801518295849
30
0
41
1
10
305.595159803852
20
24.7913061586563
30
0
41
1
10
304.815723061266
20
24.7504576098858
30
0
41
1
10
302.789187530543
20
24.6442513830825
30
0
41
1
10
300.918539348338
20
24.5462148660332
30
0
41
1
10
299.671440560201
20
24.4808571880004
30
0
0
SPLINE
5
2BD
100
AcDbEntity
8
1
62
256
6
ByLayer
370
13
48
1
60
0
100
AcDbSpline
70
4
71
1
72
4
73
2
40
0
40
0
40
1
40
1
41
1
10
288.85113815845
20
15.9354806211353
30
0
41
1
10
288.92565030073
20
15.9415262560834
30
0
0
SPLINE
5
2BE
100
AcDbEntity
8
1
62
256
6
ByLayer
370
13
48
1
60
0
100
AcDbSpline
70
4
71
3
72
10
73
6
40
0
40
0
40
0
40
0
40
0.5
40
0.5
40
1
40
1
40
1
40
1
41
1
10
307.247715829493
20
25.6186986036199
30
0
41
1
10
307.243968284355
20
25.6185022031015
30
0
41
1
10
307.253714624294
20
25.6083269968771
30
0
41
1
10
307.293829011785
20
25.5748116134714
30
0
41
1
10
307.324274372967
20
25.5515074085244
30
0
41
1
10
307.356213601929
20
25.5286349436214
30
0
0
SPLINE
5
2BF
100
AcDbEntity
8
1
62
256
6
ByLayer
370
13
48
1
60
0
100
AcDbSpline
70
4
71
3
72
20
73
16
40
0
40
0
40
0
40
0
40
0.499999999999939
40
0.499999999999939
40
0.749999999999896
40
0.749999999999896
40
0.874999999999875
40
0.874999999999875
40
0.906249999999875
40
0.906249999999875
40
0.921874999999888
40
0.921874999999888
40
0.937499999999901
40
0.937499999999901
40
1
40
1
40
1
40
1
41
1
10
299.642177500723
20
24.6795980452377
30
0
41
1
10
298.51943848785
20
24.6207577868586
30
0
41
1
10
297.396699221119
20
24.5619223724562
30
0
41
1
10
295.712590690061
20
24.4736622090496
30
0
41
1
10
295.151221794774
20
24.4442304190202
30
0
41
1
10
294.309167526771
20
24.4001003844144
30
0
41
1
10
294.028481621248
20
24.385412305742
30
0
41
1
10
293.677626184187
20
24.3670150998442
30
0
41
1
10
293.607455509407
20
24.3633277856366
30
0
41
1
10
293.502198922244
20
24.3578077852037
30
0
41
1
10
293.467112722602
20
24.355981506067
30
0
41
1
10
293.396941128901
20
24.3523109884411
30
0
41
1
10
293.361866567113
20
24.3502195121029
30
0
41
1
10
293.18624383673
20
24.3454616319048
30
0
41
1
10
293.045140847639
20
24.3554480049861
30
0
41
1
10
292.903378384812
20
24.3804737901997
30
0
0
SPLINE
5
2C0
100
AcDbEntity
8
1
62
256
6
ByLayer
370
13
48
1
60
0
100
AcDbSpline
70
4
71
2
72
6
73
3
40
0
40
0
40
0
40
1
40
1
40
1
41
1
10
288.915426832951
20
16.1539384683392
30
0
41
0.997409491337352
10
288.912656027601
20
16.1005974764991
30
0
41
1
10
288.91753433748
20
16.0474055785022
30
0
0
SPLINE
5
2C1
100
AcDbEntity
8
1
62
256
6
ByLayer
370
13
48
1
60
0
100
AcDbSpline
70
4
71
3
72
20
73
16
40
0
40
0
40
0
40
0
40
0.125000000000013
40
0.125000000000013
40
0.250000000000026
40
0.250000000000026
40
0.375000000000039
40
0.375000000000039
40
0.500000000000052
40
0.500000000000052
40
0.625000000000065
40
0.625000000000065
40
0.750000000000078
40
0.750000000000078
40
1
40
1
40
1
40
1
41
1
10
290.615430367332
20
6.81305079952037
30
0
41
1
10
290.625293573938
20
6.74590808927809
30
0
41
1
10
290.64374643704
20
6.68176412388536
30
0
41
1
10
290.696318786875
20
6.55894558607852
30
0
41
1
10
290.731061374138
20
6.50004924668454
30
0
41
1
10
290.814026867585
20
6.39325764276413
30
0
41
1
10
290.861706500041
20
6.34585708979407
30
0
41
1
10
290.967483604289
20
6.26435246634492
30
0
41
1
10
291.026379822793
20
6.22977777120227
30
0
41
1
10
291.148865592651
20
6.17720640498862
30
0
41
1
10
291.213831321836
20
6.15848371802699
30
0
41
1
10
291.346216568473
20
6.13734228545385
30
0
41
1
10
291.412673453012
20
6.13729320826937
30
0
41
1
10
291.611958725919
20
6.13374651828482
30
0
41
1
10
291.744895589318
20
6.13456787113998
30
0
41
1
10
291.877903579957
20
6.13822117619884
30
0
0
SPLINE
5
2C2
100
AcDbEntity
8
1
62
256
6
ByLayer
370
13
48
1
60
0
100
AcDbSpline
70
4
71
1
72
4
73
2
40
0
40
0
40
1
40
1
41
1
10
290.194258582616
20
26.0366077650734
30
0
41
1
10
290.4015222825
20
25.8010952561847
30
0
0
SPLINE
5
2C3
100
AcDbEntity
8
1
62
256
6
ByLayer
370
13
48
1
60
0
100
AcDbSpline
70
4
71
3
72
24
73
20
40
0
40
0
40
0
40
0
40
0.0612470953000121
40
0.0612470953000121
40
0.122494190600024
40
0.122494190600024
40
0.183741285900036
40
0.183741285900036
40
0.244988381200049
40
0.244988381200049
40
0.367482571800072
40
0.367482571800072
40
0.489976762400095
40
0.489976762400095
40
0.734965143600138
40
0.734965143600138
40
0.979953524800181
40
0.979953524800181
40
1
40
1
40
1
40
1
41
1
10
309.878628430143
20
7.82332305389306
30
0
41
1
10
309.877378751968
20
7.80600345317708
30
0
41
1
10
309.875653635829
20
7.78699968283371
30
0
41
1
10
309.871632945899
20
7.74960113675172
30
0
41
1
10
309.869404039445
20
7.73209045051294
30
0
41
1
10
309.865046226659
20
7.70176819877716
30
0
41
1
10
309.862882897152
20
7.68850571492345
30
0
41
1
10
309.858729906826
20
7.6648633429885
30
0
41
1
10
309.856709599937
20
7.6543156663538
30
0
41
1
10
309.850850702832
20
7.62544772998788
30
0
41
1
10
309.847178314922
20
7.60971698913445
30
0
41
1
10
309.84008906334
20
7.58192800588697
30
0
41
1
10
309.836700838002
20
7.57003928599244
30
0
41
1
10
309.82682589246
20
7.53808880088519
30
0
41
1
10
309.820656014936
20
7.52177634999885
30
0
41
1
10
309.8087711955
20
7.4943003907504
30
0
41
1
10
309.803074131045
20
7.4832966531998
30
0
41
1
10
309.797089812659
20
7.47338643760884
30
0
41
1
10
309.796638316677
20
7.47264903405241
30
0
41
1
10
309.796187941809
20
7.47192359352633
30
0
0
SPLINE
5
2C4
100
AcDbEntity
8
1
62
256
6
ByLayer
370
13
48
1
60
0
100
AcDbSpline
70
4
71
3
72
10
73
6
40
0
40
0
40
0
40
0
40
0.121795174140365
40
0.121795174140365
40
1
40
1
40
1
40
1
41
1
10
309.770289539042
20
7.44099153241956
30
0
41
1
10
309.768888621855
20
7.43986755838409
30
0
41
1
10
309.767496080969
20
7.43883181871087
30
0
41
1
10
309.756125135291
20
7.43098399364584
30
0
41
1
10
309.746570804231
20
7.42840527193056
30
0
41
1
10
309.737304815314
20
7.42870756241956
30
0
0
SPLINE
5
2C5
100
AcDbEntity
8
1
62
256
6
ByLayer
370
13
48
1
60
0
100
AcDbSpline
70
4
71
3
72
22
73
18
40
0
40
0
40
0
40
0
40
0.0625000000000276
40
0.0625000000000276
40
0.0937500000000517
40
0.0937500000000517
40
0.125000000000076
40
0.125000000000076
40
0.1562500000001
40
0.1562500000001
40
0.171875000000112
40
0.171875000000112
40
0.187500000000124
40
0.187500000000124
40
0.250000000000128
40
0.500000000000078
40
1
40
1
40
1
40
1
41
1
10
293.078865173501
20
7.92873125185588
30
0
41
1
10
293.211923485958
20
8.01771721338829
30
0
41
1
10
293.352090061535
20
8.09160914757618
30
0
41
1
10
293.572701324787
20
8.18044515464504
30
0
41
1
10
293.648347691612
20
8.2064775392393
30
0
41
1
10
293.801480822443
20
8.25041446584217
30
0
41
1
10
293.878371817326
20
8.26816977664336
30
0
41
1
10
294.032773034724
20
8.29563889554822
30
0
41
1
10
294.110276154018
20
8.30544494850128
30
0
41
1
10
294.227003657231
20
8.31401376955696
30
0
41
1
10
294.265994495995
20
8.315809435235
30
0
41
1
10
294.343938854902
20
8.31988539903037
30
0
41
1
10
294.382910396916
20
8.32193165894401
30
0
41
1
10
294.577769582562
20
8.33214379613668
30
0
41
1
10
295.357206325148
20
8.37299234490717
30
0
41
1
10
297.383741855871
20
8.47919857171055
30
0
41
1
10
299.254390038076
20
8.57723508875975
30
0
41
1
10
300.501488826213
20
8.64259276679257
30
0
0
SPLINE
5
2C6
100
AcDbEntity
8
1
62
256
6
ByLayer
370
13
48
1
60
0
100
AcDbSpline
70
4
71
3
72
10
73
6
40
0
40
0
40
0
40
0
40
0.381050048120572
40
0.381050048120572
40
1
40
1
40
1
40
1
41
1
10
307.221680114193
20
25.5310402393841
30
0
41
1
10
307.226925883218
20
25.5308203136936
30
0
41
1
10
307.237901481099
20
25.5305325596428
30
0
41
1
10
307.279055682205
20
25.5296955727396
30
0
41
1
10
307.316989071679
20
25.529104647625
30
0
41
1
10
307.356213601929
20
25.5286349436214
30
0
0
SPLINE
5
2C7
100
AcDbEntity
8
1
62
256
6
ByLayer
370
13
48
1
60
0
100
AcDbSpline
70
4
71
3
72
10
73
6
40
0
40
0
40
0
40
0
40
0.5
40
0.5
40
1
40
1
40
1
40
1
41
1
10
292.907135535841
20
7.58962340820648
30
0
41
1
10
292.903386919157
20
7.5894269515307
30
0
41
1
10
292.883000894353
20
7.58947855335833
30
0
41
1
10
292.821690327672
20
7.58997141158798
30
0
41
1
10
292.780756841818
20
7.59040510831369
30
0
41
1
10
292.741532311568
20
7.5908748123172
30
0
0
SPLINE
5
2C8
100
AcDbEntity
8
1
62
256
6
ByLayer
370
13
48
1
60
0
100
AcDbSpline
70
4
71
1
72
4
73
2
40
0
40
0
40
1
40
1
41
1
10
288.91753433748
20
16.0474055785022
30
0
41
1
10
288.861536318056
20
16.0441255393871
30
0
0
SPLINE
5
2C9
100
AcDbEntity
8
1
62
256
6
ByLayer
370
13
48
1
60
0
100
AcDbSpline
70
4
71
1
72
4
73
2
40
0
40
0
40
1
40
1
41
1
10
289.19212727077
20
16.0366282042756
30
0
41
1
10
288.931178388186
20
16.0121224387086
30
0
0
SPLINE
5
2CA
100
AcDbEntity
8
1
62
256
6
ByLayer
370
13
48
1
60
0
100
AcDbSpline
70
4
71
3
72
9
73
5
40
0
40
0
40
0
40
0
40
0.806009473583066
40
1
40
1
40
1
40
1
41
1
10
291.877903579957
20
6.13822117619884
30
0
41
1
10
291.897107551336
20
6.13875272089209
30
0
41
1
10
291.92091875913
20
6.13984226935489
30
0
41
1
10
291.944730920489
20
6.14089154750926
30
0
41
1
10
291.9493502792
20
6.14109404195818
30
0
0
SPLINE
5
2CB
100
AcDbEntity
8
1
62
256
6
ByLayer
370
13
48
1
60
0
100
AcDbSpline
70
4
71
3
72
12
73
8
40
0
40
0
40
0
40
0
40
0.249999999999846
40
0.249999999999846
40
0.499999999999692
40
0.499999999999692
40
1
40
1
40
1
40
1
41
1
10
290.4015222825
20
25.8010952561847
30
0
41
1
10
290.421721186659
20
25.8016317078446
30
0
41
1
10
290.441368851601
20
25.8015604281497
30
0
41
1
10
290.480863054127
20
25.8016371159634
30
0
41
1
10
290.500644262184
20
25.8017114881592
30
0
41
1
10
290.559952954152
20
25.8018977045494
30
0
41
1
10
290.599467877658
20
25.8019962838615
30
0
41
1
10
290.638995237126
20
25.8021079949699
30
0
0
SPLINE
5
2CC
100
AcDbEntity
8
1
62
256
6
ByLayer
370
13
48
1
60
0
100
AcDbSpline
70
4
71
2
72
6
73
3
40
0
40
0
40
0
40
1
40
1
40
1
41
0.998850556413378
10
288.927420910473
20
15.9769042738214
30
0
41
0.998270163111929
10
288.924485202886
20
15.9413903291642
30
0
41
1
10
288.924957890198
20
15.905755754382
30
0
0
SPLINE
5
2CD
100
AcDbEntity
8
1
62
256
6
ByLayer
370
13
48
1
60
0
100
AcDbSpline
70
4
71
2
72
6
73
3
40
0
40
0
40
0
40
1
40
1
40
1
41
1
10
288.931178388186
20
16.0121224387086
30
0
41
0.999139328225424
10
288.928880286603
20
15.9945586898682
30
0
41
0.998850556413378
10
288.927420910473
20
15.9769042738214
30
0
0
SPLINE
5
2CE
100
AcDbEntity
8
1
62
256
6
ByLayer
370
13
48
1
60
0
100
AcDbSpline
70
4
71
3
72
9
73
5
40
0
40
0
40
0
40
0
40
0.806009473585108
40
1
40
1
40
1
40
1
41
1
10
308.257434069998
20
26.983258679167
30
0
41
1
10
308.238230098619
20
26.9827271344737
30
0
41
1
10
308.214418890825
20
26.9816375860109
30
0
41
1
10
308.190606729466
20
26.9805883078565
30
0
41
1
10
308.185987370755
20
26.9803858134076
30
0
0
SPLINE
5
2CF
100
AcDbEntity
8
1
62
256
6
ByLayer
370
13
48
1
60
0
100
AcDbSpline
70
4
71
3
72
20
73
16
40
0
40
0
40
0
40
0
40
0.062500000000014
40
0.062500000000014
40
0.125000000000028
40
0.125000000000028
40
0.140625000000037
40
0.140625000000037
40
0.156250000000046
40
0.156250000000046
40
0.187500000000042
40
0.187500000000042
40
0.250000000000033
40
0.500000000000022
40
1
40
1
40
1
40
1
41
1
10
293.170474822354
20
7.76125748843367
30
0
41
1
10
293.300874297875
20
7.84846528851969
30
0
41
1
10
293.438471529468
20
7.91965168128365
30
0
41
1
10
293.727512235079
20
8.03120426569603
30
0
41
1
10
293.880639845627
20
8.07151562503736
30
0
41
1
10
294.071713490495
20
8.09968842445932
30
0
41
1
10
294.109997755036
20
8.10427121330059
30
0
41
1
10
294.186708728799
20
8.11128222182992
30
0
41
1
10
294.225153718477
20
8.11343393763346
30
0
41
1
10
294.34052130959
20
8.11939565472537
30
0
41
1
10
294.417426691535
20
8.12346611209452
30
0
41
1
10
294.648150746892
20
8.13555784746296
30
0
41
1
10
295.417230931415
20
8.17586363202437
30
0
41
1
10
297.416839411191
20
8.28065867188496
30
0
41
1
10
299.262631853996
20
8.37739255482978
30
0
41
1
10
300.493160149232
20
8.44188181012808
30
0
0
SPLINE
5
2D0
100
AcDbEntity
8
1
62
256
6
ByLayer
370
13
48
1
60
0
100
AcDbSpline
70
4
71
2
72
6
73
3
40
0
40
0
40
0
40
1
40
1
40
1
41
1
10
310.949929314873
20
17.1997413130889
30
0
41
0.997409491337352
10
310.950694565624
20
17.1420511986924
30
0
41
1
10
310.943210379185
20
17.0848516510902
30
0
0
SPLINE
5
2D1
100
AcDbEntity
8
1
62
256
6
ByLayer
370
13
48
1
60
0
100
AcDbSpline
70
4
71
3
72
9
73
5
40
0
40
0
40
0
40
0
40
0.806009473585092
40
1
40
1
40
1
40
1
41
1
10
290.194258582616
20
26.0366077650734
30
0
41
1
10
290.21341291418
20
26.0380864938545
30
0
41
1
10
290.237207570514
20
26.0394918630115
30
0
41
1
10
290.260998965794
20
26.0409373815465
30
0
41
1
10
290.265614185608
20
26.0412188508508
30
0
0
SPLINE
5
2D2
100
AcDbEntity
8
SK1
62
256
6
ByLayer
370
13
48
1
60
0
100
AcDbSpline
70
4
71
3
72
8
73
4
40
0
40
0
40
0
40
0
40
1
40
1
40
1
40
1
41
1
10
-77.6338131992799
20
9.80675144594619
30
0
41
1
10
-77.2939543866941
20
10.101073698597
30
0
41
1
10
-76.9490850005699
20
10.3886250228495
30
0
41
1
10
-76.6000022063887
20
10.6704826507521
30
0
0
SPLINE
5
2D3
100
AcDbEntity
8
SK1
62
256
6
ByLayer
370
13
48
1
60
0
100
AcDbSpline
70
4
71
3
72
8
73
4
40
0
40
0
40
0
40
0
40
1
40
1
40
1
40
1
41
1
10
-79
20
-10.6704826507519
30
0
41
1
10
-79.3663118043068
20
-9.81238370995035
30
0
41
1
10
-79.7021882940637
20
-8.9413126460914
30
0
41
1
10
-80
20
-8.05401763097143
30
0
0
SPLINE
5
2D4
100
AcDbEntity
8
SK1
62
256
6
ByLayer
370
13
48
1
60
0
100
AcDbSpline
70
4
71
3
72
74
73
70
40
0
40
0
40
0
40
0
40
0.0156249999999999
40
0.0156249999999999
40
0.0234374999999999
40
0.0234374999999999
40
0.0312499999999998
40
0.0312499999999998
40
0.0468749999999997
40
0.0468749999999997
40
0.0624999999999996
40
0.0624999999999996
40
0.0781249999999995
40
0.0781249999999995
40
0.0937499999999994
40
0.0937499999999994
40
0.124999999999999
40
0.124999999999999
40
0.140624999999999
40
0.140624999999999
40
0.156249999999999
40
0.156249999999999
40
0.187499999999999
40
0.187499999999999
40
0.249999999999999
40
0.249999999999999
40
0.281249999999999
40
0.281249999999999
40
0.312499999999999
40
0.312499999999999
40
0.374999999999999
40
0.374999999999999
40
0.437499999999999
40
0.437499999999999
40
0.499999999999999
40
0.499999999999999
40
0.562499999999999
40
0.562499999999999
40
0.593749999999999
40
0.593749999999999
40
0.624999999999999
40
0.624999999999999
40
0.687499999999999
40
0.687499999999999
40
0.749999999999999
40
0.749999999999999
40
0.781249999999999
40
0.781249999999999
40
0.812499999999999
40
0.812499999999999
40
0.84375
40
0.84375
40
0.875
40
0.875
40
0.90625
40
0.90625
40
0.9375
40
0.9375
40
0.9453125
40
0.9453125
40
0.953125
40
0.953125
40
0.96875
40
0.96875
40
0.984375
40
0.984375
40
0.9921875
40
0.9921875
40
1
40
1
40
1
40
1
41
1
10
-6.50000000009537
20
10.670482650752
30
0
41
1
10
-6.37048388891068
20
10.6704826507608
30
0
41
1
10
-6.24446776465052
20
10.6528697557375
30
0
41
1
10
-6.06010517952292
20
10.6029156441243
30
0
41
1
10
-5.99927461449792
20
10.5821925812253
30
0
41
1
10
-5.88223506583904
20
10.5345394314587
30
0
41
1
10
-5.82559748012396
20
10.5075199899682
30
0
41
1
10
-5.66065779452136
20
10.417975973631
30
0
41
1
10
-5.55712762892128
20
10.3466184036529
30
0
41
1
10
-5.36736536971405
20
10.1913586531549
30
0
41
1
10
-5.27997153671004
20
10.1068512703449
30
0
41
1
10
-5.11666218977227
20
9.92704332772249
30
0
41
1
10
-5.04055810401205
20
9.83130794393438
30
0
41
1
10
-4.90046448763793
20
9.63491798753748
30
0
41
1
10
-4.83603834410378
20
9.5338271584321
30
0
41
1
10
-4.65598112089407
20
9.22347109153861
30
0
41
1
10
-4.55339976152399
20
9.00719880738419
30
0
41
1
10
-4.41750582616754
20
8.67228763084432
30
0
41
1
10
-4.37530268897782
20
8.55891791867154
30
0
41
1
10
-4.29686000058592
20
8.33134323345735
30
0
41
1
10
-4.26049265592715
20
8.21682554312125
30
0
41
1
10
-4.1585724311424
20
7.87130398108656
30
0
41
1
10
-4.10013853486055
20
7.63834185023578
30
0
41
1
10
-3.94578977994675
20
6.93282891322849
30
0
41
1
10
-3.87048459563749
20
6.45370790232082
30
0
41
1
10
-3.78175631324949
20
5.72457369042988
30
0
41
1
10
-3.75634074966133
20
5.47976683985843
30
0
41
1
10
-3.7120067271199
20
4.98691048522593
30
0
41
1
10
-3.69308648223611
20
4.73862820397792
30
0
41
1
10
-3.64424139462162
20
3.99444565639502
30
0
41
1
10
-3.62191393829291
20
3.49753056604814
30
0
41
1
10
-3.58913059568964
20
2.50225576491911
30
0
41
1
10
-3.57872244966512
20
2.00389538867495
30
0
41
1
10
-3.56529013292472
20
1.00580199142325
30
0
41
1
10
-3.56228022077386
20
0.506068785393097
30
0
41
1
10
-3.56223334097642
20
-0.494754197166372
30
0
41
1
10
-3.56519357916225
20
-0.995843898846687
30
0
41
1
10
-3.57526735092097
20
-1.74852495498422
30
0
41
1
10
-3.57958751937886
20
-1.99959349362723
30
0
41
1
10
-3.59064705878916
20
-2.50209075145548
30
0
41
1
10
-3.59739709579894
20
-2.75385038007658
30
0
41
1
10
-3.62227132036486
20
-3.50710000839359
30
0
41
1
10
-3.64484459181701
20
-4.00580366741292
30
0
41
1
10
-3.71010606722081
20
-4.99571816607531
30
0
41
1
10
-3.75268745857275
20
-5.48693664959626
30
0
41
1
10
-3.84180186701059
20
-6.21737273914593
30
0
41
1
10
-3.87576317934641
20
-6.45978205407951
30
0
41
1
10
-3.95487127334194
20
-6.94225537606115
30
0
41
1
10
-3.99994180570394
20
-7.18182085753699
30
0
41
1
10
-4.10416683371689
20
-7.65518824089065
30
0
41
1
10
-4.16332953330694
20
-7.88926779084468
30
0
41
1
10
-4.30073575990994
20
-8.35126379883343
30
0
41
1
10
-4.37869000461005
20
-8.57819056735369
30
0
41
1
10
-4.55882768232694
20
-9.01890405609001
30
0
41
1
10
-4.66096064418579
20
-9.23316248710555
30
0
41
1
10
-4.9012460930548
20
-9.6450662502447
30
0
41
1
10
-5.04044720826909
20
-9.84412891865716
30
0
41
1
10
-5.24436673816899
20
-10.0673788314332
30
0
41
1
10
-5.28672193295479
20
-10.1108128419076
30
0
41
1
10
-5.37506018490618
20
-10.1949099292502
30
0
41
1
10
-5.42113974977889
20
-10.2356293471388
30
0
41
1
10
-5.56352602684599
20
-10.3512474104623
30
0
41
1
10
-5.66447995477702
20
-10.4202823836625
30
0
41
1
10
-5.88197798496884
20
-10.5378913469096
30
0
41
1
10
-6.00024980803649
20
-10.5867345345007
30
0
41
1
10
-6.18283559041274
20
-10.6361515407661
30
0
41
1
10
-6.24478714200797
20
-10.6488401790656
30
0
41
1
10
-6.37105473569075
20
-10.6660269221224
30
0
41
1
10
-6.43557318110055
20
-10.6704826507564
30
0
41
1
10
-6.50000000009538
20
-10.6704826507521
30
0
0
SPLINE
5
2D5
100
AcDbEntity
8
SK1
62
256
6
ByLayer
370
13
48
1
60
0
100
AcDbSpline
70
4
71
3
72
8
73
4
40
0
40
0
40
0
40
0
40
1
40
1
40
1
40
1
41
1
10
-78.5162221138915
20
-10.4258292340309
30
0
41
1
10
-78.5439104435588
20
-10.5074660802026
30
0
41
1
10
-78.5718376779285
20
-10.5890166857158
30
0
41
1
10
-78.5999993841625
20
-10.6704826507519
30
0
0
SPLINE
5
2D6
100
AcDbEntity
8
SK1
62
256
6
ByLayer
370
13
48
1
60
0
100
AcDbSpline
70
4
71
3
72
10
73
6
40
0
40
0
40
0
40
0
40
0.5
40
0.5
40
1
40
1
40
1
40
1
41
1
10
-80
20
8.0540176309716
30
0
41
1
10
-79.85176739512
20
8.49565927489135
30
0
41
1
10
-79.6935189817436
20
8.93491944720282
30
0
41
1
10
-79.3587118244384
20
9.80908612108971
30
0
41
1
10
-79.1828143207057
20
10.2422333475178
30
0
41
1
10
-79
20
10.6704826507521
30
0
0
SPLINE
5
2D7
100
AcDbEntity
8
1
62
256
6
ByLayer
370
13
48
1
60
0
100
AcDbSpline
70
4
71
3
72
70
73
66
40
0
40
0
40
0
40
0
40
0.031249999999995
40
0.031249999999995
40
0.06249999999999
40
0.06249999999999
40
0.0781249999999881
40
0.0781249999999881
40
0.0937499999999862
40
0.0937499999999862
40
0.101562499999986
40
0.101562499999986
40
0.109374999999986
40
0.109374999999986
40
0.117187499999985
40
0.117187499999985
40
0.124999999999985
40
0.124999999999985
40
0.132812499999985
40
0.132812499999985
40
0.140624999999984
40
0.140624999999984
40
0.156249999999984
40
0.156249999999984
40
0.187499999999984
40
0.187499999999984
40
0.218749999999985
40
0.218749999999985
40
0.249999999999986
40
0.249999999999986
40
0.281249999999986
40
0.281249999999986
40
0.312499999999987
40
0.312499999999987
40
0.374999999999988
40
0.374999999999988
40
0.406249999999989
40
0.406249999999989
40
0.437499999999989
40
0.437499999999989
40
0.49999999999999
40
0.49999999999999
40
0.53124999999999
40
0.53124999999999
40
0.562499999999991
40
0.562499999999991
40
0.624999999999991
40
0.624999999999991
40
0.687499999999992
40
0.687499999999992
40
0.718749999999992
40
0.718749999999992
40
0.749999999999992
40
0.749999999999992
40
0.812499999999994
40
0.812499999999994
40
0.843749999999995
40
0.843749999999995
40
0.874999999999996
40
0.874999999999996
40
0.906249999999997
40
0.906249999999997
40
0.937499999999998
40
0.937499999999998
40
1
40
1
40
1
40
1
41
1
10
269.271573302535
20
-25.8826259850589
30
0
41
1
10
267.945640511979
20
-25.8677919509019
30
0
41
1
10
266.618395150099
20
-25.8535050103331
30
0
41
1
10
263.967561368735
20
-25.8188936513753
30
0
41
1
10
262.644057513293
20
-25.7986093752294
30
0
41
1
10
260.667779308133
20
-25.7530680089496
30
0
41
1
10
260.011608274635
20
-25.7353231759747
30
0
41
1
10
258.708638977433
20
-25.6919064437142
30
0
41
1
10
258.0615507904
20
-25.6662489156906
30
0
41
1
10
257.099405942441
20
-25.6188216561516
30
0
41
1
10
256.78010909832
20
-25.6015099939058
30
0
41
1
10
256.14470551683
20
-25.5632005644415
30
0
41
1
10
255.828380627615
20
-25.5421460666938
30
0
41
1
10
255.201661686
20
-25.4960294436366
30
0
41
1
10
254.890956679332
20
-25.470964565101
30
0
41
1
10
254.274458390952
20
-25.4165285047828
30
0
41
1
10
253.968967242337
20
-25.3869797695082
30
0
41
1
10
253.359349090396
20
-25.3250612807714
30
0
41
1
10
253.054841969111
20
-25.2929178152056
30
0
41
1
10
252.445522015768
20
-25.2267603353568
30
0
41
1
10
252.140769136821
20
-25.1927168317473
30
0
41
1
10
251.226241391217
20
-25.0877130031576
30
0
41
1
10
250.616227821704
20
-25.0138495721851
30
0
41
1
10
248.786412113267
20
-24.7805900409096
30
0
41
1
10
247.566501734068
20
-24.6095847941864
30
0
41
1
10
245.127338569158
20
-24.2361175618114
30
0
41
1
10
243.908129569304
20
-24.0336084404235
30
0
41
1
10
241.470598007473
20
-23.5964225717717
30
0
41
1
10
240.252116706216
20
-23.3618088226106
30
0
41
1
10
237.815597731117
20
-22.8637282269349
30
0
41
1
10
236.59699890307
20
-22.6004071263013
30
0
41
1
10
234.154296412586
20
-22.0517972770072
30
0
41
1
10
232.930240036198
20
-21.7664232894359
30
0
41
1
10
229.246277037718
20
-20.8855865226829
30
0
41
1
10
226.778923360831
20
-20.2658896012242
30
0
41
1
10
223.051650314263
20
-19.3167334382733
30
0
41
1
10
221.804371223382
20
-18.9969228876577
30
0
41
1
10
219.303529175528
20
-18.356291874232
30
0
41
1
10
218.049816580558
20
-18.0354537455878
30
0
41
1
10
214.277267969794
20
-17.0785103197251
30
0
41
1
10
211.747084515754
20
-16.4478158914093
30
0
41
1
10
207.924453598552
20
-15.5383948043449
30
0
41
1
10
206.645711399905
20
-15.241299242335
30
0
41
1
10
204.078626666148
20
-14.6629208354043
30
0
41
1
10
202.789949593995
20
-14.3816380082799
30
0
41
1
10
198.910831846704
20
-13.5671486473877
30
0
41
1
10
196.313302062768
20
-13.0637749873369
30
0
41
1
10
191.096347304253
20
-12.143333143131
30
0
41
1
10
188.476925192313
20
-11.7262214328596
30
0
41
1
10
184.531918946734
20
-11.1692609039307
30
0
41
1
10
183.214267709723
20
-10.9950550633663
30
0
41
1
10
180.573707780914
20
-10.6702269208122
30
0
41
1
10
179.251250050786
20
-10.5195834084602
30
0
41
1
10
175.28181541494
20
-10.1052489499168
30
0
41
1
10
172.630933381193
20
-9.8800461378861
30
0
41
1
10
168.646250787226
20
-9.63892199932758
30
0
41
1
10
167.316640655686
20
-9.5745301416668
30
0
41
1
10
164.654765603417
20
-9.47673791705671
30
0
41
1
10
163.32223744228
20
-9.44298139862607
30
0
41
1
10
160.657437464645
20
-9.39796756740409
30
0
41
1
10
159.324990439206
20
-9.38615272300899
30
0
41
1
10
156.660052276787
20
-9.37256781326144
30
0
41
1
10
155.327560246752
20
-9.37099921655806
30
0
41
1
10
151.330059515715
20
-9.37190484311455
30
0
41
1
10
148.665021722166
20
-9.38100211126667
30
0
41
1
10
146
20
-9.38643938081182
30
0
0
SPLINE
5
2D8
100
AcDbEntity
8
1
62
256
6
ByLayer
370
13
48
1
60
0
100
AcDbSpline
70
4
71
3
72
14
73
10
40
0
40
0
40
0
40
0
40
0.500000000000001
40
0.500000000000001
40
0.625
40
0.625
40
0.75
40
0.75
40
1
40
1
40
1
40
1
41
1
10
287.637697605664
20
10.0069340695723
30
0
41
1
10
287.65809671858
20
10.3643894962208
30
0
41
1
10
287.644549050456
20
10.7198906901013
30
0
41
1
10
287.569495034082
20
11.1609213896123
30
0
41
1
10
287.551448522989
20
11.2492680597892
30
0
41
1
10
287.50919724473
20
11.4239878211299
30
0
41
1
10
287.485068182942
20
11.5101485375265
30
0
41
1
10
287.403261010934
20
11.7648696071983
30
0
41
1
10
287.336207458117
20
11.9296866658754
30
0
41
1
10
287.255111128491
20
12.088896922524
30
0
0
SPLINE
5
2D9
100
AcDbEntity
8
1
62
256
6
ByLayer
370
13
48
1
60
0
100
AcDbSpline
70
4
71
3
72
18
73
14
40
0
40
0
40
0
40
0
40
0.249999999999999
40
0.249999999999999
40
0.374999999999999
40
0.374999999999999
40
0.5
40
0.5
40
0.750000000000001
40
0.750000000000001
40
0.875000000000001
40
0.875000000000001
40
1
40
1
40
1
40
1
41
1
10
306.535851908976
20
8.63840118462852
30
0
41
1
10
306.593218874437
20
8.64140765989262
30
0
41
1
10
306.650978754446
20
8.63423324043927
30
0
41
1
10
306.732306124868
20
8.61085860613292
30
0
41
1
10
306.75820243134
20
8.60108812401143
30
0
41
1
10
306.806386965566
20
8.57914564685746
30
0
41
1
10
306.829065104018
20
8.56675561590154
30
0
41
1
10
306.889137596936
20
8.52983583255397
30
0
41
1
10
306.920033886235
20
8.50497186184177
30
0
41
1
10
306.952375108359
20
8.47933900561867
30
0
41
1
10
306.961094706919
20
8.47251593355008
30
0
41
1
10
306.974273120033
20
8.4635844712196
30
0
41
1
10
306.978879126339
20
8.46134478805288
30
0
41
1
10
306.981589869296
20
8.46148685207149
30
0
0
SPLINE
5
2DA
100
AcDbEntity
8
1
62
256
6
ByLayer
370
13
48
1
60
0
100
AcDbSpline
70
4
71
3
72
26
73
22
40
0
40
0
40
0
40
0
40
0.0872676624271464
40
0.0872676624271464
40
0.174535324854293
40
0.174535324854293
40
0.349070649708589
40
0.349070649708589
40
0.523605974562885
40
0.523605974562885
40
0.610873636990033
40
0.610873636990033
40
0.698141299417179
40
0.698141299417179
40
0.785408961844326
40
0.785408961844326
40
0.872676624271472
40
0.872676624271472
40
0.959944286698619
40
0.959944286698619
40
1
40
1
40
1
40
1
41
1
10
278.367462322636
20
25.7668727518804
30
0
41
1
10
277.045570724996
20
25.8552147343632
30
0
41
1
10
275.723487594726
20
25.9233638894478
30
0
41
1
10
273.081601653292
20
26.0188580746809
30
0
41
1
10
271.761315743255
20
26.0462409822594
30
0
41
1
10
267.800945682339
20
26.0671588118332
30
0
41
1
10
265.161317619929
20
25.9993961607331
30
0
41
1
10
259.874340936491
20
25.7007077573021
30
0
41
1
10
257.234350419066
20
25.4702215753736
30
0
41
1
10
253.274393714237
20
25.0060213520148
30
0
41
1
10
251.954352033536
20
24.8315482089278
30
0
41
1
10
249.313079068275
20
24.4437726259003
30
0
41
1
10
247.99124663945
20
24.2303625400168
30
0
41
1
10
245.348439680251
20
23.7659697616878
30
0
41
1
10
244.027857121708
20
23.5150787792942
30
0
41
1
10
241.387348820897
20
22.9769331986258
30
0
41
1
10
240.067785545042
20
22.6892200725327
30
0
41
1
10
237.425005887907
20
22.0824704943267
30
0
41
1
10
236.101637204769
20
21.7636002415895
30
0
41
1
10
234.163985503935
20
21.282220988356
30
0
41
1
10
233.553281895025
20
21.128488131176
30
0
41
1
10
232.941701067849
20
20.9727516675901
30
0
0
SPLINE
5
2DB
100
AcDbEntity
8
1
62
256
6
ByLayer
370
13
48
1
60
0
100
AcDbSpline
70
4
71
3
72
34
73
30
40
0
40
0
40
0
40
0
40
0.111151247993759
40
0.111151247993759
40
0.222302495987519
40
0.222302495987519
40
0.333453743981278
40
0.333453743981278
40
0.389029367978163
40
0.389029367978163
40
0.444604991975048
40
0.444604991975048
40
0.555756239968818
40
0.555756239968818
40
0.666907487962588
40
0.666907487962588
40
0.722483111959478
40
0.722483111959478
40
0.750270923957918
40
0.750270923957918
40
0.778058735956358
40
0.778058735956358
40
0.889209983950138
40
0.889209983950138
40
0.944785607947023
40
0.944785607947023
40
0.972573419945461
40
0.972573419945461
40
1
40
1
40
1
40
1
41
1
10
283.271066336828
20
9.34415976666139
30
0
41
1
10
282.737430122413
20
9.47700091144981
30
0
41
1
10
282.197834466436
20
9.58691261693232
30
0
41
1
10
281.107824904812
20
9.76798722189969
30
0
41
1
10
280.55739514377
20
9.83908164492809
30
0
41
1
10
279.445563262642
20
9.94564074404599
30
0
41
1
10
278.884157251613
20
9.98107717400796
30
0
41
1
10
278.033015443211
20
10.0080628548995
30
0
41
1
10
277.747789138886
20
10.0126801798116
30
0
41
1
10
277.174091708593
20
10.0130716255198
30
0
41
1
10
276.885371715353
20
10.0088157762855
30
0
41
1
10
276.022060981031
20
9.982849648083
30
0
41
1
10
275.44778486994
20
9.94802848502658
30
0
41
1
10
274.301562443197
20
9.84353901205029
30
0
41
1
10
273.729615275491
20
9.77389160731863
30
0
41
1
10
272.873366664137
20
9.64211004661684
30
0
41
1
10
272.588229969219
20
9.59361602155482
30
0
41
1
10
272.160945324406
20
9.51368151809683
30
0
41
1
10
272.018402853531
20
9.48579533781194
30
0
41
1
10
271.735252128168
20
9.42791930580927
30
0
41
1
10
271.594470682778
20
9.3979002300679
30
0
41
1
10
270.894634158014
20
9.24236782129296
30
0
41
1
10
270.347667399963
20
9.10073546759807
30
0
41
1
10
269.549787075316
20
8.8598702796734
30
0
41
1
10
269.28761029422
20
8.77481197109515
30
0
41
1
10
268.900751111843
20
8.63924094687431
30
0
41
1
10
268.772775587907
20
8.5926701739881
30
0
41
1
10
268.523183425182
20
8.49822077008938
30
0
41
1
10
268.401213902908
20
8.4502686947398
30
0
41
1
10
268.28133830935
20
8.40123158145741
30
0
0
SPLINE
5
2DC
100
AcDbEntity
8
1
62
256
6
ByLayer
370
13
48
1
60
0
100
AcDbSpline
70
4
71
3
72
14
73
10
40
0
40
0
40
0
40
0
40
0.500000000000073
40
0.500000000000073
40
0.750000000000036
40
0.750000000000036
40
0.875000000000018
40
0.875000000000018
40
1
40
1
40
1
40
1
41
1
10
298.252115878551
20
8.17645307660712
30
0
41
1
10
298.428094872949
20
8.12675433750687
30
0
41
1
10
298.60345890345
20
8.09343571357431
30
0
41
1
10
298.867370356775
20
8.06466075276722
30
0
41
1
10
298.955473112969
20
8.05865139364508
30
0
41
1
10
299.087996003557
20
8.05493689512372
30
0
41
1
10
299.132231659223
20
8.05458397113608
30
0
41
1
10
299.220854336184
20
8.05565969166398
30
0
41
1
10
299.265679991538
20
8.05711315023009
30
0
41
1
10
299.309581836171
20
8.05941394841372
30
0
0
SPLINE
5
2DD
100
AcDbEntity
8
1
62
256
6
ByLayer
370
13
48
1
60
0
100
AcDbSpline
70
4
71
3
72
14
73
10
40
0
40
0
40
0
40
0
40
0.500000000000004
40
0.500000000000004
40
0.750000000000002
40
0.750000000000002
40
0.875000000000001
40
0.875000000000001
40
1
40
1
40
1
40
1
41
1
10
278.282712743775
20
25.6341730105828
30
0
41
1
10
279.070796014483
20
23.8801519826432
30
0
41
1
10
279.972191273596
20
22.1946297233708
30
0
41
1
10
281.543437641363
20
19.7988278457177
30
0
41
1
10
282.103750034515
20
19.0223304578063
30
0
41
1
10
283.005024256678
20
17.8943422778032
30
0
41
1
10
283.315830392283
20
17.5242470413152
30
0
41
1
10
283.954370453253
20
16.8014170087671
30
0
41
1
10
284.2825434052
20
16.4481024037232
30
0
41
1
10
284.619696154035
20
16.1029581557758
30
0
0
SPLINE
5
2DE
100
AcDbEntity
8
1
62
256
6
ByLayer
370
13
48
1
60
0
100
AcDbSpline
70
4
71
3
72
8
73
4
40
0
40
0
40
0
40
0
40
1
40
1
40
1
40
1
41
1
10
286.103499093529
20
6.36698498094495
30
0
41
1
10
287.013685593969
20
6.10528356316556
30
0
41
1
10
287.903530886894
20
5.85116144544202
30
0
41
1
10
288.7711754325
20
5.60531150749316
30
0
0
SPLINE
5
2DF
100
AcDbEntity
8
1
62
256
6
ByLayer
370
13
48
1
60
0
100
AcDbSpline
70
4
71
3
72
18
73
14
40
0
40
0
40
0
40
0
40
0.25
40
0.25
40
0.375
40
0.375
40
0.5
40
0.625
40
0.625
40
0.75
40
0.875
40
0.875
40
1
40
1
40
1
40
1
41
1
10
36.0049999108608
20
-14.4820087400974
30
0
41
1
10
33.8314706443334
20
-14.9530955388412
30
0
41
1
10
31.6718048818028
20
-15.6392309021461
30
0
41
1
10
28.5819258199663
20
-16.9861911617426
30
0
41
1
10
27.5770325772247
20
-17.4886923872897
30
0
41
1
10
25.6377497000173
20
-18.5945611406796
30
0
41
1
10
23.7687023478207
20
-19.8000326505485
30
0
41
1
10
22.0787301580415
20
-21.1823008871962
30
0
41
1
10
20.4975961029762
20
-22.6417620275039
30
0
41
1
10
19.0252394157625
20
-24.1783728878431
30
0
41
1
10
17.7889756266437
20
-25.8326145567226
30
0
41
1
10
16.6800273679173
20
-27.5273373144043
30
0
41
1
10
16.1899781963568
20
-28.3949349211181
30
0
41
1
10
15.7658885516545
20
-29.2736190398522
30
0
0
SPLINE
5
2E0
100
AcDbEntity
8
1
62
256
6
ByLayer
370
13
48
1
60
0
100
AcDbSpline
70
4
71
3
72
10
73
6
40
0
40
0
40
0
40
0
40
0.831982487580796
40
0.831982487580796
40
1
40
1
40
1
40
1
41
1
10
289.461358086285
20
18.4957978725653
30
0
41
1
10
289.425887053883
20
18.4486628299802
30
0
41
1
10
289.395054038123
20
18.4034865306999
30
0
41
1
10
289.367673478873
20
18.3583900436633
30
0
41
1
10
289.363434019059
20
18.3511728919885
30
0
41
1
10
289.35965057321
20
18.3444728377597
30
0
0
SPLINE
5
2E1
100
AcDbEntity
8
1
62
256
6
ByLayer
370
13
48
1
60
0
100
AcDbSpline
70
4
71
3
72
14
73
10
40
0
40
0
40
0
40
0
40
0.014558156312382
40
0.014558156312382
40
0.343038770874921
40
0.343038770874921
40
0.671519385437461
40
0.671519385437461
40
1
40
1
40
1
40
1
41
1
10
290.191890710356
20
24.6985720233341
30
0
41
1
10
290.191899997023
20
24.6953989939812
30
0
41
1
10
290.19191178338
20
24.6922171572182
30
0
41
1
10
290.192240074466
20
24.6170979283144
30
0
41
1
10
290.193704453329
20
24.5404191418766
30
0
41
1
10
290.197343052513
20
24.3858358837271
30
0
41
1
10
290.199589420293
20
24.3074276186161
30
0
41
1
10
290.204543214699
20
24.1497205994589
30
0
41
1
10
290.207258979333
20
24.0704153370173
30
0
41
1
10
290.210137023227
20
23.990803167437
30
0
0
SPLINE
5
2E2
100
AcDbEntity
8
1
62
256
6
ByLayer
370
13
48
1
60
0
100
AcDbSpline
70
4
71
3
72
70
73
66
40
0
40
0
40
0
40
0
40
0.0023215358068123
40
0.0023215358068123
40
0.0119145979625155
40
0.0119145979625155
40
0.0215076601182188
40
0.0215076601182188
40
0.0406937844296257
40
0.0406937844296257
40
0.0598799087410326
40
0.0598799087410326
40
0.0790660330524396
40
0.0790660330524396
40
0.0982521573638465
40
0.0982521573638465
40
0.117438281675253
40
0.117438281675253
40
0.13662440598666
40
0.13662440598666
40
0.155810530298067
40
0.155810530298067
40
0.194182778920881
40
0.194182778920881
40
0.213368903232288
40
0.213368903232288
40
0.232555027543695
40
0.232555027543695
40
0.251741151855102
40
0.251741151855102
40
0.270927276166509
40
0.270927276166509
40
0.290113400477916
40
0.290113400477916
40
0.309299524789323
40
0.309299524789323
40
0.32848564910073
40
0.32848564910073
40
0.347671773412137
40
0.347671773412137
40
0.366857897723544
40
0.366857897723544
40
0.376450959879247
40
0.376450959879247
40
0.386044022034951
40
0.386044022034951
40
0.405230146346359
40
0.405230146346359
40
0.424416270657766
40
0.424416270657766
40
0.462788519280582
40
0.462788519280582
40
0.501160767903398
40
0.501160767903398
40
0.539533016526213
40
0.539533016526213
40
0.577905265149029
40
0.577905265149029
40
0.616277513771844
40
0.616277513771844
40
0.693022011017475
40
0.693022011017475
40
0.846511005508738
40
0.846511005508738
40
1
40
1
40
1
40
1
41
1
10
232.318312873428
20
-21.6154315881681
30
0
41
1
10
232.177559973148
20
-21.6484657884343
30
0
41
1
10
232.036810403284
20
-21.6813270815047
30
0
41
1
10
231.314472303424
20
-21.8490834495932
30
0
41
1
10
230.732940450547
20
-21.9810702745555
30
0
41
1
10
229.569832998158
20
-22.2375750320717
30
0
41
1
10
228.988242407946
20
-22.362152778251
30
0
41
1
10
227.242642905878
20
-22.7256167354142
30
0
41
1
10
226.077314889233
20
-22.9541019621395
30
0
41
1
10
223.742033514558
20
-23.3781192184532
30
0
41
1
10
222.571900882048
20
-23.573714418324
30
0
41
1
10
220.220515721407
20
-23.9330072234477
30
0
41
1
10
219.039482097938
20
-24.0956791363882
30
0
41
1
10
216.666670882142
20
-24.3904385761899
30
0
41
1
10
215.474867823164
20
-24.5227164331311
30
0
41
1
10
213.080409374134
20
-24.7596000810258
30
0
41
1
10
211.877499571518
20
-24.8640526231269
30
0
41
1
10
209.462435669611
20
-25.0495199597364
30
0
41
1
10
208.2514585801
20
-25.1304559331774
30
0
41
1
10
205.822906427033
20
-25.2733354984387
30
0
41
1
10
204.605347927486
20
-25.3353732638182
30
0
41
1
10
200.942729793766
20
-25.4952152843377
30
0
41
1
10
198.487758696738
20
-25.566619423058
30
0
41
1
10
194.784277421106
20
-25.6292947852156
30
0
41
1
10
193.546576454939
20
-25.6427069091
30
0
41
1
10
191.067018099272
20
-25.6623722932091
30
0
41
1
10
189.82475003151
20
-25.6691376510036
30
0
41
1
10
187.334745357886
20
-25.6787340524903
30
0
41
1
10
186.08703747955
20
-25.6810923069448
30
0
41
1
10
183.585852221218
20
-25.6793270255629
30
0
41
1
10
182.332338833776
20
-25.6748584370788
30
0
41
1
10
179.819474466986
20
-25.6618692462155
30
0
41
1
10
178.559632445841
20
-25.6534421579345
30
0
41
1
10
176.03831948653
20
-25.6364754599086
30
0
41
1
10
174.77650401614
20
-25.6280398411909
30
0
41
1
10
172.250650488893
20
-25.613643763203
30
0
41
1
10
170.986636599491
20
-25.6082442694189
30
0
41
1
10
168.456293786317
20
-25.5963794162849
30
0
41
1
10
167.189919446824
20
-25.5887216764509
30
0
41
1
10
164.654928019706
20
-25.57377194213
30
0
41
1
10
163.386113835455
20
-25.5655447900212
30
0
41
1
10
161.482101922026
20
-25.569793012046
30
0
41
1
10
160.847428622795
20
-25.5736866202534
30
0
41
1
10
159.578078690845
20
-25.58085532365
30
0
41
1
10
158.943402088454
20
-25.5836345527375
30
0
41
1
10
157.039368892161
20
-25.5874756436853
30
0
41
1
10
155.770008736196
20
-25.5852989895422
30
0
41
1
10
153.231284710552
20
-25.5789703638735
30
0
41
1
10
151.961921171589
20
-25.5753322525102
30
0
41
1
10
148.153830019501
20
-25.5673228225725
30
0
41
1
10
145.615101249287
20
-25.5648789656991
30
0
41
1
10
140.537648031887
20
-25.5664779316351
30
0
41
1
10
137.998923005863
20
-25.5689167887305
30
0
41
1
10
132.921475105041
20
-25.5708776347281
30
0
41
1
10
130.382752113222
20
-25.5710653104441
30
0
41
1
10
125.305306339476
20
-25.5699401871125
30
0
41
1
10
122.766583642356
20
-25.5687774825291
30
0
41
1
10
117.689138065021
20
-25.5672523352863
30
0
41
1
10
115.150415106842
20
-25.5670798801956
30
0
41
1
10
107.534246049149
20
-25.567919108672
30
0
41
1
10
102.456800172477
20
-25.5700260700234
30
0
41
1
10
87.224462108872
20
-25.572684081674
30
0
41
1
10
77.0695696140409
20
-25.5700842375843
30
0
41
1
10
56.7597848320808
20
-25.568779303101
30
0
41
1
10
46.6048924039075
20
-25.5699907691271
30
0
41
1
10
36.4500000000001
20
-25.5700865020393
30
0
0
SPLINE
5
2E3
100
AcDbEntity
8
1
62
256
6
ByLayer
370
13
48
1
60
0
100
AcDbSpline
70
4
71
3
72
18
73
14
40
0
40
0
40
0
40
0
40
0.124999999999995
40
0.124999999999995
40
0.249999999999989
40
0.249999999999989
40
0.49999999999998
40
0.49999999999998
40
0.74999999999997
40
0.74999999999997
40
0.874999999999985
40
0.874999999999985
40
1
40
1
40
1
40
1
41
1
10
287.637697605664
20
10.0069340695723
30
0
41
1
10
287.572122124473
20
10.1081433467358
30
0
41
1
10
287.502936482425
20
10.2089879691756
30
0
41
1
10
287.356718688155
20
10.4095966394956
30
0
41
1
10
287.279614947924
20
10.5093866421879
30
0
41
1
10
287.039712780281
20
10.801756678773
30
0
41
1
10
286.86720981919
20
10.9890271282415
30
0
41
1
10
286.49552586381
20
11.3458432777553
30
0
41
1
10
286.296330640253
20
11.5153550462393
30
0
41
1
10
285.975606483392
20
11.7539526893338
30
0
41
1
10
285.864481404302
20
11.831222110593
30
0
41
1
10
285.637651404643
20
11.9783182320194
30
0
41
1
10
285.522132919327
20
12.0480903626177
30
0
41
1
10
285.404595159102
20
12.114252745947
30
0
0
SPLINE
5
2E4
100
AcDbEntity
8
1
62
256
6
ByLayer
370
13
48
1
60
0
100
AcDbSpline
70
4
71
3
72
12
73
8
40
0
40
0
40
0
40
0
40
0.499999999999997
40
0.499999999999997
40
0.749999999999999
40
0.749999999999999
40
1
40
1
40
1
40
1
41
1
10
34.2449980036862
20
-26.2703883727781
30
0
41
1
10
33.6475006454307
20
-26.2996865516548
30
0
41
1
10
33.0608788091255
20
-26.3376859002369
30
0
41
1
10
32.1966089559696
20
-26.4041166738329
30
0
41
1
10
31.9111155758622
20
-26.427782727672
30
0
41
1
10
31.3457052447821
20
-26.476793437752
30
0
41
1
10
31.0712508028871
20
-26.5016523124966
30
0
41
1
10
30.804760042546
20
-26.5258745396569
30
0
0
SPLINE
5
2E5
100
AcDbEntity
8
1
62
256
6
ByLayer
370
13
48
1
60
0
100
AcDbSpline
70
4
71
3
72
8
73
4
40
0
40
0
40
0
40
0
40
1
40
1
40
1
40
1
41
1
10
41
20
-26.2273553997379
30
0
41
1
10
39.3333333323073
20
-26.227360015532
30
0
41
1
10
37.6666666650579
20
-26.2273665934885
30
0
41
1
10
36
20
-26.2273758842862
30
0
0
SPLINE
5
2E6
100
AcDbEntity
8
1
62
256
6
ByLayer
370
13
48
1
60
0
100
AcDbSpline
70
4
71
3
72
52
73
48
40
0
40
0
40
0
40
0
40
0.0182097740179185
40
0.0182097740179185
40
0.0649616895408747
40
0.0649616895408747
40
0.111713605063831
40
0.111713605063831
40
0.135089562825309
40
0.135089562825309
40
0.158465520586787
40
0.158465520586787
40
0.205217436109744
40
0.205217436109744
40
0.2519693516327
40
0.2519693516327
40
0.298721267155656
40
0.298721267155656
40
0.345473182678612
40
0.345473182678612
40
0.392225098201569
40
0.392225098201569
40
0.438977013724525
40
0.438977013724525
40
0.485728929247481
40
0.485728929247481
40
0.532480844770437
40
0.532480844770437
40
0.579232760293394
40
0.579232760293394
40
0.62598467581635
40
0.62598467581635
40
0.672736591339306
40
0.672736591339306
40
0.719488506862263
40
0.719488506862263
40
0.766240422385219
40
0.766240422385219
40
0.812992337908175
40
0.812992337908175
40
0.859744253431131
40
0.859744253431131
40
0.906496168954088
40
0.906496168954088
40
0.953248084477044
40
0.953248084477044
40
1
40
1
40
1
40
1
41
1
10
232.865573735313
20
-21.7395066658066
30
0
41
1
10
232.368380391342
20
-21.8602982069319
30
0
41
1
10
231.871172996748
20
-21.9788541013755
30
0
41
1
10
230.097301587161
20
-22.3936876808764
30
0
41
1
10
228.819853002677
20
-22.6772836426759
30
0
41
1
10
226.264088301369
20
-23.2096890014252
30
0
41
1
10
224.985518798995
20
-23.4580814320639
30
0
41
1
10
223.060878985065
20
-23.7996135340778
30
0
41
1
10
222.418194900257
20
-23.9083054770387
30
0
41
1
10
221.129535160611
20
-24.1149766218489
30
0
41
1
10
220.483491480499
20
-24.2129007978984
30
0
41
1
10
218.540001617422
20
-24.4913104745221
30
0
41
1
10
217.237270576211
20
-24.656519105634
30
0
41
1
10
214.617510061725
20
-24.9513676415861
30
0
41
1
10
213.299686755255
20
-25.0810170305435
30
0
41
1
10
210.655191642293
20
-25.3094086264364
30
0
41
1
10
209.328254072986
20
-25.4082543713389
30
0
41
1
10
206.665517603624
20
-25.5802610103644
30
0
41
1
10
205.329781742125
20
-25.6534439469444
30
0
41
1
10
202.649455394145
20
-25.7780929022334
30
0
41
1
10
201.304835317997
20
-25.82953662036
30
0
41
1
10
198.606357783914
20
-25.9142548859194
30
0
41
1
10
197.25205854554
20
-25.9475331715099
30
0
41
1
10
194.537947892805
20
-25.9992881362073
30
0
41
1
10
193.177760807622
20
-26.0177823916195
30
0
41
1
10
190.450824800665
20
-26.0433514741771
30
0
41
1
10
189.084087677074
20
-26.0504143697676
30
0
41
1
10
186.343177472563
20
-26.0562854748578
30
0
41
1
10
184.968998060806
20
-26.0550989012279
30
0
41
1
10
182.212300632744
20
-26.04773061551
30
0
41
1
10
180.829427977771
20
-26.0415682839448
30
0
41
1
10
178.061629212756
20
-26.0270626216253
30
0
41
1
10
176.676011691542
20
-26.0187152808209
30
0
41
1
10
173.901487664223
20
-26.0019092426826
30
0
41
1
10
172.512599885598
20
-25.9934303131402
30
0
41
1
10
169.731522041012
20
-25.9779731368853
30
0
41
1
10
168.339223634132
20
-25.971087743808
30
0
41
1
10
165.550975158966
20
-25.9603337797657
30
0
41
1
10
164.154685293105
20
-25.9564100121612
30
0
41
1
10
161.361869091953
20
-25.9510593654167
30
0
41
1
10
159.965401073109
20
-25.9495548843117
30
0
41
1
10
157.172399696109
20
-25.9479091095661
30
0
41
1
10
155.775865139059
20
-25.947785612861
30
0
41
1
10
152.982773258399
20
-25.9480151570001
30
0
41
1
10
151.586218691107
20
-25.9483091112934
30
0
41
1
10
148.793109544635
20
-25.9488957142822
30
0
41
1
10
147.396553581706
20
-25.9492171015765
30
0
41
1
10
146
20
-25.9494887186505
30
0
0
SPLINE
5
2E7
100
AcDbEntity
8
1
62
256
6
ByLayer
370
13
48
1
60
0
100
AcDbSpline
70
4
71
3
72
8
73
4
40
0
40
0
40
0
40
0
40
1
40
1
40
1
40
1
41
1
10
286.418607486696
20
-0.359544436681091
30
0
41
1
10
286.792124205704
20
-0.383114645784417
30
0
41
1
10
287.165644782147
20
-0.406666060216452
30
0
41
1
10
287.539169144042
20
-0.430198982336918
30
0
0
SPLINE
5
2E8
100
AcDbEntity
8
1
62
256
6
ByLayer
370
13
48
1
60
0
100
AcDbSpline
70
4
71
3
72
12
73
8
40
0
40
0
40
0
40
0
40
0.0359896800057235
40
0.0359896800057235
40
0.357326453337154
40
0.357326453337154
40
1
40
1
40
1
40
1
41
1
10
261.958750378056
20
10.9876945697655
30
0
41
1
10
262.088191657405
20
10.9351993571695
30
0
41
1
10
262.217637629577
20
10.8826195757248
30
0
41
1
10
263.502904019912
20
10.3597467298315
30
0
41
1
10
264.659367208121
20
9.88276929049354
30
0
41
1
10
268.126481731982
20
8.43578659718628
30
0
41
1
10
270.436243664131
20
7.44915658915323
30
0
41
1
10
272.747254597688
20
6.44680775143587
30
0
0
SPLINE
5
2E9
100
AcDbEntity
8
1
62
256
6
ByLayer
370
13
48
1
60
0
100
AcDbSpline
70
4
71
3
72
8
73
4
40
0
40
0
40
0
40
0
40
1
40
1
40
1
40
1
41
1
10
284.218041800112
20
12.1883120729103
30
0
41
1
10
284.355179470949
20
13.494779839556
30
0
41
1
10
284.489317054853
20
14.7996839717613
30
0
41
1
10
284.619726552608
20
16.1032620203618
30
0
0
SPLINE
5
2EA
100
AcDbEntity
8
1
62
256
6
ByLayer
370
13
48
1
60
0
100
AcDbSpline
70
4
71
3
72
8
73
4
40
0
40
0
40
0
40
0
40
1
40
1
40
1
40
1
41
1
10
272.462993928437
20
6.5388162181649
30
0
41
1
10
272.55785114777
20
6.50782658895426
30
0
41
1
10
272.652605751177
20
6.47715386664487
30
0
41
1
10
272.747254597688
20
6.44680775143578
30
0
0
SPLINE
5
2EB
100
AcDbEntity
8
1
62
256
6
ByLayer
370
13
48
1
60
0
100
AcDbSpline
70
4
71
3
72
8
73
4
40
0
40
0
40
0
40
0
40
1
40
1
40
1
40
1
41
1
10
285.183726671163
20
8.42831937350579
30
0
41
1
10
285.096072032983
20
8.19864487437053
30
0
41
1
10
284.991640482989
20
7.97511708962705
30
0
41
1
10
284.870996053912
20
7.75752936931841
30
0
0
SPLINE
5
2EC
100
AcDbEntity
8
1
62
256
6
ByLayer
370
13
48
1
60
0
100
AcDbSpline
70
4
71
3
72
12
73
8
40
0
40
0
40
0
40
0
40
0.358356488951266
40
0.358356488951266
40
0.679178244475634
40
0.679178244475634
40
1
40
1
40
1
40
1
41
1
10
260.139441127364
20
11.6843395192501
30
0
41
1
10
262.98147822302
20
11.8500410706129
30
0
41
1
10
265.822942621364
20
11.973540640311
30
0
41
1
10
271.209541187145
20
12.124338525428
30
0
41
1
10
273.755153469466
20
12.1604527958646
30
0
41
1
10
278.846554940265
20
12.1611100107522
30
0
41
1
10
281.391846813662
20
12.1256718622236
30
0
41
1
10
283.937681264412
20
12.0543902500292
30
0
0
SPLINE
5
2ED
100
AcDbEntity
8
1
62
256
6
ByLayer
370
13
48
1
60
0
100
AcDbSpline
70
4
71
3
72
17
73
13
40
0
40
0
40
0
40
0
40
0.499999999999999
40
0.499999999999999
40
0.749999999999998
40
0.749999999999998
40
0.812499999999998
40
0.812499999999998
40
0.843749999999998
40
0.843749999999998
40
0.874999999999998
40
1
40
1
40
1
40
1
41
1
10
15.7658885516545
20
-29.2736190398522
30
0
41
1
10
18.2840259182108
20
-28.8622313578057
30
0
41
1
10
20.7945309388429
20
-28.4190144440293
30
0
41
1
10
24.5484940952709
20
-27.7050029013242
30
0
41
1
10
25.7977711584139
20
-27.4588123521549
30
0
41
1
10
27.3576608403897
20
-27.1404329142395
30
0
41
1
10
27.6695439912042
20
-27.0762264637909
30
0
41
1
10
28.1372256035662
20
-26.9791157074169
30
0
41
1
10
28.2931837630277
20
-26.9471053115375
30
0
41
1
10
28.6055325891987
20
-26.8855054817339
30
0
41
1
10
29.3872561407897
20
-26.7362721062115
30
0
41
1
10
30.1732353839621
20
-26.6108599902392
30
0
41
1
10
30.804760042546
20
-26.5258745396569
30
0
0
SPLINE
5
2EE
100
AcDbEntity
8
1
62
256
6
ByLayer
370
13
48
1
60
0
100
AcDbSpline
70
4
71
3
72
14
73
10
40
0
40
0
40
0
40
0
40
0.25
40
0.25
40
0.5
40
0.5
40
0.75
40
0.75
40
1
40
1
40
1
40
1
41
1
10
295.748417882176
20
5.86889730334394
30
0
41
1
10
296.052123095827
20
5.98054820046755
30
0
41
1
10
296.349202191983
20
6.07429119273732
30
0
41
1
10
296.932165466714
20
6.23347912184073
30
0
41
1
10
297.218020393708
20
6.29885965591336
30
0
41
1
10
297.779121991884
20
6.40611935785086
30
0
41
1
10
298.054355945782
20
6.44796897528158
30
0
41
1
10
298.594020166553
20
6.51178411604701
30
0
41
1
10
298.858976654431
20
6.53374021250841
30
0
41
1
10
299.116070466142
20
6.54721392824774
30
0
0
SPLINE
5
2EF
100
AcDbEntity
8
1
62
256
6
ByLayer
370
13
48
1
60
0
100
AcDbSpline
70
4
71
3
72
20
73
16
40
0
40
0
40
0
40
0
40
0.250000000000035
40
0.250000000000035
40
0.50000000000007
40
0.50000000000007
40
0.625000000000088
40
0.625000000000088
40
0.687500000000097
40
0.687500000000097
40
0.750000000000107
40
0.750000000000107
40
0.875000000000053
40
0.875000000000053
40
1
40
1
40
1
40
1
41
1
10
287.637697605664
20
10.0069340695722
30
0
41
1
10
287.633046946391
20
9.83559568811395
30
0
41
1
10
287.60732246846
20
9.66752419661069
30
0
41
1
10
287.503113111104
20
9.3395601976062
30
0
41
1
10
287.426454969291
20
9.18629759614478
30
0
41
1
10
287.268502939883
20
8.98190988870022
30
0
41
1
10
287.210202206511
20
8.92013514922513
30
0
41
1
10
287.114109440776
20
8.8371921337955
30
0
41
1
10
287.080631639803
20
8.81117173545405
30
0
41
1
10
287.010673454236
20
8.76250787938801
30
0
41
1
10
286.973941800881
20
8.73973616709952
30
0
41
1
10
286.861135804464
20
8.67788353911828
30
0
41
1
10
286.78269633773
20
8.64519395106157
30
0
41
1
10
286.61988106383
20
8.59549379366032
30
0
41
1
10
286.534872904426
20
8.57855538804998
30
0
41
1
10
286.450364211776
20
8.5691587373652
30
0
0
SPLINE
5
2F0
100
AcDbEntity
8
1
62
256
6
ByLayer
370
13
48
1
60
0
100
AcDbSpline
70
4
71
3
72
12
73
8
40
0
40
0
40
0
40
0
40
0.5
40
0.5
40
0.75
40
0.75
40
1
40
1
40
1
40
1
41
1
10
281.81548748602
20
2.22069496694158
30
0
41
1
10
282.234439358098
20
2.09655166428982
30
0
41
1
10
282.654918510823
20
2.01768760268263
30
0
41
1
10
283.286090147487
20
1.96365534779488
30
0
41
1
10
283.496541818774
20
1.95642978120586
30
0
41
1
10
283.917072665003
20
1.96371827401634
30
0
41
1
10
284.128050182059
20
1.97841237241394
30
0
41
1
10
284.334749469598
20
2.00369024091327
30
0
0
SPLINE
5
2F1
100
AcDbEntity
8
1
62
256
6
ByLayer
370
13
48
1
60
0
100
AcDbSpline
70
4
71
3
72
8
73
4
40
0
40
0
40
0
40
0
40
1
40
1
40
1
40
1
41
1
10
36.01
20
-25.583812769609
30
0
41
1
10
35.421666001163
20
-25.5837702244872
30
0
41
1
10
34.8333320023442
20
-25.5837274954949
30
0
41
1
10
34.2449980035163
20
-25.5836848583901
30
0
0
SPLINE
5
2F2
100
AcDbEntity
8
1
62
256
6
ByLayer
370
13
48
1
60
0
100
AcDbSpline
70
4
71
3
72
8
73
4
40
0
40
0
40
0
40
0
40
1
40
1
40
1
40
1
41
1
10
287.539169144041
20
-26.1507445098839
30
0
41
1
10
286.539169143657
20
-26.0613716725177
30
0
41
1
10
285.539169143653
20
-25.9719988309534
30
0
41
1
10
284.539169144041
20
-25.8826259850589
30
0
0
SPLINE
5
2F3
100
AcDbEntity
8
1
62
256
6
ByLayer
370
13
48
1
60
0
100
AcDbSpline
70
4
71
3
72
8
73
4
40
0
40
0
40
0
40
0
40
1
40
1
40
1
40
1
41
1
10
283.481199920069
20
10.0500494193166
30
0
41
1
10
283.481804442411
20
10.0521946633731
30
0
41
1
10
283.482461434234
20
10.0543260480676
30
0
41
1
10
283.483168893248
20
10.0564441172348
30
0
0
SPLINE
5
2F4
100
AcDbEntity
8
1
62
256
6
ByLayer
370
13
48
1
60
0
100
AcDbSpline
70
4
71
3
72
38
73
34
40
0
40
0
40
0
40
0
40
0.0212299857972419
40
0.0212299857972419
40
0.0445340337544503
40
0.0445340337544503
40
0.0678380817116588
40
0.0678380817116588
40
0.114446177626075
40
0.114446177626075
40
0.161054273540492
40
0.161054273540492
40
0.207662369454908
40
0.207662369454908
40
0.219314393433512
40
0.219314393433512
40
0.230966417412116
40
0.230966417412116
40
0.254270465369325
40
0.254270465369325
40
0.300878561283743
40
0.300878561283743
40
0.34748665719816
40
0.34748665719816
40
0.440702849026995
40
0.440702849026995
40
0.533919040855829
40
0.533919040855829
40
0.627135232684663
40
0.627135232684663
40
0.813567616342332
40
0.813567616342332
40
1
40
1
40
1
40
1
41
1
10
197.883216737483
20
-13.4284073034529
30
0
41
1
10
196.750645031684
20
-13.5070992094735
30
0
41
1
10
195.617041161018
20
-13.5826671262446
30
0
41
1
10
193.23640275099
20
-13.7317047503123
30
0
41
1
10
191.989088409947
20
-13.8040511020531
30
0
41
1
10
189.490847162506
20
-13.9344854061105
30
0
41
1
10
188.239974796117
20
-13.9929566812862
30
0
41
1
10
184.482092853077
20
-14.1501804490033
30
0
41
1
10
181.975875451944
20
-14.2305722618292
30
0
41
1
10
176.96277360692
20
-14.3523820883112
30
0
41
1
10
174.455662170951
20
-14.3931165180754
30
0
41
1
10
169.440376400325
20
-14.4479784378105
30
0
41
1
10
166.932216638771
20
-14.4628801995385
30
0
41
1
10
163.796401007072
20
-14.4724816030482
30
0
41
1
10
163.169205820275
20
-14.4739657289102
30
0
41
1
10
161.914746205666
20
-14.4763816307119
30
0
41
1
10
161.287479996484
20
-14.4772919641295
30
0
41
1
10
159.405623138592
20
-14.4788886414051
30
0
41
1
10
158.150994286609
20
-14.4783850213497
30
0
41
1
10
154.387119966862
20
-14.4782008044766
30
0
41
1
10
151.877833100654
20
-14.4786265741621
30
0
41
1
10
146.859206223223
20
-14.4784520439138
30
0
41
1
10
144.349873381111
20
-14.4784074074741
30
0
41
1
10
136.821892295997
20
-14.4785739711181
30
0
41
1
10
131.803279014049
20
-14.4780367715614
30
0
41
1
10
121.76609416066
20
-14.4767580213804
30
0
41
1
10
116.747512167385
20
-14.4763096646518
30
0
41
1
10
106.710333278986
20
-14.4769606251708
30
0
41
1
10
101.691741510355
20
-14.4777808661081
30
0
41
1
10
86.6359582795052
20
-14.47895365823
30
0
41
1
10
76.5987651290434
20
-14.4784322041095
30
0
41
1
10
56.5243825663112
20
-14.4779567585318
30
0
41
1
10
46.4871912818049
20
-14.4779675638154
30
0
41
1
10
36.45
20
-14.4779431484809
30
0
0
SPLINE
5
2F5
100
AcDbEntity
8
1
62
256
6
ByLayer
370
13
48
1
60
0
100
AcDbSpline
70
4
71
3
72
10
73
6
40
0
40
0
40
0
40
0
40
0.5
40
0.5
40
1
40
1
40
1
40
1
41
1
10
285.54487789496
20
12.1225107884283
30
0
41
1
10
285.619063218965
20
12.1308307638217
30
0
41
1
10
285.69367678588
20
12.136862548149
30
0
41
1
10
285.844278832498
20
12.1415796713887
30
0
41
1
10
285.920231649126
20
12.1404555655357
30
0
41
1
10
285.997505580561
20
12.1322724680933
30
0
0
SPLINE
5
2F6
100
AcDbEntity
8
1
62
256
6
ByLayer
370
13
48
1
60
0
100
AcDbSpline
70
4
71
3
72
22
73
18
40
0
40
0
40
0
40
0
40
0.062500000000006
40
0.062500000000006
40
0.125000000000012
40
0.125000000000012
40
0.187500000000018
40
0.187500000000018
40
0.250000000000024
40
0.250000000000024
40
0.375000000000037
40
0.375000000000037
40
0.50000000000005
40
0.50000000000005
40
0.750000000000025
40
0.750000000000025
40
1
40
1
40
1
40
1
41
1
10
284.870996053914
20
7.75752936932153
30
0
41
1
10
284.847686578928
20
7.71548966999475
30
0
41
1
10
284.829699666365
20
7.67051905506508
30
0
41
1
10
284.806692910978
20
7.57800169609669
30
0
41
1
10
284.801750720299
20
7.53150157807383
30
0
41
1
10
284.803642661345
20
7.43807626386644
30
0
41
1
10
284.810422846526
20
7.39295555722447
30
0
41
1
10
284.832747243618
20
7.30572443580152
30
0
41
1
10
284.848504599295
20
7.26323118346426
30
0
41
1
10
284.904578945089
20
7.14305132996651
30
0
41
1
10
284.95379128045
20
7.07085221213461
30
0
41
1
10
285.065929406079
20
6.93780938849287
30
0
41
1
10
285.127745005857
20
6.87841084790881
30
0
41
1
10
285.324804632963
20
6.71465925859781
30
0
41
1
10
285.47279690755
20
6.62414764545358
30
0
41
1
10
285.779012219028
20
6.47438550121049
30
0
41
1
10
285.938535945641
20
6.41441601805951
30
0
41
1
10
286.103499093529
20
6.36698498094495
30
0
0
SPLINE
5
2F7
100
AcDbEntity
8
1
62
256
6
ByLayer
370
13
48
1
60
0
100
AcDbSpline
70
4
71
3
72
54
73
50
40
0
40
0
40
0
40
0
40
0.124999999999968
40
0.124999999999968
40
0.249999999999936
40
0.249999999999936
40
0.281249999999933
40
0.281249999999933
40
0.312499999999931
40
0.312499999999931
40
0.374999999999933
40
0.374999999999933
40
0.406249999999931
40
0.406249999999931
40
0.437499999999928
40
0.437499999999928
40
0.499999999999924
40
0.499999999999924
40
0.531249999999921
40
0.531249999999921
40
0.546874999999923
40
0.546874999999923
40
0.562499999999926
40
0.562499999999926
40
0.624999999999927
40
0.624999999999927
40
0.656249999999931
40
0.656249999999931
40
0.671874999999933
40
0.671874999999933
40
0.687499999999935
40
0.687499999999935
40
0.749999999999954
40
0.749999999999954
40
0.765624999999958
40
0.765624999999958
40
0.781249999999962
40
0.781249999999962
40
0.812499999999967
40
0.812499999999967
40
0.874999999999977
40
0.874999999999977
40
0.89062499999998
40
0.89062499999998
40
0.906249999999983
40
0.906249999999983
40
0.937499999999988
40
0.937499999999988
40
1
40
1
40
1
40
1
41
1
10
286.012148054656
20
1.64459500872593
30
0
41
1
10
286.913295402743
20
1.50908129862901
30
0
41
1
10
287.82057934589
20
1.39136783101557
30
0
41
1
10
289.654112417483
20
1.21095265618465
30
0
41
1
10
290.580271084529
20
1.14798855021675
30
0
41
1
10
291.755739742934
20
1.1208292805313
30
0
41
1
10
291.99136457672
20
1.11803154332787
30
0
41
1
10
292.460650404275
20
1.11818634852688
30
0
41
1
10
292.694733515187
20
1.12112707191994
30
0
41
1
10
293.395171010957
20
1.13921655885068
30
0
41
1
10
293.859722711844
20
1.16358582271033
30
0
41
1
10
294.552283280809
20
1.22196479319106
30
0
41
1
10
294.782423669666
20
1.24507204082576
30
0
41
1
10
295.241135047998
20
1.29931381528988
30
0
41
1
10
295.469864354883
20
1.33050835422816
30
0
41
1
10
296.144106138049
20
1.43580943692956
30
0
41
1
10
296.580757881632
20
1.5218863129266
30
0
41
1
10
297.214051549112
20
1.67780717368043
30
0
41
1
10
297.421524781109
20
1.73426157010451
30
0
41
1
10
297.726859219201
20
1.82620630592197
30
0
41
1
10
297.827656969412
20
1.85806650974124
30
0
41
1
10
298.027202037473
20
1.924321647716
30
0
41
1
10
298.125956790442
20
1.95873015191171
30
0
41
1
10
298.609584524493
20
2.13557792286008
30
0
41
1
10
298.968120396433
20
2.29362182545145
30
0
41
1
10
299.461024751005
20
2.55690857656074
30
0
41
1
10
299.617816215871
20
2.64905659498879
30
0
41
1
10
299.841143860953
20
2.794204499822
30
0
41
1
10
299.913757389589
20
2.84386185704136
30
0
41
1
10
300.053423655105
20
2.94446213846166
30
0
41
1
10
300.120640560968
20
2.99550060751366
30
0
41
1
10
300.443834159826
20
3.25433091679079
30
0
41
1
10
300.66136421078
20
3.47297282721169
30
0
41
1
10
300.88271746886
20
3.76054361387588
30
0
41
1
10
300.924446114071
20
3.81877515370223
30
0
41
1
10
301.002780970664
20
3.93668384118087
30
0
41
1
10
301.039474233037
20
3.99652303119885
30
0
41
1
10
301.14103916851
20
4.17687890155545
30
0
41
1
10
301.197398408519
20
4.29806258928238
30
0
41
1
10
301.334374560612
20
4.6642903322207
30
0
41
1
10
301.383057688973
20
4.91199707707568
30
0
41
1
10
301.393971570829
20
5.22579458710519
30
0
41
1
10
301.393632367479
20
5.28888183033035
30
0
41
1
10
301.388030441216
20
5.41454103501863
30
0
41
1
10
301.382780191224
20
5.47718494154012
30
0
41
1
10
301.359967831221
20
5.66458127608965
30
0
41
1
10
301.335355147669
20
5.78879915584784
30
0
41
1
10
301.235130106296
20
6.15945223160099
30
0
41
1
10
301.133227867926
20
6.40392063548174
30
0
41
1
10
300.999378253651
20
6.64591390709748
30
0
0
SPLINE
5
2F8
100
AcDbEntity
8
1
62
256
6
ByLayer
370
13
48
1
60
0
100
AcDbSpline
70
4
71
3
72
8
73
4
40
0
40
0
40
0
40
0
40
1
40
1
40
1
40
1
41
1
10
284.334749469598
20
2.00369024091327
30
0
41
1
10
284.891374453951
20
1.847624789691
30
0
41
1
10
285.450950589658
20
1.72898736780081
30
0
41
1
10
286.012148054656
20
1.64459500872616
30
0
0
SPLINE
5
2F9
100
AcDbEntity
8
1
62
256
6
ByLayer
370
13
48
1
60
0
100
AcDbSpline
70
4
71
3
72
10
73
6
40
0
40
0
40
0
40
0
40
0.5
40
0.5
40
1
40
1
40
1
40
1
41
1
10
307.860832925572
20
-5.52355815963634
30
0
41
1
10
307.916658809416
20
-5.82033333575978
30
0
41
1
10
307.951485053133
20
-6.11684936656695
30
0
41
1
10
307.981474226887
20
-6.70920326450911
30
0
41
1
10
307.976631583077
20
-7.0050415948277
30
0
41
1
10
307.951874116826
20
-7.30051743230436
30
0
0
SPLINE
5
2FA
100
AcDbEntity
8
1
62
256
6
ByLayer
370
13
48
1
60
0
100
AcDbSpline
70
4
71
3
72
14
73
10
40
0
40
0
40
0
40
0
40
0.250000000000003
40
0.250000000000003
40
0.375000000000004
40
0.375000000000004
40
0.500000000000006
40
0.500000000000006
40
1
40
1
40
1
40
1
41
1
10
30.8068024782074
20
-10.1869410221184
30
0
41
1
10
31.0727754737739
20
-10.0606283820994
30
0
41
1
10
31.3455307022987
20
-9.94889606237251
30
0
41
1
10
31.7649501452036
20
-9.80353788360696
30
0
41
1
10
31.9064749366786
20
-9.75879992876335
30
0
41
1
10
32.1930293713977
20
-9.67691832167699
30
0
41
1
10
32.3375586526939
20
-9.63993789623672
30
0
41
1
10
33.0613559209231
20
-9.47590667585854
30
0
41
1
10
33.6488545669931
20
-9.4093010283961
30
0
41
1
10
34.2449980059399
20
-9.40820702891673
30
0
0
SPLINE
5
2FB
100
AcDbEntity
8
1
62
256
6
ByLayer
370
13
48
1
60
0
100
AcDbSpline
70
4
71
3
72
8
73
4
40
0
40
0
40
0
40
0
40
1
40
1
40
1
40
1
41
1
10
36
20
-26.2273758842863
30
0
41
1
10
35.4143023781746
20
-26.2273791492451
30
0
41
1
10
34.8293027062673
20
-26.2417370934744
30
0
41
1
10
34.2449980036862
20
-26.2703883727781
30
0
0
SPLINE
5
2FC
100
AcDbEntity
8
1
62
256
6
ByLayer
370
13
48
1
60
0
100
AcDbSpline
70
4
71
3
72
8
73
4
40
0
40
0
40
0
40
0
40
1
40
1
40
1
40
1
41
1
10
41
20
-9.40625308915375
30
0
41
1
10
39.3333333320699
20
-9.40632490265364
30
0
41
1
10
37.6666666648506
20
-9.4064162150564
30
0
41
1
10
36
20
-9.40653500608181
30
0
0
SPLINE
5
2FD
100
AcDbEntity
8
1
62
256
6
ByLayer
370
13
48
1
60
0
100
AcDbSpline
70
4
71
3
72
42
73
38
40
0
40
0
40
0
40
0
40
0.124999999999999
40
0.124999999999999
40
0.187499999999999
40
0.187499999999999
40
0.249999999999999
40
0.249999999999999
40
0.312499999999999
40
0.312499999999999
40
0.343749999999999
40
0.343749999999999
40
0.374999999999999
40
0.374999999999999
40
0.437499999999999
40
0.437499999999999
40
0.468749999999999
40
0.468749999999999
40
0.499999999999999
40
0.499999999999999
40
0.562499999999999
40
0.562499999999999
40
0.593749999999999
40
0.593749999999999
40
0.624999999999999
40
0.624999999999999
40
0.687499999999999
40
0.687499999999999
40
0.749999999999999
40
0.749999999999999
40
0.781249999999999
40
0.781249999999999
40
0.812499999999999
40
0.812499999999999
40
0.874999999999999
40
0.874999999999999
40
1
40
1
40
1
40
1
41
1
10
5.61020000000001
20
-5.5677643628307
30
0
41
1
10
6.05375318425713
20
-5.21788574297483
30
0
41
1
10
6.47716464412115
20
-4.84678457567318
30
0
41
1
10
7.07022989664036
20
-4.24582434265506
30
0
41
1
10
7.26107281451566
20
-4.03778491140093
30
0
41
1
10
7.62445259973562
20
-3.60453799708489
30
0
41
1
10
7.79530004420681
20
-3.38136169739081
30
0
41
1
10
8.11150351699278
20
-2.91960286926576
30
0
41
1
10
8.25688187666283
20
-2.68103383721982
30
0
41
1
10
8.45190376163576
20
-2.30925220359711
30
0
41
1
10
8.51305679477521
20
-2.18299559494326
30
0
41
1
10
8.62678724077939
20
-1.92529953621545
30
0
41
1
10
8.67950540798449
20
-1.79346214354925
30
0
41
1
10
8.82226752446601
20
-1.39191602599612
30
0
41
1
10
8.89569826549304
20
-1.12001109503873
30
0
41
1
10
8.97034032815145
20
-0.705283575962739
30
0
41
1
10
8.98929685941432
20
-0.56589473048129
30
0
41
1
10
9.0147861560289
20
-0.284713009607856
30
0
41
1
10
9.02130878551121
20
-0.142246045112017
30
0
41
1
10
9.0213278142307
20
0.283863320430669
30
0
41
1
10
8.99558806433896
20
0.56398332314896
30
0
41
1
10
8.9212257736343
20
0.978675419682389
30
0
41
1
10
8.89047234570765
20
1.11599035901787
30
0
41
1
10
8.81743528056873
20
1.38885039141334
30
0
41
1
10
8.77492820276304
20
1.5249820176322
30
0
41
1
10
8.63253170797941
20
1.92575383622159
30
0
41
1
10
8.51821985821023
20
2.18259978018133
30
0
41
1
10
8.25787216084052
20
2.67937414495637
30
0
41
1
10
8.11180335349097
20
2.91928498925691
30
0
41
1
10
7.87259291708888
20
3.26842863327823
30
0
41
1
10
7.78928387127623
20
3.38328193075196
30
0
41
1
10
7.61755457366644
20
3.60821640187825
30
0
41
1
10
7.52922332555981
20
3.71821929032359
30
0
41
1
10
7.25761216588356
20
4.0416165824829
30
0
41
1
10
7.06774731843574
20
4.24843206284231
30
0
41
1
10
6.4765134483619
20
4.84725893446446
30
0
41
1
10
6.05374598415688
20
5.21789142247673
30
0
41
1
10
5.61020000000002
20
5.56776436283073
30
0
0
SPLINE
5
2FE
100
AcDbEntity
8
1
62
256
6
ByLayer
370
13
48
1
60
0
100
AcDbSpline
70
4
71
3
72
46
73
42
40
0
40
0
40
0
40
0
40
0.0814547710119784
40
0.0814547710119784
40
0.122182156517967
40
0.122182156517967
40
0.162909542023955
40
0.162909542023955
40
0.244364313035934
40
0.244364313035934
40
0.325819084047911
40
0.325819084047911
40
0.407273855059889
40
0.407273855059889
40
0.448001240565878
40
0.448001240565878
40
0.488728626071867
40
0.488728626071867
40
0.529456011577855
40
0.529456011577855
40
0.570183397083844
40
0.570183397083844
40
0.610910782589833
40
0.610910782589833
40
0.651638168095822
40
0.651638168095822
40
0.7330929391078
40
0.7330929391078
40
0.773820324613789
40
0.773820324613789
40
0.814547710119779
40
0.814547710119779
40
0.896002481131756
40
0.896002481131756
40
0.91636617388475
40
0.91636617388475
40
0.936729866637745
40
0.936729866637745
40
0.977457252143732
40
0.977457252143732
40
1
40
1
40
1
40
1
41
1
10
272.462993928437
20
6.53881621816487
30
0
41
1
10
269.93769513812
20
7.6388966245845
30
0
41
1
10
267.414425079957
20
8.71960587758747
30
0
41
1
10
263.626885552485
20
10.2996143074994
30
0
41
1
10
262.36394631837
20
10.819471521666
30
0
41
1
10
259.836319391153
20
11.8436922846643
30
0
41
1
10
258.57310160577
20
12.3474550920197
30
0
41
1
10
254.785231137866
20
13.8304331316787
30
0
41
1
10
252.261701579092
20
14.7814735526861
30
0
41
1
10
247.210638850113
20
16.5946324624007
30
0
41
1
10
244.681530135469
20
17.4575314070301
30
0
41
1
10
239.631361430976
20
19.0779690670591
30
0
41
1
10
237.108630467668
20
19.8364660200063
30
0
41
1
10
233.322260221771
20
20.8875155856516
30
0
41
1
10
232.059436535614
20
21.2233724348991
30
0
41
1
10
229.532564283198
20
21.8638891761387
30
0
41
1
10
228.26995463029
20
22.1684880398722
30
0
41
1
10
225.740592133247
20
22.7399987273323
30
0
41
1
10
224.473904720011
20
23.0069047309486
30
0
41
1
10
221.926683242003
20
23.4954938721668
30
0
41
1
10
220.646027885111
20
23.7172106264726
30
0
41
1
10
218.067868248828
20
24.1184096891878
30
0
41
1
10
216.769784994187
20
24.2980515637352
30
0
41
1
10
214.159719039145
20
24.620640900378
30
0
41
1
10
212.849081919095
20
24.7635294614444
30
0
41
1
10
208.902283915101
20
25.1469813860637
30
0
41
1
10
206.251590265734
20
25.3430811510866
30
0
41
1
10
202.252309179563
20
25.5753747303294
30
0
41
1
10
200.915009988281
20
25.6423963333529
30
0
41
1
10
198.234875289341
20
25.758556173153
30
0
41
1
10
196.892252053579
20
25.8075460744866
30
0
41
1
10
192.854785037946
20
25.930650900571
30
0
41
1
10
190.150525894783
20
25.9807281970157
30
0
41
1
10
186.746442392412
20
26.0179862834878
30
0
41
1
10
186.064430824845
20
26.0241875740903
30
0
41
1
10
184.69780223799
20
26.0345112942023
30
0
41
1
10
184.013066416871
20
26.0386385365519
30
0
41
1
10
181.957729720528
20
26.0485961726303
30
0
41
1
10
180.585204146949
20
26.0520451721617
30
0
41
1
10
178.449921672403
20
26.054642874144
30
0
41
1
10
177.688555780611
20
26.0550174422553
30
0
41
1
10
176.9266053941
20
26.0550028269191
30
0
0
SPLINE
5
2FF
100
AcDbEntity
8
1
62
256
6
ByLayer
370
13
48
1
60
0
100
AcDbSpline
70
4
71
3
72
8
73
4
40
0
40
0
40
0
40
0
40
1
40
1
40
1
40
1
41
1
10
285.183726671162
20
8.42831937350579
30
0
41
1
10
284.569845169314
20
8.75966325398082
30
0
41
1
10
283.930529298837
20
9.06300288433698
30
0
41
1
10
283.271066336823
20
9.34415976666332
30
0
0
SPLINE
5
300
100
AcDbEntity
8
1
62
256
6
ByLayer
370
13
48
1
60
0
100
AcDbSpline
70
2053
71
3
72
95
73
91
40
0
40
0
40
0
40
0
40
0.031249999999988
40
0.031249999999988
40
0.046874999999982
40
0.046874999999982
40
0.0624999999999759
40
0.0624999999999759
40
0.0937499999999638
40
0.0937499999999638
40
0.109374999999953
40
0.109374999999953
40
0.124999999999942
40
0.140624999999931
40
0.140624999999931
40
0.15624999999992
40
0.15624999999992
40
0.187499999999905
40
0.187499999999905
40
0.21874999999989
40
0.21874999999989
40
0.249999999999875
40
0.249999999999875
40
0.265624999999867
40
0.265624999999867
40
0.281249999999859
40
0.281249999999859
40
0.312499999999845
40
0.312499999999845
40
0.328124999999839
40
0.328124999999839
40
0.343749999999832
40
0.343749999999832
40
0.374999999999824
40
0.374999999999824
40
0.390624999999824
40
0.390624999999824
40
0.406249999999824
40
0.421874999999825
40
0.421874999999825
40
0.437499999999825
40
0.437499999999825
40
0.468749999999814
40
0.468749999999814
40
0.484374999999815
40
0.484374999999815
40
0.499999999999816
40
0.499999999999816
40
0.53124999999983
40
0.53124999999983
40
0.546874999999837
40
0.546874999999837
40
0.562499999999844
40
0.57812499999985
40
0.57812499999985
40
0.593749999999857
40
0.593749999999857
40
0.624999999999871
40
0.624999999999871
40
0.640624999999877
40
0.640624999999877
40
0.656249999999884
40
0.656249999999884
40
0.687499999999897
40
0.687499999999897
40
0.71874999999991
40
0.71874999999991
40
0.734374999999918
40
0.734374999999918
40
0.749999999999926
40
0.749999999999926
40
0.781249999999941
40
0.781249999999941
40
0.796874999999947
40
0.796874999999947
40
0.812499999999954
40
0.812499999999954
40
0.843749999999966
40
0.843749999999966
40
0.874999999999979
40
0.874999999999979
40
0.906249999999992
40
0.906249999999992
40
0.921874999999993
40
0.921874999999993
40
0.937499999999995
40
0.937499999999995
40
0.968749999999997
40
0.968749999999997
40
1
40
1
40
1
40
1
41
1
10
299.798361855941
20
-4.00942497169221
30
0
41
1
10
299.941899274268
20
-4.00942497169223
30
0
41
1
10
300.082847634101
20
-4.02436069703268
30
0
41
1
10
300.290554775262
20
-4.06818043806013
30
0
41
1
10
300.359166222199
20
-4.08638507346527
30
0
41
1
10
300.495108798764
20
-4.13016651294745
30
0
41
1
10
300.562119059602
20
-4.15568801449234
30
0
41
1
10
300.756679616213
20
-4.24146188217111
30
0
41
1
10
300.879278585351
20
-4.31127915294061
30
0
41
1
10
301.052587324905
20
-4.43475270614451
30
0
41
1
10
301.108728723611
20
-4.47923930292887
30
0
41
1
10
301.215030971892
20
-4.5725644709251
30
0
41
1
10
301.315971862928
20
-4.6706222674494
30
0
41
1
10
301.406503545561
20
-4.77783721232134
30
0
41
1
10
301.491839028289
20
-4.88960758736042
30
0
41
1
10
301.53209646417
20
-4.9480912873791
30
0
41
1
10
301.643289316675
20
-5.12787961425556
30
0
41
1
10
301.704676358245
20
-5.25304204942518
30
0
41
1
10
301.803296174736
20
-5.51330910431753
30
0
41
1
10
301.840578029708
20
-5.64965288765268
30
0
41
1
10
301.888501556732
20
-5.92258890896332
30
0
41
1
10
301.899669299838
20
-6.05996401046039
30
0
41
1
10
301.897527547424
20
-6.26734101103398
30
0
41
1
10
301.893596762171
20
-6.33702107379645
30
0
41
1
10
301.879457989879
20
-6.47466600876433
30
0
41
1
10
301.86928581937
20
-6.54270910175674
30
0
41
1
10
301.829705428481
20
-6.7445690713669
30
0
41
1
10
301.791318108707
20
-6.8761358310629
30
0
41
1
10
301.715182093853
20
-7.06890120170294
30
0
41
1
10
301.686635813241
20
-7.13240167657173
30
0
41
1
10
301.624389307174
20
-7.25529850854591
30
0
41
1
10
301.590569499082
20
-7.31502886894395
30
0
41
1
10
301.481051354104
20
-7.48911547649448
30
0
41
1
10
301.397383286524
20
-7.59842156248487
30
0
41
1
10
301.254549882644
20
-7.75154679350627
30
0
41
1
10
301.204365935668
20
-7.8003588283583
30
0
41
1
10
301.100241565124
20
-7.89220416607347
30
0
41
1
10
300.991961051726
20
-7.97870267744358
30
0
41
1
10
300.875265265481
20
-8.05442876387443
30
0
41
1
10
300.754176734702
20
-8.12455799384168
30
0
41
1
10
300.691138232033
20
-8.1569568451992
30
0
41
1
10
300.496969664384
20
-8.2442454185051
30
0
41
1
10
300.363362303821
20
-8.28834123446745
30
0
41
1
10
300.156683876805
20
-8.33336680668722
30
0
41
1
10
300.086739093569
20
-8.34482995521429
30
0
41
1
10
299.944644273683
20
-8.36033443687938
30
0
41
1
10
299.87282266171
20
-8.364283179279
30
0
41
1
10
299.659704591571
20
-8.36464732954445
30
0
41
1
10
299.518968619039
20
-8.34991884100711
30
0
41
1
10
299.309881009133
20
-8.30530439623274
30
0
41
1
10
299.24057592918
20
-8.28660011988543
30
0
41
1
10
299.10600201172
20
-8.2426202739945
30
0
41
1
10
298.97457816612
20
-8.19190869163222
30
0
41
1
10
298.849242503398
20
-8.12814644960483
30
0
41
1
10
298.726937288222
20
-8.05786371875186
30
0
41
1
10
298.667336196782
20
-8.01942460823943
30
0
41
1
10
298.496762826716
20
-7.89697551656764
30
0
41
1
10
298.392568643984
20
-7.80516986392252
30
0
41
1
10
298.249867876388
20
-7.6527822258758
30
0
41
1
10
298.20445463465
20
-7.59931099151473
30
0
41
1
10
298.119794700612
20
-7.48943545154651
30
0
41
1
10
298.080342012743
20
-7.43284416941256
30
0
41
1
10
297.970301801764
20
-7.25825709838352
30
0
41
1
10
297.907846822873
20
-7.13521831905879
30
0
41
1
10
297.805713151417
20
-6.87719494053576
30
0
41
1
10
297.767225368714
20
-6.74536661569979
30
0
41
1
10
297.72757072592
20
-6.54351469368282
30
0
41
1
10
297.717387280512
20
-6.47554135954991
30
0
41
1
10
297.703215075524
20
-6.33818252478181
30
0
41
1
10
297.699235831971
20
-6.26844675358015
30
0
41
1
10
297.69700394826
20
-6.06049427097634
30
0
41
1
10
297.708187064201
20
-5.92317117622309
30
0
41
1
10
297.743905828945
20
-5.7191727987277
30
0
41
1
10
297.758989913371
20
-5.6515069122934
30
0
41
1
10
297.795765163121
20
-5.51687796426333
30
0
41
1
10
297.817559700108
20
-5.44974211111881
30
0
41
1
10
297.891680095981
20
-5.25377452529065
30
0
41
1
10
297.952963848915
20
-5.1289357440817
30
0
41
1
10
298.099652206983
20
-4.89116894507004
30
0
41
1
10
298.186266343407
20
-4.77716823181666
30
0
41
1
10
298.378046871086
20
-4.57122471416002
30
0
41
1
10
298.483395946519
20
-4.47838057014891
30
0
41
1
10
298.656037715877
20
-4.35485980314019
30
0
41
1
10
298.716431087159
20
-4.31612128550637
30
0
41
1
10
298.840076124317
20
-4.24554345534901
30
0
41
1
10
298.903300899143
20
-4.2136510702029
30
0
41
1
10
299.097101489031
20
-4.12798583200359
30
0
41
1
10
299.231758908048
20
-4.08411731422996
30
0
41
1
10
299.512591460413
20
-4.02439846093074
30
0
41
1
10
299.654824437614
20
-4.0094249716922
30
0
41
1
10
299.798361855941
20
-4.00942497169221
30
0
0
SPLINE
5
301
100
AcDbEntity
8
1
62
256
6
ByLayer
370
13
48
1
60
0
100
AcDbSpline
70
4
71
3
72
42
73
38
40
0
40
0
40
0
40
0
40
0.125
40
0.125
40
0.187499999999999
40
0.187499999999999
40
0.218749999999999
40
0.218749999999999
40
0.249999999999999
40
0.249999999999999
40
0.374999999999998
40
0.374999999999998
40
0.437499999999997
40
0.437499999999997
40
0.499999999999997
40
0.499999999999997
40
0.562499999999996
40
0.562499999999996
40
0.593749999999996
40
0.593749999999996
40
0.624999999999996
40
0.624999999999996
40
0.687499999999997
40
0.687499999999997
40
0.749999999999997
40
0.749999999999997
40
0.781249999999997
40
0.781249999999997
40
0.812499999999998
40
0.812499999999998
40
0.874999999999999
40
0.874999999999999
40
0.906249999999999
40
0.906249999999999
40
0.9375
40
0.9375
40
1
40
1
40
1
40
1
41
1
10
15.7658879568782
20
-12.5316106757647
30
0
41
1
10
15.0613112199452
20
-12.6298239081689
30
0
41
1
10
14.3747398215566
20
-12.7951803168125
30
0
41
1
10
13.3682174341942
20
-13.1309776609544
30
0
41
1
10
13.036646307423
20
-13.2577199316627
30
0
41
1
10
12.5451133098857
20
-13.4699044681913
30
0
41
1
10
12.3819751455804
20
-13.5444651762972
30
0
41
1
10
12.0610768557073
20
-13.6993467039293
30
0
41
1
10
11.9029298314732
20
-13.7798374720514
30
0
41
1
10
11.1233018746066
20
-14.1968997793341
30
0
41
1
10
10.5346835987057
20
-14.5767216024344
30
0
41
1
10
9.70638195846101
20
-15.2162010158143
30
0
41
1
10
9.43827980457934
20
-15.4423003932147
30
0
41
1
10
8.93391179981234
20
-15.907297689927
30
0
41
1
10
8.69628941385938
20
-16.147203693062
30
0
41
1
10
8.2506878649118
20
-16.6414702413817
30
0
41
1
10
8.04269858570993
20
-16.8958275728893
30
0
41
1
10
7.75444576331104
20
-17.2884937081606
30
0
41
1
10
7.66232912171115
20
-17.4212435301567
30
0
41
1
10
7.48646009265026
20
-17.690598117929
30
0
41
1
10
7.40239372849906
20
-17.827772478003
30
0
41
1
10
7.16632527343722
20
-18.2404922786548
30
0
41
1
10
7.03033017764935
20
-18.5167950788262
30
0
41
1
10
6.80300164886297
20
-19.071389701792
30
0
41
1
10
6.71151448860704
20
-19.3496563639671
30
0
41
1
10
6.61064647378699
20
-19.7684387908565
30
0
41
1
10
6.58311369011614
20
-19.9083319385791
30
0
41
1
10
6.54128875982501
20
-20.1834997614463
30
0
41
1
10
6.5268223506225
20
-20.3194121983258
30
0
41
1
10
6.50304288701896
20
-20.7221248859509
30
0
41
1
10
6.51352066337586
20
-20.9838869581418
30
0
41
1
10
6.56900682792084
20
-21.3664386114549
30
0
41
1
10
6.59415148994611
20
-21.4922708364631
30
0
41
1
10
6.6581393201249
20
-21.7405138459289
30
0
41
1
10
6.69665828439797
20
-21.8616040426259
30
0
41
1
10
6.83094465970826
20
-22.2149142338151
30
0
41
1
10
6.94546027164239
20
-22.4377688180782
30
0
41
1
10
7.08510402601034
20
-22.6484169523486
30
0
0
SPLINE
5
302
100
AcDbEntity
8
1
62
256
6
ByLayer
370
13
48
1
60
0
100
AcDbSpline
70
4
71
3
72
22
73
18
40
0
40
0
40
0
40
0
40
0.0401499759804804
40
0.0401499759804804
40
0.0966117420992756
40
0.0966117420992756
40
0.322458806574457
40
0.322458806574457
40
0.548305871049638
40
0.548305871049638
40
0.604767637168434
40
0.604767637168434
40
0.661229403287229
40
0.661229403287229
40
0.774152935524819
40
0.774152935524819
40
1
40
1
40
1
40
1
41
1
10
17.2209144318586
20
-12.2979354405651
30
0
41
1
10
17.018158103714
20
-12.4508702372294
30
0
41
1
10
16.8173193039928
20
-12.6061236670984
30
0
41
1
10
16.3403563052483
20
-12.9840546912312
30
0
41
1
10
16.0670323716422
20
-13.2082773235923
30
0
41
1
10
14.727337326615
20
-14.3459907426129
30
0
41
1
10
13.7420348762796
20
-15.3099170327764
30
0
41
1
10
11.9343772356203
20
-17.3397350925599
30
0
41
1
10
11.1117725528627
20
-18.4052421651795
30
0
41
1
10
10.1895882856385
20
-19.802450844741
30
0
41
1
10
10.0103314322146
20
-20.085474887499
30
0
41
1
10
9.6636167218137
20
-20.6570267766605
30
0
41
1
10
9.49668442912676
20
-20.9447402395548
30
0
41
1
10
9.01462285057761
20
-21.8137355779507
30
0
41
1
10
8.71813291729333
20
-22.4007577488472
30
0
41
1
10
7.89928838216933
20
-24.183467354257
30
0
41
1
10
7.44689419843287
20
-25.4006056787086
30
0
41
1
10
7.08502349178382
20
-26.644902081318
30
0
0
SPLINE
5
303
100
AcDbEntity
8
1
62
256
6
ByLayer
370
13
48
1
60
0
100
AcDbSpline
70
4
71
3
72
8
73
4
40
0
40
0
40
0
40
0
40
1
40
1
40
1
40
1
41
1
10
285.544877894958
20
12.1225107884341
30
0
41
1
10
285.498895902347
20
12.1168043458818
30
0
41
1
10
285.452107668485
20
12.1142579579435
30
0
41
1
10
285.404595159102
20
12.1142527459472
30
0
0
SPLINE
5
304
100
AcDbEntity
8
1
62
256
6
ByLayer
370
13
48
1
60
0
100
AcDbSpline
70
4
71
3
72
14
73
10
40
0
40
0
40
0
40
0
40
0.379974135995264
40
0.379974135995264
40
0.569961203992896
40
0.569961203992896
40
0.759948271990529
40
0.759948271990529
40
1
40
1
40
1
40
1
41
1
10
7.08510402601036
20
-22.6484169523486
30
0
41
1
10
7.44708515330206
20
-21.4634256194189
30
0
41
1
10
7.90005361403259
20
-20.2990705211953
30
0
41
1
10
8.72151614959768
20
-18.5838389031984
30
0
41
1
10
9.01942209090515
20
-18.0169224293318
30
0
41
1
10
9.66481001034575
20
-16.8958854195311
30
0
41
1
10
10.0099977421725
20
-16.3462153739923
30
0
41
1
10
10.8407980861395
20
-15.1269349242944
30
0
41
1
10
11.3389241198161
20
-14.463426413639
30
0
41
1
10
11.8708496417782
20
-13.8165867103519
30
0
0
SPLINE
5
305
100
AcDbEntity
8
1
62
256
6
ByLayer
370
13
48
1
60
0
100
AcDbSpline
70
4
71
3
72
12
73
8
40
0
40
0
40
0
40
0
40
0.311800001491722
40
0.311800001491722
40
0.655900000745861
40
0.655900000745861
40
1
40
1
40
1
40
1
41
1
10
36.4500040647353
20
-9.40059014886148
30
0
41
1
10
36.4500150420105
20
-9.87987876042172
30
0
41
1
10
36.4500240341831
20
-10.4053541897877
30
0
41
1
10
36.450037722316
20
-11.5483508817183
30
0
41
1
10
36.4500418724329
20
-12.1694099116707
30
0
41
1
10
36.450043564191
20
-13.3725791648687
30
0
41
1
10
36.4500411053267
20
-13.9543298188273
30
0
41
1
10
36.4500355036144
20
-14.4779431485673
30
0
0
SPLINE
5
306
100
AcDbEntity
8
1
62
256
6
ByLayer
370
13
48
1
60
0
100
AcDbSpline
70
4
71
3
72
8
73
4
40
0
40
0
40
0
40
0
40
1
40
1
40
1
40
1
41
1
10
284.539169144041
20
-0.0406365572235927
30
0
41
1
10
285.158690814789
20
-0.212657490513152
30
0
41
1
10
285.785177621532
20
-0.319572800567755
30
0
41
1
10
286.418607486696
20
-0.359544436680551
30
0
0
SPLINE
5
307
100
AcDbEntity
8
1
62
256
6
ByLayer
370
13
48
1
60
0
100
AcDbSpline
70
4
71
3
72
14
73
10
40
0
40
0
40
0
40
0
40
0.25
40
0.25
40
0.5
40
0.5
40
0.75
40
0.75
40
1
40
1
40
1
40
1
41
1
10
293.863019877619
20
7.67342698466101
30
0
41
1
10
293.838189913335
20
7.67993571246515
30
0
41
1
10
293.811463401323
20
7.68725162942465
30
0
41
1
10
293.755744850538
20
7.70115121983534
30
0
41
1
10
293.726563757483
20
7.70778552512851
30
0
41
1
10
293.66508514717
20
7.71859366605398
30
0
41
1
10
293.633782163179
20
7.7225528478449
30
0
41
1
10
293.570407159337
20
7.72667918388589
30
0
41
1
10
293.537888888429
20
7.72681999896409
30
0
41
1
10
293.506226946961
20
7.72516066692407
30
0
0
SPLINE
5
308
100
AcDbEntity
8
1
62
256
6
ByLayer
370
13
48
1
60
0
100
AcDbSpline
70
4
71
3
72
28
73
24
40
0
40
0
40
0
40
0
40
0.0783760396347583
40
0.0783760396347583
40
0.156752079269517
40
0.156752079269517
40
0.313504158539033
40
0.313504158539033
40
0.391880198173791
40
0.391880198173791
40
0.47025623780855
40
0.47025623780855
40
0.627008317078063
40
0.627008317078063
40
0.783760396347577
40
0.783760396347577
40
0.862136435982334
40
0.862136435982334
40
0.94051247561709
40
0.94051247561709
40
0.979700495434469
40
0.979700495434469
40
1
40
1
40
1
40
1
41
1
10
278.28271274376
20
25.6341730105839
30
0
41
1
10
277.102450729735
20
25.7131187088334
30
0
41
1
10
275.922470903766
20
25.7761114358777
30
0
41
1
10
273.562333236108
20
25.8699069485119
30
0
41
1
10
272.381787942897
20
25.900711417568
30
0
41
1
10
268.842139842459
20
25.944150614978
30
0
41
1
10
266.485150527985
20
25.9077095981513
30
0
41
1
10
262.949206463667
20
25.7564430184866
30
0
41
1
10
261.770485507509
20
25.6899300244042
30
0
41
1
10
259.412166089459
20
25.5249820713219
30
0
41
1
10
258.232220506856
20
25.4265114764098
30
0
41
1
10
254.692285626936
20
25.083462385967
30
0
41
1
10
252.335259692867
20
24.7914394108724
30
0
41
1
10
247.620661099042
20
24.0841174656566
30
0
41
1
10
245.26303733419
20
23.6686868158512
30
0
41
1
10
241.721370160204
20
22.9560999367616
30
0
41
1
10
240.541365885669
20
22.7032486940436
30
0
41
1
10
238.1829381635
20
22.1811018645942
30
0
41
1
10
237.004850347293
20
21.9130108809459
30
0
41
1
10
235.231228052042
20
21.48630675587
30
0
41
1
10
234.638852406774
20
21.3399547396829
30
0
41
1
10
233.738075050017
20
21.1143238111862
30
0
41
1
10
233.430431168332
20
21.0367189024894
30
0
41
1
10
233.122531782725
20
20.9585692091861
30
0
0
SPLINE
5
309
100
AcDbEntity
8
1
62
256
6
ByLayer
370
13
48
1
60
0
100
AcDbSpline
70
4
71
3
72
10
73
6
40
0
40
0
40
0
40
0
40
0.5
40
0.5
40
1
40
1
40
1
40
1
41
1
10
293.929458131622
20
6.94868667155765
30
0
41
1
10
293.893998060842
20
6.90573713772932
30
0
41
1
10
293.857776562227
20
6.86481367969549
30
0
41
1
10
293.786685914891
20
6.78926053647223
30
0
41
1
10
293.75158983479
20
6.75434308496682
30
0
41
1
10
293.717701577098
20
6.72261370572758
30
0
0
SPLINE
5
30A
100
AcDbEntity
8
1
62
256
6
ByLayer
370
13
48
1
60
0
100
AcDbSpline
70
4
71
3
72
8
73
4
40
0
40
0
40
0
40
0
40
1
40
1
40
1
40
1
41
1
10
36.45
20
-25.5700864991935
30
0
41
1
10
36.2999999999519
20
-25.5700766912281
30
0
41
1
10
36.149999999949
20
-25.5700663618322
30
0
41
1
10
36
20
-25.5700554969165
30
0
0
SPLINE
5
30B
100
AcDbEntity
8
1
62
256
6
ByLayer
370
13
48
1
60
0
100
AcDbSpline
70
4
71
3
72
24
73
20
40
0
40
0
40
0
40
0
40
0.125
40
0.125
40
0.25
40
0.25
40
0.375
40
0.375
40
0.5
40
0.5
40
0.625
40
0.625
40
0.6875
40
0.6875
40
0.75
40
0.75
40
0.875
40
0.875
40
1
40
1
40
1
40
1
41
1
10
293.768544146329
20
6.46668611836122
30
0
41
1
10
293.647874541019
20
6.37103249482644
30
0
41
1
10
293.520289913449
20
6.28421096142631
30
0
41
1
10
293.252114252457
20
6.12995925061648
30
0
41
1
10
293.113975934331
20
6.06386837804922
30
0
41
1
10
292.829133499697
20
5.95293477042526
30
0
41
1
10
292.682046219437
20
5.90800905799486
30
0
41
1
10
292.38004818898
20
5.84057138189994
30
0
41
1
10
292.228125409137
20
5.81866938756997
30
0
41
1
10
291.922389134892
20
5.79759114437727
30
0
41
1
10
291.76857568002
20
5.79841608859866
30
0
41
1
10
291.53648474418
20
5.81719550314202
30
0
41
1
10
291.458773169932
20
5.82643751126503
30
0
41
1
10
291.305544477614
20
5.85051177359912
30
0
41
1
10
291.229702311492
20
5.86535831155396
30
0
41
1
10
291.004479409822
20
5.91817548368704
30
0
41
1
10
290.857385677806
20
5.96437195381654
30
0
41
1
10
290.569629179864
20
6.07917365096594
30
0
41
1
10
290.428669404932
20
6.14819395089989
30
0
41
1
10
290.295745705763
20
6.22647766270919
30
0
0
SPLINE
5
30C
100
AcDbEntity
8
1
62
256
6
ByLayer
370
13
48
1
60
0
100
AcDbSpline
70
4
71
3
72
8
73
4
40
0
40
0
40
0
40
0
40
1
40
1
40
1
40
1
41
1
10
298.085172465964
20
8.19551984158753
30
0
41
1
10
298.141760801968
20
8.19848551061071
30
0
41
1
10
298.19828360401
20
8.19165600566538
30
0
41
1
10
298.252115878551
20
8.17645307660712
30
0
0
SPLINE
5
30D
100
AcDbEntity
8
1
62
256
6
ByLayer
370
13
48
1
60
0
100
AcDbSpline
70
4
71
3
72
20
73
16
40
0
40
0
40
0
40
0
40
0.125000000000004
40
0.125000000000004
40
0.250000000000007
40
0.250000000000007
40
0.500000000000015
40
0.500000000000015
40
0.625000000000011
40
0.625000000000011
40
0.750000000000007
40
0.750000000000007
40
0.875000000000004
40
0.875000000000004
40
1
40
1
40
1
40
1
41
1
10
283.483168893248
20
10.0564441172348
30
0
41
1
10
283.505506704771
20
10.1233215318828
30
0
41
1
10
283.526875291302
20
10.1939066614696
30
0
41
1
10
283.568485061484
20
10.3423687627981
30
0
41
1
10
283.588839550208
20
10.4207635418422
30
0
41
1
10
283.648077085309
20
10.6636071417402
30
0
41
1
10
283.684545479585
20
10.8329006649657
30
0
41
1
10
283.737838634736
20
11.0973326826547
30
0
41
1
10
283.755323994888
20
11.187094558097
30
0
41
1
10
283.789556732381
20
11.3650297638015
30
0
41
1
10
283.806415031754
20
11.453828011185
30
0
41
1
10
283.840765460239
20
11.6308562749873
30
0
41
1
10
283.858283638736
20
11.7193548153361
30
0
41
1
10
283.895202854166
20
11.8906217304027
30
0
41
1
10
283.91453247787
20
11.9740093268225
30
0
41
1
10
283.937681264408
20
12.0543902500304
30
0
0
SPLINE
5
30E
100
AcDbEntity
8
1
62
256
6
ByLayer
370
13
48
1
60
0
100
AcDbSpline
70
4
71
3
72
8
73
4
40
0
40
0
40
0
40
0
40
1
40
1
40
1
40
1
41
1
10
308.696096874894
20
0.574732050066217
30
0
41
1
10
308.849164005817
20
0.596833602875961
30
0
41
1
10
309.000797380085
20
0.606017018134764
30
0
41
1
10
309.152216466322
20
0.604033107471054
30
0
0
SPLINE
5
30F
100
AcDbEntity
8
1
62
256
6
ByLayer
370
13
48
1
60
0
100
AcDbSpline
70
4
71
1
72
4
73
2
40
0
40
0
40
1
40
1
41
1
10
36.01
20
-25.5795157966478
30
0
41
1
10
36.01
20
-14.4820090422755
30
0
0
SPLINE
5
310
100
AcDbEntity
8
1
62
256
6
ByLayer
370
13
48
1
60
0
100
AcDbSpline
70
4
71
3
72
12
73
8
40
0
40
0
40
0
40
0
40
0.0743918340497082
40
0.0743918340497082
40
0.508278258189747
40
0.508278258189747
40
1
40
1
40
1
40
1
41
1
10
36.45
20
-25.5700865020393
30
0
41
1
10
36.45
20
-25.2950315394498
30
0
41
1
10
36.45
20
-25.0199765768642
30
0
41
1
10
36.45
20
-23.1406781421177
30
0
41
1
10
36.45
20
-21.5364346700838
30
0
41
1
10
36.45
20
-18.1141085147794
30
0
41
1
10
36.45
20
-16.2960258315461
30
0
41
1
10
36.45
20
-14.4779431484809
30
0
0
SPLINE
5
311
100
AcDbEntity
8
1
62
256
6
ByLayer
370
13
48
1
60
0
100
AcDbSpline
70
4
71
3
72
8
73
4
40
0
40
0
40
0
40
0
40
1
40
1
40
1
40
1
41
1
10
280.679504039582
20
2.64662775065815
30
0
41
1
10
278.019841083759
20
3.86616429764447
30
0
41
1
10
275.376568485496
20
5.13534605932611
30
0
41
1
10
272.747254597688
20
6.4468077514357
30
0
0
SPLINE
5
312
100
AcDbEntity
8
1
62
256
6
ByLayer
370
13
48
1
60
0
100
AcDbSpline
70
4
71
3
72
44
73
40
40
0
40
0
40
0
40
0
40
0.0625
40
0.0625
40
0.125
40
0.125
40
0.1875
40
0.1875
40
0.25
40
0.25
40
0.28125
40
0.28125
40
0.3125
40
0.3125
40
0.374999999999999
40
0.374999999999999
40
0.406249999999999
40
0.406249999999999
40
0.437499999999999
40
0.437499999999999
40
0.499999999999999
40
0.499999999999999
40
0.531249999999999
40
0.531249999999999
40
0.562499999999999
40
0.562499999999999
40
0.624999999999999
40
0.624999999999999
40
0.687499999999999
40
0.687499999999999
40
0.749999999999999
40
0.749999999999999
40
0.875
40
0.875
40
0.90625
40
0.90625
40
0.9375
40
0.9375
40
1
40
1
40
1
40
1
41
1
10
7.08502349178382
20
-26.644902081318
30
0
41
1
10
6.94601516139665
20
-26.8306488781134
30
0
41
1
10
6.83239682979357
20
-27.0123037400242
30
0
41
1
10
6.65459661676937
20
-27.3664263154694
30
0
41
1
10
6.59040857141443
20
-27.538899689418
30
0
41
1
10
6.51414359761722
20
-27.8734939933448
30
0
41
1
10
6.50314388417897
20
-28.0313593747726
30
0
41
1
10
6.53357638097921
20
-28.3275777935496
30
0
41
1
10
6.57454410231114
20
-28.4662148894249
30
0
41
1
10
6.67375538539473
20
-28.6602306471374
30
0
41
1
10
6.71333274333493
20
-28.7225676877258
30
0
41
1
10
6.80378388918288
20
-28.8407194300681
30
0
41
1
10
6.85472981107671
20
-28.896818713435
30
0
41
1
10
7.02413657068374
20
-29.0566339891987
30
0
41
1
10
7.15912087699236
20
-29.1518888039245
30
0
41
1
10
7.39272783627908
20
-29.279322070558
30
0
41
1
10
7.47612104241048
20
-29.3193256995246
30
0
41
1
10
7.65162241885709
20
-29.3936086077181
30
0
41
1
10
7.74368494202874
20
-29.4279105029599
30
0
41
1
10
8.03222344184572
20
-29.5229060383967
30
0
41
1
10
8.24100178714423
20
-29.5757180037484
30
0
41
1
10
8.57747876670764
20
-29.6409608597276
30
0
41
1
10
8.69353553575775
20
-29.6603715521404
30
0
41
1
10
8.93336587208736
20
-29.6947391098304
30
0
41
1
10
9.05736397818072
20
-29.7097064603541
30
0
41
1
10
9.43688890379809
20
-29.7478554043504
30
0
41
1
10
9.70095906693936
20
-29.7645260538318
30
0
41
1
10
10.2502862090593
20
-29.7826143517374
30
0
41
1
10
10.5354930275665
20
-29.7840493814504
30
0
41
1
10
11.1269735130445
20
-29.773217975484
30
0
41
1
10
11.434595875058
20
-29.7608386843809
30
0
41
1
10
12.3718475827864
20
-29.7059775383868
30
0
41
1
10
13.0199247248972
20
-29.6459844618084
30
0
41
1
10
13.8601498643493
20
-29.5469707865143
30
0
41
1
10
14.0297330739369
20
-29.5259347324704
30
0
41
1
10
14.3720719614289
20
-29.4814374203205
30
0
41
1
10
14.5450895930225
20
-29.4579354947173
30
0
41
1
10
15.0651556139031
20
-29.3843441887863
30
0
41
1
10
15.4142493719387
20
-29.3310664294011
30
0
41
1
10
15.7658885516545
20
-29.2736190398522
30
0
0
SPLINE
5
313
100
AcDbEntity
8
1
62
256
6
ByLayer
370
13
48
1
60
0
100
AcDbSpline
70
4
71
3
72
14
73
10
40
0
40
0
40
0
40
0
40
0.25
40
0.25
40
0.5
40
0.5
40
0.75
40
0.75
40
1
40
1
40
1
40
1
41
1
10
283.937681264404
20
12.0543902500158
30
0
41
1
10
283.9451352515
20
12.0802731775564
30
0
41
1
10
283.962367020369
20
12.1022568557975
30
0
41
1
10
284.00384860828
20
12.1365624804392
30
0
41
1
10
284.028333763111
20
12.1495049854198
30
0
41
1
10
284.079424169724
20
12.1692466917379
30
0
41
1
10
284.106645130122
20
12.176220309799
30
0
41
1
10
284.161627259845
20
12.1854916555583
30
0
41
1
10
284.189619326897
20
12.1878606575478
30
0
41
1
10
284.218040359245
20
12.1882983462166
30
0
0
SPLINE
5
314
100
AcDbEntity
8
1
62
256
6
ByLayer
370
13
48
1
60
0
100
AcDbSpline
70
4
71
3
72
18
73
14
40
0
40
0
40
0
40
0
40
0.124999999999999
40
0.124999999999999
40
0.156249999999999
40
0.156249999999999
40
0.187499999999998
40
0.187499999999998
40
0.249999999999998
40
0.249999999999998
40
0.499999999999999
40
0.499999999999999
40
1
40
1
40
1
40
1
41
1
10
30.8068024782054
20
-10.1869410221107
30
0
41
1
10
30.175205867674
20
-10.2594317847158
30
0
41
1
10
29.5463449826541
20
-10.3450181686306
30
0
41
1
10
28.7636666496783
20
-10.4682659207878
30
0
41
1
10
28.6073009628363
20
-10.4937291458617
30
0
41
1
10
28.294909371211
20
-10.5462820958726
30
0
41
1
10
28.1389286460265
20
-10.5735880906483
30
0
41
1
10
27.6711854466678
20
-10.65645855244
30
0
41
1
10
27.3592614224212
20
-10.7112496967808
30
0
41
1
10
25.7991682926771
20
-10.9829411780433
30
0
41
1
10
24.5497289987074
20
-11.1930287899816
30
0
41
1
10
20.7952442366213
20
-11.8023359676128
30
0
41
1
10
18.2843852894003
20
-12.1805556260145
30
0
41
1
10
15.7658879568782
20
-12.5316106757648
30
0
0
SPLINE
5
315
100
AcDbEntity
8
1
62
256
6
ByLayer
370
13
48
1
60
0
100
AcDbSpline
70
4
71
3
72
16
73
12
40
0
40
0
40
0
40
0
40
0.250000000000021
40
0.250000000000021
40
0.375000000000024
40
0.375000000000024
40
0.500000000000027
40
0.500000000000027
40
0.750000000000014
40
0.750000000000014
40
1
40
1
40
1
40
1
41
1
10
308.685107434355
20
0.733830206179817
30
0
41
1
10
308.686362212015
20
0.781978968475016
30
0
41
1
10
308.688471440794
20
0.827299815184148
30
0
41
1
10
308.692711319379
20
0.886345112715929
30
0
41
1
10
308.694299421757
20
0.904585010709695
30
0
41
1
10
308.697829229958
20
0.938148206679983
30
0
41
1
10
308.699788239665
20
0.953552372154689
30
0
41
1
10
308.706021925464
20
0.993782232443209
30
0
41
1
10
308.710743807941
20
1.01340407232573
30
0
41
1
10
308.720965667817
20
1.0363150372919
30
0
41
1
10
308.726313146739
20
1.03950415513546
30
0
41
1
10
308.731904704799
20
1.03416376199945
30
0
0
SPLINE
5
316
100
AcDbEntity
8
1
62
256
6
ByLayer
370
13
48
1
60
0
100
AcDbSpline
70
4
71
3
72
8
73
4
40
0
40
0
40
0
40
0
40
1
40
1
40
1
40
1
41
1
10
299.116070466142
20
6.54721392824769
30
0
41
1
10
299.780204389909
20
6.58201971233885
30
0
41
1
10
300.409600813209
20
6.61500498117266
30
0
41
1
10
300.999378253651
20
6.64591390709748
30
0
0
SPLINE
5
317
100
AcDbEntity
8
1
62
256
6
ByLayer
370
13
48
1
60
0
100
AcDbSpline
70
4
71
3
72
46
73
42
40
0
40
0
40
0
40
0
40
0.102731881461669
40
0.181009201230484
40
0.264922157824864
40
0.354560526214536
40
0.449955549298003
40
0.551075429154355
40
0.560100685415806
40
0.569407726423039
40
0.578997237703004
40
0.588869886109087
40
0.599026317838564
40
0.609467156232137
40
0.620192999370352
40
0.631204417479288
40
0.642501950156083
40
0.654086103423448
40
0.665957346621302
40
0.678116109142935
40
0.690562777022552
40
0.703297689380862
40
0.716321134735137
40
0.729633347180327
40
0.743234502447856
40
0.757124713849114
40
0.771304028110947
40
0.785772421110988
40
0.800529793521161
40
0.815575966368387
40
0.830910676522172
40
0.846533572119544
40
0.862444207938656
40
0.878642040733221
40
0.895126424540951
40
0.911896605980105
40
0.92895171954939
40
0.946290782947487
40
0.963912692429664
40
0.981816218220123
40
1
40
1
40
1
40
1
41
1
10
32.4284561359355
20
-9.49761069552551
30
0
41
1
10
32.5049616683895
20
-9.66750916742515
30
0
41
1
10
32.6502659814526
20
-9.97200265618218
30
0
41
1
10
32.8883004278035
20
-10.4280780375986
30
0
41
1
10
33.1366314528901
20
-10.8680406958079
30
0
41
1
10
33.4261891746932
20
-11.3413245992233
30
0
41
1
10
33.7594973384887
20
-11.8445219437874
30
0
41
1
10
34.0157815113274
20
-12.2024764736974
30
0
41
1
10
34.1688405397689
20
-12.4081465934983
30
0
41
1
10
34.2047412426464
20
-12.4561640371653
30
0
41
1
10
34.2418825561784
20
-12.5055511190961
30
0
41
1
10
34.2802830535923
20
-12.5562943575303
30
0
41
1
10
34.3199651377614
20
-12.6083745554653
30
0
41
1
10
34.3609494819177
20
-12.6617724315101
30
0
41
1
10
34.4032564503009
20
-12.7164669648706
30
0
41
1
10
34.4469055598094
20
-12.7724357792321
30
0
41
1
10
34.4919154838152
20
-12.829654956631
30
0
41
1
10
34.5383038990864
20
-12.888099010728
30
0
41
1
10
34.586087371017
20
-12.9477408160838
30
0
41
1
10
34.6352812227665
20
-13.0085515504299
30
0
41
1
10
34.6858994035399
20
-13.0705006343286
30
0
41
1
10
34.737954351866
20
-13.1335556728516
30
0
41
1
10
34.7914568551547
20
-13.1976823982884
30
0
41
1
10
34.846415905335
20
-13.2628446144688
30
0
41
1
10
34.9028385508186
20
-13.3290041428585
30
0
41
1
10
34.9607297449481
20
-13.3961207707189
30
0
41
1
10
35.0200921911453
20
-13.4641522015887
30
0
41
1
10
35.0809261850035
20
-13.5330540083938
30
0
41
1
10
35.1432294535897
20
-13.602779589379
30
0
41
1
10
35.2069969922913
20
-13.6732801275216
30
0
41
1
10
35.2722208994561
20
-13.7445045523274
30
0
41
1
10
35.338890209559
20
-13.816399509704
30
0
41
1
10
35.4069907239658
20
-13.8889093195535
30
0
41
1
10
35.4765048449176
20
-13.961976000706
30
0
41
1
10
35.5474113934344
20
-14.0355390594724
30
0
41
1
10
35.6196854875518
20
-14.1095362072349
30
0
41
1
10
35.6932981908866
20
-14.1839005451168
30
0
41
1
10
35.7682170445379
20
-14.258571297768
30
0
41
1
10
35.8444032269555
20
-14.3334527406244
30
0
41
1
10
35.9218216183258
20
-14.4085712533281
30
0
41
1
10
35.9738059683473
20
-14.4581237498014
30
0
41
1
10
36
20
-14.4830924117268
30
0
0
SPLINE
5
318
100
AcDbEntity
8
1
62
256
6
ByLayer
370
13
48
1
60
0
100
AcDbSpline
70
4
71
3
72
12
73
8
40
0
40
0
40
0
40
0
40
0.5
40
0.5
40
0.75
40
0.75
40
1
40
1
40
1
40
1
41
1
10
294.018925842043
20
7.54661323898114
30
0
41
1
10
294.024244869615
20
7.57081096985442
30
0
41
1
10
294.014461052574
20
7.5952848253315
30
0
41
1
10
293.974680658669
20
7.62844293312361
30
0
41
1
10
293.957238452054
20
7.63890137169437
30
0
41
1
10
293.915436284573
20
7.65767612566876
30
0
41
1
10
293.890447553605
20
7.66623731353468
30
0
41
1
10
293.863019877619
20
7.67342698466135
30
0
0
SPLINE
5
319
100
AcDbEntity
8
1
62
256
6
ByLayer
370
13
48
1
60
0
100
AcDbSpline
70
4
71
3
72
8
73
4
40
0
40
0
40
0
40
0
40
1
40
1
40
1
40
1
41
1
10
283.271066336831
20
9.34415976667228
30
0
41
1
10
283.345254448369
20
9.57867962603251
30
0
41
1
10
283.414706588925
20
9.81408721656732
30
0
41
1
10
283.481199920069
20
10.0500494193166
30
0
0
SPLINE
5
31A
100
AcDbEntity
8
1
62
256
6
ByLayer
370
13
48
1
60
0
100
AcDbSpline
70
4
71
3
72
22
73
18
40
0
40
0
40
0
40
0
40
0.25
40
0.25
40
0.3125
40
0.3125
40
0.375
40
0.375
40
0.5
40
0.5
40
0.625
40
0.625
40
0.6875
40
0.6875
40
0.749999999999999
40
0.749999999999999
40
1
40
1
40
1
40
1
41
1
10
7.08510402601034
20
-22.6484169523486
30
0
41
1
10
6.8262826518168
20
-23.0305050449391
30
0
41
1
10
6.62808751697986
20
-23.4109821456486
30
0
41
1
10
6.45792231191921
20
-23.8821389867174
30
0
41
1
10
6.4278234133499
20
-23.9761519994323
30
0
41
1
10
6.37579889362621
20
-24.1636957830265
30
0
41
1
10
6.35406195409026
20
-24.2566137309531
30
0
41
1
10
6.3020196300494
20
-24.5309527630833
30
0
41
1
10
6.28460727014141
20
-24.7087520807724
30
0
41
1
10
6.28466321516166
20
-25.0541486790047
30
0
41
1
10
6.30203825033882
20
-25.2217563093381
30
0
41
1
10
6.35383059177346
20
-25.4655317307503
30
0
41
1
10
6.37551108299161
20
-25.5457932492659
30
0
41
1
10
6.42730028982808
20
-25.7022431843475
30
0
41
1
10
6.45737190978394
20
-25.7782839847993
30
0
41
1
10
6.62750394929665
20
-26.1481607447821
30
0
41
1
10
6.82666938899321
20
-26.4111486672456
30
0
41
1
10
7.0850234917838
20
-26.644902081318
30
0
0
SPLINE
5
31B
100
AcDbEntity
8
1
62
256
6
ByLayer
370
13
48
1
60
0
100
AcDbSpline
70
4
71
3
72
10
73
6
40
0
40
0
40
0
40
0
40
0.5
40
0.5
40
1
40
1
40
1
40
1
41
1
10
282.084939732361
20
0.892100197135051
30
0
41
1
10
282.47213495761
20
0.679248109090821
30
0
41
1
10
282.870103773949
20
0.494685814681816
30
0
41
1
10
283.68789581491
20
0.183008366291944
30
0
41
1
10
284.107705987762
20
0.0558588057085672
30
0
41
1
10
284.539169144041
20
-0.0406365572234506
30
0
0
SPLINE
5
31C
100
AcDbEntity
8
1
62
256
6
ByLayer
370
13
48
1
60
0
100
AcDbSpline
70
4
71
3
72
10
73
6
40
0
40
0
40
0
40
0
40
0.5
40
0.5
40
1
40
1
40
1
40
1
41
1
10
303.393438565164
20
8.44589838119012
30
0
41
1
10
303.417895995676
20
8.45617449383761
30
0
41
1
10
303.443960152756
20
8.46456733437762
30
0
41
1
10
303.49729554251
20
8.47671902302179
30
0
41
1
10
303.524744011731
20
8.48058004106835
30
0
41
1
10
303.552985779264
20
8.48207575709642
30
0
0
SPLINE
5
31D
100
AcDbEntity
8
1
62
256
6
ByLayer
370
13
48
1
60
0
100
AcDbSpline
70
4
71
3
72
8
73
4
40
0
40
0
40
0
40
0
40
1
40
1
40
1
40
1
41
1
10
36
20
-9.40653500608184
30
0
41
1
10
35.4142969437905
20
-9.40657675184187
30
0
41
1
10
34.8292972932591
20
-9.40713476497095
30
0
41
1
10
34.2449980059399
20
-9.40820702891673
30
0
0
SPLINE
5
31E
100
AcDbEntity
8
1
62
256
6
ByLayer
370
13
48
1
60
0
100
AcDbSpline
70
4
71
3
72
16
73
12
40
0
40
0
40
0
40
0
40
0.25
40
0.25
40
0.5
40
0.5
40
0.750000000000001
40
0.750000000000001
40
0.875
40
0.875
40
1
40
1
40
1
40
1
41
1
10
308.860446432445
20
7.22905956492335
30
0
41
1
10
308.728850131019
20
7.25830530824641
30
0
41
1
10
308.599833906804
20
7.29532098084172
30
0
41
1
10
308.345333132967
20
7.38586080365846
30
0
41
1
10
308.219501508036
20
7.43956039597066
30
0
41
1
10
307.972298566452
20
7.56531448593313
30
0
41
1
10
307.853007010614
20
7.63626560733806
30
0
41
1
10
307.680582608588
20
7.75602477120197
30
0
41
1
10
307.624198118818
20
7.79817850582606
30
0
41
1
10
307.513680777882
20
7.88736980740791
30
0
41
1
10
307.459655695513
20
7.93435667126892
30
0
41
1
10
307.407741221223
20
7.98313432506535
30
0
0
SPLINE
5
31F
100
AcDbEntity
8
1
62
256
6
ByLayer
370
13
48
1
60
0
100
AcDbSpline
70
4
71
3
72
18
73
14
40
0
40
0
40
0
40
0
40
0.139747854316149
40
0.139747854316149
40
0.311798283452919
40
0.311798283452919
40
0.483848712589689
40
0.483848712589689
40
0.655899141726459
40
0.655899141726459
40
0.82794957086323
40
0.82794957086323
40
1
40
1
40
1
40
1
41
1
10
36
20
-9.40253914851772
30
0
41
1
10
36
20
-9.61792132584105
30
0
41
1
10
36
20
-9.84413641262933
30
0
41
1
10
36
20
-10.3578708486622
30
0
41
1
10
36
20
-10.6495891832853
30
0
41
1
10
36
20
-11.2496803180481
30
0
41
1
10
36
20
-11.55785593899
30
0
41
1
10
36
20
-12.1659692909309
30
0
41
1
10
36
20
-12.4690626627424
30
0
41
1
10
36
20
-13.0732710203284
30
0
41
1
10
36
20
-13.3701256122319
30
0
41
1
10
36
20
-13.9392350683723
30
0
41
1
10
36
20
-14.2138008460673
30
0
41
1
10
36
20
-14.4779431484809
30
0
0
SPLINE
5
320
100
AcDbEntity
8
1
62
256
6
ByLayer
370
13
48
1
60
0
100
AcDbSpline
70
4
71
3
72
8
73
4
40
0
40
0
40
0
40
0
40
1
40
1
40
1
40
1
41
1
10
1.42E-14
20
4.97594212184995
30
0
41
1
10
0.031571657597965
20
5.1735845200318
30
0
41
1
10
0.0649171506606621
20
5.37085605809409
30
0
41
1
10
0.0999999999999801
20
5.56776436282993
30
0
0
SPLINE
5
321
100
AcDbEntity
8
1
62
256
6
ByLayer
370
13
48
1
60
0
100
AcDbSpline
70
4
71
3
72
16
73
12
40
0
40
0
40
0
40
0
40
0.250000000000002
40
0.250000000000002
40
0.500000000000005
40
0.500000000000005
40
0.625000000000003
40
0.625000000000003
40
0.750000000000002
40
0.750000000000002
40
1
40
1
40
1
40
1
41
1
10
34.2449980035163
20
-25.5836848583877
30
0
41
1
10
33.9361977887349
20
-25.5836624793527
30
0
41
1
10
33.6320142609899
20
-25.6052296907997
30
0
41
1
10
33.0322700694017
20
-25.6886882896093
30
0
41
1
10
32.7367122325781
20
-25.7505928973285
30
0
41
1
10
32.2996672490488
20
-25.8728728071303
30
0
41
1
10
32.1545285076579
20
-25.9187538405487
30
0
41
1
10
31.8705084015137
20
-26.018782865174
30
0
41
1
10
31.7312580400683
20
-26.0729948882344
30
0
41
1
10
31.3212844141721
20
-26.2474605274569
30
0
41
1
10
31.058310427075
20
-26.3795008500263
30
0
41
1
10
30.804760042546
20
-26.5258745396569
30
0
0
SPLINE
5
322
100
AcDbEntity
8
1
62
256
6
ByLayer
370
13
48
1
60
0
100
AcDbSpline
70
4
71
3
72
16
73
12
40
0
40
0
40
0
40
0
40
0.125
40
0.125
40
0.25
40
0.25
40
0.5
40
0.5
40
0.75
40
0.75
40
1
40
1
40
1
40
1
41
1
10
146
20
-25.9494887186505
30
0
41
1
10
141.625016657935
20
-25.9618948274249
30
0
41
1
10
137.250016567129
20
-25.9736545083694
30
0
41
1
10
128.500015885306
20
-25.9968217270486
30
0
41
1
10
124.125014602248
20
-26.0083018757091
30
0
41
1
10
111.000010855693
20
-26.0427526352997
30
0
41
1
10
102.250007811646
20
-26.0656621777495
30
0
41
1
10
84.7500049832045
20
-26.1118084194662
30
0
41
1
10
76.0000046262941
20
-26.1349846530692
30
0
41
1
10
58.5000026063988
20
-26.181202354336
30
0
41
1
10
49.7500009970812
20
-26.2042505975554
30
0
41
1
10
41
20
-26.2273553997377
30
0
0
SPLINE
5
323
100
AcDbEntity
8
1
62
256
6
ByLayer
370
13
48
1
60
0
100
AcDbSpline
70
4
71
3
72
8
73
4
40
0
40
0
40
0
40
0
40
1
40
1
40
1
40
1
41
1
10
34.2449980035163
20
-25.5836848584067
30
0
41
1
10
34.2449980035722
20
-25.8125860298642
30
0
41
1
10
34.2449980036289
20
-26.0414872013214
30
0
41
1
10
34.2449980036862
20
-26.2703883727781
30
0
0
SPLINE
5
324
100
AcDbEntity
8
1
62
256
6
ByLayer
370
13
48
1
60
0
100
AcDbSpline
70
4
71
3
72
16
73
12
40
0
40
0
40
0
40
0
40
0.25
40
0.25
40
0.5
40
0.5
40
0.625
40
0.625
40
0.750000000000001
40
0.750000000000001
40
1
40
1
40
1
40
1
41
1
10
293.717701577094
20
6.72261370572221
30
0
41
1
10
293.690107789464
20
6.69677780231535
30
0
41
1
10
293.664394051734
20
6.67412489480853
30
0
41
1
10
293.618609168726
20
6.6360999532381
30
0
41
1
10
293.599216294078
20
6.6213061090842
30
0
41
1
10
293.578650480833
20
6.60758643954676
30
0
41
1
10
293.573297702033
20
6.60447844451934
30
0
41
1
10
293.565916922273
20
6.60142017969994
30
0
41
1
10
293.563951400938
20
6.60152543630593
30
0
41
1
10
293.563502567874
20
6.60673434829252
30
0
41
1
10
293.570602023583
20
6.61699396710074
30
0
41
1
10
293.58304529263
20
6.63228074793005
30
0
0
SPLINE
5
325
100
AcDbEntity
8
1
62
256
6
ByLayer
370
13
48
1
60
0
100
AcDbSpline
70
4
71
3
72
18
73
14
40
0
40
0
40
0
40
0
40
0.250000000000017
40
0.250000000000017
40
0.500000000000034
40
0.500000000000034
40
0.562500000000029
40
0.562500000000029
40
0.625000000000025
40
0.625000000000025
40
0.750000000000017
40
0.750000000000017
40
1
40
1
40
1
40
1
41
1
10
288.771175432501
20
5.6053115074933
30
0
41
1
10
289.346093128915
20
5.44240668580832
30
0
41
1
10
289.923695795216
20
5.32818996657056
30
0
41
1
10
291.085479240169
20
5.18936659154849
30
0
41
1
10
291.669655496067
20
5.16482058817681
30
0
41
1
10
292.404830382642
20
5.19097488038815
30
0
41
1
10
292.552113599333
20
5.19906800958839
30
0
41
1
10
292.847199810077
20
5.22108142127772
30
0
41
1
10
292.995145415013
20
5.23502594194636
30
0
41
1
10
293.43712030808
20
5.28545509181214
30
0
41
1
10
293.730081019496
20
5.3305559059381
30
0
41
1
10
294.603932336504
20
5.50055373131184
30
0
41
1
10
295.179874451224
20
5.65988415089748
30
0
41
1
10
295.748417882176
20
5.86889730334383
30
0
0
SPLINE
5
326
100
AcDbEntity
8
1
62
256
6
ByLayer
370
13
48
1
60
0
100
AcDbSpline
70
4
71
3
72
8
73
4
40
0
40
0
40
0
40
0
40
1
40
1
40
1
40
1
41
1
10
278.282712743772
20
25.6341730105768
30
0
41
1
10
278.311029459142
20
25.678362631381
30
0
41
1
10
278.339279129695
20
25.7225960018621
30
0
41
1
10
278.367462322642
20
25.7668727518893
30
0
0
SPLINE
5
327
100
AcDbEntity
8
1
62
256
6
ByLayer
370
13
48
1
60
0
100
AcDbSpline
70
4
71
3
72
10
73
6
40
0
40
0
40
0
40
0
40
0.789110838522685
40
0.789110838522685
40
1
40
1
40
1
40
1
41
1
10
283.483168893248
20
10.0564441172347
30
0
41
1
10
278.382901294199
20
10.2256332473148
30
0
41
1
10
273.287934883079
20
10.2738435300221
30
0
41
1
10
266.831132224648
20
10.1836288361173
30
0
41
1
10
265.469442938974
20
10.1560878771806
30
0
41
1
10
264.107640186509
20
10.1201558989001
30
0
0
SPLINE
5
328
100
AcDbEntity
8
1
62
256
6
ByLayer
370
13
48
1
60
0
100
AcDbSpline
70
4
71
3
72
14
73
10
40
0
40
0
40
0
40
0
40
0.12500000000005
40
0.12500000000005
40
0.2500000000001
40
0.2500000000001
40
0.500000000000067
40
0.500000000000067
40
1
40
1
40
1
40
1
41
1
10
302.42496764959
20
8.2226844005049
30
0
41
1
10
302.465658114938
20
8.22481689743177
30
0
41
1
10
302.507114571246
20
8.22788529272975
30
0
41
1
10
302.588916168713
20
8.23574112996059
30
0
41
1
10
302.629667993412
20
8.24054805906098
30
0
41
1
10
302.75154932817
20
8.25759531807296
30
0
41
1
10
302.832304212869
20
8.2724541311693
30
0
41
1
10
303.073641151445
20
8.32770803818229
30
0
41
1
10
303.233219567449
20
8.37858025192369
30
0
41
1
10
303.393438565166
20
8.44589838119009
30
0
0
SPLINE
5
329
100
AcDbEntity
8
1
62
256
6
ByLayer
370
13
48
1
60
0
100
AcDbSpline
70
4
71
3
72
8
73
4
40
0
40
0
40
0
40
0
40
1
40
1
40
1
40
1
41
1
10
289.498542806229
20
18.5522872207871
30
0
41
1
10
289.486759801547
20
18.531663118179
30
0
41
1
10
289.474199875524
20
18.512862452918
30
0
41
1
10
289.461358086285
20
18.4957978725653
30
0
0
SPLINE
5
32A
100
AcDbEntity
8
1
62
256
6
ByLayer
370
13
48
1
60
0
100
AcDbSpline
70
4
71
3
72
18
73
14
40
0
40
0
40
0
40
0
40
0.249999999999885
40
0.249999999999885
40
0.374999999999826
40
0.374999999999826
40
0.499999999999767
40
0.499999999999767
40
0.749999999999779
40
0.749999999999779
40
0.874999999999889
40
0.874999999999889
40
1
40
1
40
1
40
1
41
1
10
294.752959616462
20
7.82061149684705
30
0
41
1
10
294.747539013916
20
7.82032741511023
30
0
41
1
10
294.74870306217
20
7.83058045625498
30
0
41
1
10
294.76382849767
20
7.85899111765406
30
0
41
1
10
294.771142838909
20
7.87049313749301
30
0
41
1
10
294.79100290116
20
7.89598691491199
30
0
41
1
10
294.803815423092
20
7.910229541598
30
0
41
1
10
294.849796732592
20
7.9526909010211
30
0
41
1
10
294.891932277473
20
7.98138088035125
30
0
41
1
10
294.965166391363
20
8.01256358798568
30
0
41
1
10
294.991663651531
20
8.0212409525501
30
0
41
1
10
295.045785705001
20
8.03372171575867
30
0
41
1
10
295.073642941863
20
8.0376763681985
30
0
41
1
10
295.10230633638
20
8.03919441406217
30
0
0
SPLINE
5
32B
100
AcDbEntity
8
1
62
256
6
ByLayer
370
13
48
1
60
0
100
AcDbSpline
70
4
71
1
72
4
73
2
40
0
40
0
40
1
40
1
41
1
10
36.4500000000001
20
-14.4779431484893
30
0
41
1
10
36
20
-14.4779431484893
30
0
0
SPLINE
5
32C
100
AcDbEntity
8
1
62
256
6
ByLayer
370
13
48
1
60
0
100
AcDbSpline
70
4
71
3
72
8
73
4
40
0
40
0
40
0
40
0
40
1
40
1
40
1
40
1
41
1
10
308.686004314147
20
0.578440612632278
30
0
41
1
10
308.684098615717
20
0.631799667546034
30
0
41
1
10
308.683832896427
20
0.684923196014097
30
0
41
1
10
308.685107434355
20
0.733830206179817
30
0
0
SPLINE
5
32D
100
AcDbEntity
8
1
62
256
6
ByLayer
370
13
48
1
60
0
100
AcDbSpline
70
4
71
3
72
10
73
6
40
0
40
0
40
0
40
0
40
0.5
40
0.5
40
1
40
1
40
1
40
1
41
1
10
287.255111128491
20
12.088896922524
30
0
41
1
10
287.22821315701
20
12.1939865678202
30
0
41
1
10
287.193590605774
20
12.2966700073292
30
0
41
1
10
287.107396311414
20
12.4967572148434
30
0
41
1
10
287.055380761938
20
12.5947182642478
30
0
41
1
10
286.995488968368
20
12.6875534996233
30
0
0
SPLINE
5
32E
100
AcDbEntity
8
1
62
256
6
ByLayer
370
13
48
1
60
0
100
AcDbSpline
70
4
71
3
72
8
73
4
40
0
40
0
40
0
40
0
40
1
40
1
40
1
40
1
41
1
10
284.218013741619
20
12.1882979362574
30
0
41
1
10
284.627343789222
20
12.1946030275196
30
0
41
1
10
285.022813268361
20
12.1701773277695
30
0
41
1
10
285.404595159102
20
12.1142527459472
30
0
0
SPLINE
5
32F
100
AcDbEntity
8
1
62
256
6
ByLayer
370
13
48
1
60
0
100
AcDbSpline
70
4
71
3
72
16
73
12
40
0
40
0
40
0
40
0
40
0.125
40
0.125
40
0.25
40
0.25
40
0.5
40
0.5
40
0.75
40
0.75
40
1
40
1
40
1
40
1
41
1
10
146
20
-9.38643938081177
30
0
41
1
10
141.625000149451
20
-9.39577340690576
30
0
41
1
10
137.24999580634
20
-9.39945167173639
30
0
41
1
10
128.499993267444
20
-9.40315695573335
30
0
41
1
10
124.124993513966
20
-9.40345479679982
30
0
41
1
10
110.999996047509
20
-9.40249505874971
30
0
41
1
10
102.249999899966
20
-9.39963341300228
30
0
41
1
10
84.7500014292513
20
-9.40008784598064
30
0
41
1
10
76.0000004317312
20
-9.40207892934066
30
0
41
1
10
58.4999999455944
20
-9.4044757898335
30
0
41
1
10
49.7500002658497
20
-9.40504980795302
30
0
41
1
10
41
20
-9.40625308915381
30
0
0
SPLINE
5
330
100
AcDbEntity
8
1
62
256
6
ByLayer
370
13
48
1
60
0
100
AcDbSpline
70
4
71
3
72
8
73
4
40
0
40
0
40
0
40
0
40
1
40
1
40
1
40
1
41
1
10
0.0999999999999659
20
-5.56776436282993
30
0
41
1
10
0.0648944344305846
20
-5.37072855948904
30
0
41
1
10
0.03155109950454
20
-5.17345582387856
30
0
41
1
10
0
20
-4.97594212184998
30
0
0
SPLINE
5
331
100
AcDbEntity
8
1
62
256
6
ByLayer
370
13
48
1
60
0
100
AcDbSpline
70
4
71
3
72
10
73
6
40
0
40
0
40
0
40
0
40
0.5
40
0.5
40
1
40
1
40
1
40
1
41
1
10
285.99750558056
20
12.1322724680938
30
0
41
1
10
286.217116299638
20
12.1110346229712
30
0
41
1
10
286.430327012341
20
12.0982912536171
30
0
41
1
10
286.848390942234
20
12.0851833582757
30
0
41
1
10
287.053215564809
20
12.084786050697
30
0
41
1
10
287.255111128491
20
12.0888969225244
30
0
0
SPLINE
5
332
100
AcDbEntity
8
1
62
256
6
ByLayer
370
13
48
1
60
0
100
AcDbSpline
70
4
71
1
72
4
73
2
40
0
40
0
40
1
40
1
41
1
10
259.914007483881
20
11.8099030474106
30
0
41
1
10
259.859020644746
20
11.8318912621831
30
0
0
SPLINE
5
333
100
AcDbEntity
8
1
62
256
6
ByLayer
370
13
48
1
60
0
100
AcDbSpline
70
4
71
1
72
4
73
2
40
0
40
0
40
1
40
1
41
1
10
309.62897912382
20
7.30995178494609
30
0
41
1
10
309.773654116804
20
7.4395162977838
30
0
0
SPLINE
5
334
100
AcDbEntity
8
1
62
256
6
ByLayer
370
13
48
1
60
0
100
AcDbSpline
70
4
71
1
72
4
73
2
40
0
40
0
40
1
40
1
41
1
10
290.729221905496
20
6.44143989788282
30
0
41
1
10
290.886647533152
20
6.32770780769317
30
0
0
SPLINE
5
335
100
AcDbEntity
8
1
62
256
6
ByLayer
370
13
48
1
60
0
100
AcDbSpline
70
4
71
3
72
13
73
9
40
0
40
0
40
0
40
0
40
0.28000786280573
40
0.560055247393576
40
0.670061263204064
40
0.780009009012238
40
0.890046901553677
40
1
40
1
40
1
40
1
41
1
10
5.61019999999998
20
-31.2500000000001
30
0
41
1
10
8.45967927454276
20
-30.8495129297442
30
0
41
1
10
14.1447881749768
20
-29.9671327472944
30
0
41
1
10
20.9117334543564
20
-28.697782534687
30
0
41
1
10
25.9442745304621
20
-27.6691506145315
30
0
41
1
10
29.2465586754131
20
-26.8987805391133
30
0
41
1
10
32.6108777409767
20
-26.4288842919998
30
0
41
1
10
34.8668487434835
20
-26.3252214072213
30
0
41
1
10
36
20
-26.3250000000001
30
0
0
SPLINE
5
336
100
AcDbEntity
8
1
62
256
6
ByLayer
370
13
48
1
60
0
100
AcDbSpline
70
4
71
3
72
15
73
11
40
0
40
0
40
0
40
0
40
0.093283356701959
40
0.186678858481258
40
0.279950790572113
40
0.373278656458082
40
0.466619032624389
40
0.559967370456225
40
0.780004011877464
40
1
40
1
40
1
40
1
41
1
10
36.0000000000001
20
26.325
30
0
41
1
10
35.0394716295326
20
26.3251147407109
30
0
41
1
10
33.1245406038249
20
26.4021933819176
30
0
41
1
10
30.2619387619876
20
26.7297751118604
30
0
41
1
10
27.4462142104335
20
27.3253195870847
30
0
41
1
10
24.6363585450005
20
27.9364486686391
30
0
41
1
10
21.8168707436936
20
28.5083207869031
30
0
41
1
10
17.7147197465177
20
29.3028909696095
30
0
41
1
10
12.3174928220336
20
30.2540924220903
30
0
41
1
10
7.84875075607356
20
30.9353850152267
30
0
41
1
10
5.61020000000005
20
31.2500000000001
30
0
0
LINE
5
7F
100
AcDbEntity
8
SK1
62
256
6
ByLayer
370
13
48
1
60
0
100
AcDbLine
10
-79
20
10.670483
30
0
11
-78.599999
21
10.670483
31
0
39
0
210
0
220
0
230
1
0
LINE
5
81
100
AcDbEntity
8
SK1
62
256
6
ByLayer
370
13
48
1
60
0
100
AcDbLine
10
-1.544243
20
-24.783477
30
0
11
-1.544243
21
24.783477
31
0
39
0
210
0
220
0
230
1
0
LINE
5
82
100
AcDbEntity
8
SK1
62
256
6
ByLayer
370
13
48
1
60
0
100
AcDbLine
10
-80
20
8.054018
30
0
11
-80
21
-8.054018
31
0
39
0
210
0
220
0
230
1
0
LINE
5
83
100
AcDbEntity
8
SK1
62
256
6
ByLayer
370
13
48
1
60
0
100
AcDbLine
10
-77.633813
20
24.639667
30
0
11
-77.633813
21
9.806751
31
0
39
0
210
0
220
0
230
1
0
LINE
5
84
100
AcDbEntity
8
SK1
62
256
6
ByLayer
370
13
48
1
60
0
100
AcDbLine
10
-77.633813
20
-9.806751
30
0
11
-77.633813
21
-24.639667
31
0
39
0
210
0
220
0
230
1
0
LINE
5
85
100
AcDbEntity
8
SK1
62
256
6
ByLayer
370
13
48
1
60
0
100
AcDbLine
10
-2
20
-24.996
30
0
11
-2
21
24.996
31
0
39
0
210
0
220
0
230
1
0
LINE
5
86
100
AcDbEntity
8
SK1
62
256
6
ByLayer
370
13
48
1
60
0
100
AcDbLine
10
-78.599999
20
-24.996
30
0
11
-78.599999
21
-10.670483
31
0
39
0
210
0
220
0
230
1
0
LINE
5
87
100
AcDbEntity
8
SK1
62
256
6
ByLayer
370
13
48
1
60
0
100
AcDbLine
10
-78.599999
20
10.670483
30
0
11
-78.599999
21
24.996
31
0
39
0
210
0
220
0
230
1
0
LINE
5
88
100
AcDbEntity
8
SK1
62
256
6
ByLayer
370
13
48
1
60
0
100
AcDbLine
10
-76.600002
20
10.670483
30
0
11
-6.5
21
10.670483
31
0
39
0
210
0
220
0
230
1
0
LINE
5
89
100
AcDbEntity
8
SK1
62
256
6
ByLayer
370
13
48
1
60
0
100
AcDbLine
10
-6.5
20
-10.670483
30
0
11
-6.5
21
10.670483
31
0
39
0
210
0
220
0
230
1
0
LINE
5
8A
100
AcDbEntity
8
SK1
62
256
6
ByLayer
370
13
48
1
60
0
100
AcDbLine
10
-6.5
20
-10.670483
30
0
11
-76.600002
21
-10.670483
31
0
39
0
210
0
220
0
230
1
0
LINE
5
8B
100
AcDbEntity
8
SK1
62
256
6
ByLayer
370
13
48
1
60
0
100
AcDbLine
10
-78.599999
20
-10.670483
30
0
11
-79
21
-10.670483
31
0
39
0
210
0
220
0
230
1
0
LINE
5
8C
100
AcDbEntity
8
SK1
62
256
6
ByLayer
370
13
48
1
60
0
100
AcDbLine
10
-0.15
20
-24.746
30
0
11
-0.15
21
24.746
31
0
39
0
210
0
220
0
230
1
0
LINE
5
8D
100
AcDbEntity
8
SK1
62
256
6
ByLayer
370
13
48
1
60
0
100
AcDbLine
10
-79
20
-24.996
30
0
11
-79
21
-10.670483
31
0
39
0
210
0
220
0
230
1
0
LINE
5
8E
100
AcDbEntity
8
SK1
62
256
6
ByLayer
370
13
48
1
60
0
100
AcDbLine
10
-79
20
10.670483
30
0
11
-79
21
24.996
31
0
39
0
210
0
220
0
230
1
0
LINE
5
8F
100
AcDbEntity
8
SK1
62
256
6
ByLayer
370
13
48
1
60
0
100
AcDbLine
10
-80
20
-23.996
30
0
11
-80
21
-8.054018
31
0
39
0
210
0
220
0
230
1
0
LINE
5
90
100
AcDbEntity
8
SK1
62
256
6
ByLayer
370
13
48
1
60
0
100
AcDbLine
10
-80
20
8.054018
30
0
11
-80
21
23.996
31
0
39
0
210
0
220
0
230
1
0
LINE
5
91
100
AcDbEntity
8
1
62
256
6
ByLayer
370
18
48
1
60
0
100
AcDbLine
10
300.999211
20
15.54926
30
0
11
300.988729
21
15.566274
31
0
39
0
210
0
220
0
230
1
0
LINE
5
92
100
AcDbEntity
8
1
62
256
6
ByLayer
370
18
48
1
60
0
100
AcDbLine
10
301.467278
20
16.246558
30
0
11
301.330057
21
16.239367
31
0
39
0
210
0
220
0
230
1
0
LINE
5
93
100
AcDbEntity
8
1
62
256
6
ByLayer
370
18
48
1
60
0
100
AcDbLine
10
301.137474
20
15.556506
30
0
11
300.999211
21
15.54926
31
0
39
0
210
0
220
0
230
1
0
LINE
5
94
100
AcDbEntity
8
1
62
256
6
ByLayer
370
18
48
1
60
0
100
AcDbLine
10
298.613293
20
16.097426
30
0
11
298.545058
21
16.09385
31
0
39
0
210
0
220
0
230
1
0
LINE
5
95
100
AcDbEntity
8
1
62
256
6
ByLayer
370
18
48
1
60
0
100
AcDbLine
10
300.879733
20
17.646035
30
0
11
300.88838
21
17.664052
31
0
39
0
210
0
220
0
230
1
0
LINE
5
96
100
AcDbEntity
8
1
62
256
6
ByLayer
370
18
48
1
60
0
100
AcDbLine
10
299.720261
20
15.09514
30
0
11
299.581998
21
15.087894
31
0
39
0
210
0
220
0
230
1
0
LINE
5
97
100
AcDbEntity
8
1
62
256
6
ByLayer
370
18
48
1
60
0
100
AcDbLine
10
301.016954
20
17.653226
30
0
11
300.879733
21
17.646035
31
0
39
0
210
0
220
0
230
1
0
LINE
5
98
100
AcDbEntity
8
1
62
256
6
ByLayer
370
18
48
1
60
0
100
AcDbLine
10
301.42677
20
17.0195
30
0
11
301.289549
21
17.012308
31
0
39
0
210
0
220
0
230
1
0
LINE
5
99
100
AcDbEntity
8
1
62
256
6
ByLayer
370
18
48
1
60
0
100
AcDbLine
10
298.57283
20
16.869492
30
0
11
298.505185
21
16.865946
31
0
39
0
210
0
220
0
230
1
0
LINE
5
9A
100
AcDbEntity
8
1
62
256
6
ByLayer
370
18
48
1
60
0
100
AcDbLine
10
299.568967
20
17.981997
30
0
11
299.430704
21
17.974751
31
0
39
0
210
0
220
0
230
1
0
LINE
5
9B
100
AcDbEntity
8
1
62
256
6
ByLayer
370
18
48
1
60
0
100
AcDbLine
10
299.728644
20
15.112704
30
0
11
299.591423
21
15.105512
31
0
39
0
210
0
220
0
230
1
0
LINE
5
9C
100
AcDbEntity
8
1
62
256
6
ByLayer
370
18
48
1
60
0
100
AcDbLine
10
299.441919
20
17.958215
30
0
11
299.430704
21
17.974751
31
0
39
0
210
0
220
0
230
1
0
LINE
5
9D
100
AcDbEntity
8
1
62
256
6
ByLayer
370
18
48
1
60
0
100
AcDbLine
10
299.57914
20
17.965406
30
0
11
299.441919
21
17.958215
31
0
39
0
210
0
220
0
230
1
0
LINE
5
9E
100
AcDbEntity
8
1
62
256
6
ByLayer
370
18
48
1
60
0
100
AcDbLine
10
301.309456
20
17.012912
30
0
11
301.289549
21
17.012308
31
0
39
0
210
0
220
0
230
1
0
LINE
5
9F
100
AcDbEntity
8
1
62
256
6
ByLayer
370
18
48
1
60
0
100
AcDbLine
10
299.581998
20
15.087894
30
0
11
299.591423
21
15.105512
31
0
39
0
210
0
220
0
230
1
0
LINE
5
A0
100
AcDbEntity
8
1
62
256
6
ByLayer
370
18
48
1
60
0
100
AcDbLine
10
301.12595
20
15.573466
30
0
11
300.988729
21
15.566274
31
0
39
0
210
0
220
0
230
1
0
LINE
5
A1
100
AcDbEntity
8
1
62
256
6
ByLayer
370
18
48
1
60
0
100
AcDbLine
10
301.330057
20
16.239367
30
0
11
301.349918
21
16.240847
31
0
39
0
210
0
220
0
230
1
0
LINE
5
A2
100
AcDbEntity
8
1
62
256
6
ByLayer
370
18
48
1
60
0
100
AcDbLine
10
301.026642
20
17.671298
30
0
11
300.88838
21
17.664052
31
0
39
0
210
0
220
0
230
1
0
LINE
5
A3
100
AcDbEntity
8
1
62
256
6
ByLayer
370
18
48
1
60
0
100
AcDbLine
10
309.08656
20
0.13933
30
0
11
310.493919
21
-8.684427
31
0
39
0
210
0
220
0
230
1
0
LINE
5
A4
100
AcDbEntity
8
1
62
256
6
ByLayer
370
18
48
1
60
0
100
AcDbLine
10
309.061525
20
0.247508
30
0
11
309.065418
21
0.234027
31
0
39
0
210
0
220
0
230
1
0
LINE
5
A5
100
AcDbEntity
8
1
62
256
6
ByLayer
370
18
48
1
60
0
100
AcDbLine
10
308.998201
20
-17.819127
30
0
11
308.923922
21
-17.830809
31
0
39
0
210
0
220
0
230
1
0
LINE
5
A6
100
AcDbEntity
8
1
62
256
6
ByLayer
370
18
48
1
60
0
100
AcDbLine
10
310.496924
20
-8.912395
30
0
11
309.357672
21
-17.505537
31
0
39
0
210
0
220
0
230
1
0
LINE
5
A7
100
AcDbEntity
8
1
62
256
6
ByLayer
370
18
48
1
60
0
100
AcDbLine
10
309.200063
20
-18.746726
30
0
11
309.552045
21
-18.646501
31
0
39
0
210
0
220
0
230
1
0
LINE
5
A8
100
AcDbEntity
8
1
62
256
6
ByLayer
370
18
48
1
60
0
100
AcDbLine
10
309.107139
20
-17.794267
30
0
11
309.093563
21
-17.798133
31
0
39
0
210
0
220
0
230
1
0
LINE
5
A9
100
AcDbEntity
8
1
62
256
6
ByLayer
370
18
48
1
60
0
100
AcDbLine
10
309.545811
20
-0.131766
30
0
11
309.444881
21
0.217762
31
0
39
0
210
0
220
0
230
1
0
LINE
5
AA
100
AcDbEntity
8
1
62
256
6
ByLayer
370
18
48
1
60
0
100
AcDbLine
10
308.688966
20
0.506988
30
0
11
308.770768
21
0.496294
31
0
39
0
210
0
220
0
230
1
0
LINE
5
AB
100
AcDbEntity
8
1
62
256
6
ByLayer
370
13
48
1
60
0
100
AcDbLine
10
310.94321
20
17.084852
30
0
11
309.914721
21
9.224394
31
0
39
0
210
0
220
0
230
1
0
LINE
5
AC
100
AcDbEntity
8
1
62
256
6
ByLayer
370
13
48
1
60
0
100
AcDbLine
10
292.863413
20
7.896506
30
0
11
291.60706
21
15.852564
31
0
39
0
210
0
220
0
230
1
0
LINE
5
AD
100
AcDbEntity
8
1
62
256
6
ByLayer
370
13
48
1
60
0
100
AcDbLine
10
308.21801
20
26.731388
30
0
11
308.019227
21
26.722716
31
0
39
0
210
0
220
0
230
1
0
LINE
5
AE
100
AcDbEntity
8
1
62
256
6
ByLayer
370
13
48
1
60
0
100
AcDbLine
10
310.100915
20
10.647446
30
0
11
309.878628
21
7.823323
31
0
39
0
210
0
220
0
230
1
0
LINE
5
AF
100
AcDbEntity
8
1
62
256
6
ByLayer
370
13
48
1
60
0
100
AcDbLine
10
310.940165
20
17.314418
30
0
11
309.519907
21
26.308429
31
0
39
0
210
0
220
0
230
1
0
LINE
5
B0
100
AcDbEntity
8
1
62
256
6
ByLayer
370
13
48
1
60
0
100
AcDbLine
10
307.570745
20
8.737656
30
0
11
307.566046
21
8.73741
31
0
39
0
210
0
220
0
230
1
0
LINE
5
B1
100
AcDbEntity
8
1
62
256
6
ByLayer
370
13
48
1
60
0
100
AcDbLine
10
307.572462
20
26.723437
30
0
11
307.74731
21
26.732601
31
0
39
0
210
0
220
0
230
1
0
LINE
5
B2
100
AcDbEntity
8
1
62
256
6
ByLayer
370
13
48
1
60
0
100
AcDbLine
10
307.593614
20
8.895754
30
0
11
309.647106
21
9.24045
31
0
39
0
210
0
220
0
230
1
0
LINE
5
B3
100
AcDbEntity
8
1
62
256
6
ByLayer
370
13
48
1
60
0
100
AcDbLine
10
309.41688
20
26.292562
30
0
11
310.837138
21
17.298551
31
0
39
0
210
0
220
0
230
1
0
LINE
5
B4
100
AcDbEntity
8
1
62
256
6
ByLayer
370
13
48
1
60
0
100
AcDbLine
10
292.206022
20
6.200558
30
0
11
291.94935
21
6.141094
31
0
39
0
210
0
220
0
230
1
0
LINE
5
B5
100
AcDbEntity
8
1
62
256
6
ByLayer
370
13
48
1
60
0
100
AcDbLine
10
292.741532
20
7.590875
30
0
11
291.440772
21
15.828148
31
0
39
0
210
0
220
0
230
1
0
LINE
5
B6
100
AcDbEntity
8
1
62
256
6
ByLayer
370
13
48
1
60
0
100
AcDbLine
10
289.195172
20
15.807062
30
0
11
290.61543
21
6.813051
31
0
39
0
210
0
220
0
230
1
0
LINE
5
B7
100
AcDbEntity
8
1
62
256
6
ByLayer
370
13
48
1
60
0
100
AcDbLine
10
310.844502
20
17.097927
30
0
11
309.813965
21
9.221822
31
0
39
0
210
0
220
0
230
1
0
LINE
5
B8
100
AcDbEntity
8
1
62
256
6
ByLayer
370
13
48
1
60
0
100
AcDbLine
10
292.911835
20
7.58987
30
0
11
292.863413
21
7.896506
31
0
39
0
210
0
220
0
230
1
0
LINE
5
B9
100
AcDbEntity
8
1
62
256
6
ByLayer
370
13
48
1
60
0
100
AcDbLine
10
309.258691
20
7.994624
30
0
11
309.701699
21
8.993961
31
0
39
0
210
0
220
0
230
1
0
LINE
5
BA
100
AcDbEntity
8
1
62
256
6
ByLayer
370
13
48
1
60
0
100
AcDbLine
10
309.473748
20
8.955697
30
0
11
309.258691
21
7.994624
31
0
39
0
210
0
220
0
230
1
0
LINE
5
BB
100
AcDbEntity
8
1
62
256
6
ByLayer
370
13
48
1
60
0
100
AcDbLine
10
307.892401
20
26.918988
30
0
11
307.929315
21
26.920922
31
0
39
0
210
0
220
0
230
1
0
LINE
5
BC
100
AcDbEntity
8
1
62
256
6
ByLayer
370
13
48
1
60
0
100
AcDbLine
10
291.604395
20
16.053434
30
0
11
292.671582
21
24.209647
31
0
39
0
210
0
220
0
230
1
0
LINE
5
BD
100
AcDbEntity
8
1
62
256
6
ByLayer
370
13
48
1
60
0
100
AcDbLine
10
308.230257
20
26.88223
30
0
11
308.225558
21
26.881983
31
0
39
0
210
0
220
0
230
1
0
LINE
5
BE
100
AcDbEntity
8
1
62
256
6
ByLayer
370
13
48
1
60
0
100
AcDbLine
10
288.944309
20
16.709958
30
0
11
288.915427
21
16.153938
31
0
39
0
210
0
220
0
230
1
0
LINE
5
BF
100
AcDbEntity
8
1
62
256
6
ByLayer
370
13
48
1
60
0
100
AcDbLine
10
289.422197
20
15.845128
30
0
11
290.842455
21
6.851117
31
0
39
0
210
0
220
0
230
1
0
LINE
5
C0
100
AcDbEntity
8
1
62
256
6
ByLayer
370
13
48
1
60
0
100
AcDbLine
10
290.444754
20
24.027992
30
0
11
292.564593
21
24.383824
31
0
39
0
210
0
220
0
230
1
0
LINE
5
C1
100
AcDbEntity
8
1
62
256
6
ByLayer
370
13
48
1
60
0
100
AcDbLine
10
290.45064
20
23.87906
30
0
11
289.420103
21
16.002955
31
0
39
0
210
0
220
0
230
1
0
LINE
5
C2
100
AcDbEntity
8
1
62
256
6
ByLayer
370
13
48
1
60
0
100
AcDbLine
10
309.214142
20
7.795536
30
0
11
309.099152
21
7.281653
31
0
39
0
210
0
220
0
230
1
0
LINE
5
C3
100
AcDbEntity
8
1
62
256
6
ByLayer
370
13
48
1
60
0
100
AcDbLine
10
289.197857
20
18.050274
30
0
11
288.931178
21
16.012122
31
0
39
0
210
0
220
0
230
1
0
LINE
5
C4
100
AcDbEntity
8
1
62
256
6
ByLayer
370
13
48
1
60
0
100
AcDbLine
10
309.166921
20
7.78761
30
0
11
309.214142
21
7.795536
31
0
39
0
210
0
220
0
230
1
0
LINE
5
C5
100
AcDbEntity
8
1
62
256
6
ByLayer
370
13
48
1
60
0
100
AcDbLine
10
307.356214
20
25.528635
30
0
11
308.656974
21
17.291362
31
0
39
0
210
0
220
0
230
1
0
LINE
5
C6
100
AcDbEntity
8
1
62
256
6
ByLayer
370
13
48
1
60
0
100
AcDbLine
10
292.911835
20
7.58987
30
0
11
292.907136
21
7.589623
31
0
39
0
210
0
220
0
230
1
0
LINE
5
C7
100
AcDbEntity
8
1
62
256
6
ByLayer
370
13
48
1
60
0
100
AcDbLine
10
292.103864
20
6.247922
30
0
11
291.905081
21
6.23925
31
0
39
0
210
0
220
0
230
1
0
LINE
5
C8
100
AcDbEntity
8
1
62
256
6
ByLayer
370
13
48
1
60
0
100
AcDbLine
10
292.290396
20
6.408496
30
0
11
292.285697
21
6.40825
31
0
39
0
210
0
220
0
230
1
0
LINE
5
C9
100
AcDbEntity
8
1
62
256
6
ByLayer
370
13
48
1
60
0
100
AcDbLine
10
291.437536
20
16.072062
30
0
11
292.504132
21
24.223755
31
0
39
0
210
0
220
0
230
1
0
LINE
5
CA
100
AcDbEntity
8
1
62
256
6
ByLayer
370
13
48
1
60
0
100
AcDbLine
10
288.944309
20
16.709958
30
0
11
289.049055
21
17.749558
31
0
39
0
210
0
220
0
230
1
0
LINE
5
CB
100
AcDbEntity
8
1
62
256
6
ByLayer
370
13
48
1
60
0
100
AcDbLine
10
290.44882
20
26.022571
30
0
11
290.56401
21
26.010845
31
0
39
0
210
0
220
0
230
1
0
LINE
5
CC
100
AcDbEntity
8
1
62
256
6
ByLayer
370
13
48
1
60
0
100
AcDbLine
10
307.33552
20
8.596778
30
0
11
309.473748
21
8.955697
31
0
39
0
210
0
220
0
230
1
0
LINE
5
CD
100
AcDbEntity
8
1
62
256
6
ByLayer
370
13
48
1
60
0
100
AcDbLine
10
308.660209
20
17.047447
30
0
11
307.593614
21
8.895754
31
0
39
0
210
0
220
0
230
1
0
LINE
5
CE
100
AcDbEntity
8
1
62
256
6
ByLayer
370
13
48
1
60
0
100
AcDbLine
10
308.031474
20
26.873558
30
0
11
308.230257
21
26.88223
31
0
39
0
210
0
220
0
230
1
0
LINE
5
CF
100
AcDbEntity
8
1
62
256
6
ByLayer
370
13
48
1
60
0
100
AcDbLine
10
306.762885
20
8.650299
30
0
11
294.235996
21
7.993793
31
0
39
0
210
0
220
0
230
1
0
LINE
5
D0
100
AcDbEntity
8
1
62
256
6
ByLayer
370
13
48
1
60
0
100
AcDbLine
10
309.802917
20
8.943679
30
0
11
309.695374
21
7.876315
31
0
39
0
210
0
220
0
230
1
0
LINE
5
D1
100
AcDbEntity
8
1
62
256
6
ByLayer
370
13
48
1
60
0
100
AcDbLine
10
310.839803
20
17.097681
30
0
11
309.809266
21
9.221575
31
0
39
0
210
0
220
0
230
1
0
LINE
5
D2
100
AcDbEntity
8
1
62
256
6
ByLayer
370
13
48
1
60
0
100
AcDbLine
10
307.461395
20
8.893795
30
0
11
307.455581
21
8.849363
31
0
39
0
210
0
220
0
230
1
0
LINE
5
D3
100
AcDbEntity
8
1
62
256
6
ByLayer
370
13
48
1
60
0
100
AcDbLine
10
290.956484
20
25.803005
30
0
11
290.638995
21
25.802108
31
0
39
0
210
0
220
0
230
1
0
LINE
5
D4
100
AcDbEntity
8
1
62
256
6
ByLayer
370
13
48
1
60
0
100
AcDbLine
10
292.504132
20
24.223755
30
0
11
290.45064
21
23.87906
31
0
39
0
210
0
220
0
230
1
0
LINE
5
D5
100
AcDbEntity
8
1
62
256
6
ByLayer
370
13
48
1
60
0
100
AcDbLine
10
310.841837
20
17.298798
30
0
11
310.837138
21
17.298551
31
0
39
0
210
0
220
0
230
1
0
LINE
5
D6
100
AcDbEntity
8
1
62
256
6
ByLayer
370
13
48
1
60
0
100
AcDbLine
10
309.647106
20
9.24045
30
0
11
310.677643
21
17.116555
31
0
39
0
210
0
220
0
230
1
0
LINE
5
D7
100
AcDbEntity
8
1
62
256
6
ByLayer
370
13
48
1
60
0
100
AcDbLine
10
291.822512
20
15.884789
30
0
11
293.078865
21
7.928731
31
0
39
0
210
0
220
0
230
1
0
LINE
5
D8
100
AcDbEntity
8
1
62
256
6
ByLayer
370
13
48
1
60
0
100
AcDbLine
10
309.690584
20
9.093488
30
0
11
307.570745
21
8.737656
31
0
39
0
210
0
220
0
230
1
0
LINE
5
D9
100
AcDbEntity
8
1
62
256
6
ByLayer
370
13
48
1
60
0
100
AcDbLine
10
292.882923
20
7.502535
30
0
11
292.878224
21
7.502289
31
0
39
0
210
0
220
0
230
1
0
LINE
5
DA
100
AcDbEntity
8
1
62
256
6
ByLayer
370
13
48
1
60
0
100
AcDbLine
10
289.192127
20
16.036628
30
0
11
290.220617
21
23.897086
31
0
39
0
210
0
220
0
230
1
0
LINE
5
DB
100
AcDbEntity
8
1
62
256
6
ByLayer
370
13
48
1
60
0
100
AcDbLine
10
308.031474
20
26.873558
30
0
11
308.026775
21
26.873312
31
0
39
0
210
0
220
0
230
1
0
LINE
5
DC
100
AcDbEntity
8
1
62
256
6
ByLayer
370
13
48
1
60
0
100
AcDbLine
10
289.020842
20
15.249632
30
0
11
290.584704
21
6.812171
31
0
39
0
210
0
220
0
230
1
0
LINE
5
DD
100
AcDbEntity
8
1
62
256
6
ByLayer
370
13
48
1
60
0
100
AcDbLine
10
309.737305
20
7.428708
30
0
11
309.695374
21
7.876315
31
0
39
0
210
0
220
0
230
1
0
LINE
5
DE
100
AcDbEntity
8
1
62
256
6
ByLayer
370
13
48
1
60
0
100
AcDbLine
10
291.602361
20
15.852317
30
0
11
292.907136
21
7.589623
31
0
39
0
210
0
220
0
230
1
0
LINE
5
DF
100
AcDbEntity
8
1
62
256
6
ByLayer
370
13
48
1
60
0
100
AcDbLine
10
291.879736
20
6.388122
30
0
11
292.078519
21
6.396793
31
0
39
0
210
0
220
0
230
1
0
LINE
5
E0
100
AcDbEntity
8
1
62
256
6
ByLayer
370
13
48
1
60
0
100
AcDbLine
10
292.671582
20
24.209647
30
0
11
292.679756
21
24.272117
31
0
39
0
210
0
220
0
230
1
0
LINE
5
E1
100
AcDbEntity
8
1
62
256
6
ByLayer
370
13
48
1
60
0
100
AcDbLine
10
288.944309
20
16.709958
30
0
11
288.954454
21
17.5
31
0
39
0
210
0
220
0
230
1
0
LINE
5
E2
100
AcDbEntity
8
1
62
256
6
ByLayer
370
13
48
1
60
0
100
AcDbLine
10
308.027436
20
26.873341
30
0
11
308.225558
21
26.881983
31
0
39
0
210
0
220
0
230
1
0
LINE
5
E3
100
AcDbEntity
8
1
62
256
6
ByLayer
370
13
48
1
60
0
100
AcDbLine
10
308.260223
20
26.883298
30
0
11
308.255524
21
26.883052
31
0
39
0
210
0
220
0
230
1
0
LINE
5
E4
100
AcDbEntity
8
1
62
256
6
ByLayer
370
13
48
1
60
0
100
AcDbLine
10
292.675057
20
24.271871
30
0
11
291.599696
21
16.053188
31
0
39
0
210
0
220
0
230
1
0
LINE
5
E5
100
AcDbEntity
8
1
62
256
6
ByLayer
370
13
48
1
60
0
100
AcDbLine
10
309.685885
20
9.093242
30
0
11
307.566046
21
8.73741
31
0
39
0
210
0
220
0
230
1
0
LINE
5
E6
100
AcDbEntity
8
1
62
256
6
ByLayer
370
13
48
1
60
0
100
AcDbLine
10
309.421579
20
26.292809
30
0
11
310.841837
21
17.298798
31
0
39
0
210
0
220
0
230
1
0
LINE
5
E7
100
AcDbEntity
8
1
62
256
6
ByLayer
370
13
48
1
60
0
100
AcDbLine
10
308.005735
20
26.94269
30
0
11
307.892401
21
26.918988
31
0
39
0
210
0
220
0
230
1
0
LINE
5
E8
100
AcDbEntity
8
1
62
256
6
ByLayer
370
13
48
1
60
0
100
AcDbLine
10
309.166921
20
7.78761
30
0
11
309.258691
21
7.994624
31
0
39
0
210
0
220
0
230
1
0
LINE
5
E9
100
AcDbEntity
8
1
62
256
6
ByLayer
370
13
48
1
60
0
100
AcDbLine
10
309.690584
20
9.093488
30
0
11
309.685885
21
9.093242
31
0
39
0
210
0
220
0
230
1
0
LINE
5
EA
100
AcDbEntity
8
1
62
256
6
ByLayer
370
13
48
1
60
0
100
AcDbLine
10
289.431691
20
12.259124
30
0
11
290.068417
21
9.597646
31
0
39
0
210
0
220
0
230
1
0
LINE
5
EB
100
AcDbEntity
8
1
62
256
6
ByLayer
370
13
48
1
60
0
100
AcDbLine
10
309.813965
20
9.221822
30
0
11
309.809266
21
9.221575
31
0
39
0
210
0
220
0
230
1
0
LINE
5
EC
100
AcDbEntity
8
1
62
256
6
ByLayer
370
13
48
1
60
0
100
AcDbLine
10
290.329357
20
25.300378
30
0
11
290.433638
21
24.127519
31
0
39
0
210
0
220
0
230
1
0
LINE
5
ED
100
AcDbEntity
8
1
62
256
6
ByLayer
370
13
48
1
60
0
100
AcDbLine
10
291.60706
20
15.852564
30
0
11
291.602361
21
15.852317
31
0
39
0
210
0
220
0
230
1
0
LINE
5
EE
100
AcDbEntity
8
1
62
256
6
ByLayer
370
13
48
1
60
0
100
AcDbLine
10
290.220617
20
23.897086
30
0
11
290.166768
21
24.502721
31
0
39
0
210
0
220
0
230
1
0
LINE
5
EF
100
AcDbEntity
8
1
62
256
6
ByLayer
370
13
48
1
60
0
100
AcDbLine
10
309.214142
20
7.795536
30
0
11
309.695374
21
7.876315
31
0
39
0
210
0
220
0
230
1
0
LINE
5
F0
100
AcDbEntity
8
1
62
256
6
ByLayer
370
13
48
1
60
0
100
AcDbLine
10
289.020842
20
15.249632
30
0
11
288.933998
21
15.799586
31
0
39
0
210
0
220
0
230
1
0
LINE
5
F1
100
AcDbEntity
8
1
62
256
6
ByLayer
370
13
48
1
60
0
100
AcDbLine
10
309.473748
20
8.955697
30
0
11
309.701699
21
8.993961
31
0
39
0
210
0
220
0
230
1
0
LINE
5
F2
100
AcDbEntity
8
1
62
256
6
ByLayer
370
13
48
1
60
0
100
AcDbLine
10
292.799817
20
24.524702
30
0
11
290.433638
21
24.127519
31
0
39
0
210
0
220
0
230
1
0
LINE
5
F3
100
AcDbEntity
8
1
62
256
6
ByLayer
370
13
48
1
60
0
100
AcDbLine
10
289.290836
20
16.023553
30
0
11
290.321373
21
23.899658
31
0
39
0
210
0
220
0
230
1
0
LINE
5
F4
100
AcDbEntity
8
1
62
256
6
ByLayer
370
13
48
1
60
0
100
AcDbLine
10
310.675549
20
17.274382
30
0
11
309.255291
21
26.268393
31
0
39
0
210
0
220
0
230
1
0
LINE
5
F5
100
AcDbEntity
8
1
62
256
6
ByLayer
370
13
48
1
60
0
100
AcDbLine
10
310.844502
20
17.097927
30
0
11
310.839803
21
17.097681
31
0
39
0
210
0
220
0
230
1
0
LINE
5
F6
100
AcDbEntity
8
1
62
256
6
ByLayer
370
13
48
1
60
0
100
AcDbLine
10
307.285134
20
8.938969
30
0
11
308.352321
21
17.095182
31
0
39
0
210
0
220
0
230
1
0
LINE
5
F7
100
AcDbEntity
8
1
62
256
6
ByLayer
370
13
48
1
60
0
100
AcDbLine
10
292.679756
20
24.272117
30
0
11
292.675057
21
24.271871
31
0
39
0
210
0
220
0
230
1
0
LINE
5
F8
100
AcDbEntity
8
1
62
256
6
ByLayer
370
13
48
1
60
0
100
AcDbLine
10
292.887796
20
24.184481
30
0
11
291.820609
21
16.028268
31
0
39
0
210
0
220
0
230
1
0
LINE
5
F9
100
AcDbEntity
8
1
62
256
6
ByLayer
370
13
48
1
60
0
100
AcDbLine
10
293.372452
20
24.47118
30
0
11
305.899342
21
25.127687
31
0
39
0
210
0
220
0
230
1
0
LINE
5
FA
100
AcDbEntity
8
1
62
256
6
ByLayer
370
13
48
1
60
0
100
AcDbLine
10
291.604395
20
16.053434
30
0
11
291.599696
21
16.053188
31
0
39
0
210
0
220
0
230
1
0
LINE
5
FB
100
AcDbEntity
8
1
62
256
6
ByLayer
370
13
48
1
60
0
100
AcDbLine
10
309.421579
20
26.292809
30
0
11
309.41688
21
26.292562
31
0
39
0
210
0
220
0
230
1
0
LINE
5
FC
100
AcDbEntity
8
1
62
256
6
ByLayer
370
13
48
1
60
0
100
AcDbLine
10
290.713758
20
6.828671
30
0
11
289.293501
21
15.822682
31
0
39
0
210
0
220
0
230
1
0
LINE
5
FD
100
AcDbEntity
8
1
62
256
6
ByLayer
370
13
48
1
60
0
100
AcDbLine
10
290.329357
20
25.300378
30
0
11
290.189845
21
25.27696
31
0
39
0
210
0
220
0
230
1
0
LINE
5
FE
100
AcDbEntity
8
1
62
256
6
ByLayer
370
13
48
1
60
0
100
AcDbLine
10
307.223503
20
25.53161
30
0
11
307.269033
21
25.243286
31
0
39
0
210
0
220
0
230
1
0
LINE
5
FF
100
AcDbEntity
8
1
62
256
6
ByLayer
370
13
48
1
60
0
100
AcDbLine
10
308.350417
20
17.238661
30
0
11
307.094064
21
25.194719
31
0
39
0
210
0
220
0
230
1
0
LINE
5
100
100
AcDbEntity
8
1
62
256
6
ByLayer
370
13
48
1
60
0
100
AcDbLine
10
308.752479
20
26.883183
30
0
11
308.74778
21
26.882937
31
0
39
0
210
0
220
0
230
1
0
LINE
5
101
100
AcDbEntity
8
1
62
256
6
ByLayer
370
13
48
1
60
0
100
AcDbLine
10
307.929315
20
26.920922
30
0
11
308.185987
21
26.980386
31
0
39
0
210
0
220
0
230
1
0
LINE
5
102
100
AcDbEntity
8
SK1
62
256
6
ByLayer
370
13
48
1
60
0
100
AcDbLine
10
-78.516222
20
24.892544
30
0
11
-78.516222
21
10.425829
31
0
39
0
210
0
220
0
230
1
0
LINE
5
103
100
AcDbEntity
8
SK1
62
256
6
ByLayer
370
13
48
1
60
0
100
AcDbLine
10
-78.516222
20
-10.425829
30
0
11
-78.516222
21
-24.892544
31
0
39
0
210
0
220
0
230
1
0
LINE
5
104
100
AcDbEntity
8
SK1
62
256
6
ByLayer
370
13
48
1
60
0
100
AcDbLine
10
-1.375195
20
-24.746
30
0
11
-1.375195
21
24.746
31
0
39
0
210
0
220
0
230
1
0
LINE
5
105
100
AcDbEntity
8
SK1
62
256
6
ByLayer
370
13
48
1
60
0
100
AcDbLine
10
-76.600002
20
24.996
30
0
11
-76.600002
21
10.670483
31
0
39
0
210
0
220
0
230
1
0
LINE
5
106
100
AcDbEntity
8
SK1
62
256
6
ByLayer
370
13
48
1
60
0
100
AcDbLine
10
-76.600002
20
-10.670483
30
0
11
-76.600002
21
-24.996
31
0
39
0
210
0
220
0
230
1
0
LINE
5
107
100
AcDbEntity
8
1
62
256
6
ByLayer
370
13
48
1
60
0
100
AcDbLine
10
284.539169
20
26.055
30
0
11
284.539169
21
25.84758
31
0
39
0
210
0
220
0
230
1
0
LINE
5
108
100
AcDbEntity
8
1
62
256
6
ByLayer
370
13
48
1
60
0
100
AcDbLine
10
284.870996
20
7.757529
30
0
11
288.806542
21
6.548147
31
0
39
0
210
0
220
0
230
1
0
LINE
5
109
100
AcDbEntity
8
1
62
256
6
ByLayer
370
13
48
1
60
0
100
AcDbLine
10
309.360016
20
6.298846
30
0
11
309.31091
21
7.131578
31
0
39
0
210
0
220
0
230
1
0
LINE
5
10A
100
AcDbEntity
8
1
62
256
6
ByLayer
370
13
48
1
60
0
100
AcDbLine
10
294.75296
20
7.820611
30
0
11
294.762358
21
7.821104
31
0
39
0
210
0
220
0
230
1
0
LINE
5
10B
100
AcDbEntity
8
1
62
256
6
ByLayer
370
13
48
1
60
0
100
AcDbLine
10
146
20
26.055
30
0
11
146
21
-9.386439
31
0
39
0
210
0
220
0
230
1
0
LINE
5
10C
100
AcDbEntity
8
1
62
256
6
ByLayer
370
13
48
1
60
0
100
AcDbLine
10
309.390559
20
7.028668
30
0
11
309.317205
21
7.024824
31
0
39
0
210
0
220
0
230
1
0
LINE
5
10D
100
AcDbEntity
8
1
62
256
6
ByLayer
370
13
48
1
60
0
100
AcDbLine
10
0.1
20
-31.25
30
0
11
0.1
21
-5.567764
31
0
39
0
210
0
220
0
230
1
0
LINE
5
10E
100
AcDbEntity
8
1
62
256
6
ByLayer
370
13
48
1
60
0
100
AcDbLine
10
295.123176
20
5.83613
30
0
11
295.748418
21
5.868897
31
0
39
0
210
0
220
0
230
1
0
LINE
5
10F
100
AcDbEntity
8
1
62
256
6
ByLayer
370
13
48
1
60
0
100
AcDbLine
10
286.995489
20
12.687553
30
0
11
285.544878
21
14.921709
31
0
39
0
210
0
220
0
230
1
0
LINE
5
110
100
AcDbEntity
8
1
62
256
6
ByLayer
370
13
48
1
60
0
100
AcDbLine
10
307.545708
20
6.988993
30
0
11
308.805442
21
7.055012
31
0
39
0
210
0
220
0
230
1
0
LINE
5
111
100
AcDbEntity
8
1
62
256
6
ByLayer
370
13
48
1
60
0
100
AcDbLine
10
0.1
20
31.25
30
0
11
0.1
21
5.567764
31
0
39
0
210
0
220
0
230
1
0
LINE
5
112
100
AcDbEntity
8
1
62
256
6
ByLayer
370
13
48
1
60
0
100
AcDbLine
10
295.102307
20
8.039194
30
0
11
298.085172
21
8.19552
31
0
39
0
210
0
220
0
230
1
0
LINE
5
113
100
AcDbEntity
8
1
62
256
6
ByLayer
370
13
48
1
60
0
100
AcDbLine
10
306.886763
20
1.94157
30
0
11
306.969847
21
-0.566163
31
0
39
0
210
0
220
0
230
1
0
LINE
5
114
100
AcDbEntity
8
1
62
256
6
ByLayer
370
13
48
1
60
0
100
AcDbLine
10
0.1
20
5.567764
30
0
11
5.6102
21
5.567764
31
0
39
0
210
0
220
0
230
1
0
LINE
5
115
100
AcDbEntity
8
1
62
256
6
ByLayer
370
13
48
1
60
0
100
AcDbLine
10
0
20
-31.15
30
0
11
0
21
-4.975942
31
0
39
0
210
0
220
0
230
1
0
LINE
5
116
100
AcDbEntity
8
1
62
256
6
ByLayer
370
13
48
1
60
0
100
AcDbLine
10
308.387834
20
-26.150745
30
0
11
287.539169
21
-26.150745
31
0
39
0
210
0
220
0
230
1
0
LINE
5
117
100
AcDbEntity
8
1
62
256
6
ByLayer
370
13
48
1
60
0
100
AcDbLine
10
298.058454
20
7.493159
30
0
11
307.407741
21
7.983134
31
0
39
0
210
0
220
0
230
1
0
LINE
5
118
100
AcDbEntity
8
1
62
256
6
ByLayer
370
13
48
1
60
0
100
AcDbLine
10
284.539169
20
-25.882626
30
0
11
284.539169
21
-0.040637
31
0
39
0
210
0
220
0
230
1
0
LINE
5
119
100
AcDbEntity
8
1
62
256
6
ByLayer
370
13
48
1
60
0
100
AcDbLine
10
303.552986
20
8.482076
30
0
11
306.535852
21
8.638401
31
0
39
0
210
0
220
0
230
1
0
LINE
5
11A
100
AcDbEntity
8
1
62
256
6
ByLayer
370
13
48
1
60
0
100
AcDbLine
10
287.539169
20
-26.150745
30
0
11
287.539169
21
-0.430199
31
0
39
0
210
0
220
0
230
1
0
LINE
5
11B
100
AcDbEntity
8
1
62
256
6
ByLayer
370
13
48
1
60
0
100
AcDbLine
10
293.33997
20
7.726056
30
0
11
293.341632
21
7.716535
31
0
39
0
210
0
220
0
230
1
0
LINE
5
11C
100
AcDbEntity
8
1
62
256
6
ByLayer
370
13
48
1
60
0
100
AcDbLine
10
281.815487
20
2.220695
30
0
11
282.08494
21
0.8921
31
0
39
0
210
0
220
0
230
1
0
LINE
5
11D
100
AcDbEntity
8
1
62
256
6
ByLayer
370
13
48
1
60
0
100
AcDbLine
10
41
20
-26.227355
30
0
11
41
21
-26.325
31
0
39
0
210
0
220
0
230
1
0
LINE
5
11E
100
AcDbEntity
8
1
62
256
6
ByLayer
370
13
48
1
60
0
100
AcDbLine
10
308.755733
20
-0.138599
30
0
11
306.886763
21
1.94157
31
0
39
0
210
0
220
0
230
1
0
LINE
5
11F
100
AcDbEntity
8
1
62
256
6
ByLayer
370
13
48
1
60
0
100
AcDbLine
10
300.999378
20
6.645914
30
0
11
307.545708
21
6.988993
31
0
39
0
210
0
220
0
230
1
0
LINE
5
120
100
AcDbEntity
8
1
62
256
6
ByLayer
370
13
48
1
60
0
100
AcDbLine
10
294.394886
20
7.701301
30
0
11
293.86302
21
7.673427
31
0
39
0
210
0
220
0
230
1
0
LINE
5
121
100
AcDbEntity
8
1
62
256
6
ByLayer
370
13
48
1
60
0
100
AcDbLine
10
309.272406
20
1.110895
30
0
11
309.248211
21
1.114059
31
0
39
0
210
0
220
0
230
1
0
LINE
5
122
100
AcDbEntity
8
1
62
256
6
ByLayer
370
13
48
1
60
0
100
AcDbLine
10
309.180466
20
0.609086
30
0
11
309.155409
21
0.612362
31
0
39
0
210
0
220
0
230
1
0
LINE
5
123
100
AcDbEntity
8
1
62
256
6
ByLayer
370
13
48
1
60
0
100
AcDbLine
10
310.015564
20
-9.59741
30
0
11
308.902411
21
-17.993689
31
0
39
0
210
0
220
0
230
1
0
LINE
5
124
100
AcDbEntity
8
1
62
256
6
ByLayer
370
13
48
1
60
0
100
AcDbLine
10
285.997506
20
12.132272
30
0
11
286.995489
21
12.687553
31
0
39
0
210
0
220
0
230
1
0
LINE
5
125
100
AcDbEntity
8
1
62
256
6
ByLayer
370
13
48
1
60
0
100
AcDbLine
10
309.338256
20
-18.981914
30
0
11
308.887952
21
-18.557609
31
0
39
0
210
0
220
0
230
1
0
LINE
5
126
100
AcDbEntity
8
1
62
256
6
ByLayer
370
13
48
1
60
0
100
AcDbLine
10
309.172658
20
0.618854
30
0
11
309.180466
21
0.609086
31
0
39
0
210
0
220
0
230
1
0
LINE
5
127
100
AcDbEntity
8
1
62
256
6
ByLayer
370
13
48
1
60
0
100
AcDbLine
10
146
20
-25.949489
30
0
11
146
21
-26.055
31
0
39
0
210
0
220
0
230
1
0
LINE
5
128
100
AcDbEntity
8
1
62
256
6
ByLayer
370
13
48
1
60
0
100
AcDbLine
10
307.545708
20
6.988993
30
0
11
306.928428
21
2.689019
31
0
39
0
210
0
220
0
230
1
0
LINE
5
129
100
AcDbEntity
8
1
62
256
6
ByLayer
370
13
48
1
60
0
100
AcDbLine
10
290.212221
20
24.850113
30
0
11
290.142477
21
26.180915
31
0
39
0
210
0
220
0
230
1
0
LINE
5
12A
100
AcDbEntity
8
1
62
256
6
ByLayer
370
13
48
1
60
0
100
AcDbLine
10
309.433326
20
6.003441
30
0
11
309.397508
21
6.001564
31
0
39
0
210
0
220
0
230
1
0
LINE
5
12B
100
AcDbEntity
8
1
62
256
6
ByLayer
370
13
48
1
60
0
100
AcDbLine
10
41
20
26.325
30
0
11
41
21
-9.406253
31
0
39
0
210
0
220
0
230
1
0
LINE
5
12C
100
AcDbEntity
8
1
62
256
6
ByLayer
370
13
48
1
60
0
100
AcDbLine
10
310.015564
20
-9.59741
30
0
11
307.951874
21
-7.300517
31
0
39
0
210
0
220
0
230
1
0
LINE
5
12D
100
AcDbEntity
8
1
62
256
6
ByLayer
370
13
48
1
60
0
100
AcDbLine
10
293.341632
20
7.716535
30
0
11
293.506227
21
7.725161
31
0
39
0
210
0
220
0
230
1
0
LINE
5
12E
100
AcDbEntity
8
1
62
256
6
ByLayer
370
13
48
1
60
0
100
AcDbLine
10
284.539169
20
-25.882626
30
0
11
269.271573
21
-25.882626
31
0
39
0
210
0
220
0
230
1
0
LINE
5
12F
100
AcDbEntity
8
1
62
256
6
ByLayer
370
13
48
1
60
0
100
AcDbLine
10
36
20
26.325
30
0
11
36
21
-9.406535
31
0
39
0
210
0
220
0
230
1
0
LINE
5
130
100
AcDbEntity
8
1
62
256
6
ByLayer
370
13
48
1
60
0
100
AcDbLine
10
5.6102
20
-5.567764
30
0
11
0.1
21
-5.567764
31
0
39
0
210
0
220
0
230
1
0
LINE
5
131
100
AcDbEntity
8
1
62
256
6
ByLayer
370
13
48
1
60
0
100
AcDbLine
10
308.755733
20
-0.138599
30
0
11
309.993144
21
-7.896826
31
0
39
0
210
0
220
0
230
1
0
LINE
5
132
100
AcDbEntity
8
1
62
256
6
ByLayer
370
13
48
1
60
0
100
AcDbLine
10
309.272406
20
1.110895
30
0
11
309.608133
21
0.690891
31
0
39
0
210
0
220
0
230
1
0
LINE
5
133
100
AcDbEntity
8
1
62
256
6
ByLayer
370
13
48
1
60
0
100
AcDbLine
10
0
20
31.15
30
0
11
0
21
4.975942
31
0
39
0
210
0
220
0
230
1
0
LINE
5
134
100
AcDbEntity
8
1
62
256
6
ByLayer
370
13
48
1
60
0
100
AcDbLine
10
286.450364
20
8.569159
30
0
11
285.183727
21
8.428319
31
0
39
0
210
0
220
0
230
1
0
LINE
5
135
100
AcDbEntity
8
1
62
256
6
ByLayer
370
13
48
1
60
0
100
AcDbLine
10
294.714645
20
7.730983
30
0
11
294.400657
21
7.714528
31
0
39
0
210
0
220
0
230
1
0
LINE
5
136
100
AcDbEntity
8
1
62
256
6
ByLayer
370
13
48
1
60
0
100
AcDbLine
10
0
20
-4.975942
30
0
11
0
21
4.975942
31
0
39
0
210
0
220
0
230
1
0
LINE
5
137
100
AcDbEntity
8
1
62
256
6
ByLayer
370
13
48
1
60
0
100
AcDbLine
10
306.928428
20
2.689019
30
0
11
308.685107
21
0.73383
31
0
39
0
210
0
220
0
230
1
0
LINE
5
138
100
AcDbEntity
8
1
62
256
6
ByLayer
370
13
48
1
60
0
100
AcDbLine
10
286.012148
20
1.644595
30
0
11
286.418607
21
-0.359544
31
0
39
0
210
0
220
0
230
1
0
LINE
5
139
100
AcDbEntity
8
1
62
256
6
ByLayer
370
13
48
1
60
0
100
AcDbLine
10
285.544878
20
12.122511
30
0
11
285.544878
21
14.921709
31
0
39
0
210
0
220
0
230
1
0
LINE
5
13A
100
AcDbEntity
8
1
62
256
6
ByLayer
370
13
48
1
60
0
100
AcDbLine
10
5.6102
20
-5.567764
30
0
11
5.6102
21
-31.25
31
0
39
0
210
0
220
0
230
1
0
LINE
5
13B
100
AcDbEntity
8
1
62
256
6
ByLayer
370
13
48
1
60
0
100
AcDbLine
10
309.608133
20
0.690891
30
0
11
309.118373
21
0.47122
31
0
39
0
210
0
220
0
230
1
0
LINE
5
13C
100
AcDbEntity
8
1
62
256
6
ByLayer
370
13
48
1
60
0
100
AcDbLine
10
287.539169
20
26.325
30
0
11
287.539169
21
26.153914
31
0
39
0
210
0
220
0
230
1
0
LINE
5
13D
100
AcDbEntity
8
1
62
256
6
ByLayer
370
13
48
1
60
0
100
AcDbLine
10
309.59852
20
6.631767
30
0
11
309.608133
21
0.690891
31
0
39
0
210
0
220
0
230
1
0
LINE
5
13E
100
AcDbEntity
8
1
62
256
6
ByLayer
370
13
48
1
60
0
100
AcDbLine
10
309.390559
20
7.028668
30
0
11
309.59852
21
6.631767
31
0
39
0
210
0
220
0
230
1
0
LINE
5
13F
100
AcDbEntity
8
1
62
256
6
ByLayer
370
13
48
1
60
0
100
AcDbLine
10
290.210137
20
23.990803
30
0
11
289.498543
21
18.552287
31
0
39
0
210
0
220
0
230
1
0
LINE
5
140
100
AcDbEntity
8
1
62
256
6
ByLayer
370
13
48
1
60
0
100
AcDbLine
10
306.990988
20
8.461979
30
0
11
294.762358
21
7.821104
31
0
39
0
210
0
220
0
230
1
0
LINE
5
141
100
AcDbEntity
8
1
62
256
6
ByLayer
370
13
48
1
60
0
100
AcDbLine
10
307.860833
20
-5.523558
30
0
11
309.993144
21
-7.896826
31
0
39
0
210
0
220
0
230
1
0
LINE
5
142
100
AcDbEntity
8
1
62
256
6
ByLayer
370
13
48
1
60
0
100
AcDbLine
10
303.393439
20
8.445898
30
0
11
303.166982
21
8.43403
31
0
39
0
210
0
220
0
230
1
0
LINE
5
143
100
AcDbEntity
8
1
62
256
6
ByLayer
370
13
48
1
60
0
100
AcDbLine
10
298.204769
20
6.499455
30
0
11
299.11607
21
6.547214
31
0
39
0
210
0
220
0
230
1
0
LINE
5
144
100
AcDbEntity
8
1
62
256
6
ByLayer
370
13
48
1
60
0
100
AcDbLine
10
289.355252
20
18.300534
30
0
11
290.212221
21
24.850113
31
0
39
0
210
0
220
0
230
1
0
LINE
5
145
100
AcDbEntity
8
1
62
256
6
ByLayer
370
13
48
1
60
0
100
AcDbLine
10
289.586961
20
11.275793
30
0
11
288.835123
21
16.036927
31
0
39
0
210
0
220
0
230
1
0
LINE
5
146
100
AcDbEntity
8
1
62
256
6
ByLayer
370
13
48
1
60
0
100
AcDbLine
10
308.387834
20
-26.150745
30
0
11
309.338256
21
-18.981914
31
0
39
0
210
0
220
0
230
1
0
LINE
5
147
100
AcDbEntity
8
1
62
256
6
ByLayer
370
13
48
1
60
0
100
AcDbLine
10
309.172658
20
0.618854
30
0
11
309.16055
21
0.620437
31
0
39
0
210
0
220
0
230
1
0
LINE
5
148
100
AcDbEntity
8
1
62
256
6
ByLayer
370
13
48
1
60
0
100
AcDbLine
10
5.6102
20
31.25
30
0
11
5.6102
21
5.567764
31
0
39
0
210
0
220
0
230
1
0
LINE
5
149
100
AcDbEntity
8
1
62
256
6
ByLayer
370
13
48
1
60
0
100
AcDbLine
10
36
20
-26.227376
30
0
11
36
21
-26.325
31
0
39
0
210
0
220
0
230
1
0
LINE
5
14A
100
AcDbEntity
8
1
62
256
6
ByLayer
370
13
48
1
60
0
100
AcDbLine
10
309.59852
20
6.631767
30
0
11
309.433326
21
6.003441
31
0
39
0
210
0
220
0
230
1
0
LINE
5
14B
100
AcDbEntity
8
4
62
256
6
ByLayer
370
18
48
0.05
60
0
100
AcDbLine
10
311
20
0
30
0
11
0
21
0
31
0
39
0
210
0
220
0
230
1
0
LINE
5
14D
100
AcDbEntity
8
SK4
62
256
6
ByLayer
370
13
48
0.05
60
0
100
AcDbLine
10
311
20
0
30
0
11
-80
21
0
31
0
39
0
210
0
220
0
230
1
0
LINE
5
14F
100
AcDbEntity
8
1
62
256
6
ByLayer
370
13
48
1
60
0
100
AcDbLine
10
146
20
-26.055
30
0
11
186.107607
21
-26.055
31
0
39
0
210
0
220
0
230
1
0
LINE
5
150
100
AcDbEntity
8
SK1
62
256
6
ByLayer
370
13
48
1
60
0
100
AcDbLine
10
-78.516222
20
24.892544
30
0
11
-78.599999
21
24.996
31
0
39
0
210
0
220
0
230
1
0
LINE
5
151
100
AcDbEntity
8
SK1
62
256
6
ByLayer
370
13
48
1
60
0
100
AcDbLine
10
-78.599999
20
-24.996
30
0
11
-78.516222
21
-24.892544
31
0
39
0
210
0
220
0
230
1
0
LINE
5
152
100
AcDbEntity
8
SK1
62
256
6
ByLayer
370
13
48
1
60
0
100
AcDbLine
10
-78.599999
20
24.996
30
0
11
-79
21
24.996
31
0
39
0
210
0
220
0
230
1
0
LINE
5
153
100
AcDbEntity
8
SK1
62
256
6
ByLayer
370
13
48
1
60
0
100
AcDbLine
10
-79
20
-24.996
30
0
11
-78.599999
21
-24.996
31
0
39
0
210
0
220
0
230
1
0
LINE
5
154
100
AcDbEntity
8
SK1
62
256
6
ByLayer
370
13
48
1
60
0
100
AcDbLine
10
-80
20
-23.996
30
0
11
-79
21
-24.996
31
0
39
0
210
0
220
0
230
1
0
LINE
5
155
100
AcDbEntity
8
SK1
62
256
6
ByLayer
370
13
48
1
60
0
100
AcDbLine
10
-79
20
24.996
30
0
11
-80
21
23.996
31
0
39
0
210
0
220
0
230
1
0
LINE
5
156
100
AcDbEntity
8
SK1
62
256
6
ByLayer
370
13
48
1
60
0
100
AcDbLine
10
-77.633813
20
-24.639667
30
0
11
-76.600002
21
-24.996
31
0
39
0
210
0
220
0
230
1
0
LINE
5
157
100
AcDbEntity
8
SK1
62
256
6
ByLayer
370
13
48
1
60
0
100
AcDbLine
10
-76.600002
20
24.996
30
0
11
-77.633813
21
24.639667
31
0
39
0
210
0
220
0
230
1
0
LINE
5
158
100
AcDbEntity
8
SK1
62
256
6
ByLayer
370
13
48
1
60
0
100
AcDbLine
10
-0.15
20
24.746
30
0
11
-1.375195
21
24.746
31
0
39
0
210
0
220
0
230
1
0
LINE
5
159
100
AcDbEntity
8
SK1
62
256
6
ByLayer
370
13
48
1
60
0
100
AcDbLine
10
-1.375195
20
-24.746
30
0
11
-0.15
21
-24.746
31
0
39
0
210
0
220
0
230
1
0
LINE
5
15A
100
AcDbEntity
8
SK1
62
256
6
ByLayer
370
13
48
1
60
0
100
AcDbLine
10
-1.544243
20
24.783477
30
0
11
-2
21
24.996
31
0
39
0
210
0
220
0
230
1
0
LINE
5
15B
100
AcDbEntity
8
SK1
62
256
6
ByLayer
370
13
48
1
60
0
100
AcDbLine
10
-2
20
-24.996
30
0
11
-1.544243
21
-24.783477
31
0
39
0
210
0
220
0
230
1
0
LINE
5
15C
100
AcDbEntity
8
SK1
62
256
6
ByLayer
370
13
48
1
60
0
100
AcDbLine
10
-2
20
24.996
30
0
11
-76.600002
21
24.996
31
0
39
0
210
0
220
0
230
1
0
LINE
5
15D
100
AcDbEntity
8
SK1
62
256
6
ByLayer
370
13
48
1
60
0
100
AcDbLine
10
-76.600002
20
-24.996
30
0
11
-2
21
-24.996
31
0
39
0
210
0
220
0
230
1
0
LINE
5
15E
100
AcDbEntity
8
1
62
256
6
ByLayer
370
13
48
1
60
0
100
AcDbLine
10
309.358182
20
7.94044
30
0
11
309.89296
21
9.146791
31
0
39
0
210
0
220
0
230
1
0
LINE
5
15F
100
AcDbEntity
8
1
62
256
6
ByLayer
370
13
48
1
60
0
100
AcDbLine
10
308.529174
20
17.268871
30
0
11
307.27282
21
25.224929
31
0
39
0
210
0
220
0
230
1
0
LINE
5
160
100
AcDbEntity
8
1
62
256
6
ByLayer
370
13
48
1
60
0
100
AcDbLine
10
307.464647
20
8.912036
30
0
11
308.531834
21
17.068249
31
0
39
0
210
0
220
0
230
1
0
LINE
5
161
100
AcDbEntity
8
1
62
256
6
ByLayer
370
18
48
1
60
0
100
AcDbLine
10
300.08684
20
15.269674
30
0
11
299.959772
21
15.263015
31
0
39
0
210
0
220
0
230
1
0
LINE
5
162
100
AcDbEntity
8
1
62
256
6
ByLayer
370
18
48
1
60
0
100
AcDbLine
10
299.824714
20
17.840078
30
0
11
299.951782
21
17.846737
31
0
39
0
210
0
220
0
230
1
0
LINE
5
163
100
AcDbEntity
8
1
62
256
6
ByLayer
370
18
48
1
60
0
100
AcDbLine
10
300.114234
20
13.709269
30
0
11
300.181975
21
13.712819
31
0
39
0
210
0
220
0
230
1
0
LINE
5
164
100
AcDbEntity
8
1
62
256
6
ByLayer
370
18
48
1
60
0
100
AcDbLine
10
299.88366
20
19.405008
30
0
11
299.815919
21
19.401457
31
0
39
0
210
0
220
0
230
1
0
LINE
5
165
100
AcDbEntity
8
1
62
256
6
ByLayer
370
13
48
1
60
0
100
AcDbLine
10
36
20
-26.325
30
0
11
41
21
-26.325
31
0
39
0
210
0
220
0
230
1
0
LINE
5
166
100
AcDbEntity
8
1
62
256
6
ByLayer
370
13
48
1
60
0
100
AcDbLine
10
41
20
-26.325
30
0
11
146
21
-26.055
31
0
39
0
210
0
220
0
230
1
0
LINE
5
167
100
AcDbEntity
8
1
62
256
6
ByLayer
370
13
48
1
60
0
100
AcDbLine
10
289.874569
20
26.325
30
0
11
287.539169
21
26.325
31
0
39
0
210
0
220
0
230
1
0
LINE
5
168
100
AcDbEntity
8
1
62
256
6
ByLayer
370
13
48
1
60
0
100
AcDbLine
10
287.539169
20
26.325
30
0
11
284.539169
21
26.055
31
0
39
0
210
0
220
0
230
1
0
LINE
5
169
100
AcDbEntity
8
1
62
256
6
ByLayer
370
13
48
1
60
0
100
AcDbLine
10
284.539169
20
26.055
30
0
11
269.76481
21
26.055
31
0
39
0
210
0
220
0
230
1
0
LINE
5
16A
100
AcDbEntity
8
1
62
256
6
ByLayer
370
13
48
1
60
0
100
AcDbLine
10
176.90853
20
26.055
30
0
11
146
21
26.055
31
0
39
0
210
0
220
0
230
1
0
LINE
5
16B
100
AcDbEntity
8
1
62
256
6
ByLayer
370
13
48
1
60
0
100
AcDbLine
10
146
20
26.055
30
0
11
41
21
26.325
31
0
39
0
210
0
220
0
230
1
0
LINE
5
16C
100
AcDbEntity
8
1
62
256
6
ByLayer
370
13
48
1
60
0
100
AcDbLine
10
41
20
26.325
30
0
11
36
21
26.325
31
0
39
0
210
0
220
0
230
1
0
LINE
5
16D
100
AcDbEntity
8
1
62
256
6
ByLayer
370
13
48
1
60
0
100
AcDbLine
10
0.1
20
31.25
30
0
11
0
21
31.15
31
0
39
0
210
0
220
0
230
1
0
LINE
5
16E
100
AcDbEntity
8
1
62
256
6
ByLayer
370
13
48
1
60
0
100
AcDbLine
10
0.1
20
-31.25
30
0
11
5.6102
21
-31.25
31
0
39
0
210
0
220
0
230
1
0
LINE
5
16F
100
AcDbEntity
8
1
62
256
6
ByLayer
370
13
48
1
60
0
100
AcDbLine
10
0
20
-31.15
30
0
11
0.1
21
-31.25
31
0
39
0
210
0
220
0
230
1
0
LINE
5
170
100
AcDbEntity
8
1
62
256
6
ByLayer
370
13
48
1
60
0
100
AcDbLine
10
5.6102
20
31.25
30
0
11
0.1
21
31.25
31
0
39
0
210
0
220
0
230
1
0
LINE
5
171
100
AcDbEntity
8
81
62
256
6
ByLayer
370
18
48
1
60
0
100
AcDbLine
10
311
20
0
30
0
11
318
21
0
31
0
39
0
210
0
220
0
230
1
0
LINE
5
172
100
AcDbEntity
8
80
62
256
6
ByLayer
370
18
48
1
60
0
100
AcDbLine
10
0
20
0
30
0
11
-7
21
0
31
0
39
0
210
0
220
0
230
1
0
LINE
5
173
100
AcDbEntity
8
SK2
62
256
6
ByLayer
370
13
48
1
60
0
100
AcDbLine
10
-100.725
20
25
30
0
11
-100.725
21
-25
31
0
39
0
210
0
220
0
230
1
0
LINE
5
175
100
AcDbEntity
8
SK2
62
256
6
ByLayer
370
13
48
1
60
0
100
AcDbLine
10
-81.5875
20
-25
30
0
11
-103.9
21
-25
31
0
39
0
210
0
220
0
230
1
0
LINE
5
176
100
AcDbEntity
8
SK2
62
256
6
ByLayer
370
13
48
1
60
0
100
AcDbLine
10
-81.5875
20
25
30
0
11
-103.9
21
25
31
0
39
0
210
0
220
0
230
1
0
LINE
5
177
100
AcDbEntity
8
1
62
256
6
ByLayer
370
18
48
1
60
1
100
AcDbLine
10
-100.725
20
-25
30
0
11
-101.650575
21
-20.825003
31
0
39
0
210
0
220
0
230
1
0
LINE
5
178
100
AcDbEntity
8
1
62
256
6
ByLayer
370
18
48
1
60
1
100
AcDbLine
10
-101.650575
20
-20.825003
30
0
11
-99.799425
21
-20.824997
31
0
39
0
210
0
220
0
230
1
0
LINE
5
179
100
AcDbEntity
8
1
62
256
6
ByLayer
370
18
48
1
60
1
100
AcDbLine
10
-99.799425
20
-20.824997
30
0
11
-100.725
21
-25
31
0
39
0
210
0
220
0
230
1
0
LINE
5
17A
100
AcDbEntity
8
1
62
256
6
ByLayer
370
18
48
1
60
1
100
AcDbLine
10
-100.725
20
25
30
0
11
-99.799425
21
20.825003
31
0
39
0
210
0
220
0
230
1
0
LINE
5
17B
100
AcDbEntity
8
1
62
256
6
ByLayer
370
18
48
1
60
1
100
AcDbLine
10
-99.799425
20
20.825003
30
0
11
-101.650575
21
20.824997
31
0
39
0
210
0
220
0
230
1
0
LINE
5
17C
100
AcDbEntity
8
1
62
256
6
ByLayer
370
18
48
1
60
1
100
AcDbLine
10
-101.650575
20
20.824997
30
0
11
-100.725
21
25
31
0
39
0
210
0
220
0
230
1
0
LINE
5
17D
100
AcDbEntity
8
SK2
62
256
6
ByLayer
370
13
48
1
60
0
100
AcDbLine
10
-110.725
20
-31.25
30
0
11
-110.725
21
31.25
31
0
39
0
210
0
220
0
230
1
0
LINE
5
17E
100
AcDbEntity
8
SK2
62
256
6
ByLayer
370
13
48
1
60
0
100
AcDbLine
10
-1.5875
20
31.25
30
0
11
-113.9
21
31.25
31
0
39
0
210
0
220
0
230
1
0
LINE
5
17F
100
AcDbEntity
8
SK2
62
256
6
ByLayer
370
13
48
1
60
0
100
AcDbLine
10
-1.5875
20
-31.25
30
0
11
-113.9
21
-31.25
31
0
39
0
210
0
220
0
230
1
0
LINE
5
180
100
AcDbEntity
8
1
62
256
6
ByLayer
370
18
48
1
60
1
100
AcDbLine
10
-110.725
20
31.25
30
0
11
-109.799425
21
27.075003
31
0
39
0
210
0
220
0
230
1
0
LINE
5
181
100
AcDbEntity
8
1
62
256
6
ByLayer
370
18
48
1
60
1
100
AcDbLine
10
-109.799425
20
27.075003
30
0
11
-111.650575
21
27.074997
31
0
39
0
210
0
220
0
230
1
0
LINE
5
182
100
AcDbEntity
8
1
62
256
6
ByLayer
370
18
48
1
60
1
100
AcDbLine
10
-111.650575
20
27.074997
30
0
11
-110.725
21
31.25
31
0
39
0
210
0
220
0
230
1
0
LINE
5
183
100
AcDbEntity
8
1
62
256
6
ByLayer
370
18
48
1
60
1
100
AcDbLine
10
-110.725
20
-31.25
30
0
11
-111.650575
21
-27.075003
31
0
39
0
210
0
220
0
230
1
0
LINE
5
184
100
AcDbEntity
8
1
62
256
6
ByLayer
370
18
48
1
60
1
100
AcDbLine
10
-111.650575
20
-27.075003
30
0
11
-109.799425
21
-27.074997
31
0
39
0
210
0
220
0
230
1
0
LINE
5
185
100
AcDbEntity
8
1
62
256
6
ByLayer
370
18
48
1
60
1
100
AcDbLine
10
-109.799425
20
-27.074997
30
0
11
-110.725
21
-31.25
31
0
39
0
210
0
220
0
230
1
0
LINE
5
186
100
AcDbEntity
8
2
62
256
6
ByLayer
370
13
48
1
60
0
100
AcDbLine
10
337.975
20
27
30
0
11
337.975
21
-27
31
0
39
0
210
0
220
0
230
1
0
LINE
5
188
100
AcDbEntity
8
2
62
256
6
ByLayer
370
13
48
1
60
0
100
AcDbLine
10
312.5875
20
-27
30
0
11
341.15
21
-27
31
0
39
0
210
0
220
0
230
1
0
LINE
5
189
100
AcDbEntity
8
2
62
256
6
ByLayer
370
13
48
1
60
0
100
AcDbLine
10
312.5875
20
27
30
0
11
341.15
21
27
31
0
39
0
210
0
220
0
230
1
0
LINE
5
18A
100
AcDbEntity
8
1
62
256
6
ByLayer
370
18
48
1
60
1
100
AcDbLine
10
337.975
20
-27
30
0
11
337.049425
21
-22.825003
31
0
39
0
210
0
220
0
230
1
0
LINE
5
18B
100
AcDbEntity
8
1
62
256
6
ByLayer
370
18
48
1
60
1
100
AcDbLine
10
337.049425
20
-22.825003
30
0
11
338.900575
21
-22.824997
31
0
39
0
210
0
220
0
230
1
0
LINE
5
18C
100
AcDbEntity
8
1
62
256
6
ByLayer
370
18
48
1
60
1
100
AcDbLine
10
338.900575
20
-22.824997
30
0
11
337.975
21
-27
31
0
39
0
210
0
220
0
230
1
0
LINE
5
18D
100
AcDbEntity
8
1
62
256
6
ByLayer
370
18
48
1
60
1
100
AcDbLine
10
337.975
20
27
30
0
11
338.900575
21
22.825003
31
0
39
0
210
0
220
0
230
1
0
LINE
5
18E
100
AcDbEntity
8
1
62
256
6
ByLayer
370
18
48
1
60
1
100
AcDbLine
10
338.900575
20
22.825003
30
0
11
337.049425
21
22.824997
31
0
39
0
210
0
220
0
230
1
0
LINE
5
18F
100
AcDbEntity
8
1
62
256
6
ByLayer
370
18
48
1
60
1
100
AcDbLine
10
337.049425
20
22.824997
30
0
11
337.975
21
27
31
0
39
0
210
0
220
0
230
1
0
LINE
5
33B
100
AcDbEntity
8
1
62
256
6
ByLayer
370
18
48
1
60
1
100
AcDbLine
10
-100.725
20
-25
30
0
11
-101.650575
21
-20.825003
31
0
39
0
210
0
220
0
230
1
0
LINE
5
33C
100
AcDbEntity
8
1
62
256
6
ByLayer
370
18
48
1
60
1
100
AcDbLine
10
-101.650575
20
-20.825003
30
0
11
-99.799425
21
-20.824997
31
0
39
0
210
0
220
0
230
1
0
LINE
5
33D
100
AcDbEntity
8
1
62
256
6
ByLayer
370
18
48
1
60
1
100
AcDbLine
10
-99.799425
20
-20.824997
30
0
11
-100.725
21
-25
31
0
39
0
210
0
220
0
230
1
0
LINE
5
33F
100
AcDbEntity
8
1
62
256
6
ByLayer
370
18
48
1
60
1
100
AcDbLine
10
-100.725
20
25
30
0
11
-99.799425
21
20.825003
31
0
39
0
210
0
220
0
230
1
0
LINE
5
340
100
AcDbEntity
8
1
62
256
6
ByLayer
370
18
48
1
60
1
100
AcDbLine
10
-99.799425
20
20.825003
30
0
11
-101.650575
21
20.824997
31
0
39
0
210
0
220
0
230
1
0
LINE
5
341
100
AcDbEntity
8
1
62
256
6
ByLayer
370
18
48
1
60
1
100
AcDbLine
10
-101.650575
20
20.824997
30
0
11
-100.725
21
25
31
0
39
0
210
0
220
0
230
1
0
LINE
5
345
100
AcDbEntity
8
1
62
256
6
ByLayer
370
18
48
1
60
1
100
AcDbLine
10
-110.725
20
31.25
30
0
11
-109.799425
21
27.075003
31
0
39
0
210
0
220
0
230
1
0
LINE
5
346
100
AcDbEntity
8
1
62
256
6
ByLayer
370
18
48
1
60
1
100
AcDbLine
10
-109.799425
20
27.075003
30
0
11
-111.650575
21
27.074997
31
0
39
0
210
0
220
0
230
1
0
LINE
5
347
100
AcDbEntity
8
1
62
256
6
ByLayer
370
18
48
1
60
1
100
AcDbLine
10
-111.650575
20
27.074997
30
0
11
-110.725
21
31.25
31
0
39
0
210
0
220
0
230
1
0
LINE
5
349
100
AcDbEntity
8
1
62
256
6
ByLayer
370
18
48
1
60
1
100
AcDbLine
10
-110.725
20
-31.25
30
0
11
-111.650575
21
-27.075003
31
0
39
0
210
0
220
0
230
1
0
LINE
5
34A
100
AcDbEntity
8
1
62
256
6
ByLayer
370
18
48
1
60
1
100
AcDbLine
10
-111.650575
20
-27.075003
30
0
11
-109.799425
21
-27.074997
31
0
39
0
210
0
220
0
230
1
0
LINE
5
34B
100
AcDbEntity
8
1
62
256
6
ByLayer
370
18
48
1
60
1
100
AcDbLine
10
-109.799425
20
-27.074997
30
0
11
-110.725
21
-31.25
31
0
39
0
210
0
220
0
230
1
0
LINE
5
34F
100
AcDbEntity
8
1
62
256
6
ByLayer
370
18
48
1
60
1
100
AcDbLine
10
337.975
20
-27
30
0
11
337.049425
21
-22.825003
31
0
39
0
210
0
220
0
230
1
0
LINE
5
350
100
AcDbEntity
8
1
62
256
6
ByLayer
370
18
48
1
60
1
100
AcDbLine
10
337.049425
20
-22.825003
30
0
11
338.900575
21
-22.824997
31
0
39
0
210
0
220
0
230
1
0
LINE
5
351
100
AcDbEntity
8
1
62
256
6
ByLayer
370
18
48
1
60
1
100
AcDbLine
10
338.900575
20
-22.824997
30
0
11
337.975
21
-27
31
0
39
0
210
0
220
0
230
1
0
LINE
5
353
100
AcDbEntity
8
1
62
256
6
ByLayer
370
18
48
1
60
1
100
AcDbLine
10
337.975
20
27
30
0
11
338.900575
21
22.825003
31
0
39
0
210
0
220
0
230
1
0
LINE
5
354
100
AcDbEntity
8
1
62
256
6
ByLayer
370
18
48
1
60
1
100
AcDbLine
10
338.900575
20
22.825003
30
0
11
337.049425
21
22.824997
31
0
39
0
210
0
220
0
230
1
0
LINE
5
355
100
AcDbEntity
8
1
62
256
6
ByLayer
370
18
48
1
60
1
100
AcDbLine
10
337.049425
20
22.824997
30
0
11
337.975
21
27
31
0
39
0
210
0
220
0
230
1
0
MTEXT
5
337
100
AcDbEntity
8
SK2
62
256
6
ByLayer
370
18
48
1
60
0
100
AcDbMText
10
-102.736672
20
-6.949399
30
0
210
0
220
0
230
1
1
%%c
40
4.5
41
0
44
1.084337
50
90
71
7
72
5
7
iso_b_vert
0
MTEXT
5
33A
100
AcDbEntity
8
SK2
62
256
6
ByLayer
370
18
48
1
60
0
100
AcDbMText
10
-102.736672
20
4.265444
30
0
210
0
220
0
230
1
1
\W0.6740;50
40
4.5
41
0
44
1.084337
50
90
71
7
72
5
7
iso_b_vert
0
MTEXT
5
343
100
AcDbEntity
8
SK2
62
256
6
ByLayer
370
18
48
1
60
0
100
AcDbMText
10
-112.736672
20
-9.541655
30
0
210
0
220
0
230
1
1
%%c
40
4.5
41
0
44
1.084337
50
90
71
7
72
5
7
iso_b_vert
0
MTEXT
5
344
100
AcDbEntity
8
SK2
62
256
6
ByLayer
370
18
48
1
60
0
100
AcDbMText
10
-112.736672
20
1.673189
30
0
210
0
220
0
230
1
1
\W0.7346;62.5
40
4.5
41
0
44
1.084337
50
90
71
7
72
5
7
iso_b_vert
0
MTEXT
5
34D
100
AcDbEntity
8
2
62
256
6
ByLayer
370
18
48
1
60
0
100
AcDbMText
10
335.963328
20
-7.186314
30
0
210
0
220
0
230
1
1
%%c
40
4.5
41
0
44
1.084337
50
90
71
7
72
5
7
iso_b_vert
0
MTEXT
5
34E
100
AcDbEntity
8
2
62
256
6
ByLayer
370
18
48
1
60
0
100
AcDbMText
10
335.963328
20
4.02853
30
0
210
0
220
0
230
1
1
\W0.7167;54
40
4.5
41
0
44
1.084337
50
90
71
7
72
5
7
iso_b_vert
0
MTEXT
5
357
100
AcDbEntity
8
SK6
62
256
6
ByLayer
370
18
48
1
60
0
100
AcDbMText
10
9.308916
20
-94.592562
30
0
210
0
220
0
230
1
1
\W0.7723;DS20-D5400L50-05
40
3.5
41
0
44
1.084337
50
0
71
7
72
5
7
iso_b_vert
0
HATCH
5
33E
100
AcDbEntity
8
SK2
62
256
6
ByLayer
370
13
48
1
60
0
100
AcDbHatch
10
0
20
0
30
0
210
0
220
0
230
1
2
ANSI31
70
0
71
0
91
1
92
5
93
3
72
1
10
-100.725
20
-24.9999999999999
11
-101.650575216528
21
-20.8250033998275
72
1
10
-101.650575216528
20
-20.8250033998275
11
-99.7994247834721
21
-20.8249966001723
72
1
10
-99.7994247834721
20
-20.8249966001723
11
-100.725
21
-24.9999999999999
97
0
75
0
76
1
52
0
41
0.0062
77
0
78
1
53
45
43
0
44
0
45
-0.0139193969876572
46
0.0139193969876572
79
0
47
0
98
1
10
0
20
0
0
HATCH
5
342
100
AcDbEntity
8
SK2
62
256
6
ByLayer
370
13
48
1
60
0
100
AcDbHatch
10
0
20
0
30
0
210
0
220
0
230
1
2
ANSI31
70
0
71
0
91
1
92
5
93
3
72
1
10
-100.725
20
25.0000000000001
11
-99.7994247834721
21
20.8250033998277
72
1
10
-99.7994247834721
20
20.8250033998277
11
-101.650575216528
21
20.8249966001725
72
1
10
-101.650575216528
20
20.8249966001725
11
-100.725
21
25.0000000000001
97
0
75
0
76
1
52
0
41
0.0062
77
0
78
1
53
45
43
0
44
0
45
-0.0139193969876572
46
0.0139193969876572
79
0
47
0
98
1
10
0
20
0
0
HATCH
5
348
100
AcDbEntity
8
SK2
62
256
6
ByLayer
370
13
48
1
60
0
100
AcDbHatch
10
0
20
0
30
0
210
0
220
0
230
1
2
ANSI31
70
0
71
0
91
1
92
5
93
3
72
1
10
-110.725
20
31.25
11
-109.799424783472
21
27.0750033998276
72
1
10
-109.799424783472
20
27.0750033998276
11
-111.650575216528
21
27.0749966001724
72
1
10
-111.650575216528
20
27.0749966001724
11
-110.725
21
31.25
97
0
75
0
76
1
52
0
41
0.0062
77
0
78
1
53
45
43
0
44
0
45
-0.0139193969876572
46
0.0139193969876572
79
0
47
0
98
1
10
0
20
0
0
HATCH
5
34C
100
AcDbEntity
8
SK2
62
256
6
ByLayer
370
13
48
1
60
0
100
AcDbHatch
10
0
20
0
30
0
210
0
220
0
230
1
2
ANSI31
70
0
71
0
91
1
92
5
93
3
72
1
10
-110.725
20
-31.25
11
-111.650575216528
21
-27.0750033998276
72
1
10
-111.650575216528
20
-27.0750033998276
11
-109.799424783472
21
-27.0749966001724
72
1
10
-109.799424783472
20
-27.0749966001724
11
-110.725
21
-31.25
97
0
75
0
76
1
52
0
41
0.0062
77
0
78
1
53
45
43
0
44
0
45
-0.0139193969876572
46
0.0139193969876572
79
0
47
0
98
1
10
0
20
0
0
HATCH
5
352
100
AcDbEntity
8
2
62
256
6
ByLayer
370
13
48
1
60
0
100
AcDbHatch
10
0
20
0
30
0
210
0
220
0
230
1
2
ANSI31
70
0
71
0
91
1
92
5
93
3
72
1
10
337.975
20
-27.0000000000004
11
337.049424783472
21
-22.825003399828
72
1
10
337.049424783472
20
-22.825003399828
11
338.900575216528
21
-22.8249966001727
72
1
10
338.900575216528
20
-22.8249966001727
11
337.975
21
-27.0000000000004
97
0
75
0
76
1
52
0
41
0.0062
77
0
78
1
53
45
43
0
44
0
45
-0.0139193969876572
46
0.0139193969876572
79
0
47
0
98
1
10
0
20
0
0
HATCH
5
356
100
AcDbEntity
8
2
62
256
6
ByLayer
370
13
48
1
60
0
100
AcDbHatch
10
0
20
0
30
0
210
0
220
0
230
1
2
ANSI31
70
0
71
0
91
1
92
5
93
3
72
1
10
337.975
20
26.9999999999996
11
338.900575216528
21
22.8250033998272
72
1
10
338.900575216528
20
22.8250033998272
11
337.049424783472
21
22.824996600172
72
1
10
337.049424783472
20
22.824996600172
11
337.975
21
26.9999999999996
97
0
75
0
76
1
52
0
41
0.0062
77
0
78
1
53
45
43
0
44
0
45
-0.0139193969876572
46
0.0139193969876572
79
0
47
0
98
1
10
0
20
0
0
DIMENSION
5
35A
100
AcDbEntity
8
2
62
256
6
ByLayer
370
18
48
1
60
0
100
AcDbDimension
2
_U0
10
311
20
-80.1
30
0
11
155.5
21
-80.1
31
0
70
32
71
1
72
1
41
1
210
0
220
0
230
1
3
Standard
100
AcDbAlignedDimension
13
0
23
-31.25
33
0
14
311
24
-27
34
0
50
0
100
AcDbRotatedDimension
1001
ACAD
1000
DSTYLE
1002
{
1070
   371
1070
    13
1070
   372
1070
    13
1070
   170
1070
     0
1070
   144
1040
1.0
1070
   277
1070
     2
1070
   284
1070
     8
1070
   278
1070
    46
1070
   146
1040
0.777778
1070
   345
1005
16
1070
   347
1005
16
1070
   346
1005
16
1070
   344
1005
0
1070
   343
1005
0
1070
   172
1070
     1
1070
    76
1070
     0
1070
    75
1070
     0
1070
   282
1070
     0
1070
   281
1070
     0
1070
    71
1070
     0
1070
    74
1070
     0
1070
   279
1070
     0
1070
   173
1070
     1
1070
   340
1005
338
1070
   271
1070
     1
1070
   272
1070
     2
1070
    77
1070
     1
1070
    73
1070
     1
1070
   171
1070
     3
1070
   274
1070
     4
1070
   177
1070
   150
1070
   176
1070
     9
1070
   178
1070
    43
1070
    78
1070
     8
1070
    48
1040
-0.1
1070
    41
1040
4.175
1070
   147
1040
2.25
1070
    42
1040
1.5875
1070
    44
1040
3.175
1070
   140
1040
4.5
1002
}
1001
ACAD_DSTYLE_DIM_LINETYPE
1070
   380
1005
16
1001
ACAD_DSTYLE_DIM_EXT1_LINETYPE
1070
   381
1005
16
1001
ACAD_DSTYLE_DIM_EXT2_LINETYPE
1070
   382
1005
16
0
DIMENSION
5
373
100
AcDbEntity
8
SK2
62
256
6
ByLayer
370
18
48
1
60
0
100
AcDbDimension
2
_U1
10
0
20
-80.1
30
0
11
-40
21
-80.1
31
0
70
32
71
1
72
1
41
1
210
0
220
0
230
1
3
Standard
100
AcDbAlignedDimension
13
-80
23
-25
33
0
14
0
24
-31.25
34
0
50
0
100
AcDbRotatedDimension
1001
ACAD
1000
DSTYLE
1002
{
1070
   371
1070
    13
1070
   372
1070
    13
1070
   170
1070
     0
1070
   144
1040
1.0
1070
   277
1070
     2
1070
   284
1070
     8
1070
   278
1070
    46
1070
   146
1040
0.777778
1070
   345
1005
16
1070
   347
1005
16
1070
   346
1005
16
1070
   344
1005
0
1070
   343
1005
0
1070
   172
1070
     1
1070
    76
1070
     0
1070
    75
1070
     0
1070
   282
1070
     0
1070
   281
1070
     0
1070
    71
1070
     0
1070
    74
1070
     0
1070
   279
1070
     0
1070
   173
1070
     1
1070
   340
1005
338
1070
   271
1070
     1
1070
   272
1070
     2
1070
    77
1070
     1
1070
    73
1070
     1
1070
   171
1070
     3
1070
   274
1070
     4
1070
   177
1070
   150
1070
   176
1070
     9
1070
   178
1070
    43
1070
    78
1070
     8
1070
    48
1040
-0.1
1070
    41
1040
4.175
1070
   147
1040
2.25
1070
    42
1040
1.5875
1070
    44
1040
3.175
1070
   140
1040
4.5
1002
}
1001
ACAD_DSTYLE_DIM_LINETYPE
1070
   380
1005
16
1001
ACAD_DSTYLE_DIM_EXT1_LINETYPE
1070
   381
1005
16
1001
ACAD_DSTYLE_DIM_EXT2_LINETYPE
1070
   382
1005
16
0
DIMENSION
5
38B
100
AcDbEntity
8
SK2
62
256
6
ByLayer
370
18
48
1
60
0
100
AcDbDimension
2
_U2
10
6.1102
20
-70.1
30
0
11
158.5551
21
-70.1
31
0
70
32
71
1
72
1
41
1
210
0
220
0
230
1
3
Standard
100
AcDbAlignedDimension
13
311
23
-27
33
0
14
6.1102
24
-31.25
34
0
50
0
100
AcDbRotatedDimension
1001
ACAD
1000
DSTYLE
1002
{
1070
   371
1070
    13
1070
   372
1070
    13
1070
   170
1070
     0
1070
   144
1040
1.0
1070
   277
1070
     2
1070
   284
1070
     8
1070
   278
1070
    46
1070
   146
1040
0.777778
1070
   345
1005
16
1070
   347
1005
16
1070
   346
1005
16
1070
   344
1005
0
1070
   343
1005
0
1070
   172
1070
     1
1070
    76
1070
     0
1070
    75
1070
     0
1070
   282
1070
     0
1070
   281
1070
     0
1070
    71
1070
     0
1070
    74
1070
     0
1070
   279
1070
     0
1070
   173
1070
     1
1070
   340
1005
338
1070
   271
1070
     1
1070
   272
1070
     2
1070
    77
1070
     1
1070
    73
1070
     1
1070
   171
1070
     3
1070
   274
1070
     4
1070
   177
1070
   150
1070
   176
1070
     9
1070
   178
1070
    43
1070
    78
1070
     8
1070
    48
1040
-0.1
1070
    41
1040
4.175
1070
   147
1040
2.25
1070
    42
1040
1.5875
1070
    44
1040
3.175
1070
   140
1040
4.5
1002
}
1001
ACAD_DSTYLE_DIM_LINETYPE
1070
   380
1005
16
1001
ACAD_DSTYLE_DIM_EXT1_LINETYPE
1070
   381
1005
16
1001
ACAD_DSTYLE_DIM_EXT2_LINETYPE
1070
   382
1005
16
0
DIMENSION
5
3A3
100
AcDbEntity
8
SK2
62
256
6
ByLayer
370
18
48
1
60
0
100
AcDbDimension
2
_U3
10
311
20
-60.1
30
0
11
173.5
21
-60.1
31
0
70
32
71
1
72
1
41
1
210
0
220
0
230
1
3
Standard
100
AcDbAlignedDimension
13
36
23
-27
33
0
14
311
24
-27
34
0
50
0
100
AcDbRotatedDimension
1001
ACAD
1000
DSTYLE
1002
{
1070
   371
1070
    13
1070
   372
1070
    13
1070
   170
1070
     0
1070
   144
1040
1.0
1070
   277
1070
     2
1070
   284
1070
     8
1070
   278
1070
    46
1070
   146
1040
0.777778
1070
   345
1005
16
1070
   347
1005
16
1070
   346
1005
16
1070
   344
1005
0
1070
   343
1005
0
1070
   172
1070
     1
1070
    76
1070
     0
1070
    75
1070
     0
1070
   282
1070
     0
1070
   281
1070
     0
1070
    71
1070
     0
1070
    74
1070
     0
1070
   279
1070
     0
1070
   173
1070
     1
1070
   340
1005
338
1070
   271
1070
     1
1070
   272
1070
     2
1070
    77
1070
     1
1070
    73
1070
     1
1070
   171
1070
     3
1070
   274
1070
     4
1070
   177
1070
   150
1070
   176
1070
     9
1070
   178
1070
    43
1070
    78
1070
     8
1070
    48
1040
-0.1
1070
    41
1040
4.175
1070
   147
1040
2.25
1070
    42
1040
1.5875
1070
    44
1040
3.175
1070
   140
1040
4.5
1002
}
1001
ACAD_DSTYLE_DIM_LINETYPE
1070
   380
1005
16
1001
ACAD_DSTYLE_DIM_EXT1_LINETYPE
1070
   381
1005
16
1001
ACAD_DSTYLE_DIM_EXT2_LINETYPE
1070
   382
1005
16
0
DIMENSION
5
3BB
100
AcDbEntity
8
2
62
256
6
ByLayer
370
18
48
1
60
0
100
AcDbDimension
2
_U4
10
311
20
-50.1
30
0
11
332.922321
21
-50.1
31
0
70
32
71
1
72
1
41
1
210
0
220
0
230
1
3
Standard
100
AcDbAlignedDimension
13
309.4109
23
-13.5
33
0
14
311
24
0
34
0
50
0
100
AcDbRotatedDimension
1001
ACAD
1000
DSTYLE
1002
{
1070
   371
1070
    13
1070
   372
1070
    13
1070
   170
1070
     0
1070
   144
1040
1.0
1070
   277
1070
     2
1070
   284
1070
     8
1070
   278
1070
    46
1070
   146
1040
0.777778
1070
   345
1005
16
1070
   347
1005
16
1070
   346
1005
16
1070
   344
1005
0
1070
   343
1005
0
1070
   172
1070
     1
1070
    76
1070
     0
1070
    75
1070
     0
1070
   282
1070
     0
1070
   281
1070
     0
1070
    71
1070
     0
1070
    74
1070
     0
1070
   279
1070
     0
1070
   173
1070
     1
1070
   340
1005
338
1070
   271
1070
     2
1070
   272
1070
     2
1070
    77
1070
     1
1070
    73
1070
     1
1070
   171
1070
     3
1070
   274
1070
     4
1070
   177
1070
   150
1070
   176
1070
     9
1070
   178
1070
    43
1070
    78
1070
     8
1070
    48
1040
-0.1
1070
    41
1040
4.175
1070
   147
1040
2.25
1070
    42
1040
1.5875
1070
    44
1040
3.175
1070
   140
1040
4.5
1002
}
1001
ACAD_DSTYLE_DIM_LINETYPE
1070
   380
1005
16
1001
ACAD_DSTYLE_DIM_EXT1_LINETYPE
1070
   381
1005
16
1001
ACAD_DSTYLE_DIM_EXT2_LINETYPE
1070
   382
1005
16
0
ENDSEC
0
SECTION
2
OBJECTS
0
DICTIONARY
5
445
330
0
100
AcDbDictionary
280
0
281
1
3
ACAD_GROUP
350
446
3
ACAD_MLINESTYLE
350
447
0
DICTIONARY
5
446
330
0
100
AcDbDictionary
280
0
281
1
0
DICTIONARY
5
447
330
0
100
AcDbDictionary
280
0
281
1
3
Standard
350
18
0
MLINESTYLE
5
18
330
447
100
AcDbMlineStyle
2
Standard
70
0
3

62
256
51
90
52
90
71
2
49
-0.5
62
256
6
ByLayer
49
0.5
62
256
6
ByLayer
0
RASTERVARIABLES
5
433
330

100
AcDbRasterVariables
90
0
70
1
71
1
72
1
0
ENDSEC
0
EOF
