0
SECTION
2
HEADER
9
$ACADVER
1
AC1015
9
$DWGCODEPAGE
3
ANSI_1252
9
$HANDSEED
5
458
9
$ANGBASE
50
0
9
$ANGDIR
70
0
9
$ATTMODE
70
1
9
$AUNITS
70
0
9
$AUPREC
70
0
9
$CECOLOR
62
256
9
$CELTSCALE
40
1
9
$CELTYPE
6
ByLayer
9
$CELWEIGHT
370
18
9
$CLAYER
8
0
9
$CMLJUST
70
0
9
$CMLSCALE
40
1
9
$CMLSTYLE
2
Standard
9
$DIMSTYLE
2
Standard
9
$TEXTSIZE
40
0.2
9
$TEXTSTYLE
7
Standard
9
$LUNITS
70
2
9
$LUPREC
70
4
9
$EXTNAMES
290
1
9
$INSUNITS
70
4
9
$LTSCALE
40
1
9
$LWDISPLAY
290
1
9
$PDMODE
70
0
9
$PDSIZE
40
0
9
$PLINEGEN
70
0
0
ENDSEC
0
SECTION
2
CLASSES
0
CLASS
1
RASTERVARIABLES
2
AcDbRasterVariables
3
ISM
90
0
280
0
281
0
0
ENDSEC
0
SECTION
2
TABLES
0
TABLE
2
VPORT
5
44e
100
AcDbSymbolTable
0
VPORT
5
1
100
AcDbSymbolTableRecord
100
AcDbViewportTableRecord
2
*Active
70
0
10
0
20
0
11
1
21
1
12
-1
22
1
13
0
23
0
14
0.5
24
0.5
15
10
25
10
16
0
26
0
36
1
17
0
27
0
37
0
0
ENDTAB
0
TABLE
2
LTYPE
5
44f
100
AcDbSymbolTable
0
LTYPE
5
14
100
AcDbSymbolTableRecord
100
AcDbLinetypeTableRecord
70
0
2
ByBlock
3

72
65
73
0
40
0
0
LTYPE
5
15
100
AcDbSymbolTableRecord
100
AcDbLinetypeTableRecord
70
0
2
ByLayer
3

72
65
73
0
40
0
0
LTYPE
5
16
100
AcDbSymbolTableRecord
100
AcDbLinetypeTableRecord
70
0
2
Continuous
3
Solid line
72
65
73
0
40
0
0
LTYPE
5
6E
100
AcDbSymbolTableRecord
100
AcDbLinetypeTableRecord
70
0
2
CENTER
3
____ _ ____ _ ____ _ ____
72
65
73
4
40
47.5
49
22
74
0
49
-8.5
74
0
49
8.5
74
0
49
-8.5
74
0
0
LTYPE
5
6F
100
AcDbSymbolTableRecord
100
AcDbLinetypeTableRecord
70
0
2
DASHED
3
__ __ __ __ __ __ __ __ __
72
65
73
2
40
25.72
49
12.86
74
0
49
-12.86
74
0
0
ENDTAB
0
TABLE
2
LAYER
5
450
100
AcDbSymbolTable
0
LAYER
5
10
100
AcDbSymbolTableRecord
100
AcDbLayerTableRecord
2
0
70
0
62
7
6
Continuous
290
1
370
-3
390
0
0
LAYER
5
71
100
AcDbSymbolTableRecord
100
AcDbLayerTableRecord
2
1
70
0
62
4
6
Continuous
290
1
370
-3
390
0
0
LAYER
5
73
100
AcDbSymbolTableRecord
100
AcDbLayerTableRecord
2
80
70
0
62
-6
6
Continuous
290
1
370
-3
390
0
0
LAYER
5
75
100
AcDbSymbolTableRecord
100
AcDbLayerTableRecord
2
81
70
0
62
-3
6
Continuous
290
1
370
-3
390
0
0
LAYER
5
149
100
AcDbSymbolTableRecord
100
AcDbLayerTableRecord
2
4
70
0
62
-2
6
CENTER
290
1
370
-3
390
0
0
LAYER
5
184
100
AcDbSymbolTableRecord
100
AcDbLayerTableRecord
2
2
70
0
62
7
6
Continuous
290
1
370
-3
390
0
0
LAYER
5
363
100
AcDbSymbolTableRecord
100
AcDbLayerTableRecord
2
Defpoints
70
0
62
7
6
Continuous
290
0
370
-3
390
0
0
LAYER
5
43a
100
AcDbSymbolTableRecord
100
AcDbLayerTableRecord
2
SK1
70
0
62
4
6
Continuous
290
1
370
-3
390
0
0
LAYER
5
43b
100
AcDbSymbolTableRecord
100
AcDbLayerTableRecord
2
SK4
70
0
62
2
6
CENTER
290
1
370
-3
390
0
0
LAYER
5
43c
100
AcDbSymbolTableRecord
100
AcDbLayerTableRecord
2
SK2
70
0
62
7
6
Continuous
290
1
370
-3
390
0
0
LAYER
5
43d
100
AcDbSymbolTableRecord
100
AcDbLayerTableRecord
2
SK6
70
0
62
5
6
Continuous
290
1
370
-3
390
0
0
ENDTAB
0
TABLE
2
STYLE
5
451
100
AcDbSymbolTable
0
STYLE
5
11
100
AcDbSymbolTableRecord
100
AcDbTextStyleTableRecord
2
Standard
3
txt
70
0
71
0
40
0
41
1
42
0
50
0
0
STYLE
5
33E
100
AcDbSymbolTableRecord
100
AcDbTextStyleTableRecord
2
iso_b_vert
3
simplex.shx
70
0
71
0
40
0
41
1
42
0
50
0
0
STYLE
5
33F
100
AcDbSymbolTableRecord
100
AcDbTextStyleTableRecord
2
DWGDirectTextStyle
3
simplex
70
0
71
0
40
0
41
1
42
0
50
0
0
ENDTAB
0
TABLE
2
DIMSTYLE
5
452
100
AcDbSymbolTable
100
AcDbDimStyleTable
0
DIMSTYLE
105
27
100
AcDbSymbolTableRecord
100
AcDbDimStyleTableRecord
2
Standard
70
0
3
<>
41
0.18
42
0.0625
44
0.18
140
0.18
147
0.09
73
0
74
0
77
1
271
2
275
0
278
52
280
0
340
11
0
ENDTAB
0
TABLE
2
VIEW
5
453
100
AcDbSymbolTable
0
ENDTAB
0
TABLE
2
UCS
5
454
100
AcDbSymbolTable
0
ENDTAB
0
TABLE
2
APPID
5
455
100
AcDbSymbolTable
0
APPID
5
12
100
AcDbSymbolTableRecord
100
AcDbRegAppTableRecord
2
ACAD
70
0
0
APPID
5
35F
100
AcDbSymbolTableRecord
100
AcDbRegAppTableRecord
2
ACAD_DSTYLE_DIMBREAK
70
0
0
APPID
5
3F9
100
AcDbSymbolTableRecord
100
AcDbRegAppTableRecord
2
ACAD_DSTYLE_DIM_LINETYPE
70
0
0
APPID
5
3FA
100
AcDbSymbolTableRecord
100
AcDbRegAppTableRecord
2
ACAD_DSTYLE_DIM_EXT1_LINETYPE
70
0
0
APPID
5
3FB
100
AcDbSymbolTableRecord
100
AcDbRegAppTableRecord
2
ACAD_DSTYLE_DIM_EXT2_LINETYPE
70
0
0
APPID
5
436
100
AcDbSymbolTableRecord
100
AcDbRegAppTableRecord
2
ACAD_MLEADERVER
70
0
0
ENDTAB
0
TABLE
2
BLOCK_RECORD
5
456
100
AcDbSymbolTable
0
BLOCK_RECORD
5
1F
100
AcDbSymbolTableRecord
100
AcDbBlockTableRecord
2
*Model_Space
340
0
70
0
0
BLOCK_RECORD
5
1B
100
AcDbSymbolTableRecord
100
AcDbBlockTableRecord
2
*Paper_Space
340
0
70
0
0
BLOCK_RECORD
5
23
100
AcDbSymbolTableRecord
100
AcDbBlockTableRecord
2
*Paper_Space0
340
0
70
0
0
BLOCK_RECORD
5
364
100
AcDbSymbolTableRecord
100
AcDbBlockTableRecord
2
*D1
340
0
70
0
0
BLOCK_RECORD
5
370
100
AcDbSymbolTableRecord
100
AcDbBlockTableRecord
2
_U0
340
0
70
0
0
BLOCK_RECORD
5
37C
100
AcDbSymbolTableRecord
100
AcDbBlockTableRecord
2
*D3
340
0
70
0
0
BLOCK_RECORD
5
388
100
AcDbSymbolTableRecord
100
AcDbBlockTableRecord
2
_U1
340
0
70
0
0
BLOCK_RECORD
5
394
100
AcDbSymbolTableRecord
100
AcDbBlockTableRecord
2
*D5
340
0
70
0
0
BLOCK_RECORD
5
3A0
100
AcDbSymbolTableRecord
100
AcDbBlockTableRecord
2
_U2
340
0
70
0
0
BLOCK_RECORD
5
3AC
100
AcDbSymbolTableRecord
100
AcDbBlockTableRecord
2
*D7
340
0
70
0
0
BLOCK_RECORD
5
3B8
100
AcDbSymbolTableRecord
100
AcDbBlockTableRecord
2
_U3
340
0
70
0
0
BLOCK_RECORD
5
3C4
100
AcDbSymbolTableRecord
100
AcDbBlockTableRecord
2
*D9
340
0
70
0
0
BLOCK_RECORD
5
3D2
100
AcDbSymbolTableRecord
100
AcDbBlockTableRecord
2
_U4
340
0
70
0
0
ENDTAB
0
ENDSEC
0
SECTION
2
BLOCKS
0
BLOCK
5
20
100
AcDbEntity
8
0
100
AcDbBlockBegin
2
*Model_Space
70
0
10
0
20
0
30
0
3
*Model_Space
0
ENDBLK
5
21
100
AcDbEntity
8
0
100
AcDbBlockEnd
0
BLOCK
5
1C
100
AcDbEntity
8
0
100
AcDbBlockBegin
2
*Paper_Space
70
0
10
0
20
0
30
0
3
*Paper_Space
0
ENDBLK
5
1D
100
AcDbEntity
8
0
100
AcDbBlockEnd
0
BLOCK
5
24
100
AcDbEntity
8
0
100
AcDbBlockBegin
2
*Paper_Space0
70
0
10
0
20
0
30
0
3
*Paper_Space0
0
ENDBLK
5
25
100
AcDbEntity
8
0
100
AcDbBlockEnd
0
BLOCK
5
365
100
AcDbEntity
8
0
100
AcDbBlockBegin
2
*D1
70
1
10
0
20
0
30
0
3
*D1
0
LINE
5
367
100
AcDbEntity
8
0
62
256
6
ByLayer
370
-2
48
1
60
0
100
AcDbLine
10
0
20
-32.8375
30
0
11
0
21
-83.275
31
0
39
0
210
0
220
0
230
1
0
LINE
5
368
100
AcDbEntity
8
0
62
256
6
ByLayer
370
-2
48
1
60
0
100
AcDbLine
10
257
20
-23.0875
30
0
11
257
21
-83.275
31
0
39
0
210
0
220
0
230
1
0
LINE
5
369
100
AcDbEntity
8
0
62
256
6
ByLayer
370
-2
48
1
60
0
100
AcDbLine
10
4.175
20
-80.1
30
0
11
252.825
21
-80.1
31
0
39
0
210
0
220
0
230
1
0
SOLID
5
36A
100
AcDbEntity
8
0
62
256
6
ByLayer
370
-1
48
1
60
0
100
AcDbTrace
10
4.175
20
-79.404167
30
0
11
4.175
21
-80.795833
31
0
12
0
22
-80.1
32
0
13
0
23
-80.1
33
0
39
0
210
0
220
0
230
1
0
SOLID
5
36B
100
AcDbEntity
8
0
62
256
6
ByLayer
370
-1
48
1
60
0
100
AcDbTrace
10
252.825
20
-80.795833
30
0
11
252.825
21
-79.404167
31
0
12
257
22
-80.1
32
0
13
257
23
-80.1
33
0
39
0
210
0
220
0
230
1
0
MTEXT
5
36C
100
AcDbEntity
8
0
62
256
6
ByLayer
370
18
48
1
60
0
100
AcDbMText
10
128.5
20
-70.70625
30
0
210
0
220
0
230
1
1
\A1;257
40
4.5
41
0
44
1
50
0
71
5
72
5
7
iso_b_vert
0
POINT
5
36D
100
AcDbEntity
8
Defpoints
62
0
6
ByLayer
370
-1
48
1
60
0
100
AcDbPoint
10
0
20
-31.25
30
0
39
0
210
0
220
0
230
1
50
360
0
POINT
5
36E
100
AcDbEntity
8
Defpoints
62
0
6
ByLayer
370
-1
48
1
60
0
100
AcDbPoint
10
257
20
-21.5
30
0
39
0
210
0
220
0
230
1
50
360
0
POINT
5
36F
100
AcDbEntity
8
Defpoints
62
0
6
ByLayer
370
-1
48
1
60
0
100
AcDbPoint
10
257
20
-80.1
30
0
39
0
210
0
220
0
230
1
50
360
0
ENDBLK
5
366
100
AcDbEntity
8
0
100
AcDbBlockEnd
0
BLOCK
5
377
100
AcDbEntity
8
0
100
AcDbBlockBegin
2
_U0
70
0
10
0
20
0
30
0
3
_U0
0
MTEXT
5
371
100
AcDbEntity
8
2
62
256
6
ByLayer
370
18
48
1
60
0
100
AcDbMText
10
124.369387
20
-78.772328
30
0
210
0
220
0
230
1
1
\W0.7138;257
40
4.5
41
0
44
1.084337
50
0
71
7
72
5
7
iso_b_vert
0
LINE
5
372
100
AcDbEntity
8
2
62
256
6
ByLayer
370
13
48
1
60
0
100
AcDbLine
10
0
20
-32.8375
30
0
11
0
21
-83.275
31
0
39
0
210
0
220
0
230
1
0
LINE
5
373
100
AcDbEntity
8
2
62
256
6
ByLayer
370
13
48
1
60
0
100
AcDbLine
10
257
20
-23.0875
30
0
11
257
21
-83.275
31
0
39
0
210
0
220
0
230
1
0
LINE
5
374
100
AcDbEntity
8
2
62
256
6
ByLayer
370
13
48
1
60
0
100
AcDbLine
10
0
20
-80.1
30
0
11
257
21
-80.1
31
0
39
0
210
0
220
0
230
1
0
SOLID
5
375
100
AcDbEntity
8
2
62
256
6
ByLayer
370
18
48
1
60
0
100
AcDbTrace
10
0
20
-80.1
30
0
11
4.174997
21
-79.174425
31
0
12
4.175003
22
-81.025575
32
0
13
4.175003
23
-81.025575
33
0
39
0
210
0
220
0
230
1
0
SOLID
5
376
100
AcDbEntity
8
2
62
256
6
ByLayer
370
18
48
1
60
0
100
AcDbTrace
10
257
20
-80.1
30
0
11
252.825003
21
-81.025575
31
0
12
252.824997
22
-79.174425
32
0
13
252.824997
23
-79.174425
33
0
39
0
210
0
220
0
230
1
0
ENDBLK
5
378
100
AcDbEntity
8
0
100
AcDbBlockEnd
0
BLOCK
5
37D
100
AcDbEntity
8
0
100
AcDbBlockBegin
2
*D3
70
1
10
0
20
0
30
0
3
*D3
0
LINE
5
37F
100
AcDbEntity
8
0
62
256
6
ByLayer
370
-2
48
1
60
0
100
AcDbLine
10
-80
20
-26.5875
30
0
11
-80
21
-83.275
31
0
39
0
210
0
220
0
230
1
0
LINE
5
380
100
AcDbEntity
8
0
62
256
6
ByLayer
370
-2
48
1
60
0
100
AcDbLine
10
0
20
-32.8375
30
0
11
0
21
-83.275
31
0
39
0
210
0
220
0
230
1
0
LINE
5
381
100
AcDbEntity
8
0
62
256
6
ByLayer
370
-2
48
1
60
0
100
AcDbLine
10
-75.825
20
-80.1
30
0
11
-4.175
21
-80.1
31
0
39
0
210
0
220
0
230
1
0
SOLID
5
382
100
AcDbEntity
8
0
62
256
6
ByLayer
370
-1
48
1
60
0
100
AcDbTrace
10
-75.825
20
-79.404167
30
0
11
-75.825
21
-80.795833
31
0
12
-80
22
-80.1
32
0
13
-80
23
-80.1
33
0
39
0
210
0
220
0
230
1
0
SOLID
5
383
100
AcDbEntity
8
0
62
256
6
ByLayer
370
-1
48
1
60
0
100
AcDbTrace
10
-4.175
20
-80.795833
30
0
11
-4.175
21
-79.404167
31
0
12
0
22
-80.1
32
0
13
0
23
-80.1
33
0
39
0
210
0
220
0
230
1
0
MTEXT
5
384
100
AcDbEntity
8
0
62
256
6
ByLayer
370
18
48
1
60
0
100
AcDbMText
10
-40
20
-70.70625
30
0
210
0
220
0
230
1
1
\A1;80
40
4.5
41
0
44
1
50
0
71
5
72
5
7
iso_b_vert
0
POINT
5
385
100
AcDbEntity
8
Defpoints
62
0
6
ByLayer
370
-1
48
1
60
0
100
AcDbPoint
10
-80
20
-25
30
0
39
0
210
0
220
0
230
1
50
360
0
POINT
5
386
100
AcDbEntity
8
Defpoints
62
0
6
ByLayer
370
-1
48
1
60
0
100
AcDbPoint
10
0
20
-31.25
30
0
39
0
210
0
220
0
230
1
50
360
0
POINT
5
387
100
AcDbEntity
8
Defpoints
62
0
6
ByLayer
370
-1
48
1
60
0
100
AcDbPoint
10
0
20
-80.1
30
0
39
0
210
0
220
0
230
1
50
360
0
ENDBLK
5
37E
100
AcDbEntity
8
0
100
AcDbBlockEnd
0
BLOCK
5
38F
100
AcDbEntity
8
0
100
AcDbBlockBegin
2
_U1
70
0
10
0
20
0
30
0
3
_U1
0
MTEXT
5
389
100
AcDbEntity
8
SK2
62
256
6
ByLayer
370
18
48
1
60
0
100
AcDbMText
10
-42.449242
20
-78.772328
30
0
210
0
220
0
230
1
1
\W0.6740;80
40
4.5
41
0
44
1.084337
50
0
71
7
72
5
7
iso_b_vert
0
LINE
5
38A
100
AcDbEntity
8
SK2
62
256
6
ByLayer
370
13
48
1
60
0
100
AcDbLine
10
-80
20
-26.5875
30
0
11
-80
21
-83.275
31
0
39
0
210
0
220
0
230
1
0
LINE
5
38B
100
AcDbEntity
8
SK2
62
256
6
ByLayer
370
13
48
1
60
0
100
AcDbLine
10
0
20
-32.8375
30
0
11
0
21
-83.275
31
0
39
0
210
0
220
0
230
1
0
LINE
5
38C
100
AcDbEntity
8
SK2
62
256
6
ByLayer
370
13
48
1
60
0
100
AcDbLine
10
-80
20
-80.1
30
0
11
0
21
-80.1
31
0
39
0
210
0
220
0
230
1
0
SOLID
5
38D
100
AcDbEntity
8
SK2
62
256
6
ByLayer
370
18
48
1
60
0
100
AcDbTrace
10
-80
20
-80.1
30
0
11
-75.825003
21
-79.174425
31
0
12
-75.824997
22
-81.025575
32
0
13
-75.824997
23
-81.025575
33
0
39
0
210
0
220
0
230
1
0
SOLID
5
38E
100
AcDbEntity
8
SK2
62
256
6
ByLayer
370
18
48
1
60
0
100
AcDbTrace
10
0
20
-80.1
30
0
11
-4.174997
21
-81.025575
31
0
12
-4.175003
22
-79.174425
32
0
13
-4.175003
23
-79.174425
33
0
39
0
210
0
220
0
230
1
0
ENDBLK
5
390
100
AcDbEntity
8
0
100
AcDbBlockEnd
0
BLOCK
5
395
100
AcDbEntity
8
0
100
AcDbBlockBegin
2
*D5
70
1
10
0
20
0
30
0
3
*D5
0
LINE
5
397
100
AcDbEntity
8
0
62
256
6
ByLayer
370
-2
48
1
60
0
100
AcDbLine
10
257
20
-23.0875
30
0
11
257
21
-73.275
31
0
39
0
210
0
220
0
230
1
0
LINE
5
398
100
AcDbEntity
8
0
62
256
6
ByLayer
370
-2
48
1
60
0
100
AcDbLine
10
6.2518
20
-32.8375
30
0
11
6.2518
21
-73.275
31
0
39
0
210
0
220
0
230
1
0
LINE
5
399
100
AcDbEntity
8
0
62
256
6
ByLayer
370
-2
48
1
60
0
100
AcDbLine
10
252.825
20
-70.1
30
0
11
10.4268
21
-70.1
31
0
39
0
210
0
220
0
230
1
0
SOLID
5
39A
100
AcDbEntity
8
0
62
256
6
ByLayer
370
-1
48
1
60
0
100
AcDbTrace
10
252.825
20
-70.795833
30
0
11
252.825
21
-69.404167
31
0
12
257
22
-70.1
32
0
13
257
23
-70.1
33
0
39
0
210
0
220
0
230
1
0
SOLID
5
39B
100
AcDbEntity
8
0
62
256
6
ByLayer
370
-1
48
1
60
0
100
AcDbTrace
10
10.4268
20
-69.404167
30
0
11
10.4268
21
-70.795833
31
0
12
6.2518
22
-70.1
32
0
13
6.2518
23
-70.1
33
0
39
0
210
0
220
0
230
1
0
MTEXT
5
39C
100
AcDbEntity
8
0
62
256
6
ByLayer
370
18
48
1
60
0
100
AcDbMText
10
131.6259
20
-60.70625
30
0
210
0
220
0
230
1
1
\A1;250.7
40
4.5
41
0
44
1
50
0
71
5
72
5
7
iso_b_vert
0
POINT
5
39D
100
AcDbEntity
8
Defpoints
62
0
6
ByLayer
370
-1
48
1
60
0
100
AcDbPoint
10
257
20
-21.5
30
0
39
0
210
0
220
0
230
1
50
360
0
POINT
5
39E
100
AcDbEntity
8
Defpoints
62
0
6
ByLayer
370
-1
48
1
60
0
100
AcDbPoint
10
6.2518
20
-31.25
30
0
39
0
210
0
220
0
230
1
50
360
0
POINT
5
39F
100
AcDbEntity
8
Defpoints
62
0
6
ByLayer
370
-1
48
1
60
0
100
AcDbPoint
10
6.2518
20
-70.1
30
0
39
0
210
0
220
0
230
1
50
360
0
ENDBLK
5
396
100
AcDbEntity
8
0
100
AcDbBlockEnd
0
BLOCK
5
3A7
100
AcDbEntity
8
0
100
AcDbBlockBegin
2
_U2
70
0
10
0
20
0
30
0
3
_U2
0
MTEXT
5
3A1
100
AcDbEntity
8
SK2
62
256
6
ByLayer
370
18
48
1
60
0
100
AcDbMText
10
124.902344
20
-68.772328
30
0
210
0
220
0
230
1
1
\W0.7468;250.7
40
4.5
41
0
44
1.084337
50
0
71
7
72
5
7
iso_b_vert
0
LINE
5
3A2
100
AcDbEntity
8
SK2
62
256
6
ByLayer
370
13
48
1
60
0
100
AcDbLine
10
257
20
-23.0875
30
0
11
257
21
-73.275
31
0
39
0
210
0
220
0
230
1
0
LINE
5
3A3
100
AcDbEntity
8
SK2
62
256
6
ByLayer
370
13
48
1
60
0
100
AcDbLine
10
6.2518
20
-32.8375
30
0
11
6.2518
21
-73.275
31
0
39
0
210
0
220
0
230
1
0
LINE
5
3A4
100
AcDbEntity
8
SK2
62
256
6
ByLayer
370
13
48
1
60
0
100
AcDbLine
10
257
20
-70.1
30
0
11
6.2518
21
-70.1
31
0
39
0
210
0
220
0
230
1
0
SOLID
5
3A5
100
AcDbEntity
8
SK2
62
256
6
ByLayer
370
18
48
1
60
0
100
AcDbTrace
10
257
20
-70.1
30
0
11
252.825003
21
-71.025575
31
0
12
252.824997
22
-69.174425
32
0
13
252.824997
23
-69.174425
33
0
39
0
210
0
220
0
230
1
0
SOLID
5
3A6
100
AcDbEntity
8
SK2
62
256
6
ByLayer
370
18
48
1
60
0
100
AcDbTrace
10
6.2518
20
-70.1
30
0
11
10.426797
21
-69.174425
31
0
12
10.426803
22
-71.025575
32
0
13
10.426803
23
-71.025575
33
0
39
0
210
0
220
0
230
1
0
ENDBLK
5
3A8
100
AcDbEntity
8
0
100
AcDbBlockEnd
0
BLOCK
5
3AD
100
AcDbEntity
8
0
100
AcDbBlockBegin
2
*D7
70
1
10
0
20
0
30
0
3
*D7
0
LINE
5
3AF
100
AcDbEntity
8
0
62
256
6
ByLayer
370
-2
48
1
60
0
100
AcDbLine
10
37
20
-23.0875
30
0
11
37
21
-63.275
31
0
39
0
210
0
220
0
230
1
0
LINE
5
3B0
100
AcDbEntity
8
0
62
256
6
ByLayer
370
-2
48
1
60
0
100
AcDbLine
10
257
20
-23.0875
30
0
11
257
21
-63.275
31
0
39
0
210
0
220
0
230
1
0
LINE
5
3B1
100
AcDbEntity
8
0
62
256
6
ByLayer
370
-2
48
1
60
0
100
AcDbLine
10
41.175
20
-60.1
30
0
11
252.825
21
-60.1
31
0
39
0
210
0
220
0
230
1
0
SOLID
5
3B2
100
AcDbEntity
8
0
62
256
6
ByLayer
370
-1
48
1
60
0
100
AcDbTrace
10
41.175
20
-59.404167
30
0
11
41.175
21
-60.795833
31
0
12
37
22
-60.1
32
0
13
37
23
-60.1
33
0
39
0
210
0
220
0
230
1
0
SOLID
5
3B3
100
AcDbEntity
8
0
62
256
6
ByLayer
370
-1
48
1
60
0
100
AcDbTrace
10
252.825
20
-60.795833
30
0
11
252.825
21
-59.404167
31
0
12
257
22
-60.1
32
0
13
257
23
-60.1
33
0
39
0
210
0
220
0
230
1
0
MTEXT
5
3B4
100
AcDbEntity
8
0
62
256
6
ByLayer
370
18
48
1
60
0
100
AcDbMText
10
147
20
-50.70625
30
0
210
0
220
0
230
1
1
\A1;220
40
4.5
41
0
44
1
50
0
71
5
72
5
7
iso_b_vert
0
POINT
5
3B5
100
AcDbEntity
8
Defpoints
62
0
6
ByLayer
370
-1
48
1
60
0
100
AcDbPoint
10
37
20
-21.5
30
0
39
0
210
0
220
0
230
1
50
360
0
POINT
5
3B6
100
AcDbEntity
8
Defpoints
62
0
6
ByLayer
370
-1
48
1
60
0
100
AcDbPoint
10
257
20
-21.5
30
0
39
0
210
0
220
0
230
1
50
360
0
POINT
5
3B7
100
AcDbEntity
8
Defpoints
62
0
6
ByLayer
370
-1
48
1
60
0
100
AcDbPoint
10
257
20
-60.1
30
0
39
0
210
0
220
0
230
1
50
360
0
ENDBLK
5
3AE
100
AcDbEntity
8
0
100
AcDbBlockEnd
0
BLOCK
5
3BF
100
AcDbEntity
8
0
100
AcDbBlockBegin
2
_U3
70
0
10
0
20
0
30
0
3
_U3
0
MTEXT
5
3B9
100
AcDbEntity
8
SK2
62
256
6
ByLayer
370
18
48
1
60
0
100
AcDbMText
10
142.869387
20
-58.772328
30
0
210
0
220
0
230
1
1
\W0.7138;220
40
4.5
41
0
44
1.084337
50
0
71
7
72
5
7
iso_b_vert
0
LINE
5
3BA
100
AcDbEntity
8
SK2
62
256
6
ByLayer
370
13
48
1
60
0
100
AcDbLine
10
37
20
-23.0875
30
0
11
37
21
-63.275
31
0
39
0
210
0
220
0
230
1
0
LINE
5
3BB
100
AcDbEntity
8
SK2
62
256
6
ByLayer
370
13
48
1
60
0
100
AcDbLine
10
257
20
-23.0875
30
0
11
257
21
-63.275
31
0
39
0
210
0
220
0
230
1
0
LINE
5
3BC
100
AcDbEntity
8
SK2
62
256
6
ByLayer
370
13
48
1
60
0
100
AcDbLine
10
37
20
-60.1
30
0
11
257
21
-60.1
31
0
39
0
210
0
220
0
230
1
0
SOLID
5
3BD
100
AcDbEntity
8
SK2
62
256
6
ByLayer
370
18
48
1
60
0
100
AcDbTrace
10
37
20
-60.1
30
0
11
41.174997
21
-59.174425
31
0
12
41.175003
22
-61.025575
32
0
13
41.175003
23
-61.025575
33
0
39
0
210
0
220
0
230
1
0
SOLID
5
3BE
100
AcDbEntity
8
SK2
62
256
6
ByLayer
370
18
48
1
60
0
100
AcDbTrace
10
257
20
-60.1
30
0
11
252.825003
21
-61.025575
31
0
12
252.824997
22
-59.174425
32
0
13
252.824997
23
-59.174425
33
0
39
0
210
0
220
0
230
1
0
ENDBLK
5
3C0
100
AcDbEntity
8
0
100
AcDbBlockEnd
0
BLOCK
5
3C5
100
AcDbEntity
8
0
100
AcDbBlockBegin
2
*D9
70
1
10
0
20
0
30
0
3
*D9
0
LINE
5
3C7
100
AcDbEntity
8
0
62
256
6
ByLayer
370
-2
48
1
60
0
100
AcDbLine
10
255.7234
20
-12.3375
30
0
11
255.7234
21
-53.275
31
0
39
0
210
0
220
0
230
1
0
LINE
5
3C8
100
AcDbEntity
8
0
62
256
6
ByLayer
370
-2
48
1
60
0
100
AcDbLine
10
257
20
-1.5875
30
0
11
257
21
-53.275
31
0
39
0
210
0
220
0
230
1
0
LINE
5
3C9
100
AcDbEntity
8
0
62
256
6
ByLayer
370
-2
48
1
60
0
100
AcDbLine
10
257
20
-50.1
30
0
11
292.708929
21
-50.1
31
0
39
0
210
0
220
0
230
1
0
LINE
5
3CA
100
AcDbEntity
8
0
62
256
6
ByLayer
370
-2
48
1
60
0
100
AcDbLine
10
251.5484
20
-50.1
30
0
11
247.3734
21
-50.1
31
0
39
0
210
0
220
0
230
1
0
LINE
5
3CB
100
AcDbEntity
8
0
62
256
6
ByLayer
370
-2
48
1
60
0
100
AcDbLine
10
261.175
20
-50.1
30
0
11
265.35
21
-50.1
31
0
39
0
210
0
220
0
230
1
0
SOLID
5
3CC
100
AcDbEntity
8
0
62
256
6
ByLayer
370
-1
48
1
60
0
100
AcDbTrace
10
251.5484
20
-50.795833
30
0
11
251.5484
21
-49.404167
31
0
12
255.7234
22
-50.1
32
0
13
255.7234
23
-50.1
33
0
39
0
210
0
220
0
230
1
0
SOLID
5
3CD
100
AcDbEntity
8
0
62
256
6
ByLayer
370
-1
48
1
60
0
100
AcDbTrace
10
261.175
20
-49.404167
30
0
11
261.175
21
-50.795833
31
0
12
257
22
-50.1
32
0
13
257
23
-50.1
33
0
39
0
210
0
220
0
230
1
0
MTEXT
5
3CE
100
AcDbEntity
8
0
62
256
6
ByLayer
370
18
48
1
60
0
100
AcDbMText
10
279.029464
20
-40.70625
30
0
210
0
220
0
230
1
1
\A1;1.28
40
4.5
41
0
44
1
50
0
71
5
72
5
7
iso_b_vert
0
POINT
5
3CF
100
AcDbEntity
8
Defpoints
62
0
6
ByLayer
370
-1
48
1
60
0
100
AcDbPoint
10
255.7234
20
-10.75
30
0
39
0
210
0
220
0
230
1
50
360
0
POINT
5
3D0
100
AcDbEntity
8
Defpoints
62
0
6
ByLayer
370
-1
48
1
60
0
100
AcDbPoint
10
257
20
0
30
0
39
0
210
0
220
0
230
1
50
360
0
POINT
5
3D1
100
AcDbEntity
8
Defpoints
62
0
6
ByLayer
370
-1
48
1
60
0
100
AcDbPoint
10
257
20
-50.1
30
0
39
0
210
0
220
0
230
1
50
360
0
ENDBLK
5
3C6
100
AcDbEntity
8
0
100
AcDbBlockEnd
0
BLOCK
5
3D9
100
AcDbEntity
8
0
100
AcDbBlockBegin
2
_U4
70
0
10
0
20
0
30
0
3
_U4
0
MTEXT
5
3D3
100
AcDbEntity
8
2
62
256
6
ByLayer
370
18
48
1
60
0
100
AcDbMText
10
269.351
20
-48.772328
30
0
210
0
220
0
230
1
1
\W0.6563;1.28
40
4.5
41
0
44
1.084337
50
0
71
7
72
5
7
iso_b_vert
0
LINE
5
3D4
100
AcDbEntity
8
2
62
256
6
ByLayer
370
13
48
1
60
0
100
AcDbLine
10
255.7234
20
-12.3375
30
0
11
255.7234
21
-53.275
31
0
39
0
210
0
220
0
230
1
0
LINE
5
3D5
100
AcDbEntity
8
2
62
256
6
ByLayer
370
13
48
1
60
0
100
AcDbLine
10
257
20
-1.5875
30
0
11
257
21
-53.275
31
0
39
0
210
0
220
0
230
1
0
LINE
5
3D6
100
AcDbEntity
8
2
62
256
6
ByLayer
370
13
48
1
60
0
100
AcDbLine
10
278.549041
20
-50.1
30
0
11
244.4734
21
-50.1
31
0
39
0
210
0
220
0
230
1
0
SOLID
5
3D7
100
AcDbEntity
8
2
62
256
6
ByLayer
370
18
48
1
60
0
100
AcDbTrace
10
255.7234
20
-50.1
30
0
11
251.548403
21
-51.025575
31
0
12
251.548397
22
-49.174425
32
0
13
251.548397
23
-49.174425
33
0
39
0
210
0
220
0
230
1
0
SOLID
5
3D8
100
AcDbEntity
8
2
62
256
6
ByLayer
370
18
48
1
60
0
100
AcDbTrace
10
257
20
-50.1
30
0
11
261.174997
21
-49.174425
31
0
12
261.175003
22
-51.025575
32
0
13
261.175003
23
-51.025575
33
0
39
0
210
0
220
0
230
1
0
ENDBLK
5
3DA
100
AcDbEntity
8
0
100
AcDbBlockEnd
0
ENDSEC
0
SECTION
2
ENTITIES
0
ARC
5
18D
100
AcDbEntity
8
SK1
62
256
6
ByLayer
370
13
48
1
60
0
100
AcDbCircle
39
0
10
-77.894505
20
-25.396
30
0
40
0.799999999999979
210
0
220
0
230
1
100
AcDbArc
50
70.982
51
141
0
ARC
5
18E
100
AcDbEntity
8
SK1
62
256
6
ByLayer
370
13
48
1
60
0
100
AcDbCircle
39
0
10
-77.894505
20
25.396
30
0
40
0.799999999999979
210
0
220
0
230
1
100
AcDbArc
50
219
51
289.018
0
ARC
5
18F
100
AcDbEntity
8
SK1
62
256
6
ByLayer
370
13
48
1
60
0
100
AcDbCircle
39
0
10
-0.15
20
25.146
30
0
40
0.399999999999999
210
0
220
0
230
1
100
AcDbArc
50
270
51
292.024313
0
ARC
5
190
100
AcDbEntity
8
SK1
62
256
6
ByLayer
370
13
48
1
60
0
100
AcDbCircle
39
0
10
-0.15
20
-25.146
30
0
40
0.399999999999999
210
0
220
0
230
1
100
AcDbArc
50
67.975687
51
90
0
ARC
5
191
100
AcDbEntity
8
SK1
62
256
6
ByLayer
370
13
48
1
60
0
100
AcDbCircle
39
0
10
-1.375195
20
25.146
30
0
40
0.400000000000004
210
0
220
0
230
1
100
AcDbArc
50
245
51
270
0
ARC
5
192
100
AcDbEntity
8
SK1
62
256
6
ByLayer
370
13
48
1
60
0
100
AcDbCircle
39
0
10
-1.375195
20
-25.146
30
0
40
0.400000000000004
210
0
220
0
230
1
100
AcDbArc
50
90
51
115
0
ARC
5
193
100
AcDbEntity
8
1
62
256
6
ByLayer
370
13
48
1
60
0
100
AcDbCircle
39
0
10
253.546286
20
20.004292
30
0
40
0.2
210
0
220
0
230
1
100
AcDbArc
50
8.974534
51
93
0
ARC
5
194
100
AcDbEntity
8
1
62
256
6
ByLayer
370
13
48
1
60
0
100
AcDbCircle
39
0
10
253.692333
20
7.183193
30
0
40
0.2
210
0
220
0
230
1
100
AcDbArc
50
273
51
352.543899
0
ARC
5
195
100
AcDbEntity
8
1
62
256
6
ByLayer
370
13
48
1
60
0
100
AcDbCircle
39
0
10
240.925347
20
19.108288
30
0
40
0.2
210
0
220
0
230
1
100
AcDbArc
50
76.847115
51
93
0
ARC
5
196
100
AcDbEntity
8
1
62
256
6
ByLayer
370
13
48
1
60
0
100
AcDbCircle
39
0
10
241.071393
20
6.287189
30
0
40
0.2
210
0
220
0
230
1
100
AcDbArc
50
273
51
304.880681
0
ELLIPSE
5
197
100
AcDbEntity
8
1
62
256
6
ByLayer
370
18
48
1
60
0
100
AcDbEllipse
10
246.331902
20
14.380966
30
0
11
-0.328810806110979
21
-0.214953577526574
31
0
210
0
220
0
230
1
40
0.490768
41
2.94329838355339
42
-2.46819100314307
0
ELLIPSE
5
198
100
AcDbEntity
8
1
62
256
6
ByLayer
370
18
48
1
60
0
100
AcDbEllipse
10
247.136653
20
13.136716
30
0
11
-0.067529084340268
21
1.28853168869383
31
0
210
0
220
0
230
1
40
0.995725
41
-3.03890209425327
42
-2.09439510239319
0
ELLIPSE
5
199
100
AcDbEntity
8
1
62
256
6
ByLayer
370
18
48
1
60
0
100
AcDbEllipse
10
247.214283
20
11.655449
30
0
11
-0.39187731229375
21
-0.0205374196884976
31
0
210
0
220
0
230
1
40
0.491826
41
-1.5707963267949
42
-0.28893290093408
0
ELLIPSE
5
19A
100
AcDbEntity
8
1
62
256
6
ByLayer
370
18
48
1
60
0
100
AcDbEllipse
10
247.281937
20
13.14433
30
0
11
0.0877359970456743
21
-1.67410255206257
31
0
210
0
220
0
230
1
40
0.995725
41
2.61799387799148
42
-2.6179938779915
0
ELLIPSE
5
19B
100
AcDbEntity
8
1
62
256
6
ByLayer
370
18
48
1
60
0
100
AcDbEllipse
10
247.281937
20
13.14433
30
0
11
0.0877359970456743
21
-1.67410255206257
31
0
210
0
220
0
230
1
40
0.995725
41
1.5707963267949
42
2.61799387799147
0
ELLIPSE
5
19C
100
AcDbEntity
8
1
62
256
6
ByLayer
370
18
48
1
60
0
100
AcDbEllipse
10
247.941404
20
11.892467
30
0
11
-0.328810806111
21
-0.214953577526563
31
0
210
0
220
0
230
1
40
0.490768
41
0.673401308867814
42
-2.94809584056013
0
ELLIPSE
5
19D
100
AcDbEntity
8
1
62
256
6
ByLayer
370
18
48
1
60
0
100
AcDbEllipse
10
247.281937
20
13.14433
30
0
11
0.0877359970456743
21
-1.67410255206257
31
0
210
0
220
0
230
1
40
0.995725
41
-1.5707963267949
42
-0.523598775598286
0
ELLIPSE
5
19E
100
AcDbEntity
8
1
62
256
6
ByLayer
370
18
48
1
60
0
100
AcDbEllipse
10
247.136653
20
13.136716
30
0
11
0.067529084340273
21
-1.28853168869383
31
0
210
0
220
0
230
1
40
0.995725
41
2.0943951023932
42
3.14159265358979
0
ELLIPSE
5
19F
100
AcDbEntity
8
1
62
256
6
ByLayer
370
18
48
1
60
0
100
AcDbEllipse
10
247.274632
20
13.143948
30
0
11
-0.149157475292384
21
2.84609417405054
31
0
210
0
220
0
230
1
40
0.995725
41
0
42
6.28318530717959
0
ELLIPSE
5
1A0
100
AcDbEntity
8
1
62
256
6
ByLayer
370
18
48
1
60
0
100
AcDbEllipse
10
247.281937
20
13.14433
30
0
11
0.0877359970456743
21
-1.67410255206257
31
0
210
0
220
0
230
1
40
0.995725
41
-2.6179938779915
42
-1.5707963267949
0
ELLIPSE
5
1A1
100
AcDbEntity
8
1
62
256
6
ByLayer
370
18
48
1
60
0
100
AcDbEllipse
10
248.611687
20
13.21402
30
0
11
-0.0206256003553236
21
0.393559899646769
31
0
210
0
220
0
230
1
40
0.48763
41
-2.94566969474578
42
-0.320422399685469
0
ELLIPSE
5
1A2
100
AcDbEntity
8
1
62
256
6
ByLayer
370
18
48
1
60
0
100
AcDbEllipse
10
248.375169
20
13.944292
30
0
11
-0.213416480926428
21
0.330813521390616
31
0
210
0
220
0
230
1
40
0.48867
41
1.57317835192321
42
2.85504177777722
0
ELLIPSE
5
1A3
100
AcDbEntity
8
1
62
256
6
ByLayer
370
18
48
1
60
0
100
AcDbEllipse
10
247.136653
20
13.136716
30
0
11
0.067529084340273
21
-1.28853168869383
31
0
210
0
220
0
230
1
40
0.995725
41
3.14159265358977
42
-2.34982975905695
0
ELLIPSE
5
1A4
100
AcDbEntity
8
1
62
256
6
ByLayer
370
18
48
1
60
0
100
AcDbEllipse
10
247.136653
20
13.136716
30
0
11
0.067529084340273
21
-1.28853168869383
31
0
210
0
220
0
230
1
40
0.995725
41
1.0471975511966
42
2.09439510239319
0
ELLIPSE
5
1A5
100
AcDbEntity
8
1
62
256
6
ByLayer
370
18
48
1
60
0
100
AcDbEllipse
10
247.281937
20
13.14433
30
0
11
-0.0942047212372956
21
1.79753316255823
31
0
210
0
220
0
230
1
40
0.995725
41
0
42
6.28318530717959
0
ELLIPSE
5
1A6
100
AcDbEntity
8
1
62
256
6
ByLayer
370
18
48
1
60
0
100
AcDbEllipse
10
247.136653
20
13.136716
30
0
11
0.067529084340273
21
-1.28853168869383
31
0
210
0
220
0
230
1
40
0.995725
41
-0.773927979467122
42
0
0
ELLIPSE
5
1A7
100
AcDbEntity
8
1
62
256
6
ByLayer
370
18
48
1
60
0
100
AcDbEllipse
10
248.375169
20
13.944292
30
0
11
-0.21341648092781
21
0.330813521388875
31
0
210
0
220
0
230
1
40
0.48867
41
0.291314926054745
42
1.57317835191115
0
ELLIPSE
5
1A8
100
AcDbEntity
8
1
62
256
6
ByLayer
370
18
48
1
60
0
100
AcDbEllipse
10
248.452799
20
12.463025
30
0
11
-0.177667934094693
21
-0.351309387091906
31
0
210
0
220
0
230
1
40
0.48867
41
-2.85504177777675
42
-1.57317835191751
0
ELLIPSE
5
1A9
100
AcDbEntity
8
1
62
256
6
ByLayer
370
18
48
1
60
0
100
AcDbEllipse
10
247.806936
20
14.45827
30
0
11
-0.349478313243821
21
0.179405951069352
31
0
210
0
220
0
230
1
40
0.490768
41
2.94809584056023
42
-0.625095735375696
0
ELLIPSE
5
1AA
100
AcDbEntity
8
1
62
256
6
ByLayer
370
18
48
1
60
0
100
AcDbEllipse
10
247.059023
20
14.617984
30
0
11
-0.391877312293394
21
-0.0205374196887426
31
0
210
0
220
0
230
1
40
0.491826
41
0.28893290093409
42
1.5707963267949
0
ELLIPSE
5
1AB
100
AcDbEntity
8
1
62
256
6
ByLayer
370
18
48
1
60
0
100
AcDbEllipse
10
248.452799
20
12.463025
30
0
11
-0.177667934094395
21
-0.35130938709111
31
0
210
0
220
0
230
1
40
0.48867
41
-1.5731783519173
42
-0.291314926055767
0
ELLIPSE
5
1AC
100
AcDbEntity
8
1
62
256
6
ByLayer
370
18
48
1
60
0
100
AcDbEllipse
10
247.281937
20
13.14433
30
0
11
0.0877359970456743
21
-1.67410255206257
31
0
210
0
220
0
230
1
40
0.995725
41
0.523598775598285
42
1.5707963267949
0
ELLIPSE
5
1AD
100
AcDbEntity
8
1
62
256
6
ByLayer
370
18
48
1
60
0
100
AcDbEllipse
10
246.46637
20
11.815163
30
0
11
-0.349478313243826
21
0.179405951069345
31
0
210
0
220
0
230
1
40
0.490768
41
2.51649656479998
42
-2.94329838355303
0
ELLIPSE
5
1AE
100
AcDbEntity
8
1
62
256
6
ByLayer
370
18
48
1
60
0
100
AcDbEllipse
10
247.208142
20
13.140463
30
0
11
-0.149157475292384
21
2.84609417405054
31
0
210
0
220
0
230
1
40
0.995725
41
9.25163458699469E-05
42
3.14158693516111
0
ELLIPSE
5
1AF
100
AcDbEntity
8
1
62
256
6
ByLayer
370
18
48
1
60
0
100
AcDbEllipse
10
247.136653
20
13.136716
30
0
11
0.067529084340273
21
-1.28853168869383
31
0
210
0
220
0
230
1
40
0.995725
41
-1.89415109854867
42
-1.23150380240864
0
ELLIPSE
5
1B0
100
AcDbEntity
8
1
62
256
6
ByLayer
370
18
48
1
60
0
100
AcDbEllipse
10
247.281937
20
13.14433
30
0
11
0.0877359970456743
21
-1.67410255206257
31
0
210
0
220
0
230
1
40
0.995725
41
-0.523598775598286
42
0.523598775598285
0
ELLIPSE
5
1B1
100
AcDbEntity
8
1
62
256
6
ByLayer
370
18
48
1
60
0
100
AcDbEllipse
10
248.204527
20
-6.020114
30
0
11
-1.5
21
1.51595858262354E-15
31
0
210
0
220
0
230
1
40
0.993321
41
-3.14159247143985
42
0
0
ELLIPSE
5
1B2
100
AcDbEntity
8
1
62
256
6
ByLayer
370
18
48
1
60
0
100
AcDbEllipse
10
248.204527
20
-6.020114
30
0
11
-1.5
21
1.51595858262354E-15
31
0
210
0
220
0
230
1
40
0.993321
41
0
42
0.488517476769337
0
ELLIPSE
5
1B3
100
AcDbEntity
8
1
62
256
6
ByLayer
370
18
48
1
60
0
100
AcDbEllipse
10
248.204527
20
-6.020114
30
0
11
-1.5
21
1.51595858262354E-15
31
0
210
0
220
0
230
1
40
0.993321
41
3.06138357306613
42
3.14159216459022
0
ELLIPSE
5
1B4
100
AcDbEntity
8
1
62
256
6
ByLayer
370
18
48
1
60
0
100
AcDbEllipse
10
248.204527
20
-6.077807
30
0
11
2
21
0
31
0
210
0
220
0
230
1
40
0.993321
41
0.407229169703197
42
3.08504436464818
0
ELLIPSE
5
1B5
100
AcDbEntity
8
1
62
256
6
ByLayer
370
18
48
1
60
0
100
AcDbEllipse
10
248.204527
20
-7.00438
30
0
11
-2.35000000000001
21
2.37500177944356E-15
31
0
210
0
220
0
230
1
40
0.993321
41
-0.577267658562605
42
-0.502360360885651
0
ELLIPSE
5
1B6
100
AcDbEntity
8
1
62
256
6
ByLayer
370
18
48
1
60
0
100
AcDbEllipse
10
248.204527
20
-6.890321
30
0
11
-2.35000000000001
21
2.37500177944356E-15
31
0
210
0
220
0
230
1
40
0.993321
41
-0.606523797138771
42
-0.455334854436812
0
ELLIPSE
5
1B7
100
AcDbEntity
8
1
62
256
6
ByLayer
370
13
48
1
60
0
100
AcDbEllipse
10
254.824885
20
12.525584
30
0
11
-0.457939617125742
21
8.73800842910253
31
0
210
0
220
0
230
1
40
0.995725
41
-0.0773624824591799
42
-0.0273572726604614
0
ELLIPSE
5
1B8
100
AcDbEntity
8
1
62
256
6
ByLayer
370
13
48
1
60
0
100
AcDbEllipse
10
253.692333
20
7.183193
30
0
11
-0.198308915233049
21
0.0259533069008846
31
0
210
0
220
0
230
1
40
0.016833
41
-3.14144018080929
42
-1.66175841710378
0
ELLIPSE
5
1B9
100
AcDbEntity
8
1
62
256
6
ByLayer
370
13
48
1
60
0
100
AcDbEllipse
10
255.027179
20
20.722879
30
0
11
-0.0287847759336192
21
0.549246244115039
31
0
210
0
220
0
230
1
40
0.995725
41
-1.46607657167527
42
-0.0773624824592461
0
ELLIPSE
5
1BA
100
AcDbEntity
8
1
62
256
6
ByLayer
370
13
48
1
60
0
100
AcDbEllipse
10
254.843333
20
12.526551
30
0
11
0.465790010562217
21
-8.88780285931571
31
0
210
0
220
0
230
1
40
0.995725
41
3.06423017113152
42
3.11423538093024
0
ELLIPSE
5
1BB
100
AcDbEntity
8
1
62
256
6
ByLayer
370
13
48
1
60
0
100
AcDbEllipse
10
252.323675
20
21.744982
30
0
11
0.107288710298038
21
-2.04719054624687
31
0
210
0
220
0
230
1
40
0.995725
41
0.773852857220281
42
1.26193471909891
0
ELLIPSE
5
1BC
100
AcDbEntity
8
1
62
256
6
ByLayer
370
13
48
1
60
0
100
AcDbEllipse
10
255.045628
20
20.723846
30
0
11
0.0366351693700632
21
-0.699040674328225
31
0
210
0
220
0
230
1
40
0.995725
41
1.67551608191541
42
3.06423017113146
0
ELLIPSE
5
1BD
100
AcDbEntity
8
1
62
256
6
ByLayer
370
13
48
1
60
0
100
AcDbEllipse
10
252.738288
20
5.093861
30
0
11
-1.40394107565595
21
-1.50837379632823
31
0
210
0
220
0
230
1
40
0.735668
41
2.56900210138671
42
-2.89202615041589
0
ELLIPSE
5
1BE
100
AcDbEntity
8
1
62
256
6
ByLayer
370
13
48
1
60
0
100
AcDbEllipse
10
252.660053
20
5.089761
30
0
11
0.0942047212373021
21
-1.79753316255823
31
0
210
0
220
0
230
1
40
0.995725
41
2.06210626450619
42
2.74715960225154
0
ELLIPSE
5
1BF
100
AcDbEntity
8
1
62
256
6
ByLayer
370
13
48
1
60
0
100
AcDbEllipse
10
239.553603
20
5.566668
30
0
11
-0.0287847759336192
21
0.549246244115039
31
0
210
0
220
0
230
1
40
0.995725
41
1.67551608191452
42
3.06423017113055
0
ELLIPSE
5
1C0
100
AcDbEntity
8
1
62
256
6
ByLayer
370
13
48
1
60
0
100
AcDbEllipse
10
240.643186
20
19.254586
30
0
11
0.00523359562429395
21
-0.0998629534754456
31
0
210
0
220
0
230
1
40
0.995725
41
1.38753675533517
42
-3.0368728984718
0
ELLIPSE
5
1C1
100
AcDbEntity
8
1
62
256
6
ByLayer
370
13
48
1
60
0
100
AcDbEllipse
10
254.532407
20
13.760207
30
0
11
0.197551554484215
21
0.0311990916673887
31
0
210
0
220
0
230
1
40
0.009655
41
-1.47879775232113
42
0.000129454949682411
0
ELLIPSE
5
1C2
100
AcDbEntity
8
1
62
256
6
ByLayer
370
13
48
1
60
0
100
AcDbEllipse
10
241.071393
20
6.287189
30
0
11
0.114373860316047
21
-0.164068949153718
31
0
210
0
220
0
230
1
40
0.07853
41
3.35013630437312E-05
42
1.52199123907642
0
ELLIPSE
5
1C3
100
AcDbEntity
8
1
62
256
6
ByLayer
370
13
48
1
60
0
100
AcDbEllipse
10
254.662904
20
19.524079
30
0
11
0.0994383168615969
21
-1.89739611603369
31
0
210
0
220
0
230
1
40
0.995725
41
3.11423538092947
42
3.1328660073298
0
ELLIPSE
5
1C4
100
AcDbEntity
8
1
62
256
6
ByLayer
370
13
48
1
60
0
100
AcDbEllipse
10
252.263888
20
21.741848
30
0
11
-1.59242934826064
21
-1.39349696569883
31
0
210
0
220
0
230
1
40
0.74335
41
1.15768450151496
42
1.97984155688974
0
ELLIPSE
5
1C5
100
AcDbEntity
8
1
62
256
6
ByLayer
370
13
48
1
60
0
100
AcDbEllipse
10
256.689692
20
13.795077
30
0
11
0.148163665863161
21
0.0233993187505415
31
0
210
0
220
0
230
1
40
0.009655
41
0.0919985744649635
42
1.66279490126875
0
ELLIPSE
5
1C6
100
AcDbEntity
8
1
62
256
6
ByLayer
370
13
48
1
60
0
100
AcDbEllipse
10
242.275556
20
4.545532
30
0
11
-0.0942047212372952
21
1.79753316255823
31
0
210
0
220
0
230
1
40
0.995725
41
0
42
1.26193471909803
0
ELLIPSE
5
1C7
100
AcDbEntity
8
1
62
256
6
ByLayer
370
13
48
1
60
0
100
AcDbEllipse
10
254.027931
20
7.096499
30
0
11
-0.042799317777509
21
-0.158580925153816
31
0
210
0
220
0
230
1
40
0.080206
41
-1.54458133968864
42
0.0262149871122023
0
ELLIPSE
5
1C8
100
AcDbEntity
8
1
62
256
6
ByLayer
370
13
48
1
60
0
100
AcDbEllipse
10
240.580523
20
19.194499
30
0
11
-0.157381426435178
21
-0.0466723701718244
31
0
210
0
220
0
230
1
40
0.019797
41
-3.05943361681382
42
-1.48863729026148
0
ELLIPSE
5
1C9
100
AcDbEntity
8
1
62
256
6
ByLayer
370
13
48
1
60
0
100
AcDbEllipse
10
240.580523
20
19.194499
30
0
11
-0.0427993177782847
21
-0.158580925156941
31
0
210
0
220
0
230
1
40
0.080206
41
-3.11537766647905
42
-1.54458133969988
0
ELLIPSE
5
1CA
100
AcDbEntity
8
1
62
256
6
ByLayer
370
13
48
1
60
0
100
AcDbEllipse
10
239.159874
20
20.432925
30
0
11
-0.300351321611546
21
0.18490088863079
31
0
210
0
220
0
230
1
40
0.479615
41
-1.8691605827732
42
-0.781758788887116
0
ELLIPSE
5
1CB
100
AcDbEntity
8
1
62
256
6
ByLayer
370
13
48
1
60
0
100
AcDbEllipse
10
252.342123
20
21.745948
30
0
11
-0.0942047212372952
21
1.79753316255823
31
0
210
0
220
0
230
1
40
0.995725
41
-3.141592653589
42
-1.87965793448994
0
ELLIPSE
5
1CC
100
AcDbEntity
8
1
62
256
6
ByLayer
370
13
48
1
60
0
100
AcDbEllipse
10
240.925347
20
19.108288
30
0
11
0.010467191248589
21
-0.199725906950915
31
0
210
0
220
0
230
1
40
0.995725
41
-3.14157313675581
42
-1.75405589825518
0
ELLIPSE
5
1CD
100
AcDbEntity
8
1
62
256
6
ByLayer
370
13
48
1
60
0
100
AcDbEllipse
10
255.874155
20
7.389756
30
0
11
-0.0235312926468162
21
0.148142763125203
31
0
210
0
220
0
230
1
40
0.091865
41
1.56109981837423
42
3.13189614513845
0
ELLIPSE
5
1CE
100
AcDbEntity
8
1
62
256
6
ByLayer
370
13
48
1
60
0
100
AcDbEllipse
10
255.880274
20
7.401803
30
0
11
-0.0435637040638975
21
-0.259139630108763
31
0
210
0
220
0
230
1
40
0.947521
41
0.308152981505134
42
1.60922962172301
0
ELLIPSE
5
1CF
100
AcDbEntity
8
1
62
256
6
ByLayer
370
13
48
1
60
0
100
AcDbEllipse
10
240.558545
20
12.608413
30
0
11
0.0444855628065039
21
-0.848835104541388
31
0
210
0
220
0
230
1
40
0.995725
41
-1.75405589825431
42
-1.46607657167529
0
ELLIPSE
5
1D0
100
AcDbEntity
8
1
62
256
6
ByLayer
370
13
48
1
60
0
100
AcDbEllipse
10
240.822528
20
5.918547
30
0
11
0.00523359562429529
21
-0.099862953475471
31
0
210
0
220
0
230
1
40
0.995725
41
0.761807904942773
42
1.67551608191389
0
ELLIPSE
5
1D1
100
AcDbEntity
8
1
62
256
6
ByLayer
370
13
48
1
60
0
100
AcDbEllipse
10
240.572381
20
12.609138
30
0
11
-0.0366351693700593
21
0.699040674328202
31
0
210
0
220
0
230
1
40
0.995725
41
1.38753675533548
42
1.67551608191451
0
ELLIPSE
5
1D2
100
AcDbEntity
8
1
62
256
6
ByLayer
370
13
48
1
60
0
100
AcDbEllipse
10
255.874155
20
7.389756
30
0
11
0.00785039343644175
21
-0.149794430213184
31
0
210
0
220
0
230
1
40
0.995725
41
0.104719755119132
42
1.38753675533528
0
ELLIPSE
5
1D3
100
AcDbEntity
8
1
62
256
6
ByLayer
370
13
48
1
60
0
100
AcDbEllipse
10
238.738912
20
18.901483
30
0
11
0.00785039343644175
21
-0.149794430213184
31
0
210
0
220
0
230
1
40
0.995725
41
-3.03687289847143
42
-1.75405589825528
0
ELLIPSE
5
1D4
100
AcDbEntity
8
1
62
256
6
ByLayer
370
13
48
1
60
0
100
AcDbEllipse
10
247.22396
20
13.141292
30
0
11
0.1560435070612
21
-2.97748748746713
31
0
210
0
220
0
230
1
40
0.995725
41
0
42
6.28318530717959
0
ELLIPSE
5
1D5
100
AcDbEntity
8
1
62
256
6
ByLayer
370
13
48
1
60
0
100
AcDbEllipse
10
254.667516
20
19.52432
30
0
11
0.0994383168615969
21
-1.89739611603369
31
0
210
0
220
0
230
1
40
0.995725
41
3.11423538093041
42
3.13286600733072
0
ELLIPSE
5
1D6
100
AcDbEntity
8
1
62
256
6
ByLayer
370
13
48
1
60
0
100
AcDbEllipse
10
242.270944
20
4.545291
30
0
11
-0.0994383168615895
21
1.89739611603369
31
0
210
0
220
0
230
1
40
0.995725
41
0.761807904943189
42
1.26193471909893
0
ELLIPSE
5
1D7
100
AcDbEntity
8
1
62
256
6
ByLayer
370
13
48
1
60
0
100
AcDbEllipse
10
254.312104
20
21.225188
30
0
11
0.145139532363171
21
-0.0378750068699667
31
0
210
0
220
0
230
1
40
0.028078
41
3.05344420153006
42
-1.6589447788559
0
ELLIPSE
5
1D8
100
AcDbEntity
8
1
62
256
6
ByLayer
370
13
48
1
60
0
100
AcDbEllipse
10
253.790539
20
20.372692
30
0
11
0.00523359562429529
21
-0.099862953475471
31
0
210
0
220
0
230
1
40
0.995725
41
-2.37978474864657
42
-1.46607657167391
0
ELLIPSE
5
1D9
100
AcDbEntity
8
1
62
256
6
ByLayer
370
13
48
1
60
0
100
AcDbEllipse
10
254.358082
20
21.262445
30
0
11
-0.0065372933506693
21
0.149857478277353
31
0
210
0
220
0
230
1
40
0.092367
41
0.000809536043732892
42
1.57160586284002
0
ELLIPSE
5
1DA
100
AcDbEntity
8
1
62
256
6
ByLayer
370
13
48
1
60
0
100
AcDbEllipse
10
239.026546
20
5.481476
30
0
11
-0.148163665863162
21
-0.0233993187505405
31
0
210
0
220
0
230
1
40
0.009655
41
-1.47879775232185
42
0.0919985744662022
0
ELLIPSE
5
1DB
100
AcDbEntity
8
1
62
256
6
ByLayer
370
13
48
1
60
0
100
AcDbEllipse
10
240.595442
20
12.610347
30
0
11
-0.026167978121471
21
0.499314767377288
31
0
210
0
220
0
230
1
40
0.995725
41
1.38753675533548
42
1.67551608191447
0
ELLIPSE
5
1DC
100
AcDbEntity
8
1
62
256
6
ByLayer
370
13
48
1
60
0
100
AcDbEllipse
10
241.071393
20
6.287189
30
0
11
0.010467191248589
21
-0.199725906950915
31
0
210
0
220
0
230
1
40
0.995725
41
-1.46607657167618
42
-1.72590778343192E-05
0
ELLIPSE
5
1DD
100
AcDbEntity
8
1
62
256
6
ByLayer
370
13
48
1
60
0
100
AcDbEllipse
10
240.576993
20
12.60938
30
0
11
0.036635169370062
21
-0.699040674328202
31
0
210
0
220
0
230
1
40
0.995725
41
-1.75405589825431
42
-1.46607657167528
0
ELLIPSE
5
1DE
100
AcDbEntity
8
1
62
256
6
ByLayer
370
13
48
1
60
0
100
AcDbEllipse
10
239.572052
20
5.567635
30
0
11
0.0366351693700632
21
-0.699040674328225
31
0
210
0
220
0
230
1
40
0.995725
41
-1.46607657167622
42
-0.0773624824601385
0
ELLIPSE
5
1DF
100
AcDbEntity
8
1
62
256
6
ByLayer
370
13
48
1
60
0
100
AcDbEllipse
10
253.546286
20
20.004292
30
0
11
0.010467191248589
21
-0.199725906950915
31
0
210
0
220
0
230
1
40
0.995725
41
3.14157394909831
42
-2.58708947813761
0
ELLIPSE
5
1E0
100
AcDbEntity
8
1
62
256
6
ByLayer
370
13
48
1
60
0
100
AcDbEllipse
10
242.257107
20
4.544566
30
0
11
0.107288710298038
21
-2.04719054624687
31
0
210
0
220
0
230
1
40
0.995725
41
-2.36773979636953
42
-1.87965793449088
0
ELLIPSE
5
1E1
100
AcDbEntity
8
1
62
256
6
ByLayer
370
13
48
1
60
0
100
AcDbEllipse
10
247.249051
20
13.142607
30
0
11
0.161488764830071
21
-3.08138919525492
31
0
210
0
220
0
230
1
40
0.995725
41
-0.853733431166158
42
0
0
ELLIPSE
5
1E2
100
AcDbEntity
8
1
62
256
6
ByLayer
370
13
48
1
60
0
100
AcDbEllipse
10
247.249051
20
13.142607
30
0
11
0.161488764830071
21
-3.08138919525492
31
0
210
0
220
0
230
1
40
0.995725
41
0
42
-2.2878705366073
0
ELLIPSE
5
1E3
100
AcDbEntity
8
1
62
256
6
ByLayer
370
13
48
1
60
0
100
AcDbEllipse
10
253.546286
20
20.004292
30
0
11
-0.114373860316045
21
0.16406894915372
31
0
210
0
220
0
230
1
40
0.07853
41
-1.61960141451323
42
-0.0488050877197375
0
ELLIPSE
5
1E4
100
AcDbEntity
8
1
62
256
6
ByLayer
370
13
48
1
60
0
100
AcDbEllipse
10
246.984095
20
19.342237
30
0
11
0.010467191248589
21
-0.199725906950915
31
0
210
0
220
0
230
1
40
0.092371
41
1.5707963267949
42
3.14159265358672
0
ELLIPSE
5
1E5
100
AcDbEntity
8
1
62
256
6
ByLayer
370
13
48
1
60
0
100
AcDbEllipse
10
256.134962
20
13.708435
30
0
11
-0.028784775933618
21
0.549246244115015
31
0
210
0
220
0
230
1
40
0.995725
41
-1.75405589825442
42
-1.46607657167532
0
ELLIPSE
5
1E6
100
AcDbEntity
8
1
62
256
6
ByLayer
370
13
48
1
60
0
100
AcDbEllipse
10
240.24819
20
5.078505
30
0
11
0.0104671912485892
21
-0.199725906950916
31
0
210
0
220
0
230
1
40
0.995725
41
0.011403566905498
42
1.26193471909889
0
ELLIPSE
5
1E7
100
AcDbEntity
8
1
62
256
6
ByLayer
370
13
48
1
60
0
100
AcDbEllipse
10
237.91667
20
12.653747
30
0
11
-0.148731686424787
21
0.0194649801756634
31
0
210
0
220
0
230
1
40
0.016833
41
0.263181912491081
42
1.47983423648447
0
ELLIPSE
5
1E8
100
AcDbEntity
8
1
62
256
6
ByLayer
370
13
48
1
60
0
100
AcDbEllipse
10
253.692333
20
7.183193
30
0
11
0.045510042190834
21
0.194753269702433
31
0
210
0
220
0
230
1
40
0.088753
41
-3.11589220190484
42
-1.54509587511456
0
ELLIPSE
5
1E9
100
AcDbEntity
8
1
62
256
6
ByLayer
370
13
48
1
60
0
100
AcDbEllipse
10
240.250373
20
5.028552
30
0
11
0.00653729335066879
21
-0.149857478277353
31
0
210
0
220
0
230
1
40
0.092367
41
-1.56998679074977
42
-0.023244076378733
0
ELLIPSE
5
1EA
100
AcDbEntity
8
1
62
256
6
ByLayer
370
13
48
1
60
0
100
AcDbEllipse
10
255.581909
20
20.809521
30
0
11
0.148163665863161
21
0.0233993187505415
31
0
210
0
220
0
230
1
40
0.009655
41
0.0919985744809805
42
1.66279490126864
0
ELLIPSE
5
1EB
100
AcDbEntity
8
1
62
256
6
ByLayer
370
13
48
1
60
0
100
AcDbEllipse
10
240.306759
20
5.064523
30
0
11
0.0127690523125592
21
-0.243648032548686
31
0
210
0
220
0
230
1
40
0.995725
41
0.17453292519846
42
1.26193471909784
0
ELLIPSE
5
1EC
100
AcDbEntity
8
1
62
256
6
ByLayer
370
13
48
1
60
0
100
AcDbEllipse
10
254.040686
20
13.682101
30
0
11
0.036635169370062
21
-0.699040674328202
31
0
210
0
220
0
230
1
40
0.995725
41
1.38753675533548
42
1.67551608191451
0
ELLIPSE
5
1ED
100
AcDbEntity
8
1
62
256
6
ByLayer
370
13
48
1
60
0
100
AcDbEllipse
10
254.022237
20
13.681134
30
0
11
0.0444855628065039
21
-0.848835104541388
31
0
210
0
220
0
230
1
40
0.995725
41
1.38753675533548
42
1.67551608191454
0
ELLIPSE
5
1EE
100
AcDbEntity
8
1
62
256
6
ByLayer
370
13
48
1
60
0
100
AcDbEllipse
10
255.425717
20
6.430407
30
0
11
-0.0435637040618389
21
-0.259139630109375
31
0
210
0
220
0
230
1
40
0.947521
41
0.308152981496899
42
1.2854243778005
0
ELLIPSE
5
1EF
100
AcDbEntity
8
1
62
256
6
ByLayer
370
13
48
1
60
0
100
AcDbEllipse
10
239.774346
20
13.76493
30
0
11
0.465790010562217
21
-8.88780285931571
31
0
210
0
220
0
230
1
40
0.995725
41
-0.0773624824600906
42
-0.0273572726613721
0
ELLIPSE
5
1F0
100
AcDbEntity
8
1
62
256
6
ByLayer
370
13
48
1
60
0
100
AcDbEllipse
10
239.989506
20
5.017476
30
0
11
0.00373239490690341
21
-0.149953556904326
31
0
210
0
220
0
230
1
40
0.092336
41
-1.56825879134052
42
-0.0414707750416721
0
ELLIPSE
5
1F1
100
AcDbEntity
8
1
62
256
6
ByLayer
370
13
48
1
60
0
100
AcDbEllipse
10
254.059135
20
13.683068
30
0
11
-0.026167978121471
21
0.499314767377288
31
0
210
0
220
0
230
1
40
0.995725
41
-1.75405589825431
42
-1.46607657167532
0
ELLIPSE
5
1F2
100
AcDbEntity
8
1
62
256
6
ByLayer
370
13
48
1
60
0
100
AcDbEllipse
10
239.755897
20
13.763963
30
0
11
-0.457939617125742
21
8.73800842910253
31
0
210
0
220
0
230
1
40
0.995725
41
3.06423017113061
42
3.11423538092932
0
ELLIPSE
5
1F3
100
AcDbEntity
8
1
62
256
6
ByLayer
370
13
48
1
60
0
100
AcDbEllipse
10
239.931715
20
6.766194
30
0
11
-0.0915879234251481
21
1.74760168582051
31
0
210
0
220
0
230
1
40
0.995725
41
3.11423538092946
42
3.13286600732977
0
ELLIPSE
5
1F4
100
AcDbEntity
8
1
62
256
6
ByLayer
370
13
48
1
60
0
100
AcDbEllipse
10
254.534309
20
13.616728
30
0
11
0.198308915233049
21
-0.0259533069008837
31
0
210
0
220
0
230
1
40
0.016833
41
0.000152472671805025
42
1.47983423648418
0
ELLIPSE
5
1F5
100
AcDbEntity
8
1
62
256
6
ByLayer
370
13
48
1
60
0
100
AcDbEllipse
10
240.925347
20
19.108288
30
0
11
-0.0455100421908507
21
-0.194753269702429
31
0
210
0
220
0
230
1
40
0.088753
41
1.59649677847495
42
-3.11589220191435
0
ELLIPSE
5
1F6
100
AcDbEntity
8
1
62
256
6
ByLayer
370
13
48
1
60
0
100
AcDbEllipse
10
239.950163
20
6.767161
30
0
11
0.0994383168615969
21
-1.89739611603369
31
0
210
0
220
0
230
1
40
0.995725
41
-0.0273572726611829
42
-0.00872664626087792
0
ELLIPSE
5
1F7
100
AcDbEntity
8
1
62
256
6
ByLayer
370
13
48
1
60
0
100
AcDbEllipse
10
254.649067
20
19.523353
30
0
11
-0.0915879234251481
21
1.74760168582051
31
0
210
0
220
0
230
1
40
0.995725
41
-0.0273572726603056
42
-0.00872664626000377
0
ELLIPSE
5
1F8
100
AcDbEntity
8
1
62
256
6
ByLayer
370
13
48
1
60
0
100
AcDbEllipse
10
241.404162
20
21.172714
30
0
11
-0.0942047212372957
21
1.79753316255824
31
0
210
0
220
0
230
1
40
0.995725
41
2.74104825906045
42
3.14159265358892
0
ELLIPSE
5
1F9
100
AcDbEntity
8
1
62
256
6
ByLayer
370
13
48
1
60
0
100
AcDbEllipse
10
254.364877
20
21.212734
30
0
11
0.0104671912485892
21
-0.199725906950916
31
0
210
0
220
0
230
1
40
0.995725
41
3.13286600733181
42
-1.87965793449001
0
ELLIPSE
5
1FA
100
AcDbEntity
8
1
62
256
6
ByLayer
370
13
48
1
60
0
100
AcDbEllipse
10
240.252802
20
5.078746
30
0
11
0.0104671912485892
21
-0.199725906950916
31
0
210
0
220
0
230
1
40
0.995725
41
-0.00872664625955608
42
1.261934719098
0
ELLIPSE
5
1FB
100
AcDbEntity
8
1
62
256
6
ByLayer
370
13
48
1
60
0
100
AcDbEllipse
10
241.071393
20
6.287189
30
0
11
0.197551554484215
21
0.0311990916673887
31
0
210
0
220
0
230
1
40
0.009655
41
-3.04959407911944
42
-1.4787977523216
0
ELLIPSE
5
1FC
100
AcDbEntity
8
1
62
256
6
ByLayer
370
13
48
1
60
0
100
AcDbEllipse
10
240.827141
20
5.918789
30
0
11
0.00523359562429529
21
-0.099862953475471
31
0
210
0
220
0
230
1
40
0.995725
41
0.761807904941922
42
1.67551608191417
0
ELLIPSE
5
1FD
100
AcDbEntity
8
1
62
256
6
ByLayer
370
13
48
1
60
0
100
AcDbEllipse
10
238.464268
20
12.582079
30
0
11
0.036635169370062
21
-0.699040674328201
31
0
210
0
220
0
230
1
40
0.995725
41
-1.75405589825531
42
-1.46607657167618
0
ELLIPSE
5
1FE
100
AcDbEntity
8
1
62
256
6
ByLayer
370
13
48
1
60
0
100
AcDbEllipse
10
240.296351
20
5.065809
30
0
11
-0.14513953236317
21
0.0378750068699719
31
0
210
0
220
0
230
1
40
0.028078
41
1.4826478747345
42
3.05344420152964
0
ELLIPSE
5
1FF
100
AcDbEntity
8
1
62
256
6
ByLayer
370
13
48
1
60
0
100
AcDbEllipse
10
253.546286
20
20.004292
30
0
11
-0.197551554484216
21
-0.0311990916673873
31
0
210
0
220
0
230
1
40
0.009655
41
1.66279490126923
42
-3.14146319858308
0
ELLIPSE
5
200
100
AcDbEntity
8
1
62
256
6
ByLayer
370
13
48
1
60
0
100
AcDbEllipse
10
240.925347
20
19.108288
30
0
11
0.198308915233049
21
-0.0259533069008837
31
0
210
0
220
0
230
1
40
0.016833
41
1.47983423648262
42
3.0506305632877
0
ELLIPSE
5
201
100
AcDbEntity
8
1
62
256
6
ByLayer
370
13
48
1
60
0
100
AcDbEllipse
10
254.838721
20
12.526309
30
0
11
0.465790010562217
21
-8.88780285931571
31
0
210
0
220
0
230
1
40
0.995725
41
3.06423017113061
42
3.11423538092933
0
ELLIPSE
5
202
100
AcDbEntity
8
1
62
256
6
ByLayer
370
13
48
1
60
0
100
AcDbEllipse
10
247.327288
20
13.146707
30
0
11
0.164592752017143
21
-3.14061679904834
31
0
210
0
220
0
230
1
40
0.995725
41
0
42
6.28318530717959
0
ELLIPSE
5
203
100
AcDbEntity
8
1
62
256
6
ByLayer
370
13
48
1
60
0
100
AcDbEllipse
10
254.872
20
13.814639
30
0
11
0.148163665863161
21
0.0233993187505415
31
0
210
0
220
0
230
1
40
0.009655
41
1.66279490126932
42
2.85602956830832
0
ELLIPSE
5
204
100
AcDbEntity
8
1
62
256
6
ByLayer
370
13
48
1
60
0
100
AcDbEllipse
10
254.875234
20
13.570725
30
0
11
0.148731686424787
21
-0.0194649801756628
31
0
210
0
220
0
230
1
40
0.016833
41
-2.85804977878938
42
-1.66175841710513
0
ELLIPSE
5
205
100
AcDbEntity
8
1
62
256
6
ByLayer
370
13
48
1
60
0
100
AcDbEllipse
10
255.874155
20
7.389756
30
0
11
0.148731686424787
21
-0.0194649801756628
31
0
210
0
220
0
230
1
40
0.016833
41
-1.66175841709786
42
-0.0909620903052888
0
ELLIPSE
5
206
100
AcDbEntity
8
1
62
256
6
ByLayer
370
13
48
1
60
0
100
AcDbEllipse
10
255.878768
20
7.389998
30
0
11
0.00785039343644175
21
-0.149794430213184
31
0
210
0
220
0
230
1
40
0.995725
41
0.104719755119694
42
1.38753675533605
0
ELLIPSE
5
207
100
AcDbEntity
8
1
62
256
6
ByLayer
370
13
48
1
60
0
100
AcDbEllipse
10
254.346428
20
21.211767
30
0
11
-0.00261679781214714
21
0.0499314767377297
31
0
210
0
220
0
230
1
40
0.995725
41
-0.00872664625752118
42
1.26193471909935
0
ELLIPSE
5
208
100
AcDbEntity
8
1
62
256
6
ByLayer
370
13
48
1
60
0
100
AcDbEllipse
10
256.153411
20
13.709402
30
0
11
0.036635169370062
21
-0.699040674328201
31
0
210
0
220
0
230
1
40
0.995725
41
1.3875367553363
42
1.67551608191545
0
ELLIPSE
5
209
100
AcDbEntity
8
1
62
256
6
ByLayer
370
13
48
1
60
0
100
AcDbEllipse
10
239.733221
20
12.720273
30
0
11
-0.148731686424787
21
0.0194649801756634
31
0
210
0
220
0
230
1
40
0.016833
41
1.4798342364841
42
3.05063056328133
0
ELLIPSE
5
20A
100
AcDbEntity
8
1
62
256
6
ByLayer
370
13
48
1
60
0
100
AcDbEllipse
10
253.213517
20
5.118767
30
0
11
-0.0942047212372957
21
1.79753316255824
31
0
210
0
220
0
230
1
40
0.995725
41
-0.400544394527545
42
9.03884906605192E-13
0
ELLIPSE
5
20B
100
AcDbEntity
8
1
62
256
6
ByLayer
370
13
48
1
60
0
100
AcDbEllipse
10
255.054584
20
21.273423
30
0
11
0.00379960965785749
21
0.149951868832795
31
0
210
0
220
0
230
1
40
0.092094
41
0.00716942111041693
42
1.57796574790525
0
ELLIPSE
5
20C
100
AcDbEntity
8
1
62
256
6
ByLayer
370
13
48
1
60
0
100
AcDbEllipse
10
238.44582
20
12.581112
30
0
11
-0.028784775933618
21
0.549246244115015
31
0
210
0
220
0
230
1
40
0.995725
41
1.38753675533537
42
1.67551608191452
0
ELLIPSE
5
20D
100
AcDbEntity
8
1
62
256
6
ByLayer
370
13
48
1
60
0
100
AcDbEllipse
10
256.691784
20
13.63725
30
0
11
0.148731686424787
21
-0.0194649801756628
31
0
210
0
220
0
230
1
40
0.016833
41
-1.66175841710513
42
-0.0909620903084588
0
ELLIPSE
5
20E
100
AcDbEntity
8
1
62
256
6
ByLayer
370
13
48
1
60
0
100
AcDbEllipse
10
251.788659
20
21.716943
30
0
11
0.0942047212373027
21
-1.79753316255824
31
0
210
0
220
0
230
1
40
0.995725
41
0
42
0.400544394529349
0
ELLIPSE
5
20F
100
AcDbEntity
8
1
62
256
6
ByLayer
370
13
48
1
60
0
100
AcDbEllipse
10
239.553871
20
5.017574
30
0
11
-0.00379960965785735
21
-0.149951868832795
31
0
210
0
220
0
230
1
40
0.092094
41
-1.56362690568454
42
-0.0717426686085738
0
ELLIPSE
5
210
100
AcDbEntity
8
1
62
256
6
ByLayer
370
13
48
1
60
0
100
AcDbEllipse
10
238.734299
20
18.901241
30
0
11
-0.148731686424787
21
0.0194649801756634
31
0
210
0
220
0
230
1
40
0.016833
41
-0.0909620903112785
42
1.47983423647611
0
ELLIPSE
5
211
100
AcDbEntity
8
1
62
256
6
ByLayer
370
13
48
1
60
0
100
AcDbEllipse
10
237.918763
20
12.495921
30
0
11
-0.148163665863162
21
-0.0233993187505405
31
0
210
0
220
0
230
1
40
0.009655
41
-1.47879775232028
42
-0.264819008246252
0
ELLIPSE
5
212
100
AcDbEntity
8
1
62
256
6
ByLayer
370
13
48
1
60
0
100
AcDbEllipse
10
240.609641
20
21.131073
30
0
11
-2.21586242491555
21
1.3641203181932
31
0
210
0
220
0
230
1
40
0.479614
41
1.27243261059847
42
1.31166593344293
0
ELLIPSE
5
213
100
AcDbEntity
8
1
62
256
6
ByLayer
370
13
48
1
60
0
100
AcDbEllipse
10
254.097982
20
21.215798
30
0
11
-0.279378559899289
21
-0.215283244303332
31
0
210
0
220
0
230
1
40
0.479615
41
-2.35983386470116
42
-1.27243207081087
0
ELLIPSE
5
214
100
AcDbEntity
8
1
62
256
6
ByLayer
370
13
48
1
60
0
100
AcDbEllipse
10
238.638498
20
19.832068
30
0
11
-0.0435637040789211
21
-0.259139630104182
31
0
210
0
220
0
230
1
40
0.947521
41
-2.83343967202899
42
-2.19739446859516
0
ELLIPSE
5
215
100
AcDbEntity
8
1
62
256
6
ByLayer
370
13
48
1
60
0
100
AcDbEllipse
10
240.638574
20
19.254344
30
0
11
0.00523359562429395
21
-0.0998629534754456
31
0
210
0
220
0
230
1
40
0.995725
41
1.38753675533661
42
3.14158141713765
0
ELLIPSE
5
216
100
AcDbEntity
8
1
62
256
6
ByLayer
370
13
48
1
60
0
100
AcDbEllipse
10
252.583186
20
21.758578
30
0
11
-2.06112897712836
21
-1.58826623416451
31
0
210
0
220
0
230
1
40
0.479613
41
1.82992585041257
42
1.8691592492072
0
ELLIPSE
5
217
100
AcDbEntity
8
1
62
256
6
ByLayer
370
13
48
1
60
0
100
AcDbEllipse
10
253.969881
20
7.036653
30
0
11
0.00523359562429395
21
-0.0998629534754456
31
0
210
0
220
0
230
1
40
0.995725
41
-6.34410697839342E-06
42
0.104719755120294
0
ELLIPSE
5
218
100
AcDbEntity
8
1
62
256
6
ByLayer
370
13
48
1
60
0
100
AcDbEllipse
10
254.618949
20
21.273521
30
0
11
-0.00373239490690373
21
0.149953556904326
31
0
210
0
220
0
230
1
40
0.092336
41
0.00253753545375086
42
1.57333386224946
0
ELLIPSE
5
219
100
AcDbEntity
8
1
62
256
6
ByLayer
370
13
48
1
60
0
100
AcDbEllipse
10
254.586505
20
21.272409
30
0
11
-0.0065372933506693
21
0.149857478277353
31
0
210
0
220
0
230
1
40
0.092367
41
0.000809536043732892
42
1.57160586284021
0
ELLIPSE
5
21A
100
AcDbEntity
8
1
62
256
6
ByLayer
370
13
48
1
60
0
100
AcDbEllipse
10
238.737405
20
18.889678
30
0
11
-0.0435637040634906
21
-0.259139630108864
31
0
210
0
220
0
230
1
40
0.947521
41
-2.83343967208664
42
-1.53236303186852
0
ELLIPSE
5
21B
100
AcDbEntity
8
1
62
256
6
ByLayer
370
13
48
1
60
0
100
AcDbEllipse
10
238.734299
20
18.901241
30
0
11
0.0235312926467973
21
-0.148142763125206
31
0
210
0
220
0
230
1
40
0.091865
41
-3.05123893778937
42
-1.58049283527222
0
ELLIPSE
5
21C
100
AcDbEntity
8
1
62
256
6
ByLayer
370
13
48
1
60
0
100
AcDbEllipse
10
253.974494
20
7.036895
30
0
11
0.00523359562429395
21
-0.0998629534754456
31
0
210
0
220
0
230
1
40
0.995725
41
-1.75405589825289
42
0.10471975512001
0
ELLIPSE
5
21D
100
AcDbEntity
8
1
62
256
6
ByLayer
370
13
48
1
60
0
100
AcDbEllipse
10
240.085272
20
12.531274
30
0
11
-0.197551554484216
21
-0.0311990916673873
31
0
210
0
220
0
230
1
40
0.009655
41
0.0919985744735957
42
1.6627949012688
0
ELLIPSE
5
21E
100
AcDbEntity
8
1
62
256
6
ByLayer
370
13
48
1
60
0
100
AcDbEllipse
10
240.234354
20
5.07778
30
0
11
-0.00261679781214714
21
0.0499314767377297
31
0
210
0
220
0
230
1
40
0.995725
41
3.13286600733281
42
-1.87965793449045
0
ELLIPSE
5
21F
100
AcDbEntity
8
1
62
256
6
ByLayer
370
13
48
1
60
0
100
AcDbEllipse
10
240.02195
20
5.018588
30
0
11
0.00653729335066879
21
-0.149857478277353
31
0
210
0
220
0
230
1
40
0.092367
41
-1.56998679074977
42
0.000809536045656042
0
ELLIPSE
5
220
100
AcDbEntity
8
1
62
256
6
ByLayer
370
13
48
1
60
0
100
AcDbEllipse
10
253.692333
20
7.183193
30
0
11
0.010467191248589
21
-0.199725906950915
31
0
210
0
220
0
230
1
40
0.995725
41
-0.280778212086409
42
2.11747656357727E-05
0
ELLIPSE
5
221
100
AcDbEntity
8
1
62
256
6
ByLayer
370
13
48
1
60
0
100
AcDbEllipse
10
247.633584
20
6.949244
30
0
11
0.010467191248589
21
-0.199725906950915
31
0
210
0
220
0
230
1
40
0.092371
41
0
42
1.5707963267949
0
ELLIPSE
5
222
100
AcDbEntity
8
1
62
256
6
ByLayer
370
13
48
1
60
0
100
AcDbEllipse
10
242.275556
20
4.545532
30
0
11
-0.0994383168615895
21
1.89739611603369
31
0
210
0
220
0
230
1
40
0.995725
41
0.761807904942252
42
1.261934719098
0
ELLIPSE
5
223
100
AcDbEntity
8
1
62
256
6
ByLayer
370
13
48
1
60
0
100
AcDbEllipse
10
254.027931
20
7.096499
30
0
11
-0.157381426384131
21
-0.0466723701563889
31
0
210
0
220
0
230
1
40
0.019797
41
-1.48863729015237
42
-0.271936942514196
0
ELLIPSE
5
224
100
AcDbEntity
8
1
62
256
6
ByLayer
370
13
48
1
60
0
100
AcDbEllipse
10
239.736455
20
12.476358
30
0
11
-0.148163665863162
21
-0.0233993187505405
31
0
210
0
220
0
230
1
40
0.009655
41
-3.04959407911005
42
-1.47879775232123
0
ELLIPSE
5
225
100
AcDbEntity
8
1
62
256
6
ByLayer
370
13
48
1
60
0
100
AcDbEllipse
10
252.342123
20
21.745948
30
0
11
-0.0994383168615895
21
1.89739611603369
31
0
210
0
220
0
230
1
40
0.995725
41
-2.37978474864572
42
-1.87965793448997
0
ELLIPSE
5
226
100
AcDbEntity
8
1
62
256
6
ByLayer
370
13
48
1
60
0
100
AcDbEllipse
10
256.148799
20
13.70916
30
0
11
0.036635169370062
21
-0.699040674328201
31
0
210
0
220
0
230
1
40
0.995725
41
1.3875367553354
42
1.67551608191455
0
ELLIPSE
5
227
100
AcDbEntity
8
1
62
256
6
ByLayer
370
13
48
1
60
0
100
AcDbEllipse
10
240.08337
20
12.674753
30
0
11
-0.198308915233049
21
0.0259533069008846
31
0
210
0
220
0
230
1
40
0.016833
41
-1.66175841710534
42
-0.0909620903126926
0
ELLIPSE
5
228
100
AcDbEntity
8
1
62
256
6
ByLayer
370
13
48
1
60
0
100
AcDbEllipse
10
240.928933
20
21.147808
30
0
11
-1.72936595006519
21
1.2194090508807
31
0
210
0
220
0
230
1
40
0.74335
41
1.16175109669997
42
1.98390815207461
0
ELLIPSE
5
229
100
AcDbEntity
8
1
62
256
6
ByLayer
370
13
48
1
60
0
100
AcDbEllipse
10
254.31092
20
21.226958
30
0
11
0.0127690523125592
21
-0.243648032548686
31
0
210
0
220
0
230
1
40
0.995725
41
-2.96705972838943
42
-1.87965793449011
0
ELLIPSE
5
22A
100
AcDbEntity
8
1
62
256
6
ByLayer
370
13
48
1
60
0
100
AcDbEllipse
10
255.041015
20
20.723604
30
0
11
0.0366351693700632
21
-0.699040674328225
31
0
210
0
220
0
230
1
40
0.995725
41
1.67551608191451
42
3.06423017113056
0
ELLIPSE
5
22B
100
AcDbEntity
8
1
62
256
6
ByLayer
370
13
48
1
60
0
100
AcDbEllipse
10
1656.237177
20
-1.7E-05
30
0
11
-2710.92685536453
21
17.4628135314371
31
0
210
0
220
0
230
1
40
0.004278
41
1.0194546148567
42
1.02709934433579
0
ELLIPSE
5
22C
100
AcDbEntity
8
1
62
256
6
ByLayer
370
13
48
1
60
0
100
AcDbEllipse
10
255.339495
20
8.234301
30
0
11
-0.082211143705932
21
2.59910270943408
31
0
210
0
220
0
230
1
40
0.529269
41
2.9879214704622
42
-3.13061456182753
0
ELLIPSE
5
22D
100
AcDbEntity
8
1
62
256
6
ByLayer
370
13
48
1
60
0
100
AcDbEllipse
10
239.638878
20
13.78394
30
0
11
0.523359562429457
21
-9.98629534754574
31
0
210
0
220
0
230
1
40
0.995725
41
-9.46300581101848E-06
42
0.307190187536253
0
ELLIPSE
5
22E
100
AcDbEntity
8
1
62
256
6
ByLayer
370
13
48
1
60
0
100
AcDbEllipse
10
267.393484
20
7E-06
30
0
11
-223.960787418522
21
0.10159998423468
31
0
210
0
220
0
230
1
40
0.092638
41
-1.41705892426904
42
-1.40302010686075
0
ELLIPSE
5
22F
100
AcDbEntity
8
1
62
256
6
ByLayer
370
13
48
1
60
0
100
AcDbEllipse
10
246.074424
20
6.046407
30
0
11
0.0523359562429457
21
-0.998629534754574
31
0
210
0
220
0
230
1
40
0.092371
41
-1.5707963267949
42
0
0
ELLIPSE
5
230
100
AcDbEntity
8
1
62
256
6
ByLayer
370
13
48
1
60
0
100
AcDbEllipse
10
267.393616
20
-8.3E-05
30
0
11
-226.282123692072
21
0.102665330184583
31
0
210
0
220
0
230
1
40
0.092638
41
-1.44237762118655
42
-1.43204665260259
0
ELLIPSE
5
231
100
AcDbEntity
8
1
62
256
6
ByLayer
370
13
48
1
60
0
100
AcDbEllipse
10
253.158585
20
0
30
0
11
-43.7371771859848
21
18.6911737762804
31
0
210
0
220
0
230
1
40
0.2059
41
0.710053926542105
42
1.0931482757854
0
ELLIPSE
5
232
100
AcDbEntity
8
1
62
256
6
ByLayer
370
13
48
1
60
0
100
AcDbEllipse
10
255.530865
20
-2.000308
30
0
11
-2.24948988277744
21
3.75203236522914
31
0
210
0
220
0
230
1
40
0.347482
41
-1.02547547911272
42
-0.882135790294172
0
ELLIPSE
5
233
100
AcDbEntity
8
1
62
256
6
ByLayer
370
13
48
1
60
0
100
AcDbEllipse
10
248.002789
20
-6.456855
30
0
11
2
21
0
31
0
210
0
220
0
230
1
40
0.993321
41
2.54714453663905
42
2.81692895731798
0
ELLIPSE
5
234
100
AcDbEntity
8
1
62
256
6
ByLayer
370
13
48
1
60
0
100
AcDbEllipse
10
246.867064
20
6.087947
30
0
11
-3.96879667379956
21
-0.704906652564996
31
0
210
0
220
0
230
1
40
0.015321
41
-3.01817314107554
42
-2.71671453998498
0
ELLIPSE
5
235
100
AcDbEntity
8
1
62
256
6
ByLayer
370
13
48
1
60
0
100
AcDbEllipse
10
250.097669
20
-6.93378
30
0
11
-6.03300168336957
21
-0.0237146228857765
31
0
210
0
220
0
230
1
40
0.98788
41
3.00751706789453
42
-2.98924489493717
0
ELLIPSE
5
236
100
AcDbEntity
8
1
62
256
6
ByLayer
370
13
48
1
60
0
100
AcDbEllipse
10
242.879362
20
5.878961
30
0
11
-0.318392676615804
21
-0.395166625612542
31
0
210
0
220
0
230
1
40
0.966608
41
-2.12586228199678
42
-1.28979794418045
0
ELLIPSE
5
237
100
AcDbEntity
8
1
62
256
6
ByLayer
370
13
48
1
60
0
100
AcDbEllipse
10
255.667077
20
4.968749
30
0
11
-0.0100716054251139
21
0.500155486782449
31
0
210
0
220
0
230
1
40
0.104771
41
1.92323964964233
42
-2.78914933073989
0
ELLIPSE
5
238
100
AcDbEntity
8
1
62
256
6
ByLayer
370
13
48
1
60
0
100
AcDbEllipse
10
255.457415
20
0
30
0
11
-3.57804024755868
21
20.9603534073571
31
0
210
0
220
0
230
1
40
0.083842
41
1.59897043385309
42
1.75808979922605
0
ELLIPSE
5
239
100
AcDbEntity
8
1
62
256
6
ByLayer
370
13
48
1
60
0
100
AcDbEllipse
10
239.546634
20
13.779105
30
0
11
-0.471023606186477
21
8.98766581279117
31
0
210
0
220
0
230
1
40
0.995725
41
-2.91693381338442
42
-2.83440246605354
0
ELLIPSE
5
23A
100
AcDbEntity
8
1
62
256
6
ByLayer
370
13
48
1
60
0
100
AcDbEllipse
10
255.453762
20
8.24029
30
0
11
0.136073486231659
21
-2.59643679036189
31
0
210
0
220
0
230
1
40
0.995725
41
-0.990362103391485
42
-0.858139698776747
0
ELLIPSE
5
23B
100
AcDbEntity
8
1
62
256
6
ByLayer
370
13
48
1
60
0
100
AcDbEllipse
10
261.091475
20
0.725331
30
0
11
-6.03300172100563
21
-0.0237147626799455
31
0
210
0
220
0
230
1
40
0.98788
41
0.0287457487147043
42
0.152347735303497
0
ELLIPSE
5
23C
100
AcDbEntity
8
1
62
256
6
ByLayer
370
13
48
1
60
0
100
AcDbEllipse
10
239.664116
20
7.012241
30
0
11
-0.109905508110178
21
2.0971220229846
31
0
210
0
220
0
230
1
40
0.995725
41
2.21256348620507
42
2.73234058533958
0
ELLIPSE
5
23D
100
AcDbEntity
8
1
62
256
6
ByLayer
370
13
48
1
60
0
100
AcDbEllipse
10
239.664116
20
7.012241
30
0
11
-0.109905508110178
21
2.0971220229846
31
0
210
0
220
0
230
1
40
0.995725
41
-2.74205116609522
42
-2.08304175457678
0
ELLIPSE
5
23E
100
AcDbEntity
8
1
62
256
6
ByLayer
370
13
48
1
60
0
100
AcDbEllipse
10
198.012287
20
0
30
0
11
-226.281662999461
21
0.102653937281661
31
0
210
0
220
0
230
1
40
0.092638
41
-1.81608253198003
42
-1.7555491272692
0
ELLIPSE
5
23F
100
AcDbEntity
8
1
62
256
6
ByLayer
370
13
48
1
60
0
100
AcDbEllipse
10
237.487208
20
8.417907
30
0
11
-0.0261679781214711
21
0.49931476737729
31
0
210
0
220
0
230
1
40
0.995725
41
-2.08239418575102
42
-1.46607657167526
0
ELLIPSE
5
240
100
AcDbEntity
8
1
62
256
6
ByLayer
370
13
48
1
60
0
100
AcDbEllipse
10
249.491694
20
9.129478
30
0
11
-1.65564191805492
21
-2.05486645355757
31
0
210
0
220
0
230
1
40
0.966608
41
0.713732916683025
42
1.07490334506201
0
ELLIPSE
5
241
100
AcDbEntity
8
1
62
256
6
ByLayer
370
13
48
1
60
0
100
AcDbEllipse
10
240.254478
20
7.04318
30
0
11
0.136073486231659
21
-2.59643679036189
31
0
210
0
220
0
230
1
40
0.995725
41
-2.08239418575106
42
-0.581932527432403
0
ELLIPSE
5
242
100
AcDbEntity
8
1
62
256
6
ByLayer
370
13
48
1
60
0
100
AcDbEllipse
10
254.704815
20
-13.881907
30
0
11
-0.29259938809031
21
-2.48683514626801
31
0
210
0
220
0
230
1
40
0.118876
41
0
42
6.28318530717959
0
ELLIPSE
5
243
100
AcDbEntity
8
1
62
256
6
ByLayer
370
13
48
1
60
0
100
AcDbEllipse
10
240.056594
20
7.03281
30
0
11
-1.65564191828279
21
-2.05486645340677
31
0
210
0
220
0
230
1
40
0.966608
41
1.54124461049022
42
1.85179470930768
0
ELLIPSE
5
244
100
AcDbEntity
8
1
62
256
6
ByLayer
370
13
48
1
60
0
100
AcDbEllipse
10
238.604447
20
17.132347
30
0
11
-0.143594274787007
21
2.73994198476659
31
0
210
0
220
0
230
1
40
0.016833
41
0.326127687946613
42
0.836829632619813
0
ELLIPSE
5
245
100
AcDbEntity
8
1
62
256
6
ByLayer
370
13
48
1
60
0
100
AcDbEllipse
10
237.020675
20
5.177885
30
0
11
-0.29369042064903
21
-0.95590058940195
31
0
210
0
220
0
230
1
40
0.0868
41
-1.53907871771946
42
-1.39194539872197E-05
0
ELLIPSE
5
246
100
AcDbEntity
8
1
62
256
6
ByLayer
370
13
48
1
60
0
100
AcDbEllipse
10
239.546634
20
13.779105
30
0
11
-0.471023606186477
21
8.98766581279117
31
0
210
0
220
0
230
1
40
0.995725
41
2.79252680319578
42
3.02206401946906
0
ELLIPSE
5
247
100
AcDbEntity
8
1
62
256
6
ByLayer
370
13
48
1
60
0
100
AcDbEllipse
10
257.596645
20
0
30
0
11
-2.52265672738517
21
-20.9603939889245
31
0
210
0
220
0
230
1
40
0.117787
41
-1.26769882620601
42
-0.0976529489121636
0
ELLIPSE
5
248
100
AcDbEntity
8
1
62
256
6
ByLayer
370
13
48
1
60
0
100
AcDbEllipse
10
233
20
6.32238
30
0
11
-2
21
2.02127811016473E-15
31
0
210
0
220
0
230
1
40
0.75903
41
-2.9680615649117
42
-1.70977857430856
0
ELLIPSE
5
249
100
AcDbEntity
8
1
62
256
6
ByLayer
370
13
48
1
60
0
100
AcDbEllipse
10
250.635371
20
6.285436
30
0
11
-0.318392469863593
21
-0.395166828227705
31
0
210
0
220
0
230
1
40
0.966608
41
-2.1258628492928
42
-2.0666898782297
0
ELLIPSE
5
24A
100
AcDbEntity
8
1
62
256
6
ByLayer
370
13
48
1
60
0
100
AcDbEllipse
10
241.628304
20
6.483753
30
0
11
0.0261679781214729
21
-0.499314767377287
31
0
210
0
220
0
230
1
40
0.092371
41
-1.00594782560347
42
-0.630730776736811
0
ELLIPSE
5
24B
100
AcDbEntity
8
1
62
256
6
ByLayer
370
13
48
1
60
0
100
AcDbEllipse
10
246.65012
20
-4.938518
30
0
11
-0.523359562429419
21
9.98629534754574
31
0
210
0
220
0
230
1
40
0.995725
41
0
42
0.307190187536247
0
ELLIPSE
5
24C
100
AcDbEntity
8
1
62
256
6
ByLayer
370
13
48
1
60
0
100
AcDbEllipse
10
233
20
4.536853
30
0
11
-3.99996197817059
21
0.0224736467836233
31
0
210
0
220
0
230
1
40
0.775299
41
1.7145162466702
42
1.77600042427431
0
ELLIPSE
5
24D
100
AcDbEntity
8
1
62
256
6
ByLayer
370
13
48
1
60
0
100
AcDbEllipse
10
255.604857
20
0.114115
30
0
11
-0.0224114933595068
21
1.01132189563514
31
0
210
0
220
0
230
1
40
0.102037
41
-0.130312682548143
42
1.05339322030832
0
ELLIPSE
5
24E
100
AcDbEntity
8
1
62
256
6
ByLayer
370
13
48
1
60
0
100
AcDbEllipse
10
243.120892
20
5.891619
30
0
11
-0.026167978121471
21
0.499314767377288
31
0
210
0
220
0
230
1
40
0.995725
41
0.92729521800173
42
1.13806179252797
0
ELLIPSE
5
24F
100
AcDbEntity
8
1
62
256
6
ByLayer
370
13
48
1
60
0
100
AcDbEllipse
10
233
20
3.473826
30
0
11
-0.395143420436796
21
11.2170625720013
31
0
210
0
220
0
230
1
40
0.354855
41
-0.537307545922755
42
-0.394632725063409
0
ELLIPSE
5
250
100
AcDbEntity
8
1
62
256
6
ByLayer
370
13
48
1
60
0
100
AcDbEllipse
10
248.002789
20
-5.89146
30
0
11
2
21
0
31
0
210
0
220
0
230
1
40
0.993321
41
0.752706085908712
42
2.99158169628681
0
ELLIPSE
5
251
100
AcDbEntity
8
1
62
256
6
ByLayer
370
13
48
1
60
0
100
AcDbEllipse
10
239.274301
20
0
30
0
11
-1.10812088746745
21
20.9622486408041
31
0
210
0
220
0
230
1
40
0.092638
41
-0.128418426379493
42
-0.00489787426888015
0
ELLIPSE
5
252
100
AcDbEntity
8
1
62
256
6
ByLayer
370
13
48
1
60
0
100
AcDbEllipse
10
239.111055
20
5.681472
30
0
11
-3.96879667261914
21
-0.704906652351279
31
0
210
0
220
0
230
1
40
0.015321
41
-3.01817314071985
42
-2.71671453992015
0
ELLIPSE
5
253
100
AcDbEntity
8
1
62
256
6
ByLayer
370
13
48
1
60
0
100
AcDbEllipse
10
252.965057
20
6.407529
30
0
11
-0.0261679781214709
21
0.499314767377286
31
0
210
0
220
0
230
1
40
0.995725
41
-0.990362103391463
42
-0.927295220885103
0
ELLIPSE
5
254
100
AcDbEntity
8
1
62
256
6
ByLayer
370
13
48
1
60
0
100
AcDbEllipse
10
750.000039
20
-0.217004
30
0
11
-623.835339934655
21
0.281502968095003
31
0
210
0
220
0
230
1
40
0.058701
41
-0.602751714636402
42
-0.59421627047769
0
ELLIPSE
5
255
100
AcDbEntity
8
1
62
256
6
ByLayer
370
13
48
1
60
0
100
AcDbEllipse
10
248.002789
20
-5.89146
30
0
11
-2.1
21
2.12234201567296E-15
31
0
210
0
220
0
230
1
40
0.993321
41
-2.75321309299915
42
-0.241313655423391
0
ELLIPSE
5
256
100
AcDbEntity
8
1
62
256
6
ByLayer
370
13
48
1
60
0
100
AcDbEllipse
10
242.793937
20
5.358834
30
0
11
0.353010790461904
21
-0.935619250452587
31
0
210
0
220
0
230
1
40
0.088046
41
-1.59884006173132
42
-0.0280437349361143
0
ELLIPSE
5
257
100
AcDbEntity
8
1
62
256
6
ByLayer
370
13
48
1
60
0
100
AcDbEllipse
10
255.500707
20
0.120386
30
0
11
-0.0112057466812791
21
0.505660947960033
31
0
210
0
220
0
230
1
40
0.102037
41
-0.130312682529741
42
0.215297556124332
0
ELLIPSE
5
258
100
AcDbEntity
8
1
62
256
6
ByLayer
370
13
48
1
60
0
100
AcDbEllipse
10
255.268769
20
-14.27887
30
0
11
-0.0634724266873799
21
-0.515865840931977
31
0
210
0
220
0
230
1
40
0.114322
41
-1.65235630958176
42
-0.0815599827824794
0
ELLIPSE
5
259
100
AcDbEntity
8
1
62
256
6
ByLayer
370
13
48
1
60
0
100
AcDbEllipse
10
255.64187
20
5.994896
30
0
11
-0.0190690707685537
21
-0.501607026761258
31
0
210
0
220
0
230
1
40
0.195483
41
-0.523704292676397
42
-0.331356153712723
0
ELLIPSE
5
25A
100
AcDbEntity
8
1
62
256
6
ByLayer
370
13
48
1
60
0
100
AcDbEllipse
10
246.557876
20
-4.943353
30
0
11
0.575695518672402
21
-10.9849248823003
31
0
210
0
220
0
230
1
40
0.995725
41
-3.14159265358978
42
-2.83440246605354
0
ELLIPSE
5
25B
100
AcDbEntity
8
1
62
256
6
ByLayer
370
13
48
1
60
0
100
AcDbEllipse
10
239.90823
20
12.876419
30
0
11
0.136073486231659
21
-2.59643679036189
31
0
210
0
220
0
230
1
40
0.995725
41
-2.20424198809739
42
-1.46607657167525
0
ELLIPSE
5
25C
100
AcDbEntity
8
1
62
256
6
ByLayer
370
13
48
1
60
0
100
AcDbEllipse
10
239.39719
20
6.998252
30
0
11
-2.29348548711929
21
1.84790145606687
31
0
210
0
220
0
230
1
40
0.775936
41
3.05283506782215
42
-2.77958348581957
0
ELLIPSE
5
25D
100
AcDbEntity
8
1
62
256
6
ByLayer
370
13
48
1
60
0
100
AcDbEllipse
10
239.710238
20
7.014658
30
0
11
0.136073486231659
21
-2.59643679036189
31
0
210
0
220
0
230
1
40
0.995725
41
0.0555653949272884
42
1.07574208457343
0
ELLIPSE
5
25E
100
AcDbEntity
8
1
62
256
6
ByLayer
370
13
48
1
60
0
100
AcDbEllipse
10
255.139866
20
6.521506
30
0
11
-0.0201432108590128
21
1.00031097375266
31
0
210
0
220
0
230
1
40
0.104771
41
-3.13821518113974
42
-2.61224515617071
0
ELLIPSE
5
25F
100
AcDbEntity
8
1
62
256
6
ByLayer
370
13
48
1
60
0
100
AcDbEllipse
10
240.254478
20
7.04318
30
0
11
0.136073486231659
21
-2.59643679036189
31
0
210
0
220
0
230
1
40
0.995725
41
0.687062733517025
42
1.13806179252795
0
ELLIPSE
5
260
100
AcDbEntity
8
1
62
256
6
ByLayer
370
13
48
1
60
0
100
AcDbEllipse
10
259.796578
20
2.13574
30
0
11
-5.88856473438799
21
-1.89689066585181
31
0
210
0
220
0
230
1
40
0.812292
41
-0.370383209054735
42
-0.222831139661494
0
POINT
5
70
100
AcDbEntity
8
1
62
256
6
ByLayer
370
18
48
1
60
0
100
AcDbPoint
10
0
20
0
30
0
39
0
210
0
220
0
230
1
50
360
0
POINT
5
72
100
AcDbEntity
8
80
62
256
6
ByLayer
370
18
48
1
60
0
100
AcDbPoint
10
0
20
0
30
0
39
0
210
0
220
0
230
1
50
360
0
POINT
5
74
100
AcDbEntity
8
81
62
256
6
ByLayer
370
18
48
1
60
0
100
AcDbPoint
10
257
20
0
30
0
39
0
210
0
220
0
230
1
50
360
0
POINT
5
76
100
AcDbEntity
8
1
62
256
6
ByLayer
370
18
48
1
60
1
100
AcDbPoint
10
0
20
-31.25
30
0
39
0
210
0
220
0
230
1
50
360
0
POINT
5
77
100
AcDbEntity
8
1
62
256
6
ByLayer
370
18
48
1
60
1
100
AcDbPoint
10
257
20
-21.5
30
0
39
0
210
0
220
0
230
1
50
360
0
POINT
5
78
100
AcDbEntity
8
1
62
256
6
ByLayer
370
18
48
1
60
1
100
AcDbPoint
10
-80
20
-25
30
0
39
0
210
0
220
0
230
1
50
360
0
POINT
5
79
100
AcDbEntity
8
1
62
256
6
ByLayer
370
18
48
1
60
1
100
AcDbPoint
10
0
20
-31.25
30
0
39
0
210
0
220
0
230
1
50
360
0
POINT
5
7A
100
AcDbEntity
8
1
62
256
6
ByLayer
370
18
48
1
60
1
100
AcDbPoint
10
257
20
-21.5
30
0
39
0
210
0
220
0
230
1
50
360
0
POINT
5
7B
100
AcDbEntity
8
1
62
256
6
ByLayer
370
18
48
1
60
1
100
AcDbPoint
10
6.2518
20
-31.25
30
0
39
0
210
0
220
0
230
1
50
360
0
POINT
5
7C
100
AcDbEntity
8
1
62
256
6
ByLayer
370
18
48
1
60
1
100
AcDbPoint
10
37
20
-21.5
30
0
39
0
210
0
220
0
230
1
50
360
0
POINT
5
7D
100
AcDbEntity
8
1
62
256
6
ByLayer
370
18
48
1
60
1
100
AcDbPoint
10
257
20
-21.5
30
0
39
0
210
0
220
0
230
1
50
360
0
POINT
5
7E
100
AcDbEntity
8
1
62
256
6
ByLayer
370
18
48
1
60
1
100
AcDbPoint
10
255.7234
20
-10.75
30
0
39
0
210
0
220
0
230
1
50
360
0
SPLINE
5
261
100
AcDbEntity
8
SK1
62
256
6
ByLayer
370
13
48
1
60
0
100
AcDbSpline
70
4
71
3
72
8
73
4
40
0
40
0
40
0
40
0
40
1
40
1
40
1
40
1
41
1
10
-77.6338131992799
20
9.80675144594619
30
0
41
1
10
-77.2939543866941
20
10.101073698597
30
0
41
1
10
-76.9490850005699
20
10.3886250228495
30
0
41
1
10
-76.6000022063887
20
10.6704826507521
30
0
0
SPLINE
5
262
100
AcDbEntity
8
SK1
62
256
6
ByLayer
370
13
48
1
60
0
100
AcDbSpline
70
4
71
3
72
8
73
4
40
0
40
0
40
0
40
0
40
1
40
1
40
1
40
1
41
1
10
-76.6000022063887
20
-10.6704826507519
30
0
41
1
10
-76.9486457469478
20
-10.3889796865166
30
0
41
1
10
-77.2935001928291
20
-10.1014670365259
30
0
41
1
10
-77.6338131992803
20
-9.80675144594593
30
0
0
SPLINE
5
263
100
AcDbEntity
8
SK1
62
256
6
ByLayer
370
13
48
1
60
0
100
AcDbSpline
70
4
71
3
72
8
73
4
40
0
40
0
40
0
40
0
40
1
40
1
40
1
40
1
41
1
10
-78.5162221138915
20
-10.4258292340309
30
0
41
1
10
-78.5439104435588
20
-10.5074660802026
30
0
41
1
10
-78.5718376779285
20
-10.5890166857158
30
0
41
1
10
-78.5999993841625
20
-10.6704826507519
30
0
0
SPLINE
5
264
100
AcDbEntity
8
SK1
62
256
6
ByLayer
370
13
48
1
60
0
100
AcDbSpline
70
4
71
3
72
8
73
4
40
0
40
0
40
0
40
0
40
1
40
1
40
1
40
1
41
1
10
-78.5999993841624
20
10.6704826507521
30
0
41
1
10
-78.571842816211
20
10.5890315497
30
0
41
1
10
-78.5439155289718
20
10.5074810741399
30
0
41
1
10
-78.5162221138982
20
10.4258292340508
30
0
0
SPLINE
5
265
100
AcDbEntity
8
SK1
62
256
6
ByLayer
370
13
48
1
60
0
100
AcDbSpline
70
4
71
3
72
22
73
18
40
0
40
0
40
0
40
0
40
0.250000000000013
40
0.250000000000013
40
0.375000000000011
40
0.375000000000011
40
0.500000000000009
40
0.500000000000009
40
0.625000000000006
40
0.625000000000006
40
0.687500000000005
40
0.687500000000005
40
0.750000000000004
40
0.750000000000004
40
0.875000000000002
40
0.875000000000002
40
1
40
1
40
1
40
1
41
1
10
-78.5162221138982
20
10.4258292340508
30
0
41
1
10
-78.4816010925007
20
10.3237518956136
30
0
41
1
10
-78.4411780188043
20
10.2239013321123
30
0
41
1
10
-78.3666785250411
20
10.0794467030181
30
0
41
1
10
-78.3393689035363
20
10.0320610579929
30
0
41
1
10
-78.2793566754053
20
9.94200016242738
30
0
41
1
10
-78.2466129799402
20
9.89906478118272
30
0
41
1
10
-78.1725895963645
20
9.81972659981167
30
0
41
1
10
-78.1310790894698
20
9.78319125007499
30
0
41
1
10
-78.0614135112523
20
9.74017151629329
30
0
41
1
10
-78.0367084860757
20
9.72773410304424
30
0
41
1
10
-77.9859900462305
20
9.70877612675764
30
0
41
1
10
-77.9597650984162
20
9.7020911495909
30
0
41
1
10
-77.8779326920127
20
9.69222679373803
30
0
41
1
10
-77.8229289559465
20
9.7004005561752
30
0
41
1
10
-77.720518632779
20
9.74066343125068
30
0
41
1
10
-77.6749703009745
20
9.77110884838677
30
0
41
1
10
-77.6338131992791
20
9.806751445945
30
0
0
SPLINE
5
266
100
AcDbEntity
8
SK1
62
256
6
ByLayer
370
13
48
1
60
0
100
AcDbSpline
70
4
71
3
72
10
73
6
40
0
40
0
40
0
40
0
40
0.5
40
0.5
40
1
40
1
40
1
40
1
41
1
10
-80
20
8.0540176309716
30
0
41
1
10
-79.85176739512
20
8.49565927489135
30
0
41
1
10
-79.6935189817436
20
8.93491944720282
30
0
41
1
10
-79.3587118244384
20
9.80908612108971
30
0
41
1
10
-79.1828143207057
20
10.2422333475178
30
0
41
1
10
-79
20
10.6704826507521
30
0
0
SPLINE
5
267
100
AcDbEntity
8
1
62
256
6
ByLayer
370
18
48
1
60
0
100
AcDbSpline
70
4
71
3
72
8
73
4
40
0
40
0
40
0
40
0
40
1
40
1
40
1
40
1
41
1
10
246.810760871616
20
14.5670304843361
30
0
41
1
10
246.814158262207
20
14.5615010765513
30
0
41
1
10
246.817556271998
20
14.5559709721646
30
0
41
1
10
246.820954925372
20
14.5504401440325
30
0
0
SPLINE
5
268
100
AcDbEntity
8
1
62
256
6
ByLayer
370
18
48
1
60
0
100
AcDbSpline
70
4
71
3
72
8
73
4
40
0
40
0
40
0
40
0
40
1
40
1
40
1
40
1
41
1
10
248.268671123706
20
14.256343480803
30
0
41
1
10
248.265447958308
20
14.250320663475
30
0
41
1
10
248.262224566419
20
14.2442970865184
30
0
41
1
10
248.259000939456
20
14.2382727203328
30
0
0
SPLINE
5
269
100
AcDbEntity
8
1
62
256
6
ByLayer
370
18
48
1
60
0
100
AcDbSpline
70
4
71
3
72
16
73
12
40
0
40
0
40
0
40
0
40
0.25
40
0.25
40
0.5
40
0.5
40
0.75
40
0.75
40
0.875
40
0.875
40
1
40
1
40
1
40
1
41
1
10
246.524446268007
20
11.6508346821198
30
0
41
1
10
246.48517818973
20
11.6709347172534
30
0
41
1
10
246.447376608596
20
11.6942407188778
30
0
41
1
10
246.376385238929
20
11.7474061946112
30
0
41
1
10
246.343146969121
20
11.7771859266474
30
0
41
1
10
246.285891765043
20
11.844643834749
30
0
41
1
10
246.261465216772
20
11.8822854213799
30
0
41
1
10
246.245472094617
20
11.9437587696708
30
0
41
1
10
246.244198859104
20
11.9646776447626
30
0
41
1
10
246.252716234726
20
12.0022634569498
30
0
41
1
10
246.26250884242
20
12.018675568574
30
0
41
1
10
246.276054115443
20
12.0313138849225
30
0
0
SPLINE
5
26A
100
AcDbEntity
8
1
62
256
6
ByLayer
370
18
48
1
60
0
100
AcDbSpline
70
4
71
3
72
16
73
12
40
0
40
0
40
0
40
0
40
0.249999999999968
40
0.249999999999968
40
0.499999999999936
40
0.499999999999936
40
0.749999999999904
40
0.749999999999904
40
0.874999999999952
40
0.874999999999952
40
1
40
1
40
1
40
1
41
1
10
248.948882553313
20
13.2316913695137
30
0
41
1
10
248.946566412888
20
13.2758859615631
30
0
41
1
10
248.940596534786
20
13.3199478646373
30
0
41
1
10
248.920459004514
20
13.4062726494336
30
0
41
1
10
248.906392806205
20
13.4485535544738
30
0
41
1
10
248.86664412474
20
13.5274266123627
30
0
41
1
10
248.841194796913
20
13.5644012943156
30
0
41
1
10
248.78882593644
20
13.6021557973117
30
0
41
1
10
248.769114407438
20
13.6110519602608
30
0
41
1
10
248.728733729648
20
13.616753736061
30
0
41
1
10
248.708308055582
20
13.6134619795779
30
0
41
1
10
248.689810651724
20
13.6052068287159
30
0
0
SPLINE
5
26B
100
AcDbEntity
8
1
62
256
6
ByLayer
370
18
48
1
60
0
100
AcDbSpline
70
4
71
3
72
8
73
4
40
0
40
0
40
0
40
0
40
1
40
1
40
1
40
1
41
1
10
247.572221721022
20
14.5898123684416
30
0
41
1
10
247.575704936117
20
14.5957038600175
30
0
41
1
10
247.579187881695
20
14.6015945799944
30
0
41
1
10
247.582670567633
20
14.6074845573114
30
0
0
SPLINE
5
26C
100
AcDbEntity
8
1
62
256
6
ByLayer
370
18
48
1
60
0
100
AcDbSpline
70
4
71
3
72
18
73
14
40
0
40
0
40
0
40
0
40
0.12499999999999
40
0.12499999999999
40
0.249999999999981
40
0.249999999999981
40
0.499999999999988
40
0.499999999999988
40
0.749999999999996
40
0.749999999999996
40
0.874999999999998
40
0.874999999999998
40
1
40
1
40
1
40
1
41
1
10
246.28367949997
20
12.04927748198
30
0
41
1
10
246.295858669442
20
12.0779666176064
30
0
41
1
10
246.298362886116
20
12.1110026373585
30
0
41
1
10
246.293809249384
20
12.1783521487686
30
0
41
1
10
246.286559945026
20
12.2125499292401
30
0
41
1
10
246.25581299604
20
12.31381486685
30
0
41
1
10
246.223403455361
20
12.3798572818678
30
0
41
1
10
246.144534512532
20
12.5017763958714
30
0
41
1
10
246.098269232864
20
12.5574619679286
30
0
41
1
10
246.019841677111
20
12.6248750829086
30
0
41
1
10
245.992171550623
20
12.644580414655
30
0
41
1
10
245.934235574726
20
12.6739581696915
30
0
41
1
10
245.903983073949
20
12.6838806653894
30
0
41
1
10
245.873802353241
20
12.6830010233061
30
0
0
SPLINE
5
26D
100
AcDbEntity
8
1
62
256
6
ByLayer
370
18
48
1
60
0
100
AcDbSpline
70
4
71
3
72
16
73
12
40
0
40
0
40
0
40
0
40
0.250000000000034
40
0.250000000000034
40
0.500000000000068
40
0.500000000000068
40
0.750000000000101
40
0.750000000000101
40
0.875000000000051
40
0.875000000000051
40
1
40
1
40
1
40
1
41
1
10
246.372483063471
20
14.5504653593729
30
0
41
1
10
246.409435001323
20
14.5745599162887
30
0
41
1
10
246.44827856788
20
14.5956832939345
30
0
41
1
10
246.528953573388
20
14.630405464089
30
0
41
1
10
246.570749651169
20
14.6440923110207
30
0
41
1
10
246.655866590762
20
14.6590507726184
30
0
41
1
10
246.699393808063
20
14.6607186343426
30
0
41
1
10
246.757452543836
20
14.6419488901227
30
0
41
1
10
246.77493140804
20
14.6318085164529
30
0
41
1
10
246.800368721666
20
14.6038202315746
30
0
41
1
10
246.808118862219
20
14.5861062041636
30
0
41
1
10
246.810760871616
20
14.5670304843361
30
0
0
SPLINE
5
26E
100
AcDbEntity
8
1
62
256
6
ByLayer
370
18
48
1
60
0
100
AcDbSpline
70
4
71
3
72
8
73
4
40
0
40
0
40
0
40
0
40
1
40
1
40
1
40
1
41
1
10
246.970458718403
20
11.6977378338713
30
0
41
1
10
246.967656812173
20
11.69188204818
30
0
41
1
10
246.964855470349
20
11.6860270495422
30
0
41
1
10
246.962054671517
20
11.6801728084141
30
0
0
SPLINE
5
26F
100
AcDbEntity
8
1
62
256
6
ByLayer
370
18
48
1
60
0
100
AcDbSpline
70
4
71
3
72
16
73
12
40
0
40
0
40
0
40
0
40
0.250000000000002
40
0.250000000000002
40
0.500000000000005
40
0.500000000000005
40
0.750000000000007
40
0.750000000000007
40
0.875000000000003
40
0.875000000000003
40
1
40
1
40
1
40
1
41
1
10
248.039428321854
20
14.6378262585511
30
0
41
1
10
248.078696400131
20
14.6177262234176
30
0
41
1
10
248.116305003902
20
14.5944101082781
30
0
41
1
10
248.186416252344
20
14.5411985073458
30
0
41
1
10
248.218980004685
20
14.5113834253471
30
0
41
1
10
248.273952062777
20
14.4438058626346
30
0
41
1
10
248.296815719027
20
14.4060823683035
30
0
41
1
10
248.308762211463
20
14.3443969451355
30
0
41
1
10
248.30839010281
20
14.3233918412098
30
0
41
1
10
248.296133539786
20
14.2856100665146
30
0
41
1
10
248.284264189368
20
14.2690891174161
30
0
41
1
10
248.268671123706
20
14.256343480803
30
0
0
SPLINE
5
270
100
AcDbEntity
8
1
62
256
6
ByLayer
370
18
48
1
60
0
100
AcDbSpline
70
4
71
3
72
16
73
12
40
0
40
0
40
0
40
0
40
0.124999999999947
40
0.124999999999947
40
0.249999999999894
40
0.249999999999894
40
0.49999999999993
40
0.49999999999993
40
0.749999999999965
40
0.749999999999965
40
1
40
1
40
1
40
1
41
1
10
247.582670567633
20
14.6074845573114
30
0
41
1
10
247.585361945435
20
14.6269114794339
30
0
41
1
10
247.593355250091
20
14.6455469973595
30
0
41
1
10
247.61972457386
20
14.6763605543081
30
0
41
1
10
247.637993288717
20
14.6883945816358
30
0
41
1
10
247.697418652211
20
14.7129648318274
30
0
41
1
10
247.742410862011
20
14.7159805258809
30
0
41
1
10
247.830710243336
20
14.71011494529
30
0
41
1
10
247.874414328412
20
14.7009064985354
30
0
41
1
10
247.959061690115
20
14.6748854521949
30
0
41
1
10
248.000187401149
20
14.6579123926185
30
0
41
1
10
248.039428321854
20
14.6378262585511
30
0
0
SPLINE
5
271
100
AcDbEntity
8
1
62
256
6
ByLayer
370
18
48
1
60
0
100
AcDbSpline
70
4
71
3
72
8
73
4
40
0
40
0
40
0
40
0
40
1
40
1
40
1
40
1
41
1
10
245.873802353241
20
12.6830010233061
30
0
41
1
10
245.867505416107
20
12.6828174938618
30
0
41
1
10
245.861209507106
20
12.6826339988646
30
0
41
1
10
245.854914587426
20
12.6824505370096
30
0
0
SPLINE
5
272
100
AcDbEntity
8
1
62
256
6
ByLayer
370
18
48
1
60
0
100
AcDbSpline
70
4
71
3
72
16
73
12
40
0
40
0
40
0
40
0
40
0.125
40
0.125
40
0.25
40
0.25
40
0.5
40
0.5
40
0.75
40
0.75
40
1
40
1
40
1
40
1
41
1
10
248.730272871665
20
12.8331416793297
30
0
41
1
10
248.749603701477
20
12.8268418378664
30
0
41
1
10
248.770379911955
20
12.8257133157356
30
0
41
1
10
248.810165866619
20
12.8357830109906
30
0
41
1
10
248.82899739937
20
12.8469468484285
30
0
41
1
10
248.876613911858
20
12.8897751228552
30
0
41
1
10
248.89808502549
20
12.929157500143
30
0
41
1
10
248.929283837687
20
13.0115768487505
30
0
41
1
10
248.938865890144
20
13.0551255159779
30
0
41
1
10
248.949859798379
20
13.1429823175125
30
0
41
1
10
248.95119709191
20
13.1875273421846
30
0
41
1
10
248.948882553313
20
13.2316913695137
30
0
0
SPLINE
5
273
100
AcDbEntity
8
1
62
256
6
ByLayer
370
18
48
1
60
0
100
AcDbSpline
70
4
71
3
72
16
73
12
40
0
40
0
40
0
40
0
40
0.124999999999955
40
0.124999999999955
40
0.249999999999911
40
0.249999999999911
40
0.499999999999941
40
0.499999999999941
40
0.74999999999997
40
0.74999999999997
40
1
40
1
40
1
40
1
41
1
10
245.854914587426
20
12.6824505370096
30
0
41
1
10
245.838403599963
20
12.6742723054975
30
0
41
1
10
245.819947411053
20
12.6710877004389
30
0
41
1
10
245.783084703225
20
12.6771404095076
30
0
41
1
10
245.764846040091
20
12.6863614803017
30
0
41
1
10
245.717013084421
20
12.7241874600685
30
0
41
1
10
245.69310964528
20
12.7611918578094
30
0
41
1
10
245.655743223957
20
12.8400178547921
30
0
41
1
10
245.642337108486
20
12.8823617631886
30
0
41
1
10
245.62309916793
20
12.9686341806645
30
0
41
1
10
245.617306575145
20
13.0128055438282
30
0
41
1
10
245.614992036548
20
13.0569695711573
30
0
0
SPLINE
5
274
100
AcDbEntity
8
1
62
256
6
ByLayer
370
18
48
1
60
0
100
AcDbSpline
70
4
71
3
72
8
73
4
40
0
40
0
40
0
40
0
40
1
40
1
40
1
40
1
41
1
10
248.367996584875
20
12.1585119117216
30
0
41
1
10
248.371832270212
20
12.1528575084169
30
0
41
1
10
248.375667639265
20
12.1472038654458
30
0
41
1
10
248.379502703666
20
12.1415509542673
30
0
0
SPLINE
5
275
100
AcDbEntity
8
1
62
256
6
ByLayer
370
18
48
1
60
0
100
AcDbSpline
70
4
71
3
72
8
73
4
40
0
40
0
40
0
40
0
40
1
40
1
40
1
40
1
41
1
10
248.689810651724
20
13.6052068287159
30
0
41
1
10
248.682833844938
20
13.6049876306719
30
0
41
1
10
248.675856332184
20
13.6047684143356
30
0
41
1
10
248.668878086185
20
13.6045491790068
30
0
0
SPLINE
5
276
100
AcDbEntity
8
1
62
256
6
ByLayer
370
18
48
1
60
0
100
AcDbSpline
70
4
71
3
72
16
73
12
40
0
40
0
40
0
40
0
40
0.250000000000024
40
0.250000000000024
40
0.500000000000049
40
0.500000000000049
40
0.750000000000073
40
0.750000000000073
40
0.875000000000036
40
0.875000000000036
40
1
40
1
40
1
40
1
41
1
10
245.614992036548
20
13.0569695711573
30
0
41
1
10
245.612675896123
20
13.1011641632066
30
0
41
1
10
245.613814370227
20
13.1455985992344
30
0
41
1
10
245.62393806668
20
13.2335093077217
30
0
41
1
10
245.632833133387
20
13.2769935616708
30
0
41
1
10
245.661836441895
20
13.3594697586756
30
0
41
1
10
245.681718556935
20
13.3988201608808
30
0
41
1
10
245.725807485412
20
13.4416298023903
30
0
41
1
10
245.742835786187
20
13.4524514182293
30
0
41
1
10
245.778660069136
20
13.4621469267922
30
0
41
1
10
245.797241188744
20
13.4608994297425
30
0
41
1
10
245.814452367484
20
13.4545156863958
30
0
0
SPLINE
5
277
100
AcDbEntity
8
1
62
256
6
ByLayer
370
18
48
1
60
0
100
AcDbSpline
70
4
71
3
72
8
73
4
40
0
40
0
40
0
40
0
40
1
40
1
40
1
40
1
41
1
10
246.276054115443
20
12.0313138849225
30
0
41
1
10
246.278595393737
20
12.0373009660616
30
0
41
1
10
246.281137181871
20
12.0432888216791
30
0
41
1
10
246.28367949997
20
12.04927748198
30
0
0
SPLINE
5
278
100
AcDbEntity
8
1
62
256
6
ByLayer
370
18
48
1
60
0
100
AcDbSpline
70
4
71
3
72
18
73
14
40
0
40
0
40
0
40
0
40
0.125000000000025
40
0.125000000000025
40
0.25000000000005
40
0.25000000000005
40
0.500000000000033
40
0.500000000000033
40
0.750000000000016
40
0.750000000000016
40
0.875000000000008
40
0.875000000000008
40
1
40
1
40
1
40
1
41
1
10
245.833294205629
20
13.4559425248561
30
0
41
1
10
245.863386815406
20
13.4582213307965
30
0
41
1
10
245.892471722503
20
13.4712540552896
30
0
41
1
10
245.947137616773
20
13.5066274277009
30
0
41
1
10
245.972528552686
20
13.529087679854
30
0
41
1
10
246.043330933246
20
13.6041797757763
30
0
41
1
10
246.083677285638
20
13.6645986293789
30
0
41
1
10
246.149348867431
20
13.7941061025678
30
0
41
1
10
246.174604039931
20
13.8629257144954
30
0
41
1
10
246.194632945671
20
13.9670638010133
30
0
41
1
10
246.198253326502
20
14.0019075885752
30
0
41
1
10
246.195728255809
20
14.0692046114489
30
0
41
1
10
246.189802531023
20
14.1017660481369
30
0
41
1
10
246.17468385455
20
14.1290382905912
30
0
0
SPLINE
5
279
100
AcDbEntity
8
1
62
256
6
ByLayer
370
18
48
1
60
0
100
AcDbSpline
70
4
71
3
72
18
73
14
40
0
40
0
40
0
40
0
40
0.124999999999956
40
0.124999999999956
40
0.249999999999911
40
0.249999999999911
40
0.499999999999913
40
0.499999999999913
40
0.749999999999914
40
0.749999999999914
40
0.874999999999957
40
0.874999999999957
40
1
40
1
40
1
40
1
41
1
10
247.721725514054
20
11.7371100582804
30
0
41
1
10
247.702180142612
20
11.7634348620795
30
0
41
1
10
247.674154617537
20
11.783362436763
30
0
41
1
10
247.612439777223
20
11.8152078021421
30
0
41
1
10
247.578761234383
20
11.8268909153287
30
0
41
1
10
247.474709034171
20
11.8529325871228
30
0
41
1
10
247.401100325296
20
11.8585114543556
30
0
41
1
10
247.256560950158
20
11.8509231554122
30
0
41
1
10
247.185889233689
20
11.837833595895
30
0
41
1
10
247.089941163335
20
11.8012400835662
30
0
41
1
10
247.059692463783
20
11.7861562265822
30
0
41
1
10
247.006771949533
20
11.7483674746045
30
0
41
1
10
246.983888032938
20
11.7258041506712
30
0
41
1
10
246.970458718403
20
11.6977378338713
30
0
0
SPLINE
5
27A
100
AcDbEntity
8
1
62
256
6
ByLayer
370
18
48
1
60
0
100
AcDbSpline
70
4
71
3
72
16
73
12
40
0
40
0
40
0
40
0
40
0.124999999999998
40
0.124999999999998
40
0.249999999999997
40
0.249999999999997
40
0.499999999999998
40
0.499999999999998
40
0.749999999999999
40
0.749999999999999
40
1
40
1
40
1
40
1
41
1
10
248.379502703666
20
12.1415509542673
30
0
41
1
10
248.396405463267
20
12.1304638446984
30
0
41
1
10
248.410000714465
20
12.115177092227
30
0
41
1
10
248.426130896
20
12.0786062382475
30
0
41
1
10
248.4285858152
20
12.0574813719334
30
0
41
1
10
248.422992630812
20
11.9953995479527
30
0
41
1
10
248.404253809444
20
11.955502611782
30
0
41
1
10
248.356735821998
20
11.8827211665182
30
0
41
1
10
248.327451133537
20
11.8496388086909
30
0
41
1
10
248.263360629917
20
11.7894565590942
30
0
41
1
10
248.228317908498
20
11.7622734745598
30
0
41
1
10
248.19139152639
20
11.738195581298
30
0
0
SPLINE
5
27B
100
AcDbEntity
8
1
62
256
6
ByLayer
370
18
48
1
60
0
100
AcDbSpline
70
4
71
3
72
8
73
4
40
0
40
0
40
0
40
0
40
1
40
1
40
1
40
1
41
1
10
247.733964367534
20
11.7206268813894
30
0
41
1
10
247.729885089837
20
11.7261205529853
30
0
41
1
10
247.725805476292
20
11.7316149360329
30
0
41
1
10
247.721725514054
20
11.7371100582804
30
0
0
SPLINE
5
27C
100
AcDbEntity
8
1
62
256
6
ByLayer
370
18
48
1
60
0
100
AcDbSpline
70
4
71
3
72
20
73
16
40
0
40
0
40
0
40
0
40
0.125000000000001
40
0.125000000000001
40
0.250000000000001
40
0.250000000000001
40
0.375000000000002
40
0.375000000000002
40
0.500000000000002
40
0.500000000000002
40
0.750000000000003
40
0.750000000000003
40
0.875000000000002
40
0.875000000000002
40
1
40
1
40
1
40
1
41
1
10
248.367996584875
20
12.1585119117216
30
0
41
1
10
248.349539847223
20
12.1857200451371
30
0
41
1
10
248.340703764333
20
12.2184035480908
30
0
41
1
10
248.333282355909
20
12.285668895434
30
0
41
1
10
248.334865245712
20
12.3201320028236
30
0
41
1
10
248.344872306323
20
12.3891591503186
30
0
41
1
10
248.353441604393
20
12.4238177864433
30
0
41
1
10
248.375736728929
20
12.4911291129935
30
0
41
1
10
248.389538754432
20
12.5241539417488
30
0
41
1
10
248.43875825694
20
12.6214277544973
30
0
41
1
10
248.480823844108
20
12.6820780210258
30
0
41
1
10
248.556850686083
20
12.7577095080837
30
0
41
1
10
248.584416319433
20
12.7803469208617
30
0
41
1
10
248.644004410265
20
12.8159456778055
30
0
41
1
10
248.6759747606
20
12.8291537801973
30
0
41
1
10
248.709386233797
20
12.8316076774568
30
0
0
SPLINE
5
27D
100
AcDbEntity
8
1
62
256
6
ByLayer
370
18
48
1
60
0
100
AcDbSpline
70
4
71
3
72
8
73
4
40
0
40
0
40
0
40
0
40
1
40
1
40
1
40
1
41
1
10
246.17468385455
20
14.1290382905912
30
0
41
1
10
246.171529478079
20
14.1347283997806
30
0
41
1
10
246.168375712779
20
14.1404177640907
30
0
41
1
10
246.165222535484
20
14.1461064114582
30
0
0
SPLINE
5
27E
100
AcDbEntity
8
1
62
256
6
ByLayer
370
18
48
1
60
0
100
AcDbSpline
70
4
71
3
72
18
73
14
40
0
40
0
40
0
40
0
40
0.125
40
0.125
40
0.250000000000001
40
0.250000000000001
40
0.500000000000001
40
0.500000000000001
40
0.750000000000002
40
0.750000000000002
40
0.875000000000001
40
0.875000000000001
40
1
40
1
40
1
40
1
41
1
10
246.820954925372
20
14.5504401440325
30
0
41
1
10
246.83723643454
20
14.5239442884598
30
0
41
1
10
246.862372290311
20
14.5038652726252
30
0
41
1
10
246.919096512
20
14.4717583600066
30
0
41
1
10
246.950698449704
20
14.4599664165565
30
0
41
1
10
247.049744908583
20
14.4336624049754
30
0
41
1
10
247.12164798585
20
14.4279941493778
30
0
41
1
10
247.266189659957
20
14.435582568805
30
0
41
1
10
247.338558847821
20
14.4487610890284
30
0
41
1
10
247.439523700455
20
14.4856175197756
30
0
41
1
10
247.47185601554
20
14.5008105744226
30
0
41
1
10
247.529757311699
20
14.5388603581192
30
0
41
1
10
247.555526947086
20
14.5615749161661
30
0
41
1
10
247.572221721022
20
14.5898123684416
30
0
0
SPLINE
5
27F
100
AcDbEntity
8
1
62
256
6
ByLayer
370
18
48
1
60
0
100
AcDbSpline
70
4
71
3
72
16
73
12
40
0
40
0
40
0
40
0
40
0.124999999999991
40
0.124999999999991
40
0.249999999999983
40
0.249999999999983
40
0.499999999999989
40
0.499999999999989
40
0.749999999999994
40
0.749999999999994
40
1
40
1
40
1
40
1
41
1
10
246.165222535484
20
14.1461064114582
30
0
41
1
10
246.150375209176
20
14.1573012417215
30
0
41
1
10
246.138868202608
20
14.1726974344566
30
0
41
1
10
246.126495886057
20
14.2094652297946
30
0
41
1
10
246.125697614139
20
14.2306769173139
30
0
41
1
10
246.135290280817
20
14.2929683452796
30
0
41
1
10
246.155595735046
20
14.3329473851995
30
0
41
1
10
246.205390370863
20
14.4058481445487
30
0
41
1
10
246.235350580087
20
14.438965904919
30
0
41
1
10
246.300320362058
20
14.4991942355415
30
0
41
1
10
246.335556681363
20
14.5263874661111
30
0
41
1
10
246.372483063471
20
14.5504653593729
30
0
0
SPLINE
5
280
100
AcDbEntity
8
1
62
256
6
ByLayer
370
18
48
1
60
0
100
AcDbSpline
70
4
71
3
72
16
73
12
40
0
40
0
40
0
40
0
40
0.125000000000048
40
0.125000000000048
40
0.250000000000096
40
0.250000000000096
40
0.500000000000064
40
0.500000000000064
40
0.750000000000032
40
0.750000000000032
40
1
40
1
40
1
40
1
41
1
10
246.962054671517
20
11.6801728084141
30
0
41
1
10
246.961418727008
20
11.660853606986
30
0
41
1
10
246.955513666982
20
11.642327529324
30
0
41
1
10
246.932902208196
20
11.611710913734
30
0
41
1
10
246.916290140622
20
11.5997637076114
30
0
41
1
10
246.860864259418
20
11.575403061405
30
0
41
1
10
246.817438682479
20
11.5724694711006
30
0
41
1
10
246.731415949525
20
11.5784543657769
30
0
41
1
10
246.688387385212
20
11.5876982150745
30
0
41
1
10
246.60461930186
20
11.6137653424408
30
0
41
1
10
246.563687188712
20
11.6307485480525
30
0
41
1
10
246.524446268007
20
11.6508346821198
30
0
0
SPLINE
5
281
100
AcDbEntity
8
1
62
256
6
ByLayer
370
18
48
1
60
0
100
AcDbSpline
70
4
71
3
72
16
73
12
40
0
40
0
40
0
40
0
40
0.250000000000036
40
0.250000000000036
40
0.500000000000072
40
0.500000000000072
40
0.750000000000108
40
0.750000000000108
40
0.875000000000054
40
0.875000000000054
40
1
40
1
40
1
40
1
41
1
10
248.19139152639
20
11.738195581298
30
0
41
1
10
248.154439588538
20
11.7141010243823
30
0
41
1
10
248.115403044618
20
11.6929675332214
30
0
41
1
10
248.033847917886
20
11.6581992378681
30
0
41
1
10
247.991377322638
20
11.6444770409738
30
0
41
1
10
247.903977237058
20
11.6293989247652
30
0
41
1
10
247.858887127736
20
11.627649155341
30
0
41
1
10
247.796781762244
20
11.6462068246837
30
0
41
1
10
247.777657553873
20
11.6562609695195
30
0
41
1
10
247.748481052846
20
11.6840532918898
30
0
41
1
10
247.738654169569
20
11.7016584818265
30
0
41
1
10
247.733964367534
20
11.7206268813894
30
0
0
SPLINE
5
282
100
AcDbEntity
8
1
62
256
6
ByLayer
370
18
48
1
60
0
100
AcDbSpline
70
4
71
3
72
8
73
4
40
0
40
0
40
0
40
0
40
1
40
1
40
1
40
1
41
1
10
245.814452367484
20
13.4545156863958
30
0
41
1
10
245.820731979922
20
13.4549912278446
30
0
41
1
10
245.827012579725
20
13.4554668397449
30
0
41
1
10
245.833294205629
20
13.4559425248561
30
0
0
SPLINE
5
283
100
AcDbEntity
8
1
62
256
6
ByLayer
370
18
48
1
60
0
100
AcDbSpline
70
4
71
3
72
18
73
14
40
0
40
0
40
0
40
0
40
0.12499999999997
40
0.12499999999997
40
0.249999999999941
40
0.249999999999941
40
0.499999999999955
40
0.499999999999955
40
0.749999999999969
40
0.749999999999969
40
0.874999999999984
40
0.874999999999984
40
1
40
1
40
1
40
1
41
1
10
248.668878086185
20
13.6045491790068
30
0
41
1
10
248.635414151084
20
13.6034978436399
30
0
41
1
10
248.602203594125
20
13.6132874133442
30
0
41
1
10
248.539090266042
20
13.6425431347357
30
0
41
1
10
248.509390834018
20
13.6621486851707
30
0
41
1
10
248.426058967271
20
13.7292710420218
30
0
41
1
10
248.377883760267
20
13.7851378431184
30
0
41
1
10
248.299034981342
20
13.9072333965292
30
0
41
1
10
248.268588518887
20
13.9730276631539
30
0
41
1
10
248.242953430791
20
14.0740752897218
30
0
41
1
10
248.237757487755
20
14.1085654040299
30
0
41
1
10
248.238130198256
20
14.1757117252301
30
0
41
1
10
248.243460427307
20
14.2092303599788
30
0
41
1
10
248.259000939456
20
14.2382727203328
30
0
0
SPLINE
5
284
100
AcDbEntity
8
1
62
256
6
ByLayer
370
18
48
1
60
0
100
AcDbSpline
70
4
71
3
72
8
73
4
40
0
40
0
40
0
40
0
40
1
40
1
40
1
40
1
41
1
10
248.709386233797
20
12.8316076774568
30
0
41
1
10
248.716349168566
20
12.8321190684526
30
0
41
1
10
248.723311372122
20
12.832630401692
30
0
41
1
10
248.730272871665
20
12.8331416793297
30
0
0
SPLINE
5
285
100
AcDbEntity
8
1
62
256
6
ByLayer
370
18
48
1
60
0
100
AcDbSpline
70
4
71
1
72
4
73
2
40
0
40
0
40
1
40
1
41
1
10
256.946471987911
20
-7.78020726606078
30
0
41
1
10
256.979329004913
20
-7.53230043973971
30
0
0
SPLINE
5
286
100
AcDbEntity
8
1
62
256
6
ByLayer
370
18
48
1
60
0
100
AcDbSpline
70
4
71
1
72
4
73
2
40
0
40
0
40
1
40
1
41
1
10
256.555958110739
20
-6.80165798648963
30
0
41
1
10
256.990160650632
20
-7.19986589367355
30
0
0
SPLINE
5
287
100
AcDbEntity
8
1
62
256
6
ByLayer
370
18
48
1
60
0
100
AcDbSpline
70
4
71
2
72
12
73
9
40
0
40
0
40
0
40
0.25
40
0.5
40
0.5
40
0.75
40
0.75
40
0.875
40
1
40
1
40
1
41
1
10
255.420025499424
20
0.239587486640772
30
0
41
1
10
255.406122901684
20
0.287747763451307
30
0
41
1
10
255.351710924051
20
0.372905119891414
30
0
41
1
10
255.312275984131
20
0.406941774643286
30
0
41
1
10
255.274561801038
20
0.439493228550958
30
0
41
1
10
255.226950799255
20
0.46091587079701
30
0
41
1
10
255.204839430051
20
0.470864914805759
30
0
41
1
10
255.155223084203
20
0.485052495319451
30
0
41
1
10
255.12926807312
20
0.488446713668878
30
0
0
SPLINE
5
288
100
AcDbEntity
8
1
62
256
6
ByLayer
370
18
48
1
60
0
100
AcDbSpline
70
4
71
1
72
4
73
2
40
0
40
0
40
1
40
1
41
1
10
256.993165867287
20
-7.42790104653994
30
0
41
1
10
256.558963327366
20
-7.02969313935012
30
0
0
SPLINE
5
289
100
AcDbEntity
8
1
62
256
6
ByLayer
370
18
48
1
60
0
100
AcDbSpline
70
4
71
1
72
4
73
2
40
0
40
0
40
1
40
1
41
1
10
256.974066489605
20
-7.09893008110257
30
0
41
1
10
256.935251136586
20
-6.85549650349427
30
0
0
SPLINE
5
28A
100
AcDbEntity
8
1
62
256
6
ByLayer
370
18
48
1
60
0
100
AcDbSpline
70
4
71
3
72
10
73
6
40
0
40
0
40
0
40
0
40
0.53820972494694
40
0.53820972494694
40
1
40
1
40
1
40
1
41
1
10
255.802773775852
20
-14.8227453816357
30
0
41
1
10
255.739253515978
20
-14.8408371616208
30
0
41
1
10
255.675733720846
20
-14.8589321357129
30
0
41
1
10
255.557712529673
20
-14.8925482437228
30
0
41
1
10
255.503211192122
20
-14.9080697810931
30
0
41
1
10
255.448710350991
20
-14.9235947262013
30
0
0
SPLINE
5
28B
100
AcDbEntity
8
1
62
256
6
ByLayer
370
18
48
1
60
0
100
AcDbSpline
70
4
71
1
72
4
73
2
40
0
40
0
40
1
40
1
41
1
10
256.990160650632
20
-7.19986589367332
30
0
41
1
10
256.974066489605
20
-7.09893008110257
30
0
0
SPLINE
5
28C
100
AcDbEntity
8
1
62
256
6
ByLayer
370
18
48
1
60
0
100
AcDbSpline
70
4
71
1
72
4
73
2
40
0
40
0
40
1
40
1
41
1
10
255.877532521835
20
-0.221929977309941
30
0
41
1
10
255.45718922899
20
0.0893585583056904
30
0
0
SPLINE
5
28D
100
AcDbEntity
8
1
62
256
6
ByLayer
370
18
48
1
60
0
100
AcDbSpline
70
4
71
1
72
4
73
2
40
0
40
0
40
1
40
1
41
1
10
255.755461960465
20
0.222426465833223
30
0
41
1
10
255.420025499424
20
0.239587486640772
30
0
0
SPLINE
5
28E
100
AcDbEntity
8
1
62
256
6
ByLayer
370
18
48
1
60
0
100
AcDbSpline
70
4
71
1
72
4
73
2
40
0
40
0
40
1
40
1
41
1
10
255.464704534167
20
0.471285692864939
30
0
41
1
10
255.064382102917
20
0.523637114992226
30
0
0
SPLINE
5
28F
100
AcDbEntity
8
1
62
256
6
ByLayer
370
18
48
1
60
0
100
AcDbSpline
70
4
71
3
72
10
73
6
40
0
40
0
40
0
40
0
40
0.772767251368654
40
0.772767251368654
40
1
40
1
40
1
40
1
41
1
10
255.755386996128
20
0.222430301029789
30
0
41
1
10
255.781380058508
20
0.132386294753076
30
0
41
1
10
255.807375017946
20
0.0423409740897114
30
0
41
1
10
255.841011020498
20
-0.0741803006682744
30
0
41
1
10
255.848654258298
20
-0.100657775594243
30
0
41
1
10
255.856297980859
20
-0.127135586085529
30
0
0
SPLINE
5
290
100
AcDbEntity
8
1
62
256
6
ByLayer
370
18
48
1
60
0
100
AcDbSpline
70
4
71
1
72
4
73
2
40
0
40
0
40
1
40
1
41
1
10
255.661952578269
20
-13.797656523633
30
0
41
1
10
256.051245754527
20
-14.5347064449139
30
0
0
SPLINE
5
291
100
AcDbEntity
8
1
62
256
6
ByLayer
370
18
48
1
60
0
100
AcDbSpline
70
4
71
1
72
4
73
2
40
0
40
0
40
1
40
1
41
1
10
256.979329004913
20
-7.53230043973971
30
0
41
1
10
256.993165867287
20
-7.4279010465402
30
0
0
SPLINE
5
292
100
AcDbEntity
8
1
62
256
6
ByLayer
370
18
48
1
60
0
100
AcDbSpline
70
4
71
1
72
4
73
2
40
0
40
0
40
1
40
1
41
1
10
255.436047913296
20
0.184083910840854
30
0
41
1
10
255.856297980859
20
-0.127135586085188
30
0
0
SPLINE
5
293
100
AcDbEntity
8
1
62
256
6
ByLayer
370
18
48
1
60
0
100
AcDbSpline
70
4
71
2
72
6
73
3
40
0
40
0
40
0
40
1
40
1
40
1
41
1
10
255.45718922899
20
0.0893585583058609
30
0
41
1
10
255.449534875611
20
0.13736344529525
30
0
41
1
10
255.436047913296
20
0.184083910840712
30
0
0
SPLINE
5
294
100
AcDbEntity
8
1
62
256
6
ByLayer
370
18
48
1
60
0
100
AcDbSpline
70
4
71
3
72
12
73
8
40
0
40
0
40
0
40
0
40
0.497245434062894
40
0.497245434062894
40
0.812185186457828
40
0.812185186457828
40
1
40
1
40
1
40
1
41
1
10
255.448710350892
20
-14.9235947262293
30
0
41
1
10
255.434901626005
20
-14.9275282379215
30
0
41
1
10
255.420981168557
20
-14.9310934916951
30
0
41
1
10
255.398108970964
20
-14.9363033155253
30
0
41
1
10
255.389202677279
20
-14.9381737516067
30
0
41
1
10
255.37494005218
20
-14.9409175572071
30
0
41
1
10
255.369600980606
20
-14.9418888149211
30
0
41
1
10
255.36425260761
20
-14.9428060399105
30
0
0
SPLINE
5
295
100
AcDbEntity
8
1
62
256
6
ByLayer
370
18
48
1
60
0
100
AcDbSpline
70
4
71
3
72
8
73
4
40
0
40
0
40
0
40
0
40
1
40
1
40
1
40
1
41
1
10
256.999943169459
20
-7.31377580422873
30
0
41
1
10
257.000415193704
20
-7.34959289635478
30
0
41
1
10
256.997984280209
20
-7.38529867828208
30
0
41
1
10
256.994156289472
20
-7.42094056876019
30
0
0
SPLINE
5
296
100
AcDbEntity
8
1
62
256
6
ByLayer
370
18
48
1
60
0
100
AcDbSpline
70
4
71
3
72
8
73
4
40
0
40
0
40
0
40
0
40
1
40
1
40
1
40
1
41
1
10
256.991122535733
20
-7.20550413084817
30
0
41
1
10
256.995995704894
20
-7.24146324953963
30
0
41
1
10
256.999465411161
20
-7.27752361351068
30
0
41
1
10
256.999943169459
20
-7.31377580422873
30
0
0
SPLINE
5
297
100
AcDbEntity
8
1
62
256
6
ByLayer
370
18
48
1
60
0
100
AcDbSpline
70
4
71
2
72
12
73
9
40
0
40
0
40
0
40
0.25
40
0.5
40
0.5
40
0.75
40
0.75
40
0.875
40
1
40
1
40
1
41
1
10
255.41141995133
20
-14.0864718737357
30
0
41
1
10
255.459904071479
20
-14.0726621365838
30
0
41
1
10
255.545634050104
20
-14.0186135966424
30
0
41
1
10
255.579899576961
20
-13.9794420572434
30
0
41
1
10
255.612669916066
20
-13.9419797810979
30
0
41
1
10
255.634236610219
20
-13.8946867907782
30
0
41
1
10
255.644252554417
20
-13.8727231115672
30
0
41
1
10
255.658535536236
20
-13.8234381716158
30
0
41
1
10
255.661952578269
20
-13.7976565236334
30
0
0
SPLINE
5
298
100
AcDbEntity
8
1
62
256
6
ByLayer
370
18
48
1
60
0
100
AcDbSpline
70
4
71
1
72
4
73
2
40
0
40
0
40
1
40
1
41
1
10
256.863960106162
20
-6.40838912877209
30
0
41
1
10
255.877532521835
20
-0.221929977309941
30
0
0
SPLINE
5
299
100
AcDbEntity
8
1
62
256
6
ByLayer
370
18
48
1
60
0
100
AcDbSpline
70
4
71
3
72
12
73
8
40
0
40
0
40
0
40
0
40
0.441018890616353
40
0.441018890616353
40
0.720346503733404
40
0.720346503733404
40
1
40
1
40
1
40
1
41
1
10
255.856297981409
20
-0.127135587990097
30
0
41
1
10
255.860257765182
20
-0.140852256061578
30
0
41
1
10
255.863846796807
20
-0.154679928228404
30
0
41
1
10
255.869091216185
20
-0.177399787793547
30
0
41
1
10
255.870974031135
20
-0.186246790187084
30
0
41
1
10
255.874436273443
20
-0.204007301324708
30
0
41
1
10
255.876015849122
20
-0.212923465121918
30
0
41
1
10
255.877441505976
20
-0.221862576531805
30
0
0
SPLINE
5
29A
100
AcDbEntity
8
1
62
256
6
ByLayer
370
18
48
1
60
0
100
AcDbSpline
70
4
71
1
72
4
73
2
40
0
40
0
40
1
40
1
41
1
10
255.353368705911
20
-14.9447770020325
30
0
41
1
10
255.260180841382
20
-14.1233873729933
30
0
0
SPLINE
5
29B
100
AcDbEntity
8
1
62
256
6
ByLayer
370
18
48
1
60
0
100
AcDbSpline
70
4
71
2
72
6
73
3
40
0
40
0
40
0
40
1
40
1
40
1
41
1
10
255.260180841382
20
-14.1233873729933
30
0
41
1
10
255.308508526824
20
-14.1157841458327
30
0
41
1
10
255.355543154004
20
-14.1023872679226
30
0
0
SPLINE
5
29C
100
AcDbEntity
8
1
62
256
6
ByLayer
370
18
48
1
60
0
100
AcDbSpline
70
4
71
3
72
12
73
8
40
0
40
0
40
0
40
0
40
0.5
40
0.5
40
0.75
40
0.75
40
1
40
1
40
1
40
1
41
1
10
255.46470521095
20
0.471383775955275
30
0
41
1
10
255.531820335422
20
0.462548683881408
30
0
41
1
10
255.596055297972
20
0.433715480641467
30
0
41
1
10
255.673063730652
20
0.367993989323452
30
0
41
1
10
255.695509450628
20
0.34230241652449
30
0
41
1
10
255.73190157389
20
0.285663313674831
30
0
41
1
10
255.745314905139
20
0.254619519507656
30
0
41
1
10
255.755465232709
20
0.222517626712829
30
0
0
SPLINE
5
29D
100
AcDbEntity
8
1
62
256
6
ByLayer
370
18
48
1
60
0
100
AcDbSpline
70
4
71
1
72
4
73
2
40
0
40
0
40
1
40
1
41
1
10
256.935251136586
20
-6.85549650349427
30
0
41
1
10
256.863960106162
20
-6.40838912877209
30
0
0
SPLINE
5
29E
100
AcDbEntity
8
1
62
256
6
ByLayer
370
18
48
1
60
0
100
AcDbSpline
70
4
71
1
72
4
73
2
40
0
40
0
40
1
40
1
41
1
10
256.051245754527
20
-14.5347064449139
30
0
41
1
10
256.886152637063
20
-8.23531793036446
30
0
0
SPLINE
5
29F
100
AcDbEntity
8
1
62
256
6
ByLayer
370
18
48
1
60
0
100
AcDbSpline
70
4
71
1
72
4
73
2
40
0
40
0
40
1
40
1
41
1
10
255.355543154004
20
-14.1023872679226
30
0
41
1
10
255.448710350991
20
-14.9235947262013
30
0
0
SPLINE
5
2A0
100
AcDbEntity
8
1
62
256
6
ByLayer
370
18
48
1
60
0
100
AcDbSpline
70
4
71
3
72
12
73
8
40
0
40
0
40
0
40
0
40
0.5
40
0.5
40
0.75
40
0.75
40
1
40
1
40
1
40
1
41
1
10
256.051250855159
20
-14.5346141006389
30
0
41
1
10
256.042356361293
20
-14.6012809462317
30
0
41
1
10
256.013331276518
20
-14.665088847476
30
0
41
1
10
255.947166936302
20
-14.7415819995648
30
0
41
1
10
255.921302936034
20
-14.7638781240308
30
0
41
1
10
255.864283768512
20
-14.8000279582678
30
0
41
1
10
255.833031534705
20
-14.8133520024953
30
0
41
1
10
255.80071409059
20
-14.8234348411018
30
0
0
SPLINE
5
2A1
100
AcDbEntity
8
1
62
256
6
ByLayer
370
18
48
1
60
0
100
AcDbSpline
70
4
71
2
72
7
73
4
40
0
40
0
40
0
40
0.5
40
1
40
1
40
1
41
1
10
256.558963327366
20
-7.02969313935017
30
0
41
1
10
256.566455467085
20
-6.97316480090763
30
0
41
1
10
256.565029418031
20
-6.858549412515
30
0
41
1
10
256.555958110739
20
-6.80165798648963
30
0
0
SPLINE
5
2A2
100
AcDbEntity
8
1
62
256
6
ByLayer
370
18
48
1
60
0
100
AcDbSpline
70
4
71
1
72
4
73
2
40
0
40
0
40
1
40
1
41
1
10
255.12926807312
20
0.488446713668935
30
0
41
1
10
255.464704534167
20
0.471285692864939
30
0
0
SPLINE
5
2A3
100
AcDbEntity
8
1
62
256
6
ByLayer
370
18
48
1
60
0
100
AcDbSpline
70
4
71
1
72
4
73
2
40
0
40
0
40
1
40
1
41
1
10
255.800713127579
20
-14.8235217950163
30
0
41
1
10
255.41141995133
20
-14.0864718737356
30
0
0
SPLINE
5
2A4
100
AcDbEntity
8
1
62
256
6
ByLayer
370
18
48
1
60
0
100
AcDbSpline
70
4
71
1
72
4
73
2
40
0
40
0
40
1
40
1
41
1
10
256.886152637063
20
-8.23531793036446
30
0
41
1
10
256.946471987911
20
-7.78020726606078
30
0
0
SPLINE
5
2A5
100
AcDbEntity
8
1
62
256
6
ByLayer
370
18
48
1
60
0
100
AcDbSpline
70
4
71
3
72
30
73
26
40
0
40
0
40
0
40
0
40
0.0051638042657501
40
0.0128480730098104
40
0.028216610497931
40
0.0589536854741723
40
0.120427835426655
40
0.24337613533162
40
0.366324435236585
40
0.48543060076952
40
0.48927273514155
40
0.49695700388561
40
0.50464127262967
40
0.520009810117791
40
0.550746885094032
40
0.612221035046515
40
0.73516933495148
40
0.858117634856445
40
0.919591784808927
40
0.950328859785169
40
0.965697397273289
40
0.98106593476141
40
0.98875020350547
40
0.996434472249531
40
1
40
1
40
1
40
1
41
1
10
255.243125024075
20
-13.9278392523766
30
0
41
1
10
255.271808518513
20
-13.9165187858063
30
0
41
1
10
255.343039534719
20
-13.8817126945102
30
0
41
1
10
255.480386952632
20
-13.7456450563036
30
0
41
1
10
255.523309450737
20
-13.4439873464643
30
0
41
1
10
255.588462061973
20
-12.9401113494354
30
0
41
1
10
255.724904343616
20
-11.9188420825518
30
0
41
1
10
255.914859173729
20
-10.466663045724
30
0
41
1
10
256.151947525554
20
-8.74134403143572
30
0
41
1
10
256.30549503215
20
-7.57718556799585
30
0
41
1
10
256.384581729114
20
-6.94882395713663
30
0
41
1
10
256.380028996094
20
-6.83864465923335
30
0
41
1
10
256.347441572926
20
-6.68802116833308
30
0
41
1
10
256.312706497591
20
-6.43754975015014
30
0
41
1
10
256.228342488665
20
-5.92943823631646
30
0
41
1
10
256.068980504794
20
-4.9160301797678
30
0
41
1
10
255.837404971425
20
-3.46728505997578
30
0
41
1
10
255.604428430213
20
-2.01967917863038
30
0
41
1
10
255.447119657054
20
-1.00423020013395
30
0
41
1
10
255.359596941709
20
-0.500600111534368
30
0
41
1
10
255.324668124435
20
-0.210581438953881
30
0
41
1
10
255.297125794983
20
-0.0138459954042958
30
0
41
1
10
255.226125568118
20
0.159477069847071
30
0
41
1
10
255.134206822724
20
0.251025053440429
30
0
41
1
10
255.075249558788
20
0.283226148667296
30
0
41
1
10
255.056288021179
20
0.291707690222012
30
0
0
SPLINE
5
2A6
100
AcDbEntity
8
1
62
256
6
ByLayer
370
18
48
1
60
0
100
AcDbSpline
70
4
71
3
72
27
73
23
40
0
40
0
40
0
40
0
40
0.0031492170422017
40
0.0188952648208112
40
0.0503873603780302
40
0.113371551492468
40
0.239339933721344
40
0.36530831595022
40
0.487340186234443
40
0.491276698179096
40
0.499149722068401
40
0.507022745957705
40
0.522768793736315
40
0.554260889293534
40
0.617245080407972
40
0.743213462636848
40
0.869181844865723
40
0.932166035980161
40
0.96365813153738
40
0.97940417931599
40
0.995150227094599
40
1
40
1
40
1
40
1
41
1
10
255.290068548888
20
-13.7152476977988
30
0
41
1
10
255.298928336559
20
-13.7055932457849
30
0
41
1
10
255.346800644065
20
-13.643262177179
30
0
41
1
10
255.379717997619
20
-13.4119202486907
30
0
41
1
10
255.444792430016
20
-12.9086488696497
30
0
41
1
10
255.581248714967
20
-11.8872747881266
30
0
41
1
10
255.771238301757
20
-10.4348300411958
30
0
41
1
10
256.008337074308
20
-8.70943519409826
30
0
41
1
10
256.161778378096
20
-7.54608193356168
30
0
41
1
10
256.239322229869
20
-6.92997857504955
30
0
41
1
10
256.235770288885
20
-6.84401913877895
30
0
41
1
10
256.204647893566
20
-6.70016720535395
30
0
41
1
10
256.169435670453
20
-6.44625511863904
30
0
41
1
10
256.085284583357
20
-5.93942600039938
30
0
41
1
10
255.925855621701
20
-4.92559202152879
30
0
41
1
10
255.69432066563
20
-3.47710075481228
30
0
41
1
10
255.461289455866
20
-2.02915518897646
30
0
41
1
10
255.304117483047
20
-1.01458927480766
30
0
41
1
10
255.216180357965
20
-0.508574557122699
30
0
41
1
10
255.180969511578
20
-0.216214158839392
30
0
41
1
10
255.158017328295
20
-0.0522662267514136
30
0
41
1
10
255.126022008081
20
0.0336680064693837
30
0
41
1
10
255.116881203963
20
0.05270652503674
30
0
0
SPLINE
5
2A7
100
AcDbEntity
8
1
62
256
6
ByLayer
370
13
48
1
60
0
100
AcDbSpline
70
4
71
3
72
8
73
4
40
0
40
0
40
0
40
0
40
1
40
1
40
1
40
1
41
1
10
238.897076176785
20
20.6770847845341
30
0
41
1
10
238.844833019434
20
20.6824200524049
30
0
41
1
10
238.79254748621
20
20.6877610550818
30
0
41
1
10
238.740350021923
20
20.6930901394092
30
0
0
SPLINE
5
2A8
100
AcDbEntity
8
1
62
256
6
ByLayer
370
13
48
1
60
0
100
AcDbSpline
70
4
71
1
72
4
73
2
40
0
40
0
40
1
40
1
41
1
10
237.443155184393
20
12.5579568002875
30
0
41
1
10
237.667749863994
20
12.5717859779182
30
0
0
SPLINE
5
2A9
100
AcDbEntity
8
1
62
256
6
ByLayer
370
13
48
1
60
0
100
AcDbSpline
70
4
71
3
72
18
73
14
40
0
40
0
40
0
40
0
40
0.5
40
0.5
40
0.749999999999994
40
0.749999999999994
40
0.874999999999997
40
0.874999999999997
40
0.906249999999998
40
0.906249999999998
40
0.937499999999999
40
0.937499999999999
40
1
40
1
40
1
40
1
41
1
10
247.002543820049
20
19.343203485688
30
0
41
1
10
245.993198177651
20
19.2903059220409
30
0
41
1
10
244.983852212612
20
19.237416361628
30
0
41
1
10
243.469833700359
20
19.1580671326361
30
0
41
1
10
242.965161596705
20
19.131594494496
30
0
41
1
10
242.208151630987
20
19.0919420209156
30
0
41
1
10
241.955815901456
20
19.0786956454569
30
0
41
1
10
241.640395221315
20
19.0621694472024
30
0
41
1
10
241.577326981255
20
19.0583682161201
30
0
41
1
10
241.451120360573
20
19.0529543037147
30
0
41
1
10
241.387926458573
20
19.0530740193498
30
0
41
1
10
241.198067194268
20
19.0620936350883
30
0
41
1
10
241.071129232942
20
19.0794992627799
30
0
41
1
10
240.943795474741
20
19.1092546795538
30
0
0
SPLINE
5
2AA
100
AcDbEntity
8
1
62
256
6
ByLayer
370
13
48
1
60
0
100
AcDbSpline
70
4
71
3
72
9
73
5
40
0
40
0
40
0
40
0
40
0.513495271764129
40
1
40
1
40
1
40
1
41
1
10
238.611235920454
20
20.6848415365544
30
0
41
1
10
238.633310610094
20
20.6866076132153
30
0
41
1
10
238.676364855248
20
20.6891441566081
30
0
41
1
10
238.719408567368
20
20.6918024671361
30
0
41
1
10
238.740350021924
20
20.6930901394075
30
0
0
SPLINE
5
2AB
100
AcDbEntity
8
1
62
256
6
ByLayer
370
13
48
1
60
0
100
AcDbSpline
70
4
71
3
72
10
73
6
40
0
40
0
40
0
40
0
40
0.5
40
0.5
40
1
40
1
40
1
40
1
41
1
10
240.894949215285
20
5.84988426916144
30
0
41
1
10
240.891273613589
20
5.84969163903904
30
0
41
1
10
240.873977397777
20
5.85899883535947
30
0
41
1
10
240.822589639776
20
5.89033726838696
30
0
41
1
10
240.788397109555
20
5.91236959413754
30
0
41
1
10
240.755715336686
20
5.93410067216428
30
0
0
SPLINE
5
2AC
100
AcDbEntity
8
1
62
256
6
ByLayer
370
13
48
1
60
0
100
AcDbSpline
70
4
71
2
72
6
73
3
40
0
40
0
40
0
40
1
40
1
40
1
41
0.99883560370872
10
237.445564656397
20
12.6288280241497
30
0
41
0.998293048640321
10
237.442684590944
20
12.5934506099597
30
0
41
1
10
237.443155184393
20
12.5579568002875
30
0
0
SPLINE
5
2AD
100
AcDbEntity
8
1
62
256
6
ByLayer
370
13
48
1
60
0
100
AcDbSpline
70
4
71
1
72
4
73
2
40
0
40
0
40
1
40
1
41
1
10
237.355472024303
20
12.5849580841015
30
0
41
1
10
237.443827408032
20
12.5921672010493
30
0
0
SPLINE
5
2AE
100
AcDbEntity
8
1
62
256
6
ByLayer
370
13
48
1
60
0
100
AcDbSpline
70
4
71
3
72
20
73
16
40
0
40
0
40
0
40
0
40
0.0624999999999632
40
0.0624999999999632
40
0.124999999999927
40
0.124999999999927
40
0.15624999999992
40
0.15624999999992
40
0.187499999999914
40
0.187499999999914
40
0.249999999999901
40
0.249999999999901
40
0.499999999999926
40
0.499999999999926
40
1
40
1
40
1
40
1
41
1
10
253.564734605263
20
20.0052587567331
30
0
41
1
10
253.448506570563
20
19.9242352049021
30
0
41
1
10
253.32606487107
20
19.8561087986459
30
0
41
1
10
253.069164927891
20
19.7447976469625
30
0
41
1
10
252.933057379849
20
19.7014556895702
30
0
41
1
10
252.728522236348
20
19.6581197530403
30
0
41
1
10
252.6600794437
20
19.6471542666159
30
0
41
1
10
252.522676653961
20
19.6320300380939
30
0
41
1
10
252.453639969232
20
19.6288805548213
30
0
41
1
10
252.246636586545
20
19.6180282391704
30
0
41
1
10
252.108632104361
20
19.6108226716102
30
0
41
1
10
251.418619370441
20
19.5746674782328
30
0
41
1
10
250.866613176068
20
19.5456904983319
30
0
41
1
10
249.21058386711
20
19.4589024295401
30
0
41
1
10
248.106563333235
20
19.4010626966591
30
0
41
1
10
247.002543820049
20
19.3432034856879
30
0
0
SPLINE
5
2AF
100
AcDbEntity
8
1
62
256
6
ByLayer
370
13
48
1
60
0
100
AcDbSpline
70
4
71
2
72
6
73
3
40
0
40
0
40
0
40
1
40
1
40
1
41
1
10
237.452280732669
20
12.4507863992938
30
0
41
0.997409491337352
10
237.443870000502
20
12.5040428604616
30
0
41
1
10
237.443155184393
20
12.5579568002875
30
0
0
SPLINE
5
2B0
100
AcDbEntity
8
1
62
256
6
ByLayer
370
13
48
1
60
0
100
AcDbSpline
70
4
71
2
72
6
73
3
40
0
40
0
40
0
40
1
40
1
40
1
41
1
10
237.449436262944
20
12.6653262895854
30
0
41
0.999116442697031
10
237.447054215958
20
12.6471250963545
30
0
41
0.99883560370872
10
237.445564656397
20
12.6288280241497
30
0
0
SPLINE
5
2B1
100
AcDbEntity
8
1
62
256
6
ByLayer
370
13
48
1
60
0
100
AcDbSpline
70
4
71
3
72
22
73
18
40
0
40
0
40
0
40
0
40
0.125
40
0.125
40
0.25
40
0.25
40
0.375
40
0.375
40
0.5
40
0.5
40
0.625
40
0.625
40
0.75
40
0.75
40
0.875
40
0.875
40
1
40
1
40
1
40
1
41
1
10
255.832381499117
20
20.8488157570137
30
0
41
1
10
255.823722805411
20
20.9054451639744
30
0
41
1
10
255.809613252836
20
20.9601614007511
30
0
41
1
10
255.769352918802
20
21.0653675825175
30
0
41
1
10
255.743113707508
20
21.1165744944333
30
0
41
1
10
255.680615312498
20
21.2114219835694
30
0
41
1
10
255.644870287778
20
21.2550774420099
30
0
41
1
10
255.563875515223
20
21.3344217457279
30
0
41
1
10
255.518643391064
20
21.3700373869238
30
0
41
1
10
255.423327506442
20
21.4301346746428
30
0
41
1
10
255.372605223137
20
21.4550974910547
30
0
41
1
10
255.265296634571
20
21.4941993972738
30
0
41
1
10
255.210574939983
20
21.5079203793594
30
0
41
1
10
255.099023469466
20
21.5238483379025
30
0
41
1
10
255.04185540394
20
21.5242853967478
30
0
41
1
10
254.927897041924
20
21.5262041116572
30
0
41
1
10
254.870918627442
20
21.5265664337512
30
0
41
1
10
254.813940881607
20
21.5264079556184
30
0
0
SPLINE
5
2B2
100
AcDbEntity
8
1
62
256
6
ByLayer
370
13
48
1
60
0
100
AcDbSpline
70
4
71
3
72
10
73
6
40
0
40
0
40
0
40
0
40
0.5
40
0.5
40
1
40
1
40
1
40
1
41
1
10
253.713505643406
20
20.4411130243988
30
0
41
1
10
253.70983004171
20
20.4409203942764
30
0
41
1
10
253.719934686791
20
20.4312363037043
30
0
41
1
10
253.761144948735
20
20.3993644907098
30
0
41
1
10
253.792384550105
20
20.3771774085158
30
0
41
1
10
253.825066322975
20
20.3554463304891
30
0
0
SPLINE
5
2B3
100
AcDbEntity
8
1
62
256
6
ByLayer
370
13
48
1
60
0
100
AcDbSpline
70
4
71
3
72
10
73
6
40
0
40
0
40
0
40
0
40
0.5
40
0.5
40
1
40
1
40
1
40
1
41
1
10
240.920872678488
20
5.93416828527512
30
0
41
1
10
240.917196037691
20
5.93397560069573
30
0
41
1
10
240.896924840166
20
5.93388412803421
30
0
41
1
10
240.835824240236
20
5.93388864662964
30
0
41
1
10
240.794913050694
20
5.93397683738962
30
0
41
1
10
240.755715336686
20
5.93410067216428
30
0
0
SPLINE
5
2B4
100
AcDbEntity
8
1
62
256
6
ByLayer
370
13
48
1
60
0
100
AcDbSpline
70
4
71
2
72
6
73
3
40
0
40
0
40
0
40
1
40
1
40
1
41
1
10
237.433633523856
20
12.8065963394874
30
0
41
0.997409491337352
10
237.430835682605
20
12.7527524618778
30
0
41
1
10
237.435760323613
20
12.6990591496261
30
0
0
SPLINE
5
2B5
100
AcDbEntity
8
1
62
256
6
ByLayer
370
13
48
1
60
0
100
AcDbSpline
70
4
71
3
72
12
73
8
40
0
40
0
40
0
40
0
40
0.249999999999935
40
0.249999999999935
40
0.49999999999987
40
0.49999999999987
40
1
40
1
40
1
40
1
41
1
10
238.812216260919
20
20.4532163594453
30
0
41
1
10
238.835750278049
20
20.4538946128201
30
0
41
1
10
238.858371628458
20
20.4537003759371
30
0
41
1
10
238.903943630179
20
20.4536266884923
30
0
41
1
10
238.926780881132
20
20.4536362899507
30
0
41
1
10
238.99523971584
20
20.4536171374731
30
0
41
1
10
239.040842564287
20
20.4535714092129
30
0
41
1
10
239.086464128798
20
20.4535426354693
30
0
0
SPLINE
5
2B6
100
AcDbEntity
8
1
62
256
6
ByLayer
370
13
48
1
60
0
100
AcDbSpline
70
4
71
3
72
8
73
4
40
0
40
0
40
0
40
0
40
1
40
1
40
1
40
1
41
1
10
254.333818721818
20
21.4860901806832
30
0
41
1
10
254.385217998335
20
21.4968571183526
30
0
41
1
10
254.436658819135
20
21.5076341888971
30
0
41
1
10
254.488013299256
20
21.5183902006712
30
0
0
SPLINE
5
2B7
100
AcDbEntity
8
1
62
256
6
ByLayer
370
13
48
1
60
0
100
AcDbSpline
70
4
71
3
72
24
73
20
40
0
40
0
40
0
40
0
40
0.031250000000013
40
0.031250000000013
40
0.062500000000026
40
0.062500000000026
40
0.125000000000052
40
0.125000000000052
40
0.156250000000065
40
0.156250000000065
40
0.171875000000071
40
0.171875000000071
40
0.187500000000078
40
0.187500000000078
40
0.250000000000054
40
0.250000000000054
40
0.500000000000032
40
0.500000000000032
40
1
40
1
40
1
40
1
41
1
10
253.432676705476
20
20.1686036655334
30
0
41
1
10
253.376937492919
20
20.1297473862437
30
0
41
1
10
253.318602396438
20
20.0935423446163
30
0
41
1
10
253.198542587488
20
20.0277346230602
30
0
41
1
10
253.137240685791
20
19.9983200821439
30
0
41
1
10
252.949626291261
20
19.9202500694534
30
0
41
1
10
252.819575120025
20
19.8816044709031
30
0
41
1
10
252.617123326514
20
19.8446107485061
30
0
41
1
10
252.549418369498
20
19.8360434615086
30
0
41
1
10
252.447547240286
20
19.8285345694293
30
0
41
1
10
252.413529593289
20
19.8270636583499
30
0
41
1
10
252.34553185542
20
19.8234822751867
30
0
41
1
10
252.311531899307
20
19.8217100976796
30
0
41
1
10
252.141533890677
20
19.8128190350148
30
0
41
1
10
252.005536063734
20
19.8056963084681
30
0
41
1
10
251.325548475384
20
19.770056341901
30
0
41
1
10
250.7815606078
20
19.7415068510684
30
0
41
1
10
249.14958975165
20
19.6559819001691
30
0
41
1
10
248.06160831274
20
19.5989811730669
30
0
41
1
10
246.973627829448
20
19.5419625320343
30
0
0
SPLINE
5
2B8
100
AcDbEntity
8
1
62
256
6
ByLayer
370
13
48
1
60
0
100
AcDbSpline
70
4
71
3
72
8
73
4
40
0
40
0
40
0
40
0
40
1
40
1
40
1
40
1
41
1
10
254.813940881607
20
21.5264079556184
30
0
41
1
10
254.748387093587
20
21.5262256240471
30
0
41
1
10
254.682834259758
20
21.5253000859127
30
0
41
1
10
254.617282313949
20
21.5236828831387
30
0
0
SPLINE
5
2B9
100
AcDbEntity
8
1
62
256
6
ByLayer
370
13
48
1
60
0
100
AcDbSpline
70
4
71
2
72
6
73
3
40
0
40
0
40
0
40
1
40
1
40
1
41
1
10
237.667749863994
20
12.5717859779182
30
0
41
0.997409491337352
10
237.666984981349
20
12.6294761116063
30
0
41
1
10
237.674470876453
20
12.6866757487559
30
0
0
SPLINE
5
2BA
100
AcDbEntity
8
1
62
256
6
ByLayer
370
13
48
1
60
0
100
AcDbSpline
70
4
71
3
72
24
73
20
40
0
40
0
40
0
40
0
40
0.0312499999999993
40
0.0312499999999993
40
0.0624999999999986
40
0.0624999999999986
40
0.124999999999985
40
0.124999999999985
40
0.156249999999979
40
0.156249999999979
40
0.171874999999975
40
0.171874999999975
40
0.187499999999972
40
0.187499999999972
40
0.249999999999971
40
0.249999999999971
40
0.499999999999981
40
0.499999999999981
40
1
40
1
40
1
40
1
41
1
10
241.185002552887
20
6.12287705832611
30
0
41
1
10
241.240741765444
20
6.16173333761577
30
0
41
1
10
241.299076861924
20
6.19793837924331
30
0
41
1
10
241.419136670874
20
6.26374610079961
30
0
41
1
10
241.480438572571
20
6.29316064171607
30
0
41
1
10
241.6680529671
20
6.37123065440693
30
0
41
1
10
241.798104138336
20
6.40987625295759
30
0
41
1
10
242.000555931846
20
6.4468699753553
30
0
41
1
10
242.068260888861
20
6.45543726235303
30
0
41
1
10
242.170132018073
20
6.46294615443273
30
0
41
1
10
242.20414966507
20
6.46441706551212
30
0
41
1
10
242.272147402939
20
6.46799844867533
30
0
41
1
10
242.306147359051
20
6.46977062618248
30
0
41
1
10
242.47614536768
20
6.47866168884718
30
0
41
1
10
242.612143194624
20
6.48578441539385
30
0
41
1
10
243.292130782972
20
6.52142438196091
30
0
41
1
10
243.836118650553
20
6.54997387279334
30
0
41
1
10
245.468089506699
20
6.63549882369242
30
0
41
1
10
246.55607094563
20
6.6924995507957
30
0
41
1
10
247.64405142892
20
6.74951819182817
30
0
0
SPLINE
5
2BB
100
AcDbEntity
8
1
62
256
6
ByLayer
370
13
48
1
60
0
100
AcDbSpline
70
4
71
1
72
4
73
2
40
0
40
0
40
1
40
1
41
1
10
237.363485305688
20
12.8040894017535
30
0
41
1
10
237.433633523856
20
12.8065963394874
30
0
0
SPLINE
5
2BC
100
AcDbEntity
8
1
62
256
6
ByLayer
370
13
48
1
60
0
100
AcDbSpline
70
4
71
1
72
4
73
2
40
0
40
0
40
1
40
1
41
1
10
237.677514576083
20
12.4571092397566
30
0
41
1
10
237.452280732669
20
12.4507863992938
30
0
0
SPLINE
5
2BD
100
AcDbEntity
8
1
62
256
6
ByLayer
370
13
48
1
60
0
100
AcDbSpline
70
4
71
3
72
12
73
8
40
0
40
0
40
0
40
0
40
0.0590320358307331
40
0.0590320358307331
40
0.539356876111771
40
0.539356876111771
40
1
40
1
40
1
40
1
41
1
10
255.824375736988
20
5.84219227385614
30
0
41
1
10
255.818904515958
20
5.8363615629037
30
0
41
1
10
255.813339795178
20
5.83060863633833
30
0
41
1
10
255.761654647337
20
5.77877801032488
30
0
41
1
10
255.711011046268
20
5.73892966462162
30
0
41
1
10
255.60273717568
20
5.67325392098462
30
0
41
1
10
255.545274705539
20
5.64707857751227
30
0
41
1
10
255.486471158415
20
5.62791536798571
30
0
0
SPLINE
5
2BE
100
AcDbEntity
8
1
62
256
6
ByLayer
370
13
48
1
60
0
100
AcDbSpline
70
4
71
3
72
20
73
16
40
0
40
0
40
0
40
0
40
0.5
40
0.5
40
0.75
40
0.75
40
0.875000000000014
40
0.875000000000014
40
0.906250000000017
40
0.906250000000017
40
0.921875000000019
40
0.921875000000019
40
0.937500000000021
40
0.937500000000021
40
1
40
1
40
1
40
1
41
1
10
247.64405142892
20
6.74951819182814
30
0
41
1
10
248.643939984701
20
6.8019201305672
30
0
41
1
10
249.643828935375
20
6.85431445964335
30
0
41
1
10
251.143661657582
20
6.93291958620549
30
0
41
1
10
251.643604793759
20
6.95914269218511
30
0
41
1
10
252.393522047583
20
6.99842796198757
30
0
41
1
10
252.643494904267
20
7.01151455275823
30
0
41
1
10
252.955958322019
20
7.0279241861881
30
0
41
1
10
253.018454674831
20
7.03113503324553
30
0
41
1
10
253.11219148437
20
7.0361008467122
30
0
41
1
10
253.143437758201
20
7.03774312624742
30
0
41
1
10
253.206036051167
20
7.03897922428072
30
0
41
1
10
253.237375230926
20
7.03882176270557
30
0
41
1
10
253.394272252689
20
7.03413837097176
30
0
41
1
10
253.520427301191
20
7.01804356552137
30
0
41
1
10
253.647281753555
20
6.98840015317705
30
0
0
SPLINE
5
2BF
100
AcDbEntity
8
1
62
256
6
ByLayer
370
13
48
1
60
0
100
AcDbSpline
70
4
71
2
72
6
73
3
40
0
40
0
40
0
40
1
40
1
40
1
41
0.998835603708706
10
237.445564656397
20
12.6288280241503
30
0
41
0.998293048640344
10
237.439002421504
20
12.6637105883474
30
0
41
1
10
237.435760323613
20
12.6990591496261
30
0
0
SPLINE
5
2C0
100
AcDbEntity
8
1
62
256
6
ByLayer
370
13
48
1
60
0
100
AcDbSpline
70
4
71
3
72
10
73
6
40
0
40
0
40
0
40
0
40
0.379774261695978
40
0.379774261695978
40
1
40
1
40
1
40
1
41
1
10
253.690606514196
20
20.3565694551405
30
0
41
1
10
253.69590810414
20
20.3564174958526
30
0
41
1
10
253.70685646548
20
20.356246648871
30
0
41
1
10
253.74791045542
20
20.3558131180823
30
0
41
1
10
253.785868608966
20
20.3555701652637
30
0
41
1
10
253.825066322975
20
20.3554463304891
30
0
0
SPLINE
5
2C1
100
AcDbEntity
8
1
62
256
6
ByLayer
370
13
48
1
60
0
100
AcDbSpline
70
4
71
1
72
4
73
2
40
0
40
0
40
1
40
1
41
1
10
238.78529775925
20
5.44266496684875
30
0
41
1
10
238.755266580128
20
5.44182192145314
30
0
0
SPLINE
5
2C2
100
AcDbEntity
8
1
62
256
6
ByLayer
370
13
48
1
60
0
100
AcDbSpline
70
4
71
3
72
18
73
14
40
0
40
0
40
0
40
0
40
0.500000000000007
40
0.500000000000007
40
0.750000000000004
40
0.750000000000004
40
0.875000000000002
40
0.875000000000002
40
0.906250000000001
40
0.906250000000001
40
0.937500000000001
40
0.937500000000001
40
1
40
1
40
1
40
1
41
1
10
247.652033037024
20
6.95021095938358
30
0
41
1
10
248.661378679422
20
7.00310852303068
30
0
41
1
10
249.670724644462
20
7.05599808344354
30
0
41
1
10
251.184743156715
20
7.13534731243541
30
0
41
1
10
251.689415260369
20
7.16181995057559
30
0
41
1
10
252.446425226087
20
7.20147242415598
30
0
41
1
10
252.698760955618
20
7.21471879961467
30
0
41
1
10
253.014181635759
20
7.23124499786917
30
0
41
1
10
253.077249875818
20
7.23504622895143
30
0
41
1
10
253.2034564965
20
7.24046014135686
30
0
41
1
10
253.266650398501
20
7.24034042572177
30
0
41
1
10
253.456509662806
20
7.23132080998329
30
0
41
1
10
253.583447624132
20
7.21391518229169
30
0
41
1
10
253.710781382333
20
7.18415976551776
30
0
0
SPLINE
5
2C3
100
AcDbEntity
8
1
62
256
6
ByLayer
370
13
48
1
60
0
100
AcDbSpline
70
4
71
3
72
24
73
20
40
0
40
0
40
0
40
0
40
0.0514081714717152
40
0.0514081714717152
40
0.10281634294343
40
0.10281634294343
40
0.154224514415146
40
0.154224514415146
40
0.205632685886861
40
0.205632685886861
40
0.308449028830274
40
0.308449028830274
40
0.411265371773688
40
0.411265371773688
40
0.616898057660518
40
0.616898057660518
40
0.822530743547347
40
0.822530743547347
40
1
40
1
40
1
40
1
41
1
10
256.067370085223
20
6.34911082087319
30
0
41
1
10
256.066024847507
20
6.33162470958675
30
0
41
1
10
256.064329161785
20
6.312696422085
30
0
41
1
10
256.060204044437
20
6.27534142171623
30
0
41
1
10
256.057795208513
20
6.25725956246782
30
0
41
1
10
256.053105407105
20
6.22595214489169
30
0
41
1
10
256.050802429243
20
6.21237281318562
30
0
41
1
10
256.046324629281
20
6.1879296118673
30
0
41
1
10
256.044170679191
20
6.17719206497267
30
0
41
1
10
256.037860186732
20
6.14762360815561
30
0
41
1
10
256.033912537243
20
6.13165148001386
30
0
41
1
10
256.026323651817
20
6.10352136045242
30
0
41
1
10
256.022676981639
20
6.09143839039609
30
0
41
1
10
256.012092440476
20
6.0591380721867
30
0
41
1
10
256.005468004991
20
6.04265896454078
30
0
41
1
10
255.992719946186
20
6.01494636274504
30
0
41
1
10
255.986600320132
20
6.00386155044646
30
0
41
1
10
255.975554508393
20
5.98677497204511
30
0
41
1
10
255.9705723344
20
5.98025500953193
30
0
41
1
10
255.965703257892
20
5.974869780864
30
0
0
SPLINE
5
2C4
100
AcDbEntity
8
1
62
256
6
ByLayer
370
13
48
1
60
0
100
AcDbSpline
70
4
71
3
72
10
73
6
40
0
40
0
40
0
40
0
40
0.196352315102278
40
0.196352315102278
40
1
40
1
40
1
40
1
41
1
10
255.954912744815
20
5.96454429569516
30
0
41
1
10
255.952245174666
20
5.96237719826652
30
0
41
1
10
255.949608654431
20
5.96051113308326
30
0
41
1
10
255.936319302199
20
5.95229974867436
30
0
41
1
10
255.926090674719
20
5.95006080568311
30
0
41
1
10
255.916158767461
20
5.95068835909885
30
0
0
SPLINE
5
2C5
100
AcDbEntity
8
1
62
256
6
ByLayer
370
13
48
1
60
0
100
AcDbSpline
70
4
71
3
72
24
73
20
40
0
40
0
40
0
40
0
40
0.0453611707738146
40
0.0453611707738146
40
0.0907223415476294
40
0.0907223415476294
40
0.136083512321444
40
0.136083512321444
40
0.181444683095259
40
0.181444683095259
40
0.272167024642889
40
0.272167024642889
40
0.36288936619052
40
0.36288936619052
40
0.544334049285781
40
0.544334049285781
40
0.725778732381043
40
0.725778732381043
40
1
40
1
40
1
40
1
41
1
10
238.755266580128
20
5.44182192145314
30
0
41
1
10
238.758432244832
20
5.4245722165453
30
0
41
1
10
238.762097186215
20
5.40592486760539
30
0
41
1
10
238.770104366523
20
5.36920569401457
30
0
41
1
10
238.774390075552
20
5.3514746810005
30
0
41
1
10
238.782326701986
20
5.32082898646783
30
0
41
1
10
238.786036490569
20
5.30756477049809
30
0
41
1
10
238.793044770945
20
5.28372352914334
30
0
41
1
10
238.796309300748
20
5.27326995274672
30
0
41
1
10
238.805675969021
20
5.2445231011086
30
0
41
1
10
238.811271534883
20
5.22905111169135
30
0
41
1
10
238.821759245769
20
5.20186834639961
30
0
41
1
10
238.826648953398
20
5.19023274894724
30
0
41
1
10
238.840551813963
20
5.15921576108275
30
0
41
1
10
238.848862495896
20
5.14351936977411
30
0
41
1
10
238.86443747518
20
5.11729111550707
30
0
41
1
10
238.871682255677
20
5.10690670207731
30
0
41
1
10
238.888897628642
20
5.0855570532471
30
0
41
1
10
238.898399787519
20
5.07692083559974
30
0
41
1
10
238.907305561342
20
5.07111738077316
30
0
0
SPLINE
5
2C6
100
AcDbEntity
8
1
62
256
6
ByLayer
370
13
48
1
60
0
100
AcDbSpline
70
4
71
3
72
14
73
10
40
0
40
0
40
0
40
0
40
0.028845566254307
40
0.028845566254307
40
0.190704638545291
40
0.190704638545291
40
0.352563710836275
40
0.352563710836275
40
1
40
1
40
1
40
1
41
1
10
238.442028669473
20
20.4363464344585
30
0
41
1
10
238.445748379304
20
20.4367835880507
30
0
41
1
10
238.449461339978
20
20.4372089258906
30
0
41
1
10
238.473811516059
20
20.4396759448471
30
0
41
1
10
238.493960038658
20
20.4408620713513
30
0
41
1
10
238.53454235064
20
20.4437337409828
30
0
41
1
10
238.55477046536
20
20.4450592094307
30
0
41
1
10
238.65530261701
20
20.4506213872204
30
0
41
1
10
238.73443250404
20
20.4525206101073
30
0
41
1
10
238.812216260919
20
20.4532163594453
30
0
0
SPLINE
5
2C7
100
AcDbEntity
8
1
62
256
6
ByLayer
370
13
48
1
60
0
100
AcDbSpline
70
4
71
1
72
4
73
2
40
0
40
0
40
1
40
1
41
1
10
238.611235920454
20
20.6848415365544
30
0
41
1
10
238.812216260919
20
20.4532163594453
30
0
0
SPLINE
5
2C8
100
AcDbEntity
8
1
62
256
6
ByLayer
370
13
48
1
60
0
100
AcDbSpline
70
4
71
3
72
9
73
5
40
0
40
0
40
0
40
0
40
0.513495271764501
40
1
40
1
40
1
40
1
41
1
10
240.000396944418
20
4.76779784072377
30
0
41
1
10
240.022535311879
20
4.76834887220087
30
0
41
1
10
240.065618842356
20
4.77032661834119
30
0
41
1
10
240.108704625631
20
4.7721821633977
30
0
41
1
10
240.129665959112
20
4.7730905231931
30
0
0
SPLINE
5
2C9
100
AcDbEntity
8
1
62
256
6
ByLayer
370
13
48
1
60
0
100
AcDbSpline
70
4
71
3
72
8
73
4
40
0
40
0
40
0
40
0
40
1
40
1
40
1
40
1
41
1
10
238.429135371897
20
20.6683279131296
30
0
41
1
10
238.489771464645
20
20.6744498549286
30
0
41
1
10
238.550470382597
20
20.6799665812686
30
0
41
1
10
238.611235920454
20
20.6848415365544
30
0
0
SPLINE
5
2CA
100
AcDbEntity
8
1
62
256
6
ByLayer
370
13
48
1
60
0
100
AcDbSpline
70
4
71
3
72
26
73
22
40
0
40
0
40
0
40
0
40
0.250000000000049
40
0.250000000000049
40
0.375000000000074
40
0.375000000000074
40
0.500000000000099
40
0.500000000000099
40
0.625000000000125
40
0.625000000000125
40
0.687500000000137
40
0.687500000000137
40
0.718750000000143
40
0.718750000000143
40
0.75000000000015
40
0.75000000000015
40
0.812500000000163
40
0.812500000000163
40
0.875000000000176
40
0.875000000000176
40
1
40
1
40
1
40
1
41
1
10
255.916158767461
20
5.95068835909885
30
0
41
1
10
255.878953800937
20
5.92956556805865
30
0
41
1
10
255.837316701716
20
5.90854945506166
30
0
41
1
10
255.763538804947
20
5.87860799402287
30
0
41
1
10
255.737464535297
20
5.86908202428646
30
0
41
1
10
255.680918707225
20
5.85137902735892
30
0
41
1
10
255.650540920248
20
5.84323949261832
30
0
41
1
10
255.58795099653
20
5.83008592382026
30
0
41
1
10
255.556160712593
20
5.82533964419832
30
0
41
1
10
255.510600920774
20
5.82139069590221
30
0
41
1
10
255.495729706954
20
5.82050371625209
30
0
41
1
10
255.473778572275
20
5.8193871472802
30
0
41
1
10
255.466466216565
20
5.81901906875288
30
0
41
1
10
255.452137332758
20
5.81854227191118
30
0
41
1
10
255.445117974333
20
5.81843681257774
30
0
41
1
10
255.422825730756
20
5.81697484975291
30
0
41
1
10
255.40637577707
20
5.8145116076507
30
0
41
1
10
255.375679333173
20
5.8116500670927
30
0
41
1
10
255.360840085432
20
5.81069627457762
30
0
41
1
10
255.315917310783
20
5.80745532773122
30
0
41
1
10
255.286243223907
20
5.8055518741624
30
0
41
1
10
255.257101456476
20
5.80414727600512
30
0
0
SPLINE
5
2CB
100
AcDbEntity
8
1
62
256
6
ByLayer
370
13
48
1
60
0
100
AcDbSpline
70
4
71
1
72
4
73
2
40
0
40
0
40
1
40
1
41
1
10
254.998284672091
20
5.70098309269764
30
0
41
1
10
255.062023229893
20
5.79930233716891
30
0
0
SPLINE
5
2CC
100
AcDbEntity
8
1
62
256
6
ByLayer
370
13
48
1
60
0
100
AcDbSpline
70
4
71
1
72
4
73
2
40
0
40
0
40
1
40
1
41
1
10
239.086464128798
20
20.4535426354693
30
0
41
1
10
238.897076176785
20
20.677084784534
30
0
0
SPLINE
5
2CD
100
AcDbEntity
8
1
62
256
6
ByLayer
370
13
48
1
60
0
100
AcDbSpline
70
4
71
3
72
12
73
8
40
0
40
0
40
0
40
0
40
0.25
40
0.25
40
0.5
40
0.5
40
1
40
1
40
1
40
1
41
1
10
255.062023229893
20
5.79930233716891
30
0
41
1
10
255.040256839814
20
5.79871672120245
30
0
41
1
10
255.019823381595
20
5.79902562065647
30
0
41
1
10
254.978475538296
20
5.79932068686352
30
0
41
1
10
254.957728239269
20
5.79942061514436
30
0
41
1
10
254.895562107812
20
5.79976955422509
30
0
41
1
10
254.854170097097
20
5.80003596313961
30
0
41
1
10
254.812751293587
20
5.80028499425416
30
0
0
SPLINE
5
2CE
100
AcDbEntity
8
1
62
256
6
ByLayer
370
13
48
1
60
0
100
AcDbSpline
70
4
71
3
72
20
73
16
40
0
40
0
40
0
40
0
40
0.500000000000028
40
0.500000000000028
40
0.750000000000042
40
0.750000000000042
40
0.875000000000048
40
0.875000000000048
40
0.906250000000054
40
0.906250000000054
40
0.921875000000049
40
0.921875000000049
40
0.937500000000045
40
0.937500000000045
40
1
40
1
40
1
40
1
41
1
10
246.973627829448
20
19.5419625320343
30
0
41
1
10
245.973739273666
20
19.4895605932953
30
0
41
1
10
244.973850322991
20
19.4371662642191
30
0
41
1
10
243.474017600784
20
19.3585611376569
30
0
41
1
10
242.974074464607
20
19.3323380316773
30
0
41
1
10
242.224157210783
20
19.2930527618748
30
0
41
1
10
241.974184354099
20
19.2799661711042
30
0
41
1
10
241.661720936347
20
19.2635565376743
30
0
41
1
10
241.599224583536
20
19.2603456906169
30
0
41
1
10
241.505487773997
20
19.2553798771503
30
0
41
1
10
241.474241500165
20
19.253737597615
30
0
41
1
10
241.411643207199
20
19.2525014995817
30
0
41
1
10
241.380304027441
20
19.2526589611569
30
0
41
1
10
241.223407005678
20
19.2573423528907
30
0
41
1
10
241.097251957176
20
19.2734371583411
30
0
41
1
10
240.970397504812
20
19.3030805706854
30
0
0
SPLINE
5
2CF
100
AcDbEntity
8
1
62
256
6
ByLayer
370
13
48
1
60
0
100
AcDbSpline
70
4
71
3
72
8
73
4
40
0
40
0
40
0
40
0
40
1
40
1
40
1
40
1
41
1
10
255.257101456476
20
5.80414727600512
30
0
41
1
10
255.190258317073
20
5.8009255170418
30
0
41
1
10
255.125349328787
20
5.79960784586811
30
0
41
1
10
255.062023229893
20
5.79930233716891
30
0
0
SPLINE
5
2D0
100
AcDbEntity
8
1
62
256
6
ByLayer
370
13
48
1
60
0
100
AcDbSpline
70
4
71
3
72
22
73
18
40
0
40
0
40
0
40
0
40
0.125000000000007
40
0.125000000000007
40
0.250000000000013
40
0.250000000000013
40
0.37500000000002
40
0.37500000000002
40
0.500000000000026
40
0.500000000000026
40
0.625000000000033
40
0.625000000000033
40
0.687500000000036
40
0.687500000000036
40
0.75000000000004
40
0.75000000000004
40
1
40
1
40
1
40
1
41
1
10
238.78529775925
20
5.44266496684872
30
0
41
1
10
238.795201698278
20
5.37789143255119
30
0
41
1
10
238.812318017319
20
5.31564933609224
30
0
41
1
10
238.862159481662
20
5.19664360844374
30
0
41
1
10
238.895182632015
20
5.13925169891297
30
0
41
1
10
238.972634385725
20
5.03576363446069
30
0
41
1
10
239.017721445689
20
4.98875681498257
30
0
41
1
10
239.118923289096
20
4.90656941863531
30
0
41
1
10
239.173454745559
20
4.87223306413324
30
0
41
1
10
239.290396355781
20
4.81710534800999
30
0
41
1
10
239.353008430359
20
4.79650976953494
30
0
41
1
10
239.447682786985
20
4.77726771871275
30
0
41
1
10
239.479590878702
20
4.77276519777902
30
0
41
1
10
239.544098935602
20
4.76753905914484
30
0
41
1
10
239.576778362979
20
4.76722770158381
30
0
41
1
10
239.739712603733
20
4.76431810522436
30
0
41
1
10
239.870056668704
20
4.76458227400275
30
0
41
1
10
240.000396944418
20
4.7677978407238
30
0
0
SPLINE
5
2D1
100
AcDbEntity
8
1
62
256
6
ByLayer
370
13
48
1
60
0
100
AcDbSpline
70
4
71
3
72
20
73
16
40
0
40
0
40
0
40
0
40
0.0624999999999771
40
0.0624999999999771
40
0.124999999999954
40
0.124999999999954
40
0.156249999999949
40
0.156249999999949
40
0.187499999999943
40
0.187499999999943
40
0.249999999999945
40
0.249999999999945
40
0.499999999999963
40
0.499999999999963
40
1
40
1
40
1
40
1
41
1
10
241.08984225181
20
6.28815568833846
30
0
41
1
10
241.206070286511
20
6.3691792401695
30
0
41
1
10
241.328511986004
20
6.43730564642564
30
0
41
1
10
241.585411929183
20
6.54861679810907
30
0
41
1
10
241.721519477225
20
6.59195875550137
30
0
41
1
10
241.926054620726
20
6.63529469203124
30
0
41
1
10
241.994497413374
20
6.64626017845569
30
0
41
1
10
242.131900203112
20
6.6613844069777
30
0
41
1
10
242.200936887842
20
6.66453389025034
30
0
41
1
10
242.407940270529
20
6.67538620590111
30
0
41
1
10
242.545944752713
20
6.68259177346138
30
0
41
1
10
243.235957486632
20
6.71874696683875
30
0
41
1
10
243.787963681006
20
6.74772394673968
30
0
41
1
10
245.443992989964
20
6.83451201553146
30
0
41
1
10
246.548013523838
20
6.89235174841244
30
0
41
1
10
247.652033037024
20
6.95021095938364
30
0
0
SPLINE
5
2D2
100
AcDbEntity
8
1
62
256
6
ByLayer
370
13
48
1
60
0
100
AcDbSpline
70
4
71
2
72
6
73
3
40
0
40
0
40
0
40
1
40
1
40
1
41
1
10
237.667749863994
20
12.5717859779182
30
0
41
0.997409491337352
10
237.668514746639
20
12.5140958442288
30
0
41
1
10
237.677514576083
20
12.4571092397566
30
0
0
SPLINE
5
2D3
100
AcDbEntity
8
1
62
256
6
ByLayer
370
13
48
1
60
0
100
AcDbSpline
70
4
71
3
72
9
73
5
40
0
40
0
40
0
40
0
40
0.513495271764009
40
1
40
1
40
1
40
1
41
1
10
254.617282313949
20
21.5236828831387
30
0
41
1
10
254.595143946488
20
21.5231318516616
30
0
41
1
10
254.552060416011
20
21.5211541055213
30
0
41
1
10
254.508974632735
20
21.5192985604648
30
0
41
1
10
254.488013299255
20
21.5183902006694
30
0
0
SPLINE
5
2D4
100
AcDbEntity
8
1
62
256
6
ByLayer
370
13
48
1
60
0
100
AcDbSpline
70
4
71
2
72
6
73
3
40
0
40
0
40
0
40
1
40
1
40
1
41
1
10
256.949929394373
20
13.7196947459443
30
0
41
0.997409491337352
10
256.949164511728
20
13.7773848796337
30
0
41
1
10
256.940164682284
20
13.8343714841058
30
0
0
SPLINE
5
2D5
100
AcDbEntity
8
1
62
256
6
ByLayer
370
13
48
1
60
0
100
AcDbSpline
70
4
71
1
72
4
73
2
40
0
40
0
40
1
40
1
41
1
10
237.674470876453
20
12.6866757487559
30
0
41
1
10
237.449436262944
20
12.6653262895854
30
0
0
SPLINE
5
2D6
100
AcDbEntity
8
1
62
256
6
ByLayer
370
13
48
1
60
0
100
AcDbSpline
70
4
71
2
72
6
73
3
40
0
40
0
40
0
40
1
40
1
40
1
41
1
10
256.949929394373
20
13.7196947459443
30
0
41
0.997409491337352
10
256.950694277017
20
13.6620046122561
30
0
41
1
10
256.943208381914
20
13.6048049751065
30
0
0
SPLINE
5
2D7
100
AcDbEntity
8
SK1
62
256
6
ByLayer
370
13
48
1
60
0
100
AcDbSpline
70
4
71
3
72
8
73
4
40
0
40
0
40
0
40
0
40
1
40
1
40
1
40
1
41
1
10
-79
20
-10.6704826507519
30
0
41
1
10
-79.3663118043068
20
-9.81238370995035
30
0
41
1
10
-79.7021882940637
20
-8.9413126460914
30
0
41
1
10
-80
20
-8.05401763097143
30
0
0
SPLINE
5
2D8
100
AcDbEntity
8
SK1
62
256
6
ByLayer
370
13
48
1
60
0
100
AcDbSpline
70
4
71
3
72
74
73
70
40
0
40
0
40
0
40
0
40
0.0156249999999999
40
0.0156249999999999
40
0.0234374999999999
40
0.0234374999999999
40
0.0312499999999998
40
0.0312499999999998
40
0.0468749999999997
40
0.0468749999999997
40
0.0624999999999996
40
0.0624999999999996
40
0.0781249999999995
40
0.0781249999999995
40
0.0937499999999994
40
0.0937499999999994
40
0.124999999999999
40
0.124999999999999
40
0.140624999999999
40
0.140624999999999
40
0.156249999999999
40
0.156249999999999
40
0.187499999999999
40
0.187499999999999
40
0.249999999999999
40
0.249999999999999
40
0.281249999999999
40
0.281249999999999
40
0.312499999999999
40
0.312499999999999
40
0.374999999999999
40
0.374999999999999
40
0.437499999999999
40
0.437499999999999
40
0.499999999999999
40
0.499999999999999
40
0.562499999999999
40
0.562499999999999
40
0.593749999999999
40
0.593749999999999
40
0.624999999999999
40
0.624999999999999
40
0.687499999999999
40
0.687499999999999
40
0.749999999999999
40
0.749999999999999
40
0.781249999999999
40
0.781249999999999
40
0.812499999999999
40
0.812499999999999
40
0.84375
40
0.84375
40
0.875
40
0.875
40
0.90625
40
0.90625
40
0.9375
40
0.9375
40
0.9453125
40
0.9453125
40
0.953125
40
0.953125
40
0.96875
40
0.96875
40
0.984375
40
0.984375
40
0.9921875
40
0.9921875
40
1
40
1
40
1
40
1
41
1
10
-6.50000000009537
20
10.670482650752
30
0
41
1
10
-6.37048388891068
20
10.6704826507608
30
0
41
1
10
-6.24446776465052
20
10.6528697557375
30
0
41
1
10
-6.06010517952292
20
10.6029156441243
30
0
41
1
10
-5.99927461449792
20
10.5821925812253
30
0
41
1
10
-5.88223506583904
20
10.5345394314587
30
0
41
1
10
-5.82559748012396
20
10.5075199899682
30
0
41
1
10
-5.66065779452136
20
10.417975973631
30
0
41
1
10
-5.55712762892128
20
10.3466184036529
30
0
41
1
10
-5.36736536971405
20
10.1913586531549
30
0
41
1
10
-5.27997153671004
20
10.1068512703449
30
0
41
1
10
-5.11666218977227
20
9.92704332772249
30
0
41
1
10
-5.04055810401205
20
9.83130794393438
30
0
41
1
10
-4.90046448763793
20
9.63491798753748
30
0
41
1
10
-4.83603834410378
20
9.53382715843213
30
0
41
1
10
-4.65598112089407
20
9.22347109153861
30
0
41
1
10
-4.55339976152399
20
9.00719880738419
30
0
41
1
10
-4.41750582616754
20
8.67228763084432
30
0
41
1
10
-4.37530268897782
20
8.55891791867154
30
0
41
1
10
-4.29686000058592
20
8.33134323345735
30
0
41
1
10
-4.26049265592715
20
8.21682554312125
30
0
41
1
10
-4.1585724311424
20
7.87130398108656
30
0
41
1
10
-4.10013853486055
20
7.63834185023578
30
0
41
1
10
-3.94578977994675
20
6.93282891322849
30
0
41
1
10
-3.87048459563749
20
6.45370790232082
30
0
41
1
10
-3.78175631324949
20
5.72457369042985
30
0
41
1
10
-3.75634074966133
20
5.47976683985843
30
0
41
1
10
-3.7120067271199
20
4.98691048522593
30
0
41
1
10
-3.69308648223611
20
4.73862820397792
30
0
41
1
10
-3.64424139462162
20
3.99444565639502
30
0
41
1
10
-3.62191393829291
20
3.49753056604814
30
0
41
1
10
-3.58913059568964
20
2.50225576491911
30
0
41
1
10
-3.57872244966512
20
2.00389538867495
30
0
41
1
10
-3.56529013292472
20
1.00580199142325
30
0
41
1
10
-3.56228022077386
20
0.506068785393097
30
0
41
1
10
-3.56223334097642
20
-0.494754197166372
30
0
41
1
10
-3.56519357916225
20
-0.995843898846687
30
0
41
1
10
-3.57526735092097
20
-1.74852495498422
30
0
41
1
10
-3.57958751937886
20
-1.99959349362723
30
0
41
1
10
-3.59064705878916
20
-2.50209075145548
30
0
41
1
10
-3.59739709579894
20
-2.75385038007658
30
0
41
1
10
-3.62227132036486
20
-3.50710000839359
30
0
41
1
10
-3.64484459181701
20
-4.00580366741292
30
0
41
1
10
-3.71010606722081
20
-4.99571816607528
30
0
41
1
10
-3.75268745857275
20
-5.48693664959626
30
0
41
1
10
-3.84180186701059
20
-6.21737273914593
30
0
41
1
10
-3.87576317934641
20
-6.45978205407948
30
0
41
1
10
-3.95487127334194
20
-6.94225537606115
30
0
41
1
10
-3.99994180570394
20
-7.18182085753699
30
0
41
1
10
-4.10416683371689
20
-7.65518824089065
30
0
41
1
10
-4.16332953330694
20
-7.88926779084468
30
0
41
1
10
-4.30073575990994
20
-8.35126379883343
30
0
41
1
10
-4.37869000461005
20
-8.57819056735369
30
0
41
1
10
-4.55882768232694
20
-9.01890405609001
30
0
41
1
10
-4.66096064418579
20
-9.23316248710555
30
0
41
1
10
-4.9012460930548
20
-9.6450662502447
30
0
41
1
10
-5.04044720826909
20
-9.84412891865716
30
0
41
1
10
-5.24436673816899
20
-10.0673788314332
30
0
41
1
10
-5.28672193295479
20
-10.1108128419076
30
0
41
1
10
-5.37506018490618
20
-10.1949099292502
30
0
41
1
10
-5.42113974977889
20
-10.2356293471388
30
0
41
1
10
-5.56352602684599
20
-10.3512474104622
30
0
41
1
10
-5.66447995477702
20
-10.4202823836625
30
0
41
1
10
-5.88197798496884
20
-10.5378913469096
30
0
41
1
10
-6.00024980803649
20
-10.5867345345007
30
0
41
1
10
-6.18283559041274
20
-10.6361515407661
30
0
41
1
10
-6.24478714200797
20
-10.6488401790656
30
0
41
1
10
-6.37105473569075
20
-10.6660269221224
30
0
41
1
10
-6.43557318110055
20
-10.6704826507564
30
0
41
1
10
-6.50000000009538
20
-10.6704826507521
30
0
0
SPLINE
5
2D9
100
AcDbEntity
8
SK1
62
256
6
ByLayer
370
13
48
1
60
0
100
AcDbSpline
70
4
71
3
72
18
73
14
40
0
40
0
40
0
40
0
40
0.124999999999994
40
0.124999999999994
40
0.249999999999988
40
0.249999999999988
40
0.374999999999981
40
0.374999999999981
40
0.499999999999975
40
0.499999999999975
40
0.749999999999988
40
0.749999999999988
40
1
40
1
40
1
40
1
41
1
10
-77.6338131992802
20
-9.80675144594582
30
0
41
1
10
-77.6747633651724
20
-9.77128805754603
30
0
41
1
10
-77.7208435774768
20
-9.74055738411698
30
0
41
1
10
-77.8223424340443
20
-9.70060949890774
30
0
41
1
10
-77.877225313581
20
-9.69229190808377
30
0
41
1
10
-77.9860246497556
20
-9.7051085468637
30
0
41
1
10
-78.0378757025226
20
-9.72573581195073
30
0
41
1
10
-78.1301404068999
20
-9.78251362708681
30
0
41
1
10
-78.1717204994047
20
-9.81892837813635
30
0
41
1
10
-78.2826414870913
20
-9.93741839107241
30
0
41
1
10
-78.3411195831128
20
-10.0300646017818
30
0
41
1
10
-78.4407354299096
20
-10.2228684878255
30
0
41
1
10
-78.4816839215995
20
-10.3239961106508
30
0
41
1
10
-78.5162221138915
20
-10.4258292340309
30
0
0
SPLINE
5
2DA
100
AcDbEntity
8
1
62
256
6
ByLayer
370
13
48
1
60
0
100
AcDbSpline
70
2053
71
3
72
94
73
90
40
0
40
0
40
0
40
0
40
0.0312499999999951
40
0.0312499999999951
40
0.0468749999999956
40
0.0468749999999956
40
0.0624999999999962
40
0.0624999999999962
40
0.0937499999999973
40
0.0937499999999973
40
0.109375
40
0.109375
40
0.125000000000003
40
0.140625000000006
40
0.140625000000006
40
0.156250000000009
40
0.156250000000009
40
0.187500000000018
40
0.187500000000018
40
0.218750000000025
40
0.218750000000025
40
0.250000000000032
40
0.250000000000032
40
0.265625000000036
40
0.265625000000036
40
0.281250000000039
40
0.281250000000039
40
0.312500000000044
40
0.312500000000044
40
0.328125000000046
40
0.328125000000046
40
0.343750000000048
40
0.343750000000048
40
0.375000000000049
40
0.375000000000049
40
0.406250000000051
40
0.406250000000051
40
0.421875000000052
40
0.421875000000052
40
0.437500000000052
40
0.437500000000052
40
0.468750000000048
40
0.468750000000048
40
0.484375000000049
40
0.484375000000049
40
0.50000000000005
40
0.50000000000005
40
0.531250000000052
40
0.531250000000052
40
0.546875000000053
40
0.546875000000053
40
0.562500000000054
40
0.578125000000055
40
0.578125000000055
40
0.593750000000056
40
0.593750000000056
40
0.625000000000053
40
0.625000000000053
40
0.64062500000005
40
0.64062500000005
40
0.656250000000046
40
0.656250000000046
40
0.687500000000043
40
0.687500000000043
40
0.718750000000039
40
0.718750000000039
40
0.734375000000037
40
0.734375000000037
40
0.750000000000034
40
0.750000000000034
40
0.78125000000003
40
0.78125000000003
40
0.796875000000028
40
0.796875000000028
40
0.812500000000026
40
0.812500000000026
40
0.84375000000002
40
0.84375000000002
40
0.875000000000013
40
0.875000000000013
40
0.906250000000007
40
0.906250000000007
40
0.921875000000004
40
0.921875000000004
40
0.937500000000001
40
0.937500000000001
40
0.968750000000001
40
0.968750000000001
40
1
40
1
40
1
40
1
41
1
10
248.002789113496
20
-2.70750451961746
30
0
41
1
10
248.146232667294
20
-2.70750451961746
30
0
41
1
10
248.287112728151
20
-2.72236843395311
30
0
41
1
10
248.494750168284
20
-2.76599928619714
30
0
41
1
10
248.563343886531
20
-2.78412728630008
30
0
41
1
10
248.699261528206
20
-2.82773145590963
30
0
41
1
10
248.76631913588
20
-2.85317246706418
30
0
41
1
10
248.961007375062
20
-2.9386938550401
30
0
41
1
10
249.083717377177
20
-3.00833644926334
30
0
41
1
10
249.257207833935
20
-3.13157356113095
30
0
41
1
10
249.313455527054
20
-3.17601731839673
30
0
41
1
10
249.419990316983
20
-3.26931626104204
30
0
41
1
10
249.521138817468
20
-3.36736360456706
30
0
41
1
10
249.611824802272
20
-3.47459869439967
30
0
41
1
10
249.697285785805
20
-3.58640420610132
30
0
41
1
10
249.737586695752
20
-3.64490046455393
30
0
41
1
10
249.849008446922
20
-3.82501213057949
30
0
41
1
10
249.910422182733
20
-3.95037997973861
30
0
41
1
10
250.008903919379
20
-4.21099737952605
30
0
41
1
10
250.046034318404
20
-4.34753698271686
30
0
41
1
10
250.093507749288
20
-4.62081299261692
30
0
41
1
10
250.104368802782
20
-4.75826982838407
30
0
41
1
10
250.101724624035
20
-4.96562704346047
30
0
41
1
10
250.097618254588
20
-5.035275196724
30
0
41
1
10
250.083133850406
20
-5.17280200336927
30
0
41
1
10
250.072791068062
20
-5.24076420303561
30
0
41
1
10
250.032721745787
20
-5.44232354570136
30
0
41
1
10
249.99403900466
20
-5.5736126879799
30
0
41
1
10
249.917563895152
20
-5.76587228842843
30
0
41
1
10
249.888946428215
20
-5.82913442165059
30
0
41
1
10
249.826599231572
20
-5.9515751171229
30
0
41
1
10
249.79274901506
20
-6.01108210897155
30
0
41
1
10
249.68319712094
20
-6.18451980219285
30
0
41
1
10
249.599583827835
20
-6.29342144422273
30
0
41
1
10
249.409380144267
20
-6.49687471495744
30
0
41
1
10
249.305121138734
20
-6.58875484683165
30
0
41
1
10
249.136788821668
20
-6.71004784093748
30
0
41
1
10
249.078575611779
20
-6.74780979041242
30
0
41
1
10
248.957747109643
20
-6.81778006597736
30
0
41
1
10
248.894831885741
20
-6.85012208080582
30
0
41
1
10
248.70101210815
20
-6.93728851397452
30
0
41
1
10
248.567618199305
20
-6.98136255096332
30
0
41
1
10
248.361205398845
20
-7.02639680219608
30
0
41
1
10
248.291340087036
20
-7.03786983981021
30
0
41
1
10
248.149381596285
20
-7.05340035792867
30
0
41
1
10
248.07756336048
20
-7.05736758293077
30
0
41
1
10
247.864535697603
20
-7.05776874418751
30
0
41
1
10
247.723892172578
20
-7.04305379942522
30
0
41
1
10
247.514986770693
20
-6.99848130797236
30
0
41
1
10
247.445748153956
20
-6.97979419502377
30
0
41
1
10
247.311328778815
20
-6.9358671639709
30
0
41
1
10
247.180077210987
20
-6.88522639258179
30
0
41
1
10
247.05493409304
20
-6.8215859055274
30
0
41
1
10
246.932824286117
20
-6.75145752239862
30
0
41
1
10
246.873366219092
20
-6.71314004641982
30
0
41
1
10
246.703158905369
20
-6.59109217846066
30
0
41
1
10
246.599149495464
20
-6.49960914663265
30
0
41
1
10
246.456611698605
20
-6.34776608143073
30
0
41
1
10
246.41125840237
20
-6.29451481494286
30
0
41
1
10
246.326680067193
20
-6.18510856340788
30
0
41
1
10
246.287236991396
20
-6.1287496808867
30
0
41
1
10
246.177141812299
20
-5.95484013181883
30
0
41
1
10
246.114520514253
20
-5.8321842257476
30
0
41
1
10
246.011957595568
20
-5.57498498340178
30
0
41
1
10
245.973164753153
20
-5.44348975365202
30
0
41
1
10
245.932993640662
20
-5.24199252140238
30
0
41
1
10
245.922628126816
20
-5.17411322423331
30
0
41
1
10
245.908085226956
20
-5.03688877961159
30
0
41
1
10
245.903915800805
20
-4.96718671523826
30
0
41
1
10
245.901138337644
20
-4.7592342171036
30
0
41
1
10
245.911990505013
20
-4.62184454262012
30
0
41
1
10
245.94731360272
20
-4.417658742822
30
0
41
1
10
245.962282630074
20
-4.34991577242735
30
0
41
1
10
245.998871509249
20
-4.21510544735898
30
0
41
1
10
246.020601501245
20
-4.147844798899
30
0
41
1
10
246.094602508431
20
-3.9515168931602
30
0
41
1
10
246.155894939632
20
-3.82646291589325
30
0
41
1
10
246.302768403268
20
-3.58833159527922
30
0
41
1
10
246.389556149237
20
-3.47419984540417
30
0
41
1
10
246.581689104137
20
-3.26818993062136
30
0
41
1
10
246.687255968686
20
-3.17535897675094
30
0
41
1
10
246.860263009943
20
-3.05191372512073
30
0
41
1
10
246.920776274564
20
-3.01322036356771
30
0
41
1
10
247.044475396773
20
-2.94283528437305
30
0
41
1
10
247.107732345894
20
-2.91103104072476
30
0
41
1
10
247.30164452883
20
-2.82560723235437
30
0
41
1
10
247.436585320162
20
-2.78182941235636
30
0
41
1
10
247.717257643015
20
-2.72239778402141
30
0
41
1
10
247.859345559699
20
-2.70750451961746
30
0
41
1
10
248.002789113496
20
-2.70750451961746
30
0
0
SPLINE
5
2DB
100
AcDbEntity
8
1
62
256
6
ByLayer
370
13
48
1
60
0
100
AcDbSpline
70
4
71
3
72
8
73
4
40
0
40
0
40
0
40
0
40
1
40
1
40
1
40
1
41
1
10
233.173418012479
20
7.41961849822471
30
0
41
1
10
233.20954198262
20
7.55475616637821
30
0
41
1
10
233.243920477799
20
7.69017868721915
30
0
41
1
10
233.27707049551
20
7.8258016893709
30
0
0
SPLINE
5
2DC
100
AcDbEntity
8
1
62
256
6
ByLayer
370
13
48
1
60
0
100
AcDbSpline
70
4
71
3
72
48
73
44
40
0
40
0
40
0
40
0
40
0.125000000000014
40
0.125000000000014
40
0.250000000000029
40
0.250000000000029
40
0.312500000000034
40
0.312500000000034
40
0.375000000000039
40
0.375000000000039
40
0.437500000000044
40
0.437500000000044
40
0.468750000000045
40
0.468750000000045
40
0.500000000000045
40
0.500000000000045
40
0.562500000000045
40
0.562500000000045
40
0.593750000000046
40
0.593750000000046
40
0.609375000000046
40
0.609375000000046
40
0.625000000000046
40
0.625000000000046
40
0.687500000000045
40
0.687500000000045
40
0.718750000000042
40
0.718750000000042
40
0.734375000000041
40
0.734375000000041
40
0.750000000000039
40
0.750000000000039
40
0.812500000000028
40
0.812500000000028
40
0.843750000000024
40
0.843750000000024
40
0.875000000000019
40
0.875000000000019
40
0.906250000000014
40
0.906250000000014
40
0.937500000000009
40
0.937500000000009
40
1
40
1
40
1
40
1
41
1
10
233.798001966033
20
1.49617275808987
30
0
41
1
10
234.54322033436
20
1.37453836402204
30
0
41
1
10
235.292251243253
20
1.26381283927776
30
0
41
1
10
236.80315039488
20
1.07909341136795
30
0
41
1
10
237.564976726995
20
1.00497958883065
30
0
41
1
10
238.722579145441
20
0.936336312032665
30
0
41
1
10
239.111395987687
20
0.920582501137005
30
0
41
1
10
239.893351805784
20
0.906920225890445
30
0
41
1
10
240.282850596367
20
0.909069831239918
30
0
41
1
10
241.058366365789
20
0.934509509771118
30
0
41
1
10
241.444387041191
20
0.957777138590387
30
0
41
1
10
242.020291736376
20
1.0116606027419
30
0
41
1
10
242.212331773202
20
1.0328768362416
30
0
41
1
10
242.592105756107
20
1.08192670948901
30
0
41
1
10
242.779538915685
20
1.1096974507148
30
0
41
1
10
243.334072868572
20
1.2032815189265
30
0
41
1
10
243.69345363009
20
1.27930651321205
30
0
41
1
10
244.214818746053
20
1.41676464005184
30
0
41
1
10
244.385646416697
20
1.46650028154596
30
0
41
1
10
244.637039760684
20
1.54751664706046
30
0
41
1
10
244.720028421572
20
1.57559236579721
30
0
41
1
10
244.884303841654
20
1.63399499268857
30
0
41
1
10
244.965559300576
20
1.6643211217021
30
0
41
1
10
245.363077485416
20
1.82011359040479
30
0
41
1
10
245.656730485728
20
1.95920834894037
30
0
41
1
10
246.058218485226
20
2.19099547190089
30
0
41
1
10
246.185524283907
20
2.27213015441873
30
0
41
1
10
246.366102015942
20
2.39999422114627
30
0
41
1
10
246.42446901857
20
2.4435943328439
30
0
41
1
10
246.536343527705
20
2.53183891297391
30
0
41
1
10
246.590026519919
20
2.57660478729244
30
0
41
1
10
246.847302057301
20
2.80361442655516
30
0
41
1
10
247.017687413529
20
2.99533873127666
30
0
41
1
10
247.220082201592
20
3.29810882473248
30
0
41
1
10
247.278872860223
20
3.40217790036766
30
0
41
1
10
247.376469354957
20
3.61159460485152
30
0
41
1
10
247.415501192566
20
3.71706795442131
30
0
41
1
10
247.475044433684
20
3.92946534864208
30
0
41
1
10
247.495552906479
20
4.03638962285422
30
0
41
1
10
247.518662694452
20
4.25164082876131
30
0
41
1
10
247.521249537349
20
4.36016658172872
30
0
41
1
10
247.502667300357
20
4.6865410492166
30
0
41
1
10
247.455720344079
20
4.90122677910929
30
0
41
1
10
247.378611406312
20
5.11338386917851
30
0
0
SPLINE
5
2DD
100
AcDbEntity
8
1
62
256
6
ByLayer
370
13
48
1
60
0
100
AcDbSpline
70
4
71
3
72
8
73
4
40
0
40
0
40
0
40
0
40
1
40
1
40
1
40
1
41
1
10
237.900809752592
20
14.5859422003629
30
0
41
1
10
237.886940997104
20
14.5592019640402
30
0
41
1
10
237.87159758655
20
14.535141551283
30
0
41
1
10
237.85566143541
20
14.5136381763104
30
0
0
SPLINE
5
2DE
100
AcDbEntity
8
1
62
256
6
ByLayer
370
13
48
1
60
0
100
AcDbSpline
70
4
71
3
72
10
73
6
40
0
40
0
40
0
40
0
40
0.5
40
0.5
40
1
40
1
40
1
40
1
41
1
10
254.397031925755
20
-4.19756806076711
30
0
41
1
10
254.452622709915
20
-4.49468317024233
30
0
41
1
10
254.487136188164
20
-4.79121981200933
30
0
41
1
10
254.516753234938
20
-5.38294933073942
30
0
41
1
10
254.511848176953
20
-5.67814287524624
30
0
41
1
10
254.487362456532
20
-5.97262325396804
30
0
0
SPLINE
5
2DF
100
AcDbEntity
8
1
62
256
6
ByLayer
370
13
48
1
60
0
100
AcDbSpline
70
4
71
3
72
12
73
8
40
0
40
0
40
0
40
0
40
0.25
40
0.25
40
0.5
40
0.5
40
1
40
1
40
1
40
1
41
1
10
234.980651232452
20
9.87344997550844
30
0
41
1
10
235.124521451143
20
9.83584487750159
30
0
41
1
10
235.265612763201
20
9.80620619088702
30
0
41
1
10
235.544392582033
20
9.76020072177505
30
0
41
1
10
235.682515548353
20
9.74366868946717
30
0
41
1
10
236.089067626413
20
9.70912982920112
30
0
41
1
10
236.350843102043
20
9.70533985785272
30
0
41
1
10
236.608010412853
20
9.71313865547185
30
0
0
SPLINE
5
2E0
100
AcDbEntity
8
1
62
256
6
ByLayer
370
13
48
1
60
0
100
AcDbSpline
70
4
71
3
72
26
73
22
40
0
40
0
40
0
40
0
40
0.0856458097796381
40
0.0856458097796381
40
0.171291619559276
40
0.171291619559276
40
0.342583239118552
40
0.342583239118552
40
0.513874858677829
40
0.513874858677829
40
0.599520668457466
40
0.599520668457466
40
0.685166478237103
40
0.685166478237103
40
0.77081228801674
40
0.77081228801674
40
0.856458097796377
40
0.856458097796377
40
0.942103907576014
40
0.942103907576014
40
1
40
1
40
1
40
1
41
1
10
230.003505206318
20
20.4728961207305
30
0
41
1
10
228.953644061121
20
20.5496550312634
30
0
41
1
10
227.903944770425
20
20.6104472457474
30
0
41
1
10
225.803966585489
20
20.6997640407545
30
0
41
1
10
224.753539640269
20
20.7282732830548
30
0
41
1
10
221.605925046143
20
20.7650692533421
30
0
41
1
10
219.510459261811
20
20.724708366747
30
0
41
1
10
215.318687724457
20
20.5153251140316
30
0
41
1
10
213.222376792865
20
20.3463483666156
30
0
41
1
10
210.072869136871
20
19.9974424425453
30
0
41
1
10
209.02311657961
20
19.8653181214302
30
0
41
1
10
206.925786794866
20
19.570474813751
30
0
41
1
10
205.877753428328
20
19.4077076857462
30
0
41
1
10
203.781981632324
20
19.0523260638321
30
0
41
1
10
202.734242471299
20
18.8597130511105
30
0
41
1
10
200.638129017189
20
18.4455662354205
30
0
41
1
10
199.589956745221
20
18.2238005200064
30
0
41
1
10
197.490976167656
20
17.7535979372706
30
0
41
1
10
196.43958841396
20
17.5053442278077
30
0
41
1
10
194.672345325825
20
17.0730659933406
30
0
41
1
10
193.958649384111
20
16.8946115690141
30
0
41
1
10
193.243805167175
20
16.7127729504339
30
0
0
SPLINE
5
2E1
100
AcDbEntity
8
1
62
256
6
ByLayer
370
13
48
1
60
0
100
AcDbSpline
70
4
71
3
72
8
73
4
40
0
40
0
40
0
40
0
40
1
40
1
40
1
40
1
41
1
10
1.42E-14
20
4.97594212184995
30
0
41
1
10
0.031571657597965
20
5.1735845200318
30
0
41
1
10
0.0649171506606621
20
5.37085605809409
30
0
41
1
10
0.0999999999999801
20
5.56776436282993
30
0
0
SPLINE
5
2E2
100
AcDbEntity
8
1
62
256
6
ByLayer
370
13
48
1
60
0
100
AcDbSpline
70
4
71
3
72
18
73
14
40
0
40
0
40
0
40
0
40
0.124999999999988
40
0.124999999999988
40
0.249999999999976
40
0.249999999999976
40
0.374999999999963
40
0.374999999999963
40
0.499999999999951
40
0.499999999999951
40
0.749999999999976
40
0.749999999999976
40
1
40
1
40
1
40
1
41
1
10
241.554549027963
20
4.99987880282706
30
0
41
1
10
241.54158787575
20
4.98709809318322
30
0
41
1
10
241.533233985656
20
4.97805732198708
30
0
41
1
10
241.528353281614
20
4.96912576878233
30
0
41
1
10
241.531728357927
20
4.96906889222552
30
0
41
1
10
241.548059610003
20
4.97662239896584
30
0
41
1
10
241.561099549352
20
4.9842452276487
30
0
41
1
10
241.593059509067
20
5.00494410267387
30
0
41
1
10
241.612263314154
20
5.01819980011558
30
0
41
1
10
241.67532858426
20
5.06439917229392
30
0
41
1
10
241.723358883469
20
5.10271007642598
30
0
41
1
10
241.826162336558
20
5.19416717710308
30
0
41
1
10
241.878228599888
20
5.24491381867682
30
0
41
1
10
241.929956732344
20
5.30120689265894
30
0
0
SPLINE
5
2E3
100
AcDbEntity
8
1
62
256
6
ByLayer
370
13
48
1
60
0
100
AcDbSpline
70
4
71
3
72
16
73
12
40
0
40
0
40
0
40
0
40
0.249999999999997
40
0.249999999999997
40
0.499999999999994
40
0.499999999999994
40
0.749999999999991
40
0.749999999999991
40
0.874999999999996
40
0.874999999999996
40
1
40
1
40
1
40
1
41
1
10
243.626646501034
20
4.44797895337939
30
0
41
1
10
243.933821814435
20
4.55729119229582
30
0
41
1
10
244.231589960058
20
4.64756566984647
30
0
41
1
10
244.81111181534
20
4.79927872334599
30
0
41
1
10
245.092813902437
20
4.8606256087335
30
0
41
1
10
245.640647928377
20
4.96030174244785
30
0
41
1
10
245.906759903617
20
4.99859260229351
30
0
41
1
10
246.293696765572
20
5.0421610523388
30
0
41
1
10
246.42057173142
20
5.05435200658357
30
0
41
1
10
246.668582816348
20
5.07452548827624
30
0
41
1
10
246.789920857414
20
5.08253190484106
30
0
41
1
10
246.908566543539
20
5.0887498617725
30
0
0
SPLINE
5
2E4
100
AcDbEntity
8
1
62
256
6
ByLayer
370
13
48
1
60
0
100
AcDbSpline
70
4
71
3
72
14
73
10
40
0
40
0
40
0
40
0
40
0.25
40
0.25
40
0.5
40
0.5
40
0.75
40
0.75
40
1
40
1
40
1
40
1
41
1
10
241.894599543143
20
6.02721828890429
30
0
41
1
10
241.922215734162
20
6.01996545956112
30
0
41
1
10
241.947046305561
20
6.01141979964746
30
0
41
1
10
241.988786643865
20
5.99260619697858
30
0
41
1
10
242.00628097267
20
5.98205422548602
30
0
41
1
10
242.032567483606
20
5.95998951173829
30
0
41
1
10
242.041520024574
20
5.94851056054193
30
0
41
1
10
242.051601406737
20
5.92471890536089
30
0
41
1
10
242.052574349004
20
5.91239464382389
30
0
41
1
10
242.049832509097
20
5.90036927286775
30
0
0
SPLINE
5
2E5
100
AcDbEntity
8
1
62
256
6
ByLayer
370
13
48
1
60
0
100
AcDbSpline
70
4
71
3
72
10
73
6
40
0
40
0
40
0
40
0
40
0.5
40
0.5
40
1
40
1
40
1
40
1
41
1
10
235.4233643531
20
6.42316979665569
30
0
41
1
10
235.371956496986
20
6.30632377167254
30
0
41
1
10
235.3152379813
20
6.19152329218744
30
0
41
1
10
235.191487070211
20
5.96589500552622
30
0
41
1
10
235.12469033717
20
5.855582497293
30
0
41
1
10
235.054142681045
20
5.74890646730577
30
0
0
SPLINE
5
2E6
100
AcDbEntity
8
1
62
256
6
ByLayer
370
13
48
1
60
0
100
AcDbSpline
70
4
71
3
72
18
73
14
40
0
40
0
40
0
40
0
40
0.145970919375665
40
0.145970919375665
40
0.430647279583777
40
0.430647279583777
40
0.501816369635805
40
0.501816369635805
40
0.572985459687833
40
0.572985459687833
40
0.715323639791889
40
0.715323639791889
40
1
40
1
40
1
40
1
41
1
10
15.4824003832257
20
-14.1000267676643
30
0
41
1
10
14.932573009494
20
-14.61527029618
30
0
41
1
10
14.4045484897481
20
-15.1451162805015
30
0
41
1
10
12.9095943944762
20
-16.7504290720437
30
0
41
1
10
12.0021651823815
20
-17.8656858420907
30
0
41
1
10
10.9741746004051
20
-19.3305533707612
30
0
41
1
10
10.7736245120629
20
-19.6275945219006
30
0
41
1
10
10.3856882322113
20
-20.2256797315466
30
0
41
1
10
10.1981908065698
20
-20.5268796814819
30
0
41
1
10
9.65461998449237
20
-21.436807558573
30
0
41
1
10
9.31741624031989
20
-22.0518301611884
30
0
41
1
10
8.37856976296082
20
-23.92104290506
30
0
41
1
10
7.84901784479794
20
-25.1991580516902
30
0
41
1
10
7.41607349505872
20
-26.5089363073484
30
0
0
SPLINE
5
2E7
100
AcDbEntity
8
1
62
256
6
ByLayer
370
13
48
1
60
0
100
AcDbSpline
70
4
71
3
72
8
73
4
40
0
40
0
40
0
40
0
40
1
40
1
40
1
40
1
41
1
10
236.087455638988
20
4.41899948862044
30
0
41
1
10
236.317118931035
20
4.35323154731429
30
0
41
1
10
236.544899459313
20
4.28815952289398
30
0
41
1
10
236.770739519435
20
4.22380474435286
30
0
0
SPLINE
5
2E8
100
AcDbEntity
8
1
62
256
6
ByLayer
370
13
48
1
60
0
100
AcDbSpline
70
4
71
3
72
26
73
22
40
0
40
0
40
0
40
0
40
0.25
40
0.25
40
0.312500000000001
40
0.312500000000001
40
0.375000000000001
40
0.375000000000001
40
0.500000000000003
40
0.500000000000003
40
0.562500000000003
40
0.562500000000003
40
0.625000000000003
40
0.625000000000003
40
0.750000000000003
40
0.750000000000003
40
0.812500000000002
40
0.812500000000002
40
0.875000000000002
40
0.875000000000002
40
1
40
1
40
1
40
1
41
1
10
7.41647633813933
20
-22.7377973584171
30
0
41
1
10
7.1021845141801
20
-23.0923634343065
30
0
41
1
10
6.85485960385692
20
-23.4523059948005
30
0
41
1
10
6.64061972622994
20
-23.9093347348919
30
0
41
1
10
6.60282240031837
20
-24.0005373796523
30
0
41
1
10
6.53806646272351
20
-24.1804990086231
30
0
41
1
10
6.51095928045551
20
-24.2695683819114
30
0
41
1
10
6.44544758717291
20
-24.5340366554162
30
0
41
1
10
6.42271986325579
20
-24.7067106175713
30
0
41
1
10
6.42229486157603
20
-24.9599939377915
30
0
41
1
10
6.42783614674875
20
-25.0438157341225
30
0
41
1
10
6.44993206704257
20
-25.2066379390131
30
0
41
1
10
6.46643576113357
20
-25.2858879067005
30
0
41
1
10
6.53169921278796
20
-25.5173889515432
30
0
41
1
10
6.59611150831995
20
-25.6634249164533
30
0
41
1
10
6.72359297981112
20
-25.8702983788811
30
0
41
1
10
6.77147433937576
20
-25.9374654068465
30
0
41
1
10
6.87656767979959
20
-26.0662277895726
30
0
41
1
10
6.93372782996254
20
-26.1278031157449
30
0
41
1
10
7.11833613556843
20
-26.3045503543688
30
0
41
1
10
7.2588350686828
20
-26.4117859086582
30
0
41
1
10
7.41607349505871
20
-26.5089363073484
30
0
0
SPLINE
5
2E9
100
AcDbEntity
8
1
62
256
6
ByLayer
370
13
48
1
60
0
100
AcDbSpline
70
4
71
3
72
10
73
6
40
0
40
0
40
0
40
0
40
0.5
40
0.5
40
1
40
1
40
1
40
1
41
1
10
234.707240602693
20
9.90128351283494
30
0
41
1
10
234.75222360418
20
9.90191266117694
30
0
41
1
10
234.797422335765
20
9.90083463584364
30
0
41
1
10
234.88855424778
20
9.89286654619082
30
0
41
1
10
234.93499197218
20
9.88602058389543
30
0
41
1
10
234.980651232452
20
9.87344997550758
30
0
0
SPLINE
5
2EA
100
AcDbEntity
8
1
62
256
6
ByLayer
370
13
48
1
60
0
100
AcDbSpline
70
4
71
3
72
8
73
4
40
0
40
0
40
0
40
0
40
1
40
1
40
1
40
1
41
1
10
37.4499999999999
20
-20.274705745552
30
0
41
1
10
37.3033333327484
20
-20.274678525585
30
0
41
1
10
37.1566666660282
20
-20.2746491068008
30
0
41
1
10
37.01
20
-20.2746174116381
30
0
0
SPLINE
5
2EB
100
AcDbEntity
8
1
62
256
6
ByLayer
370
13
48
1
60
0
100
AcDbSpline
70
4
71
3
72
12
73
8
40
0
40
0
40
0
40
0
40
0.368387172853408
40
0.368387172853408
40
0.684193586426705
40
0.684193586426705
40
1
40
1
40
1
40
1
41
1
10
214.502416321291
20
9.52401529723073
30
0
41
1
10
216.854065306091
20
9.66553650814319
30
0
41
1
10
219.205184324663
20
9.77002611058853
30
0
41
1
10
223.573043786487
20
9.89218092200866
30
0
41
1
10
225.590140496928
20
9.92015769701931
30
0
41
1
10
229.624290903604
20
9.91798048043751
30
0
41
1
10
231.641026971219
20
9.88784185419166
30
0
41
1
10
233.658207811997
20
9.828491349362
30
0
0
SPLINE
5
2EC
100
AcDbEntity
8
1
62
256
6
ByLayer
370
13
48
1
60
0
100
AcDbSpline
70
4
71
3
72
23
73
19
40
0
40
0
40
0
40
0
40
0.125
40
0.125
40
0.25
40
0.25
40
0.375
40
0.375
40
0.5
40
0.625
40
0.625
40
0.75
40
0.75
40
0.875
40
0.875
40
0.9375
40
0.9375
40
1
40
1
40
1
40
1
41
1
10
241.999476950795
20
5.12178108366447
30
0
41
1
10
241.898530937841
20
5.02932575970934
30
0
41
1
10
241.791019925729
20
4.94503252069782
30
0
41
1
10
241.561841690486
20
4.7931864898045
30
0
41
1
10
241.442509459987
20
4.72722164480018
30
0
41
1
10
241.195284459864
20
4.61514880705539
30
0
41
1
10
241.066759108206
20
4.56878648068289
30
0
41
1
10
240.801510842867
20
4.49686091115285
30
0
41
1
10
240.533451422067
20
4.4470624685641
30
0
41
1
10
240.25974126077
20
4.43985856957903
30
0
41
1
10
239.983221481745
20
4.45477745648364
30
0
41
1
10
239.846428035536
20
4.47321233982976
30
0
41
1
10
239.57852294798
20
4.53089306613197
30
0
41
1
10
239.44694923978
20
4.57016060238243
30
0
41
1
10
239.253410457198
20
4.64531002347402
30
0
41
1
10
239.189749884026
20
4.67303171083995
30
0
41
1
10
239.066104068819
20
4.7328908440287
30
0
41
1
10
239.005837835592
20
4.76513311416903
30
0
41
1
10
238.947151413128
20
4.79964012797333
30
0
0
SPLINE
5
2ED
100
AcDbEntity
8
1
62
256
6
ByLayer
370
13
48
1
60
0
100
AcDbSpline
70
4
71
3
72
18
73
14
40
0
40
0
40
0
40
0
40
0.249999999999982
40
0.249999999999982
40
0.374999999999972
40
0.374999999999972
40
0.499999999999962
40
0.499999999999962
40
0.749999999999981
40
0.749999999999981
40
0.87499999999999
40
0.87499999999999
40
1
40
1
40
1
40
1
41
1
10
236.339932312912
20
7.43841156531875
30
0
41
1
10
236.298152793236
20
7.32886502145939
30
0
41
1
10
236.247685118249
20
7.22402649800702
30
0
41
1
10
236.158410187568
20
7.07412400605071
30
0
41
1
10
236.126376960526
20
7.02538926233788
30
0
41
1
10
236.057480209707
20
6.93053726214475
30
0
41
1
10
236.020355729957
20
6.88414031661389
30
0
41
1
10
235.903402547068
20
6.7518000290263
30
0
41
1
10
235.818187023616
20
6.67249284540887
30
0
41
1
10
235.678940682249
20
6.56759218783088
30
0
41
1
10
235.630607232931
20
6.53498608322471
30
0
41
1
10
235.529788807519
20
6.47488379860204
30
0
41
1
10
235.476989807488
20
6.44728296229428
30
0
41
1
10
235.423364353089
20
6.42316979665353
30
0
0
SPLINE
5
2EE
100
AcDbEntity
8
1
62
256
6
ByLayer
370
13
48
1
60
0
100
AcDbSpline
70
4
71
3
72
8
73
4
40
0
40
0
40
0
40
0
40
1
40
1
40
1
40
1
41
1
10
233.277070495511
20
7.8258016893709
30
0
41
1
10
233.277532495979
20
7.82769182080366
30
0
41
1
10
233.278038002923
20
7.82957248876363
30
0
41
1
10
233.2785857761
20
7.83144397676443
30
0
0
SPLINE
5
2EF
100
AcDbEntity
8
1
62
256
6
ByLayer
370
13
48
1
60
0
100
AcDbSpline
70
4
71
3
72
14
73
10
40
0
40
0
40
0
40
0
40
0.5
40
0.5
40
0.749999999999989
40
0.749999999999989
40
0.874999999999994
40
0.874999999999994
40
1
40
1
40
1
40
1
41
1
10
229.635184591719
20
0.594599078033667
30
0
41
1
10
230.173290738803
20
0.293576881926612
30
0
41
1
10
230.731678576034
20
0.0489748112037773
30
0
41
1
10
231.600073314542
20
-0.232177000735589
30
0
41
1
10
231.894701036197
20
-0.311526537448117
30
0
41
1
10
232.344746360996
20
-0.407995629518524
30
0
41
1
10
232.496389543692
20
-0.436425536285469
30
0
41
1
10
232.800892395125
20
-0.485250604607245
30
0
41
1
10
232.953712102133
20
-0.505658010980397
30
0
41
1
10
233.107106212145
20
-0.522017980192715
30
0
0
SPLINE
5
2F0
100
AcDbEntity
8
1
62
256
6
ByLayer
370
13
48
1
60
0
100
AcDbSpline
70
4
71
3
72
8
73
4
40
0
40
0
40
0
40
0
40
1
40
1
40
1
40
1
41
1
10
234.707240602693
20
9.90128351283482
30
0
41
1
10
234.704104788865
20
9.90177072101483
30
0
41
1
10
234.700965123708
20
9.90222946272459
30
0
41
1
10
234.69782153018
20
9.90265916850998
30
0
0
SPLINE
5
2F1
100
AcDbEntity
8
1
62
256
6
ByLayer
370
13
48
1
60
0
100
AcDbSpline
70
4
71
3
72
8
73
4
40
0
40
0
40
0
40
0
40
1
40
1
40
1
40
1
41
1
10
42
20
-7.42163423335427
30
0
41
1
10
40.3333333487006
20
-7.42141963367141
30
0
41
1
10
38.6666666298489
20
-7.42141075509343
30
0
41
1
10
37
20
-7.42174028807753
30
0
0
SPLINE
5
2F2
100
AcDbEntity
8
1
62
256
6
ByLayer
370
13
48
1
60
0
100
AcDbSpline
70
4
71
3
72
38
73
34
40
0
40
0
40
0
40
0
40
0.129453149989286
40
0.224781738291482
40
0.328990791512701
40
0.442193950556494
40
0.564366668424819
40
0.575506694772454
40
0.587089883387105
40
0.59911747394316
40
0.611590657677209
40
0.62451057166267
40
0.637878292246465
40
0.651694827720576
40
0.66596111028757
40
0.680677987369518
40
0.695846212303057
40
0.71146643445904
40
0.727539188822845
40
0.744064885070521
40
0.761043796176263
40
0.778476046588179
40
0.796361600011545
40
0.814700246841795
40
0.83349159129334
40
0.852735038274543
40
0.872429780064209
40
0.892574782850362
40
0.913168773197978
40
0.934210224518772
40
0.955697343622841
40
0.977628057439241
40
1
40
1
40
1
40
1
41
1
10
34.4349137964911
20
-7.53374371686607
30
0
41
1
10
34.5026652935976
20
-7.70258569494047
30
0
41
1
10
34.632725504835
20
-8.00316008906972
30
0
41
1
10
34.8513463696481
20
-8.45741657254638
30
0
41
1
10
35.0841008891123
20
-8.89696859802447
30
0
41
1
10
35.3641353981984
20
-9.37714967993315
30
0
41
1
10
35.5860228321758
20
-9.72346010175298
30
0
41
1
10
35.7207327090426
20
-9.92438985910661
30
0
41
1
10
35.7531707370357
20
-9.97251147778701
30
0
41
1
10
35.7870232375605
20
-10.0223691817739
30
0
41
1
10
35.822317680193
20
-10.0739408843165
30
0
41
1
10
35.8590862644809
20
-10.1271963023845
30
0
41
1
10
35.8973583451927
20
-10.182104030438
30
0
41
1
10
35.9371622381744
20
-10.2386293373345
30
0
41
1
10
35.9785243557681
20
-10.2967345874364
30
0
41
1
10
36.0214690801329
20
-10.3563789209788
30
0
41
1
10
36.0660184123456
20
-10.4175181447003
30
0
41
1
10
36.1121916687312
20
-10.4801045657334
30
0
41
1
10
36.1600051484217
20
-10.544086844993
30
0
41
1
10
36.2094717940271
20
-10.6094098498263
30
0
41
1
10
36.2606008399489
20
-10.6760145127313
30
0
41
1
10
36.3133974507334
20
-10.7438376958789
30
0
41
1
10
36.3678623497024
20
-10.8128120614317
30
0
41
1
10
36.4239914393895
20
-10.8828659545583
30
0
41
1
10
36.4817754132064
20
-10.9539232773068
30
0
41
1
10
36.5411993660697
20
-11.0259034435992
30
0
41
1
10
36.6022423805775
20
-11.0987210718867
30
0
41
1
10
36.6648771864958
20
-11.1722867488119
30
0
41
1
10
36.7290695242584
20
-11.2465037211541
30
0
41
1
10
36.79477864643
20
-11.3212803641383
30
0
41
1
10
36.8619534392633
20
-11.3964819167968
30
0
41
1
10
36.9305454299242
20
-11.4721161998842
30
0
41
1
10
36.9766952681071
20
-11.52195701538
30
0
41
1
10
37
20
-11.5471256159253
30
0
0
SPLINE
5
2F3
100
AcDbEntity
8
1
62
256
6
ByLayer
370
13
48
1
60
0
100
AcDbSpline
70
4
71
3
72
8
73
4
40
0
40
0
40
0
40
0
40
1
40
1
40
1
40
1
41
1
10
239.590378675691
20
20.5866487540111
30
0
41
1
10
239.509151293655
20
20.5790664706243
30
0
41
1
10
239.426199741012
20
20.572453905498
30
0
41
1
10
239.341552379973
20
20.5668678234802
30
0
0
SPLINE
5
2F4
100
AcDbEntity
8
1
62
256
6
ByLayer
370
13
48
1
60
0
100
AcDbSpline
70
4
71
3
72
8
73
4
40
0
40
0
40
0
40
0
40
1
40
1
40
1
40
1
41
1
10
241.929956732343
20
5.30120689265877
30
0
41
1
10
241.951391865019
20
5.32453364837605
30
0
41
1
10
241.972435739482
20
5.3482858425084
30
0
41
1
10
241.993058048494
20
5.37243514789807
30
0
0
SPLINE
5
2F5
100
AcDbEntity
8
1
62
256
6
ByLayer
370
13
48
1
60
0
100
AcDbSpline
70
4
71
3
72
8
73
4
40
0
40
0
40
0
40
0
40
1
40
1
40
1
40
1
41
1
10
241.538118329177
20
6.07975548921658
30
0
41
1
10
241.489934455341
20
6.0781482471136
30
0
41
1
10
241.441792969864
20
6.07727077465148
30
0
41
1
10
241.393731423851
20
6.07755041765824
30
0
0
SPLINE
5
2F6
100
AcDbEntity
8
1
62
256
6
ByLayer
370
13
48
1
60
0
100
AcDbSpline
70
4
71
3
72
8
73
4
40
0
40
0
40
0
40
0
40
1
40
1
40
1
40
1
41
1
10
217.482766877182
20
8.30356835819168
30
0
41
1
10
217.630191141823
20
8.24669603044575
30
0
41
1
10
217.777556450424
20
8.19034759277085
30
0
41
1
10
217.924860659862
20
8.13454208921195
30
0
0
SPLINE
5
2F7
100
AcDbEntity
8
1
62
256
6
ByLayer
370
13
48
1
60
0
100
AcDbSpline
70
4
71
3
72
42
73
38
40
0
40
0
40
0
40
0
40
0.125000000000001
40
0.125000000000001
40
0.187500000000001
40
0.187500000000001
40
0.218750000000001
40
0.218750000000001
40
0.250000000000001
40
0.250000000000001
40
0.375000000000001
40
0.375000000000001
40
0.406250000000001
40
0.406250000000001
40
0.437500000000001
40
0.437500000000001
40
0.500000000000001
40
0.500000000000001
40
0.562500000000001
40
0.562500000000001
40
0.593750000000001
40
0.593750000000001
40
0.625000000000001
40
0.625000000000001
40
0.687500000000001
40
0.687500000000001
40
0.718750000000001
40
0.718750000000001
40
0.750000000000001
40
0.750000000000001
40
0.875000000000001
40
0.875000000000001
40
0.90625
40
0.90625
40
0.9375
40
0.9375
40
1
40
1
40
1
40
1
41
1
10
5.75179999999997
20
-5.56776436283016
30
0
41
1
10
6.18174015101829
20
-5.2286238223088
30
0
41
1
10
6.57818303752829
20
-4.85759322498672
30
0
41
1
10
7.11596181497924
20
-4.24689116069956
30
0
41
1
10
7.28568003616834
20
-4.03424023218852
30
0
41
1
10
7.52434011182528
20
-3.70011029750015
30
0
41
1
10
7.6010825407235
20
-3.58636701477644
30
0
41
1
10
7.74721133268055
20
-3.35639074250162
30
0
41
1
10
7.81682816263616
20
-3.23984256691878
30
0
41
1
10
8.14736095820682
20
-2.64915962068707
30
0
41
1
10
8.35629259460531
20
-2.15150170252446
30
0
41
1
10
8.5370297338826
20
-1.49303553444489
30
0
41
1
10
8.56919942128837
20
-1.35896187601139
30
0
41
1
10
8.62417254309095
20
-1.09095834961747
30
0
41
1
10
8.64708575372863
20
-0.956770448617789
30
0
41
1
10
8.70225060171364
20
-0.553654244649607
30
0
41
1
10
8.72096058109639
20
-0.284174788956392
30
0
41
1
10
8.72220949535152
20
0.256256303295118
30
0
41
1
10
8.70475133930631
20
0.527207821452208
30
0
41
1
10
8.65058558796693
20
0.93477383931085
30
0
41
1
10
8.62784515879795
20
1.07059017606539
30
0
41
1
10
8.57385506920454
20
1.33837827612447
30
0
41
1
10
8.54254297342317
20
1.47087830019618
30
0
41
1
10
8.43611338434397
20
1.86434414001971
30
0
41
1
10
8.34853473086305
20
2.12128610226091
30
0
41
1
10
8.19340478283797
20
2.49902602993538
30
0
41
1
10
8.13772605145898
20
2.62365778405851
30
0
41
1
10
8.0185334754191
20
2.87039124312619
30
0
41
1
10
7.95504045586098
20
2.99238319287636
30
0
41
1
10
7.6223459566769
20
3.58916242939469
30
0
41
1
10
7.3052695002557
20
4.03072381143525
30
0
41
1
10
6.8543599824401
20
4.54424781444294
30
0
41
1
10
6.76125567864418
20
4.64516846738221
30
0
41
1
10
6.57074559576401
20
4.84208538138597
30
0
41
1
10
6.4732948098065
20
4.93815194557897
30
0
41
1
10
6.17463829105105
20
5.21948431959589
30
0
41
1
10
5.96714364346749
20
5.39789941890615
30
0
41
1
10
5.75179999999997
20
5.56776436283016
30
0
0
SPLINE
5
2F8
100
AcDbEntity
8
1
62
256
6
ByLayer
370
13
48
1
60
0
100
AcDbSpline
70
4
71
3
72
8
73
4
40
0
40
0
40
0
40
0
40
1
40
1
40
1
40
1
41
1
10
37
20
-7.42174028807747
30
0
41
1
10
36.7317473820198
20
-7.42179332693007
30
0
41
1
10
36.4637986700044
20
-7.4220442125158
30
0
41
1
10
36.1961524539387
20
-7.42249216010552
30
0
0
SPLINE
5
2F9
100
AcDbEntity
8
1
62
256
6
ByLayer
370
13
48
1
60
0
100
AcDbSpline
70
4
71
3
72
14
73
10
40
0
40
0
40
0
40
0
40
0.25
40
0.25
40
0.5
40
0.5
40
0.75
40
0.75
40
1
40
1
40
1
40
1
41
1
10
233.658207811961
20
9.82849134936419
30
0
41
1
10
233.661657018452
20
9.84644821463445
30
0
41
1
10
233.670352640763
20
9.86263183729267
30
0
41
1
10
233.69374197352
20
9.88966210541489
30
0
41
1
10
233.708535485009
20
9.9007328711634
30
0
41
1
10
233.740494881841
20
9.9179743723688
30
0
41
1
10
233.758097861295
20
9.92440049640334
30
0
41
1
10
233.794105664116
20
9.93319927440868
30
0
41
1
10
233.812646283349
20
9.93566589665474
30
0
41
1
10
233.831670542015
20
9.93639698646624
30
0
0
SPLINE
5
2FA
100
AcDbEntity
8
1
62
256
6
ByLayer
370
13
48
1
60
0
100
AcDbSpline
70
4
71
3
72
22
73
18
40
0
40
0
40
0
40
0
40
0.125
40
0.125
40
0.25
40
0.25
40
0.375
40
0.375
40
0.5
40
0.5
40
0.625
40
0.625
40
0.75
40
0.75
40
0.875
40
0.875
40
1
40
1
40
1
40
1
41
1
10
233.2785857761
20
7.83144397676443
30
0
41
1
10
233.298112680544
20
7.89815839234191
30
0
41
1
10
233.317265714882
20
7.96956704383848
30
0
41
1
10
233.354491780206
20
8.11899668752918
30
0
41
1
10
233.372411166595
20
8.19634515431241
30
0
41
1
10
233.407205815883
20
8.35610934590707
30
0
41
1
10
233.424076620666
20
8.43852579306881
30
0
41
1
10
233.457012307872
20
8.60850878892782
30
0
41
1
10
233.473051249061
20
8.69603851323399
30
0
41
1
10
233.503655532946
20
8.87094990909677
30
0
41
1
10
233.518346421546
20
8.95898595074212
30
0
41
1
10
233.546930895693
20
9.13614767274126
30
0
41
1
10
233.560898935304
20
9.2258305646842
30
0
41
1
10
233.588286688959
20
9.40358436626818
30
0
41
1
10
233.601575879999
20
9.49091182171722
30
0
41
1
10
233.628713613295
20
9.66230814394194
30
0
41
1
10
233.642439557618
20
9.74640046262888
30
0
41
1
10
233.658207811997
20
9.828491349362
30
0
0
SPLINE
5
2FB
100
AcDbEntity
8
1
62
256
6
ByLayer
370
13
48
1
60
0
100
AcDbSpline
70
4
71
3
72
10
73
6
40
0
40
0
40
0
40
0
40
0.5
40
0.5
40
1
40
1
40
1
40
1
41
1
10
229.246553812178
20
2.61828064489555
30
0
41
1
10
227.339151144187
20
3.46836486785412
30
0
41
1
10
225.442887827384
20
4.356186586863
30
0
41
1
10
221.669659657917
20
6.19720867233929
30
0
41
1
10
219.792730502975
20
7.15052997427017
30
0
41
1
10
217.924860659862
20
8.13454208921198
30
0
0
SPLINE
5
2FC
100
AcDbEntity
8
1
62
256
6
ByLayer
370
13
48
1
60
0
100
AcDbSpline
70
4
71
3
72
12
73
8
40
0
40
0
40
0
40
0
40
0.0621156276623479
40
0.0621156276623479
40
0.503354712964547
40
0.503354712964547
40
1
40
1
40
1
40
1
41
1
10
37.45
20
-20.2747057602475
30
0
41
1
10
37.45
20
-20.0938929018061
30
0
41
1
10
37.45
20
-19.9130800433787
30
0
41
1
10
37.45
20
-18.4478609371378
30
0
41
1
10
37.45
20
-17.1634546900155
30
0
41
1
10
37.45
20
-14.4333598584968
30
0
41
1
10
37.45
20
-12.9876712742886
30
0
41
1
10
37.45
20
-11.5419826909737
30
0
0
SPLINE
5
2FD
100
AcDbEntity
8
1
62
256
6
ByLayer
370
13
48
1
60
0
100
AcDbSpline
70
4
71
3
72
10
73
6
40
0
40
0
40
0
40
0
40
0.5
40
0.5
40
1
40
1
40
1
40
1
41
1
10
231.56443555302
20
1.70223297964895
30
0
41
1
10
231.173097396547
20
1.84164512434302
30
0
41
1
10
230.783628916934
20
1.98606140905753
30
0
41
1
10
230.010335319611
20
2.28972068637953
30
0
41
1
10
229.626503401628
20
2.44894610587477
30
0
41
1
10
229.246553812154
20
2.61828064490638
30
0
0
SPLINE
5
2FE
100
AcDbEntity
8
1
62
256
6
ByLayer
370
13
48
1
60
0
100
AcDbSpline
70
4
71
3
72
16
73
12
40
0
40
0
40
0
40
0
40
0.250000000000001
40
0.250000000000001
40
0.500000000000003
40
0.500000000000003
40
0.625000000000004
40
0.625000000000004
40
0.750000000000004
40
0.750000000000004
40
1
40
1
40
1
40
1
41
1
10
36.1961524472984
20
-20.288265319798
30
0
41
1
10
35.9363208271267
20
-20.2882089485394
30
0
41
1
10
35.6809560364651
20
-20.3085133558797
30
0
41
1
10
35.1785023566214
20
-20.3868455260561
30
0
41
1
10
34.9314170744026
20
-20.4448897302246
30
0
41
1
10
34.5668409421883
20
-20.5595414141274
30
0
41
1
10
34.4470469586122
20
-20.6021801291317
30
0
41
1
10
34.2134698403545
20
-20.6947654540572
30
0
41
1
10
34.0992433537519
20
-20.7448490383097
30
0
41
1
10
33.7637698790103
20
-20.9057619895518
30
0
41
1
10
33.5496990354955
20
-21.0272094021835
30
0
41
1
10
33.3443735114913
20
-21.1615966601761
30
0
0
SPLINE
5
2FF
100
AcDbEntity
8
1
62
256
6
ByLayer
370
13
48
1
60
0
100
AcDbSpline
70
4
71
3
72
8
73
4
40
0
40
0
40
0
40
0
40
1
40
1
40
1
40
1
41
1
10
0.0999999999999659
20
-5.56776436282993
30
0
41
1
10
0.0648944344305846
20
-5.37072855948901
30
0
41
1
10
0.03155109950454
20
-5.17345582387856
30
0
41
1
10
0
20
-4.97594212184998
30
0
0
SPLINE
5
300
100
AcDbEntity
8
1
62
256
6
ByLayer
370
13
48
1
60
0
100
AcDbSpline
70
4
71
3
72
64
73
60
40
0
40
0
40
0
40
0
40
0.0156249999999997
40
0.0156249999999997
40
0.0312499999999994
40
0.0312499999999994
40
0.0624999999999997
40
0.0624999999999997
40
0.0781250000000002
40
0.0781250000000002
40
0.0937500000000006
40
0.0937500000000006
40
0.109375000000001
40
0.109375000000001
40
0.117187500000001
40
0.117187500000001
40
0.125000000000002
40
0.125000000000002
40
0.132812500000002
40
0.132812500000002
40
0.140625000000002
40
0.140625000000002
40
0.156250000000002
40
0.156250000000002
40
0.187500000000001
40
0.187500000000001
40
0.218750000000001
40
0.218750000000001
40
0.250000000000001
40
0.250000000000001
40
0.3125
40
0.3125
40
0.375
40
0.375
40
0.40625
40
0.40625
40
0.4375
40
0.4375
40
0.5
40
0.5
40
0.562499999999999
40
0.562499999999999
40
0.59375
40
0.59375
40
0.625
40
0.625
40
0.6875
40
0.6875
40
0.718750000000001
40
0.718750000000001
40
0.750000000000001
40
0.750000000000001
40
0.812500000000001
40
0.812500000000001
40
0.875000000000001
40
0.875000000000001
40
0.9375
40
0.9375
40
1
40
1
40
1
40
1
41
1
10
225.882382257211
20
-20.6179975293044
30
0
41
1
10
225.336677154077
20
-20.6113543991853
30
0
41
1
10
224.79040830171
20
-20.6050413922627
30
0
41
1
10
223.69725538906
20
-20.5927226796011
30
0
41
1
10
223.15039108855
20
-20.5866972041447
30
0
41
1
10
221.510144948553
20
-20.5677078714562
30
0
41
1
10
220.417104507398
20
-20.5539805190334
30
0
41
1
10
218.783152215748
20
-20.5242849578481
30
0
41
1
10
218.23927374624
20
-20.5128441952697
30
0
41
1
10
217.154898724355
20
-20.4849762749899
30
0
41
1
10
216.616856763697
20
-20.4685979180835
30
0
41
1
10
215.551952948727
20
-20.4282920905552
30
0
41
1
10
215.025142384138
20
-20.4043473798188
30
0
41
1
10
214.245202346985
20
-20.3601693756823
30
0
41
1
10
213.986916291638
20
-20.344068096793
30
0
41
1
10
213.473974004899
20
-20.3086095059203
30
0
41
1
10
213.219271008385
20
-20.2892886251546
30
0
41
1
10
212.714837530374
20
-20.2460774172217
30
0
41
1
10
212.465266758796
20
-20.2220378096269
30
0
41
1
10
211.966373009516
20
-20.1720325809928
30
0
41
1
10
211.717026662985
20
-20.1461189791537
30
0
41
1
10
210.969149818445
20
-20.0657090793145
30
0
41
1
10
210.470778764463
20
-20.0085394074625
30
0
41
1
10
208.975351900632
20
-19.8269915318403
30
0
41
1
10
207.977802542069
20
-19.6929867977419
30
0
41
1
10
205.983499186832
20
-19.3987957876483
30
0
41
1
10
204.986934254784
20
-19.2382835084861
30
0
41
1
10
202.993946500853
20
-18.8910091559112
30
0
41
1
10
201.99712741552
20
-18.7042177002043
30
0
41
1
10
199.007295403566
20
-18.1068666517876
30
0
41
1
10
197.016975060576
20
-17.6581485396955
30
0
41
1
10
193.014017581905
20
-16.7035355656793
30
0
41
1
10
191.001028638717
20
-16.1989595367434
30
0
41
1
10
187.95834413843
20
-15.4234581548974
30
0
41
1
10
186.940263399943
20
-15.1618554140924
30
0
41
1
10
184.895589443621
20
-14.6361391335592
30
0
41
1
10
183.870225141952
20
-14.3723449979526
30
0
41
1
10
180.786217953718
20
-13.5846155287541
30
0
41
1
10
178.71862738111
20
-13.0640312602147
30
0
41
1
10
174.552975088481
20
-12.0666594661788
30
0
41
1
10
172.454985130601
20
-11.5898281365671
30
0
41
1
10
169.283160425717
20
-10.9248817801981
30
0
41
1
10
168.221678173539
20
-10.7115293828955
30
0
41
1
10
166.095539496915
20
-10.3026945635164
30
0
41
1
10
165.030289285285
20
-10.1070766135017
30
0
41
1
10
161.828261549911
20
-9.54696846113396
30
0
41
1
10
159.68518716011
20
-9.20937537753997
30
0
41
1
10
156.458207704982
20
-8.76096984443166
30
0
41
1
10
155.380484698425
20
-8.62115884887578
30
0
41
1
10
153.220918969118
20
-8.36153643583384
30
0
41
1
10
152.138525535985
20
-8.24161029111087
30
0
41
1
10
148.890302862882
20
-7.91380786375569
30
0
41
1
10
146.723132171465
20
-7.73933055902521
30
0
41
1
10
142.384447325169
20
-7.50807816271441
30
0
41
1
10
140.213086107954
20
-7.44719044785001
30
0
41
1
10
135.868257426788
20
-7.38320656447655
30
0
41
1
10
133.694802106854
20
-7.37971396639958
30
0
41
1
10
129.347609397776
20
-7.38048143815007
30
0
41
1
10
127.17379693261
20
-7.38678867380173
30
0
41
1
10
125
20
-7.39266872785734
30
0
0
SPLINE
5
301
100
AcDbEntity
8
1
62
256
6
ByLayer
370
13
48
1
60
0
100
AcDbSpline
70
4
71
3
72
8
73
4
40
0
40
0
40
0
40
0
40
1
40
1
40
1
40
1
41
1
10
233.954080042419
20
-0.610250381999919
30
0
41
1
10
234.67174438548
20
-0.650301968054833
30
0
41
1
10
235.38941991474
20
-0.690284338590402
30
0
41
1
10
236.107106212145
20
-0.730199690184492
30
0
0
SPLINE
5
302
100
AcDbEntity
8
1
62
256
6
ByLayer
370
13
48
1
60
0
100
AcDbSpline
70
4
71
3
72
24
73
20
40
0
40
0
40
0
40
0
40
0.0625000000000036
40
0.0625000000000036
40
0.125000000000007
40
0.125000000000007
40
0.187500000000011
40
0.187500000000011
40
0.250000000000014
40
0.250000000000014
40
0.375000000000012
40
0.375000000000012
40
0.50000000000001
40
0.50000000000001
40
0.625000000000007
40
0.625000000000007
40
0.750000000000005
40
0.750000000000005
40
1
40
1
40
1
40
1
41
1
10
235.054142681037
20
5.74890646729591
30
0
41
1
10
235.029362817035
20
5.71143651208317
30
0
41
1
10
235.008327291264
20
5.6712397254974
30
0
41
1
10
234.976349781356
20
5.58692968521288
30
0
41
1
10
234.965851677832
20
5.54422109956943
30
0
41
1
10
234.955248421413
20
5.45776694261014
30
0
41
1
10
234.955314010203
20
5.41397880359355
30
0
41
1
10
234.964684628568
20
5.32985883369386
30
0
41
1
10
234.974023423301
20
5.28854885902206
30
0
41
1
10
235.012246619772
20
5.17080846149995
30
0
41
1
10
235.051018752311
20
5.09951344687201
30
0
41
1
10
235.14402282122
20
4.96865008296155
30
0
41
1
10
235.197325209591
20
4.91037868380252
30
0
41
1
10
235.31307300794
20
4.80349967036261
30
0
41
1
10
235.376020390793
20
4.75472736863492
30
0
41
1
10
235.507017803646
20
4.66652830696219
30
0
41
1
10
235.574999393187
20
4.62706835673265
30
0
41
1
10
235.784962930559
20
4.51991825235586
30
0
41
1
10
235.933003516756
20
4.46322944813633
30
0
41
1
10
236.087455638988
20
4.41899948862044
30
0
0
SPLINE
5
303
100
AcDbEntity
8
1
62
256
6
ByLayer
370
13
48
1
60
0
100
AcDbSpline
70
4
71
3
72
18
73
14
40
0
40
0
40
0
40
0
40
0.249999999999993
40
0.249999999999993
40
0.37499999999999
40
0.37499999999999
40
0.499999999999987
40
0.499999999999987
40
0.750000000000046
40
0.750000000000046
40
0.875000000000023
40
0.875000000000023
40
1
40
1
40
1
40
1
41
1
10
242.698222874135
20
6.16987914983795
30
0
41
1
10
242.692902324299
20
6.16960031163649
30
0
41
1
10
242.69416626852
20
6.17985876376881
30
0
41
1
10
242.709431364179
20
6.20827709463407
30
0
41
1
10
242.716790018652
20
6.21978160340882
30
0
41
1
10
242.736732277841
20
6.24527996298801
30
0
41
1
10
242.74958335861
20
6.2595247478844
30
0
41
1
10
242.795666620212
20
6.30199175663236
30
0
41
1
10
242.837854314279
20
6.33068449575964
30
0
41
1
10
242.911143279675
20
6.36186976464023
30
0
41
1
10
242.937655393462
20
6.3705477469174
30
0
41
1
10
242.991800116237
20
6.38302928497163
30
0
41
1
10
243.019665439605
20
6.38698410732579
30
0
41
1
10
243.048333783939
20
6.38850211793888
30
0
0
SPLINE
5
304
100
AcDbEntity
8
1
62
256
6
ByLayer
370
13
48
1
60
0
100
AcDbSpline
70
4
71
3
72
8
73
4
40
0
40
0
40
0
40
0
40
1
40
1
40
1
40
1
41
1
10
255.037779736047
20
0.587583657096104
30
0
41
1
10
255.185503406776
20
0.610115716650228
30
0
41
1
10
255.332021776353
20
0.618277397614179
30
0
41
1
10
255.478737105259
20
0.614128134763803
30
0
0
SPLINE
5
305
100
AcDbEntity
8
1
62
256
6
ByLayer
370
13
48
1
60
0
100
AcDbSpline
70
4
71
3
72
10
73
6
40
0
40
0
40
0
40
0
40
0.5
40
0.5
40
1
40
1
40
1
40
1
41
1
10
235.423364353085
20
6.4231697966616
30
0
41
1
10
235.343278736017
20
6.43457204066604
30
0
41
1
10
235.26576590294
20
6.45560412199561
30
0
41
1
10
235.114303724603
20
6.51153215830578
30
0
41
1
10
235.040895445464
20
6.54627530389493
30
0
41
1
10
234.969962451711
20
6.58449001663374
30
0
0
SPLINE
5
306
100
AcDbEntity
8
1
62
256
6
ByLayer
370
13
48
1
60
0
100
AcDbSpline
70
4
71
3
72
8
73
4
40
0
40
0
40
0
40
0
40
1
40
1
40
1
40
1
41
1
10
37.01
20
-20.2884418846066
30
0
41
1
10
36.7387174823767
20
-20.2883832198291
30
0
41
1
10
36.4674349648654
20
-20.2883241753634
30
0
41
1
10
36.1961524472984
20
-20.288265319798
30
0
0
SPLINE
5
307
100
AcDbEntity
8
1
62
256
6
ByLayer
370
13
48
1
60
0
100
AcDbSpline
70
4
71
3
72
28
73
24
40
0
40
0
40
0
40
0
40
0.105238237006421
40
0.105238237006421
40
0.210476474012841
40
0.210476474012841
40
0.315714711019262
40
0.315714711019262
40
0.420952948025682
40
0.420952948025682
40
0.631429422038529
40
0.631429422038529
40
0.736667659044953
40
0.736667659044953
40
0.789286777548165
40
0.789286777548165
40
0.841905896051377
40
0.841905896051377
40
0.947144133057801
40
0.947144133057801
40
0.99976325156101
40
0.99976325156101
40
1
40
1
40
1
40
1
41
1
10
233.173418012476
20
7.41961849821345
30
0
41
1
10
232.761406944224
20
7.5146775800402
30
0
41
1
10
232.345516308401
20
7.59306119946962
30
0
41
1
10
231.506727734894
20
7.72179591275994
30
0
41
1
10
231.083819782782
20
7.77209893347163
30
0
41
1
10
230.23098360618
20
7.84719949280239
30
0
41
1
10
229.801052272998
20
7.8719757978001
30
0
41
1
10
228.933613184799
20
7.89690757089753
30
0
41
1
10
228.496106907798
20
7.89705654517059
30
0
41
1
10
227.170603188266
20
7.86000843826693
30
0
41
1
10
226.292397871814
20
7.78641239853806
30
0
41
1
10
224.983192879157
20
7.6027348699927
30
0
41
1
10
224.548152066454
20
7.5291948377772
30
0
41
1
10
223.897782981054
20
7.39892448421548
30
0
41
1
10
223.681882450372
20
7.35224037897447
30
0
41
1
10
223.256277921232
20
7.25313110159419
30
0
41
1
10
223.045973001824
20
7.2005904589947
30
0
41
1
10
222.423033235733
20
7.03373143726853
30
0
41
1
10
222.018259141843
20
6.91033611429526
30
0
41
1
10
221.430300499351
20
6.70377762436118
30
0
41
1
10
221.237316868051
20
6.63116729657
30
0
41
1
10
221.050643793996
20
6.55550778205583
30
0
41
1
10
221.049807787613
20
6.55516883255203
30
0
41
1
10
221.048971908367
20
6.55482982250794
30
0
0
SPLINE
5
308
100
AcDbEntity
8
1
62
256
6
ByLayer
370
13
48
1
60
0
100
AcDbSpline
70
4
71
3
72
38
73
34
40
0
40
0
40
0
40
0
40
0.0822504432647911
40
0.0822504432647911
40
0.123375664897187
40
0.123375664897187
40
0.164500886529582
40
0.164500886529582
40
0.329001773059163
40
0.329001773059163
40
0.370126994691558
40
0.370126994691558
40
0.411252216323953
40
0.411252216323953
40
0.452377437956348
40
0.452377437956348
40
0.493502659588743
40
0.493502659588743
40
0.534627881221138
40
0.534627881221138
40
0.575753102853533
40
0.575753102853533
40
0.658003546118322
40
0.658003546118322
40
0.740253989383111
40
0.740253989383111
40
0.8225044326479
40
0.8225044326479
40
0.904754875912689
40
0.904754875912689
40
0.987005319177478
40
0.987005319177478
40
1
40
1
40
1
40
1
41
1
10
217.482766877182
20
8.30356835819171
30
0
41
1
10
215.642132799349
20
9.06197414894154
30
0
41
1
10
213.80136750104
20
9.80059144211046
30
0
41
1
10
211.036737587835
20
10.872164108561
30
0
41
1
10
210.114115533739
20
11.2234785991716
30
0
41
1
10
208.270433576493
20
11.911684437885
30
0
41
1
10
207.34925196719
20
12.2486260139559
30
0
41
1
10
202.745392155152
20
13.8953627409439
30
0
41
1
10
199.069105565452
20
15.091483697219
30
0
41
1
10
194.460137935112
20
16.3978099773452
30
0
41
1
10
193.538568123733
20
16.6493462716132
30
0
41
1
10
191.696820612961
20
17.1317329837155
30
0
41
1
10
190.776677748204
20
17.3629868114257
30
0
41
1
10
188.934891673156
20
17.8020060477718
30
0
41
1
10
188.013039519025
20
18.0094681609289
30
0
41
1
10
186.162327941899
20
18.3958948295145
30
0
41
1
10
185.233169681749
20
18.5745641268465
30
0
41
1
10
183.364126418833
20
18.9025218842591
30
0
41
1
10
182.424531041742
20
19.0521472842914
30
0
41
1
10
180.53430593259
20
19.3250868824021
30
0
41
1
10
179.582925250848
20
19.4483746356001
30
0
41
1
10
176.719073215157
20
19.7823983604286
30
0
41
1
10
174.795901992184
20
19.9585099646345
30
0
41
1
10
170.927816644338
20
20.2462126083181
30
0
41
1
10
168.982979503491
20
20.3576965052785
30
0
41
1
10
165.076521058278
20
20.5338513933544
30
0
41
1
10
163.112453932333
20
20.597474538606
30
0
41
1
10
159.170005769391
20
20.6864439030801
30
0
41
1
10
157.190704563282
20
20.7120745789895
30
0
41
1
10
153.210745402993
20
20.7417468459075
30
0
41
1
10
151.210411213295
20
20.7462836254701
30
0
41
1
10
148.884231752066
20
20.747450623287
30
0
41
1
10
148.566593540492
20
20.7475137205565
30
0
41
1
10
148.248774020413
20
20.7474985658194
30
0
0
SPLINE
5
309
100
AcDbEntity
8
1
62
256
6
ByLayer
370
13
48
1
60
0
100
AcDbSpline
70
4
71
3
72
10
73
6
40
0
40
0
40
0
40
0
40
0.809716985177569
40
0.809716985177569
40
1
40
1
40
1
40
1
41
1
10
233.278585776102
20
7.83144397677466
30
0
41
1
10
229.235639617407
20
7.97747144570357
30
0
41
1
10
225.196789592982
20
8.02978030552276
30
0
41
1
10
220.208706044203
20
7.97974989461699
30
0
41
1
10
219.259550056692
20
7.96511447643778
30
0
41
1
10
218.310335854743
20
7.94542938687391
30
0
0
SPLINE
5
30A
100
AcDbEntity
8
1
62
256
6
ByLayer
370
13
48
1
60
0
100
AcDbSpline
70
4
71
3
72
18
73
14
40
0
40
0
40
0
40
0
40
0.125
40
0.125
40
0.25
40
0.25
40
0.375
40
0.375
40
0.5
40
0.5
40
0.75
40
0.75
40
1
40
1
40
1
40
1
41
1
10
125
20
-7.39266872785728
30
0
41
1
10
121.541668459862
20
-7.40234193074389
30
0
41
1
10
118.083335523547
20
-7.41271874405564
30
0
41
1
10
111.166666045649
20
-7.42483141647665
30
0
41
1
10
107.708333854645
20
-7.42586756224185
30
0
41
1
10
100.791671861659
20
-7.42321350766613
30
0
41
1
10
97.3333422583025
20
-7.41960902590944
30
0
41
1
10
90.4166823246828
20
-7.41373482609657
30
0
41
1
10
86.9583509820201
20
-7.41194362343811
30
0
41
1
10
76.5833486971478
20
-7.41350426484053
30
0
41
1
10
69.6666728157927
20
-7.42129902873336
30
0
41
1
10
55.8333325079461
20
-7.42562256281826
30
0
41
1
10
48.9166679210124
20
-7.42186464124896
30
0
41
1
10
42
20
-7.42163423335444
30
0
0
SPLINE
5
30B
100
AcDbEntity
8
1
62
256
6
ByLayer
370
13
48
1
60
0
100
AcDbSpline
70
4
71
3
72
46
73
42
40
0
40
0
40
0
40
0
40
0.0625000000000007
40
0.0625000000000007
40
0.0937500000000011
40
0.0937500000000011
40
0.125000000000001
40
0.125000000000001
40
0.187500000000002
40
0.187500000000002
40
0.218750000000002
40
0.218750000000002
40
0.250000000000001
40
0.250000000000001
40
0.312500000000001
40
0.312500000000001
40
0.343750000000001
40
0.343750000000001
40
0.375000000000001
40
0.375000000000001
40
0.437500000000001
40
0.437500000000001
40
0.468750000000001
40
0.468750000000001
40
0.500000000000001
40
0.500000000000001
40
0.562500000000001
40
0.562500000000001
40
0.625000000000001
40
0.625000000000001
40
0.656250000000001
40
0.656250000000001
40
0.6875
40
0.6875
40
0.75
40
0.75
40
0.8125
40
0.8125
40
0.875
40
0.875
40
1
40
1
40
1
40
1
41
1
10
7.41607349505871
20
-26.5089363073484
30
0
41
1
10
7.26694316492771
20
-26.6587034466923
30
0
41
1
10
7.13773673376026
20
-26.807319331442
30
0
41
1
10
6.97550510789576
20
-27.0283564789061
30
0
41
1
10
6.92665945898165
20
-27.1017153344377
30
0
41
1
10
6.83961939239239
20
-27.2477203146912
30
0
41
1
10
6.80131197972709
20
-27.3206802180787
30
0
41
1
10
6.70456808664746
20
-27.5346563302253
30
0
41
1
10
6.66349912607453
20
-27.6716001653561
30
0
41
1
10
6.6365064786178
20
-27.8684769377257
30
0
41
1
10
6.63331219012187
20
-27.9326732453756
30
0
41
1
10
6.63886356566999
20
-28.0581349629667
30
0
41
1
10
6.64769720087799
20
-28.1196597452713
30
0
41
1
10
6.69138965832067
20
-28.2968537132022
30
0
41
1
10
6.74313502873817
20
-28.4057889236944
30
0
41
1
10
6.85217434996085
20
-28.5563202241622
30
0
41
1
10
6.8937891253223
20
-28.604341258233
30
0
41
1
10
6.987476721703
20
-28.6961082544246
30
0
41
1
10
7.03975671927907
20
-28.7399709621494
30
0
41
1
10
7.20978641268407
20
-28.8633497722518
30
0
41
1
10
7.34112788096478
20
-28.9352624938582
30
0
41
1
10
7.56260197508088
20
-29.0290804035155
30
0
41
1
10
7.64053150672834
20
-29.0579974244706
30
0
41
1
10
7.80441680527923
20
-29.1112407013867
30
0
41
1
10
7.8906702019371
20
-29.1356332153356
30
0
41
1
10
8.1587659976263
20
-29.2014168237505
30
0
41
1
10
8.34970828405687
20
-29.2355178313917
30
0
41
1
10
8.75386615168637
20
-29.2861074834231
30
0
41
1
10
8.96713607651623
20
-29.3025641716021
30
0
41
1
10
9.30331596274763
20
-29.3146005557117
30
0
41
1
10
9.41815958531741
20
-29.3164968936792
30
0
41
1
10
9.65061580867759
20
-29.3162074345279
30
0
41
1
10
9.76852815790134
20
-29.3140370146562
30
0
41
1
10
10.1270852671523
20
-29.301753292945
30
0
41
1
10
10.3725292134749
20
-29.2858908586028
30
0
41
1
10
10.8755635114194
20
-29.2397880790762
30
0
41
1
10
11.1336105287373
20
-29.2094704779609
30
0
41
1
10
11.6598930909893
20
-29.1350346190683
30
0
41
1
10
11.925394455856
20
-29.0913360565262
30
0
41
1
10
12.7287219190433
20
-28.9419492000569
30
0
41
1
10
13.2732941579117
20
-28.8181927919349
30
0
41
1
10
13.8272940278958
20
-28.6702719076577
30
0
0
SPLINE
5
30C
100
AcDbEntity
8
1
62
256
6
ByLayer
370
13
48
1
60
0
100
AcDbSpline
70
4
71
3
72
8
73
4
40
0
40
0
40
0
40
0
40
1
40
1
40
1
40
1
41
1
10
233.107106212145
20
-0.522017980192715
30
0
41
1
10
233.389362336078
20
-0.565090263236385
30
0
41
1
10
233.671691058939
20
-0.594490748987823
30
0
41
1
10
233.954080042419
20
-0.610250382000373
30
0
0
SPLINE
5
30D
100
AcDbEntity
8
1
62
256
6
ByLayer
370
13
48
1
60
0
100
AcDbSpline
70
4
71
3
72
16
73
12
40
0
40
0
40
0
40
0
40
0.249999999999998
40
0.249999999999998
40
0.499999999999996
40
0.499999999999996
40
0.749999999999995
40
0.749999999999995
40
0.874999999999997
40
0.874999999999997
40
1
40
1
40
1
40
1
41
1
10
33.3483162082214
20
-8.14447944793798
30
0
41
1
10
33.5656614038788
20
-8.02731513251186
30
0
41
1
10
33.7928721370789
20
-7.9223132621662
30
0
41
1
10
34.253361247719
20
-7.743064048451
30
0
41
1
10
34.4876006815521
20
-7.66811048702903
30
0
41
1
10
34.9639882405692
20
-7.54711856558924
30
0
41
1
10
35.2061359398888
20
-7.50107895902403
30
0
41
1
10
35.5754911356765
20
-7.45438612600671
30
0
41
1
10
35.6995570130591
20
-7.44259175418216
30
0
41
1
10
35.9475515423239
20
-7.4267680930534
30
0
41
1
10
36.0717505715096
20
-7.42270036601337
30
0
41
1
10
36.1961524539387
20
-7.42249216010555
30
0
0
SPLINE
5
30E
100
AcDbEntity
8
1
62
256
6
ByLayer
370
13
48
1
60
0
100
AcDbSpline
70
4
71
3
72
22
73
18
40
0
40
0
40
0
40
0
40
0.0625000000000036
40
0.0625000000000036
40
0.125000000000007
40
0.125000000000007
40
0.250000000000013
40
0.250000000000013
40
0.50000000000001
40
0.50000000000001
40
0.625000000000007
40
0.625000000000007
40
0.750000000000005
40
0.750000000000005
40
0.875000000000002
40
0.875000000000002
40
1
40
1
40
1
40
1
41
1
10
234.707240602692
20
9.90128351283494
30
0
41
1
10
234.75914986275
20
9.85813167109359
30
0
41
1
10
234.810181964219
20
9.81369155788849
30
0
41
1
10
234.910657352218
20
9.72246334014503
30
0
41
1
10
234.96024581786
20
9.67552890640073
30
0
41
1
10
235.104933970133
20
9.53345198314094
30
0
41
1
10
235.196533463214
20
9.43666958301719
30
0
41
1
10
235.458481355261
20
9.14138849115963
30
0
41
1
10
235.615921630502
20
8.93775801040289
30
0
41
1
10
235.825004034556
20
8.61988640739446
30
0
41
1
10
235.890009340845
20
8.51209387492315
30
0
41
1
10
236.008455593684
20
8.29782681683955
30
0
41
1
10
236.062349903592
20
8.19072646746324
30
0
41
1
10
236.159914178483
20
7.97649760867287
30
0
41
1
10
236.203591740106
20
7.86937492913162
30
0
41
1
10
236.280200785459
20
7.65446888100547
30
0
41
1
10
236.313229536608
20
7.54610317483224
30
0
41
1
10
236.339932312909
20
7.43841156531553
30
0
0
SPLINE
5
30F
100
AcDbEntity
8
1
62
256
6
ByLayer
370
13
48
1
60
0
100
AcDbSpline
70
4
71
3
72
14
73
10
40
0
40
0
40
0
40
0
40
0.24999999999996
40
0.24999999999996
40
0.37499999999996
40
0.37499999999996
40
0.49999999999996
40
0.49999999999996
40
1
40
1
40
1
40
1
41
1
10
231.564636060711
20
1.70216155516587
30
0
41
1
10
231.721786119791
20
1.64618601747594
30
0
41
1
10
231.882210567755
20
1.59881274372745
30
0
41
1
10
232.127721802341
20
1.54095137609698
30
0
41
1
10
232.210373773146
20
1.52386936487443
30
0
41
1
10
232.377332049046
20
1.49423400450067
30
0
41
1
10
232.461960176145
20
1.48164744646172
30
0
41
1
10
232.884662324041
20
1.43097060188043
30
0
41
1
10
233.220995007446
20
1.42879620666483
30
0
41
1
10
233.555653086082
20
1.4644419215436
30
0
0
SPLINE
5
310
100
AcDbEntity
8
1
62
256
6
ByLayer
370
13
48
1
60
0
100
AcDbSpline
70
4
71
3
72
10
73
6
40
0
40
0
40
0
40
0
40
0.5
40
0.5
40
1
40
1
40
1
40
1
41
1
10
245.136758314409
20
6.49795184616528
30
0
41
1
10
245.167337119695
20
6.49955441344343
30
0
41
1
10
245.198275052232
20
6.49828386950364
30
0
41
1
10
245.258456623205
20
6.49046334676157
30
0
41
1
10
245.287865549189
20
6.48395647453501
30
0
41
1
10
245.31656661371
20
6.47507286608638
30
0
0
SPLINE
5
311
100
AcDbEntity
8
1
62
256
6
ByLayer
370
13
48
1
60
0
100
AcDbSpline
70
4
71
3
72
8
73
4
40
0
40
0
40
0
40
0
40
1
40
1
40
1
40
1
41
1
10
36.1961524472984
20
-20.2882653198149
30
0
41
1
10
36.1961524475582
20
-20.4946596315154
30
0
41
1
10
36.196152447822
20
-20.7010539432138
30
0
41
1
10
36.1961524480897
20
-20.9074482549103
30
0
0
SPLINE
5
312
100
AcDbEntity
8
1
62
256
6
ByLayer
370
13
48
1
60
0
100
AcDbSpline
70
4
71
3
72
12
73
8
40
0
40
0
40
0
40
0
40
0.323038330163722
40
0.323038330163722
40
0.661519165081861
40
0.661519165081861
40
1
40
1
40
1
40
1
41
1
10
37.4500116933359
20
-7.41917369381199
30
0
41
1
10
37.4500369463421
20
-7.81880848690528
30
0
41
1
10
37.4500565792587
20
-8.2607693990654
30
0
41
1
10
37.450082823673
20
-9.19831092756453
30
0
41
1
10
37.4500887598039
20
-9.6951580741422
30
0
41
1
10
37.4500848655758
20
-10.657692833033
30
0
41
1
10
37.4500750363807
20
-11.1230927903093
30
0
41
1
10
37.4500579722734
20
-11.5419826919083
30
0
0
SPLINE
5
313
100
AcDbEntity
8
1
62
256
6
ByLayer
370
13
48
1
60
0
100
AcDbSpline
70
4
71
3
72
12
73
8
40
0
40
0
40
0
40
0
40
0.250000000000006
40
0.250000000000006
40
0.500000000000011
40
0.500000000000011
40
1
40
1
40
1
40
1
41
1
10
236.608010412841
20
9.71313865547111
30
0
41
1
10
236.606974434718
20
9.79398639229004
30
0
41
1
10
236.601440276588
20
9.87463198991622
30
0
41
1
10
236.579998693761
20
10.0354570313627
30
0
41
1
10
236.563889535548
20
10.1161441166267
30
0
41
1
10
236.499329587572
20
10.3503228653008
30
0
41
1
10
236.434696377214
20
10.4976889600677
30
0
41
1
10
236.346158279868
20
10.6353649330848
30
0
0
SPLINE
5
314
100
AcDbEntity
8
1
62
256
6
ByLayer
370
13
48
1
60
0
100
AcDbSpline
70
4
71
3
72
27
73
23
40
0
40
0
40
0
40
0
40
0.124999999999999
40
0.124999999999999
40
0.187499999999998
40
0.187499999999998
40
0.249999999999997
40
0.312499999999997
40
0.312499999999997
40
0.328124999999997
40
0.328124999999997
40
0.343749999999996
40
0.343749999999996
40
0.374999999999996
40
0.374999999999996
40
0.499999999999997
40
0.499999999999997
40
0.624999999999998
40
0.624999999999998
40
0.749999999999998
40
0.749999999999998
40
1
40
1
40
1
40
1
41
1
10
33.3483162082214
20
-8.14447944793798
30
0
41
1
10
32.473770768754
20
-8.27440800334134
30
0
41
1
10
31.6103402246356
20
-8.4504498209389
30
0
41
1
10
30.3320021576493
20
-8.78424421110867
30
0
41
1
10
29.9127953373671
20
-8.9061159188426
30
0
41
1
10
29.0897667554168
20
-9.16960502196278
30
0
41
1
10
28.2813976708417
20
-9.45303067905297
30
0
41
1
10
27.5015194143224
20
-9.7752031578548
30
0
41
1
10
27.0228754651063
20
-9.98850148712614
30
0
41
1
10
26.92758618826
20
-10.0317588797892
30
0
41
1
10
26.7378856216226
20
-10.1194677058019
30
0
41
1
10
26.6436777502907
20
-10.1641957832264
30
0
41
1
10
26.3606536951804
20
-10.2978354254851
30
0
41
1
10
26.1712598956674
20
-10.3859614472019
30
0
41
1
10
25.2207594229012
20
-10.8217888368297
30
0
41
1
10
24.4490695287543
20
-11.1550972859981
30
0
41
1
10
22.8835372105798
20
-11.7915872914253
30
0
41
1
10
22.0891674333904
20
-12.0949535046788
30
0
41
1
10
20.4807664138884
20
-12.6709558645343
30
0
41
1
10
19.6683062367899
20
-12.9430552312648
30
0
41
1
10
17.2065741314312
20
-13.7124707918189
30
0
41
1
10
15.5330216564789
20
-14.1630411904935
30
0
41
1
10
13.8272768564631
20
-14.5516337493825
30
0
0
SPLINE
5
315
100
AcDbEntity
8
1
62
256
6
ByLayer
370
13
48
1
60
0
100
AcDbSpline
70
4
71
3
72
10
73
6
40
0
40
0
40
0
40
0
40
0.5
40
0.5
40
1
40
1
40
1
40
1
41
1
10
250.633042717522
20
6.75369757229859
30
0
41
1
10
250.658906601919
20
6.76542095930657
30
0
41
1
10
250.686819114758
20
6.77507323839836
30
0
41
1
10
250.744210755763
20
6.78898491494866
30
0
41
1
10
250.773817215548
20
6.79336097384885
30
0
41
1
10
250.804342502345
20
6.79497731097052
30
0
0
SPLINE
5
316
100
AcDbEntity
8
1
62
256
6
ByLayer
370
13
48
1
60
0
100
AcDbSpline
70
4
71
3
72
8
73
4
40
0
40
0
40
0
40
0
40
1
40
1
40
1
40
1
41
1
10
255.061638806794
20
0.530328123045848
30
0
41
1
10
255.060054023822
20
0.578292153358206
30
0
41
1
10
255.059782749178
20
0.625995162705323
30
0
41
1
10
255.060771020943
20
0.670729677135881
30
0
0
SPLINE
5
317
100
AcDbEntity
8
1
62
256
6
ByLayer
370
13
48
1
60
0
100
AcDbSpline
70
4
71
3
72
14
73
10
40
0
40
0
40
0
40
0
40
0.5
40
0.5
40
0.625
40
0.625
40
0.75
40
0.75
40
1
40
1
40
1
40
1
41
1
10
36.1961524480897
20
-20.9074482549103
30
0
41
1
10
35.6963931297611
20
-20.9279568199969
30
0
41
1
10
35.2069849176508
20
-20.9620507060331
30
0
41
1
10
34.6076372046365
20
-21.0177887984977
30
0
41
1
10
34.4883964098667
20
-21.0295747280204
30
0
41
1
10
34.2511920969767
20
-21.0542484438322
30
0
41
1
10
34.1330463301389
20
-21.0671609090842
30
0
41
1
10
33.7854665434805
20
-21.1066493245981
30
0
41
1
10
33.5612580542735
20
-21.1341480758608
30
0
41
1
10
33.3443735114913
20
-21.1615966601761
30
0
0
SPLINE
5
318
100
AcDbEntity
8
1
62
256
6
ByLayer
370
13
48
1
60
0
100
AcDbSpline
70
4
71
3
72
8
73
4
40
0
40
0
40
0
40
0
40
1
40
1
40
1
40
1
41
1
10
42
20
-20.8909341918351
30
0
41
1
10
40.33333333635
20
-20.8909236100835
30
0
41
1
10
38.666666637035
20
-20.8909271938723
30
0
41
1
10
37
20
-20.8909539613434
30
0
0
SPLINE
5
319
100
AcDbEntity
8
1
62
256
6
ByLayer
370
13
48
1
60
0
100
AcDbSpline
70
4
71
3
72
16
73
12
40
0
40
0
40
0
40
0
40
0.477897093113846
40
0.477897093113846
40
0.597371366392308
40
0.597371366392308
40
0.716845639670769
40
0.716845639670769
40
0.955794186227692
40
0.955794186227692
40
1
40
1
40
1
40
1
41
1
10
7.41647633813933
20
-22.7377973584171
30
0
41
1
10
7.84973681732319
20
-21.505939894247
30
0
41
1
10
8.38065364980264
20
-20.2990268872675
30
0
41
1
10
9.16762690687256
20
-18.8213699421365
30
0
41
1
10
9.33124113877865
20
-18.5274012523666
30
0
41
1
10
9.67114855639092
20
-17.9426365586127
30
0
41
1
10
9.84736354178601
20
-17.6520190504527
30
0
41
1
10
10.3921745388923
20
-16.7899764751139
30
0
41
1
10
10.7780340238862
20
-16.226763279402
30
0
41
1
10
11.2615288475422
20
-15.5728969283613
30
0
41
1
10
11.3377592059643
20
-15.4711997930981
30
0
41
1
10
11.4147354849439
20
-15.3698855177628
30
0
0
SPLINE
5
31A
100
AcDbEntity
8
1
62
256
6
ByLayer
370
13
48
1
60
0
100
AcDbSpline
70
4
71
3
72
10
73
6
40
0
40
0
40
0
40
0
40
0.80610822129063
40
0.80610822129063
40
1
40
1
40
1
40
1
41
1
10
237.85566143541
20
14.5136381763104
30
0
41
1
10
237.81925528529
20
14.4645136988555
30
0
41
1
10
237.787621083916
20
14.4167414570011
30
0
41
1
10
237.758382811686
20
14.3667383232797
30
0
41
1
10
237.753194300718
20
14.3574890498273
30
0
41
1
10
237.748673453251
20
14.3490194815233
30
0
0
SPLINE
5
31B
100
AcDbEntity
8
1
62
256
6
ByLayer
370
13
48
1
60
0
100
AcDbSpline
70
4
71
3
72
10
73
6
40
0
40
0
40
0
40
0
40
0.5
40
0.5
40
1
40
1
40
1
40
1
41
1
10
229.88750164721
20
20.2827306649529
30
0
41
1
10
230.453682334389
20
19.1194452239601
30
0
41
1
10
231.084474457514
20
17.9985911710881
30
0
41
1
10
232.50214005411
20
15.8593842442467
30
0
41
1
10
233.289193896113
20
14.8411498212453
30
0
41
1
10
234.166181113667
20
13.8819761187991
30
0
0
SPLINE
5
31C
100
AcDbEntity
8
1
62
256
6
ByLayer
370
13
48
1
60
0
100
AcDbSpline
70
4
71
3
72
14
73
10
40
0
40
0
40
0
40
0
40
0.125000000000018
40
0.125000000000018
40
0.250000000000036
40
0.250000000000036
40
0.500000000000071
40
0.500000000000071
40
1
40
1
40
1
40
1
41
1
10
249.762708723844
20
6.54011316499771
30
0
41
1
10
249.799334960786
20
6.54203266473931
30
0
41
1
10
249.836663465277
20
6.54485728896861
30
0
41
1
10
249.9105441693
20
6.55221268961617
30
0
41
1
10
249.947318261127
20
6.55674805930522
30
0
41
1
10
250.057213947035
20
6.5729090051241
30
0
41
1
10
250.129908900444
20
6.58708073633139
30
0
41
1
10
250.346835960251
20
6.63995155965176
30
0
41
1
10
250.489843189205
20
6.6887891670477
30
0
41
1
10
250.633042717522
20
6.75369757229856
30
0
0
SPLINE
5
31D
100
AcDbEntity
8
1
62
256
6
ByLayer
370
13
48
1
60
0
100
AcDbSpline
70
4
71
1
72
4
73
2
40
0
40
0
40
1
40
1
41
1
10
37.0100000006329
20
-20.2746174116382
30
0
41
1
10
37.0099999993671
20
-20.2884418845787
30
0
0
SPLINE
5
31E
100
AcDbEntity
8
1
62
256
6
ByLayer
370
13
48
1
60
0
100
AcDbSpline
70
4
71
3
72
8
73
4
40
0
40
0
40
0
40
0
40
1
40
1
40
1
40
1
41
1
10
234.969962451711
20
6.58449001663371
30
0
41
1
10
234.394682366034
20
6.89441861339952
30
0
41
1
10
233.793482352547
20
7.16964614253399
30
0
41
1
10
233.173418012472
20
7.41961849821482
30
0
0
SPLINE
5
31F
100
AcDbEntity
8
1
62
256
6
ByLayer
370
13
48
1
60
0
100
AcDbSpline
70
4
71
3
72
18
73
14
40
0
40
0
40
0
40
0
40
0.125
40
0.125
40
0.25
40
0.25
40
0.375000000000001
40
0.375000000000001
40
0.500000000000001
40
0.500000000000001
40
0.750000000000001
40
0.750000000000001
40
1
40
1
40
1
40
1
41
1
10
125
20
-20.6688249049951
30
0
41
1
10
121.541704917475
20
-20.6792863078512
30
0
41
1
10
118.08338381788
20
-20.6892372272052
30
0
41
1
10
111.166719712311
20
-20.7081697964181
30
0
41
1
10
107.708383826621
20
-20.7172694912783
30
0
41
1
10
100.79170990207
20
-20.7352656023116
30
0
41
1
10
97.3333719662968
20
-20.7441674401997
30
0
41
1
10
90.4166974374224
20
-20.7621169621397
30
0
41
1
10
86.9583608325156
20
-20.7711706901724
30
0
41
1
10
76.5833546363507
20
-20.7987626233806
30
0
41
1
10
69.6666877558835
20
-20.8175959498367
30
0
41
1
10
55.8333468968476
20
-20.854546790765
30
0
41
1
10
48.9166721455172
20
-20.8726207873271
30
0
41
1
10
42
20
-20.890934191835
30
0
0
SPLINE
5
320
100
AcDbEntity
8
1
62
256
6
ByLayer
370
13
48
1
60
0
100
AcDbSpline
70
4
71
3
72
14
73
10
40
0
40
0
40
0
40
0
40
0.500000000000039
40
0.500000000000039
40
0.750000000000019
40
0.750000000000019
40
0.87500000000001
40
0.87500000000001
40
1
40
1
40
1
40
1
41
1
10
245.31656661371
20
6.47507286608638
30
0
41
1
10
245.475170997127
20
6.42598133362841
30
0
41
1
10
245.633513164593
20
6.39293677888719
30
0
41
1
10
245.872355969918
20
6.36395184206253
30
0
41
1
10
245.952180872772
20
6.35777333781854
30
0
41
1
10
246.072406325107
20
6.35367252982104
30
0
41
1
10
246.112562798394
20
6.35316892020862
30
0
41
1
10
246.193068354885
20
6.3539045606264
30
0
41
1
10
246.233657432869
20
6.35516342386165
30
0
41
1
10
246.273390009808
20
6.35724571998426
30
0
0
SPLINE
5
321
100
AcDbEntity
8
1
62
256
6
ByLayer
370
13
48
1
60
0
100
AcDbSpline
70
4
71
3
72
44
73
40
40
0
40
0
40
0
40
0
40
0.124999999999998
40
0.124999999999998
40
0.187499999999998
40
0.187499999999998
40
0.218749999999997
40
0.218749999999997
40
0.249999999999997
40
0.249999999999997
40
0.374999999999996
40
0.374999999999996
40
0.437499999999996
40
0.437499999999996
40
0.468749999999996
40
0.468749999999996
40
0.499999999999996
40
0.499999999999996
40
0.562499999999997
40
0.562499999999997
40
0.593749999999997
40
0.593749999999997
40
0.624999999999997
40
0.624999999999997
40
0.687499999999998
40
0.687499999999998
40
0.749999999999998
40
0.749999999999998
40
0.781249999999999
40
0.781249999999999
40
0.812499999999999
40
0.812499999999999
40
0.874999999999999
40
0.874999999999999
40
0.906249999999999
40
0.906249999999999
40
0.9375
40
0.9375
40
1
40
1
40
1
40
1
41
1
10
13.8272768564631
20
-14.5516337493825
30
0
41
1
10
13.2723055889596
20
-14.6780649343721
30
0
41
1
10
12.7281599998593
20
-14.8438378341193
30
0
41
1
10
11.9272719293035
20
-15.1486533578671
30
0
41
1
10
11.6628902786623
20
-15.2597129207215
30
0
41
1
10
11.270323148215
20
-15.4410335606009
30
0
41
1
10
11.1401374649377
20
-15.5039378356736
30
0
41
1
10
10.8811487248059
20
-15.6348422520755
30
0
41
1
10
10.752663321051
20
-15.7026941906168
30
0
41
1
10
10.1213070669367
20
-16.0508948066571
30
0
41
1
10
9.64565385164946
20
-16.3603630891476
30
0
41
1
10
8.98073740916175
20
-16.8753261484433
30
0
41
1
10
8.7673251117412
20
-17.0555848547333
30
0
41
1
10
8.46084490237595
20
-17.3401836055216
30
0
41
1
10
8.36082247282967
20
-17.4375896696809
30
0
41
1
10
8.16853896005398
20
-17.6343705479359
30
0
41
1
10
8.07589773006605
20
-17.734080720599
30
0
41
1
10
7.8086538618038
20
-18.0372207412225
30
0
41
1
10
7.6446709538981
20
-18.2446367929677
30
0
41
1
10
7.42163789079704
20
-18.5643199849959
30
0
41
1
10
7.35113095635886
20
-18.6723129631298
30
0
41
1
10
7.21827501662214
20
-18.8913375238167
30
0
41
1
10
7.15608349207939
20
-19.0022183340704
30
0
41
1
10
6.98563043863497
20
-19.3336073974587
30
0
41
1
10
6.89206925855429
20
-19.5547605223384
30
0
41
1
10
6.74592752223505
20
-19.9974630934838
30
0
41
1
10
6.69330885631608
20
-20.2190108945415
30
0
41
1
10
6.64844214666282
20
-20.551728998905
30
0
41
1
10
6.6393366852718
20
-20.6621029082591
30
0
41
1
10
6.63323042398507
20
-20.8783497399694
30
0
41
1
10
6.63616341512572
20
-20.9847330925529
30
0
41
1
10
6.66246244552023
20
-21.2987855351427
30
0
41
1
10
6.70318855830487
20
-21.5013901996647
30
0
41
1
10
6.79974909305434
20
-21.7950379616751
30
0
41
1
10
6.83807645288844
20
-21.8914882924094
30
0
41
1
10
6.92527289762275
20
-22.0772417779035
30
0
41
1
10
6.97424376951608
20
-22.1669833081523
30
0
41
1
10
7.13696791071104
20
-22.4270634651743
30
0
41
1
10
7.26666678972938
20
-22.5882100443709
30
0
41
1
10
7.41647633813933
20
-22.7377973584171
30
0
0
SPLINE
5
322
100
AcDbEntity
8
1
62
256
6
ByLayer
370
13
48
1
60
0
100
AcDbSpline
70
4
71
1
72
4
73
2
40
0
40
0
40
1
40
1
41
1
10
37.45
20
-11.5419826910201
30
0
41
1
10
37.01
20
-11.5419826910201
30
0
0
SPLINE
5
323
100
AcDbEntity
8
1
62
256
6
ByLayer
370
13
48
1
60
0
100
AcDbSpline
70
4
71
3
72
42
73
38
40
0
40
0
40
0
40
0
40
0.008622639766899
40
0.008622639766899
40
0.0316779272141797
40
0.0316779272141797
40
0.0547332146614605
40
0.0547332146614605
40
0.0777885021087412
40
0.0777885021087412
40
0.123899077003303
40
0.123899077003303
40
0.170009651897865
40
0.170009651897865
40
0.193064939345147
40
0.193064939345147
40
0.216120226792428
40
0.216120226792428
40
0.23917551423971
40
0.23917551423971
40
0.262230801686991
40
0.262230801686991
40
0.308341376581554
40
0.308341376581554
40
0.354451951476116
40
0.354451951476116
40
0.446673101265242
40
0.446673101265242
40
0.492783676159806
40
0.492783676159806
40
0.538894251054369
40
0.538894251054369
40
0.631115400843495
40
0.631115400843495
40
0.815557700421747
40
0.815557700421747
40
1
40
1
40
1
40
1
41
1
10
167.942086950434
20
-10.6845343578002
30
0
41
1
10
167.570277552334
20
-10.710600622482
30
0
41
1
10
167.198337501604
20
-10.7362783298498
30
0
41
1
10
165.831414352255
20
-10.8292581099107
30
0
41
1
10
164.835553535589
20
-10.8939044692894
30
0
41
1
10
162.841172732258
20
-11.0133256328262
30
0
41
1
10
161.842605182709
20
-11.0677937684169
30
0
41
1
10
159.842427595083
20
-11.1651301055412
30
0
41
1
10
158.84044930921
20
-11.2083304367862
30
0
41
1
10
155.834815434824
20
-11.3232579562477
30
0
41
1
10
153.830617668552
20
-11.380447542566
30
0
41
1
10
149.821345632533
20
-11.4651593281814
30
0
41
1
10
147.816276373809
20
-11.4925238775326
30
0
41
1
10
144.807980470829
20
-11.5188619241562
30
0
41
1
10
143.805098823134
20
-11.525114851443
30
0
41
1
10
141.799101351691
20
-11.5340954400841
30
0
41
1
10
140.795975648677
20
-11.5371110039424
30
0
41
1
10
138.789590485335
20
-11.5410500827962
30
0
41
1
10
137.786346576205
20
-11.5419460983238
30
0
41
1
10
135.779803969446
20
-11.5435780247723
30
0
41
1
10
134.776501751599
20
-11.5441495913248
30
0
41
1
10
131.766523734828
20
-11.5452561644048
30
0
41
1
10
129.759775277484
20
-11.5450827866977
30
0
41
1
10
125.746210123171
20
-11.544400027014
30
0
41
1
10
123.739397732257
20
-11.5442149158997
30
0
41
1
10
117.719021626257
20
-11.5437430294064
30
0
41
1
10
113.705541238793
20
-11.541714815353
30
0
41
1
10
107.685380839199
20
-11.5397579026746
30
0
41
1
10
105.678669042435
20
-11.5392687513408
30
0
41
1
10
101.66523815176
20
-11.5389550830301
30
0
41
1
10
99.6585192030533
20
-11.539137527259
30
0
41
1
10
93.6383565113269
20
-11.5402954996864
30
0
41
1
10
89.6249061479545
20
-11.5417970255655
30
0
41
1
10
77.5845458765167
20
-11.5439070282741
30
0
41
1
10
69.5576353109326
20
-11.5429017072509
30
0
41
1
10
53.5038176598947
20
-11.5420392603418
30
0
41
1
10
45.4769088216636
20
-11.5421121001062
30
0
41
1
10
37.45
20
-11.5419826909737
30
0
0
SPLINE
5
324
100
AcDbEntity
8
1
62
256
6
ByLayer
370
13
48
1
60
0
100
AcDbSpline
70
4
71
3
72
18
73
14
40
0
40
0
40
0
40
0
40
0.250000000000002
40
0.250000000000002
40
0.500000000000005
40
0.500000000000005
40
0.625000000000003
40
0.625000000000003
40
0.750000000000002
40
0.750000000000002
40
0.875000000000001
40
0.875000000000001
40
1
40
1
40
1
40
1
41
1
10
236.339932312911
20
7.43841156531835
30
0
41
1
10
236.411079455923
20
7.6188812853031
30
0
41
1
10
236.473188570956
20
7.80171434939837
30
0
41
1
10
236.576009691826
20
8.17297558441047
30
0
41
1
10
236.616775438112
20
8.36138970279566
30
0
41
1
10
236.657608242858
20
8.64932324066862
30
0
41
1
10
236.66782886151
20
8.74656547135888
30
0
41
1
10
236.680202913287
20
8.94126298413659
30
0
41
1
10
236.682365024721
20
9.03839136059065
30
0
41
1
10
236.677775963303
20
9.23216007604285
30
0
41
1
10
236.671028886223
20
9.32880063930074
30
0
41
1
10
236.647453944193
20
9.52152980293644
30
0
41
1
10
236.630492184173
20
9.61817231623172
30
0
41
1
10
236.608010412842
20
9.71313865546725
30
0
0
SPLINE
5
325
100
AcDbEntity
8
1
62
256
6
ByLayer
370
13
48
1
60
0
100
AcDbSpline
70
4
71
3
72
12
73
8
40
0
40
0
40
0
40
0
40
0.500000000000043
40
0.500000000000043
40
0.750000000000021
40
0.750000000000021
40
1
40
1
40
1
40
1
41
1
10
233.831663545089
20
9.93639671757512
30
0
41
1
10
233.979529184086
20
9.94207926918725
30
0
41
1
10
234.126236269705
20
9.94229133278748
30
0
41
1
10
234.344495646072
20
9.93389345795703
30
0
41
1
10
234.416832007414
20
9.92962926571764
30
0
41
1
10
234.558899519449
20
9.91827313140618
30
0
41
1
10
234.628879440561
20
9.9111738155126
30
0
41
1
10
234.69782153018
20
9.90265916851001
30
0
0
SPLINE
5
326
100
AcDbEntity
8
1
62
256
6
ByLayer
370
13
48
1
60
0
100
AcDbSpline
70
4
71
3
72
8
73
4
40
0
40
0
40
0
40
0
40
1
40
1
40
1
40
1
41
1
10
246.908566543539
20
5.0887498617725
30
0
41
1
10
247.069098927752
20
5.09716300753215
30
0
41
1
10
247.225847316965
20
5.10537784251699
30
0
41
1
10
247.378611406319
20
5.11338386919419
30
0
0
SPLINE
5
327
100
AcDbEntity
8
1
62
256
6
ByLayer
370
13
48
1
60
0
100
AcDbSpline
70
4
71
3
72
8
73
4
40
0
40
0
40
0
40
0
40
1
40
1
40
1
40
1
41
1
10
37
20
-20.8909539613435
30
0
41
1
10
36.7317498732227
20
-20.89095826957
30
0
41
1
10
36.4638011499053
20
-20.8964647862281
30
0
41
1
10
36.1961524480897
20
-20.9074482549103
30
0
0
SPLINE
5
328
100
AcDbEntity
8
1
62
256
6
ByLayer
370
13
48
1
60
0
100
AcDbSpline
70
4
71
3
72
18
73
14
40
0
40
0
40
0
40
0
40
0.249999999999977
40
0.249999999999977
40
0.374999999999965
40
0.374999999999965
40
0.499999999999953
40
0.499999999999953
40
0.74999999999993
40
0.74999999999993
40
0.874999999999965
40
0.874999999999965
40
1
40
1
40
1
40
1
41
1
10
252.892767032725
20
6.90442703919214
30
0
41
1
10
252.950143375315
20
6.90743400589059
30
0
41
1
10
253.00790019997
20
6.90025942632036
30
0
41
1
10
253.089198500554
20
6.87688326854376
30
0
41
1
10
253.115080972486
20
6.86711206139185
30
0
41
1
10
253.163228505425
20
6.84516764509459
30
0
41
1
10
253.185882986987
20
6.83277637433963
30
0
41
1
10
253.245871405469
20
6.79585218485093
30
0
41
1
10
253.276691628692
20
6.77098422768583
30
0
41
1
10
253.308902401287
20
6.74534453487991
30
0
41
1
10
253.317575045892
20
6.73851900205148
30
0
41
1
10
253.330658044537
20
6.72958253923713
30
0
41
1
10
253.335215172146
20
6.72734029442748
30
0
41
1
10
253.337875860782
20
6.72747973521024
30
0
0
SPLINE
5
329
100
AcDbEntity
8
1
62
256
6
ByLayer
370
13
48
1
60
0
100
AcDbSpline
70
4
71
3
72
10
73
6
40
0
40
0
40
0
40
0
40
0.5
40
0.5
40
1
40
1
40
1
40
1
41
1
10
241.622237410308
20
6.07908296571108
30
0
41
1
10
241.672552968058
20
6.07654079758726
30
0
41
1
10
241.720980192396
20
6.06914329986546
30
0
41
1
10
241.813185285844
20
6.0493599952388
30
0
41
1
10
241.855975529441
20
6.03736209837217
30
0
41
1
10
241.894599543143
20
6.02721828890373
30
0
0
SPLINE
5
32A
100
AcDbEntity
8
1
62
256
6
ByLayer
370
13
48
1
60
0
100
AcDbSpline
70
4
71
3
72
18
73
14
40
0
40
0
40
0
40
0
40
0.249999999999998
40
0.249999999999998
40
0.499999999999996
40
0.499999999999996
40
0.5625
40
0.5625
40
0.625000000000004
40
0.625000000000004
40
0.750000000000003
40
0.750000000000003
40
1
40
1
40
1
40
1
41
1
10
236.770739519435
20
4.2238047443528
30
0
41
1
10
237.34197850491
20
4.06102601331671
30
0
41
1
10
237.91482129747
20
3.94719874286432
30
0
41
1
10
239.064746805196
20
3.80834973959099
30
0
41
1
10
239.641822972927
20
3.78340679229717
30
0
41
1
10
240.366452468799
20
3.80763186466189
30
0
41
1
10
240.51171834554
20
3.81528452679078
30
0
41
1
10
240.801023737638
20
3.83610571942421
30
0
41
1
10
240.945207411463
20
3.84927228572298
30
0
41
1
10
241.376378878671
20
3.8969721309376
30
0
41
1
10
241.661990747777
20
3.93969171405999
30
0
41
1
10
242.513407609704
20
4.1005845013018
30
0
41
1
10
243.073863016975
20
4.25126392569859
30
0
41
1
10
243.626646501034
20
4.44797895337939
30
0
0
SPLINE
5
32B
100
AcDbEntity
8
1
62
256
6
ByLayer
370
13
48
1
60
0
100
AcDbSpline
70
4
71
3
72
26
73
22
40
0
40
0
40
0
40
0
40
0.249999999999999
40
0.249999999999999
40
0.374999999999999
40
0.374999999999999
40
0.499999999999998
40
0.499999999999998
40
0.624999999999998
40
0.624999999999998
40
0.656249999999998
40
0.656249999999998
40
0.671874999999998
40
0.671874999999998
40
0.687499999999999
40
0.687499999999999
40
0.749999999999999
40
0.749999999999999
40
0.875
40
0.875
40
1
40
1
40
1
40
1
41
1
10
13.8272940278958
20
-28.6702719076578
30
0
41
1
10
15.5411856384404
20
-28.2126546125018
30
0
41
1
10
17.2238834247493
20
-27.6813568066822
30
0
41
1
10
19.700617579501
20
-26.7726568561831
30
0
41
1
10
20.5191851247523
20
-26.4506717390827
30
0
41
1
10
22.1319688145355
20
-25.7722464016939
30
0
41
1
10
22.9269928328765
20
-25.4155599039977
30
0
41
1
10
24.4941825423917
20
-24.6670506845961
30
0
41
1
10
25.2663496216997
20
-24.275230096633
30
0
41
1
10
26.2170301125108
20
-23.7631223839789
30
0
41
1
10
26.4064390753925
20
-23.6595831398807
30
0
41
1
10
26.6894549950708
20
-23.5025872355056
30
0
41
1
10
26.7839326048488
20
-23.4504688821819
30
0
41
1
10
26.9740678266349
20
-23.3480459925469
30
0
41
1
10
27.0695872103415
20
-23.297528981345
30
0
41
1
10
27.5494477301363
20
-23.048423375096
30
0
41
1
10
27.9412793917975
20
-22.859953580559
30
0
41
1
10
29.1336247983964
20
-22.3307799404742
30
0
41
1
10
29.9480597199602
20
-22.0271789443478
30
0
41
1
10
31.6161918719144
20
-21.51880887525
30
0
41
1
10
32.4698872931808
20
-21.3140352483131
30
0
41
1
10
33.3443735114913
20
-21.1615966601761
30
0
0
SPLINE
5
32C
100
AcDbEntity
8
1
62
256
6
ByLayer
370
13
48
1
60
0
100
AcDbSpline
70
4
71
3
72
16
73
12
40
0
40
0
40
0
40
0
40
0.249999999999979
40
0.249999999999979
40
0.499999999999958
40
0.499999999999958
40
0.624999999999986
40
0.624999999999986
40
0.750000000000015
40
0.750000000000015
40
1
40
1
40
1
40
1
41
1
10
255.210174714812
20
5.65916685500306
30
0
41
1
10
255.057173578161
20
5.67587652433079
30
0
41
1
10
254.909070041648
20
5.70470209906475
30
0
41
1
10
254.617196554386
20
5.78645792043889
30
0
41
1
10
254.475887905897
20
5.83883401880013
30
0
41
1
10
254.270145117021
20
5.9355946443757
30
0
41
1
10
254.202561880972
20
5.97092552554847
30
0
41
1
10
254.069275552662
20
6.04836095825814
30
0
41
1
10
254.003757941426
20
6.09041224688767
30
0
41
1
10
253.81432015771
20
6.22468096945431
30
0
41
1
10
253.696046913644
20
6.32561278579604
30
0
41
1
10
253.586596423833
20
6.44010292378252
30
0
0
SPLINE
5
32D
100
AcDbEntity
8
1
62
256
6
ByLayer
370
13
48
1
60
0
100
AcDbSpline
70
4
71
3
72
18
73
14
40
0
40
0
40
0
40
0
40
0.168990279285669
40
0.168990279285669
40
0.337980558571338
40
0.337980558571338
40
0.506970837857007
40
0.506970837857007
40
0.675961117142676
40
0.675961117142676
40
0.844951396428345
40
0.844951396428345
40
1
40
1
40
1
40
1
41
1
10
37.01
20
-11.5419826909737
30
0
41
1
10
37.01
20
-11.3306692334932
30
0
41
1
10
37.01
20
-11.1110169401771
30
0
41
1
10
37.01
20
-10.6557299263631
30
0
41
1
10
37.01
20
-10.4182464791334
30
0
41
1
10
37.01
20
-9.93488011161759
30
0
41
1
10
37.01
20
-9.69240551179647
30
0
41
1
10
37.01
20
-9.20591490549015
30
0
41
1
10
37.01
20
-8.95937438595627
30
0
41
1
10
37.01
20
-8.47930128788656
30
0
41
1
10
37.01
20
-8.24592646456364
30
0
41
1
10
37.01
20
-7.81106940867221
30
0
41
1
10
37.01
20
-7.60711996064805
30
0
41
1
10
37.01
20
-7.41512669096446
30
0
0
SPLINE
5
32E
100
AcDbEntity
8
1
62
256
6
ByLayer
370
13
48
1
60
0
100
AcDbSpline
70
4
71
3
72
19
73
15
40
0
40
0
40
0
40
0
40
0.25
40
0.25
40
0.375
40
0.375
40
0.5
40
0.5
40
0.625
40
0.625
40
0.75
40
0.875
40
0.875
40
1
40
1
40
1
40
1
41
1
10
37.0049999752098
20
-11.5459954406633
30
0
41
1
10
34.5311108514702
20
-12.1051838707637
30
0
41
1
10
32.0695513054689
20
-12.9094779222503
30
0
41
1
10
28.5432542345009
20
-14.4794096528392
30
0
41
1
10
27.3956471282724
20
-15.0640371544147
30
0
41
1
10
25.1791883201539
20
-16.3472419038481
30
0
41
1
10
24.1102467499574
20
-17.0453471391692
30
0
41
1
10
22.0734012364658
20
-18.5425023217659
30
0
41
1
10
21.1057739735056
20
-19.3417693172921
30
0
41
1
10
19.2927081955308
20
-21.0281586957033
30
0
41
1
10
17.6003309969552
20
-22.8012266197078
30
0
41
1
10
16.1733915118936
20
-24.7071628730404
30
0
41
1
10
14.8912011611534
20
-26.6592889104362
30
0
41
1
10
14.3229909950002
20
-27.6584789394175
30
0
41
1
10
13.8272940278958
20
-28.6702719076578
30
0
0
SPLINE
5
32F
100
AcDbEntity
8
1
62
256
6
ByLayer
370
13
48
1
60
0
100
AcDbSpline
70
4
71
3
72
8
73
4
40
0
40
0
40
0
40
0
40
1
40
1
40
1
40
1
41
1
10
233.831673302397
20
9.93642857100662
30
0
41
1
10
233.94675715976
20
11.2532286698379
30
0
41
1
10
234.058572158692
20
12.5683916336318
30
0
41
1
10
234.166203042141
20
13.8822437993973
30
0
0
SPLINE
5
330
100
AcDbEntity
8
1
62
256
6
ByLayer
370
13
48
1
60
0
100
AcDbSpline
70
4
71
3
72
46
73
42
40
0
40
0
40
0
40
0
40
0.0423421521462323
40
0.0423421521462323
40
0.0879449068059354
40
0.0879449068059354
40
0.133547661465639
40
0.133547661465639
40
0.179150416125341
40
0.179150416125341
40
0.224753170785045
40
0.224753170785045
40
0.270355925444748
40
0.270355925444748
40
0.315958680104451
40
0.315958680104451
40
0.361561434764154
40
0.361561434764154
40
0.407164189423857
40
0.407164189423857
40
0.45276694408356
40
0.45276694408356
40
0.498369698743263
40
0.498369698743263
40
0.543972453402967
40
0.543972453402967
40
0.58957520806267
40
0.58957520806267
40
0.635177962722373
40
0.635177962722373
40
0.680780717382076
40
0.680780717382076
40
0.726383472041779
40
0.726383472041779
40
0.771986226701483
40
0.771986226701483
40
0.817588981361186
40
0.817588981361186
40
0.908794490680593
40
0.908794490680593
40
1
40
1
40
1
40
1
41
1
10
195.473014248062
20
-17.2875433950249
30
0
41
1
10
194.535019138676
20
-17.5172103687873
30
0
41
1
10
193.597342790413
20
-17.7363625144649
30
0
41
1
10
191.648227525601
20
-18.1673247783229
30
0
41
1
10
190.636804349774
20
-18.3773950295669
30
0
41
1
10
188.608364425033
20
-18.7675169319492
30
0
41
1
10
187.590954402694
20
-18.9475093134038
30
0
41
1
10
185.549672770955
20
-19.2745739336673
30
0
41
1
10
184.52512967807
20
-19.421547274215
30
0
41
1
10
182.466690470784
20
-19.6851684959958
30
0
41
1
10
181.432867131171
20
-19.8018947065975
30
0
41
1
10
179.354863097615
20
-20.0085623741684
30
0
41
1
10
178.310560945061
20
-20.0984587813431
30
0
41
1
10
176.212508254158
20
-20.2562357181141
30
0
41
1
10
175.158776443014
20
-20.3241271025091
30
0
41
1
10
173.043272631654
20
-20.4418966388741
30
0
41
1
10
171.981378346604
20
-20.4917449227222
30
0
41
1
10
169.853822510727
20
-20.5759226121669
30
0
41
1
10
168.787632440332
20
-20.6102854817101
30
0
41
1
10
166.650292440241
20
-20.6661351095854
30
0
41
1
10
165.579106298567
20
-20.6875827090644
30
0
41
1
10
163.430692175924
20
-20.7198545845519
30
0
41
1
10
162.353444339775
20
-20.7306800094802
30
0
41
1
10
160.191956783511
20
-20.7443605311875
30
0
41
1
10
159.107785975575
20
-20.7472474810972
30
0
41
1
10
156.932608565108
20
-20.7477207913628
30
0
41
1
10
155.841675264113
20
-20.7453040246527
30
0
41
1
10
153.656839452891
20
-20.737433064432
30
0
41
1
10
152.56244263777
20
-20.7319789628437
30
0
41
1
10
150.369549696853
20
-20.7200015385357
30
0
41
1
10
149.270653950121
20
-20.7134739551474
30
0
41
1
10
147.070628115315
20
-20.7010204389436
30
0
41
1
10
145.969805263944
20
-20.6951303454984
30
0
41
1
10
143.766594014001
20
-20.6851303039157
30
0
41
1
10
142.664205526087
20
-20.6810240279154
30
0
41
1
10
140.458205296309
20
-20.6746986269506
30
0
41
1
10
139.354606868375
20
-20.6724491486652
30
0
41
1
10
136.042687407867
20
-20.6676461011243
30
0
41
1
10
133.833863712818
20
-20.6668479528872
30
0
41
1
10
129.416935772337
20
-20.6670524884884
30
0
41
1
10
127.208467533061
20
-20.6680139618465
30
0
41
1
10
125
20
-20.6688249049951
30
0
0
SPLINE
5
331
100
AcDbEntity
8
1
62
256
6
ByLayer
370
13
48
1
60
0
100
AcDbSpline
70
4
71
3
72
14
73
10
40
0
40
0
40
0
40
0
40
0.25
40
0.25
40
0.5
40
0.5
40
0.75
40
0.75
40
1
40
1
40
1
40
1
41
1
10
255.060771020943
20
0.670729677135881
30
0
41
1
10
255.061884163754
20
0.72111652911525
30
0
41
1
10
255.063866141445
20
0.767951146416578
30
0
41
1
10
255.069456479153
20
0.851192367243755
30
0
41
1
10
255.072984409919
20
0.886640336859585
30
0
41
1
10
255.081443956611
20
0.943915220677866
30
0
41
1
10
255.086179942147
20
0.964525873770782
30
0
41
1
10
255.096683341939
20
0.989392258725218
30
0
41
1
10
255.102199477895
20
0.993005994054926
30
0
41
1
10
255.107938066783
20
0.987636904870641
30
0
0
SPLINE
5
332
100
AcDbEntity
8
1
62
256
6
ByLayer
370
13
48
1
60
0
100
AcDbSpline
70
4
71
3
72
8
73
4
40
0
40
0
40
0
40
0
40
1
40
1
40
1
40
1
41
1
10
236.107106212145
20
-20.8315630362781
30
0
41
1
10
235.107106211759
20
-20.7603745392983
30
0
41
1
10
234.107106211755
20
-20.6891860370291
30
0
41
1
10
233.107106212145
20
-20.6179975293044
30
0
0
SPLINE
5
333
100
AcDbEntity
8
1
62
256
6
ByLayer
370
13
48
1
60
0
100
AcDbSpline
70
4
71
3
72
26
73
22
40
0
40
0
40
0
40
0
40
0.15471500325138
40
0.15471500325138
40
0.23207250487707
40
0.23207250487707
40
0.30943000650276
40
0.30943000650276
40
0.464145009754138
40
0.464145009754138
40
0.541502511379826
40
0.541502511379826
40
0.618860013005514
40
0.618860013005514
40
0.773575016256888
40
0.773575016256888
40
0.850932517882576
40
0.850932517882576
40
0.928290019508264
40
0.928290019508264
40
1
40
1
40
1
40
1
41
1
10
229.887501647189
20
20.2827306649542
30
0
41
1
10
228.006123750499
20
20.4197162154406
30
0
41
1
10
226.12601055946
20
20.5057666784649
30
0
41
1
10
223.304141173945
20
20.558312165532
30
0
41
1
10
222.36348339167
20
20.5630523388036
30
0
41
1
10
220.484021343535
20
20.5470284921597
30
0
41
1
10
219.544863310755
20
20.5262731584677
30
0
41
1
10
216.728228869679
20
20.4258477578159
30
0
41
1
10
214.85160455918
20
20.3081019213237
30
0
41
1
10
212.034818075505
20
20.0547117183423
30
0
41
1
10
211.095576399867
20
19.9573667211842
30
0
41
1
10
209.215800485294
20
19.736966487125
30
0
41
1
10
208.274794368837
20
19.6138988923105
30
0
41
1
10
205.454373353138
20
19.2080535271126
30
0
41
1
10
203.576424665026
20
18.8885813701024
30
0
41
1
10
200.759096876826
20
18.3407954491894
30
0
41
1
10
199.819887278524
20
18.1462943182388
30
0
41
1
10
197.942029963566
20
17.7412614258623
30
0
41
1
10
197.004093566213
20
17.5331609188346
30
0
41
1
10
195.190284556249
20
17.1089584480885
30
0
41
1
10
194.31378116018
20
16.8932054787698
30
0
41
1
10
193.434569402018
20
16.6719903860804
30
0
0
SPLINE
5
334
100
AcDbEntity
8
1
62
256
6
ByLayer
370
13
48
1
60
0
100
AcDbSpline
70
4
71
3
72
8
73
4
40
0
40
0
40
0
40
0
40
1
40
1
40
1
40
1
41
1
10
216.532870837819
20
8.70053429471389
30
0
41
1
10
216.996785442991
20
8.51319741574645
30
0
41
1
10
217.46077024912
20
8.32451045256914
30
0
41
1
10
217.924860659862
20
8.13454208921198
30
0
0
SPLINE
5
335
100
AcDbEntity
8
1
62
256
6
ByLayer
370
13
48
1
60
0
100
AcDbSpline
70
4
71
3
72
8
73
4
40
0
40
0
40
0
40
0
40
1
40
1
40
1
40
1
41
1
10
241.538118329176
20
6.07975548921314
30
0
41
1
10
241.565910625825
20
6.08068254106158
30
0
41
1
10
241.594332477491
20
6.08049284834095
30
0
41
1
10
241.622237410308
20
6.07908296571463
30
0
0
SPLINE
5
336
100
AcDbEntity
8
1
62
256
6
ByLayer
370
13
48
1
60
0
100
AcDbSpline
70
4
71
3
72
72
73
68
40
0
40
0
40
0
40
0
40
0.0130205204177509
40
0.0130205204177509
40
0.0320008950251025
40
0.0320008950251025
40
0.041491082328778
40
0.041491082328778
40
0.0509812696324536
40
0.0509812696324536
40
0.0699616442398047
40
0.0699616442398047
40
0.0889420188471558
40
0.0889420188471558
40
0.107922393454507
40
0.107922393454507
40
0.126902768061858
40
0.126902768061858
40
0.145883142669209
40
0.145883142669209
40
0.16486351727656
40
0.16486351727656
40
0.183843891883911
40
0.183843891883911
40
0.202824266491262
40
0.202824266491262
40
0.221804641098613
40
0.221804641098613
40
0.240785015705964
40
0.240785015705964
40
0.278745764920666
40
0.278745764920666
40
0.297726139528017
40
0.297726139528017
40
0.316706514135368
40
0.316706514135368
40
0.335686888742719
40
0.335686888742719
40
0.345177076046395
40
0.345177076046395
40
0.35466726335007
40
0.35466726335007
40
0.364157450653745
40
0.364157450653745
40
0.373647637957421
40
0.373647637957421
40
0.392628012564771
40
0.392628012564771
40
0.430588761779472
40
0.430588761779472
40
0.449569136386822
40
0.449569136386822
40
0.468549510994173
40
0.468549510994173
40
0.506510260208875
40
0.506510260208875
40
0.544471009423577
40
0.544471009423577
40
0.582431758638279
40
0.582431758638279
40
0.620392507852981
40
0.620392507852981
40
0.696314006282384
40
0.696314006282384
40
0.848157003141192
40
0.848157003141192
40
1
40
1
40
1
40
1
41
1
10
194.850302998199
20
-17.177577443599
30
0
41
1
10
194.215503641231
20
-17.3263885045666
30
0
41
1
10
193.580697194677
20
-17.4702112768734
30
0
41
1
10
192.01994093689
20
-17.8090312935464
30
0
41
1
10
191.093864376538
20
-17.9970884455461
30
0
41
1
10
189.702033574552
20
-18.2556134291672
30
0
41
1
10
189.23754200242
20
-18.3382710082807
30
0
41
1
10
188.306609472875
20
-18.4996481639535
30
0
41
1
10
187.840176378788
20
-18.5784112696817
30
0
41
1
10
186.43763234818
20
-18.8070061701521
30
0
41
1
10
185.49939985017
20
-18.9480706598191
30
0
41
1
10
183.616256770496
20
-19.2033794326849
30
0
41
1
10
182.671252392504
20
-19.3185055839803
30
0
41
1
10
180.773660461724
20
-19.5257750099328
30
0
41
1
10
179.821070780947
20
-19.6172924441044
30
0
41
1
10
177.908212325642
20
-19.7771246192708
30
0
41
1
10
176.948000754459
20
-19.8459245834887
30
0
41
1
10
175.020614816648
20
-19.9665935212553
30
0
41
1
10
174.05346439649
20
-20.0185980667547
30
0
41
1
10
172.112844324088
20
-20.110245187606
30
0
41
1
10
171.139159253162
20
-20.1496478784567
30
0
41
1
10
169.187993197467
20
-20.2173874923264
30
0
41
1
10
168.210248087851
20
-20.2458833303751
30
0
41
1
10
166.250371015708
20
-20.2929516638225
30
0
41
1
10
165.268237795015
20
-20.3106925700181
30
0
41
1
10
163.298640696277
20
-20.3361619373078
30
0
41
1
10
162.311655014
20
-20.3441156119024
30
0
41
1
10
160.334264980474
20
-20.3545753870379
30
0
41
1
10
159.34366053346
20
-20.3571399886973
30
0
41
1
10
156.366234103082
20
-20.3592263063732
30
0
41
1
10
154.373866670384
20
-20.3538953895144
30
0
41
1
10
151.374117237261
20
-20.3400440999679
30
0
41
1
10
150.372324407782
20
-20.3342476045973
30
0
41
1
10
148.364872273967
20
-20.3209403703674
30
0
41
1
10
147.358718905151
20
-20.3134727479954
30
0
41
1
10
145.346220281424
20
-20.2974257757233
30
0
41
1
10
144.33956900615
20
-20.2890214136301
30
0
41
1
10
142.829022840015
20
-20.2808325358114
30
0
41
1
10
142.325412829739
20
-20.2788533498237
30
0
41
1
10
141.318015979699
20
-20.2776614297188
30
0
41
1
10
140.814226645352
20
-20.2787008414581
30
0
41
1
10
139.806517976337
20
-20.2813761988747
30
0
41
1
10
139.302600396086
20
-20.2828343894621
30
0
41
1
10
138.294682708351
20
-20.2840207271404
30
0
41
1
10
137.790679972171
20
-20.2840101627241
30
0
41
1
10
136.278566494767
20
-20.2831810846756
30
0
41
1
10
135.270351437139
20
-20.2816253640629
30
0
41
1
10
132.245410324843
20
-20.2762075237919
30
0
41
1
10
130.228376890021
20
-20.2722510517392
30
0
41
1
10
127.203014460582
20
-20.271209869266
30
0
41
1
10
126.194563061609
20
-20.271472467501
30
0
41
1
10
124.177660339459
20
-20.2732828012966
30
0
41
1
10
123.169208842079
20
-20.2749528585289
30
0
41
1
10
120.143849961727
20
-20.2795558795346
30
0
41
1
10
118.126936491233
20
-20.2805558184955
30
0
41
1
10
114.093094230536
20
-20.2789016456201
30
0
41
1
10
112.076170433542
20
-20.2765767543643
30
0
41
1
10
108.04232770607
20
-20.2715735511438
30
0
41
1
10
106.025406790763
20
-20.2689800913286
30
0
41
1
10
101.991562810373
20
-20.2670822364896
30
0
41
1
10
99.9746394781029
20
-20.2678972168223
30
0
41
1
10
93.9238690452341
20
-20.2722638274744
30
0
41
1
10
89.8900226337517
20
-20.2778556435683
30
0
41
1
10
77.78848100925
20
-20.2832742901111
30
0
41
1
10
69.7207843254223
20
-20.2746339092563
30
0
41
1
10
53.5853921981159
20
-20.2704422859615
30
0
41
1
10
45.5176961127414
20
-20.2744205651222
30
0
41
1
10
37.45
20
-20.2747057602475
30
0
0
SPLINE
5
337
100
AcDbEntity
8
1
62
256
6
ByLayer
370
13
48
1
60
0
100
AcDbSpline
70
4
71
3
72
8
73
4
40
0
40
0
40
0
40
0
40
1
40
1
40
1
40
1
41
1
10
229.887501647205
20
20.2827306649451
30
0
41
1
10
229.926335496561
20
20.3460146595038
30
0
41
1
10
229.965002463797
20
20.40940370236
30
0
41
1
10
230.003505206318
20
20.4728961207411
30
0
0
SPLINE
5
338
100
AcDbEntity
8
1
62
256
6
ByLayer
370
13
48
1
60
0
100
AcDbSpline
70
4
71
2
72
6
73
3
40
0
40
0
40
0
40
1
40
1
40
1
41
1
10
255.821210170497
20
5.83887576623721
30
0
41
1
10
255.889138076597
20
5.90986748384029
30
0
41
1
10
255.958380134285
20
5.96574237411897
30
0
0
SPLINE
5
339
100
AcDbEntity
8
1
62
256
6
ByLayer
370
13
48
1
60
0
100
AcDbSpline
70
4
71
2
72
6
73
3
40
0
40
0
40
0
40
1
40
1
40
1
41
1
10
238.903732387315
20
5.07194615924578
30
0
41
1
10
238.978435646183
20
5.02361512334596
30
0
41
1
10
239.053412091252
20
4.96011270543733
30
0
0
SPLINE
5
33A
100
AcDbEntity
8
1
62
256
6
ByLayer
370
13
48
1
60
0
100
AcDbSpline
70
4
71
1
72
4
73
2
40
0
40
0
40
1
40
1
41
1
10
214.907135074759
20
9.35152967619786
30
0
41
1
10
214.831863227952
20
9.38154096089727
30
0
0
SPLINE
5
33B
100
AcDbEntity
8
1
62
256
6
ByLayer
370
13
48
1
60
0
100
AcDbSpline
70
4
71
3
72
19
73
15
40
0
40
0
40
0
40
0
40
0.111586933534038
40
0.223677663279315
40
0.336021957094474
40
0.448366165223029
40
0.560456639067304
40
0.623167582614369
40
0.685628499304072
40
0.748236598914302
40
0.811317998845859
40
0.874533558274493
40
0.937539799756357
40
1
40
1
40
1
40
1
41
1
10
5.75179999999995
20
-31.25
30
0
41
1
10
6.97636111084584
20
-31.07780596281
30
0
41
1
10
9.41320520558835
20
-30.651884789329
30
0
41
1
10
13.0280526396993
20
-29.7673618647609
30
0
41
1
10
16.5816774995512
20
-28.6393006041568
30
0
41
1
10
20.0529533183164
20
-27.2768332431868
30
0
41
1
10
22.9241011509304
20
-25.9124893561335
30
0
41
1
10
25.242362491415
20
-24.6787874439435
30
0
41
1
10
27.0121505535121
20
-23.5894719267698
30
0
41
1
10
28.8682970487474
20
-22.639514008378
30
0
41
1
10
30.8263698566176
20
-21.8967928898556
30
0
41
1
10
32.8534749039107
20
-21.357557350255
30
0
41
1
10
34.9211308595876
20
-21.034190081863
30
0
41
1
10
36.3062114393008
20
-20.9626905909182
30
0
41
1
10
37
20
-20.9625
30
0
0
SPLINE
5
33C
100
AcDbEntity
8
1
62
256
6
ByLayer
370
13
48
1
60
0
100
AcDbSpline
70
4
71
3
72
18
73
14
40
0
40
0
40
0
40
0
40
0.0795880707349198
40
0.159912193929884
40
0.240272024307507
40
0.319965358710825
40
0.399553432783634
40
0.479477659683908
40
0.559613915312278
40
0.669969462973488
40
0.780311954488388
40
0.890401124267691
40
1
40
1
40
1
40
1
41
1
10
37
20
20.9624999999999
30
0
41
1
10
36.1138460463007
20
20.9630023974239
30
0
41
1
10
34.3507181195078
20
21.0783970133064
30
0
41
1
10
31.7351299610154
20
21.6051279804641
30
0
41
1
10
29.2089527869832
20
22.4631700175039
30
0
41
1
10
26.8466491164032
20
23.6803245523985
30
0
41
1
10
24.5863066435882
20
25.0569188250829
30
0
41
1
10
22.2192544990927
20
26.2559612772281
30
0
41
1
10
19.4984162382951
20
27.50052362596
30
0
41
1
10
16.3926485114666
20
28.7043880677508
30
0
41
1
10
12.8993769362143
20
29.8017740437901
30
0
41
1
10
9.34783237322671
20
30.6640367737209
30
0
41
1
10
6.95437464425476
20
31.0809024556889
30
0
41
1
10
5.75180000000002
20
31.25
30
0
0
LINE
5
7F
100
AcDbEntity
8
SK1
62
256
6
ByLayer
370
13
48
1
60
0
100
AcDbLine
10
-6.5
20
-10.670483
30
0
11
-76.600002
21
-10.670483
31
0
39
0
210
0
220
0
230
1
0
LINE
5
81
100
AcDbEntity
8
SK1
62
256
6
ByLayer
370
13
48
1
60
0
100
AcDbLine
10
-78.599999
20
-10.670483
30
0
11
-79
21
-10.670483
31
0
39
0
210
0
220
0
230
1
0
LINE
5
82
100
AcDbEntity
8
SK1
62
256
6
ByLayer
370
13
48
1
60
0
100
AcDbLine
10
-78.516222
20
24.892544
30
0
11
-78.516222
21
10.425829
31
0
39
0
210
0
220
0
230
1
0
LINE
5
83
100
AcDbEntity
8
SK1
62
256
6
ByLayer
370
13
48
1
60
0
100
AcDbLine
10
-78.516222
20
-10.425829
30
0
11
-78.516222
21
-24.892544
31
0
39
0
210
0
220
0
230
1
0
LINE
5
84
100
AcDbEntity
8
SK1
62
256
6
ByLayer
370
13
48
1
60
0
100
AcDbLine
10
-76.600002
20
24.996
30
0
11
-76.600002
21
10.670483
31
0
39
0
210
0
220
0
230
1
0
LINE
5
85
100
AcDbEntity
8
SK1
62
256
6
ByLayer
370
13
48
1
60
0
100
AcDbLine
10
-76.600002
20
-10.670483
30
0
11
-76.600002
21
-24.996
31
0
39
0
210
0
220
0
230
1
0
LINE
5
86
100
AcDbEntity
8
SK1
62
256
6
ByLayer
370
13
48
1
60
0
100
AcDbLine
10
-1.375195
20
-24.746
30
0
11
-1.375195
21
24.746
31
0
39
0
210
0
220
0
230
1
0
LINE
5
87
100
AcDbEntity
8
SK1
62
256
6
ByLayer
370
13
48
1
60
0
100
AcDbLine
10
-80
20
8.054018
30
0
11
-80
21
-8.054018
31
0
39
0
210
0
220
0
230
1
0
LINE
5
88
100
AcDbEntity
8
SK1
62
256
6
ByLayer
370
13
48
1
60
0
100
AcDbLine
10
-79
20
-24.996
30
0
11
-79
21
-10.670483
31
0
39
0
210
0
220
0
230
1
0
LINE
5
89
100
AcDbEntity
8
SK1
62
256
6
ByLayer
370
13
48
1
60
0
100
AcDbLine
10
-79
20
10.670483
30
0
11
-79
21
24.996
31
0
39
0
210
0
220
0
230
1
0
LINE
5
8A
100
AcDbEntity
8
SK1
62
256
6
ByLayer
370
13
48
1
60
0
100
AcDbLine
10
-77.633813
20
24.639667
30
0
11
-77.633813
21
9.806751
31
0
39
0
210
0
220
0
230
1
0
LINE
5
8B
100
AcDbEntity
8
SK1
62
256
6
ByLayer
370
13
48
1
60
0
100
AcDbLine
10
-77.633813
20
-9.806751
30
0
11
-77.633813
21
-24.639667
31
0
39
0
210
0
220
0
230
1
0
LINE
5
8C
100
AcDbEntity
8
SK1
62
256
6
ByLayer
370
13
48
1
60
0
100
AcDbLine
10
-2
20
-24.996
30
0
11
-2
21
24.996
31
0
39
0
210
0
220
0
230
1
0
LINE
5
8D
100
AcDbEntity
8
SK1
62
256
6
ByLayer
370
13
48
1
60
0
100
AcDbLine
10
-1.544243
20
-24.783477
30
0
11
-1.544243
21
24.783477
31
0
39
0
210
0
220
0
230
1
0
LINE
5
8E
100
AcDbEntity
8
SK1
62
256
6
ByLayer
370
13
48
1
60
0
100
AcDbLine
10
-6.5
20
-10.670483
30
0
11
-6.5
21
10.670483
31
0
39
0
210
0
220
0
230
1
0
LINE
5
8F
100
AcDbEntity
8
1
62
256
6
ByLayer
370
18
48
1
60
0
100
AcDbLine
10
248.268671
20
14.256343
30
0
11
248.132962
21
14.249231
31
0
39
0
210
0
220
0
230
1
0
LINE
5
90
100
AcDbEntity
8
1
62
256
6
ByLayer
370
18
48
1
60
0
100
AcDbLine
10
246.962055
20
11.680173
30
0
11
246.826345
21
11.673061
31
0
39
0
210
0
220
0
230
1
0
LINE
5
91
100
AcDbEntity
8
1
62
256
6
ByLayer
370
18
48
1
60
0
100
AcDbLine
10
248.554101
20
13.598095
30
0
11
248.534191
21
13.597491
31
0
39
0
210
0
220
0
230
1
0
LINE
5
92
100
AcDbEntity
8
1
62
256
6
ByLayer
370
18
48
1
60
0
100
AcDbLine
10
248.124314
20
14.231214
30
0
11
248.132962
21
14.249231
31
0
39
0
210
0
220
0
230
1
0
LINE
5
93
100
AcDbEntity
8
1
62
256
6
ByLayer
370
18
48
1
60
0
100
AcDbLine
10
248.574699
20
12.824549
30
0
11
248.594563
21
12.826029
31
0
39
0
210
0
220
0
230
1
0
LINE
5
94
100
AcDbEntity
8
1
62
256
6
ByLayer
370
18
48
1
60
0
100
AcDbLine
10
245.814452
20
13.454516
30
0
11
245.746727
21
13.450966
31
0
39
0
210
0
220
0
230
1
0
LINE
5
95
100
AcDbEntity
8
1
62
256
6
ByLayer
370
18
48
1
60
0
100
AcDbLine
10
248.379503
20
12.141551
30
0
11
248.243793
21
12.134439
31
0
39
0
210
0
220
0
230
1
0
LINE
5
96
100
AcDbEntity
8
1
62
256
6
ByLayer
370
18
48
1
60
0
100
AcDbLine
10
246.970459
20
11.697738
30
0
11
246.835771
21
11.690679
31
0
39
0
210
0
220
0
230
1
0
LINE
5
97
100
AcDbEntity
8
1
62
256
6
ByLayer
370
18
48
1
60
0
100
AcDbLine
10
245.854915
20
12.682451
30
0
11
245.7866
21
12.67887
31
0
39
0
210
0
220
0
230
1
0
LINE
5
98
100
AcDbEntity
8
1
62
256
6
ByLayer
370
18
48
1
60
0
100
AcDbLine
10
248.668878
20
13.604549
30
0
11
248.534191
21
13.597491
31
0
39
0
210
0
220
0
230
1
0
LINE
5
99
100
AcDbEntity
8
1
62
256
6
ByLayer
370
18
48
1
60
0
100
AcDbLine
10
248.243793
20
12.134439
30
0
11
248.233309
21
12.151453
31
0
39
0
210
0
220
0
230
1
0
LINE
5
9A
100
AcDbEntity
8
1
62
256
6
ByLayer
370
18
48
1
60
0
100
AcDbLine
10
246.826345
20
11.673061
30
0
11
246.835771
21
11.690679
31
0
39
0
210
0
220
0
230
1
0
LINE
5
9B
100
AcDbEntity
8
1
62
256
6
ByLayer
370
18
48
1
60
0
100
AcDbLine
10
248.367997
20
12.158512
30
0
11
248.233309
21
12.151453
31
0
39
0
210
0
220
0
230
1
0
LINE
5
9C
100
AcDbEntity
8
1
62
256
6
ByLayer
370
18
48
1
60
0
100
AcDbLine
10
246.820955
20
14.55044
30
0
11
246.686268
21
14.543381
31
0
39
0
210
0
220
0
230
1
0
LINE
5
9D
100
AcDbEntity
8
1
62
256
6
ByLayer
370
18
48
1
60
0
100
AcDbLine
10
248.709386
20
12.831608
30
0
11
248.574699
21
12.824549
31
0
39
0
210
0
220
0
230
1
0
LINE
5
9E
100
AcDbEntity
8
1
62
256
6
ByLayer
370
18
48
1
60
0
100
AcDbLine
10
246.810761
20
14.56703
30
0
11
246.675051
21
14.559918
31
0
39
0
210
0
220
0
230
1
0
LINE
5
9F
100
AcDbEntity
8
1
62
256
6
ByLayer
370
18
48
1
60
0
100
AcDbLine
10
246.686268
20
14.543381
30
0
11
246.675051
21
14.559918
31
0
39
0
210
0
220
0
230
1
0
LINE
5
A0
100
AcDbEntity
8
1
62
256
6
ByLayer
370
18
48
1
60
0
100
AcDbLine
10
248.259001
20
14.238273
30
0
11
248.124314
21
14.231214
31
0
39
0
210
0
220
0
230
1
0
LINE
5
A1
100
AcDbEntity
8
1
62
256
6
ByLayer
370
18
48
1
60
0
100
AcDbLine
10
255.260181
20
-14.123387
30
0
11
255.228529
21
-14.128367
31
0
39
0
210
0
220
0
230
1
0
LINE
5
A2
100
AcDbEntity
8
1
62
256
6
ByLayer
370
18
48
1
60
0
100
AcDbLine
10
255.41142
20
-14.086472
30
0
11
255.355543
21
-14.102387
31
0
39
0
210
0
220
0
230
1
0
LINE
5
A3
100
AcDbEntity
8
1
62
256
6
ByLayer
370
18
48
1
60
0
100
AcDbLine
10
255.457189
20
0.089359
30
0
11
256.555958
21
-6.801658
31
0
39
0
210
0
220
0
230
1
0
LINE
5
A4
100
AcDbEntity
8
1
62
256
6
ByLayer
370
18
48
1
60
0
100
AcDbLine
10
256.558963
20
-7.029693
30
0
11
255.661953
21
-13.797657
31
0
39
0
210
0
220
0
230
1
0
LINE
5
A5
100
AcDbEntity
8
1
62
256
6
ByLayer
370
18
48
1
60
0
100
AcDbLine
10
255.420025
20
0.239587
30
0
11
255.436048
21
0.184084
31
0
39
0
210
0
220
0
230
1
0
LINE
5
A6
100
AcDbEntity
8
1
62
256
6
ByLayer
370
18
48
1
60
0
100
AcDbLine
10
255.06273
20
0.497148
30
0
11
255.129268
21
0.488447
31
0
39
0
210
0
220
0
230
1
0
LINE
5
A7
100
AcDbEntity
8
1
62
256
6
ByLayer
370
13
48
1
60
0
100
AcDbLine
10
255.734037
20
20.833195
30
0
11
255.729425
21
20.832953
31
0
39
0
210
0
220
0
230
1
0
LINE
5
A8
100
AcDbEntity
8
1
62
256
6
ByLayer
370
13
48
1
60
0
100
AcDbLine
10
238.605537
20
20.09152
30
0
11
238.462462
21
20.068794
31
0
39
0
210
0
220
0
230
1
0
LINE
5
A9
100
AcDbEntity
8
1
62
256
6
ByLayer
370
13
48
1
60
0
100
AcDbLine
10
255.458678
20
6.170955
30
0
11
255.881235
21
6.238075
31
0
39
0
210
0
220
0
230
1
0
LINE
5
AA
100
AcDbEntity
8
1
62
256
6
ByLayer
370
13
48
1
60
0
100
AcDbLine
10
255.902166
20
7.241841
30
0
11
255.897554
21
7.2416
31
0
39
0
210
0
220
0
230
1
0
LINE
5
AB
100
AcDbEntity
8
1
62
256
6
ByLayer
370
13
48
1
60
0
100
AcDbLine
10
253.990092
20
6.938124
30
0
11
253.98548
21
6.937882
31
0
39
0
210
0
220
0
230
1
0
LINE
5
AC
100
AcDbEntity
8
1
62
256
6
ByLayer
370
13
48
1
60
0
100
AcDbLine
10
239.885921
20
12.700902
30
0
11
239.881308
21
12.700661
31
0
39
0
210
0
220
0
230
1
0
LINE
5
AD
100
AcDbEntity
8
1
62
256
6
ByLayer
370
13
48
1
60
0
100
AcDbLine
10
240.943795
20
19.109255
30
0
11
240.101819
21
12.67572
31
0
39
0
210
0
220
0
230
1
0
LINE
5
AE
100
AcDbEntity
8
1
62
256
6
ByLayer
370
13
48
1
60
0
100
AcDbLine
10
237.641625
20
14.133837
30
0
11
237.449436
21
12.665326
31
0
39
0
210
0
220
0
230
1
0
LINE
5
AF
100
AcDbEntity
8
1
62
256
6
ByLayer
370
13
48
1
60
0
100
AcDbLine
10
238.715513
20
19.049639
30
0
11
240.627587
21
19.353357
31
0
39
0
210
0
220
0
230
1
0
LINE
5
B0
100
AcDbEntity
8
1
62
256
6
ByLayer
370
13
48
1
60
0
100
AcDbLine
10
237.451899
20
13.158114
30
0
11
237.433634
21
12.806596
31
0
39
0
210
0
220
0
230
1
0
LINE
5
B1
100
AcDbEntity
8
1
62
256
6
ByLayer
370
13
48
1
60
0
100
AcDbLine
10
256.675855
20
13.794352
30
0
11
255.568072
21
20.808796
31
0
39
0
210
0
220
0
230
1
0
LINE
5
B2
100
AcDbEntity
8
1
62
256
6
ByLayer
370
13
48
1
60
0
100
AcDbLine
10
255.458678
20
6.170955
30
0
11
255.913235
21
7.142351
31
0
39
0
210
0
220
0
230
1
0
LINE
5
B3
100
AcDbEntity
8
1
62
256
6
ByLayer
370
13
48
1
60
0
100
AcDbLine
10
240.737298
20
19.241269
30
0
11
239.881308
21
12.700661
31
0
39
0
210
0
220
0
230
1
0
LINE
5
B4
100
AcDbEntity
8
1
62
256
6
ByLayer
370
13
48
1
60
0
100
AcDbLine
10
255.897554
20
7.2416
30
0
11
253.98548
21
6.937882
31
0
39
0
210
0
220
0
230
1
0
LINE
5
B5
100
AcDbEntity
8
1
62
256
6
ByLayer
370
13
48
1
60
0
100
AcDbLine
10
255.734037
20
20.833195
30
0
11
256.84182
21
13.81875
31
0
39
0
210
0
220
0
230
1
0
LINE
5
B6
100
AcDbEntity
8
1
62
256
6
ByLayer
370
13
48
1
60
0
100
AcDbLine
10
253.825066
20
20.355446
30
0
11
254.858163
21
13.813914
31
0
39
0
210
0
220
0
230
1
0
LINE
5
B7
100
AcDbEntity
8
1
62
256
6
ByLayer
370
13
48
1
60
0
100
AcDbLine
10
237.451899
20
13.158114
30
0
11
237.531873
21
13.909222
31
0
39
0
210
0
220
0
230
1
0
LINE
5
B8
100
AcDbEntity
8
1
62
256
6
ByLayer
370
13
48
1
60
0
100
AcDbLine
10
256.839871
20
13.617638
30
0
11
256.022243
21
7.370145
31
0
39
0
210
0
220
0
230
1
0
LINE
5
B9
100
AcDbEntity
8
1
62
256
6
ByLayer
370
13
48
1
60
0
100
AcDbLine
10
256.185862
20
7.817955
30
0
11
256.06737
21
6.349111
31
0
39
0
210
0
220
0
230
1
0
LINE
5
BA
100
AcDbEntity
8
1
62
256
6
ByLayer
370
13
48
1
60
0
100
AcDbLine
10
240.103721
20
12.532241
30
0
11
241.089842
21
6.288156
31
0
39
0
210
0
220
0
230
1
0
LINE
5
BB
100
AcDbEntity
8
1
62
256
6
ByLayer
370
13
48
1
60
0
100
AcDbLine
10
255.960626
20
6.98371
30
0
11
255.881235
21
6.238075
31
0
39
0
210
0
220
0
230
1
0
LINE
5
BC
100
AcDbEntity
8
1
62
256
6
ByLayer
370
13
48
1
60
0
100
AcDbLine
10
237.674471
20
12.686676
30
0
11
238.490372
21
18.920968
31
0
39
0
210
0
220
0
230
1
0
LINE
5
BD
100
AcDbEntity
8
1
62
256
6
ByLayer
370
13
48
1
60
0
100
AcDbLine
10
254.584568
20
21.422508
30
0
11
254.579956
21
21.422266
31
0
39
0
210
0
220
0
230
1
0
LINE
5
BE
100
AcDbEntity
8
1
62
256
6
ByLayer
370
13
48
1
60
0
100
AcDbLine
10
237.50719
20
12.103103
30
0
11
237.452281
21
12.450786
31
0
39
0
210
0
220
0
230
1
0
LINE
5
BF
100
AcDbEntity
8
1
62
256
6
ByLayer
370
13
48
1
60
0
100
AcDbLine
10
237.904926
20
12.495195
30
0
11
239.01271
21
5.480751
31
0
39
0
210
0
220
0
230
1
0
LINE
5
C0
100
AcDbEntity
8
1
62
256
6
ByLayer
370
13
48
1
60
0
100
AcDbLine
10
240.445446
20
5.027964
30
0
11
240.440833
21
5.027722
31
0
39
0
210
0
220
0
230
1
0
LINE
5
C1
100
AcDbEntity
8
1
62
256
6
ByLayer
370
13
48
1
60
0
100
AcDbLine
10
256.844484
20
13.61788
30
0
11
256.839871
21
13.617638
31
0
39
0
210
0
220
0
230
1
0
LINE
5
C2
100
AcDbEntity
8
1
62
256
6
ByLayer
370
13
48
1
60
0
100
AcDbLine
10
255.916159
20
5.950688
30
0
11
255.881235
21
6.238075
31
0
39
0
210
0
220
0
230
1
0
LINE
5
C3
100
AcDbEntity
8
1
62
256
6
ByLayer
370
13
48
1
60
0
100
AcDbLine
10
237.451899
20
13.158114
30
0
11
237.457301
21
13.715031
31
0
39
0
210
0
220
0
230
1
0
LINE
5
C4
100
AcDbEntity
8
1
62
256
6
ByLayer
370
13
48
1
60
0
100
AcDbLine
10
240.899561
20
5.850126
30
0
11
240.894949
21
5.849884
31
0
39
0
210
0
220
0
230
1
0
LINE
5
C5
100
AcDbEntity
8
1
62
256
6
ByLayer
370
13
48
1
60
0
100
AcDbLine
10
238.897076
20
20.677085
30
0
11
239.009201
21
20.665634
31
0
39
0
210
0
220
0
230
1
0
LINE
5
C6
100
AcDbEntity
8
1
62
256
6
ByLayer
370
13
48
1
60
0
100
AcDbLine
10
253.917165
20
21.280588
30
0
11
254.075912
21
21.288908
31
0
39
0
210
0
220
0
230
1
0
LINE
5
C7
100
AcDbEntity
8
1
62
256
6
ByLayer
370
13
48
1
60
0
100
AcDbLine
10
256.844484
20
13.61788
30
0
11
256.026855
21
7.370386
31
0
39
0
210
0
220
0
230
1
0
LINE
5
C8
100
AcDbEntity
8
1
62
256
6
ByLayer
370
13
48
1
60
0
100
AcDbLine
10
255.860319
20
7.389031
30
0
11
256.677948
21
13.636525
31
0
39
0
210
0
220
0
230
1
0
LINE
5
C9
100
AcDbEntity
8
1
62
256
6
ByLayer
370
13
48
1
60
0
100
AcDbLine
10
254.572668
20
21.271684
30
0
11
254.344245
21
21.26172
31
0
39
0
210
0
220
0
230
1
0
LINE
5
CA
100
AcDbEntity
8
1
62
256
6
ByLayer
370
13
48
1
60
0
100
AcDbLine
10
255.570629
20
7.087931
30
0
11
255.257101
21
5.804147
31
0
39
0
210
0
220
0
230
1
0
LINE
5
CB
100
AcDbEntity
8
1
62
256
6
ByLayer
370
13
48
1
60
0
100
AcDbLine
10
254.356146
20
21.412544
30
0
11
254.351533
21
21.412302
31
0
39
0
210
0
220
0
230
1
0
LINE
5
CC
100
AcDbEntity
8
1
62
256
6
ByLayer
370
13
48
1
60
0
100
AcDbLine
10
254.352147
20
21.412329
30
0
11
254.579956
21
21.422266
31
0
39
0
210
0
220
0
230
1
0
LINE
5
CD
100
AcDbEntity
8
1
62
256
6
ByLayer
370
13
48
1
60
0
100
AcDbLine
10
256.026855
20
7.370386
30
0
11
256.022243
21
7.370145
31
0
39
0
210
0
220
0
230
1
0
LINE
5
CE
100
AcDbEntity
8
1
62
256
6
ByLayer
370
13
48
1
60
0
100
AcDbLine
10
238.883642
20
5.458286
30
0
11
237.775859
21
12.47273
31
0
39
0
210
0
220
0
230
1
0
LINE
5
CF
100
AcDbEntity
8
1
62
256
6
ByLayer
370
13
48
1
60
0
100
AcDbLine
10
239.885921
20
12.700902
30
0
11
240.727897
21
19.134437
31
0
39
0
210
0
220
0
230
1
0
LINE
5
D0
100
AcDbEntity
8
1
62
256
6
ByLayer
370
13
48
1
60
0
100
AcDbLine
10
237.50719
20
12.103103
30
0
11
238.755267
21
5.441822
31
0
39
0
210
0
220
0
230
1
0
LINE
5
D1
100
AcDbEntity
8
1
62
256
6
ByLayer
370
13
48
1
60
0
100
AcDbLine
10
238.720463
20
18.900516
30
0
11
237.902834
21
12.653022
31
0
39
0
210
0
220
0
230
1
0
LINE
5
D2
100
AcDbEntity
8
1
62
256
6
ByLayer
370
13
48
1
60
0
100
AcDbLine
10
238.490372
20
18.920968
30
0
11
238.467982
21
19.134301
31
0
39
0
210
0
220
0
230
1
0
LINE
5
D3
100
AcDbEntity
8
1
62
256
6
ByLayer
370
13
48
1
60
0
100
AcDbLine
10
255.570629
20
7.087931
30
0
11
255.913235
21
7.142351
31
0
39
0
210
0
220
0
230
1
0
LINE
5
D4
100
AcDbEntity
8
1
62
256
6
ByLayer
370
13
48
1
60
0
100
AcDbLine
10
254.256217
20
21.464696
30
0
11
254.488013
21
21.51839
31
0
39
0
210
0
220
0
230
1
0
LINE
5
D5
100
AcDbEntity
8
1
62
256
6
ByLayer
370
13
48
1
60
0
100
AcDbLine
10
240.793014
20
19.480883
30
0
11
238.704444
21
19.14913
31
0
39
0
210
0
220
0
230
1
0
LINE
5
D6
100
AcDbEntity
8
1
62
256
6
ByLayer
370
13
48
1
60
0
100
AcDbLine
10
237.773196
20
12.673601
30
0
11
238.590825
21
18.921094
31
0
39
0
210
0
220
0
230
1
0
LINE
5
D7
100
AcDbEntity
8
1
62
256
6
ByLayer
370
13
48
1
60
0
100
AcDbLine
10
253.824666
20
6.810598
30
0
11
255.570629
21
7.087931
31
0
39
0
210
0
220
0
230
1
0
LINE
5
D8
100
AcDbEntity
8
1
62
256
6
ByLayer
370
13
48
1
60
0
100
AcDbLine
10
255.062897
20
21.423615
30
0
11
255.058284
21
21.423374
31
0
39
0
210
0
220
0
230
1
0
LINE
5
D9
100
AcDbEntity
8
1
62
256
6
ByLayer
370
13
48
1
60
0
100
AcDbLine
10
240.566687
20
19.193774
30
0
11
238.720463
21
18.900516
31
0
39
0
210
0
220
0
230
1
0
LINE
5
DA
100
AcDbEntity
8
1
62
256
6
ByLayer
370
13
48
1
60
0
100
AcDbLine
10
255.902166
20
7.241841
30
0
11
253.990092
21
6.938124
31
0
39
0
210
0
220
0
230
1
0
LINE
5
DB
100
AcDbEntity
8
1
62
256
6
ByLayer
370
13
48
1
60
0
100
AcDbLine
10
240.261534
20
4.878937
30
0
11
240.033111
21
4.868973
31
0
39
0
210
0
220
0
230
1
0
LINE
5
DC
100
AcDbEntity
8
1
62
256
6
ByLayer
370
13
48
1
60
0
100
AcDbLine
10
254.223505
20
21.462982
30
0
11
254.256217
21
21.464696
31
0
39
0
210
0
220
0
230
1
0
LINE
5
DD
100
AcDbEntity
8
1
62
256
6
ByLayer
370
13
48
1
60
0
100
AcDbLine
10
255.729425
20
20.832953
30
0
11
256.837208
21
13.818509
31
0
39
0
210
0
220
0
230
1
0
LINE
5
DE
100
AcDbEntity
8
1
62
256
6
ByLayer
370
13
48
1
60
0
100
AcDbLine
10
238.605537
20
20.09152
30
0
11
238.704444
21
19.14913
31
0
39
0
210
0
220
0
230
1
0
LINE
5
DF
100
AcDbEntity
8
1
62
256
6
ByLayer
370
13
48
1
60
0
100
AcDbLine
10
254.628662
20
5.801392
30
0
11
254.812751
21
5.800285
31
0
39
0
210
0
220
0
230
1
0
LINE
5
E0
100
AcDbEntity
8
1
62
256
6
ByLayer
370
13
48
1
60
0
100
AcDbLine
10
239.883972
20
12.49979
30
0
11
240.920873
21
5.934168
31
0
39
0
210
0
220
0
230
1
0
LINE
5
E1
100
AcDbEntity
8
1
62
256
6
ByLayer
370
13
48
1
60
0
100
AcDbLine
10
240.925485
20
5.93441
30
0
11
240.874705
21
6.255946
31
0
39
0
210
0
220
0
230
1
0
LINE
5
E2
100
AcDbEntity
8
1
62
256
6
ByLayer
370
13
48
1
60
0
100
AcDbLine
10
253.710781
20
7.18416
30
0
11
254.552758
21
13.617695
31
0
39
0
210
0
220
0
230
1
0
LINE
5
E3
100
AcDbEntity
8
1
62
256
6
ByLayer
370
13
48
1
60
0
100
AcDbLine
10
256.84182
20
13.81875
30
0
11
256.837208
21
13.818509
31
0
39
0
210
0
220
0
230
1
0
LINE
5
E4
100
AcDbEntity
8
1
62
256
6
ByLayer
370
13
48
1
60
0
100
AcDbLine
10
240.755715
20
5.934101
30
0
11
239.722619
21
12.475633
31
0
39
0
210
0
220
0
230
1
0
LINE
5
E5
100
AcDbEntity
8
1
62
256
6
ByLayer
370
13
48
1
60
0
100
AcDbLine
10
254.356146
20
21.412544
30
0
11
254.584568
21
21.422508
31
0
39
0
210
0
220
0
230
1
0
LINE
5
E6
100
AcDbEntity
8
1
62
256
6
ByLayer
370
13
48
1
60
0
100
AcDbLine
10
240.74191
20
19.241511
30
0
11
240.737298
21
19.241269
31
0
39
0
210
0
220
0
230
1
0
LINE
5
E7
100
AcDbEntity
8
1
62
256
6
ByLayer
370
13
48
1
60
0
100
AcDbLine
10
240.008114
20
5.017863
30
0
11
240.236536
21
5.027827
31
0
39
0
210
0
220
0
230
1
0
LINE
5
E8
100
AcDbEntity
8
1
62
256
6
ByLayer
370
13
48
1
60
0
100
AcDbLine
10
237.744505
20
9.980399
30
0
11
238.483892
21
6.8902
31
0
39
0
210
0
220
0
230
1
0
LINE
5
E9
100
AcDbEntity
8
1
62
256
6
ByLayer
370
13
48
1
60
0
100
AcDbLine
10
239.719385
20
12.719547
30
0
11
240.566687
21
19.193774
31
0
39
0
210
0
220
0
230
1
0
LINE
5
EA
100
AcDbEntity
8
1
62
256
6
ByLayer
370
13
48
1
60
0
100
AcDbLine
10
256.940165
20
13.834371
30
0
11
255.832381
21
20.848816
31
0
39
0
210
0
220
0
230
1
0
LINE
5
EB
100
AcDbEntity
8
1
62
256
6
ByLayer
370
13
48
1
60
0
100
AcDbLine
10
240.361463
20
4.826784
30
0
11
240.129666
21
4.773091
31
0
39
0
210
0
220
0
230
1
0
LINE
5
EC
100
AcDbEntity
8
1
62
256
6
ByLayer
370
13
48
1
60
0
100
AcDbLine
10
254.333819
20
21.48609
30
0
11
254.223505
21
21.462982
31
0
39
0
210
0
220
0
230
1
0
LINE
5
ED
100
AcDbEntity
8
1
62
256
6
ByLayer
370
13
48
1
60
0
100
AcDbLine
10
254.550856
20
13.761174
30
0
11
253.564735
21
20.005259
31
0
39
0
210
0
220
0
230
1
0
LINE
5
EE
100
AcDbEntity
8
1
62
256
6
ByLayer
370
13
48
1
60
0
100
AcDbLine
10
241.498367
20
19.375181
30
0
11
252.436328
21
19.948415
31
0
39
0
210
0
220
0
230
1
0
LINE
5
EF
100
AcDbEntity
8
1
62
256
6
ByLayer
370
13
48
1
60
0
100
AcDbLine
10
240.727897
20
19.134437
30
0
11
240.74191
21
19.241511
31
0
39
0
210
0
220
0
230
1
0
LINE
5
F0
100
AcDbEntity
8
1
62
256
6
ByLayer
370
13
48
1
60
0
100
AcDbLine
10
237.677515
20
12.457109
30
0
11
238.785298
21
5.442665
31
0
39
0
210
0
220
0
230
1
0
LINE
5
F1
100
AcDbEntity
8
1
62
256
6
ByLayer
370
13
48
1
60
0
100
AcDbLine
10
254.861397
20
13.57
30
0
11
254.014095
21
7.095773
31
0
39
0
210
0
220
0
230
1
0
LINE
5
F2
100
AcDbEntity
8
1
62
256
6
ByLayer
370
13
48
1
60
0
100
AcDbLine
10
239.888584
20
12.500032
30
0
11
239.883972
21
12.49979
31
0
39
0
210
0
220
0
230
1
0
LINE
5
F3
100
AcDbEntity
8
1
62
256
6
ByLayer
370
13
48
1
60
0
100
AcDbLine
10
253.119312
20
6.9163
30
0
11
242.181351
21
6.343066
31
0
39
0
210
0
220
0
230
1
0
LINE
5
F4
100
AcDbEntity
8
1
62
256
6
ByLayer
370
13
48
1
60
0
100
AcDbLine
10
253.692194
20
20.357071
30
0
11
253.740135
21
20.05351
31
0
39
0
210
0
220
0
230
1
0
LINE
5
F5
100
AcDbEntity
8
1
62
256
6
ByLayer
370
13
48
1
60
0
100
AcDbLine
10
240.874705
20
6.255946
30
0
11
239.888584
21
12.500032
31
0
39
0
210
0
220
0
230
1
0
LINE
5
F6
100
AcDbEntity
8
1
62
256
6
ByLayer
370
13
48
1
60
0
100
AcDbLine
10
254.014095
20
7.095773
30
0
11
255.860319
21
7.389031
31
0
39
0
210
0
220
0
230
1
0
LINE
5
F7
100
AcDbEntity
8
1
62
256
6
ByLayer
370
13
48
1
60
0
100
AcDbLine
10
256.943208
20
13.604805
30
0
11
256.127307
21
7.370513
31
0
39
0
210
0
220
0
230
1
0
LINE
5
F8
100
AcDbEntity
8
1
62
256
6
ByLayer
370
13
48
1
60
0
100
AcDbLine
10
253.887464
20
7.139333
30
0
11
253.875769
21
7.04997
31
0
39
0
210
0
220
0
230
1
0
LINE
5
F9
100
AcDbEntity
8
1
62
256
6
ByLayer
370
13
48
1
60
0
100
AcDbLine
10
240.925485
20
5.93441
30
0
11
240.920873
21
5.934168
31
0
39
0
210
0
220
0
230
1
0
LINE
5
FA
100
AcDbEntity
8
1
62
256
6
ByLayer
370
13
48
1
60
0
100
AcDbLine
10
254.619794
20
21.423715
30
0
11
254.615182
21
21.423473
31
0
39
0
210
0
220
0
230
1
0
LINE
5
FB
100
AcDbEntity
8
1
62
256
6
ByLayer
370
13
48
1
60
0
100
AcDbLine
10
239.40944
20
20.453339
30
0
11
239.086464
21
20.453543
31
0
39
0
210
0
220
0
230
1
0
LINE
5
FC
100
AcDbEntity
8
SK1
62
256
6
ByLayer
370
13
48
1
60
0
100
AcDbLine
10
-79
20
10.670483
30
0
11
-78.599999
21
10.670483
31
0
39
0
210
0
220
0
230
1
0
LINE
5
FD
100
AcDbEntity
8
SK1
62
256
6
ByLayer
370
13
48
1
60
0
100
AcDbLine
10
-0.15
20
-24.746
30
0
11
-0.15
21
24.746
31
0
39
0
210
0
220
0
230
1
0
LINE
5
FE
100
AcDbEntity
8
SK1
62
256
6
ByLayer
370
13
48
1
60
0
100
AcDbLine
10
-80
20
-23.996
30
0
11
-80
21
-8.054018
31
0
39
0
210
0
220
0
230
1
0
LINE
5
FF
100
AcDbEntity
8
SK1
62
256
6
ByLayer
370
13
48
1
60
0
100
AcDbLine
10
-80
20
8.054018
30
0
11
-80
21
23.996
31
0
39
0
210
0
220
0
230
1
0
LINE
5
100
100
AcDbEntity
8
SK1
62
256
6
ByLayer
370
13
48
1
60
0
100
AcDbLine
10
-76.600002
20
10.670483
30
0
11
-6.5
21
10.670483
31
0
39
0
210
0
220
0
230
1
0
LINE
5
101
100
AcDbEntity
8
SK1
62
256
6
ByLayer
370
13
48
1
60
0
100
AcDbLine
10
-78.599999
20
-24.996
30
0
11
-78.599999
21
-10.670483
31
0
39
0
210
0
220
0
230
1
0
LINE
5
102
100
AcDbEntity
8
SK1
62
256
6
ByLayer
370
13
48
1
60
0
100
AcDbLine
10
-78.599999
20
10.670483
30
0
11
-78.599999
21
24.996
31
0
39
0
210
0
220
0
230
1
0
LINE
5
103
100
AcDbEntity
8
1
62
256
6
ByLayer
370
13
48
1
60
0
100
AcDbLine
10
245.98218
20
6.041572
30
0
11
253.586596
21
6.440103
31
0
39
0
210
0
220
0
230
1
0
LINE
5
104
100
AcDbEntity
8
1
62
256
6
ByLayer
370
13
48
1
60
0
100
AcDbLine
10
237.978929
20
8.496013
30
0
11
237.35128
21
12.470268
31
0
39
0
210
0
220
0
230
1
0
LINE
5
105
100
AcDbEntity
8
1
62
256
6
ByLayer
370
13
48
1
60
0
100
AcDbLine
10
255.596044
20
1.117159
30
0
11
255.572347
21
1.120258
31
0
39
0
210
0
220
0
230
1
0
LINE
5
106
100
AcDbEntity
8
1
62
256
6
ByLayer
370
13
48
1
60
0
100
AcDbLine
10
0.1
20
-31.25
30
0
11
0.1
21
-5.567764
31
0
39
0
210
0
220
0
230
1
0
LINE
5
107
100
AcDbEntity
8
1
62
256
6
ByLayer
370
13
48
1
60
0
100
AcDbLine
10
229.246554
20
2.618281
30
0
11
229.635185
21
0.594599
31
0
39
0
210
0
220
0
230
1
0
LINE
5
108
100
AcDbEntity
8
1
62
256
6
ByLayer
370
13
48
1
60
0
100
AcDbLine
10
253.749586
20
2.09888
30
0
11
255.060771
21
0.67073
31
0
39
0
210
0
220
0
230
1
0
LINE
5
109
100
AcDbEntity
8
1
62
256
6
ByLayer
370
13
48
1
60
0
100
AcDbLine
10
255.844211
20
0.812583
30
0
11
255.5061
21
0.663343
31
0
39
0
210
0
220
0
230
1
0
LINE
5
10A
100
AcDbEntity
8
1
62
256
6
ByLayer
370
13
48
1
60
0
100
AcDbLine
10
255.370106
20
0.603315
30
0
11
255.160962
21
0.511
31
0
39
0
210
0
220
0
230
1
0
LINE
5
10B
100
AcDbEntity
8
1
62
256
6
ByLayer
370
13
48
1
60
0
100
AcDbLine
10
243.144499
20
4.422711
30
0
11
243.626647
21
4.447979
31
0
39
0
210
0
220
0
230
1
0
LINE
5
10C
100
AcDbEntity
8
1
62
256
6
ByLayer
370
13
48
1
60
0
100
AcDbLine
10
236.346158
20
10.635365
30
0
11
234.697822
21
13.182058
31
0
39
0
210
0
220
0
230
1
0
LINE
5
10D
100
AcDbEntity
8
1
62
256
6
ByLayer
370
13
48
1
60
0
100
AcDbLine
10
243.048334
20
6.388502
30
0
11
245.136758
21
6.497952
31
0
39
0
210
0
220
0
230
1
0
LINE
5
10E
100
AcDbEntity
8
1
62
256
6
ByLayer
370
13
48
1
60
0
100
AcDbLine
10
37
20
20.9625
30
0
11
37
21
-7.42174
31
0
39
0
210
0
220
0
230
1
0
LINE
5
10F
100
AcDbEntity
8
1
62
256
6
ByLayer
370
13
48
1
60
0
100
AcDbLine
10
256.079658
20
-7.706961
30
0
11
254.487362
21
-5.972623
31
0
39
0
210
0
220
0
230
1
0
LINE
5
110
100
AcDbEntity
8
1
62
256
6
ByLayer
370
13
48
1
60
0
100
AcDbLine
10
239.550462
20
20.281645
30
0
11
239.590379
21
20.586649
31
0
39
0
210
0
220
0
230
1
0
LINE
5
111
100
AcDbEntity
8
1
62
256
6
ByLayer
370
13
48
1
60
0
100
AcDbLine
10
246.12676
20
5.047777
30
0
11
246.908567
21
5.08875
31
0
39
0
210
0
220
0
230
1
0
LINE
5
112
100
AcDbEntity
8
1
62
256
6
ByLayer
370
13
48
1
60
0
100
AcDbLine
10
37.01
20
-11.541983
30
0
11
37.01
21
-20.274617
31
0
39
0
210
0
220
0
230
1
0
LINE
5
113
100
AcDbEntity
8
1
62
256
6
ByLayer
370
13
48
1
60
0
100
AcDbLine
10
125
20
-20.668825
30
0
11
125
21
-20.7475
31
0
39
0
210
0
220
0
230
1
0
LINE
5
114
100
AcDbEntity
8
1
62
256
6
ByLayer
370
13
48
1
60
0
100
AcDbLine
10
255.694618
20
4.499701
30
0
11
255.658794
21
4.497824
31
0
39
0
210
0
220
0
230
1
0
LINE
5
115
100
AcDbEntity
8
1
62
256
6
ByLayer
370
13
48
1
60
0
100
AcDbLine
10
0
20
31.15
30
0
11
0
21
4.975942
31
0
39
0
210
0
220
0
230
1
0
LINE
5
116
100
AcDbEntity
8
1
62
256
6
ByLayer
370
13
48
1
60
0
100
AcDbLine
10
5.7518
20
-5.567764
30
0
11
5.7518
21
-31.25
31
0
39
0
210
0
220
0
230
1
0
LINE
5
117
100
AcDbEntity
8
1
62
256
6
ByLayer
370
13
48
1
60
0
100
AcDbLine
10
238.472728
20
19.872911
30
0
11
238.423996
21
20.802785
31
0
39
0
210
0
220
0
230
1
0
LINE
5
118
100
AcDbEntity
8
1
62
256
6
ByLayer
370
13
48
1
60
0
100
AcDbLine
10
255.621373
20
4.795109
30
0
11
255.571593
21
5.642897
31
0
39
0
210
0
220
0
230
1
0
LINE
5
119
100
AcDbEntity
8
1
62
256
6
ByLayer
370
13
48
1
60
0
100
AcDbLine
10
250.804343
20
6.794977
30
0
11
252.892767
21
6.904427
31
0
39
0
210
0
220
0
230
1
0
LINE
5
11A
100
AcDbEntity
8
1
62
256
6
ByLayer
370
13
48
1
60
0
100
AcDbLine
10
254.205179
20
5.471149
30
0
11
253.749586
21
2.09888
31
0
39
0
210
0
220
0
230
1
0
LINE
5
11B
100
AcDbEntity
8
1
62
256
6
ByLayer
370
13
48
1
60
0
100
AcDbLine
10
242.698223
20
6.169879
30
0
11
242.707447
21
6.170363
31
0
39
0
210
0
220
0
230
1
0
LINE
5
11C
100
AcDbEntity
8
1
62
256
6
ByLayer
370
13
48
1
60
0
100
AcDbLine
10
42
20
-20.890934
30
0
11
42
21
-20.9625
31
0
39
0
210
0
220
0
230
1
0
LINE
5
11D
100
AcDbEntity
8
1
62
256
6
ByLayer
370
13
48
1
60
0
100
AcDbLine
10
233.107106
20
-20.617998
30
0
11
233.107106
21
-0.522018
31
0
39
0
210
0
220
0
230
1
0
LINE
5
11E
100
AcDbEntity
8
1
62
256
6
ByLayer
370
13
48
1
60
0
100
AcDbLine
10
255.597398
20
-15.15695
30
0
11
255.200702
21
-14.79243
31
0
39
0
210
0
220
0
230
1
0
LINE
5
11F
100
AcDbEntity
8
1
62
256
6
ByLayer
370
13
48
1
60
0
100
AcDbLine
10
238.474018
20
18.965821
30
0
11
237.90081
21
14.585942
31
0
39
0
210
0
220
0
230
1
0
LINE
5
120
100
AcDbEntity
8
1
62
256
6
ByLayer
370
13
48
1
60
0
100
AcDbLine
10
255.571593
20
5.642897
30
0
11
255.436803
21
5.635833
31
0
39
0
210
0
220
0
230
1
0
LINE
5
121
100
AcDbEntity
8
1
62
256
6
ByLayer
370
13
48
1
60
0
100
AcDbLine
10
250.633043
20
6.753698
30
0
11
250.450907
21
6.744152
31
0
39
0
210
0
220
0
230
1
0
LINE
5
122
100
AcDbEntity
8
1
62
256
6
ByLayer
370
13
48
1
60
0
100
AcDbLine
10
234.980651
20
9.87345
30
0
11
236.346158
21
10.635365
31
0
39
0
210
0
220
0
230
1
0
LINE
5
123
100
AcDbEntity
8
1
62
256
6
ByLayer
370
13
48
1
60
0
100
AcDbLine
10
254.845298
20
-20.831563
30
0
11
255.597398
21
-15.15695
31
0
39
0
210
0
220
0
230
1
0
LINE
5
124
100
AcDbEntity
8
1
62
256
6
ByLayer
370
13
48
1
60
0
100
AcDbLine
10
255.591938
20
5.521789
30
0
11
255.578743
21
5.521097
31
0
39
0
210
0
220
0
230
1
0
LINE
5
125
100
AcDbEntity
8
1
62
256
6
ByLayer
370
13
48
1
60
0
100
AcDbLine
10
254.205179
20
5.471149
30
0
11
255.160363
21
5.521208
31
0
39
0
210
0
220
0
230
1
0
LINE
5
126
100
AcDbEntity
8
1
62
256
6
ByLayer
370
13
48
1
60
0
100
AcDbLine
10
255.838561
20
5.046572
30
0
11
255.844211
21
0.812583
31
0
39
0
210
0
220
0
230
1
0
LINE
5
127
100
AcDbEntity
8
1
62
256
6
ByLayer
370
13
48
1
60
0
100
AcDbLine
10
125
20
20.7475
30
0
11
125
21
-7.392669
31
0
39
0
210
0
220
0
230
1
0
LINE
5
128
100
AcDbEntity
8
1
62
256
6
ByLayer
370
13
48
1
60
0
100
AcDbLine
10
255.838561
20
5.046572
30
0
11
255.694618
21
4.499701
31
0
39
0
210
0
220
0
230
1
0
LINE
5
129
100
AcDbEntity
8
1
62
256
6
ByLayer
370
13
48
1
60
0
100
AcDbLine
10
255.131906
20
-0.202575
30
0
11
256.057238
21
-6.005875
31
0
39
0
210
0
220
0
230
1
0
LINE
5
12A
100
AcDbEntity
8
1
62
256
6
ByLayer
370
13
48
1
60
0
100
AcDbLine
10
255.504087
20
0.612352
30
0
11
255.479321
21
0.615591
31
0
39
0
210
0
220
0
230
1
0
LINE
5
12B
100
AcDbEntity
8
1
62
256
6
ByLayer
370
13
48
1
60
0
100
AcDbLine
10
254.845298
20
-20.831563
30
0
11
236.107106
21
-20.831563
31
0
39
0
210
0
220
0
230
1
0
LINE
5
12C
100
AcDbEntity
8
1
62
256
6
ByLayer
370
13
48
1
60
0
100
AcDbLine
10
37
20
-20.890954
30
0
11
37
21
-20.9625
31
0
39
0
210
0
220
0
230
1
0
LINE
5
12D
100
AcDbEntity
8
1
62
256
6
ByLayer
370
13
48
1
60
0
100
AcDbLine
10
0
20
-31.15
30
0
11
0
21
-4.975942
31
0
39
0
210
0
220
0
230
1
0
LINE
5
12E
100
AcDbEntity
8
1
62
256
6
ByLayer
370
13
48
1
60
0
100
AcDbLine
10
247.378611
20
5.113384
30
0
11
254.205179
21
5.471149
31
0
39
0
210
0
220
0
230
1
0
LINE
5
12F
100
AcDbEntity
8
1
62
256
6
ByLayer
370
13
48
1
60
0
100
AcDbLine
10
0.1
20
5.567764
30
0
11
5.7518
21
5.567764
31
0
39
0
210
0
220
0
230
1
0
LINE
5
130
100
AcDbEntity
8
1
62
256
6
ByLayer
370
13
48
1
60
0
100
AcDbLine
10
233.555653
20
1.464442
30
0
11
233.95408
21
-0.61025
31
0
39
0
210
0
220
0
230
1
0
LINE
5
131
100
AcDbEntity
8
1
62
256
6
ByLayer
370
13
48
1
60
0
100
AcDbLine
10
256.079658
20
-7.706961
30
0
11
255.215161
21
-14.229611
31
0
39
0
210
0
220
0
230
1
0
LINE
5
132
100
AcDbEntity
8
1
62
256
6
ByLayer
370
13
48
1
60
0
100
AcDbLine
10
5.7518
20
31.25
30
0
11
5.7518
21
5.567764
31
0
39
0
210
0
220
0
230
1
0
LINE
5
133
100
AcDbEntity
8
1
62
256
6
ByLayer
370
13
48
1
60
0
100
AcDbLine
10
5.7518
20
-5.567764
30
0
11
0.1
21
-5.567764
31
0
39
0
210
0
220
0
230
1
0
LINE
5
134
100
AcDbEntity
8
1
62
256
6
ByLayer
370
13
48
1
60
0
100
AcDbLine
10
253.3471
20
6.727963
30
0
11
242.707447
21
6.170363
31
0
39
0
210
0
220
0
230
1
0
LINE
5
135
100
AcDbEntity
8
1
62
256
6
ByLayer
370
13
48
1
60
0
100
AcDbLine
10
255.131906
20
-0.202575
30
0
11
253.713093
21
1.342803
31
0
39
0
210
0
220
0
230
1
0
LINE
5
136
100
AcDbEntity
8
1
62
256
6
ByLayer
370
13
48
1
60
0
100
AcDbLine
10
236.107106
20
-20.831563
30
0
11
236.107106
21
-0.7302
31
0
39
0
210
0
220
0
230
1
0
LINE
5
137
100
AcDbEntity
8
1
62
256
6
ByLayer
370
13
48
1
60
0
100
AcDbLine
10
235.054143
20
5.748906
30
0
11
236.928431
21
5.173051
31
0
39
0
210
0
220
0
230
1
0
LINE
5
138
100
AcDbEntity
8
1
62
256
6
ByLayer
370
13
48
1
60
0
100
AcDbLine
10
242.658567
20
6.077354
30
0
11
242.424077
21
6.065065
31
0
39
0
210
0
220
0
230
1
0
LINE
5
139
100
AcDbEntity
8
1
62
256
6
ByLayer
370
13
48
1
60
0
100
AcDbLine
10
255.591938
20
5.521789
30
0
11
255.838561
21
5.046572
31
0
39
0
210
0
220
0
230
1
0
LINE
5
13A
100
AcDbEntity
8
1
62
256
6
ByLayer
370
13
48
1
60
0
100
AcDbLine
10
0
20
-4.975942
30
0
11
0
21
4.975942
31
0
39
0
210
0
220
0
230
1
0
LINE
5
13B
100
AcDbEntity
8
1
62
256
6
ByLayer
370
13
48
1
60
0
100
AcDbLine
10
234.697822
20
9.902659
30
0
11
234.697822
21
13.182058
31
0
39
0
210
0
220
0
230
1
0
LINE
5
13C
100
AcDbEntity
8
1
62
256
6
ByLayer
370
13
48
1
60
0
100
AcDbLine
10
236.107106
20
20.9625
30
0
11
236.107106
21
20.774993
31
0
39
0
210
0
220
0
230
1
0
LINE
5
13D
100
AcDbEntity
8
1
62
256
6
ByLayer
370
13
48
1
60
0
100
AcDbLine
10
237.743922
20
14.304111
30
0
11
238.472728
21
19.872911
31
0
39
0
210
0
220
0
230
1
0
LINE
5
13E
100
AcDbEntity
8
1
62
256
6
ByLayer
370
13
48
1
60
0
100
AcDbLine
10
233.107106
20
20.7475
30
0
11
233.107106
21
20.51811
31
0
39
0
210
0
220
0
230
1
0
LINE
5
13F
100
AcDbEntity
8
1
62
256
6
ByLayer
370
13
48
1
60
0
100
AcDbLine
10
254.397032
20
-4.197568
30
0
11
256.057238
21
-6.005875
31
0
39
0
210
0
220
0
230
1
0
LINE
5
140
100
AcDbEntity
8
1
62
256
6
ByLayer
370
13
48
1
60
0
100
AcDbLine
10
242.419656
20
6.054735
30
0
11
241.8946
21
6.027218
31
0
39
0
210
0
220
0
230
1
0
LINE
5
141
100
AcDbEntity
8
1
62
256
6
ByLayer
370
13
48
1
60
0
100
AcDbLine
10
0.1
20
31.25
30
0
11
0.1
21
5.567764
31
0
39
0
210
0
220
0
230
1
0
LINE
5
142
100
AcDbEntity
8
1
62
256
6
ByLayer
370
13
48
1
60
0
100
AcDbLine
10
233.107106
20
-20.617998
30
0
11
225.882382
21
-20.617998
31
0
39
0
210
0
220
0
230
1
0
LINE
5
143
100
AcDbEntity
8
1
62
256
6
ByLayer
370
13
48
1
60
0
100
AcDbLine
10
255.496301
20
0.621908
30
0
11
255.504087
21
0.612352
31
0
39
0
210
0
220
0
230
1
0
LINE
5
144
100
AcDbEntity
8
1
62
256
6
ByLayer
370
13
48
1
60
0
100
AcDbLine
10
42
20
20.9625
30
0
11
42
21
-7.421634
31
0
39
0
210
0
220
0
230
1
0
LINE
5
145
100
AcDbEntity
8
1
62
256
6
ByLayer
370
13
48
1
60
0
100
AcDbLine
10
255.496301
20
0.621908
30
0
11
255.484416
21
0.623462
31
0
39
0
210
0
220
0
230
1
0
LINE
5
146
100
AcDbEntity
8
1
62
256
6
ByLayer
370
13
48
1
60
0
100
AcDbLine
10
253.713093
20
1.342803
30
0
11
253.801559
21
-0.890331
31
0
39
0
210
0
220
0
230
1
0
LINE
5
147
100
AcDbEntity
8
1
62
256
6
ByLayer
370
13
48
1
60
0
100
AcDbLine
10
255.596044
20
1.117159
30
0
11
255.844211
21
0.812583
31
0
39
0
210
0
220
0
230
1
0
LINE
5
148
100
AcDbEntity
8
4
62
256
6
ByLayer
370
18
48
0.05
60
0
100
AcDbLine
10
257
20
0
30
0
11
0
21
0
31
0
39
0
210
0
220
0
230
1
0
LINE
5
14A
100
AcDbEntity
8
SK4
62
256
6
ByLayer
370
13
48
0.05
60
0
100
AcDbLine
10
257
20
0
30
0
11
-80
21
0
31
0
39
0
210
0
220
0
230
1
0
LINE
5
14C
100
AcDbEntity
8
SK1
62
256
6
ByLayer
370
13
48
1
60
0
100
AcDbLine
10
-77.633813
20
-24.639667
30
0
11
-76.600002
21
-24.996
31
0
39
0
210
0
220
0
230
1
0
LINE
5
14D
100
AcDbEntity
8
SK1
62
256
6
ByLayer
370
13
48
1
60
0
100
AcDbLine
10
-76.600002
20
24.996
30
0
11
-77.633813
21
24.639667
31
0
39
0
210
0
220
0
230
1
0
LINE
5
14E
100
AcDbEntity
8
SK1
62
256
6
ByLayer
370
13
48
1
60
0
100
AcDbLine
10
-80
20
-23.996
30
0
11
-79
21
-24.996
31
0
39
0
210
0
220
0
230
1
0
LINE
5
14F
100
AcDbEntity
8
SK1
62
256
6
ByLayer
370
13
48
1
60
0
100
AcDbLine
10
-79
20
24.996
30
0
11
-80
21
23.996
31
0
39
0
210
0
220
0
230
1
0
LINE
5
150
100
AcDbEntity
8
SK1
62
256
6
ByLayer
370
13
48
1
60
0
100
AcDbLine
10
-78.599999
20
24.996
30
0
11
-79
21
24.996
31
0
39
0
210
0
220
0
230
1
0
LINE
5
151
100
AcDbEntity
8
SK1
62
256
6
ByLayer
370
13
48
1
60
0
100
AcDbLine
10
-79
20
-24.996
30
0
11
-78.599999
21
-24.996
31
0
39
0
210
0
220
0
230
1
0
LINE
5
152
100
AcDbEntity
8
SK1
62
256
6
ByLayer
370
13
48
1
60
0
100
AcDbLine
10
-78.516222
20
24.892544
30
0
11
-78.599999
21
24.996
31
0
39
0
210
0
220
0
230
1
0
LINE
5
153
100
AcDbEntity
8
SK1
62
256
6
ByLayer
370
13
48
1
60
0
100
AcDbLine
10
-78.599999
20
-24.996
30
0
11
-78.516222
21
-24.892544
31
0
39
0
210
0
220
0
230
1
0
LINE
5
154
100
AcDbEntity
8
SK1
62
256
6
ByLayer
370
13
48
1
60
0
100
AcDbLine
10
-0.15
20
24.746
30
0
11
-1.375195
21
24.746
31
0
39
0
210
0
220
0
230
1
0
LINE
5
155
100
AcDbEntity
8
SK1
62
256
6
ByLayer
370
13
48
1
60
0
100
AcDbLine
10
-1.375195
20
-24.746
30
0
11
-0.15
21
-24.746
31
0
39
0
210
0
220
0
230
1
0
LINE
5
156
100
AcDbEntity
8
SK1
62
256
6
ByLayer
370
13
48
1
60
0
100
AcDbLine
10
-2
20
24.996
30
0
11
-76.600002
21
24.996
31
0
39
0
210
0
220
0
230
1
0
LINE
5
157
100
AcDbEntity
8
SK1
62
256
6
ByLayer
370
13
48
1
60
0
100
AcDbLine
10
-76.600002
20
-24.996
30
0
11
-2
21
-24.996
31
0
39
0
210
0
220
0
230
1
0
LINE
5
158
100
AcDbEntity
8
SK1
62
256
6
ByLayer
370
13
48
1
60
0
100
AcDbLine
10
-1.544243
20
24.783477
30
0
11
-2
21
24.996
31
0
39
0
210
0
220
0
230
1
0
LINE
5
159
100
AcDbEntity
8
SK1
62
256
6
ByLayer
370
13
48
1
60
0
100
AcDbLine
10
-2
20
-24.996
30
0
11
-1.544243
21
-24.783477
31
0
39
0
210
0
220
0
230
1
0
LINE
5
15A
100
AcDbEntity
8
1
62
256
6
ByLayer
370
13
48
1
60
0
100
AcDbLine
10
255.649065
20
6.317851
30
0
11
256.103622
21
7.289247
31
0
39
0
210
0
220
0
230
1
0
LINE
5
15B
100
AcDbEntity
8
1
62
256
6
ByLayer
370
13
48
1
60
0
100
AcDbLine
10
254.729959
20
13.791406
30
0
11
253.743837
21
20.035491
31
0
39
0
210
0
220
0
230
1
0
LINE
5
15C
100
AcDbEntity
8
1
62
256
6
ByLayer
370
13
48
1
60
0
100
AcDbLine
10
253.890641
20
7.15724
30
0
11
254.732618
21
13.590774
31
0
39
0
210
0
220
0
230
1
0
LINE
5
15D
100
AcDbEntity
8
1
62
256
6
ByLayer
370
18
48
1
60
0
100
AcDbLine
10
247.069124
20
14.425248
30
0
11
247.193846
21
14.431785
31
0
39
0
210
0
220
0
230
1
0
LINE
5
15E
100
AcDbEntity
8
1
62
256
6
ByLayer
370
18
48
1
60
0
100
AcDbLine
10
247.328904
20
11.854721
30
0
11
247.204182
21
11.848185
31
0
39
0
210
0
220
0
230
1
0
LINE
5
15F
100
AcDbEntity
8
1
62
256
6
ByLayer
370
18
48
1
60
0
100
AcDbLine
10
247.3573
20
10.294369
30
0
11
247.423789
21
10.297853
31
0
39
0
210
0
220
0
230
1
0
LINE
5
160
100
AcDbEntity
8
1
62
256
6
ByLayer
370
18
48
1
60
0
100
AcDbLine
10
247.125474
20
15.990042
30
0
11
247.058985
21
15.986557
31
0
39
0
210
0
220
0
230
1
0
LINE
5
161
100
AcDbEntity
8
1
62
256
6
ByLayer
370
13
48
1
60
0
100
AcDbLine
10
37
20
-20.9625
30
0
11
42
21
-20.9625
31
0
39
0
210
0
220
0
230
1
0
LINE
5
162
100
AcDbEntity
8
1
62
256
6
ByLayer
370
13
48
1
60
0
100
AcDbLine
10
42
20
-20.9625
30
0
11
125
21
-20.7475
31
0
39
0
210
0
220
0
230
1
0
LINE
5
163
100
AcDbEntity
8
1
62
256
6
ByLayer
370
13
48
1
60
0
100
AcDbLine
10
238.175703
20
20.9625
30
0
11
236.107106
21
20.9625
31
0
39
0
210
0
220
0
230
1
0
LINE
5
164
100
AcDbEntity
8
1
62
256
6
ByLayer
370
13
48
1
60
0
100
AcDbLine
10
236.107106
20
20.9625
30
0
11
233.107106
21
20.7475
31
0
39
0
210
0
220
0
230
1
0
LINE
5
165
100
AcDbEntity
8
1
62
256
6
ByLayer
370
13
48
1
60
0
100
AcDbLine
10
125
20
-20.7475
30
0
11
157.810003
21
-20.7475
31
0
39
0
210
0
220
0
230
1
0
LINE
5
166
100
AcDbEntity
8
1
62
256
6
ByLayer
370
13
48
1
60
0
100
AcDbLine
10
233.107106
20
20.7475
30
0
11
222.513276
21
20.7475
31
0
39
0
210
0
220
0
230
1
0
LINE
5
167
100
AcDbEntity
8
1
62
256
6
ByLayer
370
13
48
1
60
0
100
AcDbLine
10
148.254271
20
20.7475
30
0
11
125
21
20.7475
31
0
39
0
210
0
220
0
230
1
0
LINE
5
168
100
AcDbEntity
8
1
62
256
6
ByLayer
370
13
48
1
60
0
100
AcDbLine
10
42
20
20.9625
30
0
11
37
21
20.9625
31
0
39
0
210
0
220
0
230
1
0
LINE
5
169
100
AcDbEntity
8
1
62
256
6
ByLayer
370
13
48
1
60
0
100
AcDbLine
10
125
20
20.7475
30
0
11
42
21
20.9625
31
0
39
0
210
0
220
0
230
1
0
LINE
5
16A
100
AcDbEntity
8
1
62
256
6
ByLayer
370
13
48
1
60
0
100
AcDbLine
10
0.1
20
31.25
30
0
11
0
21
31.15
31
0
39
0
210
0
220
0
230
1
0
LINE
5
16B
100
AcDbEntity
8
1
62
256
6
ByLayer
370
13
48
1
60
0
100
AcDbLine
10
0
20
-31.15
30
0
11
0.1
21
-31.25
31
0
39
0
210
0
220
0
230
1
0
LINE
5
16C
100
AcDbEntity
8
1
62
256
6
ByLayer
370
13
48
1
60
0
100
AcDbLine
10
0.1
20
-31.25
30
0
11
5.7518
21
-31.25
31
0
39
0
210
0
220
0
230
1
0
LINE
5
16D
100
AcDbEntity
8
1
62
256
6
ByLayer
370
13
48
1
60
0
100
AcDbLine
10
5.7518
20
31.25
30
0
11
0.1
21
31.25
31
0
39
0
210
0
220
0
230
1
0
LINE
5
16E
100
AcDbEntity
8
81
62
256
6
ByLayer
370
18
48
1
60
0
100
AcDbLine
10
257
20
0
30
0
11
264
21
0
31
0
39
0
210
0
220
0
230
1
0
LINE
5
16F
100
AcDbEntity
8
80
62
256
6
ByLayer
370
18
48
1
60
0
100
AcDbLine
10
0
20
0
30
0
11
-7
21
0
31
0
39
0
210
0
220
0
230
1
0
LINE
5
170
100
AcDbEntity
8
SK2
62
256
6
ByLayer
370
13
48
1
60
0
100
AcDbLine
10
-100.725
20
25
30
0
11
-100.725
21
-25
31
0
39
0
210
0
220
0
230
1
0
LINE
5
172
100
AcDbEntity
8
SK2
62
256
6
ByLayer
370
13
48
1
60
0
100
AcDbLine
10
-81.5875
20
-25
30
0
11
-103.9
21
-25
31
0
39
0
210
0
220
0
230
1
0
LINE
5
173
100
AcDbEntity
8
SK2
62
256
6
ByLayer
370
13
48
1
60
0
100
AcDbLine
10
-81.5875
20
25
30
0
11
-103.9
21
25
31
0
39
0
210
0
220
0
230
1
0
LINE
5
174
100
AcDbEntity
8
1
62
256
6
ByLayer
370
18
48
1
60
1
100
AcDbLine
10
-100.725
20
-25
30
0
11
-101.650575
21
-20.825003
31
0
39
0
210
0
220
0
230
1
0
LINE
5
175
100
AcDbEntity
8
1
62
256
6
ByLayer
370
18
48
1
60
1
100
AcDbLine
10
-101.650575
20
-20.825003
30
0
11
-99.799425
21
-20.824997
31
0
39
0
210
0
220
0
230
1
0
LINE
5
176
100
AcDbEntity
8
1
62
256
6
ByLayer
370
18
48
1
60
1
100
AcDbLine
10
-99.799425
20
-20.824997
30
0
11
-100.725
21
-25
31
0
39
0
210
0
220
0
230
1
0
LINE
5
177
100
AcDbEntity
8
1
62
256
6
ByLayer
370
18
48
1
60
1
100
AcDbLine
10
-100.725
20
25
30
0
11
-99.799425
21
20.825003
31
0
39
0
210
0
220
0
230
1
0
LINE
5
178
100
AcDbEntity
8
1
62
256
6
ByLayer
370
18
48
1
60
1
100
AcDbLine
10
-99.799425
20
20.825003
30
0
11
-101.650575
21
20.824997
31
0
39
0
210
0
220
0
230
1
0
LINE
5
179
100
AcDbEntity
8
1
62
256
6
ByLayer
370
18
48
1
60
1
100
AcDbLine
10
-101.650575
20
20.824997
30
0
11
-100.725
21
25
31
0
39
0
210
0
220
0
230
1
0
LINE
5
17A
100
AcDbEntity
8
SK2
62
256
6
ByLayer
370
13
48
1
60
0
100
AcDbLine
10
-110.725
20
-31.25
30
0
11
-110.725
21
31.25
31
0
39
0
210
0
220
0
230
1
0
LINE
5
17B
100
AcDbEntity
8
SK2
62
256
6
ByLayer
370
13
48
1
60
0
100
AcDbLine
10
-1.5875
20
31.25
30
0
11
-113.9
21
31.25
31
0
39
0
210
0
220
0
230
1
0
LINE
5
17C
100
AcDbEntity
8
SK2
62
256
6
ByLayer
370
13
48
1
60
0
100
AcDbLine
10
-1.5875
20
-31.25
30
0
11
-113.9
21
-31.25
31
0
39
0
210
0
220
0
230
1
0
LINE
5
17D
100
AcDbEntity
8
1
62
256
6
ByLayer
370
18
48
1
60
1
100
AcDbLine
10
-110.725
20
31.25
30
0
11
-109.799425
21
27.075003
31
0
39
0
210
0
220
0
230
1
0
LINE
5
17E
100
AcDbEntity
8
1
62
256
6
ByLayer
370
18
48
1
60
1
100
AcDbLine
10
-109.799425
20
27.075003
30
0
11
-111.650575
21
27.074997
31
0
39
0
210
0
220
0
230
1
0
LINE
5
17F
100
AcDbEntity
8
1
62
256
6
ByLayer
370
18
48
1
60
1
100
AcDbLine
10
-111.650575
20
27.074997
30
0
11
-110.725
21
31.25
31
0
39
0
210
0
220
0
230
1
0
LINE
5
180
100
AcDbEntity
8
1
62
256
6
ByLayer
370
18
48
1
60
1
100
AcDbLine
10
-110.725
20
-31.25
30
0
11
-111.650575
21
-27.075003
31
0
39
0
210
0
220
0
230
1
0
LINE
5
181
100
AcDbEntity
8
1
62
256
6
ByLayer
370
18
48
1
60
1
100
AcDbLine
10
-111.650575
20
-27.075003
30
0
11
-109.799425
21
-27.074997
31
0
39
0
210
0
220
0
230
1
0
LINE
5
182
100
AcDbEntity
8
1
62
256
6
ByLayer
370
18
48
1
60
1
100
AcDbLine
10
-109.799425
20
-27.074997
30
0
11
-110.725
21
-31.25
31
0
39
0
210
0
220
0
230
1
0
LINE
5
183
100
AcDbEntity
8
2
62
256
6
ByLayer
370
13
48
1
60
0
100
AcDbLine
10
283.975
20
21.5
30
0
11
283.975
21
-21.5
31
0
39
0
210
0
220
0
230
1
0
LINE
5
185
100
AcDbEntity
8
2
62
256
6
ByLayer
370
13
48
1
60
0
100
AcDbLine
10
258.5875
20
-21.5
30
0
11
287.15
21
-21.5
31
0
39
0
210
0
220
0
230
1
0
LINE
5
186
100
AcDbEntity
8
2
62
256
6
ByLayer
370
13
48
1
60
0
100
AcDbLine
10
258.5875
20
21.5
30
0
11
287.15
21
21.5
31
0
39
0
210
0
220
0
230
1
0
LINE
5
187
100
AcDbEntity
8
1
62
256
6
ByLayer
370
18
48
1
60
1
100
AcDbLine
10
283.975
20
-21.5
30
0
11
283.049425
21
-17.325003
31
0
39
0
210
0
220
0
230
1
0
LINE
5
188
100
AcDbEntity
8
1
62
256
6
ByLayer
370
18
48
1
60
1
100
AcDbLine
10
283.049425
20
-17.325003
30
0
11
284.900575
21
-17.324997
31
0
39
0
210
0
220
0
230
1
0
LINE
5
189
100
AcDbEntity
8
1
62
256
6
ByLayer
370
18
48
1
60
1
100
AcDbLine
10
284.900575
20
-17.324997
30
0
11
283.975
21
-21.5
31
0
39
0
210
0
220
0
230
1
0
LINE
5
18A
100
AcDbEntity
8
1
62
256
6
ByLayer
370
18
48
1
60
1
100
AcDbLine
10
283.975
20
21.5
30
0
11
284.900575
21
17.325003
31
0
39
0
210
0
220
0
230
1
0
LINE
5
18B
100
AcDbEntity
8
1
62
256
6
ByLayer
370
18
48
1
60
1
100
AcDbLine
10
284.900575
20
17.325003
30
0
11
283.049425
21
17.324997
31
0
39
0
210
0
220
0
230
1
0
LINE
5
18C
100
AcDbEntity
8
1
62
256
6
ByLayer
370
18
48
1
60
1
100
AcDbLine
10
283.049425
20
17.324997
30
0
11
283.975
21
21.5
31
0
39
0
210
0
220
0
230
1
0
LINE
5
341
100
AcDbEntity
8
1
62
256
6
ByLayer
370
18
48
1
60
1
100
AcDbLine
10
-100.725
20
-25
30
0
11
-101.650575
21
-20.825003
31
0
39
0
210
0
220
0
230
1
0
LINE
5
342
100
AcDbEntity
8
1
62
256
6
ByLayer
370
18
48
1
60
1
100
AcDbLine
10
-101.650575
20
-20.825003
30
0
11
-99.799425
21
-20.824997
31
0
39
0
210
0
220
0
230
1
0
LINE
5
343
100
AcDbEntity
8
1
62
256
6
ByLayer
370
18
48
1
60
1
100
AcDbLine
10
-99.799425
20
-20.824997
30
0
11
-100.725
21
-25
31
0
39
0
210
0
220
0
230
1
0
LINE
5
345
100
AcDbEntity
8
1
62
256
6
ByLayer
370
18
48
1
60
1
100
AcDbLine
10
-100.725
20
25
30
0
11
-99.799425
21
20.825003
31
0
39
0
210
0
220
0
230
1
0
LINE
5
346
100
AcDbEntity
8
1
62
256
6
ByLayer
370
18
48
1
60
1
100
AcDbLine
10
-99.799425
20
20.825003
30
0
11
-101.650575
21
20.824997
31
0
39
0
210
0
220
0
230
1
0
LINE
5
347
100
AcDbEntity
8
1
62
256
6
ByLayer
370
18
48
1
60
1
100
AcDbLine
10
-101.650575
20
20.824997
30
0
11
-100.725
21
25
31
0
39
0
210
0
220
0
230
1
0
LINE
5
34B
100
AcDbEntity
8
1
62
256
6
ByLayer
370
18
48
1
60
1
100
AcDbLine
10
-110.725
20
31.25
30
0
11
-109.799425
21
27.075003
31
0
39
0
210
0
220
0
230
1
0
LINE
5
34C
100
AcDbEntity
8
1
62
256
6
ByLayer
370
18
48
1
60
1
100
AcDbLine
10
-109.799425
20
27.075003
30
0
11
-111.650575
21
27.074997
31
0
39
0
210
0
220
0
230
1
0
LINE
5
34D
100
AcDbEntity
8
1
62
256
6
ByLayer
370
18
48
1
60
1
100
AcDbLine
10
-111.650575
20
27.074997
30
0
11
-110.725
21
31.25
31
0
39
0
210
0
220
0
230
1
0
LINE
5
34F
100
AcDbEntity
8
1
62
256
6
ByLayer
370
18
48
1
60
1
100
AcDbLine
10
-110.725
20
-31.25
30
0
11
-111.650575
21
-27.075003
31
0
39
0
210
0
220
0
230
1
0
LINE
5
350
100
AcDbEntity
8
1
62
256
6
ByLayer
370
18
48
1
60
1
100
AcDbLine
10
-111.650575
20
-27.075003
30
0
11
-109.799425
21
-27.074997
31
0
39
0
210
0
220
0
230
1
0
LINE
5
351
100
AcDbEntity
8
1
62
256
6
ByLayer
370
18
48
1
60
1
100
AcDbLine
10
-109.799425
20
-27.074997
30
0
11
-110.725
21
-31.25
31
0
39
0
210
0
220
0
230
1
0
LINE
5
355
100
AcDbEntity
8
1
62
256
6
ByLayer
370
18
48
1
60
1
100
AcDbLine
10
283.975
20
-21.5
30
0
11
283.049425
21
-17.325003
31
0
39
0
210
0
220
0
230
1
0
LINE
5
356
100
AcDbEntity
8
1
62
256
6
ByLayer
370
18
48
1
60
1
100
AcDbLine
10
283.049425
20
-17.325003
30
0
11
284.900575
21
-17.324997
31
0
39
0
210
0
220
0
230
1
0
LINE
5
357
100
AcDbEntity
8
1
62
256
6
ByLayer
370
18
48
1
60
1
100
AcDbLine
10
284.900575
20
-17.324997
30
0
11
283.975
21
-21.5
31
0
39
0
210
0
220
0
230
1
0
LINE
5
359
100
AcDbEntity
8
1
62
256
6
ByLayer
370
18
48
1
60
1
100
AcDbLine
10
283.975
20
21.5
30
0
11
284.900575
21
17.325003
31
0
39
0
210
0
220
0
230
1
0
LINE
5
35A
100
AcDbEntity
8
1
62
256
6
ByLayer
370
18
48
1
60
1
100
AcDbLine
10
284.900575
20
17.325003
30
0
11
283.049425
21
17.324997
31
0
39
0
210
0
220
0
230
1
0
LINE
5
35B
100
AcDbEntity
8
1
62
256
6
ByLayer
370
18
48
1
60
1
100
AcDbLine
10
283.049425
20
17.324997
30
0
11
283.975
21
21.5
31
0
39
0
210
0
220
0
230
1
0
MTEXT
5
33D
100
AcDbEntity
8
SK2
62
256
6
ByLayer
370
18
48
1
60
0
100
AcDbMText
10
-102.736672
20
-6.949399
30
0
210
0
220
0
230
1
1
%%c
40
4.5
41
0
44
1.084337
50
90
71
7
72
5
7
iso_b_vert
0
MTEXT
5
340
100
AcDbEntity
8
SK2
62
256
6
ByLayer
370
18
48
1
60
0
100
AcDbMText
10
-102.736672
20
4.265444
30
0
210
0
220
0
230
1
1
\W0.6740;50
40
4.5
41
0
44
1.084337
50
90
71
7
72
5
7
iso_b_vert
0
MTEXT
5
349
100
AcDbEntity
8
SK2
62
256
6
ByLayer
370
18
48
1
60
0
100
AcDbMText
10
-112.736672
20
-9.541655
30
0
210
0
220
0
230
1
1
%%c
40
4.5
41
0
44
1.084337
50
90
71
7
72
5
7
iso_b_vert
0
MTEXT
5
34A
100
AcDbEntity
8
SK2
62
256
6
ByLayer
370
18
48
1
60
0
100
AcDbMText
10
-112.736672
20
1.673189
30
0
210
0
220
0
230
1
1
\W0.7346;62.5
40
4.5
41
0
44
1.084337
50
90
71
7
72
5
7
iso_b_vert
0
MTEXT
5
353
100
AcDbEntity
8
2
62
256
6
ByLayer
370
18
48
1
60
0
100
AcDbMText
10
281.963328
20
-7.186314
30
0
210
0
220
0
230
1
1
%%c
40
4.5
41
0
44
1.084337
50
90
71
7
72
5
7
iso_b_vert
0
MTEXT
5
354
100
AcDbEntity
8
2
62
256
6
ByLayer
370
18
48
1
60
0
100
AcDbMText
10
281.963328
20
4.02853
30
0
210
0
220
0
230
1
1
\W0.7361;43
40
4.5
41
0
44
1.084337
50
90
71
7
72
5
7
iso_b_vert
0
MTEXT
5
35D
100
AcDbEntity
8
SK6
62
256
6
ByLayer
370
18
48
1
60
0
100
AcDbMText
10
9.308916
20
-94.592562
30
0
210
0
220
0
230
1
1
\W0.7723;DS20-D4300L50-05
40
3.5
41
0
44
1.084337
50
0
71
7
72
5
7
iso_b_vert
0
HATCH
5
344
100
AcDbEntity
8
SK2
62
256
6
ByLayer
370
13
48
1
60
0
100
AcDbHatch
10
0
20
0
30
0
210
0
220
0
230
1
2
ANSI31
70
0
71
0
91
1
92
5
93
3
72
1
10
-100.725
20
-24.9999999999999
11
-101.650575216528
21
-20.8250033998275
72
1
10
-101.650575216528
20
-20.8250033998275
11
-99.7994247834721
21
-20.8249966001723
72
1
10
-99.7994247834721
20
-20.8249966001723
11
-100.725
21
-24.9999999999999
97
0
75
0
76
1
52
0
41
0.0062
77
0
78
1
53
45
43
0
44
0
45
-0.0139193969876572
46
0.0139193969876572
79
0
47
0
98
1
10
0
20
0
0
HATCH
5
348
100
AcDbEntity
8
SK2
62
256
6
ByLayer
370
13
48
1
60
0
100
AcDbHatch
10
0
20
0
30
0
210
0
220
0
230
1
2
ANSI31
70
0
71
0
91
1
92
5
93
3
72
1
10
-100.725
20
25.0000000000001
11
-99.7994247834721
21
20.8250033998277
72
1
10
-99.7994247834721
20
20.8250033998277
11
-101.650575216528
21
20.8249966001725
72
1
10
-101.650575216528
20
20.8249966001725
11
-100.725
21
25.0000000000001
97
0
75
0
76
1
52
0
41
0.0062
77
0
78
1
53
45
43
0
44
0
45
-0.0139193969876572
46
0.0139193969876572
79
0
47
0
98
1
10
0
20
0
0
HATCH
5
34E
100
AcDbEntity
8
SK2
62
256
6
ByLayer
370
13
48
1
60
0
100
AcDbHatch
10
0
20
0
30
0
210
0
220
0
230
1
2
ANSI31
70
0
71
0
91
1
92
5
93
3
72
1
10
-110.725
20
31.25
11
-109.799424783472
21
27.0750033998276
72
1
10
-109.799424783472
20
27.0750033998276
11
-111.650575216528
21
27.0749966001724
72
1
10
-111.650575216528
20
27.0749966001724
11
-110.725
21
31.25
97
0
75
0
76
1
52
0
41
0.0062
77
0
78
1
53
45
43
0
44
0
45
-0.0139193969876572
46
0.0139193969876572
79
0
47
0
98
1
10
0
20
0
0
HATCH
5
352
100
AcDbEntity
8
SK2
62
256
6
ByLayer
370
13
48
1
60
0
100
AcDbHatch
10
0
20
0
30
0
210
0
220
0
230
1
2
ANSI31
70
0
71
0
91
1
92
5
93
3
72
1
10
-110.725
20
-31.25
11
-111.650575216528
21
-27.0750033998276
72
1
10
-111.650575216528
20
-27.0750033998276
11
-109.799424783472
21
-27.0749966001724
72
1
10
-109.799424783472
20
-27.0749966001724
11
-110.725
21
-31.25
97
0
75
0
76
1
52
0
41
0.0062
77
0
78
1
53
45
43
0
44
0
45
-0.0139193969876572
46
0.0139193969876572
79
0
47
0
98
1
10
0
20
0
0
HATCH
5
358
100
AcDbEntity
8
2
62
256
6
ByLayer
370
13
48
1
60
0
100
AcDbHatch
10
0
20
0
30
0
210
0
220
0
230
1
2
ANSI31
70
0
71
0
91
1
92
5
93
3
72
1
10
283.975
20
-21.5000000000003
11
283.049424783472
21
-17.3250033998279
72
1
10
283.049424783472
20
-17.3250033998279
11
284.900575216528
21
-17.3249966001727
72
1
10
284.900575216528
20
-17.3249966001727
11
283.975
21
-21.5000000000003
97
0
75
0
76
1
52
0
41
0.0062
77
0
78
1
53
45
43
0
44
0
45
-0.0139193969876572
46
0.0139193969876572
79
0
47
0
98
1
10
0
20
0
0
HATCH
5
35C
100
AcDbEntity
8
2
62
256
6
ByLayer
370
13
48
1
60
0
100
AcDbHatch
10
0
20
0
30
0
210
0
220
0
230
1
2
ANSI31
70
0
71
0
91
1
92
5
93
3
72
1
10
283.975
20
21.4999999999997
11
284.900575216528
21
17.3250033998273
72
1
10
284.900575216528
20
17.3250033998273
11
283.049424783472
21
17.3249966001721
72
1
10
283.049424783472
20
17.3249966001721
11
283.975
21
21.4999999999997
97
0
75
0
76
1
52
0
41
0.0062
77
0
78
1
53
45
43
0
44
0
45
-0.0139193969876572
46
0.0139193969876572
79
0
47
0
98
1
10
0
20
0
0
DIMENSION
5
360
100
AcDbEntity
8
2
62
256
6
ByLayer
370
18
48
1
60
0
100
AcDbDimension
2
_U0
10
257
20
-80.1
30
0
11
128.5
21
-80.1
31
0
70
32
71
1
72
1
41
1
210
0
220
0
230
1
3
Standard
100
AcDbAlignedDimension
13
0
23
-31.25
33
0
14
257
24
-21.5
34
0
50
0
100
AcDbRotatedDimension
1001
ACAD
1000
DSTYLE
1002
{
1070
   371
1070
    13
1070
   372
1070
    13
1070
   170
1070
     0
1070
   144
1040
1.0
1070
   277
1070
     2
1070
   284
1070
     8
1070
   278
1070
    46
1070
   146
1040
0.777778
1070
   345
1005
16
1070
   347
1005
16
1070
   346
1005
16
1070
   344
1005
0
1070
   343
1005
0
1070
   172
1070
     1
1070
    76
1070
     0
1070
    75
1070
     0
1070
   282
1070
     0
1070
   281
1070
     0
1070
    71
1070
     0
1070
    74
1070
     0
1070
   279
1070
     0
1070
   173
1070
     1
1070
   340
1005
33E
1070
   271
1070
     1
1070
   272
1070
     2
1070
    77
1070
     1
1070
    73
1070
     1
1070
   171
1070
     3
1070
   274
1070
     4
1070
   177
1070
   150
1070
   176
1070
     9
1070
   178
1070
    43
1070
    78
1070
     8
1070
    48
1040
-0.1
1070
    41
1040
4.175
1070
   147
1040
2.25
1070
    42
1040
1.5875
1070
    44
1040
3.175
1070
   140
1040
4.5
1002
}
1001
ACAD_DSTYLE_DIM_LINETYPE
1070
   380
1005
16
1001
ACAD_DSTYLE_DIM_EXT1_LINETYPE
1070
   381
1005
16
1001
ACAD_DSTYLE_DIM_EXT2_LINETYPE
1070
   382
1005
16
0
DIMENSION
5
379
100
AcDbEntity
8
SK2
62
256
6
ByLayer
370
18
48
1
60
0
100
AcDbDimension
2
_U1
10
0
20
-80.1
30
0
11
-40
21
-80.1
31
0
70
32
71
1
72
1
41
1
210
0
220
0
230
1
3
Standard
100
AcDbAlignedDimension
13
-80
23
-25
33
0
14
0
24
-31.25
34
0
50
0
100
AcDbRotatedDimension
1001
ACAD
1000
DSTYLE
1002
{
1070
   371
1070
    13
1070
   372
1070
    13
1070
   170
1070
     0
1070
   144
1040
1.0
1070
   277
1070
     2
1070
   284
1070
     8
1070
   278
1070
    46
1070
   146
1040
0.777778
1070
   345
1005
16
1070
   347
1005
16
1070
   346
1005
16
1070
   344
1005
0
1070
   343
1005
0
1070
   172
1070
     1
1070
    76
1070
     0
1070
    75
1070
     0
1070
   282
1070
     0
1070
   281
1070
     0
1070
    71
1070
     0
1070
    74
1070
     0
1070
   279
1070
     0
1070
   173
1070
     1
1070
   340
1005
33E
1070
   271
1070
     1
1070
   272
1070
     2
1070
    77
1070
     1
1070
    73
1070
     1
1070
   171
1070
     3
1070
   274
1070
     4
1070
   177
1070
   150
1070
   176
1070
     9
1070
   178
1070
    43
1070
    78
1070
     8
1070
    48
1040
-0.1
1070
    41
1040
4.175
1070
   147
1040
2.25
1070
    42
1040
1.5875
1070
    44
1040
3.175
1070
   140
1040
4.5
1002
}
1001
ACAD_DSTYLE_DIM_LINETYPE
1070
   380
1005
16
1001
ACAD_DSTYLE_DIM_EXT1_LINETYPE
1070
   381
1005
16
1001
ACAD_DSTYLE_DIM_EXT2_LINETYPE
1070
   382
1005
16
0
DIMENSION
5
391
100
AcDbEntity
8
SK2
62
256
6
ByLayer
370
18
48
1
60
0
100
AcDbDimension
2
_U2
10
6.2518
20
-70.1
30
0
11
131.6259
21
-70.1
31
0
70
32
71
1
72
1
41
1
210
0
220
0
230
1
3
Standard
100
AcDbAlignedDimension
13
257
23
-21.5
33
0
14
6.2518
24
-31.25
34
0
50
0
100
AcDbRotatedDimension
1001
ACAD
1000
DSTYLE
1002
{
1070
   371
1070
    13
1070
   372
1070
    13
1070
   170
1070
     0
1070
   144
1040
1.0
1070
   277
1070
     2
1070
   284
1070
     8
1070
   278
1070
    46
1070
   146
1040
0.777778
1070
   345
1005
16
1070
   347
1005
16
1070
   346
1005
16
1070
   344
1005
0
1070
   343
1005
0
1070
   172
1070
     1
1070
    76
1070
     0
1070
    75
1070
     0
1070
   282
1070
     0
1070
   281
1070
     0
1070
    71
1070
     0
1070
    74
1070
     0
1070
   279
1070
     0
1070
   173
1070
     1
1070
   340
1005
33E
1070
   271
1070
     1
1070
   272
1070
     2
1070
    77
1070
     1
1070
    73
1070
     1
1070
   171
1070
     3
1070
   274
1070
     4
1070
   177
1070
   150
1070
   176
1070
     9
1070
   178
1070
    43
1070
    78
1070
     8
1070
    48
1040
-0.1
1070
    41
1040
4.175
1070
   147
1040
2.25
1070
    42
1040
1.5875
1070
    44
1040
3.175
1070
   140
1040
4.5
1002
}
1001
ACAD_DSTYLE_DIM_LINETYPE
1070
   380
1005
16
1001
ACAD_DSTYLE_DIM_EXT1_LINETYPE
1070
   381
1005
16
1001
ACAD_DSTYLE_DIM_EXT2_LINETYPE
1070
   382
1005
16
0
DIMENSION
5
3A9
100
AcDbEntity
8
SK2
62
256
6
ByLayer
370
18
48
1
60
0
100
AcDbDimension
2
_U3
10
257
20
-60.1
30
0
11
147
21
-60.1
31
0
70
32
71
1
72
1
41
1
210
0
220
0
230
1
3
Standard
100
AcDbAlignedDimension
13
37
23
-21.5
33
0
14
257
24
-21.5
34
0
50
0
100
AcDbRotatedDimension
1001
ACAD
1000
DSTYLE
1002
{
1070
   371
1070
    13
1070
   372
1070
    13
1070
   170
1070
     0
1070
   144
1040
1.0
1070
   277
1070
     2
1070
   284
1070
     8
1070
   278
1070
    46
1070
   146
1040
0.777778
1070
   345
1005
16
1070
   347
1005
16
1070
   346
1005
16
1070
   344
1005
0
1070
   343
1005
0
1070
   172
1070
     1
1070
    76
1070
     0
1070
    75
1070
     0
1070
   282
1070
     0
1070
   281
1070
     0
1070
    71
1070
     0
1070
    74
1070
     0
1070
   279
1070
     0
1070
   173
1070
     1
1070
   340
1005
33E
1070
   271
1070
     1
1070
   272
1070
     2
1070
    77
1070
     1
1070
    73
1070
     1
1070
   171
1070
     3
1070
   274
1070
     4
1070
   177
1070
   150
1070
   176
1070
     9
1070
   178
1070
    43
1070
    78
1070
     8
1070
    48
1040
-0.1
1070
    41
1040
4.175
1070
   147
1040
2.25
1070
    42
1040
1.5875
1070
    44
1040
3.175
1070
   140
1040
4.5
1002
}
1001
ACAD_DSTYLE_DIM_LINETYPE
1070
   380
1005
16
1001
ACAD_DSTYLE_DIM_EXT1_LINETYPE
1070
   381
1005
16
1001
ACAD_DSTYLE_DIM_EXT2_LINETYPE
1070
   382
1005
16
0
DIMENSION
5
3C1
100
AcDbEntity
8
2
62
256
6
ByLayer
370
18
48
1
60
0
100
AcDbDimension
2
_U4
10
257
20
-50.1
30
0
11
279.029464
21
-50.1
31
0
70
32
71
1
72
1
41
1
210
0
220
0
230
1
3
Standard
100
AcDbAlignedDimension
13
255.7234
23
-10.75
33
0
14
257
24
0
34
0
50
0
100
AcDbRotatedDimension
1001
ACAD
1000
DSTYLE
1002
{
1070
   371
1070
    13
1070
   372
1070
    13
1070
   170
1070
     0
1070
   144
1040
1.0
1070
   277
1070
     2
1070
   284
1070
     8
1070
   278
1070
    46
1070
   146
1040
0.777778
1070
   345
1005
16
1070
   347
1005
16
1070
   346
1005
16
1070
   344
1005
0
1070
   343
1005
0
1070
   172
1070
     1
1070
    76
1070
     0
1070
    75
1070
     0
1070
   282
1070
     0
1070
   281
1070
     0
1070
    71
1070
     0
1070
    74
1070
     0
1070
   279
1070
     0
1070
   173
1070
     1
1070
   340
1005
33E
1070
   271
1070
     2
1070
   272
1070
     2
1070
    77
1070
     1
1070
    73
1070
     1
1070
   171
1070
     3
1070
   274
1070
     4
1070
   177
1070
   150
1070
   176
1070
     9
1070
   178
1070
    43
1070
    78
1070
     8
1070
    48
1040
-0.1
1070
    41
1040
4.175
1070
   147
1040
2.25
1070
    42
1040
1.5875
1070
    44
1040
3.175
1070
   140
1040
4.5
1002
}
1001
ACAD_DSTYLE_DIM_LINETYPE
1070
   380
1005
16
1001
ACAD_DSTYLE_DIM_EXT1_LINETYPE
1070
   381
1005
16
1001
ACAD_DSTYLE_DIM_EXT2_LINETYPE
1070
   382
1005
16
0
ENDSEC
0
SECTION
2
OBJECTS
0
DICTIONARY
5
44b
330
0
100
AcDbDictionary
280
0
281
1
3
ACAD_GROUP
350
44c
3
ACAD_MLINESTYLE
350
44d
0
DICTIONARY
5
44c
330
0
100
AcDbDictionary
280
0
281
1
0
DICTIONARY
5
44d
330
0
100
AcDbDictionary
280
0
281
1
3
Standard
350
18
0
MLINESTYLE
5
18
330
44d
100
AcDbMlineStyle
2
Standard
70
0
3

62
256
51
90
52
90
71
2
49
-0.5
62
256
6
ByLayer
49
0.5
62
256
6
ByLayer
0
RASTERVARIABLES
5
439
330

100
AcDbRasterVariables
90
0
70
1
71
1
72
1
0
ENDSEC
0
EOF
