0
SECTION
2
HEADER
9
$ACADVER
1
AC1015
9
$DWGCODEPAGE
3
ANSI_1252
9
$HANDSEED
5
457
9
$ANGBASE
50
0
9
$ANGDIR
70
0
9
$ATTMODE
70
1
9
$AUNITS
70
0
9
$AUPREC
70
0
9
$CECOLOR
62
256
9
$CELTSCALE
40
1
9
$CELTYPE
6
ByLayer
9
$CELWEIGHT
370
18
9
$CLAYER
8
0
9
$CMLJUST
70
0
9
$CMLSCALE
40
1
9
$CMLSTYLE
2
Standard
9
$DIMSTYLE
2
Standard
9
$TEXTSIZE
40
0.2
9
$TEXTSTYLE
7
Standard
9
$LUNITS
70
2
9
$LUPREC
70
4
9
$EXTNAMES
290
1
9
$INSUNITS
70
4
9
$LTSCALE
40
1
9
$LWDISPLAY
290
1
9
$PDMODE
70
0
9
$PDSIZE
40
0
9
$PLINEGEN
70
0
0
ENDSEC
0
SECTION
2
CLASSES
0
CLASS
1
RASTERVARIABLES
2
AcDbRasterVariables
3
ISM
90
0
280
0
281
0
0
ENDSEC
0
SECTION
2
TABLES
0
TABLE
2
VPORT
5
44d
100
AcDbSymbolTable
0
VPORT
5
1
100
AcDbSymbolTableRecord
100
AcDbViewportTableRecord
2
*Active
70
0
10
0
20
0
11
1
21
1
12
-1
22
1
13
0
23
0
14
0.5
24
0.5
15
10
25
10
16
0
26
0
36
1
17
0
27
0
37
0
0
ENDTAB
0
TABLE
2
LTYPE
5
44e
100
AcDbSymbolTable
0
LTYPE
5
14
100
AcDbSymbolTableRecord
100
AcDbLinetypeTableRecord
70
0
2
ByBlock
3

72
65
73
0
40
0
0
LTYPE
5
15
100
AcDbSymbolTableRecord
100
AcDbLinetypeTableRecord
70
0
2
ByLayer
3

72
65
73
0
40
0
0
LTYPE
5
16
100
AcDbSymbolTableRecord
100
AcDbLinetypeTableRecord
70
0
2
Continuous
3
Solid line
72
65
73
0
40
0
0
LTYPE
5
6E
100
AcDbSymbolTableRecord
100
AcDbLinetypeTableRecord
70
0
2
CENTER
3
____ _ ____ _ ____ _ ____
72
65
73
4
40
47.5
49
22
74
0
49
-8.5
74
0
49
8.5
74
0
49
-8.5
74
0
0
LTYPE
5
6F
100
AcDbSymbolTableRecord
100
AcDbLinetypeTableRecord
70
0
2
DASHED
3
__ __ __ __ __ __ __ __ __
72
65
73
2
40
25.72
49
12.86
74
0
49
-12.86
74
0
0
ENDTAB
0
TABLE
2
LAYER
5
44f
100
AcDbSymbolTable
0
LAYER
5
10
100
AcDbSymbolTableRecord
100
AcDbLayerTableRecord
2
0
70
0
62
7
6
Continuous
290
1
370
-3
390
0
0
LAYER
5
71
100
AcDbSymbolTableRecord
100
AcDbLayerTableRecord
2
1
70
0
62
4
6
Continuous
290
1
370
-3
390
0
0
LAYER
5
73
100
AcDbSymbolTableRecord
100
AcDbLayerTableRecord
2
80
70
0
62
-6
6
Continuous
290
1
370
-3
390
0
0
LAYER
5
75
100
AcDbSymbolTableRecord
100
AcDbLayerTableRecord
2
81
70
0
62
-3
6
Continuous
290
1
370
-3
390
0
0
LAYER
5
14C
100
AcDbSymbolTableRecord
100
AcDbLayerTableRecord
2
4
70
0
62
-2
6
CENTER
290
1
370
-3
390
0
0
LAYER
5
189
100
AcDbSymbolTableRecord
100
AcDbLayerTableRecord
2
2
70
0
62
7
6
Continuous
290
1
370
-3
390
0
0
LAYER
5
361
100
AcDbSymbolTableRecord
100
AcDbLayerTableRecord
2
Defpoints
70
0
62
7
6
Continuous
290
0
370
-3
390
0
0
LAYER
5
439
100
AcDbSymbolTableRecord
100
AcDbLayerTableRecord
2
SK1
70
0
62
4
6
Continuous
290
1
370
-3
390
0
0
LAYER
5
43a
100
AcDbSymbolTableRecord
100
AcDbLayerTableRecord
2
SK4
70
0
62
2
6
CENTER
290
1
370
-3
390
0
0
LAYER
5
43b
100
AcDbSymbolTableRecord
100
AcDbLayerTableRecord
2
SK2
70
0
62
7
6
Continuous
290
1
370
-3
390
0
0
LAYER
5
43c
100
AcDbSymbolTableRecord
100
AcDbLayerTableRecord
2
SK6
70
0
62
5
6
Continuous
290
1
370
-3
390
0
0
ENDTAB
0
TABLE
2
STYLE
5
450
100
AcDbSymbolTable
0
STYLE
5
11
100
AcDbSymbolTableRecord
100
AcDbTextStyleTableRecord
2
Standard
3
txt
70
0
71
0
40
0
41
1
42
0
50
0
0
STYLE
5
33C
100
AcDbSymbolTableRecord
100
AcDbTextStyleTableRecord
2
iso_b_vert
3
simplex.shx
70
0
71
0
40
0
41
1
42
0
50
0
0
STYLE
5
33D
100
AcDbSymbolTableRecord
100
AcDbTextStyleTableRecord
2
DWGDirectTextStyle
3
simplex
70
0
71
0
40
0
41
1
42
0
50
0
0
ENDTAB
0
TABLE
2
DIMSTYLE
5
451
100
AcDbSymbolTable
100
AcDbDimStyleTable
0
DIMSTYLE
105
27
100
AcDbSymbolTableRecord
100
AcDbDimStyleTableRecord
2
Standard
70
0
3
<>
41
0.18
42
0.0625
44
0.18
140
0.18
147
0.09
73
0
74
0
77
1
271
2
275
0
278
52
280
0
340
11
0
ENDTAB
0
TABLE
2
VIEW
5
452
100
AcDbSymbolTable
0
ENDTAB
0
TABLE
2
UCS
5
453
100
AcDbSymbolTable
0
ENDTAB
0
TABLE
2
APPID
5
454
100
AcDbSymbolTable
0
APPID
5
12
100
AcDbSymbolTableRecord
100
AcDbRegAppTableRecord
2
ACAD
70
0
0
APPID
5
35D
100
AcDbSymbolTableRecord
100
AcDbRegAppTableRecord
2
ACAD_DSTYLE_DIMBREAK
70
0
0
APPID
5
3F8
100
AcDbSymbolTableRecord
100
AcDbRegAppTableRecord
2
ACAD_DSTYLE_DIM_LINETYPE
70
0
0
APPID
5
3F9
100
AcDbSymbolTableRecord
100
AcDbRegAppTableRecord
2
ACAD_DSTYLE_DIM_EXT1_LINETYPE
70
0
0
APPID
5
3FA
100
AcDbSymbolTableRecord
100
AcDbRegAppTableRecord
2
ACAD_DSTYLE_DIM_EXT2_LINETYPE
70
0
0
APPID
5
435
100
AcDbSymbolTableRecord
100
AcDbRegAppTableRecord
2
ACAD_MLEADERVER
70
0
0
ENDTAB
0
TABLE
2
BLOCK_RECORD
5
455
100
AcDbSymbolTable
0
BLOCK_RECORD
5
1F
100
AcDbSymbolTableRecord
100
AcDbBlockTableRecord
2
*Model_Space
340
0
70
0
0
BLOCK_RECORD
5
1B
100
AcDbSymbolTableRecord
100
AcDbBlockTableRecord
2
*Paper_Space
340
0
70
0
0
BLOCK_RECORD
5
23
100
AcDbSymbolTableRecord
100
AcDbBlockTableRecord
2
*Paper_Space0
340
0
70
0
0
BLOCK_RECORD
5
362
100
AcDbSymbolTableRecord
100
AcDbBlockTableRecord
2
*D1
340
0
70
0
0
BLOCK_RECORD
5
36E
100
AcDbSymbolTableRecord
100
AcDbBlockTableRecord
2
_U0
340
0
70
0
0
BLOCK_RECORD
5
37A
100
AcDbSymbolTableRecord
100
AcDbBlockTableRecord
2
*D3
340
0
70
0
0
BLOCK_RECORD
5
387
100
AcDbSymbolTableRecord
100
AcDbBlockTableRecord
2
_U1
340
0
70
0
0
BLOCK_RECORD
5
393
100
AcDbSymbolTableRecord
100
AcDbBlockTableRecord
2
*D5
340
0
70
0
0
BLOCK_RECORD
5
39F
100
AcDbSymbolTableRecord
100
AcDbBlockTableRecord
2
_U2
340
0
70
0
0
BLOCK_RECORD
5
3AB
100
AcDbSymbolTableRecord
100
AcDbBlockTableRecord
2
*D7
340
0
70
0
0
BLOCK_RECORD
5
3B7
100
AcDbSymbolTableRecord
100
AcDbBlockTableRecord
2
_U3
340
0
70
0
0
BLOCK_RECORD
5
3C3
100
AcDbSymbolTableRecord
100
AcDbBlockTableRecord
2
*D9
340
0
70
0
0
BLOCK_RECORD
5
3D1
100
AcDbSymbolTableRecord
100
AcDbBlockTableRecord
2
_U4
340
0
70
0
0
ENDTAB
0
ENDSEC
0
SECTION
2
BLOCKS
0
BLOCK
5
20
100
AcDbEntity
8
0
100
AcDbBlockBegin
2
*Model_Space
70
0
10
0
20
0
30
0
3
*Model_Space
0
ENDBLK
5
21
100
AcDbEntity
8
0
100
AcDbBlockEnd
0
BLOCK
5
1C
100
AcDbEntity
8
0
100
AcDbBlockBegin
2
*Paper_Space
70
0
10
0
20
0
30
0
3
*Paper_Space
0
ENDBLK
5
1D
100
AcDbEntity
8
0
100
AcDbBlockEnd
0
BLOCK
5
24
100
AcDbEntity
8
0
100
AcDbBlockBegin
2
*Paper_Space0
70
0
10
0
20
0
30
0
3
*Paper_Space0
0
ENDBLK
5
25
100
AcDbEntity
8
0
100
AcDbBlockEnd
0
BLOCK
5
363
100
AcDbEntity
8
0
100
AcDbBlockBegin
2
*D1
70
1
10
0
20
0
30
0
3
*D1
0
LINE
5
365
100
AcDbEntity
8
0
62
256
6
ByLayer
370
-2
48
1
60
0
100
AcDbLine
10
0
20
-35.5875
30
0
11
0
21
-86.025
31
0
39
0
210
0
220
0
230
1
0
LINE
5
366
100
AcDbEntity
8
0
62
256
6
ByLayer
370
-2
48
1
60
0
100
AcDbLine
10
265.9126
20
-28.575
30
0
11
265.9126
21
-86.025
31
0
39
0
210
0
220
0
230
1
0
LINE
5
367
100
AcDbEntity
8
0
62
256
6
ByLayer
370
-2
48
1
60
0
100
AcDbLine
10
4.175
20
-82.85
30
0
11
261.7376
21
-82.85
31
0
39
0
210
0
220
0
230
1
0
SOLID
5
368
100
AcDbEntity
8
0
62
256
6
ByLayer
370
-1
48
1
60
0
100
AcDbTrace
10
4.175
20
-82.154167
30
0
11
4.175
21
-83.545833
31
0
12
0
22
-82.85
32
0
13
0
23
-82.85
33
0
39
0
210
0
220
0
230
1
0
SOLID
5
369
100
AcDbEntity
8
0
62
256
6
ByLayer
370
-1
48
1
60
0
100
AcDbTrace
10
261.7376
20
-83.545833
30
0
11
261.7376
21
-82.154167
31
0
12
265.9126
22
-82.85
32
0
13
265.9126
23
-82.85
33
0
39
0
210
0
220
0
230
1
0
MTEXT
5
36A
100
AcDbEntity
8
0
62
256
6
ByLayer
370
18
48
1
60
0
100
AcDbMText
10
132.9563
20
-73.45625
30
0
210
0
220
0
230
1
1
\A1;265.9
40
4.5
41
0
44
1
50
0
71
5
72
5
7
iso_b_vert
0
POINT
5
36B
100
AcDbEntity
8
Defpoints
62
0
6
ByLayer
370
-1
48
1
60
0
100
AcDbPoint
10
0
20
-34
30
0
39
0
210
0
220
0
230
1
50
360
0
POINT
5
36C
100
AcDbEntity
8
Defpoints
62
0
6
ByLayer
370
-1
48
1
60
0
100
AcDbPoint
10
265.9126
20
-26.9875
30
0
39
0
210
0
220
0
230
1
50
360
0
POINT
5
36D
100
AcDbEntity
8
Defpoints
62
0
6
ByLayer
370
-1
48
1
60
0
100
AcDbPoint
10
265.9126
20
-82.85
30
0
39
0
210
0
220
0
230
1
50
360
0
ENDBLK
5
364
100
AcDbEntity
8
0
100
AcDbBlockEnd
0
BLOCK
5
375
100
AcDbEntity
8
0
100
AcDbBlockBegin
2
_U0
70
0
10
0
20
0
30
0
3
_U0
0
MTEXT
5
36F
100
AcDbEntity
8
2
62
256
6
ByLayer
370
18
48
1
60
0
100
AcDbMText
10
126.232744
20
-81.522328
30
0
210
0
220
0
230
1
1
\W0.7555;265.9
40
4.5
41
0
44
1.084337
50
0
71
7
72
5
7
iso_b_vert
0
LINE
5
370
100
AcDbEntity
8
2
62
256
6
ByLayer
370
13
48
1
60
0
100
AcDbLine
10
0
20
-35.5875
30
0
11
0
21
-86.025
31
0
39
0
210
0
220
0
230
1
0
LINE
5
371
100
AcDbEntity
8
2
62
256
6
ByLayer
370
13
48
1
60
0
100
AcDbLine
10
265.9126
20
-28.575
30
0
11
265.9126
21
-86.025
31
0
39
0
210
0
220
0
230
1
0
LINE
5
372
100
AcDbEntity
8
2
62
256
6
ByLayer
370
13
48
1
60
0
100
AcDbLine
10
0
20
-82.85
30
0
11
265.9126
21
-82.85
31
0
39
0
210
0
220
0
230
1
0
SOLID
5
373
100
AcDbEntity
8
2
62
256
6
ByLayer
370
18
48
1
60
0
100
AcDbTrace
10
0
20
-82.85
30
0
11
4.174997
21
-81.924425
31
0
12
4.175003
22
-83.775575
32
0
13
4.175003
23
-83.775575
33
0
39
0
210
0
220
0
230
1
0
SOLID
5
374
100
AcDbEntity
8
2
62
256
6
ByLayer
370
18
48
1
60
0
100
AcDbTrace
10
265.9126
20
-82.85
30
0
11
261.737603
21
-83.775575
31
0
12
261.737597
22
-81.924425
32
0
13
261.737597
23
-81.924425
33
0
39
0
210
0
220
0
230
1
0
ENDBLK
5
376
100
AcDbEntity
8
0
100
AcDbBlockEnd
0
BLOCK
5
37B
100
AcDbEntity
8
0
100
AcDbBlockBegin
2
*D3
70
1
10
0
20
0
30
0
3
*D3
0
LINE
5
37D
100
AcDbEntity
8
0
62
256
6
ByLayer
370
-2
48
1
60
0
100
AcDbLine
10
-18
20
-26.5875
30
0
11
-18
21
-86.025
31
0
39
0
210
0
220
0
230
1
0
LINE
5
37E
100
AcDbEntity
8
0
62
256
6
ByLayer
370
-2
48
1
60
0
100
AcDbLine
10
0
20
-35.5875
30
0
11
0
21
-86.025
31
0
39
0
210
0
220
0
230
1
0
LINE
5
37F
100
AcDbEntity
8
0
62
256
6
ByLayer
370
-2
48
1
60
0
100
AcDbLine
10
-22.175
20
-82.85
30
0
11
-26.35
21
-82.85
31
0
39
0
210
0
220
0
230
1
0
LINE
5
380
100
AcDbEntity
8
0
62
256
6
ByLayer
370
-2
48
1
60
0
100
AcDbLine
10
4.175
20
-82.85
30
0
11
8.35
21
-82.85
31
0
39
0
210
0
220
0
230
1
0
SOLID
5
381
100
AcDbEntity
8
0
62
256
6
ByLayer
370
-1
48
1
60
0
100
AcDbTrace
10
-22.175
20
-83.545833
30
0
11
-22.175
21
-82.154167
31
0
12
-18
22
-82.85
32
0
13
-18
23
-82.85
33
0
39
0
210
0
220
0
230
1
0
SOLID
5
382
100
AcDbEntity
8
0
62
256
6
ByLayer
370
-1
48
1
60
0
100
AcDbTrace
10
4.175
20
-82.154167
30
0
11
4.175
21
-83.545833
31
0
12
0
22
-82.85
32
0
13
0
23
-82.85
33
0
39
0
210
0
220
0
230
1
0
MTEXT
5
383
100
AcDbEntity
8
0
62
256
6
ByLayer
370
18
48
1
60
0
100
AcDbMText
10
-9
20
-73.45625
30
0
210
0
220
0
230
1
1
\A1;18
40
4.5
41
0
44
1
50
0
71
5
72
5
7
iso_b_vert
0
POINT
5
384
100
AcDbEntity
8
Defpoints
62
0
6
ByLayer
370
-1
48
1
60
0
100
AcDbPoint
10
-18
20
-25
30
0
39
0
210
0
220
0
230
1
50
360
0
POINT
5
385
100
AcDbEntity
8
Defpoints
62
0
6
ByLayer
370
-1
48
1
60
0
100
AcDbPoint
10
0
20
-34
30
0
39
0
210
0
220
0
230
1
50
360
0
POINT
5
386
100
AcDbEntity
8
Defpoints
62
0
6
ByLayer
370
-1
48
1
60
0
100
AcDbPoint
10
0
20
-82.85
30
0
39
0
210
0
220
0
230
1
50
360
0
ENDBLK
5
37C
100
AcDbEntity
8
0
100
AcDbBlockEnd
0
BLOCK
5
38E
100
AcDbEntity
8
0
100
AcDbBlockBegin
2
_U1
70
0
10
0
20
0
30
0
3
_U1
0
MTEXT
5
388
100
AcDbEntity
8
SK2
62
256
6
ByLayer
370
18
48
1
60
0
100
AcDbMText
10
-10.886828
20
-81.522328
30
0
210
0
220
0
230
1
1
\W0.5321;18
40
4.5
41
0
44
1.084337
50
0
71
7
72
5
7
iso_b_vert
0
LINE
5
389
100
AcDbEntity
8
SK2
62
256
6
ByLayer
370
13
48
1
60
0
100
AcDbLine
10
-18
20
-26.5875
30
0
11
-18
21
-86.025
31
0
39
0
210
0
220
0
230
1
0
LINE
5
38A
100
AcDbEntity
8
SK2
62
256
6
ByLayer
370
13
48
1
60
0
100
AcDbLine
10
0
20
-35.5875
30
0
11
0
21
-86.025
31
0
39
0
210
0
220
0
230
1
0
LINE
5
38B
100
AcDbEntity
8
SK2
62
256
6
ByLayer
370
13
48
1
60
0
100
AcDbLine
10
-18
20
-82.85
30
0
11
0
21
-82.85
31
0
39
0
210
0
220
0
230
1
0
SOLID
5
38C
100
AcDbEntity
8
SK2
62
256
6
ByLayer
370
18
48
1
60
0
100
AcDbTrace
10
-18
20
-82.85
30
0
11
-13.825003
21
-81.924425
31
0
12
-13.824997
22
-83.775575
32
0
13
-13.824997
23
-83.775575
33
0
39
0
210
0
220
0
230
1
0
SOLID
5
38D
100
AcDbEntity
8
SK2
62
256
6
ByLayer
370
18
48
1
60
0
100
AcDbTrace
10
0
20
-82.85
30
0
11
-4.174997
21
-83.775575
31
0
12
-4.175003
22
-81.924425
32
0
13
-4.175003
23
-81.924425
33
0
39
0
210
0
220
0
230
1
0
ENDBLK
5
38F
100
AcDbEntity
8
0
100
AcDbBlockEnd
0
BLOCK
5
394
100
AcDbEntity
8
0
100
AcDbBlockBegin
2
*D5
70
1
10
0
20
0
30
0
3
*D5
0
LINE
5
396
100
AcDbEntity
8
0
62
256
6
ByLayer
370
-2
48
1
60
0
100
AcDbLine
10
265.9126
20
-28.575
30
0
11
265.9126
21
-76.025
31
0
39
0
210
0
220
0
230
1
0
LINE
5
397
100
AcDbEntity
8
0
62
256
6
ByLayer
370
-2
48
1
60
0
100
AcDbLine
10
17.5094
20
-35.5875
30
0
11
17.5094
21
-76.025
31
0
39
0
210
0
220
0
230
1
0
LINE
5
398
100
AcDbEntity
8
0
62
256
6
ByLayer
370
-2
48
1
60
0
100
AcDbLine
10
261.7376
20
-72.85
30
0
11
21.6844
21
-72.85
31
0
39
0
210
0
220
0
230
1
0
SOLID
5
399
100
AcDbEntity
8
0
62
256
6
ByLayer
370
-1
48
1
60
0
100
AcDbTrace
10
261.7376
20
-73.545833
30
0
11
261.7376
21
-72.154167
31
0
12
265.9126
22
-72.85
32
0
13
265.9126
23
-72.85
33
0
39
0
210
0
220
0
230
1
0
SOLID
5
39A
100
AcDbEntity
8
0
62
256
6
ByLayer
370
-1
48
1
60
0
100
AcDbTrace
10
21.6844
20
-72.154167
30
0
11
21.6844
21
-73.545833
31
0
12
17.5094
22
-72.85
32
0
13
17.5094
23
-72.85
33
0
39
0
210
0
220
0
230
1
0
MTEXT
5
39B
100
AcDbEntity
8
0
62
256
6
ByLayer
370
18
48
1
60
0
100
AcDbMText
10
141.711
20
-63.45625
30
0
210
0
220
0
230
1
1
\A1;248.4
40
4.5
41
0
44
1
50
0
71
5
72
5
7
iso_b_vert
0
POINT
5
39C
100
AcDbEntity
8
Defpoints
62
0
6
ByLayer
370
-1
48
1
60
0
100
AcDbPoint
10
265.9126
20
-26.9875
30
0
39
0
210
0
220
0
230
1
50
360
0
POINT
5
39D
100
AcDbEntity
8
Defpoints
62
0
6
ByLayer
370
-1
48
1
60
0
100
AcDbPoint
10
17.5094
20
-34
30
0
39
0
210
0
220
0
230
1
50
360
0
POINT
5
39E
100
AcDbEntity
8
Defpoints
62
0
6
ByLayer
370
-1
48
1
60
0
100
AcDbPoint
10
17.5094
20
-72.85
30
0
39
0
210
0
220
0
230
1
50
360
0
ENDBLK
5
395
100
AcDbEntity
8
0
100
AcDbBlockEnd
0
BLOCK
5
3A6
100
AcDbEntity
8
0
100
AcDbBlockBegin
2
_U2
70
0
10
0
20
0
30
0
3
_U2
0
MTEXT
5
3A0
100
AcDbEntity
8
SK2
62
256
6
ByLayer
370
18
48
1
60
0
100
AcDbMText
10
134.513616
20
-71.522328
30
0
210
0
220
0
230
1
1
\W0.7868;248.4
40
4.5
41
0
44
1.084337
50
0
71
7
72
5
7
iso_b_vert
0
LINE
5
3A1
100
AcDbEntity
8
SK2
62
256
6
ByLayer
370
13
48
1
60
0
100
AcDbLine
10
265.9126
20
-28.575
30
0
11
265.9126
21
-76.025
31
0
39
0
210
0
220
0
230
1
0
LINE
5
3A2
100
AcDbEntity
8
SK2
62
256
6
ByLayer
370
13
48
1
60
0
100
AcDbLine
10
17.5094
20
-35.5875
30
0
11
17.5094
21
-76.025
31
0
39
0
210
0
220
0
230
1
0
LINE
5
3A3
100
AcDbEntity
8
SK2
62
256
6
ByLayer
370
13
48
1
60
0
100
AcDbLine
10
265.9126
20
-72.85
30
0
11
17.5094
21
-72.85
31
0
39
0
210
0
220
0
230
1
0
SOLID
5
3A4
100
AcDbEntity
8
SK2
62
256
6
ByLayer
370
18
48
1
60
0
100
AcDbTrace
10
265.9126
20
-72.85
30
0
11
261.737603
21
-73.775575
31
0
12
261.737597
22
-71.924425
32
0
13
261.737597
23
-71.924425
33
0
39
0
210
0
220
0
230
1
0
SOLID
5
3A5
100
AcDbEntity
8
SK2
62
256
6
ByLayer
370
18
48
1
60
0
100
AcDbTrace
10
17.5094
20
-72.85
30
0
11
21.684397
21
-71.924425
31
0
12
21.684403
22
-73.775575
32
0
13
21.684403
23
-73.775575
33
0
39
0
210
0
220
0
230
1
0
ENDBLK
5
3A7
100
AcDbEntity
8
0
100
AcDbBlockEnd
0
BLOCK
5
3AC
100
AcDbEntity
8
0
100
AcDbBlockBegin
2
*D7
70
1
10
0
20
0
30
0
3
*D7
0
LINE
5
3AE
100
AcDbEntity
8
0
62
256
6
ByLayer
370
-2
48
1
60
0
100
AcDbLine
10
45.4914
20
-28.575
30
0
11
45.4914
21
-66.025
31
0
39
0
210
0
220
0
230
1
0
LINE
5
3AF
100
AcDbEntity
8
0
62
256
6
ByLayer
370
-2
48
1
60
0
100
AcDbLine
10
265.9126
20
-28.575
30
0
11
265.9126
21
-66.025
31
0
39
0
210
0
220
0
230
1
0
LINE
5
3B0
100
AcDbEntity
8
0
62
256
6
ByLayer
370
-2
48
1
60
0
100
AcDbLine
10
49.6664
20
-62.85
30
0
11
261.7376
21
-62.85
31
0
39
0
210
0
220
0
230
1
0
SOLID
5
3B1
100
AcDbEntity
8
0
62
256
6
ByLayer
370
-1
48
1
60
0
100
AcDbTrace
10
49.6664
20
-62.154167
30
0
11
49.6664
21
-63.545833
31
0
12
45.4914
22
-62.85
32
0
13
45.4914
23
-62.85
33
0
39
0
210
0
220
0
230
1
0
SOLID
5
3B2
100
AcDbEntity
8
0
62
256
6
ByLayer
370
-1
48
1
60
0
100
AcDbTrace
10
261.7376
20
-63.545833
30
0
11
261.7376
21
-62.154167
31
0
12
265.9126
22
-62.85
32
0
13
265.9126
23
-62.85
33
0
39
0
210
0
220
0
230
1
0
MTEXT
5
3B3
100
AcDbEntity
8
0
62
256
6
ByLayer
370
18
48
1
60
0
100
AcDbMText
10
155.702
20
-53.45625
30
0
210
0
220
0
230
1
1
\A1;220.4
40
4.5
41
0
44
1
50
0
71
5
72
5
7
iso_b_vert
0
POINT
5
3B4
100
AcDbEntity
8
Defpoints
62
0
6
ByLayer
370
-1
48
1
60
0
100
AcDbPoint
10
45.4914
20
-26.9875
30
0
39
0
210
0
220
0
230
1
50
360
0
POINT
5
3B5
100
AcDbEntity
8
Defpoints
62
0
6
ByLayer
370
-1
48
1
60
0
100
AcDbPoint
10
265.9126
20
-26.9875
30
0
39
0
210
0
220
0
230
1
50
360
0
POINT
5
3B6
100
AcDbEntity
8
Defpoints
62
0
6
ByLayer
370
-1
48
1
60
0
100
AcDbPoint
10
265.9126
20
-62.85
30
0
39
0
210
0
220
0
230
1
50
360
0
ENDBLK
5
3AD
100
AcDbEntity
8
0
100
AcDbBlockEnd
0
BLOCK
5
3BE
100
AcDbEntity
8
0
100
AcDbBlockBegin
2
_U3
70
0
10
0
20
0
30
0
3
_U3
0
MTEXT
5
3B8
100
AcDbEntity
8
SK2
62
256
6
ByLayer
370
18
48
1
60
0
100
AcDbMText
10
148.74153
20
-61.522328
30
0
210
0
220
0
230
1
1
\W0.7607;220.4
40
4.5
41
0
44
1.084337
50
0
71
7
72
5
7
iso_b_vert
0
LINE
5
3B9
100
AcDbEntity
8
SK2
62
256
6
ByLayer
370
13
48
1
60
0
100
AcDbLine
10
45.4914
20
-28.575
30
0
11
45.4914
21
-66.025
31
0
39
0
210
0
220
0
230
1
0
LINE
5
3BA
100
AcDbEntity
8
SK2
62
256
6
ByLayer
370
13
48
1
60
0
100
AcDbLine
10
265.9126
20
-28.575
30
0
11
265.9126
21
-66.025
31
0
39
0
210
0
220
0
230
1
0
LINE
5
3BB
100
AcDbEntity
8
SK2
62
256
6
ByLayer
370
13
48
1
60
0
100
AcDbLine
10
45.4914
20
-62.85
30
0
11
265.9126
21
-62.85
31
0
39
0
210
0
220
0
230
1
0
SOLID
5
3BC
100
AcDbEntity
8
SK2
62
256
6
ByLayer
370
18
48
1
60
0
100
AcDbTrace
10
45.4914
20
-62.85
30
0
11
49.666397
21
-61.924425
31
0
12
49.666403
22
-63.775575
32
0
13
49.666403
23
-63.775575
33
0
39
0
210
0
220
0
230
1
0
SOLID
5
3BD
100
AcDbEntity
8
SK2
62
256
6
ByLayer
370
18
48
1
60
0
100
AcDbTrace
10
265.9126
20
-62.85
30
0
11
261.737603
21
-63.775575
31
0
12
261.737597
22
-61.924425
32
0
13
261.737597
23
-61.924425
33
0
39
0
210
0
220
0
230
1
0
ENDBLK
5
3BF
100
AcDbEntity
8
0
100
AcDbBlockEnd
0
BLOCK
5
3C4
100
AcDbEntity
8
0
100
AcDbBlockBegin
2
*D9
70
1
10
0
20
0
30
0
3
*D9
0
LINE
5
3C6
100
AcDbEntity
8
0
62
256
6
ByLayer
370
-2
48
1
60
0
100
AcDbLine
10
264.3235
20
-15.08125
30
0
11
264.3235
21
-56.025
31
0
39
0
210
0
220
0
230
1
0
LINE
5
3C7
100
AcDbEntity
8
0
62
256
6
ByLayer
370
-2
48
1
60
0
100
AcDbLine
10
265.9126
20
-1.5875
30
0
11
265.9126
21
-56.025
31
0
39
0
210
0
220
0
230
1
0
LINE
5
3C8
100
AcDbEntity
8
0
62
256
6
ByLayer
370
-2
48
1
60
0
100
AcDbLine
10
265.9126
20
-52.85
30
0
11
301.407243
21
-52.85
31
0
39
0
210
0
220
0
230
1
0
LINE
5
3C9
100
AcDbEntity
8
0
62
256
6
ByLayer
370
-2
48
1
60
0
100
AcDbLine
10
260.1485
20
-52.85
30
0
11
255.9735
21
-52.85
31
0
39
0
210
0
220
0
230
1
0
LINE
5
3CA
100
AcDbEntity
8
0
62
256
6
ByLayer
370
-2
48
1
60
0
100
AcDbLine
10
270.0876
20
-52.85
30
0
11
274.2626
21
-52.85
31
0
39
0
210
0
220
0
230
1
0
SOLID
5
3CB
100
AcDbEntity
8
0
62
256
6
ByLayer
370
-1
48
1
60
0
100
AcDbTrace
10
260.1485
20
-53.545833
30
0
11
260.1485
21
-52.154167
31
0
12
264.3235
22
-52.85
32
0
13
264.3235
23
-52.85
33
0
39
0
210
0
220
0
230
1
0
SOLID
5
3CC
100
AcDbEntity
8
0
62
256
6
ByLayer
370
-1
48
1
60
0
100
AcDbTrace
10
270.0876
20
-52.154167
30
0
11
270.0876
21
-53.545833
31
0
12
265.9126
22
-52.85
32
0
13
265.9126
23
-52.85
33
0
39
0
210
0
220
0
230
1
0
MTEXT
5
3CD
100
AcDbEntity
8
0
62
256
6
ByLayer
370
18
48
1
60
0
100
AcDbMText
10
287.834921
20
-43.45625
30
0
210
0
220
0
230
1
1
\A1;1.59
40
4.5
41
0
44
1
50
0
71
5
72
5
7
iso_b_vert
0
POINT
5
3CE
100
AcDbEntity
8
Defpoints
62
0
6
ByLayer
370
-1
48
1
60
0
100
AcDbPoint
10
264.3235
20
-13.49375
30
0
39
0
210
0
220
0
230
1
50
360
0
POINT
5
3CF
100
AcDbEntity
8
Defpoints
62
0
6
ByLayer
370
-1
48
1
60
0
100
AcDbPoint
10
265.9126
20
0
30
0
39
0
210
0
220
0
230
1
50
360
0
POINT
5
3D0
100
AcDbEntity
8
Defpoints
62
0
6
ByLayer
370
-1
48
1
60
0
100
AcDbPoint
10
265.9126
20
-52.85
30
0
39
0
210
0
220
0
230
1
50
360
0
ENDBLK
5
3C5
100
AcDbEntity
8
0
100
AcDbBlockEnd
0
BLOCK
5
3D8
100
AcDbEntity
8
0
100
AcDbBlockBegin
2
_U4
70
0
10
0
20
0
30
0
3
_U4
0
MTEXT
5
3D2
100
AcDbEntity
8
2
62
256
6
ByLayer
370
18
48
1
60
0
100
AcDbMText
10
278.2636
20
-51.522328
30
0
210
0
220
0
230
1
1
\W0.6662;1.59
40
4.5
41
0
44
1.084337
50
0
71
7
72
5
7
iso_b_vert
0
LINE
5
3D3
100
AcDbEntity
8
2
62
256
6
ByLayer
370
13
48
1
60
0
100
AcDbLine
10
264.3235
20
-15.08125
30
0
11
264.3235
21
-56.025
31
0
39
0
210
0
220
0
230
1
0
LINE
5
3D4
100
AcDbEntity
8
2
62
256
6
ByLayer
370
13
48
1
60
0
100
AcDbLine
10
265.9126
20
-1.5875
30
0
11
265.9126
21
-56.025
31
0
39
0
210
0
220
0
230
1
0
LINE
5
3D5
100
AcDbEntity
8
2
62
256
6
ByLayer
370
13
48
1
60
0
100
AcDbLine
10
287.461641
20
-52.85
30
0
11
253.0735
21
-52.85
31
0
39
0
210
0
220
0
230
1
0
SOLID
5
3D6
100
AcDbEntity
8
2
62
256
6
ByLayer
370
18
48
1
60
0
100
AcDbTrace
10
264.3235
20
-52.85
30
0
11
260.148503
21
-53.775575
31
0
12
260.148497
22
-51.924425
32
0
13
260.148497
23
-51.924425
33
0
39
0
210
0
220
0
230
1
0
SOLID
5
3D7
100
AcDbEntity
8
2
62
256
6
ByLayer
370
18
48
1
60
0
100
AcDbTrace
10
265.9126
20
-52.85
30
0
11
270.087597
21
-51.924425
31
0
12
270.087603
22
-53.775575
32
0
13
270.087603
23
-53.775575
33
0
39
0
210
0
220
0
230
1
0
ENDBLK
5
3D9
100
AcDbEntity
8
0
100
AcDbBlockEnd
0
ENDSEC
0
SECTION
2
ENTITIES
0
ARC
5
192
100
AcDbEntity
8
SK1
62
256
6
ByLayer
370
13
48
1
60
0
100
AcDbCircle
39
0
10
-0.3
20
25.4
30
0
40
0.600000000000001
210
0
220
0
230
1
100
AcDbArc
50
270
51
300
0
ARC
5
193
100
AcDbEntity
8
SK1
62
256
6
ByLayer
370
13
48
1
60
0
100
AcDbCircle
39
0
10
-0.3
20
-25.4
30
0
40
0.600000000000001
210
0
220
0
230
1
100
AcDbArc
50
60
51
90
0
ARC
5
194
100
AcDbEntity
8
1
62
256
6
ByLayer
370
13
48
1
60
0
100
AcDbCircle
39
0
10
261.987868
20
25.223446
30
0
40
0.2
210
0
220
0
230
1
100
AcDbArc
50
8.973565
51
93
0
ARC
5
195
100
AcDbEntity
8
1
62
256
6
ByLayer
370
13
48
1
60
0
100
AcDbCircle
39
0
10
262.178938
20
8.967696
30
0
40
0.2
210
0
220
0
230
1
100
AcDbArc
50
273
51
352.54557
0
ARC
5
196
100
AcDbEntity
8
1
62
256
6
ByLayer
370
13
48
1
60
0
100
AcDbCircle
39
0
10
247.7816
20
24.213208
30
0
40
0.2
210
0
220
0
230
1
100
AcDbArc
50
79.98854
51
93
0
ARC
5
197
100
AcDbEntity
8
1
62
256
6
ByLayer
370
13
48
1
60
0
100
AcDbCircle
39
0
10
247.972669
20
7.957458
30
0
40
0.2
210
0
220
0
230
1
100
AcDbArc
50
273
51
303.773583
0
ARC
5
198
100
AcDbEntity
8
1
62
256
6
ByLayer
370
13
48
1
60
0
100
AcDbCircle
39
0
10
7.5
20
-30
30
0
40
0.5
210
0
220
0
230
1
100
AcDbArc
50
90
51
180
0
ARC
5
199
100
AcDbEntity
8
1
62
256
6
ByLayer
370
13
48
1
60
0
100
AcDbCircle
39
0
10
7.5
20
30
30
0
40
0.5
210
0
220
0
230
1
100
AcDbArc
50
180
51
270
0
ELLIPSE
5
19A
100
AcDbEntity
8
1
62
256
6
ByLayer
370
13
48
1
60
0
100
AcDbEllipse
10
246.295859
20
6.966741
30
0
11
-0.0287847759336422
21
0.549246244115004
31
0
210
0
220
0
230
1
40
0.995562
41
1.67551608191458
42
3.06145142476609
0
ELLIPSE
5
19B
100
AcDbEntity
8
1
62
256
6
ByLayer
370
13
48
1
60
0
100
AcDbEllipse
10
247.351037
20
26.454694
30
0
11
-2.48301234157223
21
1.51818592336101
31
0
210
0
220
0
230
1
40
0.473313
41
1.21629760398727
42
1.24195530866484
0
ELLIPSE
5
19C
100
AcDbEntity
8
1
62
256
6
ByLayer
370
13
48
1
60
0
100
AcDbEllipse
10
244.875601
20
15.960752
30
0
11
-0.0287847759336418
21
0.549246244114996
31
0
210
0
220
0
230
1
40
0.995562
41
1.38753675533526
42
1.67551608191442
0
ELLIPSE
5
19D
100
AcDbEntity
8
1
62
256
6
ByLayer
370
13
48
1
60
0
100
AcDbEllipse
10
264.17637
20
8.374056
30
0
11
-0.223426994105841
21
-1.09873072402421
31
0
210
0
220
0
230
1
40
0.060635
41
1.06536321123014
42
1.25922197790952
0
ELLIPSE
5
19E
100
AcDbEntity
8
1
62
256
6
ByLayer
370
13
48
1
60
0
100
AcDbEllipse
10
260.70727
20
27.154658
30
0
11
-0.109905508110273
21
2.09712202298461
31
0
210
0
220
0
230
1
40
0.995562
41
-2.42263142026254
42
-1.82037975282031
0
ELLIPSE
5
19F
100
AcDbEntity
8
1
62
256
6
ByLayer
370
13
48
1
60
0
100
AcDbEllipse
10
265.061442
20
17.218921
30
0
11
0.0366351693700598
21
-0.699040674328184
31
0
210
0
220
0
230
1
40
0.995562
41
1.38753675533531
42
1.67551608191448
0
ELLIPSE
5
1A0
100
AcDbEntity
8
1
62
256
6
ByLayer
370
13
48
1
60
0
100
AcDbEllipse
10
248.180381
20
26.498152
30
0
11
-0.104671912485974
21
1.99725906950914
31
0
210
0
220
0
230
1
40
0.995562
41
2.85175890392129
42
-3.14159265358771
0
ELLIPSE
5
1A1
100
AcDbEntity
8
1
62
256
6
ByLayer
370
13
48
1
60
0
100
AcDbEllipse
10
263.207012
20
25.012769
30
0
11
-0.0915879234252266
21
1.7476016858205
31
0
210
0
220
0
230
1
40
0.995562
41
-0.0245785262960212
42
-0.00872664625997228
0
ELLIPSE
5
1A2
100
AcDbEntity
8
1
62
256
6
ByLayer
370
13
48
1
60
0
100
AcDbEllipse
10
247.189161
20
15.990633
30
0
11
0.0444855628065025
21
-0.848835104541391
31
0
210
0
220
0
230
1
40
0.995562
41
-1.75405589825428
42
-1.46607657167515
0
ELLIPSE
5
1A3
100
AcDbEntity
8
1
62
256
6
ByLayer
370
13
48
1
60
0
100
AcDbEllipse
10
247.430829
20
24.254206
30
0
11
-0.0420204304816642
21
-0.159048282699009
31
0
210
0
220
0
230
1
40
0.081731
41
-3.11535881189007
42
-1.54456248510321
0
ELLIPSE
5
1A4
100
AcDbEntity
8
1
62
256
6
ByLayer
370
13
48
1
60
0
100
AcDbEllipse
10
246.364233
20
16.102513
30
0
11
-0.148732254109673
21
0.0194606420103676
31
0
210
0
220
0
230
1
40
0.01715
41
1.47811763731105
42
3.0489139641096
0
ELLIPSE
5
1A5
100
AcDbEntity
8
1
62
256
6
ByLayer
370
13
48
1
60
0
100
AcDbEllipse
10
246.314655
20
6.967726
30
0
11
0.0366351693700602
21
-0.699040674328192
31
0
210
0
220
0
230
1
40
0.995562
41
-1.46607657167307
42
-0.0801412288216038
0
ELLIPSE
5
1A6
100
AcDbEntity
8
1
62
256
6
ByLayer
370
13
48
1
60
0
100
AcDbEllipse
10
247.064374
20
6.466062
30
0
11
0.0126644888425859
21
-0.24165284268559
31
0
210
0
220
0
230
1
40
0.995562
41
0.174532925201101
42
1.3212129007734
0
ELLIPSE
5
1A7
100
AcDbEntity
8
1
62
256
6
ByLayer
370
13
48
1
60
0
100
AcDbEllipse
10
249.248569
20
6.026
30
0
11
-0.109905508110273
21
2.09712202298461
31
0
210
0
220
0
230
1
40
0.995562
41
0.718961233329338
42
1.32121290077159
0
ELLIPSE
5
1A8
100
AcDbEntity
8
1
62
256
6
ByLayer
370
13
48
1
60
0
100
AcDbEllipse
10
246.520727
20
15.163424
30
0
11
-0.457939617126135
21
8.7380084291025
31
0
210
0
220
0
230
1
40
0.995562
41
3.06145142476609
42
3.11701412729372
0
ELLIPSE
5
1A9
100
AcDbEntity
8
1
62
256
6
ByLayer
370
13
48
1
60
0
100
AcDbEllipse
10
263.144707
20
26.761839
30
0
11
-0.00653707867981058
21
0.149857487641873
31
0
210
0
220
0
230
1
40
0.094105
41
0.000824900290362992
42
1.57162122708202
0
ELLIPSE
5
1AA
100
AcDbEntity
8
1
62
256
6
ByLayer
370
13
48
1
60
0
100
AcDbEllipse
10
263.416315
20
18.016249
30
0
11
0.465790010562201
21
-8.88780285931571
31
0
210
0
220
0
230
1
40
0.995562
41
3.06145142476613
42
3.11701412729375
0
ELLIPSE
5
1AB
100
AcDbEntity
8
1
62
256
6
ByLayer
370
13
48
1
60
0
100
AcDbEllipse
10
246.715934
20
8.166165
30
0
11
-0.0915879234252266
21
1.7476016858205
31
0
210
0
220
0
230
1
40
0.995562
41
3.11701412729371
42
3.13286600732977
0
ELLIPSE
5
1AC
100
AcDbEntity
8
1
62
256
6
ByLayer
370
13
48
1
60
0
100
AcDbEllipse
10
262.771377
20
17.190271
30
0
11
-0.0261679781214936
21
0.499314767377289
31
0
210
0
220
0
230
1
40
0.995562
41
-1.7540558982542
42
-1.46607657167509
0
ELLIPSE
5
1AD
100
AcDbEntity
8
1
62
256
6
ByLayer
370
13
48
1
60
0
100
AcDbEllipse
10
260.584896
20
27.148245
30
0
11
-1.74911089440887
21
-1.53532677658085
31
0
210
0
220
0
230
1
40
0.758703
41
1.05561565777708
42
2.06133695402299
0
ELLIPSE
5
1AE
100
AcDbEntity
8
1
62
256
6
ByLayer
370
13
48
1
60
0
100
AcDbEllipse
10
262.677136
20
26.703363
30
0
11
-0.279576450841521
21
-0.214084669593743
31
0
210
0
220
0
230
1
40
0.473311
41
-2.3629804473666
42
-1.21630047180042
0
ELLIPSE
5
1AF
100
AcDbEntity
8
1
62
256
6
ByLayer
370
13
48
1
60
0
100
AcDbEllipse
10
254.999065
20
16.591437
30
0
11
0.164592752017137
21
-3.14061679904834
31
0
210
0
220
0
230
1
40
0.995562
41
0
42
6.28318530717959
0
ELLIPSE
5
1B0
100
AcDbEntity
8
1
62
256
6
ByLayer
370
13
48
1
60
0
100
AcDbEllipse
10
247.226752
20
15.992603
30
0
11
-0.0261679781214936
21
0.499314767377289
31
0
210
0
220
0
230
1
40
0.995562
41
1.38753675533554
42
1.67551608191464
0
ELLIPSE
5
1B1
100
AcDbEntity
8
1
62
256
6
ByLayer
370
13
48
1
60
0
100
AcDbEllipse
10
246.73473
20
8.16715
30
0
11
0.0994383168615929
21
-1.89739611603368
31
0
210
0
220
0
230
1
40
0.995562
41
-0.0245785262939696
42
-0.00872664625787192
0
ELLIPSE
5
1B2
100
AcDbEntity
8
1
62
256
6
ByLayer
370
13
48
1
60
0
100
AcDbEllipse
10
260.897555
20
27.164636
30
0
11
-2.31071456773538
21
-1.76941399735897
31
0
210
0
220
0
230
1
40
0.473313
41
1.89963701584237
42
1.92529473539003
0
ELLIPSE
5
1B3
100
AcDbEntity
8
1
62
256
6
ByLayer
370
13
48
1
60
0
100
AcDbEllipse
10
260.068211
20
27.121166
30
0
11
0.104671912485888
21
-1.99725906950915
31
0
210
0
220
0
230
1
40
0.995562
41
0
42
0.289833749668365
0
ELLIPSE
5
1B4
100
AcDbEntity
8
1
62
256
6
ByLayer
370
13
48
1
60
0
100
AcDbEllipse
10
265.047345
20
17.218182
30
0
11
-0.0287847759336418
21
0.549246244114996
31
0
210
0
220
0
230
1
40
0.995562
41
-1.75405589825443
42
-1.46607657167532
0
ELLIPSE
5
1B5
100
AcDbEntity
8
1
62
256
6
ByLayer
370
13
48
1
60
0
100
AcDbEllipse
10
246.539523
20
15.164409
30
0
11
0.465790010562201
21
-8.88780285931571
31
0
210
0
220
0
230
1
40
0.995562
41
-0.0801412288215679
42
-0.0245785262939523
0
ELLIPSE
5
1B6
100
AcDbEntity
8
1
62
256
6
ByLayer
370
13
48
1
60
0
100
AcDbEllipse
10
261.987868
20
25.223446
30
0
11
-0.111182483439546
21
0.166248174053778
31
0
210
0
220
0
230
1
40
0.080951
41
-1.61896516661963
42
-0.0481688398255666
0
ELLIPSE
5
1B7
100
AcDbEntity
8
1
62
256
6
ByLayer
370
13
48
1
60
0
100
AcDbEllipse
10
264.181988
20
26.298844
30
0
11
0.148164061728344
21
0.0233968120084646
31
0
210
0
220
0
230
1
40
0.009837
41
0.0937345075274513
42
1.66453083432272
0
ELLIPSE
5
1B8
100
AcDbEntity
8
1
62
256
6
ByLayer
370
13
48
1
60
0
100
AcDbEllipse
10
264.573803
20
9.270901
30
0
11
0.148732254109667
21
-0.0194606420104151
31
0
210
0
220
0
230
1
40
0.01715
41
-1.66347501627743
42
-0.0926786894795107
0
ELLIPSE
5
1B9
100
AcDbEntity
8
1
62
256
6
ByLayer
370
13
48
1
60
0
100
AcDbEllipse
10
262.952805
20
26.703461
30
0
11
0.0104671912485891
21
-0.19972590695092
31
0
210
0
220
0
230
1
40
0.995562
41
3.13286600733081
42
-1.82037975282018
0
ELLIPSE
5
1BA
100
AcDbEntity
8
1
62
256
6
ByLayer
370
13
48
1
60
0
100
AcDbEllipse
10
254.893792
20
16.58592
30
0
11
0.156043507061195
21
-2.97748748746714
31
0
210
0
220
0
230
1
40
0.995562
41
0
42
6.28318530717959
0
ELLIPSE
5
1BB
100
AcDbEntity
8
1
62
256
6
ByLayer
370
13
48
1
60
0
100
AcDbEllipse
10
246.806433
20
6.418573
30
0
11
0.0065370786798103
21
-0.149857487641873
31
0
210
0
220
0
230
1
40
0.094105
41
-1.56997142650759
42
0.000824900286335887
0
ELLIPSE
5
1BC
100
AcDbEntity
8
1
62
256
6
ByLayer
370
13
48
1
60
0
100
AcDbEllipse
10
264.045533
20
8.078913
30
0
11
-0.0433887748288927
21
-0.261709363858562
31
0
210
0
220
0
230
1
40
0.938419
41
0.311574363779649
42
0.505433111816106
0
ELLIPSE
5
1BD
100
AcDbEntity
8
1
62
256
6
ByLayer
370
13
48
1
60
0
100
AcDbEllipse
10
265.066141
20
17.219167
30
0
11
0.0366351693700598
21
-0.699040674328184
31
0
210
0
220
0
230
1
40
0.995562
41
1.38753675533316
42
1.67551608191235
0
ELLIPSE
5
1BE
100
AcDbEntity
8
1
62
256
6
ByLayer
370
13
48
1
60
0
100
AcDbEllipse
10
247.663695
20
26.471073
30
0
11
-1.90001443048482
21
1.34408422197748
31
0
210
0
220
0
230
1
40
0.758703
41
1.08025569956692
42
2.08597699581347
0
ELLIPSE
5
1BF
100
AcDbEntity
8
1
62
256
6
ByLayer
370
13
48
1
60
0
100
AcDbEllipse
10
263.221108
20
25.013508
30
0
11
0.0994383168615929
21
-1.89739611603368
31
0
210
0
220
0
230
1
40
0.995562
41
3.11701412729371
42
3.1328660073298
0
ELLIPSE
5
1C0
100
AcDbEntity
8
1
62
256
6
ByLayer
370
13
48
1
60
0
100
AcDbEllipse
10
247.207956
20
15.991618
30
0
11
0.0366351693700609
21
-0.699040674328205
31
0
210
0
220
0
230
1
40
0.995562
41
-1.75405589825427
42
-1.4660765716752
0
ELLIPSE
5
1C1
100
AcDbEntity
8
1
62
256
6
ByLayer
370
13
48
1
60
0
100
AcDbEllipse
10
260.70727
20
27.154658
30
0
11
-0.104671912485974
21
1.99725906950914
31
0
210
0
220
0
230
1
40
0.995562
41
3.14159265358759
42
-1.82037975282031
0
ELLIPSE
5
1C2
100
AcDbEntity
8
1
62
256
6
ByLayer
370
13
48
1
60
0
100
AcDbEllipse
10
254.565245
20
24.509584
30
0
11
0.0104671912485888
21
-0.199725906950915
31
0
210
0
220
0
230
1
40
0.094108
41
1.5707963267949
42
3.14159265358828
0
ELLIPSE
5
1C3
100
AcDbEntity
8
1
62
256
6
ByLayer
370
13
48
1
60
0
100
AcDbEllipse
10
264.573803
20
9.270901
30
0
11
0.00785039343644127
21
-0.14979443021318
31
0
210
0
220
0
230
1
40
0.995562
41
0.113446401376518
42
1.38753675533509
0
ELLIPSE
5
1C4
100
AcDbEntity
8
1
62
256
6
ByLayer
370
13
48
1
60
0
100
AcDbEllipse
10
263.421014
20
18.016495
30
0
11
0.465790010562201
21
-8.88780285931571
31
0
210
0
220
0
230
1
40
0.995562
41
3.061451424764
42
3.11701412729162
0
ELLIPSE
5
1C5
100
AcDbEntity
8
1
62
256
6
ByLayer
370
13
48
1
60
0
100
AcDbEllipse
10
261.780157
20
6.682753
30
0
11
-0.104671912485974
21
1.99725906950914
31
0
210
0
220
0
230
1
40
0.995562
41
-0.289833749672767
42
-2.1424687512278E-12
0
ELLIPSE
5
1C6
100
AcDbEntity
8
1
62
256
6
ByLayer
370
13
48
1
60
0
100
AcDbEllipse
10
264.580311
20
9.285263
30
0
11
-0.0433887818678744
21
-0.261709360228238
31
0
210
0
220
0
230
1
40
0.938419
41
0.311574391779312
42
1.60722929343381
0
ELLIPSE
5
1C7
100
AcDbEntity
8
1
62
256
6
ByLayer
370
13
48
1
60
0
100
AcDbEllipse
10
244.894397
20
15.961737
30
0
11
0.0366351693700598
21
-0.699040674328184
31
0
210
0
220
0
230
1
40
0.995562
41
-1.75405589825238
42
-1.46607657167319
0
ELLIPSE
5
1C8
100
AcDbEntity
8
1
62
256
6
ByLayer
370
13
48
1
60
0
100
AcDbEllipse
10
262.945924
20
26.753167
30
0
11
-0.00653707867981058
21
0.149857487641873
31
0
210
0
220
0
230
1
40
0.094105
41
0.000824900290362992
42
1.57162122708202
0
ELLIPSE
5
1C9
100
AcDbEntity
8
1
62
256
6
ByLayer
370
13
48
1
60
0
100
AcDbEllipse
10
262.752581
20
17.189286
30
0
11
0.0366351693700609
21
-0.699040674328205
31
0
210
0
220
0
230
1
40
0.995562
41
1.38753675533556
42
1.67551608191464
0
ELLIPSE
5
1CA
100
AcDbEntity
8
1
62
256
6
ByLayer
370
13
48
1
60
0
100
AcDbEllipse
10
245.629419
20
25.80993
30
0
11
-0.300422843309021
21
0.183688194597314
31
0
210
0
220
0
230
1
40
0.473311
41
-1.92529218180355
42
-0.778612206218051
0
ELLIPSE
5
1CB
100
AcDbEntity
8
1
62
256
6
ByLayer
370
13
48
1
60
0
100
AcDbEllipse
10
245.382036
20
23.909757
30
0
11
0.00785039343644127
21
-0.14979443021318
31
0
210
0
220
0
230
1
40
0.995562
41
-3.02814625221095
42
-1.75405589825259
0
ELLIPSE
5
1CC
100
AcDbEntity
8
1
62
256
6
ByLayer
370
13
48
1
60
0
100
AcDbEllipse
10
262.234431
20
25.576943
30
0
11
0.00523359562429421
21
-0.0998629534754538
31
0
210
0
220
0
230
1
40
0.995562
41
-2.42263142026251
42
-1.46607657167818
0
ELLIPSE
5
1CD
100
AcDbEntity
8
1
62
256
6
ByLayer
370
13
48
1
60
0
100
AcDbEllipse
10
264.573803
20
9.270901
30
0
11
-0.0248313114069583
21
0.147930409226131
31
0
210
0
220
0
230
1
40
0.093503
41
1.56009588092892
42
3.1308922077277
0
ELLIPSE
5
1CE
100
AcDbEntity
8
1
62
256
6
ByLayer
370
13
48
1
60
0
100
AcDbEllipse
10
263.402218
20
18.01551
30
0
11
-0.457939617126135
21
8.7380084291025
31
0
210
0
220
0
230
1
40
0.995562
41
-0.080141228823665
42
-0.0245785262960327
0
ELLIPSE
5
1CF
100
AcDbEntity
8
1
62
256
6
ByLayer
370
13
48
1
60
0
100
AcDbEllipse
10
262.178938
20
8.967696
30
0
11
0.0347690313632911
21
0.196954599992126
31
0
210
0
220
0
230
1
40
0.091713
41
-3.1204029627723
42
-1.54960663601778
0
ELLIPSE
5
1D0
100
AcDbEntity
8
1
62
256
6
ByLayer
370
13
48
1
60
0
100
AcDbEllipse
10
246.988936
20
6.476458
30
0
11
-0.00261679781214962
21
0.0499314767377338
31
0
210
0
220
0
230
1
40
0.995562
41
3.13286600733338
42
-1.82037975281811
0
ELLIPSE
5
1D1
100
AcDbEntity
8
1
62
256
6
ByLayer
370
13
48
1
60
0
100
AcDbEllipse
10
246.367469
20
15.858599
30
0
11
-0.148164061728341
21
-0.0233968120084838
31
0
210
0
220
0
230
1
40
0.009837
41
-3.0478581460696
42
-1.47706181926945
0
ELLIPSE
5
1D2
100
AcDbEntity
8
1
62
256
6
ByLayer
370
13
48
1
60
0
100
AcDbEllipse
10
247.726106
20
7.603961
30
0
11
0.00523359562429421
21
-0.0998629534754538
31
0
210
0
220
0
230
1
40
0.995562
41
0.718961233331635
42
1.67551608191591
0
ELLIPSE
5
1D3
100
AcDbEntity
8
1
62
256
6
ByLayer
370
13
48
1
60
0
100
AcDbEllipse
10
247.7816
20
24.213208
30
0
11
-0.0347690313633023
21
-0.196954599992124
31
0
210
0
220
0
230
1
40
0.091713
41
1.59198601757159
42
-3.1204029628497
0
ELLIPSE
5
1D4
100
AcDbEntity
8
1
62
256
6
ByLayer
370
13
48
1
60
0
100
AcDbEllipse
10
264.578502
20
9.271147
30
0
11
0.00785039343644127
21
-0.14979443021318
31
0
210
0
220
0
230
1
40
0.995562
41
0.113446401374284
42
1.38753675533316
0
ELLIPSE
5
1D5
100
AcDbEntity
8
1
62
256
6
ByLayer
370
13
48
1
60
0
100
AcDbEllipse
10
249.253268
20
6.026246
30
0
11
-0.104671912485974
21
1.99725906950914
31
0
210
0
220
0
230
1
40
0.995562
41
0
42
1.32121290077369
0
ELLIPSE
5
1D6
100
AcDbEntity
8
1
62
256
6
ByLayer
370
13
48
1
60
0
100
AcDbEllipse
10
262.46689
20
8.865999
30
0
11
0.00523359562429421
21
-0.0998629534754539
31
0
210
0
220
0
230
1
40
0.995562
41
-1.75405589825606
42
0.113446401378842
0
ELLIPSE
5
1D7
100
AcDbEntity
8
1
62
256
6
ByLayer
370
13
48
1
60
0
100
AcDbEllipse
10
262.896164
20
26.714842
30
0
11
0.0126644888425859
21
-0.24165284268559
31
0
210
0
220
0
230
1
40
0.995562
41
-2.96705972839286
42
-1.82037975282051
0
ELLIPSE
5
1D8
100
AcDbEntity
8
1
62
256
6
ByLayer
370
13
48
1
60
0
100
AcDbEllipse
10
247.972669
20
7.957458
30
0
11
0.197552082304459
21
0.0311957493446195
31
0
210
0
220
0
230
1
40
0.009837
41
-3.04785814606583
42
-1.47706181926837
0
ELLIPSE
5
1D9
100
AcDbEntity
8
1
62
256
6
ByLayer
370
13
48
1
60
0
100
AcDbEllipse
10
249.253268
20
6.026246
30
0
11
-0.109905508110273
21
2.09712202298461
31
0
210
0
220
0
230
1
40
0.995562
41
0.718961233331477
42
1.32121290077371
0
ELLIPSE
5
1DA
100
AcDbEntity
8
1
62
256
6
ByLayer
370
13
48
1
60
0
100
AcDbEllipse
10
246.714413
20
16.056995
30
0
11
-0.198309672146231
21
0.0259475226804901
31
0
210
0
220
0
230
1
40
0.01715
41
-1.66347501627419
42
-0.0926786894794932
0
ELLIPSE
5
1DB
100
AcDbEntity
8
1
62
256
6
ByLayer
370
13
48
1
60
0
100
AcDbEllipse
10
246.716316
20
15.913516
30
0
11
-0.197552082304455
21
-0.0311957493446451
31
0
210
0
220
0
230
1
40
0.009837
41
0.0937345075289495
42
1.66453083432344
0
ELLIPSE
5
1DC
100
AcDbEntity
8
1
62
256
6
ByLayer
370
13
48
1
60
0
100
AcDbEllipse
10
263.627087
20
26.212193
30
0
11
-0.0287847759336422
21
0.549246244115004
31
0
210
0
220
0
230
1
40
0.995562
41
-1.46607657167521
42
-0.0801412288237532
0
ELLIPSE
5
1DD
100
AcDbEntity
8
1
62
256
6
ByLayer
370
13
48
1
60
0
100
AcDbEllipse
10
262.93401
20
26.702476
30
0
11
-0.00261679781214962
21
0.0499314767377338
31
0
210
0
220
0
230
1
40
0.995562
41
-0.00872664625753618
42
1.32121290077168
0
ELLIPSE
5
1DE
100
AcDbEntity
8
1
62
256
6
ByLayer
370
13
48
1
60
0
100
AcDbEllipse
10
262.733785
20
17.188301
30
0
11
0.0444855628065025
21
-0.848835104541391
31
0
210
0
220
0
230
1
40
0.995562
41
1.38753675533555
42
1.67551608191467
0
ELLIPSE
5
1DF
100
AcDbEntity
8
1
62
256
6
ByLayer
370
13
48
1
60
0
100
AcDbEllipse
10
247.051849
20
6.467388
30
0
11
-0.147123305935861
21
0.0292358145175225
31
0
210
0
220
0
230
1
40
0.023245
41
1.47945230342064
42
3.05024863021233
0
ELLIPSE
5
1E0
100
AcDbEntity
8
1
62
256
6
ByLayer
370
13
48
1
60
0
100
AcDbEllipse
10
247.203257
20
15.991372
30
0
11
-0.036635169370091
21
0.699040674328203
31
0
210
0
220
0
230
1
40
0.995562
41
1.38753675533552
42
1.67551608191464
0
ELLIPSE
5
1E1
100
AcDbEntity
8
1
62
256
6
ByLayer
370
13
48
1
60
0
100
AcDbEllipse
10
265.602246
20
17.304833
30
0
11
0.148164061728344
21
0.0233968120084646
31
0
210
0
220
0
230
1
40
0.009837
41
0.0937345075153592
42
1.66453083432196
0
ELLIPSE
5
1E2
100
AcDbEntity
8
1
62
256
6
ByLayer
370
13
48
1
60
0
100
AcDbEllipse
10
247.007732
20
6.477443
30
0
11
0.0104671912485891
21
-0.19972590695092
31
0
210
0
220
0
230
1
40
0.995562
41
-0.00872664625484327
42
1.32121290077401
0
ELLIPSE
5
1E3
100
AcDbEntity
8
1
62
256
6
ByLayer
370
13
48
1
60
0
100
AcDbEllipse
10
263.225807
20
25.013754
30
0
11
0.0994383168615929
21
-1.89739611603368
31
0
210
0
220
0
230
1
40
0.995562
41
3.11701412729157
42
3.1328660073277
0
ELLIPSE
5
1E4
100
AcDbEntity
8
1
62
256
6
ByLayer
370
13
48
1
60
0
100
AcDbEllipse
10
247.721407
20
7.603715
30
0
11
0.00523359562429421
21
-0.0998629534754538
31
0
210
0
220
0
230
1
40
0.995562
41
0.718961233329035
42
1.67551608191448
0
ELLIPSE
5
1E5
100
AcDbEntity
8
1
62
256
6
ByLayer
370
13
48
1
60
0
100
AcDbEllipse
10
262.520311
20
8.926205
30
0
11
-0.0420204304908105
21
-0.159048282726083
31
0
210
0
220
0
230
1
40
0.081731
41
-1.54456248492698
42
0.0262338416756087
0
ELLIPSE
5
1E6
100
AcDbEntity
8
1
62
256
6
ByLayer
370
13
48
1
60
0
100
AcDbEllipse
10
245.380227
20
23.895641
30
0
11
-0.0433887818506831
21
-0.26170936023395
31
0
210
0
220
0
230
1
40
0.938419
41
-2.83001826187208
42
-1.53436336022917
0
ELLIPSE
5
1E7
100
AcDbEntity
8
1
62
256
6
ByLayer
370
13
48
1
60
0
100
AcDbEllipse
10
265.60434
20
17.147006
30
0
11
0.148732254109667
21
-0.0194606420104151
31
0
210
0
220
0
230
1
40
0.01715
41
-1.66347501627667
42
-0.0926786894815734
0
ELLIPSE
5
1E8
100
AcDbEntity
8
1
62
256
6
ByLayer
370
13
48
1
60
0
100
AcDbEllipse
10
247.7816
20
24.213208
30
0
11
0.198309672146222
21
-0.0259475226805535
31
0
210
0
220
0
230
1
40
0.01715
41
1.47811763731462
42
3.04891396409157
0
ELLIPSE
5
1E9
100
AcDbEntity
8
1
62
256
6
ByLayer
370
13
48
1
60
0
100
AcDbEllipse
10
249.234472
20
6.025261
30
0
11
0.117755901546624
21
-2.2469164531978
31
0
210
0
220
0
230
1
40
0.995562
41
-2.41106345636194
42
-1.8203797528182
0
ELLIPSE
5
1EA
100
AcDbEntity
8
1
62
256
6
ByLayer
370
13
48
1
60
0
100
AcDbEllipse
10
263.172307
20
26.762822
30
0
11
-0.0041502446489173
21
0.149942573905326
31
0
210
0
220
0
230
1
40
0.09408
41
0.00232311668849371
42
1.57311944348265
0
ELLIPSE
5
1EB
100
AcDbEntity
8
1
62
256
6
ByLayer
370
13
48
1
60
0
100
AcDbEllipse
10
263.656266
20
26.76271
30
0
11
0.00422000339726432
21
0.149940626820509
31
0
210
0
220
0
230
1
40
0.093806
41
0.00756732553555061
42
1.57836365232731
0
ELLIPSE
5
1EC
100
AcDbEntity
8
1
62
256
6
ByLayer
370
13
48
1
60
0
100
AcDbEllipse
10
247.430829
20
24.254206
30
0
11
-0.157457627828834
21
-0.0472734989275234
31
0
210
0
220
0
230
1
40
0.020424
41
-3.05807782802198
42
-1.48728150136329
0
ELLIPSE
5
1ED
100
AcDbEntity
8
1
62
256
6
ByLayer
370
13
48
1
60
0
100
AcDbEllipse
10
247.493648
20
24.314905
30
0
11
0.00523359562429421
21
-0.0998629534754539
31
0
210
0
220
0
230
1
40
0.995562
41
1.38753675533807
42
-3.02814625220808
0
ELLIPSE
5
1EE
100
AcDbEntity
8
1
62
256
6
ByLayer
370
13
48
1
60
0
100
AcDbEllipse
10
260.688474
20
27.153673
30
0
11
0.117755901546624
21
-2.2469164531978
31
0
210
0
220
0
230
1
40
0.995562
41
0.730529197227911
42
1.32121290077163
0
ELLIPSE
5
1EF
100
AcDbEntity
8
1
62
256
6
ByLayer
370
13
48
1
60
0
100
AcDbEllipse
10
263.645883
20
26.213178
30
0
11
0.0366351693700602
21
-0.699040674328192
31
0
210
0
220
0
230
1
40
0.995562
41
1.67551608191251
42
3.06145142476389
0
ELLIPSE
5
1F0
100
AcDbEntity
8
1
62
256
6
ByLayer
370
13
48
1
60
0
100
AcDbEllipse
10
263.641184
20
26.212932
30
0
11
0.0366351693700602
21
-0.699040674328192
31
0
210
0
220
0
230
1
40
0.995562
41
1.67551608191464
42
3.06145142476603
0
ELLIPSE
5
1F1
100
AcDbEntity
8
1
62
256
6
ByLayer
370
13
48
1
60
0
100
AcDbEllipse
10
255.395293
20
8.67132
30
0
11
0.0104671912485888
21
-0.199725906950915
31
0
210
0
220
0
230
1
40
0.094108
41
0
42
1.5707963267949
0
ELLIPSE
5
1F2
100
AcDbEntity
8
1
62
256
6
ByLayer
370
13
48
1
60
0
100
AcDbEllipse
10
264.089664
20
0.113868
30
0
11
-0.0113378430464218
21
0.505675108715098
31
0
210
0
220
0
230
1
40
0.101977
41
-0.132873607196123
42
0.273557514975673
0
ELLIPSE
5
1F3
100
AcDbEntity
8
1
62
256
6
ByLayer
370
13
48
1
60
0
100
AcDbEllipse
10
263.868618
20
-18.047492
30
0
11
-0.0633255062541375
21
-0.515835214083434
31
0
210
0
220
0
230
1
40
0.114634
41
-1.6548442278669
42
-0.0840479010729324
0
ELLIPSE
5
1F4
100
AcDbEntity
8
1
62
256
6
ByLayer
370
13
48
1
60
0
100
AcDbEllipse
10
264.193818
20
0.104484
30
0
11
-0.0226756860742319
21
1.01135021663313
31
0
210
0
220
0
230
1
40
0.101977
41
-0.132873607248041
42
1.0502624791815
0
ELLIPSE
5
1F5
100
AcDbEntity
8
1
62
256
6
ByLayer
370
13
48
1
60
0
100
AcDbEllipse
10
249.675281
20
6.798139
30
0
11
0.363113722374514
21
-0.93174482806363
31
0
210
0
220
0
230
1
40
0.089392
41
-1.60033673645362
42
-0.0295404096582984
0
ELLIPSE
5
1F6
100
AcDbEntity
8
1
62
256
6
ByLayer
370
13
48
1
60
0
100
AcDbEllipse
10
264.314455
20
6.501995
30
0
11
-0.0102042325858848
21
0.500148583931151
31
0
210
0
220
0
230
1
40
0.104753
41
1.92321123472948
42
-2.78917774564353
0
ELLIPSE
5
1F7
100
AcDbEntity
8
1
62
256
6
ByLayer
370
13
48
1
60
0
100
AcDbEllipse
10
265.763206
20
0
30
0
11
-55.1865299890142
21
23.7078976015635
31
0
210
0
220
0
230
1
40
0.195305
41
1.00294619963259
42
1.10829350376262
0
ELLIPSE
5
1F8
100
AcDbEntity
8
1
62
256
6
ByLayer
370
13
48
1
60
0
100
AcDbEllipse
10
264.109068
20
10.25954
30
0
11
-0.0983568277891465
21
3.09891781335186
31
0
210
0
220
0
230
1
40
0.524515
41
2.87100423223473
42
-3.13404170237246
0
ELLIPSE
5
1F9
100
AcDbEntity
8
1
62
256
6
ByLayer
370
13
48
1
60
0
100
AcDbEllipse
10
269.627902
20
0.785654
30
0
11
-6.03300374459759
21
-0.0231415831581622
31
0
210
0
220
0
230
1
40
0.987582
41
0.0314684136527957
42
0.152442736216341
0
ELLIPSE
5
1FA
100
AcDbEntity
8
1
62
256
6
ByLayer
370
13
48
1
60
0
100
AcDbEllipse
10
246.336845
20
15.183887
30
0
11
-0.471023606186882
21
8.98766581279115
31
0
210
0
220
0
230
1
40
0.995562
41
2.79252680319575
42
2.96271820098512
0
ELLIPSE
5
1FB
100
AcDbEntity
8
1
62
256
6
ByLayer
370
13
48
1
60
0
100
AcDbEllipse
10
253.640729
20
-3.457129
30
0
11
-0.523359562429869
21
9.98629534754572
31
0
210
0
220
0
230
1
40
0.995562
41
0
42
0.317924582301151
0
ELLIPSE
5
1FC
100
AcDbEntity
8
1
62
256
6
ByLayer
370
13
48
1
60
0
100
AcDbEllipse
10
267.879392
20
2.732583
30
0
11
-5.9027978068558
21
-1.86846302752972
31
0
210
0
220
0
230
1
40
0.801344
41
-0.368738717036922
42
-0.221186648619979
0
ELLIPSE
5
1FD
100
AcDbEntity
8
1
62
256
6
ByLayer
370
13
48
1
60
0
100
AcDbEllipse
10
258.946175
20
-8.827778
30
0
11
-6.0330038865382
21
-0.0231420695570371
31
0
210
0
220
0
230
1
40
0.987582
41
3.00761196427755
42
-2.98914999872475
0
ELLIPSE
5
1FE
100
AcDbEntity
8
1
62
256
6
ByLayer
370
13
48
1
60
0
100
AcDbEllipse
10
275.562207
20
-0.000111
30
0
11
-278.746499611524
21
0.131356643109475
31
0
210
0
220
0
230
1
40
0.094396
41
-1.46109610845385
42
-1.45168739569382
0
ELLIPSE
5
1FF
100
AcDbEntity
8
1
62
256
6
ByLayer
370
13
48
1
60
0
100
AcDbEllipse
10
253.546749
20
-3.462054
30
0
11
0.575695518672383
21
-10.9849248823003
31
0
210
0
220
0
230
1
40
0.995562
41
-3.14159265358977
42
-2.82366807128865
0
ELLIPSE
5
200
100
AcDbEntity
8
1
62
256
6
ByLayer
370
13
48
1
60
0
100
AcDbEllipse
10
244.007921
20
11.227403
30
0
11
-0.0261679781214935
21
0.499314767377286
31
0
210
0
220
0
230
1
40
0.995562
41
-2.31498441521963
42
-1.46607657167532
0
ELLIPSE
5
201
100
AcDbEntity
8
1
62
256
6
ByLayer
370
13
48
1
60
0
100
AcDbEllipse
10
263.125513
20
-17.936723
30
0
11
-0.291053107699737
21
-2.49507138666325
31
0
210
0
220
0
230
1
40
0.118752
41
0
42
6.28318530717959
0
ELLIPSE
5
202
100
AcDbEntity
8
1
62
256
6
ByLayer
370
13
48
1
60
0
100
AcDbEllipse
10
237.9126
20
6.431633
30
0
11
-5.85812523003971
21
1.82325594253137
31
0
210
0
220
0
230
1
40
0.711399
41
1.39011052273244
42
1.59074138273043
0
ELLIPSE
5
203
100
AcDbEntity
8
1
62
256
6
ByLayer
370
13
48
1
60
0
100
AcDbEllipse
10
254.453745
20
7.80085
30
0
11
-4.04277876212371
21
-0.708917706376263
31
0
210
0
220
0
230
1
40
0.014774
41
-3.02036303301841
42
-2.68601592148487
0
ELLIPSE
5
204
100
AcDbEntity
8
1
62
256
6
ByLayer
370
13
48
1
60
0
100
AcDbEllipse
10
264.16209
20
-2.555228
30
0
11
-2.68948612348386
21
4.53355127972583
31
0
210
0
220
0
230
1
40
0.340052
41
-1.01892359383384
42
-0.882558681044848
0
ELLIPSE
5
205
100
AcDbEntity
8
1
62
256
6
ByLayer
370
13
48
1
60
0
100
AcDbEllipse
10
246.499553
20
8.916088
30
0
11
-1.97200940006886
21
-2.4526501888814
31
0
210
0
220
0
230
1
40
0.965978
41
1.55736417581569
42
1.84422629187492
0
ELLIPSE
5
206
100
AcDbEntity
8
1
62
256
6
ByLayer
370
13
48
1
60
0
100
AcDbEllipse
10
5.5
20
-29.498313
30
0
11
-0.5
21
5.05319527541181E-16
31
0
210
0
220
0
230
1
40
0.5
41
1.5707963267949
42
3.14159265358979
0
ELLIPSE
5
207
100
AcDbEntity
8
1
62
256
6
ByLayer
370
13
48
1
60
0
100
AcDbEllipse
10
2541.452471
20
1E-05
30
0
11
-4429.12539531926
21
22.2859257482272
31
0
210
0
220
0
230
1
40
0.003159
41
1.02505640396392
42
1.03017870626718
0
ELLIPSE
5
208
100
AcDbEntity
8
1
62
256
6
ByLayer
370
13
48
1
60
0
100
AcDbEllipse
10
280.647599
20
12.589729
30
0
11
-25.1535667119195
21
-4.41136796089679
31
0
210
0
220
0
230
1
40
0.014756
41
0.450668635567319
42
0.454805978227136
0
ELLIPSE
5
209
100
AcDbEntity
8
1
62
256
6
ByLayer
370
13
48
1
60
0
100
AcDbEllipse
10
237.9126
20
7.025209
30
0
11
-4
21
4.04255622032945E-15
31
0
210
0
220
0
230
1
40
0.760465
41
-2.61131263463097
42
-1.69128261149873
0
ELLIPSE
5
20A
100
AcDbEntity
8
1
62
256
6
ByLayer
370
13
48
1
60
0
100
AcDbEllipse
10
246.795894
20
16.55087
30
0
11
0.162241464353126
21
-3.09575155773918
31
0
210
0
220
0
230
1
40
0.995562
41
-2.23430559079014
42
-1.46607657167525
0
ELLIPSE
5
20B
100
AcDbEntity
8
1
62
256
6
ByLayer
370
13
48
1
60
0
100
AcDbEllipse
10
275.562088
20
-1E-05
30
0
11
-275.887021295622
21
0.129997991047562
31
0
210
0
220
0
230
1
40
0.094396
41
-1.43948714871542
42
-1.4221065283054
0
ELLIPSE
5
20C
100
AcDbEntity
8
1
62
256
6
ByLayer
370
13
48
1
60
0
100
AcDbEllipse
10
250.088337
20
7.572069
30
0
11
-0.0261679781214934
21
0.499314767377286
31
0
210
0
220
0
230
1
40
0.995562
41
0.927295216956161
42
1.13183444118519
0
ELLIPSE
5
20D
100
AcDbEntity
8
1
62
256
6
ByLayer
370
13
48
1
60
0
100
AcDbEllipse
10
237.9126
20
0.450306
30
0
11
-0.604369622521201
21
16.7275254324491
31
0
210
0
220
0
230
1
40
0.356866
41
-0.538918385691279
42
-0.374368618295892
0
ELLIPSE
5
20E
100
AcDbEntity
8
1
62
256
6
ByLayer
370
13
48
1
60
0
100
AcDbEllipse
10
264.042424
20
0
30
0
11
-4.49680094240481
21
26.3101388484677
31
0
210
0
220
0
230
1
40
0.083412
41
1.57649485954964
42
1.76804502399986
0
ELLIPSE
5
20F
100
AcDbEntity
8
1
62
256
6
ByLayer
370
13
48
1
60
0
100
AcDbEllipse
10
3496.533311
20
-1.511691
30
0
11
-3379.85712706723
21
1.58691266724946
31
0
210
0
220
0
230
1
40
0.028602
41
-0.273652088148104
42
-0.270348382555686
0
ELLIPSE
5
210
100
AcDbEntity
8
1
62
256
6
ByLayer
370
13
48
1
60
0
100
AcDbEllipse
10
253.065033
20
7.527796
30
0
11
0.0523359562429439
21
-0.998629534754574
31
0
210
0
220
0
230
1
40
0.094108
41
-1.5707963267949
42
0
0
ELLIPSE
5
211
100
AcDbEntity
8
1
62
256
6
ByLayer
370
13
48
1
60
0
100
AcDbEllipse
10
249.76708
20
7.555232
30
0
11
-0.318066032253673
21
-0.395588740154173
31
0
210
0
220
0
230
1
40
0.965978
41
-2.06962855864784
42
-1.29736636175479
0
ELLIPSE
5
212
100
AcDbEntity
8
1
62
256
6
ByLayer
370
13
48
1
60
0
100
AcDbEllipse
10
246.768476
20
8.930182
30
0
11
0.162241464353126
21
-3.09575155773918
31
0
210
0
220
0
230
1
40
0.995562
41
-2.31498441521959
42
-0.58256001627022
0
ELLIPSE
5
213
100
AcDbEntity
8
1
62
256
6
ByLayer
370
13
48
1
60
0
100
AcDbEllipse
10
263.693475
20
8.084809
30
0
11
-0.02040846515421
21
1.00029716750887
31
0
210
0
220
0
230
1
40
0.104753
41
-3.13824359604377
42
-2.54308583863132
0
ELLIPSE
5
214
100
AcDbEntity
8
1
62
256
6
ByLayer
370
13
48
1
60
0
100
AcDbEllipse
10
264.428132
20
10.276262
30
0
11
0.162241464353126
21
-3.09575155773918
31
0
210
0
220
0
230
1
40
0.995562
41
-0.998377754702095
42
-0.804393367027818
0
ELLIPSE
5
215
100
AcDbEntity
8
1
62
256
6
ByLayer
370
13
48
1
60
0
100
AcDbEllipse
10
256.979766
20
11.337899
30
0
11
-1.97200940121759
21
-2.4526501877252
31
0
210
0
220
0
230
1
40
0.965978
41
0.71239185119766
42
1.04314259899491
0
ELLIPSE
5
216
100
AcDbEntity
8
1
62
256
6
ByLayer
370
13
48
1
60
0
100
AcDbEllipse
10
245.760489
20
8.877355
30
0
11
-2.7431016515847
21
2.20554168966298
31
0
210
0
220
0
230
1
40
0.772244
41
3.13694524739892
42
-2.77548047984786
0
ELLIPSE
5
217
100
AcDbEntity
8
1
62
256
6
ByLayer
370
13
48
1
60
0
100
AcDbEllipse
10
246.336845
20
15.183887
30
0
11
-0.471023606186882
21
8.98766581279115
31
0
210
0
220
0
230
1
40
0.995562
41
-2.92946901796116
42
-2.82366807128866
0
ELLIPSE
5
218
100
AcDbEntity
8
1
62
256
6
ByLayer
370
13
48
1
60
0
100
AcDbEllipse
10
266.754631
20
0
30
0
11
-3.15855536008883
21
-26.3101684507372
31
0
210
0
220
0
230
1
40
0.118096
41
-1.27546499741785
42
-0.0998557933073557
0
ELLIPSE
5
219
100
AcDbEntity
8
1
62
256
6
ByLayer
370
13
48
1
60
0
100
AcDbEllipse
10
246.768476
20
8.930182
30
0
11
0.162241464353126
21
-3.09575155773918
31
0
210
0
220
0
230
1
40
0.995562
41
0.615809199294184
42
1.13183444118514
0
ELLIPSE
5
21A
100
AcDbEntity
8
1
62
256
6
ByLayer
370
13
48
1
60
0
100
AcDbEllipse
10
261.52161
20
8.171261
30
0
11
-0.0261679781214935
21
0.499314767377287
31
0
210
0
220
0
230
1
40
0.995562
41
-0.998377754701986
42
-0.927295218001446
0
ELLIPSE
5
21B
100
AcDbEntity
8
1
62
256
6
ByLayer
370
13
48
1
60
0
100
AcDbEllipse
10
246.003065
20
7.357969
30
0
11
-4.04277875768544
21
-0.708917705579754
31
0
210
0
220
0
230
1
40
0.014774
41
-3.0203630325129
42
-2.66133983537731
0
ELLIPSE
5
21C
100
AcDbEntity
8
1
62
256
6
ByLayer
370
18
48
1
60
0
100
AcDbEllipse
10
254.727213
20
18.062526
30
0
11
-0.3918132668773
21
-0.0205340632083745
31
0
210
0
220
0
230
1
40
0.491907
41
0.288932900936098
42
1.5707963267949
0
ELLIPSE
5
21D
100
AcDbEntity
8
1
62
256
6
ByLayer
370
18
48
1
60
0
100
AcDbEllipse
10
254.95286
20
16.589016
30
0
11
0.0877359970456714
21
-1.67410255206257
31
0
210
0
220
0
230
1
40
0.995562
41
2.61799387799151
42
-2.61799387799149
0
ELLIPSE
5
21E
100
AcDbEntity
8
1
62
256
6
ByLayer
370
18
48
1
60
0
100
AcDbEllipse
10
254.95286
20
16.589016
30
0
11
0.0877359970456714
21
-1.67410255206257
31
0
210
0
220
0
230
1
40
0.995562
41
1.5707963267949
42
2.61799387799151
0
ELLIPSE
5
21F
100
AcDbEntity
8
1
62
256
6
ByLayer
370
18
48
1
60
0
100
AcDbEllipse
10
254.95286
20
16.589016
30
0
11
-0.0942047212373764
21
1.79753316255823
31
0
210
0
220
0
230
1
40
0.995562
41
0
42
6.28318530717959
0
ELLIPSE
5
220
100
AcDbEntity
8
1
62
256
6
ByLayer
370
18
48
1
60
0
100
AcDbEllipse
10
254.95286
20
16.589016
30
0
11
0.0877359970456714
21
-1.67410255206257
31
0
210
0
220
0
230
1
40
0.995562
41
0.523598775598297
42
1.5707963267949
0
ELLIPSE
5
221
100
AcDbEntity
8
1
62
256
6
ByLayer
370
18
48
1
60
0
100
AcDbEllipse
10
256.12078
20
15.907556
30
0
11
-0.177620434615897
21
-0.351315571663454
31
0
210
0
220
0
230
1
40
0.48863
41
-2.85513231724146
42
-1.57326889138202
0
ELLIPSE
5
222
100
AcDbEntity
8
1
62
256
6
ByLayer
370
18
48
1
60
0
100
AcDbEllipse
10
254.95286
20
16.589016
30
0
11
0.0877359970456714
21
-1.67410255206257
31
0
210
0
220
0
230
1
40
0.995562
41
-1.5707963267949
42
-0.523598775598294
0
ELLIPSE
5
223
100
AcDbEntity
8
1
62
256
6
ByLayer
370
18
48
1
60
0
100
AcDbEllipse
10
256.04315
20
17.388823
30
0
11
-0.213369888115866
21
0.330824637125975
31
0
210
0
220
0
230
1
40
0.48863
41
0.291405465520936
42
1.57326889138738
0
ELLIPSE
5
224
100
AcDbEntity
8
1
62
256
6
ByLayer
370
18
48
1
60
0
100
AcDbEllipse
10
256.04315
20
17.388823
30
0
11
-0.213369888118062
21
0.330824637125232
31
0
210
0
220
0
230
1
40
0.48863
41
1.57326889137496
42
2.85513231723992
0
ELLIPSE
5
225
100
AcDbEntity
8
1
62
256
6
ByLayer
370
18
48
1
60
0
100
AcDbEllipse
10
256.12078
20
15.907556
30
0
11
-0.177620434615484
21
-0.351315571662598
31
0
210
0
220
0
230
1
40
0.48863
41
-1.57326889138145
42
-0.291405465520065
0
ELLIPSE
5
226
100
AcDbEntity
8
1
62
256
6
ByLayer
370
18
48
1
60
0
100
AcDbEllipse
10
254.882473
20
15.099991
30
0
11
-0.391813266879039
21
-0.0205340632119819
31
0
210
0
220
0
230
1
40
0.491907
41
-1.5707963267949
42
-0.288932900935259
0
ELLIPSE
5
227
100
AcDbEntity
8
1
62
256
6
ByLayer
370
18
48
1
60
0
100
AcDbEllipse
10
254.804843
20
16.581258
30
0
11
0.0675290843402707
21
-1.28853168869383
31
0
210
0
220
0
230
1
40
0.995562
41
1.0471975511966
42
2.09439510239317
0
ELLIPSE
5
228
100
AcDbEntity
8
1
62
256
6
ByLayer
370
18
48
1
60
0
100
AcDbEllipse
10
254.95286
20
16.589016
30
0
11
0.0877359970456714
21
-1.67410255206257
31
0
210
0
220
0
230
1
40
0.995562
41
-2.61799387799149
42
-1.5707963267949
0
ELLIPSE
5
229
100
AcDbEntity
8
1
62
256
6
ByLayer
370
18
48
1
60
0
100
AcDbEllipse
10
254.804843
20
16.581258
30
0
11
0.0675290843402707
21
-1.28853168869383
31
0
210
0
220
0
230
1
40
0.995562
41
2.09439510239319
42
3.14159265358979
0
ELLIPSE
5
22A
100
AcDbEntity
8
1
62
256
6
ByLayer
370
18
48
1
60
0
100
AcDbEllipse
10
254.95286
20
16.589016
30
0
11
0.0877359970456714
21
-1.67410255206257
31
0
210
0
220
0
230
1
40
0.995562
41
-0.523598775598294
42
0.523598775598297
0
ELLIPSE
5
22B
100
AcDbEntity
8
1
62
256
6
ByLayer
370
18
48
1
60
0
100
AcDbEllipse
10
254.945417
20
16.588626
30
0
11
-0.149157475292513
21
2.84609417405053
31
0
210
0
220
0
230
1
40
0.995562
41
0
42
6.28318530717959
0
ELLIPSE
5
22C
100
AcDbEntity
8
1
62
256
6
ByLayer
370
18
48
1
60
0
100
AcDbEllipse
10
256.279636
20
16.658549
30
0
11
-0.0206256003553523
21
0.393559899646799
31
0
210
0
220
0
230
1
40
0.48755
41
-2.94566518558232
42
-0.320418374792432
0
ELLIPSE
5
22D
100
AcDbEntity
8
1
62
256
6
ByLayer
370
18
48
1
60
0
100
AcDbEllipse
10
254.9127
20
-7.998381
30
0
11
2
21
0
31
0
210
0
220
0
230
1
40
0.993021
41
0.50766187129624
42
2.85452971500335
0
ELLIPSE
5
22E
100
AcDbEntity
8
1
62
256
6
ByLayer
370
13
48
1
60
0
100
AcDbEllipse
10
264.045533
20
8.078913
30
0
11
-0.0433887818363396
21
-0.261709360238601
31
0
210
0
220
0
230
1
40
0.938419
41
0.50543314066151
42
1.30197962209247
0
ELLIPSE
5
22F
100
AcDbEntity
8
1
62
256
6
ByLayer
370
13
48
1
60
0
100
AcDbEllipse
10
262.899291
20
26.713024
30
0
11
0.147123305935861
21
-0.029235814517526
31
0
210
0
220
0
230
1
40
0.023245
41
3.05024863022255
42
-1.66214035016936
0
ELLIPSE
5
230
100
AcDbEntity
8
1
62
256
6
ByLayer
370
13
48
1
60
0
100
AcDbEllipse
10
263.583671
20
17.321813
30
0
11
0.148164061728344
21
0.0233968120084646
31
0
210
0
220
0
230
1
40
0.009837
41
1.6645308343246
42
2.85269002801979
0
ELLIPSE
5
231
100
AcDbEntity
8
1
62
256
6
ByLayer
370
13
48
1
60
0
100
AcDbEllipse
10
263.586906
20
17.077898
30
0
11
0.148732254109667
21
-0.0194606420104151
31
0
210
0
220
0
230
1
40
0.01715
41
-2.8547288977245
42
-1.66347501627403
0
ELLIPSE
5
232
100
AcDbEntity
8
1
62
256
6
ByLayer
370
13
48
1
60
0
100
AcDbEllipse
10
262.520311
20
8.926205
30
0
11
-0.157457627769257
21
-0.0472734989099797
31
0
210
0
220
0
230
1
40
0.020424
41
-1.48728150149374
42
-0.275077962986763
0
ELLIPSE
5
233
100
AcDbEntity
8
1
62
256
6
ByLayer
370
13
48
1
60
0
100
AcDbEllipse
10
262.462191
20
8.865753
30
0
11
0.00523359562429421
21
-0.0998629534754539
31
0
210
0
220
0
230
1
40
0.995562
41
-4.94053536696639E-06
42
0.11344640138403
0
ELLIPSE
5
234
100
AcDbEntity
8
1
62
256
6
ByLayer
370
13
48
1
60
0
100
AcDbEllipse
10
261.263472
20
6.655674
30
0
11
-1.52607791221752
21
-1.6741229095705
31
0
210
0
220
0
230
1
40
0.751206
41
2.57998255804563
42
-2.78125477169986
0
ELLIPSE
5
235
100
AcDbEntity
8
1
62
256
6
ByLayer
370
13
48
1
60
0
100
AcDbEllipse
10
261.141098
20
6.649261
30
0
11
0.104671912485888
21
-1.99725906950915
31
0
210
0
220
0
230
1
40
0.995562
41
2.05826004558855
42
2.70662470115244
0
ELLIPSE
5
236
100
AcDbEntity
8
1
62
256
6
ByLayer
370
13
48
1
60
0
100
AcDbEllipse
10
263.244222
20
17.267388
30
0
11
0.197552082304459
21
0.0311957493446195
31
0
210
0
220
0
230
1
40
0.009837
41
-1.47706181926983
42
8.3492090593103E-05
0
ELLIPSE
5
237
100
AcDbEntity
8
1
62
256
6
ByLayer
370
13
48
1
60
0
100
AcDbEllipse
10
261.987868
20
25.223446
30
0
11
-0.197552082304455
21
-0.0311957493446451
31
0
210
0
220
0
230
1
40
0.009837
41
1.66453083432194
42
-3.14150916130959
0
ELLIPSE
5
238
100
AcDbEntity
8
1
62
256
6
ByLayer
370
13
48
1
60
0
100
AcDbEllipse
10
263.246125
20
17.123909
30
0
11
0.198309672146222
21
-0.0259475226805535
31
0
210
0
220
0
230
1
40
0.01715
41
0.000128612672794012
42
1.47811763731193
0
ELLIPSE
5
239
100
AcDbEntity
8
1
62
256
6
ByLayer
370
13
48
1
60
0
100
AcDbEllipse
10
262.178938
20
8.967696
30
0
11
-0.198309672146231
21
0.0259475226804901
31
0
210
0
220
0
230
1
40
0.01715
41
-3.14146404085848
42
-1.66347501627678
0
ELLIPSE
5
23A
100
AcDbEntity
8
1
62
256
6
ByLayer
370
13
48
1
60
0
100
AcDbEllipse
10
254.919355
20
16.58726
30
0
11
0.161488764830068
21
-3.08138919525492
31
0
210
0
220
0
230
1
40
0.995562
41
-0.832617303636128
42
0
0
ELLIPSE
5
23B
100
AcDbEntity
8
1
62
256
6
ByLayer
370
13
48
1
60
0
100
AcDbEllipse
10
254.919355
20
16.58726
30
0
11
0.161488764830068
21
-3.08138919525492
31
0
210
0
220
0
230
1
40
0.995562
41
0
42
-2.30896949140973
0
ELLIPSE
5
23C
100
AcDbEntity
8
1
62
256
6
ByLayer
370
13
48
1
60
0
100
AcDbEllipse
10
247.488949
20
24.314659
30
0
11
0.00523359562429421
21
-0.0998629534754539
31
0
210
0
220
0
230
1
40
0.995562
41
1.38753675533634
42
3.14158945216298
0
ELLIPSE
5
23D
100
AcDbEntity
8
1
62
256
6
ByLayer
370
13
48
1
60
0
100
AcDbEllipse
10
247.005216
20
6.427244
30
0
11
0.0065370786798103
21
-0.149857487641873
31
0
210
0
220
0
230
1
40
0.094105
41
-1.56997142650759
42
-0.023459502068961
0
ELLIPSE
5
23E
100
AcDbEntity
8
1
62
256
6
ByLayer
370
13
48
1
60
0
100
AcDbEllipse
10
247.003033
20
6.477197
30
0
11
0.0104671912485891
21
-0.19972590695092
31
0
210
0
220
0
230
1
40
0.995562
41
0.0115983514804705
42
1.32121290077181
0
ELLIPSE
5
23F
100
AcDbEntity
8
1
62
256
6
ByLayer
370
13
48
1
60
0
100
AcDbEllipse
10
246.778833
20
6.417589
30
0
11
0.00415024464891698
21
-0.149942573905326
31
0
210
0
220
0
230
1
40
0.09408
41
-1.56847321010733
42
-0.0396676110907098
0
ELLIPSE
5
240
100
AcDbEntity
8
1
62
256
6
ByLayer
370
13
48
1
60
0
100
AcDbEllipse
10
245.377337
20
23.909511
30
0
11
0.02483131140694
21
-0.147930409226134
31
0
210
0
220
0
230
1
40
0.093503
41
-3.04696247442668
42
-1.58149677265349
0
ELLIPSE
5
241
100
AcDbEntity
8
1
62
256
6
ByLayer
370
13
48
1
60
0
100
AcDbEllipse
10
246.294873
20
6.417702
30
0
11
-0.00422000339726464
21
-0.149940626820509
31
0
210
0
220
0
230
1
40
0.093806
41
-1.56322900126248
42
-0.073694238897781
0
ELLIPSE
5
242
100
AcDbEntity
8
1
62
256
6
ByLayer
370
13
48
1
60
0
100
AcDbEllipse
10
245.275946
20
25.0685
30
0
11
-0.043388781825547
21
-0.261709360242053
31
0
210
0
220
0
230
1
40
0.938419
41
-2.83001826196358
42
-2.21164798407531
0
ELLIPSE
5
243
100
AcDbEntity
8
1
62
256
6
ByLayer
370
13
48
1
60
0
100
AcDbEllipse
10
245.377337
20
23.909511
30
0
11
-0.148732254109673
21
0.0194606420103676
31
0
210
0
220
0
230
1
40
0.01715
41
-0.0926786894788056
42
1.47811763731482
0
ELLIPSE
5
244
100
AcDbEntity
8
1
62
256
6
ByLayer
370
13
48
1
60
0
100
AcDbEllipse
10
245.769152
20
6.881567
30
0
11
-0.148164061728341
21
-0.0233968120084838
31
0
210
0
220
0
230
1
40
0.009837
41
-1.4770618192677
42
-0.267604978111898
0
ELLIPSE
5
245
100
AcDbEntity
8
1
62
256
6
ByLayer
370
13
48
1
60
0
100
AcDbEllipse
10
244.3468
20
16.033405
30
0
11
-0.148732254109673
21
0.0194606420103676
31
0
210
0
220
0
230
1
40
0.01715
41
-0.092678689477413
42
1.47811763731388
0
ELLIPSE
5
246
100
AcDbEntity
8
1
62
256
6
ByLayer
370
13
48
1
60
0
100
AcDbEllipse
10
244.348894
20
15.875578
30
0
11
-0.148164061728341
21
-0.0233968120084838
31
0
210
0
220
0
230
1
40
0.009837
41
-1.47706181926708
42
0.0937345075189726
0
ELLIPSE
5
247
100
AcDbEntity
8
1
62
256
6
ByLayer
370
13
48
1
60
0
100
AcDbEllipse
10
261.987868
20
25.223446
30
0
11
0.0104671912485888
21
-0.199725906950915
31
0
210
0
220
0
230
1
40
0.995562
41
3.14156912557024
42
-2.606445559069
0
ELLIPSE
5
248
100
AcDbEntity
8
1
62
256
6
ByLayer
370
13
48
1
60
0
100
AcDbEllipse
10
262.178938
20
8.967696
30
0
11
0.0104671912485888
21
-0.199725906950915
31
0
210
0
220
0
230
1
40
0.995562
41
-0.226119054285141
42
1.75822313207549E-05
0
ELLIPSE
5
249
100
AcDbEntity
8
1
62
256
6
ByLayer
370
13
48
1
60
0
100
AcDbEllipse
10
247.972669
20
7.957458
30
0
11
0.0104671912485888
21
-0.199725906950915
31
0
210
0
220
0
230
1
40
0.995562
41
-1.46607657167318
42
-2.46857384739379E-05
0
ELLIPSE
5
24A
100
AcDbEntity
8
1
62
256
6
ByLayer
370
13
48
1
60
0
100
AcDbEllipse
10
247.7816
20
24.213208
30
0
11
0.0104671912485888
21
-0.199725906950915
31
0
210
0
220
0
230
1
40
0.995562
41
-3.1415754847878
42
-1.75405589825229
0
ELLIPSE
5
24B
100
AcDbEntity
8
1
62
256
6
ByLayer
370
13
48
1
60
0
100
AcDbEllipse
10
247.972669
20
7.957458
30
0
11
0.111182483439512
21
-0.1662481740538
31
0
210
0
220
0
230
1
40
0.080951
41
-1.97154927337654E-05
42
1.5226274869703
0
ELLIPSE
5
24C
100
AcDbEntity
8
1
62
256
6
ByLayer
370
18
48
1
60
0
100
AcDbEllipse
10
254.804843
20
16.581258
30
0
11
0.0675290843402707
21
-1.28853168869383
31
0
210
0
220
0
230
1
40
0.995562
41
3.14159265358977
42
-2.3531513798499
0
ELLIPSE
5
24D
100
AcDbEntity
8
1
62
256
6
ByLayer
370
18
48
1
60
0
100
AcDbEllipse
10
254.804843
20
16.581258
30
0
11
0.0675290843402707
21
-1.28853168869383
31
0
210
0
220
0
230
1
40
0.995562
41
-0.77140860887014
42
-2.21254028224692E-14
0
ELLIPSE
5
24E
100
AcDbEntity
8
1
62
256
6
ByLayer
370
18
48
1
60
0
100
AcDbEllipse
10
254.804843
20
16.581258
30
0
11
-0.067529084340326
21
1.28853168869382
31
0
210
0
220
0
230
1
40
0.995562
41
-3.03775684415654
42
-2.0943951023932
0
ELLIPSE
5
24F
100
AcDbEntity
8
1
62
256
6
ByLayer
370
18
48
1
60
0
100
AcDbEllipse
10
254.804843
20
16.581258
30
0
11
0.0675290843402707
21
-1.28853168869383
31
0
210
0
220
0
230
1
40
0.995562
41
-1.89285840703656
42
-1.2327799548728
0
ELLIPSE
5
250
100
AcDbEntity
8
1
62
256
6
ByLayer
370
18
48
1
60
0
100
AcDbEllipse
10
255.609473
20
15.337002
30
0
11
-0.328745690776194
21
-0.214965491791408
31
0
210
0
220
0
230
1
40
0.490808
41
0.673312264881202
42
-2.94818767871616
0
ELLIPSE
5
251
100
AcDbEntity
8
1
62
256
6
ByLayer
370
18
48
1
60
0
100
AcDbEllipse
10
255.475005
20
17.902805
30
0
11
-0.349414799997434
21
0.179424606472466
31
0
210
0
220
0
230
1
40
0.490808
41
2.94818767871624
42
-0.625002372329131
0
ELLIPSE
5
252
100
AcDbEntity
8
1
62
256
6
ByLayer
370
18
48
1
60
0
100
AcDbEllipse
10
254.134681
20
15.259712
30
0
11
-0.349414799997426
21
0.179424606472469
31
0
210
0
220
0
230
1
40
0.490808
41
2.5165913856907
42
-2.94320654539746
0
ELLIPSE
5
253
100
AcDbEntity
8
1
62
256
6
ByLayer
370
18
48
1
60
0
100
AcDbEllipse
10
254.000213
20
17.825515
30
0
11
-0.328745690776204
21
-0.214965491791416
31
0
210
0
220
0
230
1
40
0.490808
41
2.94320654539727
42
-2.46828145615024
0
ELLIPSE
5
254
100
AcDbEntity
8
1
62
256
6
ByLayer
370
18
48
1
60
0
100
AcDbEllipse
10
254.877677
20
16.585075
30
0
11
-0.149157475292513
21
2.84609417405053
31
0
210
0
220
0
230
1
40
0.995562
41
0
42
3.1414943057158
0
ELLIPSE
5
255
100
AcDbEntity
8
1
62
256
6
ByLayer
370
13
48
1
60
0
100
AcDbEllipse
10
264.353378
20
7.531503
30
0
11
-0.0190934195945928
21
-0.501606840107767
31
0
210
0
220
0
230
1
40
0.197189
41
-0.688891549972816
42
-0.331191944131866
0
ELLIPSE
5
256
100
AcDbEntity
8
1
62
256
6
ByLayer
370
13
48
1
60
0
100
AcDbEllipse
10
246.091824
20
8.89472
30
0
11
-0.136073486231766
21
2.59643679036189
31
0
210
0
220
0
230
1
40
0.995562
41
2.40144888609815
42
2.97998013990118
0
ELLIPSE
5
257
100
AcDbEntity
8
1
62
256
6
ByLayer
370
13
48
1
60
0
100
AcDbEllipse
10
246.091824
20
8.89472
30
0
11
-0.136073486231766
21
2.59643679036189
31
0
210
0
220
0
230
1
40
0.995562
41
-2.6854365866337
42
-2.07675099364111
0
ELLIPSE
5
258
100
AcDbEntity
8
1
62
256
6
ByLayer
370
13
48
1
60
0
100
AcDbEllipse
10
248.429414
20
7.171261
30
0
11
1.49975373857391
21
0.0271794707661609
31
0
210
0
220
0
230
1
40
0.340502
41
-1.53279213817642
42
-1.51222596035925
0
ELLIPSE
5
259
100
AcDbEntity
8
1
62
256
6
ByLayer
370
13
48
1
60
0
100
AcDbEllipse
10
246.168396
20
0
30
0
11
-1.39141155678846
21
26.3124847043956
31
0
210
0
220
0
230
1
40
0.094396
41
-0.109699965784579
42
-0.00499270405380488
0
ELLIPSE
5
25A
100
AcDbEntity
8
1
62
256
6
ByLayer
370
13
48
1
60
0
100
AcDbEllipse
10
198.94949
20
0
30
0
11
-278.745897914074
21
0.131343625871044
31
0
210
0
220
0
230
1
40
0.094396
41
-1.79701901102239
42
-1.73951734062184
0
ELLIPSE
5
25B
100
AcDbEntity
8
1
62
256
6
ByLayer
370
13
48
1
60
0
100
AcDbEllipse
10
246.138814
20
8.897183
30
0
11
0.162241464353126
21
-3.09575155773918
31
0
210
0
220
0
230
1
40
0.995562
41
0.0839997461781905
42
1.07850402440021
0
ELLIPSE
5
25C
100
AcDbEntity
8
1
62
256
6
ByLayer
370
13
48
1
60
0
100
AcDbEllipse
10
243.813121
20
6.582785
30
0
11
-0.293740802135514
21
-0.955885108766104
31
0
210
0
220
0
230
1
40
0.088433
41
-1.53847716189229
42
-7.17550741000096E-06
0
ELLIPSE
5
25D
100
AcDbEntity
8
1
62
256
6
ByLayer
370
13
48
1
60
0
100
AcDbEllipse
10
246.430824
20
15.188812
30
0
11
0.523359562429439
21
-9.98629534754574
31
0
210
0
220
0
230
1
40
0.995562
41
-5.96902171616568E-07
42
0.317924582301138
0
ELLIPSE
5
25E
100
AcDbEntity
8
1
62
256
6
ByLayer
370
13
48
1
60
0
100
AcDbEllipse
10
254.710962
20
-7.753358
30
0
11
2
21
0
31
0
210
0
220
0
230
1
40
0.993021
41
0.324565832822217
42
2.82321215158854
0
ELLIPSE
5
25F
100
AcDbEntity
8
1
62
256
6
ByLayer
370
18
48
1
60
0
100
AcDbEllipse
10
254.9127
20
-7.939412
30
0
11
-1.5
21
1.51595858262354E-15
31
0
210
0
220
0
230
1
40
0.993021
41
-2.85511900644076
42
-0.0420190780334184
0
ELLIPSE
5
260
100
AcDbEntity
8
1
62
256
6
ByLayer
370
13
48
1
60
0
100
AcDbEllipse
10
254.710962
20
-7.753358
30
0
11
-2.1
21
2.12234201567296E-15
31
0
210
0
220
0
230
1
40
0.993021
41
-2.77697132239585
42
-0.381310725748859
0
POINT
5
70
100
AcDbEntity
8
1
62
256
6
ByLayer
370
18
48
1
60
0
100
AcDbPoint
10
0
20
0
30
0
39
0
210
0
220
0
230
1
50
360
0
POINT
5
72
100
AcDbEntity
8
80
62
256
6
ByLayer
370
18
48
1
60
0
100
AcDbPoint
10
0
20
0
30
0
39
0
210
0
220
0
230
1
50
360
0
POINT
5
74
100
AcDbEntity
8
81
62
256
6
ByLayer
370
18
48
1
60
0
100
AcDbPoint
10
265.9126
20
0
30
0
39
0
210
0
220
0
230
1
50
360
0
POINT
5
76
100
AcDbEntity
8
1
62
256
6
ByLayer
370
18
48
1
60
1
100
AcDbPoint
10
0
20
-34
30
0
39
0
210
0
220
0
230
1
50
360
0
POINT
5
77
100
AcDbEntity
8
1
62
256
6
ByLayer
370
18
48
1
60
1
100
AcDbPoint
10
265.9126
20
-26.9875
30
0
39
0
210
0
220
0
230
1
50
360
0
POINT
5
78
100
AcDbEntity
8
1
62
256
6
ByLayer
370
18
48
1
60
1
100
AcDbPoint
10
-18
20
-25
30
0
39
0
210
0
220
0
230
1
50
360
0
POINT
5
79
100
AcDbEntity
8
1
62
256
6
ByLayer
370
18
48
1
60
1
100
AcDbPoint
10
0
20
-34
30
0
39
0
210
0
220
0
230
1
50
360
0
POINT
5
7A
100
AcDbEntity
8
1
62
256
6
ByLayer
370
18
48
1
60
1
100
AcDbPoint
10
265.9126
20
-26.9875
30
0
39
0
210
0
220
0
230
1
50
360
0
POINT
5
7B
100
AcDbEntity
8
1
62
256
6
ByLayer
370
18
48
1
60
1
100
AcDbPoint
10
17.5094
20
-34
30
0
39
0
210
0
220
0
230
1
50
360
0
POINT
5
7C
100
AcDbEntity
8
1
62
256
6
ByLayer
370
18
48
1
60
1
100
AcDbPoint
10
45.4914
20
-26.9875
30
0
39
0
210
0
220
0
230
1
50
360
0
POINT
5
7D
100
AcDbEntity
8
1
62
256
6
ByLayer
370
18
48
1
60
1
100
AcDbPoint
10
265.9126
20
-26.9875
30
0
39
0
210
0
220
0
230
1
50
360
0
POINT
5
7E
100
AcDbEntity
8
1
62
256
6
ByLayer
370
18
48
1
60
1
100
AcDbPoint
10
264.3235
20
-13.49375
30
0
39
0
210
0
220
0
230
1
50
360
0
SPLINE
5
261
100
AcDbEntity
8
1
62
256
6
ByLayer
370
18
48
1
60
0
100
AcDbSpline
70
4
71
1
72
4
73
2
40
0
40
0
40
1
40
1
41
1
10
264.006162912673
20
-17.8014251503167
30
0
41
1
10
264.112663329245
20
-18.7502155158714
30
0
0
SPLINE
5
262
100
AcDbEntity
8
1
62
256
6
ByLayer
370
18
48
1
60
0
100
AcDbSpline
70
4
71
3
72
12
73
8
40
0
40
0
40
0
40
0
40
0.49999999999999
40
0.49999999999999
40
0.749999999999995
40
0.749999999999995
40
1
40
1
40
1
40
1
41
1
10
264.715178065237
20
-18.3613076754118
30
0
41
1
10
264.706278272132
20
-18.4279646840813
30
0
41
1
10
264.677243241085
20
-18.491768455274
30
0
41
1
10
264.611062089745
20
-18.5682026261393
30
0
41
1
10
264.585187931287
20
-18.5904585989667
30
0
41
1
10
264.528175711388
20
-18.6265865902389
30
0
41
1
10
264.496950504037
20
-18.6399536419395
30
0
41
1
10
264.464645438286
20
-18.6500368762738
30
0
0
SPLINE
5
263
100
AcDbEntity
8
1
62
256
6
ByLayer
370
18
48
1
60
0
100
AcDbSpline
70
4
71
2
72
12
73
9
40
0
40
0
40
0
40
0.25
40
0.5
40
0.5
40
0.75
40
0.75
40
0.875
40
1
40
1
40
1
41
1
10
264.019738951125
20
-17.7975594522501
30
0
41
1
10
264.068223071274
20
-17.7837538807513
30
0
41
1
10
264.153953049895
20
-17.729721644346
30
0
41
1
10
264.188218576761
20
-17.6905619208864
30
0
41
1
10
264.220988915862
20
-17.6531109451025
30
0
41
1
10
264.242555610025
20
-17.6058322205189
30
0
41
1
10
264.252571554223
20
-17.5838751665722
30
0
41
1
10
264.266854536048
20
-17.5346050932269
30
0
41
1
10
264.270271578084
20
-17.5088312221766
30
0
0
SPLINE
5
264
100
AcDbEntity
8
1
62
256
6
ByLayer
370
18
48
1
60
0
100
AcDbSpline
70
4
71
1
72
4
73
2
40
0
40
0
40
1
40
1
41
1
10
264.017301016625
20
-18.7712092863447
30
0
41
1
10
263.910800600052
20
-17.8224189207913
30
0
0
SPLINE
5
265
100
AcDbEntity
8
1
62
256
6
ByLayer
370
18
48
1
60
0
100
AcDbSpline
70
4
71
1
72
4
73
2
40
0
40
0
40
1
40
1
41
1
10
265.902750541475
20
-9.15307409390931
30
0
41
1
10
265.877300644835
20
-8.99351118641681
30
0
0
SPLINE
5
266
100
AcDbEntity
8
1
62
256
6
ByLayer
370
18
48
1
60
0
100
AcDbSpline
70
4
71
1
72
4
73
2
40
0
40
0
40
1
40
1
41
1
10
265.877300644835
20
-8.99351118641681
30
0
41
1
10
265.827756810079
20
-8.68288680811622
30
0
0
SPLINE
5
267
100
AcDbEntity
8
1
62
256
6
ByLayer
370
18
48
1
60
0
100
AcDbSpline
70
4
71
1
72
4
73
2
40
0
40
0
40
1
40
1
41
1
10
263.683368049459
20
0.492892310408905
30
0
41
1
10
264.066724004941
20
0.462943105792959
30
0
0
SPLINE
5
268
100
AcDbEntity
8
1
62
256
6
ByLayer
370
18
48
1
60
0
100
AcDbSpline
70
4
71
3
72
12
73
8
40
0
40
0
40
0
40
0
40
0.500000000000155
40
0.500000000000155
40
0.750000000000078
40
0.750000000000078
40
1
40
1
40
1
40
1
41
1
10
264.066724004941
20
0.462897855793528
30
0
41
1
10
264.133849435544
20
0.454060127869411
30
0
41
1
10
264.198100339777
20
0.425226458266962
30
0
41
1
10
264.275072678891
20
0.359508163473549
30
0
41
1
10
264.29748495102
20
0.333814464824712
30
0
41
1
10
264.33386652964
20
0.27719981352999
30
0
41
1
10
264.347327430496
20
0.24619243244058
30
0
41
1
10
264.357481431239
20
0.214112725392624
30
0
0
SPLINE
5
269
100
AcDbEntity
8
1
62
256
6
ByLayer
370
18
48
1
60
0
100
AcDbSpline
70
4
71
1
72
4
73
2
40
0
40
0
40
1
40
1
41
1
10
265.767191958828
20
-10.4261916348916
30
0
41
1
10
265.842982905646
20
-9.85451997547258
30
0
0
SPLINE
5
26A
100
AcDbEntity
8
1
62
256
6
ByLayer
370
18
48
1
60
0
100
AcDbSpline
70
4
71
1
72
4
73
2
40
0
40
0
40
1
40
1
41
1
10
264.479551992588
20
-0.230063458446637
30
0
41
1
10
263.999159657831
20
0.135930080814262
30
0
0
SPLINE
5
26B
100
AcDbEntity
8
1
62
256
6
ByLayer
370
18
48
1
60
0
100
AcDbSpline
70
4
71
1
72
4
73
2
40
0
40
0
40
1
40
1
41
1
10
264.270271578084
20
-17.508831222176
30
0
41
1
10
264.715178065237
20
-18.3612624254123
30
0
0
SPLINE
5
26C
100
AcDbEntity
8
1
62
256
6
ByLayer
370
18
48
1
60
0
100
AcDbSpline
70
4
71
3
72
10
73
6
40
0
40
0
40
0
40
0
40
0.505180475125937
40
0.505180475125937
40
1
40
1
40
1
40
1
41
1
10
264.112663329245
20
-18.7502603471088
30
0
41
1
10
264.17230207045
20
-18.7332779047883
30
0
41
1
10
264.231940812068
20
-18.7162972849952
30
0
41
1
10
264.349995139779
20
-18.6826827335836
30
0
41
1
10
264.408410726454
20
-18.6660487591784
30
0
41
1
10
264.466826312632
20
-18.6494159073414
30
0
0
SPLINE
5
26D
100
AcDbEntity
8
1
62
256
6
ByLayer
370
18
48
1
60
0
100
AcDbSpline
70
4
71
2
72
6
73
3
40
0
40
0
40
0
40
1
40
1
40
1
41
1
10
263.999159657832
20
0.135930080814035
30
0
41
1
10
263.991505304469
20
0.183920487089466
30
0
41
1
10
263.978018342065
20
0.23062685980608
30
0
0
SPLINE
5
26E
100
AcDbEntity
8
1
62
256
6
ByLayer
370
18
48
1
60
0
100
AcDbSpline
70
4
71
1
72
4
73
2
40
0
40
0
40
1
40
1
41
1
10
264.464645438286
20
-18.6499906554899
30
0
41
1
10
264.019738951125
20
-17.7975594522504
30
0
0
SPLINE
5
26F
100
AcDbEntity
8
1
62
256
6
ByLayer
370
18
48
1
60
0
100
AcDbSpline
70
4
71
1
72
4
73
2
40
0
40
0
40
1
40
1
41
1
10
265.827756810079
20
-8.68288680811622
30
0
41
1
10
265.737153114426
20
-8.11482991924578
30
0
0
SPLINE
5
270
100
AcDbEntity
8
1
62
256
6
ByLayer
370
18
48
1
60
0
100
AcDbSpline
70
4
71
3
72
8
73
4
40
0
40
0
40
0
40
0
40
1
40
1
40
1
40
1
41
1
10
265.912533060269
20
-9.26694964377239
30
0
41
1
10
265.913036224146
20
-9.3051180872524
30
0
41
1
10
265.910663746237
20
-9.34316492773152
30
0
41
1
10
265.906732053515
20
-9.38114014222066
30
0
0
SPLINE
5
271
100
AcDbEntity
8
1
62
256
6
ByLayer
370
18
48
1
60
0
100
AcDbSpline
70
4
71
1
72
4
73
2
40
0
40
0
40
1
40
1
41
1
10
265.406519067239
20
-8.68777409445715
30
0
41
1
10
265.902750541475
20
-9.15307409390911
30
0
0
SPLINE
5
272
100
AcDbEntity
8
1
62
256
6
ByLayer
370
18
48
1
60
0
100
AcDbSpline
70
4
71
3
72
8
73
4
40
0
40
0
40
0
40
0
40
1
40
1
40
1
40
1
41
1
10
264.112663329246
20
-18.7502155158713
30
0
41
1
10
264.081306911146
20
-18.7591440737367
30
0
41
1
10
264.049519473606
20
-18.7661419972278
30
0
41
1
10
264.017301016625
20
-18.7712092863447
30
0
0
SPLINE
5
273
100
AcDbEntity
8
1
62
256
6
ByLayer
370
18
48
1
60
0
100
AcDbSpline
70
4
71
2
72
6
73
3
40
0
40
0
40
0
40
1
40
1
40
1
41
1
10
263.910800600052
20
-17.8224189207913
30
0
41
1
10
263.959128285498
20
-17.8148179871155
30
0
41
1
10
264.006162912673
20
-17.8014251503167
30
0
0
SPLINE
5
274
100
AcDbEntity
8
1
62
256
6
ByLayer
370
18
48
1
60
0
100
AcDbSpline
70
4
71
1
72
4
73
2
40
0
40
0
40
1
40
1
41
1
10
265.737153114426
20
-8.11482991924578
30
0
41
1
10
264.479551992588
20
-0.230063458446722
30
0
0
SPLINE
5
275
100
AcDbEntity
8
1
62
256
6
ByLayer
370
18
48
1
60
0
100
AcDbSpline
70
4
71
3
72
8
73
4
40
0
40
0
40
0
40
0
40
1
40
1
40
1
40
1
41
1
10
264.458410676848
20
-0.135366679450783
30
0
41
1
10
264.46740198505
20
-0.166504261175788
30
0
41
1
10
264.474449090297
20
-0.198069854174435
30
0
41
1
10
264.479551992588
20
-0.230063458446722
30
0
0
SPLINE
5
276
100
AcDbEntity
8
1
62
256
6
ByLayer
370
18
48
1
60
0
100
AcDbSpline
70
4
71
1
72
4
73
2
40
0
40
0
40
1
40
1
41
1
10
264.715178065237
20
-18.3612624254123
30
0
41
1
10
265.767191958828
20
-10.4261916348916
30
0
0
SPLINE
5
277
100
AcDbEntity
8
1
62
256
6
ByLayer
370
18
48
1
60
0
100
AcDbSpline
70
4
71
1
72
4
73
2
40
0
40
0
40
1
40
1
41
1
10
265.884427802666
20
-9.54191175445192
30
0
41
1
10
265.905755758069
20
-9.38104046086434
30
0
0
SPLINE
5
278
100
AcDbEntity
8
1
62
256
6
ByLayer
370
18
48
1
60
0
100
AcDbSpline
70
4
71
1
72
4
73
2
40
0
40
0
40
1
40
1
41
1
10
263.978018342065
20
0.230626859805824
30
0
41
1
10
264.458410676848
20
-0.135366679450868
30
0
0
SPLINE
5
279
100
AcDbEntity
8
1
62
256
6
ByLayer
370
18
48
1
60
0
100
AcDbSpline
70
4
71
3
72
8
73
4
40
0
40
0
40
0
40
0
40
1
40
1
40
1
40
1
41
1
10
265.90371458024
20
-9.15295014787492
30
0
41
1
10
265.90865049417
20
-9.19080973026416
30
0
41
1
10
265.912029899272
20
-9.22878141874975
30
0
41
1
10
265.912533060269
20
-9.26694964377239
30
0
0
SPLINE
5
27A
100
AcDbEntity
8
1
62
256
6
ByLayer
370
18
48
1
60
0
100
AcDbSpline
70
4
71
1
72
4
73
2
40
0
40
0
40
1
40
1
41
1
10
264.357481431239
20
0.214158946176468
30
0
41
1
10
263.974125475763
20
0.244108150799008
30
0
0
SPLINE
5
27B
100
AcDbEntity
8
1
62
256
6
ByLayer
370
18
48
1
60
0
100
AcDbSpline
70
4
71
3
72
12
73
8
40
0
40
0
40
0
40
0
40
0.250320940203536
40
0.250320940203536
40
0.500642181170577
40
0.500642181170577
40
1
40
1
40
1
40
1
41
1
10
264.017301016625
20
-18.7712564350258
30
0
41
1
10
264.025356568423
20
-18.7699891301955
30
0
41
1
10
264.033393615885
20
-18.7685997864681
30
0
41
1
10
264.049419285048
20
-18.7655779377836
30
0
41
1
10
264.057409777538
20
-18.7639450792245
30
0
41
1
10
264.081250849035
20
-18.7586938456326
30
0
41
1
10
264.097028971314
20
-18.7547123119996
30
0
41
1
10
264.112663329246
20
-18.7502603471088
30
0
0
SPLINE
5
27C
100
AcDbEntity
8
1
62
256
6
ByLayer
370
18
48
1
60
0
100
AcDbSpline
70
4
71
2
72
12
73
9
40
0
40
0
40
0
40
0.25
40
0.5
40
0.5
40
0.75
40
0.75
40
0.875
40
1
40
1
40
1
41
1
10
263.974125475763
20
0.244108150799008
30
0
41
1
10
263.960222878027
20
0.292253900246152
30
0
41
1
10
263.905810900398
20
0.377385569307478
30
0
41
1
10
263.866375960474
20
0.411411957036222
30
0
41
1
10
263.828661777373
20
0.443953591929386
30
0
41
1
10
263.781050775596
20
0.465369772111814
30
0
41
1
10
263.758939406385
20
0.475315815031251
30
0
41
1
10
263.709323060543
20
0.489499115912849
30
0
41
1
10
263.68336804946
20
0.492892310408848
30
0
0
SPLINE
5
27D
100
AcDbEntity
8
1
62
256
6
ByLayer
370
18
48
1
60
0
100
AcDbSpline
70
4
71
1
72
4
73
2
40
0
40
0
40
1
40
1
41
1
10
265.842982905646
20
-9.85451997547258
30
0
41
1
10
265.884427802666
20
-9.54191175445192
30
0
0
SPLINE
5
27E
100
AcDbEntity
8
1
62
256
6
ByLayer
370
18
48
1
60
0
100
AcDbSpline
70
4
71
2
72
7
73
4
40
0
40
0
40
0
40
0.5
40
1
40
1
40
1
41
1
10
265.409524283934
20
-8.9157404614096
30
0
41
1
10
265.417016423646
20
-8.85922917458709
30
0
41
1
10
265.415590374549
20
-8.74464835947629
30
0
41
1
10
265.406519067239
20
-8.68777409445673
30
0
0
SPLINE
5
27F
100
AcDbEntity
8
1
62
256
6
ByLayer
370
18
48
1
60
0
100
AcDbSpline
70
4
71
1
72
4
73
2
40
0
40
0
40
1
40
1
41
1
10
265.905755758069
20
-9.38104046086457
30
0
41
1
10
265.409524283934
20
-8.91574046140909
30
0
0
SPLINE
5
280
100
AcDbEntity
8
1
62
256
6
ByLayer
370
13
48
1
60
0
100
AcDbSpline
70
4
71
3
72
20
73
16
40
0
40
0
40
0
40
0
40
0.0625000000000098
40
0.0625000000000098
40
0.12500000000002
40
0.12500000000002
40
0.140625000000022
40
0.140625000000022
40
0.156250000000025
40
0.156250000000025
40
0.187500000000029
40
0.187500000000029
40
0.250000000000039
40
0.500000000000034
40
1
40
1
40
1
40
1
41
1
10
261.877462827614
20
25.3899344607351
30
0
41
1
10
261.747063352087
20
25.3027266606445
30
0
41
1
10
261.609466120502
20
25.2315402678863
30
0
41
1
10
261.320425414942
20
25.1199876834865
30
0
41
1
10
261.167297804415
20
25.0796763241422
30
0
41
1
10
260.976224159542
20
25.0515035247116
30
0
41
1
10
260.937939895
20
25.0469207358687
30
0
41
1
10
260.861228921236
20
25.0399097273363
30
0
41
1
10
260.822783931557
20
25.0377580115311
30
0
41
1
10
260.707416340444
20
25.031796294439
30
0
41
1
10
260.6305109585
20
25.0277258370701
30
0
41
1
10
260.399786903142
20
25.0156341017016
30
0
41
1
10
259.630706718617
20
24.97532831714
30
0
41
1
10
257.631098238865
20
24.8705332772808
30
0
41
1
10
255.785305795963
20
24.7737993943308
30
0
41
1
10
254.554777500723
20
24.7093101390323
30
0
0
SPLINE
5
281
100
AcDbEntity
8
1
62
256
6
ByLayer
370
13
48
1
60
0
100
AcDbSpline
70
4
71
2
72
6
73
3
40
0
40
0
40
0
40
1
40
1
40
1
41
0.998850556413357
10
243.840020910473
20
16.0066163676167
30
0
41
0.99827016311196
10
243.83338906694
20
16.041628898166
30
0
41
1
10
243.83013433748
20
16.0771176722971
30
0
0
SPLINE
5
282
100
AcDbEntity
8
1
62
256
6
ByLayer
370
13
48
1
60
0
100
AcDbSpline
70
4
71
3
72
10
73
6
40
0
40
0
40
0
40
0
40
0.5
40
0.5
40
1
40
1
40
1
40
1
41
1
10
262.160315829493
20
25.648410697415
30
0
41
1
10
262.156568284355
20
25.6482142968966
30
0
41
1
10
262.166314624293
20
25.6380390906724
30
0
41
1
10
262.206429011785
20
25.6045237072667
30
0
41
1
10
262.236874372968
20
25.58121950232
30
0
41
1
10
262.268813601929
20
25.5583470374167
30
0
0
SPLINE
5
283
100
AcDbEntity
8
1
62
256
6
ByLayer
370
13
48
1
60
0
100
AcDbSpline
70
4
71
2
72
6
73
3
40
0
40
0
40
0
40
1
40
1
40
1
41
1
10
243.843778388186
20
16.0418345325039
30
0
41
0.999139328225404
10
243.841480286603
20
16.0242707836631
30
0
41
0.998850556413365
10
243.840020910473
20
16.0066163676159
30
0
0
SPLINE
5
284
100
AcDbEntity
8
1
62
256
6
ByLayer
370
13
48
1
60
0
100
AcDbSpline
70
4
71
3
72
28
73
24
40
0
40
0
40
0
40
0
40
0.124999999999896
40
0.124999999999896
40
0.249999999999793
40
0.249999999999793
40
0.374999999999689
40
0.374999999999689
40
0.499999999999585
40
0.499999999999585
40
0.624999999999482
40
0.624999999999482
40
0.68749999999954
40
0.68749999999954
40
0.749999999999598
40
0.749999999999598
40
0.781249999999729
40
0.781249999999729
40
0.81249999999986
40
0.81249999999986
40
0.874999999999906
40
0.874999999999906
40
1
40
1
40
1
40
1
41
1
10
264.649904815314
20
7.45841965621455
30
0
41
1
10
264.631207248923
20
7.4476719385267
30
0
41
1
10
264.611378985872
20
7.43706351677301
30
0
41
1
10
264.568848346213
20
7.41620074907243
30
0
41
1
10
264.545949298501
20
7.40588186072029
30
0
41
1
10
264.497448893956
20
7.38632151987136
30
0
41
1
10
264.471817785609
20
7.37702267774037
30
0
41
1
10
264.416792918092
20
7.35973650216056
30
0
41
1
10
264.38776466466
20
7.35194396722764
30
0
41
1
10
264.328390725441
20
7.33922047256655
30
0
41
1
10
264.298141022071
20
7.33431924605051
30
0
41
1
10
264.254651050464
20
7.329718123345
30
0
41
1
10
264.240291665572
20
7.32860567866487
30
0
41
1
10
264.212102478505
20
7.32682573184857
30
0
41
1
10
264.198146434425
20
7.32607378426945
30
0
41
1
10
264.177621582167
20
7.32535353020637
30
0
41
1
10
264.170747997225
20
7.3250815988111
30
0
41
1
10
264.156414828188
20
7.3239539515576
30
0
41
1
10
264.148998516222
20
7.32313962029613
30
0
41
1
10
264.126487857707
20
7.32042653557664
30
0
41
1
10
264.111678594614
20
7.31881892786132
30
0
41
1
10
264.06853917476
20
7.31530578716166
30
0
41
1
10
264.039996658903
20
7.31318438210599
30
0
41
1
10
264.011751700739
20
7.31136545713491
30
0
0
SPLINE
5
285
100
AcDbEntity
8
1
62
256
6
ByLayer
370
13
48
1
60
0
100
AcDbSpline
70
4
71
2
72
6
73
3
40
0
40
0
40
0
40
1
40
1
40
1
41
1
10
265.862529314873
20
17.2294534068837
30
0
41
0.997409491337352
10
265.863294565623
20
17.1717632924872
30
0
41
1
10
265.855810379186
20
17.114563744885
30
0
0
SPLINE
5
286
100
AcDbEntity
8
1
62
256
6
ByLayer
370
13
48
1
60
0
100
AcDbSpline
70
4
71
3
72
10
73
6
40
0
40
0
40
0
40
0
40
0.5
40
0.5
40
1
40
1
40
1
40
1
41
1
10
247.790823886348
20
7.53200082068366
30
0
41
1
10
247.78707634121
20
7.53180442016523
30
0
41
1
10
247.769999510896
20
7.54159545166769
30
0
41
1
10
247.71951688065
20
7.57456745849564
30
0
41
1
10
247.686071540529
20
7.59771444120824
30
0
41
1
10
247.654132311568
20
7.62058690611153
30
0
0
SPLINE
5
287
100
AcDbEntity
8
1
62
256
6
ByLayer
370
13
48
1
60
0
100
AcDbSpline
70
4
71
3
72
18
73
14
40
0
40
0
40
0
40
0
40
0.500000000000012
40
0.500000000000012
40
0.750000000000006
40
0.750000000000006
40
0.875000000000003
40
0.875000000000003
40
0.906250000000002
40
0.906250000000002
40
0.937500000000002
40
0.937500000000002
40
1
40
1
40
1
40
1
41
1
10
254.5840405602
20
24.5105692817951
30
0
41
1
10
253.45382836596
20
24.4513373705764
30
0
41
1
10
252.323615942598
20
24.3921104922267
30
0
41
1
10
250.628297604797
20
24.3032625680601
30
0
41
1
10
250.063191996359
20
24.273634047091
30
0
41
1
10
249.215532758198
20
24.2292118085944
30
0
41
1
10
248.93297870632
20
24.2144285965004
30
0
41
1
10
248.579788009067
20
24.195903105724
30
0
41
1
10
248.509150384051
20
24.1921852056742
30
0
41
1
10
248.367873268188
20
24.1847958374364
30
0
41
1
10
248.297274836653
20
24.1801025950057
30
0
41
1
10
248.085005900472
20
24.1778095907972
30
0
41
1
10
247.942981288655
20
24.1890218999059
30
0
41
1
10
247.800395752773
20
24.2141929848629
30
0
0
SPLINE
5
288
100
AcDbEntity
8
1
62
256
6
ByLayer
370
13
48
1
60
0
100
AcDbSpline
70
4
71
2
72
6
73
3
40
0
40
0
40
0
40
1
40
1
40
1
41
1
10
265.862529314873
20
17.2294534068837
30
0
41
0.997409491337352
10
265.861764064123
20
17.2871435212812
30
0
41
1
10
265.852765214752
20
17.3441301771171
30
0
0
SPLINE
5
289
100
AcDbEntity
8
1
62
256
6
ByLayer
370
13
48
1
60
0
100
AcDbSpline
70
4
71
3
72
24
73
20
40
0
40
0
40
0
40
0
40
0.125
40
0.125
40
0.249999999999999
40
0.249999999999999
40
0.374999999999999
40
0.374999999999999
40
0.499999999999999
40
0.499999999999999
40
0.624999999999998
40
0.624999999999998
40
0.749999999999998
40
0.749999999999998
40
0.812499999999999
40
0.812499999999999
40
0.874999999999999
40
0.874999999999999
40
1
40
1
40
1
40
1
41
1
10
264.432507282623
20
26.3381411496403
30
0
41
1
10
264.424321551862
20
26.393864624833
30
0
41
1
10
264.410254013588
20
26.4475346954456
30
0
41
1
10
264.371023222151
20
26.5510011988984
30
0
41
1
10
264.345779888665
20
26.6013108102007
30
0
41
1
10
264.284816245984
20
26.6954209547922
30
0
41
1
10
264.249232512931
20
26.7394317744188
30
0
41
1
10
264.170778011297
20
26.817967159364
30
0
41
1
10
264.127732113957
20
26.8527779293373
30
0
41
1
10
264.034163263663
20
26.9136726449511
30
0
41
1
10
263.984191174823
20
26.9390847820448
30
0
41
1
10
263.881056472263
20
26.9788774710551
30
0
41
1
10
263.826901168592
20
26.993565547344
30
0
41
1
10
263.744509322846
20
27.0071475299712
30
0
41
1
10
263.717007767002
20
27.0101775131951
30
0
41
1
10
263.661937181479
20
27.0135509888565
30
0
41
1
10
263.634365925023
20
27.01380582149
30
0
41
1
10
263.551674223896
20
27.0154489730119
30
0
41
1
10
263.496537737627
20
27.0161985908801
30
0
41
1
10
263.441386202938
20
27.0163490513878
30
0
0
SPLINE
5
28A
100
AcDbEntity
8
1
62
256
6
ByLayer
370
13
48
1
60
0
100
AcDbSpline
70
4
71
3
72
8
73
4
40
0
40
0
40
0
40
0
40
1
40
1
40
1
40
1
41
1
10
245.361419731773
20
26.0522828610885
30
0
41
1
10
245.300342251337
20
26.0585001055672
30
0
41
1
10
245.239331781405
20
26.0647082760644
30
0
41
1
10
245.178214185608
20
26.0709309446457
30
0
0
SPLINE
5
28B
100
AcDbEntity
8
1
62
256
6
ByLayer
370
13
48
1
60
0
100
AcDbSpline
70
4
71
3
72
22
73
18
40
0
40
0
40
0
40
0
40
0.0625000000000356
40
0.0625000000000356
40
0.0937500000000536
40
0.0937500000000536
40
0.125000000000072
40
0.125000000000072
40
0.15625000000009
40
0.15625000000009
40
0.171875000000099
40
0.171875000000099
40
0.187500000000108
40
0.187500000000108
40
0.250000000000099
40
0.500000000000066
40
1
40
1
40
1
40
1
41
1
10
262.006664212913
20
25.2244307967319
30
0
41
1
10
261.873605900456
20
25.1354448351994
30
0
41
1
10
261.733439324879
20
25.0615529010114
30
0
41
1
10
261.512828061627
20
24.9727168939425
30
0
41
1
10
261.437181694801
20
24.9466845093481
30
0
41
1
10
261.28404856397
20
24.9027475827453
30
0
41
1
10
261.207157569087
20
24.8849922719442
30
0
41
1
10
261.05275635169
20
24.8575231530394
30
0
41
1
10
260.975253232395
20
24.8477171000863
30
0
41
1
10
260.858525729183
20
24.8391482790307
30
0
41
1
10
260.819534890418
20
24.8373526133526
30
0
41
1
10
260.741590531511
20
24.8332766495572
30
0
41
1
10
260.702618989498
20
24.8312303896436
30
0
41
1
10
260.507759803851
20
24.821018252451
30
0
41
1
10
259.728323061266
20
24.7801697036804
30
0
41
1
10
257.701787530543
20
24.6739634768771
30
0
41
1
10
255.831139348337
20
24.5759269598278
30
0
41
1
10
254.5840405602
20
24.510569281795
30
0
0
SPLINE
5
28C
100
AcDbEntity
8
1
62
256
6
ByLayer
370
13
48
1
60
0
100
AcDbSpline
70
4
71
3
72
20
73
16
40
0
40
0
40
0
40
0
40
0.062500000000012
40
0.062500000000012
40
0.125000000000024
40
0.125000000000024
40
0.140625000000027
40
0.140625000000027
40
0.15625000000003
40
0.15625000000003
40
0.187500000000025
40
0.187500000000025
40
0.250000000000025
40
0.500000000000017
40
1
40
1
40
1
40
1
41
1
10
248.083074822342
20
7.79096958222112
30
0
41
1
10
248.213474297869
20
7.87817738231186
30
0
41
1
10
248.351071529455
20
7.94936377507008
30
0
41
1
10
248.640112235016
20
8.06091635946976
30
0
41
1
10
248.793239845543
20
8.10122771881402
30
0
41
1
10
248.984313490417
20
8.1294005182443
30
0
41
1
10
249.022597754958
20
8.13398330708708
30
0
41
1
10
249.099308728723
20
8.14099431561942
30
0
41
1
10
249.137753718402
20
8.14314603142449
30
0
41
1
10
249.253121309515
20
8.14910774851663
30
0
41
1
10
249.33002669146
20
8.15317820588558
30
0
41
1
10
249.560750746818
20
8.16526994125408
30
0
41
1
10
250.329830931345
20
8.20557572581572
30
0
41
1
10
252.329439411109
20
8.31037076567569
30
0
41
1
10
254.175231853989
20
8.40710464862445
30
0
41
1
10
255.405760149232
20
8.47159390392309
30
0
0
SPLINE
5
28D
100
AcDbEntity
8
1
62
256
6
ByLayer
370
13
48
1
60
0
100
AcDbSpline
70
4
71
3
72
20
73
16
40
0
40
0
40
0
40
0
40
0.500000000000031
40
0.500000000000031
40
0.750000000000046
40
0.750000000000046
40
0.875000000000042
40
0.875000000000042
40
0.906250000000037
40
0.906250000000037
40
0.921875000000029
40
0.921875000000029
40
0.937500000000021
40
0.937500000000021
40
1
40
1
40
1
40
1
41
1
10
254.554777500723
20
24.7093101390325
30
0
41
1
10
253.432038487849
20
24.6504698806533
30
0
41
1
10
252.309299221118
20
24.5916344662509
30
0
41
1
10
250.625190690061
20
24.5033743028443
30
0
41
1
10
250.063821794774
20
24.473942512815
30
0
41
1
10
249.221767526771
20
24.4298124782092
30
0
41
1
10
248.941081621247
20
24.4151243995367
30
0
41
1
10
248.590226184186
20
24.3967271936389
30
0
41
1
10
248.520055509407
20
24.3930398794313
30
0
41
1
10
248.414798922244
20
24.3875198789984
30
0
41
1
10
248.379712722602
20
24.3856935998617
30
0
41
1
10
248.309541128901
20
24.3820230822358
30
0
41
1
10
248.274466567112
20
24.3799316058976
30
0
41
1
10
248.098843836729
20
24.3751737256996
30
0
41
1
10
247.957740847639
20
24.3851600987808
30
0
41
1
10
247.815978384811
20
24.4101858839945
30
0
0
SPLINE
5
28E
100
AcDbEntity
8
1
62
256
6
ByLayer
370
13
48
1
60
0
100
AcDbSpline
70
4
71
3
72
8
73
4
40
0
40
0
40
0
40
0
40
1
40
1
40
1
40
1
41
1
10
263.441386202938
20
27.0163490513878
30
0
41
1
10
263.350969970162
20
27.0165957185454
30
0
41
1
10
263.260518919547
20
27.0154561030313
30
0
41
1
10
263.170034069998
20
27.0129707729618
30
0
0
SPLINE
5
28F
100
AcDbEntity
8
1
62
256
6
ByLayer
370
13
48
1
60
0
100
AcDbSpline
70
4
71
3
72
9
73
5
40
0
40
0
40
0
40
0
40
0.806009473586679
40
1
40
1
40
1
40
1
41
1
10
245.106858582616
20
26.0663198588684
30
0
41
1
10
245.126012914181
20
26.0677985876494
30
0
41
1
10
245.149807570514
20
26.0692039568065
30
0
41
1
10
245.173598965794
20
26.0706494753415
30
0
41
1
10
245.178214185608
20
26.0709309446457
30
0
0
SPLINE
5
290
100
AcDbEntity
8
1
62
256
6
ByLayer
370
13
48
1
60
0
100
AcDbSpline
70
4
71
1
72
4
73
2
40
0
40
0
40
1
40
1
41
1
10
244.10472727077
20
16.0663402980705
30
0
41
1
10
243.843778388186
20
16.0418345325039
30
0
0
SPLINE
5
291
100
AcDbEntity
8
1
62
256
6
ByLayer
370
13
48
1
60
0
100
AcDbSpline
70
4
71
3
72
18
73
14
40
0
40
0
40
0
40
0
40
0.500000000000049
40
0.500000000000049
40
0.750000000000061
40
0.750000000000061
40
0.875000000000055
40
0.875000000000055
40
0.906250000000041
40
0.906250000000041
40
0.937500000000027
40
0.937500000000027
40
1
40
1
40
1
40
1
41
1
10
255.414088826213
20
8.6723048605875
30
0
41
1
10
256.544301020453
20
8.73153677180622
30
0
41
1
10
257.674513443815
20
8.79076365015587
30
0
41
1
10
259.369831781616
20
8.8796115743225
30
0
41
1
10
259.934937390054
20
8.90924009529164
30
0
41
1
10
260.782596628215
20
8.95366233378817
30
0
41
1
10
261.065150680093
20
8.96844554588225
30
0
41
1
10
261.418341377347
20
8.98697103665859
30
0
41
1
10
261.488979002362
20
8.99068893670849
30
0
41
1
10
261.630256118226
20
8.9980783049462
30
0
41
1
10
261.70085454976
20
9.00277154737691
30
0
41
1
10
261.913123485942
20
9.00506455158538
30
0
41
1
10
262.055148097759
20
8.99385224247672
30
0
41
1
10
262.197733633641
20
8.96868115751968
30
0
0
SPLINE
5
292
100
AcDbEntity
8
1
62
256
6
ByLayer
370
13
48
1
60
0
100
AcDbSpline
70
4
71
2
72
6
73
3
40
0
40
0
40
0
40
1
40
1
40
1
41
1
10
244.098008335082
20
15.9514506360718
30
0
41
0.997409491337352
10
244.098773585832
20
15.8937605216743
30
0
41
1
10
244.107772435203
20
15.8367738658383
30
0
0
SPLINE
5
293
100
AcDbEntity
8
1
62
256
6
ByLayer
370
13
48
1
60
0
100
AcDbSpline
70
4
71
3
72
12
73
8
40
0
40
0
40
0
40
0
40
0.25
40
0.25
40
0.500000000000001
40
0.500000000000001
40
1
40
1
40
1
40
1
41
1
10
245.3141222825
20
25.8308073499797
30
0
41
1
10
245.334321186659
20
25.8313438016396
30
0
41
1
10
245.353968851601
20
25.8312725219447
30
0
41
1
10
245.393463054127
20
25.8313492097584
30
0
41
1
10
245.413244262184
20
25.8314235819543
30
0
41
1
10
245.472552954152
20
25.8316097983444
30
0
41
1
10
245.512067877657
20
25.8317083776565
30
0
41
1
10
245.551595237126
20
25.8318200887649
30
0
0
SPLINE
5
294
100
AcDbEntity
8
1
62
256
6
ByLayer
370
13
48
1
60
0
100
AcDbSpline
70
4
71
3
72
9
73
5
40
0
40
0
40
0
40
0
40
0.806009473586431
40
1
40
1
40
1
40
1
41
1
10
263.170034069998
20
27.0129707729618
30
0
41
1
10
263.150830098619
20
27.0124392282686
30
0
41
1
10
263.127018890825
20
27.0113496798058
30
0
41
1
10
263.103206729466
20
27.0103004016514
30
0
41
1
10
263.098587370755
20
27.0100979072025
30
0
0
SPLINE
5
295
100
AcDbEntity
8
1
62
256
6
ByLayer
370
13
48
1
60
0
100
AcDbSpline
70
4
71
3
72
20
73
16
40
0
40
0
40
0
40
0
40
0.500000000000061
40
0.500000000000061
40
0.750000000000079
40
0.750000000000079
40
0.875000000000089
40
0.875000000000089
40
0.906250000000073
40
0.906250000000073
40
0.921875000000052
40
0.921875000000052
40
0.937500000000032
40
0.937500000000032
40
1
40
1
40
1
40
1
41
1
10
255.405760149233
20
8.47159390392301
30
0
41
1
10
256.528499162107
20
8.53043416230213
30
0
41
1
10
257.651238428837
20
8.58926957670454
30
0
41
1
10
259.335346959895
20
8.67752974011117
30
0
41
1
10
259.896715855182
20
8.70696153014049
30
0
41
1
10
260.738770123184
20
8.7510915647463
30
0
41
1
10
261.019456028708
20
8.76577964341877
30
0
41
1
10
261.370311465769
20
8.78417684931654
30
0
41
1
10
261.440482140549
20
8.78786416352412
30
0
41
1
10
261.545738727712
20
8.79338416395709
30
0
41
1
10
261.580824927354
20
8.79521044309374
30
0
41
1
10
261.650996521055
20
8.79888096071966
30
0
41
1
10
261.686071082843
20
8.80097243705785
30
0
41
1
10
261.861693813226
20
8.80573031725598
30
0
41
1
10
262.002796802316
20
8.7957439441746
30
0
41
1
10
262.144559265144
20
8.77071815896096
30
0
0
SPLINE
5
296
100
AcDbEntity
8
1
62
256
6
ByLayer
370
13
48
1
60
0
100
AcDbSpline
70
4
71
2
72
6
73
3
40
0
40
0
40
0
40
1
40
1
40
1
41
1
10
244.098008335082
20
15.9514506360718
30
0
41
0.997409491337352
10
244.097243084332
20
16.0091407504682
30
0
41
1
10
244.10472727077
20
16.0663402980705
30
0
0
SPLINE
5
297
100
AcDbEntity
8
1
62
256
6
ByLayer
370
13
48
1
60
0
100
AcDbSpline
70
4
71
3
72
8
73
4
40
0
40
0
40
0
40
0
40
1
40
1
40
1
40
1
41
1
10
264.011751700739
20
7.31136545713491
30
0
41
1
10
263.919759633021
20
7.30544133191086
30
0
41
1
10
263.831238184616
20
7.30325150555197
30
0
41
1
10
263.745043851761
20
7.30285781352919
30
0
0
SPLINE
5
298
100
AcDbEntity
8
1
62
256
6
ByLayer
370
13
48
1
60
0
100
AcDbSpline
70
4
71
3
72
9
73
5
40
0
40
0
40
0
40
0
40
0.806009473586777
40
1
40
1
40
1
40
1
41
1
10
246.790503579957
20
6.1679332699936
30
0
41
1
10
246.809707551336
20
6.16846481468687
30
0
41
1
10
246.83351875913
20
6.16955436314964
30
0
41
1
10
246.857330920489
20
6.17060364130404
30
0
41
1
10
246.8619502792
20
6.17080613575294
30
0
0
SPLINE
5
299
100
AcDbEntity
8
1
62
256
6
ByLayer
370
13
48
1
60
0
100
AcDbSpline
70
4
71
3
72
20
73
16
40
0
40
0
40
0
40
0
40
0.125
40
0.125
40
0.25
40
0.25
40
0.375
40
0.375
40
0.5
40
0.5
40
0.625
40
0.625
40
0.75
40
0.75
40
1
40
1
40
1
40
1
41
1
10
245.528030367332
20
6.84276289331518
30
0
41
1
10
245.537893573937
20
6.77562018307219
30
0
41
1
10
245.55634643704
20
6.71147621767881
30
0
41
1
10
245.608918786877
20
6.58865767986907
30
0
41
1
10
245.64366137414
20
6.52976134047478
30
0
41
1
10
245.72662686759
20
6.42296973655354
30
0
41
1
10
245.774306500044
20
6.37556918358541
30
0
41
1
10
245.880083604295
20
6.29406456013601
30
0
41
1
10
245.938979822799
20
6.25948986499358
30
0
41
1
10
246.061465592658
20
6.20691849878114
30
0
41
1
10
246.126431321845
20
6.1881958118195
30
0
41
1
10
246.25881656848
20
6.16705437924813
30
0
41
1
10
246.325273453018
20
6.16700530206401
30
0
41
1
10
246.524558725922
20
6.16345861207961
30
0
41
1
10
246.657495589319
20
6.16427996493471
30
0
41
1
10
246.790503579957
20
6.16793326999363
30
0
0
SPLINE
5
29A
100
AcDbEntity
8
1
62
256
6
ByLayer
370
13
48
1
60
0
100
AcDbSpline
70
4
71
1
72
4
73
2
40
0
40
0
40
1
40
1
41
1
10
245.551595237126
20
25.8318200887649
30
0
41
1
10
245.361419731773
20
26.0522828610885
30
0
0
SPLINE
5
29B
100
AcDbEntity
8
1
62
256
6
ByLayer
370
13
48
1
60
0
100
AcDbSpline
70
4
71
2
72
6
73
3
40
0
40
0
40
0
40
1
40
1
40
1
41
1
10
243.846597650062
20
15.8292982624465
30
0
41
0.997409491337352
10
243.838266371566
20
15.8820574187276
30
0
41
1
10
243.837557890198
20
15.9354678481768
30
0
0
SPLINE
5
29C
100
AcDbEntity
8
1
62
256
6
ByLayer
370
13
48
1
60
0
100
AcDbSpline
70
4
71
2
72
6
73
3
40
0
40
0
40
0
40
1
40
1
40
1
41
0.998850556413365
10
243.840020910473
20
16.0066163676159
30
0
41
0.998270163111948
10
243.837085202886
20
15.971102422959
30
0
41
1
10
243.837557890198
20
15.9354678481768
30
0
0
SPLINE
5
29D
100
AcDbEntity
8
1
62
256
6
ByLayer
370
13
48
1
60
0
100
AcDbSpline
70
4
71
1
72
4
73
2
40
0
40
0
40
1
40
1
41
1
10
244.107772435203
20
15.8367738658383
30
0
41
1
10
243.846597650062
20
15.8292982624465
30
0
0
SPLINE
5
29E
100
AcDbEntity
8
1
62
256
6
ByLayer
370
13
48
1
60
0
100
AcDbSpline
70
4
71
3
72
22
73
18
40
0
40
0
40
0
40
0
40
0.0625000000000058
40
0.0625000000000058
40
0.0937500000000088
40
0.0937500000000088
40
0.125000000000012
40
0.125000000000012
40
0.156250000000015
40
0.156250000000015
40
0.171875000000016
40
0.171875000000016
40
0.187500000000018
40
0.187500000000018
40
0.250000000000024
40
0.500000000000016
40
1
40
1
40
1
40
1
41
1
10
247.991465173501
20
7.95844334565075
30
0
41
1
10
248.124523485957
20
8.04742930718328
30
0
41
1
10
248.264690061534
20
8.12132124137122
30
0
41
1
10
248.485301324787
20
8.21015724844017
30
0
41
1
10
248.560947691612
20
8.23618963303454
30
0
41
1
10
248.714080822443
20
8.2801265596373
30
0
41
1
10
248.790971817327
20
8.29788187043857
30
0
41
1
10
248.945373034724
20
8.32535098934335
30
0
41
1
10
249.022876154018
20
8.33515704229629
30
0
41
1
10
249.139603657231
20
8.34372586335192
30
0
41
1
10
249.178594495995
20
8.34552152903001
30
0
41
1
10
249.256538854902
20
8.34959749282544
30
0
41
1
10
249.295510396916
20
8.35164375273905
30
0
41
1
10
249.490369582562
20
8.36185588993166
30
0
41
1
10
250.269806325148
20
8.40270443870222
30
0
41
1
10
252.296341855871
20
8.50891066550554
30
0
41
1
10
254.166990038076
20
8.60694718255476
30
0
41
1
10
255.414088826213
20
8.67230486058759
30
0
0
SPLINE
5
29F
100
AcDbEntity
8
1
62
256
6
ByLayer
370
13
48
1
60
0
100
AcDbSpline
70
4
71
1
72
4
73
2
40
0
40
0
40
1
40
1
41
1
10
243.837557890198
20
15.9354678481768
30
0
41
1
10
244.098008335082
20
15.9514506360718
30
0
0
SPLINE
5
2A0
100
AcDbEntity
8
1
62
256
6
ByLayer
370
13
48
1
60
0
100
AcDbSpline
70
4
71
2
72
6
73
3
40
0
40
0
40
0
40
1
40
1
40
1
41
1
10
243.828026832951
20
16.1836505621349
30
0
41
0.997409491337352
10
243.8252560276
20
16.1303095702941
30
0
41
1
10
243.83013433748
20
16.0771176722971
30
0
0
SPLINE
5
2A1
100
AcDbEntity
8
1
62
256
6
ByLayer
370
13
48
1
60
0
100
AcDbSpline
70
4
71
1
72
4
73
2
40
0
40
0
40
1
40
1
41
1
10
245.106858582616
20
26.0663198588684
30
0
41
1
10
245.3141222825
20
25.8308073499797
30
0
0
SPLINE
5
2A2
100
AcDbEntity
8
1
62
256
6
ByLayer
370
13
48
1
60
0
100
AcDbSpline
70
4
71
1
72
4
73
2
40
0
40
0
40
1
40
1
41
1
10
245.528030367332
20
6.84276289331518
30
0
41
1
10
245.497303922022
20
6.84188341056262
30
0
0
SPLINE
5
2A3
100
AcDbEntity
8
1
62
256
6
ByLayer
370
13
48
1
60
0
100
AcDbSpline
70
4
71
3
72
8
73
4
40
0
40
0
40
0
40
0
40
1
40
1
40
1
40
1
41
1
10
262.918334699259
20
26.9724017855955
30
0
41
1
10
262.978427711855
20
26.9849693065287
30
0
41
1
10
263.038455029527
20
26.9975207986835
30
0
41
1
10
263.098587370755
20
27.0100979072025
30
0
0
SPLINE
5
2A4
100
AcDbEntity
8
1
62
256
6
ByLayer
370
13
48
1
60
0
100
AcDbSpline
70
4
71
3
72
10
73
6
40
0
40
0
40
0
40
0
40
0.5
40
0.5
40
1
40
1
40
1
40
1
41
1
10
247.819735535841
20
7.61933550200132
30
0
41
1
10
247.815986919157
20
7.61913904532557
30
0
41
1
10
247.795600894353
20
7.61919064715258
30
0
41
1
10
247.734290327672
20
7.61968350538223
30
0
41
1
10
247.693356841818
20
7.62011720211129
30
0
41
1
10
247.654132311568
20
7.62058690611153
30
0
0
SPLINE
5
2A5
100
AcDbEntity
8
1
62
256
6
ByLayer
370
13
48
1
60
0
100
AcDbSpline
70
4
71
1
72
4
73
2
40
0
40
0
40
1
40
1
41
1
10
45.5013999999995
20
-25.5675915600094
30
0
41
1
10
45.5013999999996
20
-14.4769752777848
30
0
0
SPLINE
5
2A6
100
AcDbEntity
8
1
62
256
6
ByLayer
370
13
48
1
60
0
100
AcDbSpline
70
4
71
3
72
14
73
10
40
0
40
0
40
0
40
0
40
0.500000000000002
40
0.500000000000002
40
0.750000000000004
40
0.750000000000004
40
0.875000000000002
40
0.875000000000002
40
1
40
1
40
1
40
1
41
1
10
233.78404026916
20
24.3813689792486
30
0
41
1
10
234.527240720857
20
22.8670703354024
30
0
41
1
10
235.364214777628
20
21.4096703421682
30
0
41
1
10
236.793747577975
20
19.3291911791619
30
0
41
1
10
237.299277995872
20
18.6533061660791
30
0
41
1
10
238.10504399591
20
17.668282062689
30
0
41
1
10
238.38142970746
20
17.3449269368148
30
0
41
1
10
238.947251300877
20
16.7116970641464
30
0
41
1
10
239.237050814663
20
16.4013685408491
30
0
41
1
10
239.533785074862
20
16.0973684354236
30
0
0
SPLINE
5
2A7
100
AcDbEntity
8
1
62
256
6
ByLayer
370
13
48
1
60
0
100
AcDbSpline
70
4
71
3
72
8
73
4
40
0
40
0
40
0
40
0
40
1
40
1
40
1
40
1
41
1
10
45.4914
20
-9.40223954643719
30
0
41
1
10
44.9060438045061
20
-9.4017266787545
30
0
41
1
10
44.3210437710873
20
-9.40159931029081
30
0
41
1
10
43.7363991321779
20
-9.40185463469092
30
0
0
SPLINE
5
2A8
100
AcDbEntity
8
1
62
256
6
ByLayer
370
13
48
1
60
0
100
AcDbSpline
70
4
71
3
72
14
73
10
40
0
40
0
40
0
40
0
40
0.499999999999928
40
0.499999999999928
40
0.749999999999964
40
0.749999999999964
40
0.874999999999982
40
0.874999999999982
40
1
40
1
40
1
40
1
41
1
10
253.164715878551
20
8.20616517040193
30
0
41
1
10
253.340694872949
20
8.15646643130165
30
0
41
1
10
253.51605890345
20
8.12314780736915
30
0
41
1
10
253.779970356775
20
8.09437284656207
30
0
41
1
10
253.868073112969
20
8.08836348743992
30
0
41
1
10
254.000596003557
20
8.08464898891853
30
0
41
1
10
254.044831659222
20
8.0842960649309
30
0
41
1
10
254.133454336183
20
8.08537178545876
30
0
41
1
10
254.178279991523
20
8.08682524402414
30
0
41
1
10
254.222181836172
20
8.08912604220859
30
0
0
SPLINE
5
2A9
100
AcDbEntity
8
1
62
256
6
ByLayer
370
13
48
1
60
0
100
AcDbSpline
70
4
71
3
72
8
73
4
40
0
40
0
40
0
40
0
40
1
40
1
40
1
40
1
41
1
10
254.027177846276
20
6.57684779714995
30
0
41
1
10
254.694659741291
20
6.61182904097933
30
0
41
1
10
255.327185324708
20
6.64497830214591
30
0
41
1
10
255.919825905208
20
6.67603727888297
30
0
0
SPLINE
5
2AA
100
AcDbEntity
8
1
62
256
6
ByLayer
370
13
48
1
60
0
100
AcDbSpline
70
4
71
3
72
8
73
4
40
0
40
0
40
0
40
0
40
1
40
1
40
1
40
1
41
1
10
239.13214043089
20
12.1832478285196
30
0
41
1
10
239.540926767161
20
12.1894681655046
30
0
41
1
10
239.935887935881
20
12.1650351923789
30
0
41
1
10
240.317195159002
20
12.1091807711255
30
0
0
SPLINE
5
2AB
100
AcDbEntity
8
1
62
256
6
ByLayer
370
13
48
1
60
0
100
AcDbSpline
70
4
71
3
72
18
73
14
40
0
40
0
40
0
40
0
40
0.249999999999998
40
0.249999999999998
40
0.374999999999998
40
0.374999999999998
40
0.499999999999999
40
0.499999999999999
40
0.624999999999999
40
0.624999999999999
40
0.749999999999999
40
0.749999999999999
40
1
40
1
40
1
40
1
41
1
10
18.4122834735871
20
-21.3666130513989
30
0
41
1
10
18.1709610808315
20
-21.731194754909
30
0
41
1
10
17.9865832944606
20
-22.095320309114
30
0
41
1
10
17.7969526987376
20
-22.6379227542541
30
0
41
1
10
17.7483705259124
20
-22.8191641113821
30
0
41
1
10
17.6841484719994
20
-23.1710747841802
30
0
41
1
10
17.6680311763946
20
-23.3426694724442
30
0
41
1
10
17.6680590204576
20
-23.6771367585277
30
0
41
1
10
17.684122187239
20
-23.8400155421323
30
0
41
1
10
17.7479065794634
20
-24.1570687370426
30
0
41
1
10
17.7962012735128
20
-24.3118118089394
30
0
41
1
10
17.9858319527271
20
-24.7510557524252
30
0
41
1
10
18.1712385105823
20
-25.0148668140717
30
0
41
1
10
18.4122430672415
20
-25.2529991779145
30
0
0
SPLINE
5
2AC
100
AcDbEntity
8
1
62
256
6
ByLayer
370
13
48
1
60
0
100
AcDbSpline
70
4
71
3
72
12
73
8
40
0
40
0
40
0
40
0
40
0.5
40
0.5
40
0.75
40
0.75
40
1
40
1
40
1
40
1
41
1
10
248.931525842043
20
7.57632533277595
30
0
41
1
10
248.936844869615
20
7.60052306364923
30
0
41
1
10
248.927061052574
20
7.62499691912629
30
0
41
1
10
248.887280658669
20
7.65815502691842
30
0
41
1
10
248.869838452054
20
7.66861346548919
30
0
41
1
10
248.828036284573
20
7.68738821946357
30
0
41
1
10
248.803047553605
20
7.69594940732947
30
0
41
1
10
248.775619877619
20
7.70313907845616
30
0
0
SPLINE
5
2AD
100
AcDbEntity
8
1
62
256
6
ByLayer
370
13
48
1
60
0
100
AcDbSpline
70
4
71
3
72
8
73
4
40
0
40
0
40
0
40
0
40
1
40
1
40
1
40
1
41
1
10
240.097923634682
20
8.42301127399654
30
0
41
1
10
240.014233841508
20
8.20379507508909
30
0
41
1
10
239.915229714862
20
7.99010660759291
30
0
41
1
10
239.801383180565
20
7.78177552918149
30
0
0
SPLINE
5
2AE
100
AcDbEntity
8
1
62
256
6
ByLayer
370
13
48
1
60
0
100
AcDbSpline
70
4
71
3
72
8
73
4
40
0
40
0
40
0
40
0
40
1
40
1
40
1
40
1
41
1
10
50.4914
20
-26.2154325186503
30
0
41
1
10
48.8247331741934
20
-26.2154057094218
30
0
41
1
10
47.1580663216127
20
-26.2153428365088
30
0
41
1
10
45.4914
20
-26.2152281068182
30
0
0
SPLINE
5
2AF
100
AcDbEntity
8
1
62
256
6
ByLayer
370
13
48
1
60
0
100
AcDbSpline
70
4
71
3
72
12
73
8
40
0
40
0
40
0
40
0
40
0.500000000000013
40
0.500000000000013
40
0.750000000000006
40
0.750000000000006
40
1
40
1
40
1
40
1
41
1
10
236.732629291481
20
2.22863773117794
30
0
41
1
10
237.155296121534
20
2.1036388958083
30
0
41
1
10
237.579494167537
20
2.02471029203321
30
0
41
1
10
238.216176329921
20
1.97169904831972
30
0
41
1
10
238.428453040584
20
1.96500242327991
30
0
41
1
10
238.852590539989
20
1.97373855084581
30
0
41
1
10
239.065284782792
20
1.98935829918409
30
0
41
1
10
239.273499134491
20
2.01571033632763
30
0
0
SPLINE
5
2B0
100
AcDbEntity
8
1
62
256
6
ByLayer
370
13
48
1
60
0
100
AcDbSpline
70
4
71
3
72
8
73
4
40
0
40
0
40
0
40
0
40
1
40
1
40
1
40
1
41
1
10
0.499999999999957
20
-31.268533014896
30
0
41
1
10
0.333324220354243
20
-31.1231415880536
30
0
41
1
10
0.166657416166501
20
-30.9777424437056
30
0
41
1
10
-2.84E-14
20
-30.8323352297609
30
0
0
SPLINE
5
2B1
100
AcDbEntity
8
1
62
256
6
ByLayer
370
13
48
1
60
0
100
AcDbSpline
70
4
71
3
72
10
73
6
40
0
40
0
40
0
40
0
40
0.753567204723711
40
0.753567204723711
40
1
40
1
40
1
40
1
41
1
10
0.5
20
-4.071
30
0
41
1
10
0.374398598796674
20
-4.071
30
0
41
1
10
0.248802294970275
20
-4.071
30
0
41
1
10
0.0821402764839974
20
-4.071
30
0
41
1
10
0.0410698531254923
20
-4.071
30
0
41
1
10
0
20
-4.071
30
0
0
SPLINE
5
2B2
100
AcDbEntity
8
1
62
256
6
ByLayer
370
13
48
1
60
0
100
AcDbSpline
70
4
71
3
72
10
73
6
40
0
40
0
40
0
40
0
40
0.5
40
0.5
40
1
40
1
40
1
40
1
41
1
10
258.306038565164
20
8.47561047498493
30
0
41
1
10
258.330495995692
20
8.48588658763862
30
0
41
1
10
258.356560152788
20
8.49427942818267
30
0
41
1
10
258.409895542577
20
8.50643111682882
30
0
41
1
10
258.437344011816
20
8.51029213487348
30
0
41
1
10
258.465585779366
20
8.51178785089664
30
0
0
SPLINE
5
2B3
100
AcDbEntity
8
1
62
256
6
ByLayer
370
13
48
1
60
0
100
AcDbSpline
70
2053
71
3
72
95
73
91
40
0
40
0
40
0
40
0
40
0.0312500000000005
40
0.0312500000000005
40
0.0468750000000007
40
0.0468750000000007
40
0.062500000000001
40
0.062500000000001
40
0.0937500000000016
40
0.0937500000000016
40
0.109375000000002
40
0.109375000000002
40
0.125000000000002
40
0.140625000000002
40
0.140625000000002
40
0.156250000000003
40
0.156250000000003
40
0.187499999999997
40
0.187499999999997
40
0.218749999999991
40
0.218749999999991
40
0.249999999999986
40
0.249999999999986
40
0.265624999999983
40
0.265624999999983
40
0.28124999999998
40
0.28124999999998
40
0.312499999999974
40
0.312499999999974
40
0.328124999999972
40
0.328124999999972
40
0.343749999999969
40
0.343749999999969
40
0.37499999999997
40
0.37499999999997
40
0.390624999999974
40
0.390624999999974
40
0.406249999999978
40
0.421874999999983
40
0.421874999999983
40
0.437499999999987
40
0.437499999999987
40
0.468749999999996
40
0.468749999999996
40
0.484375
40
0.484375
40
0.500000000000004
40
0.500000000000004
40
0.53125
40
0.53125
40
0.546874999999998
40
0.546874999999998
40
0.562499999999996
40
0.578124999999995
40
0.578124999999995
40
0.593749999999993
40
0.593749999999993
40
0.624999999999989
40
0.624999999999989
40
0.640624999999987
40
0.640624999999987
40
0.656249999999985
40
0.656249999999985
40
0.687499999999982
40
0.687499999999982
40
0.718749999999978
40
0.718749999999978
40
0.734374999999978
40
0.734374999999978
40
0.749999999999977
40
0.749999999999977
40
0.781249999999977
40
0.781249999999977
40
0.796874999999976
40
0.796874999999976
40
0.812499999999975
40
0.812499999999975
40
0.843749999999975
40
0.843749999999975
40
0.874999999999974
40
0.874999999999974
40
0.906249999999973
40
0.906249999999973
40
0.921874999999977
40
0.921874999999977
40
0.937499999999982
40
0.937499999999982
40
0.968749999999991
40
0.968749999999991
40
1
40
1
40
1
40
1
41
1
10
254.71096185593
20
-4.00967788571509
30
0
41
1
10
254.854504291979
20
-4.00967788571509
30
0
41
1
10
254.995457380129
20
-4.02461500200067
30
0
41
1
10
255.203171207811
20
-4.06843875097675
30
0
41
1
10
255.271784814925
20
-4.08664504747239
30
0
41
1
10
255.407731567411
20
-4.13043048815064
30
0
41
1
10
255.474743159352
20
-4.15595407858495
30
0
41
1
10
255.669307659288
20
-4.24173493793305
30
0
41
1
10
255.791908654223
20
-4.31155773018932
30
0
41
1
10
255.965219508469
20
-4.43504080484982
30
0
41
1
10
256.021360923159
20
-4.47953040476656
30
0
41
1
10
256.127662468422
20
-4.57286120764067
30
0
41
1
10
256.2286024384
20
-4.67092477299289
30
0
41
1
10
256.319132762396
20
-4.77814572471925
30
0
41
1
10
256.404466664161
20
-4.88992221148513
30
0
41
1
10
256.444723241017
20
-4.94840918525477
30
0
41
1
10
256.555911122194
20
-5.12820351437986
30
0
41
1
10
256.617295020722
20
-5.253369887611
30
0
41
1
10
256.715908768652
20
-5.51364462522582
30
0
41
1
10
256.753187260864
20
-5.6499910724749
30
0
41
1
10
256.801105001656
20
-5.92292931946383
30
0
41
1
10
256.812270577875
20
-6.06030563903656
30
0
41
1
10
256.810126508205
20
-6.26768460259032
30
0
41
1
10
256.806195087814
20
-6.33736516023785
30
0
41
1
10
256.792055710159
20
-6.4750093589503
30
0
41
1
10
256.781883481504
20
-6.54305225339735
30
0
41
1
10
256.742303525766
20
-6.74491210216345
30
0
41
1
10
256.703917304415
20
-6.87647940804885
30
0
41
1
10
256.627783825035
20
-7.06924653464966
30
0
41
1
10
256.599238795287
20
-7.13274717514076
30
0
41
1
10
256.536995014211
20
-7.25564489899136
30
0
41
1
10
256.503176667897
20
-7.31537596836355
30
0
41
1
10
256.393663054267
20
-7.4894654227605
30
0
41
1
10
256.309998212483
20
-7.59877436323558
30
0
41
1
10
256.167169289598
20
-7.7519051506228
30
0
41
1
10
256.116986537895
20
-7.80071945642956
30
0
41
1
10
256.012864433685
20
-7.89256936849702
30
0
41
1
10
255.904585921218
20
-7.97907267436736
30
0
41
1
10
255.787891421435
20
-8.05480383519895
30
0
41
1
10
255.666803702205
20
-8.12493818642537
30
0
41
1
10
255.603765888674
20
-8.15733941778691
30
0
41
1
10
255.409594029996
20
-8.24463682043674
30
0
41
1
10
255.275983983462
20
-8.28873738125381
30
0
41
1
10
255.069300687977
20
-8.33376816145091
30
0
41
1
10
254.99935414089
20
-8.34523272423903
30
0
41
1
10
254.857255477504
20
-8.360739305669
30
0
41
1
10
254.785430537792
20
-8.36468878917626
30
0
41
1
10
254.572304238951
20
-8.36505351714888
30
0
41
1
10
254.431563470053
20
-8.35032355155283
30
0
41
1
10
254.222469646684
20
-8.30570464788261
30
0
41
1
10
254.153162692336
20
-8.28699850292787
30
0
41
1
10
254.018585744859
20
-8.24301447112003
30
0
41
1
10
253.887159464562
20
-8.19229822018903
30
0
41
1
10
253.761822388356
20
-8.12853060272727
30
0
41
1
10
253.639516207347
20
-8.05824224457481
30
0
41
1
10
253.579915693422
20
-8.01980071492218
30
0
41
1
10
253.409344233812
20
-7.89734448267347
30
0
41
1
10
253.305151699273
20
-7.80553410210658
30
0
41
1
10
253.162453610657
20
-7.65313958873807
30
0
41
1
10
253.117041844862
20
-7.59966668714179
30
0
41
1
10
253.032385231402
20
-7.48978890623548
30
0
41
1
10
252.992934018829
20
-7.43319653754935
30
0
41
1
10
252.882897722722
20
-7.25860625660891
30
0
41
1
10
252.820443783434
20
-7.13556308219478
30
0
41
1
10
252.718314777256
20
-6.87754071072445
30
0
41
1
10
252.679827961174
20
-6.74571245857973
30
0
41
1
10
252.640173384271
20
-6.54385983888579
30
0
41
1
10
252.629989726248
20
-6.47588613776404
30
0
41
1
10
252.615816706029
20
-6.33852627023469
30
0
41
1
10
252.611836889635
20
-6.26878999704391
30
0
41
1
10
252.609602675847
20
-6.0608377355826
30
0
41
1
10
252.620783340181
20
-5.92351377729236
30
0
41
1
10
252.65649782476
20
-5.71951269957967
30
0
41
1
10
252.671580378922
20
-5.6518456775311
30
0
41
1
10
252.708352464972
20
-5.51721399055643
30
0
41
1
10
252.730145330891
20
-5.45007663781138
30
0
41
1
10
252.804260733661
20
-5.25410406627543
30
0
41
1
10
252.86554122323
20
-5.12926114793962
30
0
41
1
10
253.012223846629
20
-4.89148486622335
30
0
41
1
10
253.098835724773
20
-4.77747835327966
30
0
41
1
10
253.29061423011
20
-4.5715224003425
30
0
41
1
10
253.395962964995
20
-4.47867218391971
30
0
41
1
10
253.568605382744
20
-4.35514277005845
30
0
41
1
10
253.628999196508
20
-4.31640138388195
30
0
41
1
10
253.752646824669
20
-4.24581751144393
30
0
41
1
10
253.815873027318
20
-4.21392238566727
30
0
41
1
10
254.009678275099
20
-4.12824973516928
30
0
41
1
10
254.144339291733
20
-4.08437734061221
30
0
41
1
10
254.425180062004
20
-4.02465302380375
30
0
41
1
10
254.567419419882
20
-4.00967788571509
30
0
41
1
10
254.71096185593
20
-4.00967788571509
30
0
0
SPLINE
5
2B4
100
AcDbEntity
8
1
62
256
6
ByLayer
370
13
48
1
60
0
100
AcDbSpline
70
4
71
3
72
20
73
16
40
0
40
0
40
0
40
0
40
0.125000000000001
40
0.125000000000001
40
0.250000000000001
40
0.250000000000001
40
0.375000000000002
40
0.375000000000002
40
0.500000000000002
40
0.500000000000002
40
0.625000000000002
40
0.625000000000002
40
0.750000000000003
40
0.750000000000003
40
1
40
1
40
1
40
1
41
1
10
5.99999999999996
20
-31.0675076027925
30
0
41
1
10
5.99999999999997
20
-31.080962010327
30
0
41
1
10
5.99677802951543
20
-31.09414941444
30
0
41
1
10
5.98415574729455
20
-31.1200169935347
30
0
41
1
10
5.97460706229403
20
-31.132827336719
30
0
41
1
10
5.94964138722892
20
-31.1572191139859
30
0
41
1
10
5.93436036703302
20
-31.1687556935702
30
0
41
1
10
5.89825058475371
20
-31.1905426353914
30
0
41
1
10
5.87720587398624
20
-31.2008461165011
30
0
41
1
10
5.83118489707975
20
-31.2192929262407
30
0
41
1
10
5.80606785289073
20
-31.2275533431178
30
0
41
1
10
5.75151945639116
20
-31.242127423306
30
0
41
1
10
5.72235822232541
20
-31.248336483291
30
0
41
1
10
5.63204318454244
20
-31.2632543930297
30
0
41
1
10
5.56624413343683
20
-31.268533014896
30
0
41
1
10
5.49999999999996
20
-31.268533014896
30
0
0
SPLINE
5
2B5
100
AcDbEntity
8
1
62
256
6
ByLayer
370
13
48
1
60
0
100
AcDbSpline
70
4
71
3
72
10
73
6
40
0
40
0
40
0
40
0
40
0.246432795276287
40
0.246432795276287
40
1
40
1
40
1
40
1
41
1
10
0
20
4.071
30
0
41
1
10
0.0410698531254923
20
4.071
30
0
41
1
10
0.0821402764839974
20
4.071
30
0
41
1
10
0.248802294970289
20
4.071
30
0
41
1
10
0.374398598796674
20
4.071
30
0
41
1
10
0.5
20
4.071
30
0
0
SPLINE
5
2B6
100
AcDbEntity
8
1
62
256
6
ByLayer
370
13
48
1
60
0
100
AcDbSpline
70
4
71
3
72
14
73
10
40
0
40
0
40
0
40
0
40
0.499999999999991
40
0.499999999999991
40
0.62499999999999
40
0.62499999999999
40
0.749999999999989
40
0.749999999999989
40
1
40
1
40
1
40
1
41
1
10
242.550644052815
20
10.0013311888871
30
0
41
1
10
242.571099506007
20
10.3588698802136
30
0
41
1
10
242.557599719095
20
10.7144583110454
30
0
41
1
10
242.482586570041
20
11.1556045990172
30
0
41
1
10
242.464547270757
20
11.243974792137
30
0
41
1
10
242.422307849967
20
11.4187421468582
30
0
41
1
10
242.398183483749
20
11.504926620841
30
0
41
1
10
242.316386276368
20
11.759718739104
30
0
41
1
10
242.249333921933
20
11.924582878417
30
0
41
1
10
242.168231739968
20
12.0838395200247
30
0
0
SPLINE
5
2B7
100
AcDbEntity
8
1
62
256
6
ByLayer
370
13
48
1
60
0
100
AcDbSpline
70
4
71
3
72
8
73
4
40
0
40
0
40
0
40
0
40
1
40
1
40
1
40
1
41
1
10
45.9414
20
-25.5580631668582
30
0
41
1
10
45.7913999942281
20
-25.5581873814376
30
0
41
1
10
45.6413999939466
20
-25.5583165724139
30
0
41
1
10
45.4914
20
-25.5584508700361
30
0
0
SPLINE
5
2B8
100
AcDbEntity
8
1
62
256
6
ByLayer
370
13
48
1
60
0
100
AcDbSpline
70
4
71
3
72
8
73
4
40
0
40
0
40
0
40
0
40
1
40
1
40
1
40
1
41
1
10
241.329592519489
20
-0.319597736640873
30
0
41
1
10
241.703647540863
20
-0.343166486863396
30
0
41
1
10
242.077706439897
20
-0.366716357410695
30
0
41
1
10
242.451769144042
20
-0.3902476527457
30
0
0
SPLINE
5
2B9
100
AcDbEntity
8
1
62
256
6
ByLayer
370
13
48
1
60
0
100
AcDbSpline
70
4
71
3
72
18
73
14
40
0
40
0
40
0
40
0
40
0.250000000000172
40
0.250000000000172
40
0.375000000000145
40
0.375000000000145
40
0.500000000000117
40
0.500000000000117
40
0.750000000000058
40
0.750000000000058
40
0.875000000000029
40
0.875000000000029
40
1
40
1
40
1
40
1
41
1
10
261.448451908978
20
8.66811327842342
30
0
41
1
10
261.505818874438
20
8.67111975368735
30
0
41
1
10
261.563578754447
20
8.66394533423392
30
0
41
1
10
261.644906124869
20
8.64057069992751
30
0
41
1
10
261.670802431341
20
8.63080021780601
30
0
41
1
10
261.718986965567
20
8.60885774065207
30
0
41
1
10
261.741665104019
20
8.59646770969621
30
0
41
1
10
261.801737596936
20
8.55954792634876
30
0
41
1
10
261.832633886236
20
8.53468395563667
30
0
41
1
10
261.864975108358
20
8.50905109941368
30
0
41
1
10
261.873694706919
20
8.50222802734515
30
0
41
1
10
261.886873120032
20
8.49329656501473
30
0
41
1
10
261.891479126339
20
8.4910568818477
30
0
41
1
10
261.894189869296
20
8.49119894586627
30
0
0
SPLINE
5
2BA
100
AcDbEntity
8
1
62
256
6
ByLayer
370
13
48
1
60
0
100
AcDbSpline
70
4
71
3
72
8
73
4
40
0
40
0
40
0
40
0
40
1
40
1
40
1
40
1
41
1
10
239.451769144042
20
-0.0011945946061473
30
0
41
1
10
240.070768182453
20
-0.17297256822684
30
0
41
1
10
240.696716588655
20
-0.279720996901403
30
0
41
1
10
241.329592519489
20
-0.319597736641185
30
0
0
SPLINE
5
2BB
100
AcDbEntity
8
1
62
256
6
ByLayer
370
13
48
1
60
0
100
AcDbSpline
70
4
71
3
72
8
73
4
40
0
40
0
40
0
40
0
40
1
40
1
40
1
40
1
41
1
10
50.4914
20
-9.40446727662919
30
0
41
1
10
48.8247331483794
20
-9.40435047532782
30
0
41
1
10
47.1580661229587
20
-9.40369981831753
30
0
41
1
10
45.4914
20
-9.40223954643716
30
0
0
SPLINE
5
2BC
100
AcDbEntity
8
1
62
256
6
ByLayer
370
13
48
1
60
0
100
AcDbSpline
70
4
71
1
72
4
73
2
40
0
40
0
40
1
40
1
41
1
10
45.9414
20
-14.4728762198233
30
0
41
1
10
45.4914
20
-14.4728762198233
30
0
0
SPLINE
5
2BD
100
AcDbEntity
8
1
62
256
6
ByLayer
370
13
48
1
60
0
100
AcDbSpline
70
4
71
3
72
18
73
14
40
0
40
0
40
0
40
0
40
0.125
40
0.125
40
0.25
40
0.25
40
0.5
40
0.5
40
0.75
40
0.75
40
0.875
40
0.875
40
1
40
1
40
1
40
1
41
1
10
242.550644052815
20
10.0013311888871
30
0
41
1
10
242.485066870062
20
10.1025637857035
30
0
41
1
10
242.415878442242
20
10.203431873817
30
0
41
1
10
242.269652671208
20
10.4040875812485
30
0
41
1
10
242.192541097877
20
10.5039046106681
30
0
41
1
10
241.952611108091
20
10.7963536064445
30
0
41
1
10
241.780084418313
20
10.9836740561944
30
0
41
1
10
241.408342215143
20
11.3405838032658
30
0
41
1
10
241.209112479381
20
11.5101391789504
30
0
41
1
10
240.888327386576
20
11.7487958946248
30
0
41
1
10
240.777180352156
20
11.8260840329455
30
0
41
1
10
240.55030226854
20
11.9732156811398
30
0
41
1
10
240.43475879563
20
12.0430038883043
30
0
41
1
10
240.317195159001
20
12.1091807711256
30
0
0
SPLINE
5
2BE
100
AcDbEntity
8
1
62
256
6
ByLayer
370
13
48
1
60
0
100
AcDbSpline
70
4
71
3
72
8
73
4
40
0
40
0
40
0
40
0
40
1
40
1
40
1
40
1
41
1
10
238.182884438548
20
9.34084705592349
30
0
41
1
10
238.257213442943
20
9.57478571447422
30
0
41
1
10
238.326783300188
20
9.80962060103758
30
0
41
1
10
238.393379923076
20
10.0450153979872
30
0
0
SPLINE
5
2BF
100
AcDbEntity
8
1
62
256
6
ByLayer
370
13
48
1
60
0
100
AcDbSpline
70
4
71
3
72
10
73
6
40
0
40
0
40
0
40
0
40
0.5
40
0.5
40
1
40
1
40
1
40
1
41
1
10
242.168231739968
20
12.0838395200247
30
0
41
1
10
242.141336501741
20
12.1889714562266
30
0
41
1
10
242.106711135168
20
12.2916973262542
30
0
41
1
10
242.020496866089
20
12.4918690259044
30
0
41
1
10
241.968463998663
20
12.5898715338191
30
0
41
1
10
241.908550042178
20
12.6827421137512
30
0
0
SPLINE
5
2C0
100
AcDbEntity
8
1
62
256
6
ByLayer
370
13
48
1
60
0
100
AcDbSpline
70
4
71
3
72
8
73
4
40
0
40
0
40
0
40
0
40
1
40
1
40
1
40
1
41
1
10
239.273499134491
20
2.01571033632763
30
0
41
1
10
239.822331243599
20
1.86251619156346
30
0
41
1
10
240.374035508926
20
1.74567670879978
30
0
41
1
10
240.927334529131
20
1.66217336943021
30
0
0
SPLINE
5
2C1
100
AcDbEntity
8
1
62
256
6
ByLayer
370
13
48
1
60
0
100
AcDbSpline
70
4
71
3
72
8
73
4
40
0
40
0
40
0
40
0
40
1
40
1
40
1
40
1
41
1
10
43.7363987633795
20
-25.5733218049668
30
0
41
1
10
43.7363987714303
20
-25.7979519761207
30
0
41
1
10
43.7363987795825
20
-26.0225821471924
30
0
41
1
10
43.7363987878363
20
-26.247212318182
30
0
0
SPLINE
5
2C2
100
AcDbEntity
8
1
62
256
6
ByLayer
370
13
48
1
60
0
100
AcDbSpline
70
4
71
3
72
8
73
4
40
0
40
0
40
0
40
0
40
1
40
1
40
1
40
1
41
1
10
244.41114280623
20
18.581999314582
30
0
41
1
10
244.399359801547
20
18.5613752119739
30
0
41
1
10
244.386799875524
20
18.5425745467129
30
0
41
1
10
244.373958086286
20
18.5255099663601
30
0
0
SPLINE
5
2C3
100
AcDbEntity
8
1
62
256
6
ByLayer
370
13
48
1
60
0
100
AcDbSpline
70
4
71
3
72
14
73
10
40
0
40
0
40
0
40
0
40
0.25
40
0.25
40
0.5
40
0.5
40
0.75
40
0.75
40
1
40
1
40
1
40
1
41
1
10
250.659468619382
20
5.89852820371604
30
0
41
1
10
250.963034474852
20
6.01011503511876
30
0
41
1
10
251.260021330041
20
6.10383207067906
30
0
41
1
10
251.842868734626
20
6.26300116012882
30
0
41
1
10
252.128700444335
20
6.32838943393443
30
0
41
1
10
252.689813244402
20
6.43567550219822
30
0
41
1
10
252.96508176454
20
6.47754396282437
30
0
41
1
10
253.504867279005
20
6.54139273751963
30
0
41
1
10
253.769921421765
20
6.56336555923488
30
0
41
1
10
254.027177846276
20
6.57684779714998
30
0
0
SPLINE
5
2C4
100
AcDbEntity
8
1
62
256
6
ByLayer
370
13
48
1
60
0
100
AcDbSpline
70
4
71
3
72
16
73
12
40
0
40
0
40
0
40
0
40
0.124999999999997
40
0.124999999999997
40
0.187499999999997
40
0.187499999999997
40
0.249999999999996
40
0.249999999999996
40
0.499999999999997
40
0.499999999999997
40
1
40
1
40
1
40
1
41
1
10
40.4773650736113
20
-10.0919278841695
30
0
41
1
10
39.9115981617679
20
-10.1385587404966
30
0
41
1
10
39.3469609612938
20
-10.1930378661592
30
0
41
1
10
38.5016928076372
20
-10.2864808844127
30
0
41
1
10
38.2202322061806
20
-10.3196810896713
30
0
41
1
10
37.6578155340653
20
-10.3895865490851
30
0
41
1
10
37.376565300666
20
-10.424248211861
30
0
41
1
10
35.9701054669806
20
-10.5961068878766
30
0
41
1
10
34.8443313234002
20
-10.7289494072203
30
0
41
1
10
31.4641335656799
20
-11.1138587728241
30
0
41
1
10
29.2070745384914
20
-11.3522846330884
30
0
41
1
10
26.9464916208159
20
-11.5728840441272
30
0
0
SPLINE
5
2C5
100
AcDbEntity
8
1
62
256
6
ByLayer
370
13
48
1
60
0
100
AcDbSpline
70
4
71
3
72
18
73
14
40
0
40
0
40
0
40
0
40
0.249999999999994
40
0.249999999999994
40
0.499999999999988
40
0.499999999999988
40
0.562499999999986
40
0.562499999999986
40
0.624999999999985
40
0.624999999999985
40
0.74999999999999
40
0.74999999999999
40
1
40
1
40
1
40
1
41
1
10
243.682226737848
20
5.63494243764035
30
0
41
1
10
244.25740570997
20
5.47194364764729
30
0
41
1
10
244.835215961986
20
5.35770691463676
30
0
41
1
10
245.997291642091
20
5.21891600566056
30
0
41
1
10
246.581552573247
20
5.19442383666907
30
0
41
1
10
247.316734360276
20
5.22064641084131
30
0
41
1
10
247.464013958676
20
5.22875319577844
30
0
41
1
10
247.759082167442
20
5.25079247954798
30
0
41
1
10
247.907016790922
20
5.26474948540829
30
0
41
1
10
248.348950950547
20
5.31521314560993
30
0
41
1
10
248.641864564929
20
5.36033206017581
30
0
41
1
10
249.515512119627
20
5.53035088317171
30
0
41
1
10
250.091234892638
20
5.68965293029163
30
0
41
1
10
250.659468619382
20
5.8985282037159
30
0
0
SPLINE
5
2C6
100
AcDbEntity
8
1
62
256
6
ByLayer
370
13
48
1
60
0
100
AcDbSpline
70
4
71
3
72
42
73
38
40
0
40
0
40
0
40
0
40
0.0625000000000004
40
0.0625000000000004
40
0.125000000000001
40
0.125000000000001
40
0.187500000000001
40
0.187500000000001
40
0.250000000000001
40
0.250000000000001
40
0.375000000000002
40
0.375000000000002
40
0.406250000000002
40
0.406250000000002
40
0.437500000000002
40
0.437500000000002
40
0.500000000000003
40
0.500000000000003
40
0.562500000000003
40
0.562500000000003
40
0.593750000000003
40
0.593750000000003
40
0.625000000000003
40
0.625000000000003
40
0.687500000000003
40
0.687500000000003
40
0.718750000000002
40
0.718750000000002
40
0.750000000000001
40
0.750000000000001
40
0.875000000000001
40
0.875000000000001
40
0.906250000000001
40
0.906250000000001
40
0.9375
40
0.9375
40
1
40
1
40
1
40
1
41
1
10
26.9464916208159
20
-11.5728840441271
30
0
41
1
10
26.5982631782049
20
-11.606866869482
30
0
41
1
10
26.2545546605202
20
-11.6591487707097
30
0
41
1
10
25.5753358292426
20
-11.7969320732045
30
0
41
1
10
25.2398289658359
20
-11.8824475301073
30
0
41
1
10
24.5765801447229
20
-12.0849937275752
30
0
41
1
10
24.2488391239047
20
-12.2020281613025
30
0
41
1
10
23.6010208044622
20
-12.4672735931249
30
0
41
1
10
23.2857150859604
20
-12.6136117774983
30
0
41
1
10
22.3672598674736
20
-13.0893253660638
30
0
41
1
10
21.789630620228
20
-13.4553719365375
30
0
41
1
10
21.112571837258
20
-13.974048913372
30
0
41
1
10
20.97981212838
20
-14.080606386186
30
0
41
1
10
20.7219391660062
20
-14.297294556651
30
0
41
1
10
20.5964481215282
20
-14.4076857762342
30
0
41
1
10
20.2303633134631
20
-14.7449092692596
30
0
41
1
10
20.0001262428801
20
-14.9777737128991
30
0
41
1
10
19.5679706609077
20
-15.4593031261007
30
0
41
1
10
19.366040879166
20
-15.7079637370959
30
0
41
1
10
19.0859874886649
20
-16.0932053713945
30
0
41
1
10
18.9961634817241
20
-16.2241324377661
30
0
41
1
10
18.8261203610601
20
-16.4878468687128
30
0
41
1
10
18.7460562888041
20
-16.620327566432
30
0
41
1
10
18.5207813191413
20
-17.0195206606445
30
0
41
1
10
18.3903595575377
20
-17.2879562912908
30
0
41
1
10
18.2261455872772
20
-17.6939356525186
30
0
41
1
10
18.1766527931236
20
-17.8298174427418
30
0
41
1
10
18.0885187151917
20
-18.1026689721078
30
0
41
1
10
18.049782070017
20
-18.24023179659
30
0
41
1
10
17.8868864640108
20
-18.9228453730161
30
0
41
1
10
17.8519851356354
20
-19.4494916987962
30
0
41
1
10
17.9346818527224
20
-20.0827601323725
30
0
41
1
10
17.9576942172068
20
-20.2086723105126
30
0
41
1
10
18.0161170326042
20
-20.455044655316
30
0
41
1
10
18.0514318577275
20
-20.5754057150851
30
0
41
1
10
18.1753143952869
20
-20.9283126244865
30
0
41
1
10
18.2817079911358
20
-21.1527159811631
30
0
41
1
10
18.4122834735871
20
-21.3666130513989
30
0
0
SPLINE
5
2C7
100
AcDbEntity
8
1
62
256
6
ByLayer
370
13
48
1
60
0
100
AcDbSpline
70
4
71
3
72
15
73
11
40
0
40
0
40
0
40
0
40
0.500000000000001
40
0.500000000000001
40
0.750000000000002
40
0.750000000000002
40
0.812500000000001
40
0.812500000000001
40
0.875000000000001
40
1
40
1
40
1
40
1
41
1
10
26.9464922012563
20
-28.1429326636524
30
0
41
1
10
29.2110585958379
20
-27.8839282870053
30
0
41
1
10
31.472089668629
20
-27.6039570446053
30
0
41
1
10
34.8582277691446
20
-27.1519240414209
30
0
41
1
10
35.9859821506915
20
-26.9959066020057
30
0
41
1
10
37.3949164284485
20
-26.7940556825996
30
0
41
1
10
37.6766611654734
20
-26.7533430071285
30
0
41
1
10
38.2400671548412
20
-26.6712387909987
30
0
41
1
10
39.0860233779589
20
-26.554971887647
30
0
41
1
10
39.934523433524
20
-26.4593904472157
30
0
41
1
10
40.5013254093797
20
-26.4049010815226
30
0
0
SPLINE
5
2C8
100
AcDbEntity
8
1
62
256
6
ByLayer
370
13
48
1
60
0
100
AcDbSpline
70
4
71
3
72
8
73
4
40
0
40
0
40
0
40
0
40
1
40
1
40
1
40
1
41
1
10
235.583485075381
20
2.65986332901619
30
0
41
1
10
235.171744806964
20
2.84920580426621
30
0
41
1
10
234.760389551376
20
3.03970598704188
30
0
41
1
10
234.349408341988
20
3.23133090143423
30
0
0
SPLINE
5
2C9
100
AcDbEntity
8
1
62
256
6
ByLayer
370
13
48
1
60
0
100
AcDbSpline
70
4
71
3
72
10
73
6
40
0
40
0
40
0
40
0
40
0.5
40
0.5
40
1
40
1
40
1
40
1
41
1
10
248.842058131622
20
6.97839876535249
30
0
41
1
10
248.806598060842
20
6.93544923152399
30
0
41
1
10
248.770376562227
20
6.89452577348999
30
0
41
1
10
248.699285914891
20
6.8189726302665
30
0
41
1
10
248.664189834791
20
6.78405517876183
30
0
41
1
10
248.630301577099
20
6.75232579952245
30
0
0
SPLINE
5
2CA
100
AcDbEntity
8
1
62
256
6
ByLayer
370
13
48
1
60
0
100
AcDbSpline
70
4
71
3
72
18
73
14
40
0
40
0
40
0
40
0
40
0.25
40
0.25
40
0.375
40
0.375
40
0.5
40
0.625
40
0.625
40
0.75
40
0.875
40
0.875
40
1
40
1
40
1
40
1
41
1
10
45.4963999120455
20
-14.4769749758517
30
0
41
1
10
43.4895347536272
20
-14.9065067335994
30
0
41
1
10
41.496090326915
20
-15.5370143265064
30
0
41
1
10
38.647881143983
20
-16.7795704950959
30
0
41
1
10
37.7222638043988
20
-17.2437475114809
30
0
41
1
10
35.9378316575189
20
-18.2661681972791
30
0
41
1
10
34.2199410857156
20
-19.3814483281506
30
0
41
1
10
32.6715133970795
20
-20.6609798068112
30
0
41
1
10
31.2260062032301
20
-22.011902623999
30
0
41
1
10
29.8833572534189
20
-23.4341735077534
30
0
41
1
10
28.7634165625825
20
-24.9641958707587
30
0
41
1
10
27.7633258868231
20
-26.5306216467462
30
0
41
1
10
27.323939853993
20
-27.332020630149
30
0
41
1
10
26.9464922012563
20
-28.1429326636523
30
0
0
SPLINE
5
2CB
100
AcDbEntity
8
1
62
256
6
ByLayer
370
13
48
1
60
0
100
AcDbSpline
70
4
71
3
72
20
73
16
40
0
40
0
40
0
40
0
40
0.250000000000017
40
0.250000000000017
40
0.500000000000035
40
0.500000000000035
40
0.625000000000032
40
0.625000000000032
40
0.687500000000016
40
0.687500000000016
40
0.749999999999999
40
0.749999999999999
40
0.874999999999999
40
0.874999999999999
40
1
40
1
40
1
40
1
41
1
10
242.550644052815
20
10.001331188887
30
0
41
1
10
242.545967925699
20
9.83000853964833
30
0
41
1
10
242.520222436647
20
9.66195201414646
30
0
41
1
10
242.415978061906
20
9.33401667262754
30
0
41
1
10
242.339309444969
20
9.18077464502116
30
0
41
1
10
242.181355635001
20
8.97641524422451
30
0
41
1
10
242.123055794478
20
8.91464828209828
30
0
41
1
10
242.026966199338
20
8.83171489367388
30
0
41
1
10
241.993489763063
20
8.8056973615752
30
0
41
1
10
241.923534876207
20
8.7570386048657
30
0
41
1
10
241.886805174495
20
8.7342691408318
30
0
41
1
10
241.774005867903
20
8.67242235939767
30
0
41
1
10
241.695571621485
20
8.63973530966865
30
0
41
1
10
241.532767838056
20
8.59003864708444
30
0
41
1
10
241.447765295737
20
8.57310100648493
30
0
41
1
10
241.363261911081
20
8.56370502267188
30
0
0
SPLINE
5
2CC
100
AcDbEntity
8
1
62
256
6
ByLayer
370
13
48
1
60
0
100
AcDbSpline
70
4
71
3
72
14
73
10
40
0
40
0
40
0
40
0
40
0.25
40
0.25
40
0.5
40
0.5
40
0.75
40
0.75
40
1
40
1
40
1
40
1
41
1
10
248.775619877619
20
7.70313907845576
30
0
41
1
10
248.750789913335
20
7.70964780625991
30
0
41
1
10
248.724063401323
20
7.71696372321938
30
0
41
1
10
248.668344850538
20
7.73086331363009
30
0
41
1
10
248.639163757483
20
7.73749761892324
30
0
41
1
10
248.57768514717
20
7.74830575984871
30
0
41
1
10
248.546382163179
20
7.75226494163965
30
0
41
1
10
248.483007159337
20
7.75639127768065
30
0
41
1
10
248.450488888429
20
7.75653209275882
30
0
41
1
10
248.418826946961
20
7.75487276071882
30
0
0
SPLINE
5
2CD
100
AcDbEntity
8
1
62
256
6
ByLayer
370
13
48
1
60
0
100
AcDbSpline
70
4
71
3
72
8
73
4
40
0
40
0
40
0
40
0
40
1
40
1
40
1
40
1
41
1
10
50.4914
20
26.3127696275627
30
0
41
1
10
48.8247333376593
20
26.3127698850906
30
0
41
1
10
47.1580666684464
20
26.3127700436584
30
0
41
1
10
45.4914
20
26.3127700436584
30
0
0
SPLINE
5
2CE
100
AcDbEntity
8
1
62
256
6
ByLayer
370
13
48
1
60
0
100
AcDbSpline
70
4
71
3
72
52
73
48
40
0
40
0
40
0
40
0
40
0.0312499999999998
40
0.0312499999999998
40
0.0624999999999996
40
0.0624999999999996
40
0.0781249999999995
40
0.0781249999999995
40
0.0937499999999994
40
0.0937499999999994
40
0.125
40
0.125
40
0.156250000000001
40
0.156250000000001
40
0.171875000000001
40
0.171875000000001
40
0.187500000000001
40
0.187500000000001
40
0.250000000000003
40
0.250000000000003
40
0.281250000000003
40
0.281250000000003
40
0.312500000000003
40
0.312500000000003
40
0.375000000000003
40
0.375000000000003
40
0.406250000000003
40
0.406250000000003
40
0.437500000000003
40
0.437500000000003
40
0.500000000000003
40
0.500000000000003
40
0.562500000000003
40
0.562500000000003
40
0.593750000000004
40
0.593750000000004
40
0.625000000000004
40
0.625000000000004
40
0.750000000000003
40
0.750000000000003
40
0.812500000000002
40
0.812500000000002
40
0.875000000000002
40
0.875000000000002
40
0.937500000000001
40
0.937500000000001
40
1
40
1
40
1
40
1
41
1
10
224.472468735335
20
-25.873926281789
30
0
41
1
10
223.486504534405
20
-25.862833469733
30
0
41
1
10
222.499742409966
20
-25.8520697299632
30
0
41
1
10
220.526959993438
20
-25.8287709223143
30
0
41
1
10
219.540976098168
20
-25.8162159525531
30
0
41
1
10
218.0649582466
20
-25.7926450914046
30
0
41
1
10
217.573445836599
20
-25.7839871576022
30
0
41
1
10
216.591809496422
20
-25.7643196334386
30
0
41
1
10
216.101381386016
20
-25.7533028794763
30
0
41
1
10
214.636875362368
20
-25.715439436003
30
0
41
1
10
213.668799520944
20
-25.6839133839943
30
0
41
1
10
211.75778921965
20
-25.5970793985893
30
0
41
1
10
210.814702377485
20
-25.542001288317
30
0
41
1
10
209.426877895115
20
-25.4267577131116
30
0
41
1
10
208.971923254483
20
-25.3826913212116
30
0
41
1
10
208.062099544186
20
-25.2898404207317
30
0
41
1
10
207.606965231087
20
-25.2413326951346
30
0
41
1
10
205.333993694052
20
-24.9861969714543
30
0
41
1
10
203.513388266376
20
-24.7481247918538
30
0
41
1
10
200.782945331354
20
-24.338491755086
30
0
41
1
10
199.872839177283
20
-24.1931721921475
30
0
41
1
10
198.053129324564
20
-23.8844017569154
30
0
41
1
10
197.143540955368
20
-23.7207796305636
30
0
41
1
10
194.416584048703
20
-23.204316110926
30
0
41
1
10
192.600042636596
20
-22.8256398789035
30
0
41
1
10
189.86811185817
20
-22.2178044440461
30
0
41
1
10
188.956268025703
20
-22.0086298667618
30
0
41
1
10
187.128628747973
20
-21.5798186128659
30
0
41
1
10
186.212602933628
20
-21.360222700903
30
0
41
1
10
183.458190692517
20
-20.6896759494657
30
0
41
1
10
181.615118849773
20
-20.2271965358363
30
0
41
1
10
177.910742611263
20
-19.2873228490471
30
0
41
1
10
176.04956349428
20
-18.8097477655191
30
0
41
1
10
173.241850058133
20
-18.0929132591176
30
0
41
1
10
172.303370743281
20
-17.8539186828921
30
0
41
1
10
170.42318116886
20
-17.3783098023933
30
0
41
1
10
169.481162650372
20
-17.1416279175916
30
0
41
1
10
164.760590417986
20
-15.9684289224969
30
0
41
1
10
160.950795829303
20
-15.0619941965241
30
0
41
1
10
155.172992863938
20
-13.8307453026732
30
0
41
1
10
153.23535533731
20
-13.4413544945046
30
0
41
1
10
149.35009537492
20
-12.7120885422498
30
0
41
1
10
147.401596694655
20
-12.3719618996709
30
0
41
1
10
143.493659891701
20
-11.7407781012186
30
0
41
1
10
141.534219744968
20
-11.4497197866556
30
0
41
1
10
137.60490969567
20
-10.9172110264343
30
0
41
1
10
135.635064996135
20
-10.6756157397203
30
0
41
1
10
133.65988
20
-10.4607445319466
30
0
0
SPLINE
5
2CF
100
AcDbEntity
8
1
62
256
6
ByLayer
370
13
48
1
60
0
100
AcDbSpline
70
4
71
3
72
8
73
4
40
0
40
0
40
0
40
0
40
1
40
1
40
1
40
1
41
1
10
-2.84E-14
20
-26.7613352297609
30
0
41
1
10
0.166657416166501
20
-26.9067424437056
30
0
41
1
10
0.333324220354257
20
-27.0521415880536
30
0
41
1
10
0.499999999999972
20
-27.197533014896
30
0
0
SPLINE
5
2D0
100
AcDbEntity
8
1
62
256
6
ByLayer
370
13
48
1
60
0
100
AcDbSpline
70
4
71
3
72
14
73
10
40
0
40
0
40
0
40
0
40
0.12500000000005
40
0.12500000000005
40
0.2500000000001
40
0.2500000000001
40
0.500000000000067
40
0.500000000000067
40
1
40
1
40
1
40
1
41
1
10
257.337567649591
20
8.2523964942998
30
0
41
1
10
257.378258115001
20
8.25452899122993
30
0
41
1
10
257.419714571248
20
8.25759738652468
30
0
41
1
10
257.501516168715
20
8.26545322375546
30
0
41
1
10
257.542267993414
20
8.27026015285588
30
0
41
1
10
257.664149328171
20
8.2873074118678
30
0
41
1
10
257.74490421287
20
8.30216622496414
30
0
41
1
10
257.986241151445
20
8.35742013197702
30
0
41
1
10
258.145819567449
20
8.40829234571845
30
0
41
1
10
258.306038565166
20
8.4756104749849
30
0
0
SPLINE
5
2D1
100
AcDbEntity
8
1
62
256
6
ByLayer
370
13
48
1
60
0
100
AcDbSpline
70
4
71
3
72
8
73
4
40
0
40
0
40
0
40
0
40
1
40
1
40
1
40
1
41
1
10
45.4914
20
26.3127700436584
30
0
41
1
10
44.9819669216352
20
26.3127700436584
30
0
41
1
10
44.472678943077
20
26.320684038675
30
0
41
1
10
43.9635359549992
20
26.3365060658204
30
0
0
SPLINE
5
2D2
100
AcDbEntity
8
1
62
256
6
ByLayer
370
13
48
1
60
0
100
AcDbSpline
70
4
71
3
72
14
73
10
40
0
40
0
40
0
40
0
40
0.5
40
0.5
40
0.75
40
0.75
40
0.875
40
0.875
40
1
40
1
40
1
40
1
41
1
10
43.7363987878363
20
-26.2472123181834
30
0
41
1
10
43.1765660258318
20
-26.2676615507868
30
0
41
1
10
42.6263789780828
20
-26.2924877627717
30
0
41
1
10
41.8150183661495
20
-26.3336842024985
30
0
41
1
10
41.5469035469187
20
-26.3480328435191
30
0
41
1
10
41.1483416155715
20
-26.3697170519241
30
0
41
1
10
41.016082147152
20
-26.3769688878389
30
0
41
1
10
40.7560063401506
20
-26.3911723744243
30
0
41
1
10
40.627776084566
20
-26.3981464764807
30
0
41
1
10
40.5013254093797
20
-26.4049010815226
30
0
0
SPLINE
5
2D3
100
AcDbEntity
8
1
62
256
6
ByLayer
370
13
48
1
60
0
100
AcDbSpline
70
4
71
3
72
26
73
22
40
0
40
0
40
0
40
0
40
0.0624999999999997
40
0.0624999999999997
40
0.124999999999999
40
0.124999999999999
40
0.1875
40
0.1875
40
0.25
40
0.25
40
0.3125
40
0.3125
40
0.375
40
0.375
40
0.5
40
0.5
40
0.625
40
0.625
40
0.75
40
0.75
40
1
40
1
40
1
40
1
41
1
10
133.65988
20
-26.0182065701086
30
0
41
1
10
131.938787847043
20
-26.0143110050682
30
0
41
1
10
130.214712332151
20
-26.0090771892945
30
0
41
1
10
126.760493473215
20
-25.9999516194323
30
0
41
1
10
125.029650690553
20
-25.9960821445242
30
0
41
1
10
121.567216459153
20
-25.9922643713006
30
0
41
1
10
119.835278299699
20
-25.9922553831315
30
0
41
1
10
116.370237580235
20
-25.9963298214254
30
0
41
1
10
114.637145289219
20
-26.0003549156751
30
0
41
1
10
111.17036517952
20
-26.0106480989945
30
0
41
1
10
109.436659539727
20
-26.0168944313133
30
0
41
1
10
105.969311636312
20
-26.0295430681302
30
0
41
1
10
104.235636311813
20
-26.0357971282927
30
0
41
1
10
99.0345992762033
20
-26.0540197379511
30
0
41
1
10
95.5672305634306
20
-26.0656475201713
30
0
41
1
10
88.6324870998448
20
-26.0886146646858
30
0
41
1
10
85.1651120166487
20
-26.0999370089893
30
0
41
1
10
78.2303649947361
20
-26.1227323078263
30
0
41
1
10
74.7629927093782
20
-26.1341960045236
30
0
41
1
10
64.3608795270728
20
-26.1688729201558
30
0
41
1
10
57.426144113365
20
-26.1924613774599
30
0
41
1
10
50.4914
20
-26.2154325186503
30
0
0
SPLINE
5
2D4
100
AcDbEntity
8
1
62
256
6
ByLayer
370
13
48
1
60
0
100
AcDbSpline
70
4
71
3
72
16
73
12
40
0
40
0
40
0
40
0
40
0.249999999999977
40
0.249999999999977
40
0.374999999999974
40
0.374999999999974
40
0.499999999999971
40
0.499999999999971
40
0.749999999999986
40
0.749999999999986
40
1
40
1
40
1
40
1
41
1
10
263.597707434322
20
0.730451170013481
30
0
41
1
10
263.598962212241
20
0.778598836116259
30
0
41
1
10
263.601071439447
20
0.823918160326514
30
0
41
1
10
263.605311319763
20
0.882960809526935
30
0
41
1
10
263.606899422174
20
0.901199743446966
30
0
41
1
10
263.610429228287
20
0.934760855475901
30
0
41
1
10
263.612388237535
20
0.950163908344308
30
0
41
1
10
263.618621927228
20
0.990390343651171
30
0
41
1
10
263.623343801247
20
1.01000965010516
30
0
41
1
10
263.633565671072
20
1.03291542260064
30
0
41
1
10
263.638913151026
20
1.03610188714217
30
0
41
1
10
263.644504704762
20
1.03075882690311
30
0
0
SPLINE
5
2D5
100
AcDbEntity
8
1
62
256
6
ByLayer
370
13
48
1
60
0
100
AcDbSpline
70
4
71
3
72
14
73
10
40
0
40
0
40
0
40
0
40
0.25
40
0.25
40
0.5
40
0.5
40
0.75
40
0.75
40
1
40
1
40
1
40
1
41
1
10
238.851461809918
20
12.0493198792246
30
0
41
1
10
238.858949620288
20
12.0752234555784
30
0
41
1
10
238.876212767924
20
12.0972095779366
30
0
41
1
10
238.91775382209
20
12.131524301521
30
0
41
1
10
238.94226683969
20
12.1444685917463
30
0
41
1
10
238.993415312995
20
12.1642119400446
30
0
41
1
10
239.020664295559
20
12.1711841541573
30
0
41
1
10
239.075699801042
20
12.1804501835266
30
0
41
1
10
239.103718851878
20
12.1828154423211
30
0
41
1
10
239.132167170926
20
12.1832482353676
30
0
0
SPLINE
5
2D6
100
AcDbEntity
8
1
62
256
6
ByLayer
370
13
48
1
60
0
100
AcDbSpline
70
4
71
3
72
8
73
4
40
0
40
0
40
0
40
0
40
1
40
1
40
1
40
1
41
1
10
242.451769144041
20
-26.1419201900856
30
0
41
1
10
241.451769143315
20
-26.0525888953443
30
0
41
1
10
240.451769143307
20
-25.9632575926619
30
0
41
1
10
239.451769144042
20
-25.873926281789
30
0
0
SPLINE
5
2D7
100
AcDbEntity
8
1
62
256
6
ByLayer
370
13
48
1
60
0
100
AcDbSpline
70
4
71
3
72
16
73
12
40
0
40
0
40
0
40
0
40
0.25000000000002
40
0.25000000000002
40
0.50000000000004
40
0.50000000000004
40
0.75000000000006
40
0.75000000000006
40
0.87500000000003
40
0.87500000000003
40
1
40
1
40
1
40
1
41
1
10
263.769371975362
20
7.25959045369515
30
0
41
1
10
263.638116630641
20
7.28891688673525
30
0
41
1
10
263.509428051131
20
7.32597813592645
30
0
41
1
10
263.255580251394
20
7.41653688278063
30
0
41
1
10
263.130097702775
20
7.47019735298767
30
0
41
1
10
262.883487257157
20
7.59584032963872
30
0
41
1
10
262.764489881286
20
7.66669658667368
30
0
41
1
10
262.592505054165
20
7.786236290088
30
0
41
1
10
262.536266782849
20
7.82830387272244
30
0
41
1
10
262.426041285053
20
7.91729082249717
30
0
41
1
10
262.372137400044
20
7.96417991278401
30
0
41
1
10
262.320341221223
20
8.01284641886033
30
0
0
SPLINE
5
2D8
100
AcDbEntity
8
1
62
256
6
ByLayer
370
13
48
1
60
0
100
AcDbSpline
70
4
71
3
72
18
73
14
40
0
40
0
40
0
40
0
40
0.124999999999999
40
0.124999999999999
40
0.249999999999999
40
0.249999999999999
40
0.374999999999998
40
0.374999999999998
40
0.499999999999998
40
0.499999999999998
40
0.749999999999999
40
0.749999999999999
40
1
40
1
40
1
40
1
41
1
10
5.5
20
4.071
30
0
41
1
10
5.53311836198864
20
4.071
30
0
41
1
10
5.56567694370484
20
4.06774205109016
30
0
41
1
10
5.62972133566619
20
4.05498192252259
30
0
41
1
10
5.66154354218742
20
4.04532095818553
30
0
41
1
10
5.72214649856305
20
4.02014098073175
30
0
41
1
10
5.7508789788518
20
4.00473867431307
30
0
41
1
10
5.80523848848543
20
3.96836502711199
30
0
41
1
10
5.83093052062637
20
3.94722698913094
30
0
41
1
10
5.89997612824277
20
3.87802788825485
30
0
41
1
10
5.93710206073186
20
3.82231798197651
30
0
41
1
10
5.98680620220954
20
3.70229608162887
30
0
41
1
10
6
20
3.63685881207022
30
0
41
1
10
6
20
3.571
30
0
0
SPLINE
5
2D9
100
AcDbEntity
8
1
62
256
6
ByLayer
370
13
48
1
60
0
100
AcDbSpline
70
4
71
3
72
8
73
4
40
0
40
0
40
0
40
0
40
1
40
1
40
1
40
1
41
1
10
252.997772465964
20
8.22523193538231
30
0
41
1
10
253.054360801967
20
8.22819760440555
30
0
41
1
10
253.11088360401
20
8.22136809946025
30
0
41
1
10
253.164715878551
20
8.20616517040193
30
0
0
SPLINE
5
2DA
100
AcDbEntity
8
1
62
256
6
ByLayer
370
13
48
1
60
0
100
AcDbSpline
70
4
71
3
72
8
73
4
40
0
40
0
40
0
40
0
40
1
40
1
40
1
40
1
41
1
10
240.097923634682
20
8.42301127399654
30
0
41
1
10
239.483357678346
20
8.75510869488392
30
0
41
1
10
238.843236834598
20
9.05910253804547
30
0
41
1
10
238.18288443854
20
9.34084705591465
30
0
0
SPLINE
5
2DB
100
AcDbEntity
8
1
62
256
6
ByLayer
370
13
48
1
60
0
100
AcDbSpline
70
4
71
3
72
20
73
16
40
0
40
0
40
0
40
0
40
0.125
40
0.125
40
0.250000000000001
40
0.250000000000001
40
0.375000000000001
40
0.375000000000001
40
0.500000000000001
40
0.500000000000001
40
0.625000000000002
40
0.625000000000002
40
0.750000000000002
40
0.750000000000002
40
1
40
1
40
1
40
1
41
1
10
6
20
-3.571
30
0
41
1
10
6
20
-3.60393322509643
30
0
41
1
10
5.99677802951547
20
-3.63631595001573
30
0
41
1
10
5.98415574729458
20
-3.70002633954874
30
0
41
1
10
5.97460706229406
20
-3.73167708988237
30
0
41
1
10
5.94964138722897
20
-3.79211448094432
30
0
41
1
10
5.93436036703305
20
-3.82078736336274
30
0
41
1
10
5.89825058475375
20
-3.87507092443721
30
0
41
1
10
5.87720587398627
20
-3.90081594433366
30
0
41
1
10
5.83118489707979
20
-3.94700451121324
30
0
41
1
10
5.80606785289076
20
-3.96773917479186
30
0
41
1
10
5.75151945639119
20
-4.00437912552908
30
0
41
1
10
5.72235822232544
20
-4.02002157401955
30
0
41
1
10
5.63204318454247
20
-4.05764032847557
30
0
41
1
10
5.56624413343685
20
-4.071
30
0
41
1
10
5.5
20
-4.071
30
0
0
SPLINE
5
2DC
100
AcDbEntity
8
1
62
256
6
ByLayer
370
13
48
1
60
0
100
AcDbSpline
70
4
71
3
72
8
73
4
40
0
40
0
40
0
40
0
40
1
40
1
40
1
40
1
41
1
10
263.598604314114
20
0.575063773299149
30
0
41
1
10
263.59669861577
20
0.628422506538072
30
0
41
1
10
263.596432896334
20
0.681545281140615
30
0
41
1
10
263.597707434321
20
0.730451170013481
30
0
0
SPLINE
5
2DD
100
AcDbEntity
8
1
62
256
6
ByLayer
370
13
48
1
60
0
100
AcDbSpline
70
4
71
3
72
8
73
4
40
0
40
0
40
0
40
0
40
1
40
1
40
1
40
1
41
1
10
234.567614469714
20
3.1113466784328
30
0
41
1
10
234.494857157894
20
3.15130761122361
30
0
41
1
10
234.42212175894
20
3.19130231644206
30
0
41
1
10
234.349408341987
20
3.23133090143429
30
0
0
SPLINE
5
2DE
100
AcDbEntity
8
1
62
256
6
ByLayer
370
13
48
1
60
0
100
AcDbSpline
70
4
71
3
72
18
73
14
40
0
40
0
40
0
40
0
40
0.250000000000001
40
0.250000000000001
40
0.375000000000001
40
0.375000000000001
40
0.500000000000001
40
0.500000000000001
40
0.749999999999999
40
0.749999999999999
40
0.874999999999999
40
0.874999999999999
40
1
40
1
40
1
40
1
41
1
10
249.665559616462
20
7.85032359064186
30
0
41
1
10
249.660139013917
20
7.8500395089051
30
0
41
1
10
249.661303062169
20
7.86029255004411
30
0
41
1
10
249.67642849766
20
7.88870321143139
30
0
41
1
10
249.683742838894
20
7.90020523126472
30
0
41
1
10
249.703602901132
20
7.92569900867423
30
0
41
1
10
249.716415423056
20
7.93994163535544
30
0
41
1
10
249.762396732529
20
7.98240299476726
30
0
41
1
10
249.804532277389
20
8.01109297409539
30
0
41
1
10
249.877766391247
20
8.04227568173826
30
0
41
1
10
249.904263651404
20
8.05095304630731
30
0
41
1
10
249.958385704855
20
8.06343380952814
30
0
41
1
10
249.986242941709
20
8.06738846197561
30
0
41
1
10
250.014906336217
20
8.06890650784834
30
0
0
SPLINE
5
2DF
100
AcDbEntity
8
1
62
256
6
ByLayer
370
13
48
1
60
0
100
AcDbSpline
70
4
71
3
72
18
73
14
40
0
40
0
40
0
40
0
40
0.125
40
0.125
40
0.25
40
0.25
40
0.375
40
0.375
40
0.5
40
0.5
40
0.75
40
0.75
40
1
40
1
40
1
40
1
41
1
10
5.49999999999997
20
-27.197533014896
30
0
41
1
10
5.5331183619886
20
-27.197533014896
30
0
41
1
10
5.56567694370481
20
-27.1995026580579
30
0
41
1
10
5.62972133566616
20
-27.2072122555809
30
0
41
1
10
5.66154354218739
20
-27.2130480694634
30
0
41
1
10
5.72214649856302
20
-27.2282429091525
30
0
41
1
10
5.75087897885176
20
-27.2375315286339
30
0
41
1
10
5.8052384884854
20
-27.259437487858
30
0
41
1
10
5.83093052062634
20
-27.272154639518
30
0
41
1
10
5.89997612824273
20
-27.3137174239843
30
0
41
1
10
5.93710206073182
20
-27.3470902458003
30
0
41
1
10
5.98680620220951
20
-27.4186740847385
30
0
41
1
10
5.99999999999997
20
-27.4575544853432
30
0
41
1
10
5.99999999999997
20
-27.4965076027926
30
0
0
SPLINE
5
2E0
100
AcDbEntity
8
1
62
256
6
ByLayer
370
13
48
1
60
0
100
AcDbSpline
70
4
71
3
72
10
73
6
40
0
40
0
40
0
40
0
40
0.5
40
0.5
40
1
40
1
40
1
40
1
41
1
10
236.995746363625
20
0.932360656299153
30
0
41
1
10
237.383196095838
20
0.719272901301025
30
0
41
1
10
237.781440365472
20
0.534519494720428
30
0
41
1
10
238.599828408644
20
0.222563001244453
30
0
41
1
10
239.019959030705
20
0.0953252452547417
30
0
41
1
10
239.451769144042
20
-0.0011945946062326
30
0
0
SPLINE
5
2E1
100
AcDbEntity
8
1
62
256
6
ByLayer
370
13
48
1
60
0
100
AcDbSpline
70
4
71
3
72
8
73
4
40
0
40
0
40
0
40
0
40
1
40
1
40
1
40
1
41
1
10
233.84006046742
20
24.3704076262171
30
0
41
1
10
234.135383095905
20
24.8337780507182
30
0
41
1
10
234.423045363082
20
25.3020268285954
30
0
41
1
10
234.703626366592
20
25.7745175752918
30
0
0
SPLINE
5
2E2
100
AcDbEntity
8
1
62
256
6
ByLayer
370
13
48
1
60
0
100
AcDbSpline
70
4
71
3
72
20
73
16
40
0
40
0
40
0
40
0
40
0.124999999999998
40
0.124999999999998
40
0.249999999999996
40
0.249999999999996
40
0.499999999999993
40
0.499999999999993
40
0.624999999999994
40
0.624999999999994
40
0.749999999999996
40
0.749999999999996
40
0.874999999999998
40
0.874999999999998
40
1
40
1
40
1
40
1
41
1
10
238.395361571142
20
10.0514262274122
30
0
41
1
10
238.417778016743
20
10.1182815752161
30
0
41
1
10
238.439221700806
20
10.1888600472484
30
0
41
1
10
238.480982509312
20
10.3373477643661
30
0
41
1
10
238.501421787205
20
10.4158121432096
30
0
41
1
10
238.560826570561
20
10.6585465113559
30
0
41
1
10
238.597414938693
20
10.8278363794125
30
0
41
1
10
238.6509119321
20
11.0923904133763
30
0
41
1
10
238.668447874879
20
11.182105769625
30
0
41
1
10
238.702795014124
20
11.3600096591532
30
0
41
1
10
238.719714251668
20
11.4488089144897
30
0
41
1
10
238.754197993209
20
11.6258709816614
30
0
41
1
10
238.771779134536
20
11.7143520169143
30
0
41
1
10
238.808828567911
20
11.8855718185469
30
0
41
1
10
238.82822856344
20
11.9689460257131
30
0
41
1
10
238.851461809922
20
12.049319879238
30
0
0
SPLINE
5
2E3
100
AcDbEntity
8
1
62
256
6
ByLayer
370
13
48
1
60
0
100
AcDbSpline
70
4
71
3
72
10
73
6
40
0
40
0
40
0
40
0
40
0.5
40
0.5
40
1
40
1
40
1
40
1
41
1
10
240.457477894968
20
12.1174390984379
30
0
41
1
10
240.531663146132
20
12.1257592266021
30
0
41
1
10
240.60627666411
20
12.1317911692033
30
0
41
1
10
240.756878692937
20
12.136508608846
30
0
41
1
10
240.83283153794
20
12.1353846648357
30
0
41
1
10
240.910105580597
20
12.1272016975863
30
0
0
SPLINE
5
2E4
100
AcDbEntity
8
1
62
256
6
ByLayer
370
13
48
1
60
0
100
AcDbSpline
70
4
71
3
72
46
73
42
40
0
40
0
40
0
40
0
40
0.0624999999999996
40
0.0624999999999996
40
0.124999999999999
40
0.124999999999999
40
0.156249999999999
40
0.156249999999999
40
0.187499999999999
40
0.187499999999999
40
0.249999999999998
40
0.249999999999998
40
0.281249999999998
40
0.281249999999998
40
0.312499999999998
40
0.312499999999998
40
0.374999999999997
40
0.374999999999997
40
0.406249999999997
40
0.406249999999997
40
0.437499999999997
40
0.437499999999997
40
0.499999999999998
40
0.499999999999998
40
0.562499999999998
40
0.562499999999998
40
0.593749999999998
40
0.593749999999998
40
0.624999999999998
40
0.624999999999998
40
0.687499999999999
40
0.687499999999999
40
0.749999999999999
40
0.749999999999999
40
0.874999999999999
40
0.874999999999999
40
0.9375
40
0.9375
40
0.96875
40
0.96875
40
1
40
1
40
1
40
1
41
1
10
18.4122430672415
20
-25.2529991779145
30
0
41
1
10
18.282076519726
20
-25.4295340002243
30
0
41
1
10
18.1762675699147
20
-25.6024947139912
30
0
41
1
10
18.011881189441
20
-25.940258039728
30
0
41
1
10
17.9533027047672
20
-26.1050656091146
30
0
41
1
10
17.9024810912482
20
-26.34538920841
30
0
41
1
10
17.891903189957
20
-26.4237638732326
30
0
41
1
10
17.8834215861384
20
-26.5757416663224
30
0
41
1
10
17.8854887605236
20
-26.6495600066101
30
0
41
1
10
17.9102211314726
20
-26.8646217897772
30
0
41
1
10
17.9509652368472
20
-26.99952980979
30
0
41
1
10
18.0475690095208
20
-27.18949843093
30
0
41
1
10
18.0859845288314
20
-27.2509522028066
30
0
41
1
10
18.173794786711
20
-27.3682529742854
30
0
41
1
10
18.2231350215635
20
-27.4242030146013
30
0
41
1
10
18.3868892940306
20
-27.5843860398913
30
0
41
1
10
18.517001121662
20
-27.6809689350798
30
0
41
1
10
18.7416699896049
20
-27.8120019306815
30
0
41
1
10
18.8215165854688
20
-27.8533612841091
30
0
41
1
10
18.9910884014753
20
-27.9316036359023
30
0
41
1
10
19.0804179696092
20
-27.9682862923903
30
0
41
1
10
19.3597934908645
20
-28.0708408642972
30
0
41
1
10
19.5618622532278
20
-28.1295668290411
30
0
41
1
10
19.9958824500367
20
-28.23018382206
30
0
41
1
10
20.2278425040308
20
-28.2720660894544
30
0
41
1
10
20.5979622861879
20
-28.323532368613
30
0
41
1
10
20.7245933612386
20
-28.33872078429
30
0
41
1
10
20.9825928596055
20
-28.36528338782
30
0
41
1
10
21.1142114762376
20
-28.3766875052503
30
0
41
1
10
21.5167857488089
20
-28.4056843172957
30
0
41
1
10
21.7953963959022
20
-28.4180956037838
30
0
41
1
10
22.3729268215474
20
-28.4307949453884
30
0
41
1
10
22.6722274097374
20
-28.4310621490305
30
0
41
1
10
23.5992218117887
20
-28.4155167360163
30
0
41
1
10
24.2386532910814
20
-28.3838442053759
30
0
41
1
10
25.2307823686549
20
-28.3117574059255
30
0
41
1
10
25.5670731969747
20
-28.2835351152931
30
0
41
1
10
26.0805752182539
20
-28.235103751457
30
0
41
1
10
26.2533682539405
20
-28.2179213559726
30
0
41
1
10
26.5992088957494
20
-28.181795409893
30
0
41
1
10
26.7726046453757
20
-28.1628207054685
30
0
41
1
10
26.9464922012563
20
-28.1429326636523
30
0
0
SPLINE
5
2E5
100
AcDbEntity
8
1
62
256
6
ByLayer
370
13
48
1
60
0
100
AcDbSpline
70
4
71
3
72
54
73
50
40
0
40
0
40
0
40
0
40
0.0312499999999997
40
0.0312499999999997
40
0.0624999999999995
40
0.0624999999999995
40
0.125
40
0.125
40
0.156249999999999
40
0.156249999999999
40
0.187499999999999
40
0.187499999999999
40
0.249999999999999
40
0.249999999999999
40
0.312499999999998
40
0.312499999999998
40
0.343749999999998
40
0.343749999999998
40
0.374999999999998
40
0.374999999999998
40
0.437499999999998
40
0.437499999999998
40
0.468749999999997
40
0.468749999999997
40
0.499999999999997
40
0.499999999999997
40
0.562499999999997
40
0.562499999999997
40
0.593749999999998
40
0.593749999999998
40
0.624999999999998
40
0.624999999999998
40
0.656249999999998
40
0.656249999999998
40
0.687499999999999
40
0.687499999999999
40
0.749999999999999
40
0.749999999999999
40
0.781249999999999
40
0.781249999999999
40
0.8125
40
0.8125
40
0.875
40
0.875
40
0.90625
40
0.90625
40
0.9375
40
0.9375
40
1
40
1
40
1
40
1
41
1
10
232.17914087855
20
3.66391760816239
30
0
41
1
10
231.177014743372
20
4.11069120869112
30
0
41
1
10
230.174397056653
20
4.55581258715674
30
0
41
1
10
228.169989896584
20
5.44092304893482
30
0
41
1
10
227.168228572265
20
5.88090085272614
30
0
41
1
10
224.163663262877
20
7.19180975536401
30
0
41
1
10
222.161581185257
20
8.05372228612572
30
0
41
1
10
219.157391146527
20
9.32322171460098
30
0
41
1
10
218.155815711009
20
9.74249148392909
30
0
41
1
10
216.151881767188
20
10.5723368377666
30
0
41
1
10
215.149146250646
20
10.9830634611669
30
0
41
1
10
212.142495563206
20
12.1994943559309
30
0
41
1
10
210.140203860514
20
12.9895244078128
30
0
41
1
10
206.136130056595
20
14.5204139503531
30
0
41
1
10
204.134334669636
20
15.2612394386644
30
0
41
1
10
201.128847677385
20
16.3297165611399
30
0
41
1
10
200.126167938941
20
16.6788647669184
30
0
41
1
10
198.12169800268
20
17.3612739203245
30
0
41
1
10
197.119887011031
20
17.694553239782
30
0
41
1
10
194.114997606326
20
18.6695243337164
30
0
41
1
10
192.112318253581
20
19.2862238079207
30
0
41
1
10
189.109456731186
20
20.1614003917338
30
0
41
1
10
188.108701030972
20
20.4447851696827
30
0
41
1
10
186.106442699026
20
20.9931303245709
30
0
41
1
10
185.104601621576
20
21.2582095811412
30
0
41
1
10
182.099331735813
20
22.0223049733663
30
0
41
1
10
180.09548396277
20
22.488623997689
30
0
41
1
10
177.065368192204
20
23.1025688503978
30
0
41
1
10
176.05148260791
20
23.2934275662116
30
0
41
1
10
174.013964730433
20
23.6479352508807
30
0
41
1
10
172.990173275843
20
23.8114366227276
30
0
41
1
10
170.931534556855
20
24.1128782147521
30
0
41
1
10
169.896363121786
20
24.2511041372643
30
0
41
1
10
167.819741665661
20
24.5054691715252
30
0
41
1
10
166.778175714966
20
24.6216571309802
30
0
41
1
10
163.644475959647
20
24.9418038569397
30
0
41
1
10
161.543280880329
20
25.1174694422592
30
0
41
1
10
158.376385233031
20
25.3386529810597
30
0
41
1
10
157.318240622742
20
25.4052827966503
30
0
41
1
10
155.197451707853
20
25.5262213671639
30
0
41
1
10
154.134662694065
20
25.5805679723662
30
0
41
1
10
150.940912691753
20
25.7265239948414
30
0
41
1
10
148.804474914417
20
25.8010101226904
30
0
41
1
10
145.58400586487
20
25.8854016978764
30
0
41
1
10
144.507552342943
20
25.9089879861187
30
0
41
1
10
142.349630007771
20
25.9484854511339
30
0
41
1
10
141.268529067602
20
25.9644282510545
30
0
41
1
10
138.018731452801
20
26.0035621257854
30
0
41
1
10
135.843340962733
20
26.0181585030464
30
0
41
1
10
133.65988
20
26.0272599999606
30
0
0
SPLINE
5
2E6
100
AcDbEntity
8
1
62
256
6
ByLayer
370
13
48
1
60
0
100
AcDbSpline
70
4
71
3
72
14
73
10
40
0
40
0
40
0
40
0
40
0.499999999999999
40
0.499999999999999
40
0.624999999999999
40
0.624999999999999
40
0.749999999999999
40
0.749999999999999
40
1
40
1
40
1
40
1
41
1
10
43.7363987633794
20
-25.5733218049668
30
0
41
1
10
43.1598247408968
20
-25.5738383352888
30
0
41
1
10
42.5993099163629
20
-25.6489664003869
30
0
41
1
10
41.916913083306
20
-25.8276512082224
30
0
41
1
10
41.7810474053891
20
-25.8677809303871
30
0
41
1
10
41.5125343397587
20
-25.9561380738213
30
0
41
1
10
41.3807443314989
20
-26.0040584064275
30
0
41
1
10
40.9923258238773
20
-26.1583649773536
30
0
41
1
10
40.7426252467494
20
-26.2752609948688
30
0
41
1
10
40.5013254093797
20
-26.4049010815226
30
0
0
SPLINE
5
2E7
100
AcDbEntity
8
1
62
256
6
ByLayer
370
13
48
1
60
0
100
AcDbSpline
70
4
71
3
72
8
73
4
40
0
40
0
40
0
40
0
40
1
40
1
40
1
40
1
41
1
10
238.393379923076
20
10.0450153979872
30
0
41
1
10
238.393986391767
20
10.04715904384
30
0
41
1
10
238.394647290125
20
10.0492959384876
30
0
41
1
10
238.395361571142
20
10.0514262274122
30
0
0
SPLINE
5
2E8
100
AcDbEntity
8
1
62
256
6
ByLayer
370
13
48
1
60
0
100
AcDbSpline
70
4
71
3
72
16
73
12
40
0
40
0
40
0
40
0
40
0.249999999999978
40
0.249999999999978
40
0.499999999999956
40
0.499999999999956
40
0.624999999999967
40
0.624999999999967
40
0.749999999999979
40
0.749999999999979
40
1
40
1
40
1
40
1
41
1
10
248.630301577099
20
6.75232579952342
30
0
41
1
10
248.602707789471
20
6.72648989611798
30
0
41
1
10
248.576994051742
20
6.70383698861198
30
0
41
1
10
248.531209168737
20
6.66581204704482
30
0
41
1
10
248.511816294091
20
6.65101820289203
30
0
41
1
10
248.491250480848
20
6.63729853335642
30
0
41
1
10
248.485897702049
20
6.63419053832945
30
0
41
1
10
248.47851692229
20
6.63113227351079
30
0
41
1
10
248.476551400956
20
6.63123753011715
30
0
41
1
10
248.476102567892
20
6.63644644210424
30
0
41
1
10
248.483202023601
20
6.64670606091235
30
0
41
1
10
248.495645292648
20
6.66199284174112
30
0
0
SPLINE
5
2E9
100
AcDbEntity
8
1
62
256
6
ByLayer
370
13
48
1
60
0
100
AcDbSpline
70
4
71
3
72
8
73
4
40
0
40
0
40
0
40
0
40
1
40
1
40
1
40
1
41
1
10
241.038877557288
20
6.38969731697117
30
0
41
1
10
241.940538018086
20
6.13045694919597
30
0
41
1
10
242.822256392405
20
5.878647671198
30
0
41
1
10
243.682226737848
20
5.63494243764038
30
0
0
SPLINE
5
2EA
100
AcDbEntity
8
1
62
256
6
ByLayer
370
13
48
1
60
0
100
AcDbSpline
70
4
71
3
72
8
73
4
40
0
40
0
40
0
40
0
40
1
40
1
40
1
40
1
41
1
10
240.457477894966
20
12.117439098444
30
0
41
1
10
240.41149590232
20
12.1117325548897
30
0
41
1
10
240.364707668421
20
12.1091860722038
30
0
41
1
10
240.317195159002
20
12.1091807711253
30
0
0
SPLINE
5
2EB
100
AcDbEntity
8
1
62
256
6
ByLayer
370
13
48
1
60
0
100
AcDbSpline
70
4
71
3
72
54
73
50
40
0
40
0
40
0
40
0
40
0.125
40
0.125
40
0.250000000000001
40
0.250000000000001
40
0.281249999999998
40
0.281249999999998
40
0.312499999999995
40
0.312499999999995
40
0.37499999999999
40
0.37499999999999
40
0.406249999999987
40
0.406249999999987
40
0.437499999999984
40
0.437499999999984
40
0.499999999999972
40
0.499999999999972
40
0.531249999999966
40
0.531249999999966
40
0.546874999999966
40
0.546874999999966
40
0.562499999999966
40
0.562499999999966
40
0.624999999999959
40
0.624999999999959
40
0.656249999999959
40
0.656249999999959
40
0.671874999999961
40
0.671874999999961
40
0.687499999999963
40
0.687499999999963
40
0.749999999999972
40
0.749999999999972
40
0.765624999999974
40
0.765624999999974
40
0.781249999999975
40
0.781249999999975
40
0.812499999999979
40
0.812499999999979
40
0.874999999999988
40
0.874999999999988
40
0.89062499999999
40
0.89062499999999
40
0.906249999999991
40
0.906249999999991
40
0.937499999999994
40
0.937499999999994
40
1
40
1
40
1
40
1
41
1
10
240.927334529131
20
1.66217336943041
30
0
41
1
10
241.8303942306
20
1.52588449493544
30
0
41
1
10
242.739660346683
20
1.40743684550398
30
0
41
1
10
244.577410841128
20
1.22578718587678
30
0
41
1
10
245.505802697463
20
1.1623192079015
30
0
41
1
10
246.684323507646
20
1.13481689028447
30
0
41
1
10
246.92046086828
20
1.13196705604003
30
0
41
1
10
247.390838204515
20
1.13204661249864
30
0
41
1
10
247.625472472614
20
1.13496507887066
30
0
41
1
10
248.327580438743
20
1.15304006527347
30
0
41
1
10
248.7932684595
20
1.17746860519611
30
0
41
1
10
249.487570659746
20
1.2360745529619
30
0
41
1
10
249.71829778389
20
1.2592806250681
30
0
41
1
10
250.178195482116
20
1.31377506016051
30
0
41
1
10
250.407379632707
20
1.34510517801482
30
0
41
1
10
251.08292719208
20
1.45087094547148
30
0
41
1
10
251.52042091742
20
1.537347670104
30
0
41
1
10
252.154909257303
20
1.69404531844853
30
0
41
1
10
252.362769173296
20
1.75078838636404
30
0
41
1
10
252.668660914031
20
1.84321932362377
30
0
41
1
10
252.769640624718
20
1.87525048985066
30
0
41
1
10
252.969540797469
20
1.94186721585712
30
0
41
1
10
253.068337584826
20
1.97642124308143
30
0
41
1
10
253.552205351823
20
2.15403483201453
30
0
41
1
10
253.910852554828
20
2.31277628771488
30
0
41
1
10
254.403733362007
20
2.57728051729757
30
0
41
1
10
254.560484851288
20
2.66986313825228
30
0
41
1
10
254.783690599266
20
2.81571494558713
30
0
41
1
10
254.856180527172
20
2.86556840788651
30
0
41
1
10
254.99550121557
20
2.96650089511755
30
0
41
1
10
255.062540754339
20
3.01770882926076
30
0
41
1
10
255.384819476433
20
3.27740458175674
30
0
41
1
10
255.601529308097
20
3.49679624472518
30
0
41
1
10
255.821653814276
20
3.78540174132988
30
0
41
1
10
255.863126432122
20
3.84384513937351
30
0
41
1
10
255.940925835085
20
3.96218821121138
30
0
41
1
10
255.977333219575
20
4.02224679398194
30
0
41
1
10
256.077860677255
20
4.20297091951892
30
0
41
1
10
256.133521942827
20
4.32440861779781
30
0
41
1
10
256.268353332017
20
4.69142522305077
30
0
41
1
10
256.315538729943
20
4.93969354104328
30
0
41
1
10
256.324402276605
20
5.2542430888322
30
0
41
1
10
256.323642013585
20
5.3174374456062
30
0
41
1
10
256.317203627226
20
5.44321941405931
30
0
41
1
10
256.311535070595
20
5.50592658777634
30
0
41
1
10
256.287463976015
20
5.69351788981692
30
0
41
1
10
256.262006945744
20
5.81787261944004
30
0
41
1
10
256.159209453569
20
6.18895366028224
30
0
41
1
10
256.05543953102
20
6.43390579930337
30
0
41
1
10
255.919825905208
20
6.67603727888297
30
0
0
SPLINE
5
2EC
100
AcDbEntity
8
1
62
256
6
ByLayer
370
13
48
1
60
0
100
AcDbSpline
70
4
71
3
72
8
73
4
40
0
40
0
40
0
40
0
40
1
40
1
40
1
40
1
41
1
10
45.4914
20
-26.2152281068183
30
0
41
1
10
44.906053245014
20
-26.2151878128187
30
0
41
1
10
44.321053077757
20
-26.2258564198177
30
0
41
1
10
43.7363987878363
20
-26.2472123181834
30
0
0
SPLINE
5
2ED
100
AcDbEntity
8
1
62
256
6
ByLayer
370
13
48
1
60
0
100
AcDbSpline
70
4
71
3
72
22
73
18
40
0
40
0
40
0
40
0
40
0.0625000000000019
40
0.0625000000000019
40
0.125000000000004
40
0.125000000000004
40
0.187500000000006
40
0.187500000000006
40
0.250000000000007
40
0.250000000000007
40
0.374999999999998
40
0.374999999999998
40
0.499999999999988
40
0.499999999999988
40
0.749999999999994
40
0.749999999999994
40
1
40
1
40
1
40
1
41
1
10
239.80138318056
20
7.78177552917131
30
0
41
1
10
239.77845310891
20
7.73981512532888
30
0
41
1
10
239.760717038013
20
7.69473850008899
30
0
41
1
10
239.738247313533
20
7.60199574736046
30
0
41
1
10
239.733577923543
20
7.55542937418309
30
0
41
1
10
239.735959749151
20
7.46195691261619
30
0
41
1
10
239.742967944096
20
7.41672008521448
30
0
41
1
10
239.765668192207
20
7.32946181480091
30
0
41
1
10
239.78158207916
20
7.28696135553363
30
0
41
1
10
239.838107419314
20
7.16665844729039
30
0
41
1
10
239.887399547649
20
7.09457953188274
30
0
41
1
10
239.999977186387
20
6.96128135467629
30
0
41
1
10
240.061950440061
20
6.90180337192686
30
0
41
1
10
240.2593331596
20
6.73787984799554
30
0
41
1
10
240.407454148647
20
6.64724632673617
30
0
41
1
10
240.714199956778
20
6.49717106141344
30
0
41
1
10
240.873872616594
20
6.43713861374525
30
0
41
1
10
241.038877557288
20
6.38969731697117
30
0
0
SPLINE
5
2EE
100
AcDbEntity
8
1
62
256
6
ByLayer
370
13
48
1
60
0
100
AcDbSpline
70
4
71
3
72
24
73
20
40
0
40
0
40
0
40
0
40
0.125000000000005
40
0.125000000000005
40
0.250000000000011
40
0.250000000000011
40
0.375000000000016
40
0.375000000000016
40
0.500000000000022
40
0.500000000000022
40
0.625000000000027
40
0.625000000000027
40
0.68750000000003
40
0.68750000000003
40
0.750000000000033
40
0.750000000000033
40
0.875000000000016
40
0.875000000000016
40
1
40
1
40
1
40
1
41
1
10
248.68114414633
20
6.49639821215587
30
0
41
1
10
248.560474541019
20
6.40074458862111
30
0
41
1
10
248.432889913449
20
6.31392305522101
30
0
41
1
10
248.164714252458
20
6.15967134441127
30
0
41
1
10
248.026575934332
20
6.09358047184401
30
0
41
1
10
247.741733499698
20
5.9826468642201
30
0
41
1
10
247.594646219437
20
5.9377211517897
30
0
41
1
10
247.29264818898
20
5.87028347569481
30
0
41
1
10
247.140725409138
20
5.84838148136484
30
0
41
1
10
246.834989134893
20
5.82730323817211
30
0
41
1
10
246.68117568002
20
5.8281281823935
30
0
41
1
10
246.449084744181
20
5.84690759693683
30
0
41
1
10
246.371373169932
20
5.85614960505984
30
0
41
1
10
246.218144477614
20
5.88022386739391
30
0
41
1
10
246.142302311493
20
5.89507040534872
30
0
41
1
10
245.917079409823
20
5.94788757748177
30
0
41
1
10
245.769985677806
20
5.99408404761121
30
0
41
1
10
245.482229179865
20
6.1088857447605
30
0
41
1
10
245.341269404933
20
6.1779060446944
30
0
41
1
10
245.208345705764
20
6.25618975650366
30
0
0
SPLINE
5
2EF
100
AcDbEntity
8
1
62
256
6
ByLayer
370
13
48
1
60
0
100
AcDbSpline
70
4
71
3
72
27
73
23
40
0
40
0
40
0
40
0
40
0.0624999999999999
40
0.0624999999999999
40
0.125
40
0.125
40
0.15625
40
0.15625
40
0.1875
40
0.1875
40
0.25
40
0.25
40
0.3125
40
0.3125
40
0.375
40
0.4375
40
0.4375
40
0.499999999999999
40
0.499999999999999
40
0.75
40
0.75
40
1
40
1
40
1
40
1
41
1
10
133.65988
20
-10.4607445319466
30
0
41
1
10
131.936258083627
20
-10.2736951485105
30
0
41
1
10
130.210434915748
20
-10.1065717289797
30
0
41
1
10
126.753338852428
20
-9.82354420496199
30
0
41
1
10
125.021187073028
20
-9.70875624495778
30
0
41
1
10
122.422937858227
20
-9.57843387234956
30
0
41
1
10
121.556761639279
20
-9.54181215410085
30
0
41
1
10
119.824228505188
20
-9.48191559976544
30
0
41
1
10
118.957869764101
20
-9.45877702601609
30
0
41
1
10
116.358583854441
20
-9.40492936798182
30
0
41
1
10
114.625451487699
20
-9.38946261391899
30
0
41
1
10
111.158973895824
20
-9.37441600112766
30
0
41
1
10
109.425617822458
20
-9.375633885973
30
0
41
1
10
105.958878381553
20
-9.38010732038862
30
0
41
1
10
102.492105377475
20
-9.38708344719208
30
0
41
1
10
99.0253223011759
20
-9.39481001900256
30
0
41
1
10
95.5585622320997
20
-9.40082121569614
30
0
41
1
10
93.8251986465301
20
-9.40275292663247
30
0
41
1
10
85.1584297041537
20
-9.40708600499514
30
0
41
1
10
78.2250390038113
20
-9.39649445304147
30
0
41
1
10
64.3582244854403
20
-9.39462930004754
30
0
41
1
10
57.4248083641048
20
-9.40412150829692
30
0
41
1
10
50.4914
20
-9.40446727662919
30
0
0
SPLINE
5
2F0
100
AcDbEntity
8
1
62
256
6
ByLayer
370
13
48
1
60
0
100
AcDbSpline
70
4
71
3
72
8
73
4
40
0
40
0
40
0
40
0
40
1
40
1
40
1
40
1
41
1
10
239.132168572165
20
12.1832615826051
30
0
41
1
10
239.269307019059
20
13.4895482202255
30
0
41
1
10
239.403431284097
20
14.7942722771488
30
0
41
1
10
239.5338154554
20
16.0976721371912
30
0
0
SPLINE
5
2F1
100
AcDbEntity
8
1
62
256
6
ByLayer
370
13
48
1
60
0
100
AcDbSpline
70
4
71
3
72
10
73
6
40
0
40
0
40
0
40
0
40
0.5
40
0.5
40
1
40
1
40
1
40
1
41
1
10
240.910105580596
20
12.1272016975869
30
0
41
1
10
241.129810682964
20
12.1059551327302
30
0
41
1
10
241.343110355849
20
12.093210351888
30
0
41
1
10
241.761346614558
20
12.0801084484987
30
0
41
1
10
241.966254539777
20
12.0797185222609
30
0
41
1
10
242.168231739968
20
12.0838395200251
30
0
0
SPLINE
5
2F2
100
AcDbEntity
8
1
62
256
6
ByLayer
370
13
48
1
60
0
100
AcDbSpline
70
4
71
3
72
8
73
4
40
0
40
0
40
0
40
0
40
1
40
1
40
1
40
1
41
1
10
45.5013999999995
20
-25.5717407177804
30
0
41
1
10
44.9130662533357
20
-25.5722668242984
30
0
41
1
10
44.3247325088751
20
-25.5727947395648
30
0
41
1
10
43.7363987633794
20
-25.5733218049668
30
0
0
SPLINE
5
2F3
100
AcDbEntity
8
1
62
256
6
ByLayer
370
13
48
1
60
0
100
AcDbSpline
70
4
71
3
72
12
73
8
40
0
40
0
40
0
40
0
40
0.25
40
0.25
40
0.5
40
0.5
40
1
40
1
40
1
40
1
41
1
10
40.4773650736114
20
-10.0919278841697
30
0
41
1
10
40.7310891224025
20
-9.97960279505389
30
0
41
1
10
40.990996586544
20
-9.88016006330383
30
0
41
1
10
41.5233952150076
20
-9.70773711833169
30
0
41
1
10
41.7966169842497
20
-9.63476292899253
30
0
41
1
10
42.6180341683344
20
-9.46076327158593
30
0
41
1
10
43.1733063776453
20
-9.40210054701154
30
0
41
1
10
43.7363991321776
20
-9.40185463469089
30
0
0
SPLINE
5
2F4
100
AcDbEntity
8
1
62
256
6
ByLayer
370
13
48
1
60
0
100
AcDbSpline
70
4
71
3
72
8
73
4
40
0
40
0
40
0
40
0
40
1
40
1
40
1
40
1
41
1
10
233.840060466553
20
24.3704076262767
30
0
41
1
10
233.821386168936
20
24.3740569639587
30
0
41
1
10
233.802712770127
20
24.3777107486592
30
0
41
1
10
233.784040269137
20
24.381368979253
30
0
0
SPLINE
5
2F5
100
AcDbEntity
8
1
62
256
6
ByLayer
370
13
48
1
60
0
100
AcDbSpline
70
4
71
3
72
10
73
6
40
0
40
0
40
0
40
0
40
0.5
40
0.5
40
1
40
1
40
1
40
1
41
1
10
262.771636801773
20
-5.52386914381196
30
0
41
1
10
262.827468826561
20
-5.82065724379237
30
0
41
1
10
262.862300722101
20
-6.11718511628962
30
0
41
1
10
262.892301767112
20
-6.70956036162764
30
0
41
1
10
262.887465332338
20
-7.00540819852054
30
0
41
1
10
262.862715160212
20
-7.30089229820967
30
0
0
SPLINE
5
2F6
100
AcDbEntity
8
1
62
256
6
ByLayer
370
13
48
1
60
0
100
AcDbSpline
70
4
71
3
72
12
73
8
40
0
40
0
40
0
40
0
40
0.0715609908423033
40
0.0715609908423033
40
0.502761364562955
40
0.502761364562955
40
1
40
1
40
1
40
1
41
1
10
45.9414
20
-25.5580634576543
30
0
41
1
10
45.9414
20
-25.2936411250272
30
0
41
1
10
45.9414
20
-25.0292187927675
30
0
41
1
10
45.9414
20
-23.1714841409928
30
0
41
1
10
45.9414
20
-21.5781718344514
30
0
41
1
10
45.9414
20
-18.1475317494044
30
0
41
1
10
45.9413999999999
20
-16.3102039752997
30
0
41
1
10
45.9414
20
-14.4728762189495
30
0
0
SPLINE
5
2F7
100
AcDbEntity
8
1
62
256
6
ByLayer
370
13
48
1
60
0
100
AcDbSpline
70
4
71
3
72
10
73
6
40
0
40
0
40
0
40
0
40
0.5
40
0.5
40
1
40
1
40
1
40
1
41
1
10
232.17914087855
20
3.66391760816242
30
0
41
1
10
232.587586078259
20
3.55015958854682
30
0
41
1
10
232.992185509339
20
3.44586112245085
30
0
41
1
10
233.788990336512
20
3.26044775481768
30
0
41
1
10
234.18165096902
20
3.17920910355562
30
0
41
1
10
234.567614419594
20
3.11134670252292
30
0
0
SPLINE
5
2F8
100
AcDbEntity
8
1
62
256
6
ByLayer
370
18
48
1
60
0
100
AcDbSpline
70
4
71
3
72
16
73
12
40
0
40
0
40
0
40
0
40
0.249999999999997
40
0.249999999999997
40
0.499999999999994
40
0.499999999999994
40
0.749999999999991
40
0.749999999999991
40
0.874999999999995
40
0.874999999999995
40
1
40
1
40
1
40
1
41
1
10
253.286187563661
20
16.5016689846471
30
0
41
1
10
253.283871423236
20
16.5458635766964
30
0
41
1
10
253.285007501275
20
16.5902978871518
30
0
41
1
10
253.295120446237
20
16.6782080321773
30
0
41
1
10
253.304007291943
20
16.721691855282
30
0
41
1
10
253.332983506408
20
16.8041666323482
30
0
41
1
10
253.35284721615
20
16.8435160699725
30
0
41
1
10
253.396890198764
20
16.8863233035615
30
0
41
1
10
253.413900020746
20
16.8971439509679
30
0
41
1
10
253.449682904702
20
16.9068372899015
30
0
41
1
10
253.468241302417
20
16.9055886020479
30
0
41
1
10
253.485430301093
20
16.8992036962933
30
0
0
SPLINE
5
2F9
100
AcDbEntity
8
1
62
256
6
ByLayer
370
18
48
1
60
0
100
AcDbSpline
70
4
71
3
72
18
73
14
40
0
40
0
40
0
40
0
40
0.125
40
0.125
40
0.250000000000001
40
0.250000000000001
40
0.500000000000001
40
0.500000000000001
40
0.750000000000002
40
0.750000000000002
40
0.875000000000001
40
0.875000000000001
40
1
40
1
40
1
40
1
41
1
10
255.392387859872
20
15.1817815289226
30
0
41
1
10
255.372814481679
20
15.2081048649501
30
0
41
1
10
255.344765936971
20
15.2280312332257
30
0
41
1
10
255.283013532282
20
15.2598746299394
30
0
41
1
10
255.249320675928
20
15.2715569929864
30
0
41
1
10
255.145237717771
20
15.2975970528249
30
0
41
1
10
255.071624775319
20
15.3031756981854
30
0
41
1
10
254.927109044511
20
15.2955886383888
30
0
41
1
10
254.856465063843
20
15.2825005324434
30
0
41
1
10
254.760580543296
20
15.2459103506189
30
0
41
1
10
254.73035667198
20
15.2308277948276
30
0
41
1
10
254.677492363344
20
15.1930419884613
30
0
41
1
10
254.654639748872
20
15.1704803050027
30
0
41
1
10
254.641243845485
20
15.1424157392069
30
0
0
SPLINE
5
2FA
100
AcDbEntity
8
1
62
256
6
ByLayer
370
18
48
1
60
0
100
AcDbSpline
70
4
71
3
72
16
73
12
40
0
40
0
40
0
40
0
40
0.125000000000004
40
0.125000000000004
40
0.250000000000008
40
0.250000000000008
40
0.500000000000006
40
0.500000000000006
40
0.750000000000003
40
0.750000000000003
40
1
40
1
40
1
40
1
41
1
10
253.525892521034
20
16.1271385469071
30
0
41
1
10
253.509403796393
20
16.11896148214
30
0
41
1
10
253.490970456002
20
16.1157780745215
30
0
41
1
10
253.454149359111
20
16.121832964327
30
0
41
1
10
253.435929308087
20
16.1310550105405
30
0
41
1
10
253.388141772401
20
16.1688833706678
30
0
41
1
10
253.36425677727
20
16.2058887350183
30
0
41
1
10
253.32691737361
20
16.2847161479367
30
0
41
1
10
253.313519490776
20
16.3270604877874
30
0
41
1
10
253.294292291382
20
16.4133334681838
30
0
41
1
10
253.288502102258
20
16.457504957318
30
0
41
1
10
253.286187563661
20
16.5016689846471
30
0
0
SPLINE
5
2FB
100
AcDbEntity
8
1
62
256
6
ByLayer
370
18
48
1
60
0
100
AcDbSpline
70
4
71
3
72
16
73
12
40
0
40
0
40
0
40
0
40
0.250000000000058
40
0.250000000000058
40
0.500000000000117
40
0.500000000000117
40
0.750000000000175
40
0.750000000000175
40
0.875000000000087
40
0.875000000000087
40
1
40
1
40
1
40
1
41
1
10
256.619533215018
20
16.6763622278175
30
0
41
1
10
256.617217074593
20
16.7205568198668
30
0
41
1
10
256.61124596216
20
16.7646186582526
30
0
41
1
10
256.591102626059
20
16.8509431387783
30
0
41
1
10
256.577031959361
20
16.8932238096401
30
0
41
1
10
256.537267420151
20
16.9720960364598
30
0
41
1
10
256.511807095646
20
17.0090701421012
30
0
41
1
10
256.45940805363
20
17.0468230633496
30
0
41
1
10
256.43968405031
20
17.0557185725474
30
0
41
1
10
256.399274427879
20
17.0614188314233
30
0
41
1
10
256.37883240689
20
17.0581262182343
30
0
41
1
10
256.360318658904
20
17.0498702108128
30
0
0
SPLINE
5
2FC
100
AcDbEntity
8
1
62
256
6
ByLayer
370
18
48
1
60
0
100
AcDbSpline
70
4
71
3
72
8
73
4
40
0
40
0
40
0
40
0
40
1
40
1
40
1
40
1
41
1
10
256.038549998954
20
15.6031776734933
30
0
41
1
10
256.042391571682
20
15.5975235787337
30
0
41
1
10
256.046232830969
20
15.5918702444567
30
0
41
1
10
256.050073788336
20
15.5862176421153
30
0
0
SPLINE
5
2FD
100
AcDbEntity
8
1
62
256
6
ByLayer
370
18
48
1
60
0
100
AcDbSpline
70
4
71
3
72
16
73
12
40
0
40
0
40
0
40
0
40
0.124999999999997
40
0.124999999999997
40
0.249999999999994
40
0.249999999999994
40
0.499999999999996
40
0.499999999999996
40
0.749999999999998
40
0.749999999999998
40
1
40
1
40
1
40
1
41
1
10
255.253350460537
20
18.0521569475574
30
0
41
1
10
255.256060735676
20
18.0715848600474
30
0
41
1
10
255.264072391609
20
18.0902213397227
30
0
41
1
10
255.290472808966
20
18.1210365262171
30
0
41
1
10
255.308754161762
20
18.1330712158712
30
0
41
1
10
255.368207577007
20
18.1576429361927
30
0
41
1
10
255.413207292203
20
18.1606590235874
30
0
41
1
10
255.501513933
20
18.1547938234493
30
0
41
1
10
255.54521738297
20
18.1455853434102
30
0
41
1
10
255.629859513298
20
18.1195640229049
30
0
41
1
10
255.670980503305
20
18.10259071591
30
0
41
1
10
255.710215199911
20
18.0825042556515
30
0
0
SPLINE
5
2FE
100
AcDbEntity
8
1
62
256
6
ByLayer
370
18
48
1
60
0
100
AcDbSpline
70
4
71
3
72
8
73
4
40
0
40
0
40
0
40
0
40
1
40
1
40
1
40
1
41
1
10
256.379878257244
20
16.2762702218818
30
0
41
1
10
256.386846517044
20
16.2767818919506
30
0
41
1
10
256.393814048549
20
16.277293504416
30
0
41
1
10
256.400780878845
20
16.2778050614266
30
0
0
SPLINE
5
2FF
100
AcDbEntity
8
1
62
256
6
ByLayer
370
18
48
1
60
0
100
AcDbSpline
70
4
71
3
72
8
73
4
40
0
40
0
40
0
40
0
40
1
40
1
40
1
40
1
41
1
10
253.845577913372
20
17.5737219047974
30
0
41
1
10
253.842430466663
20
17.5794123771602
30
0
41
1
10
253.839283633831
20
17.5851021047856
30
0
41
1
10
253.836137391602
20
17.5907911156045
30
0
0
SPLINE
5
300
100
AcDbEntity
8
1
62
256
6
ByLayer
370
18
48
1
60
0
100
AcDbSpline
70
4
71
3
72
16
73
12
40
0
40
0
40
0
40
0
40
0.25
40
0.25
40
0.5
40
0.5
40
0.75
40
0.75
40
0.875
40
0.875
40
1
40
1
40
1
40
1
41
1
10
255.710215199911
20
18.0825042556515
30
0
41
1
10
255.749477049782
20
18.062403894101
30
0
41
1
10
255.787077892119
20
18.039087372202
30
0
41
1
10
255.857169817439
20
17.9858747585878
30
0
41
1
10
255.889722117244
20
17.9560590763871
30
0
41
1
10
255.944664130495
20
17.8884799390912
30
0
41
1
10
255.967509553839
20
17.850755489214
30
0
41
1
10
255.979416231699
20
17.7890679794525
30
0
41
1
10
255.979028752105
20
17.7680620699699
30
0
41
1
10
255.966739032063
20
17.730278557589
30
0
41
1
10
255.954852053172
20
17.7137566846214
30
0
41
1
10
255.939242208376
20
17.7010101686511
30
0
0
SPLINE
5
301
100
AcDbEntity
8
1
62
256
6
ByLayer
370
18
48
1
60
0
100
AcDbSpline
70
4
71
3
72
8
73
4
40
0
40
0
40
0
40
0
40
1
40
1
40
1
40
1
41
1
10
253.946968971562
20
15.4759985890688
30
0
41
1
10
253.949503314789
20
15.4819853067565
30
0
41
1
10
253.952038170456
20
15.4879727990587
30
0
41
1
10
253.954573558792
20
15.4939610961862
30
0
0
SPLINE
5
302
100
AcDbEntity
8
1
62
256
6
ByLayer
370
18
48
1
60
0
100
AcDbSpline
70
4
71
3
72
18
73
14
40
0
40
0
40
0
40
0
40
0.125
40
0.125
40
0.25
40
0.25
40
0.5
40
0.5
40
0.75
40
0.75
40
0.875
40
0.875
40
1
40
1
40
1
40
1
41
1
10
253.954573558792
20
15.4939610961862
30
0
41
1
10
253.966719530704
20
15.5226484920022
30
0
41
1
10
253.969195639897
20
15.5556830387036
30
0
41
1
10
253.964594819127
20
15.623030077303
30
0
41
1
10
253.957326701382
20
15.6572268718067
30
0
41
1
10
253.926536404288
20
15.7584895376385
30
0
41
1
10
253.89411539874
20
15.824531351808
30
0
41
1
10
253.815258290759
20
15.9464510860497
30
0
41
1
10
253.769016181565
20
16.00213787242
30
0
41
1
10
253.690648431653
20
16.0695541216913
30
0
41
1
10
253.663002415977
20
16.0892607170318
30
0
41
1
10
253.605122889423
20
16.1186414304531
30
0
41
1
10
253.574902614252
20
16.1285656150234
30
0
41
1
10
253.544757802694
20
16.127687854859
30
0
0
SPLINE
5
303
100
AcDbEntity
8
1
62
256
6
ByLayer
370
18
48
1
60
0
100
AcDbSpline
70
4
71
3
72
16
73
12
40
0
40
0
40
0
40
0
40
0.249999999999931
40
0.249999999999931
40
0.499999999999862
40
0.499999999999862
40
0.749999999999794
40
0.749999999999794
40
0.874999999999897
40
0.874999999999897
40
1
40
1
40
1
40
1
41
1
10
254.043542374233
20
17.9951576340662
30
0
41
1
10
254.080488083678
20
18.0192518645651
30
0
41
1
10
254.119323307934
20
18.0403748050094
30
0
41
1
10
254.199976517488
20
18.0750958328864
30
0
41
1
10
254.241759266427
20
18.0887819812831
30
0
41
1
10
254.326840543032
20
18.1037385738627
30
0
41
1
10
254.370345823116
20
18.1054052859061
30
0
41
1
10
254.428356862152
20
18.0866330420062
30
0
41
1
10
254.445817353179
20
18.076491705439
30
0
41
1
10
254.471215282611
20
18.0485013565225
30
0
41
1
10
254.478944607205
20
18.0307862381933
30
0
41
1
10
254.4815669195
20
18.0117094860844
30
0
0
SPLINE
5
304
100
AcDbEntity
8
1
62
256
6
ByLayer
370
18
48
1
60
0
100
AcDbSpline
70
4
71
3
72
18
73
14
40
0
40
0
40
0
40
0
40
0.125
40
0.125
40
0.25
40
0.25
40
0.5
40
0.5
40
0.75
40
0.75
40
0.875
40
0.875
40
1
40
1
40
1
40
1
41
1
10
253.504249655083
20
16.9006293564089
30
0
41
1
10
253.534306373273
20
16.902906281351
30
0
41
1
10
253.563359011504
20
16.9159373147045
30
0
41
1
10
253.617968342991
20
16.9513077227859
30
0
41
1
10
253.643335245917
20
16.9737667154236
30
0
41
1
10
253.714077950946
20
17.0488556838838
30
0
41
1
10
253.75440102841
20
17.1092733176991
30
0
41
1
10
253.820060822347
20
17.2387801731126
30
0
41
1
10
253.845327396396
20
17.3076003825701
30
0
41
1
10
253.865399747394
20
17.4117407459575
30
0
41
1
10
253.869039009856
20
17.4465855230638
30
0
41
1
10
253.866561033485
20
17.5138850140463
30
0
41
1
10
253.860663376041
20
17.5464479216813
30
0
41
1
10
253.845577913372
20
17.5737219047974
30
0
0
SPLINE
5
305
100
AcDbEntity
8
1
62
256
6
ByLayer
370
18
48
1
60
0
100
AcDbSpline
70
4
71
3
72
16
73
12
40
0
40
0
40
0
40
0
40
0.12500000000001
40
0.12500000000001
40
0.25000000000002
40
0.25000000000002
40
0.500000000000013
40
0.500000000000013
40
0.750000000000007
40
0.750000000000007
40
1
40
1
40
1
40
1
41
1
10
256.050073788336
20
15.5862176421153
30
0
41
1
10
256.066993389677
20
15.5751314151847
30
0
41
1
10
256.080606368874
20
15.5598455917983
30
0
41
1
10
256.096769888393
20
15.5232764849886
30
0
41
1
10
256.099240306172
20
15.5021524309205
30
0
41
1
10
256.093686510712
20
15.4400726712262
30
0
41
1
10
256.074965948466
20
15.4001766919755
30
0
41
1
10
256.027477928212
20
15.3273968172257
30
0
41
1
10
255.998204704618
20
15.2943150602466
30
0
41
1
10
255.934133503406
20
15.2341338222462
30
0
41
1
10
255.899098562457
20
15.2069511454689
30
0
41
1
10
255.862178404447
20
15.1828735783984
30
0
0
SPLINE
5
306
100
AcDbEntity
8
1
62
256
6
ByLayer
370
18
48
1
60
0
100
AcDbSpline
70
4
71
3
72
8
73
4
40
0
40
0
40
0
40
0
40
1
40
1
40
1
40
1
41
1
10
255.939242208376
20
17.7010101686511
30
0
41
1
10
255.936013150011
20
17.6949870424858
30
0
41
1
10
255.932783867889
20
17.6889631568352
30
0
41
1
10
255.929554353535
20
17.6829384821045
30
0
0
SPLINE
5
307
100
AcDbEntity
8
1
62
256
6
ByLayer
370
18
48
1
60
0
100
AcDbSpline
70
4
71
3
72
18
73
14
40
0
40
0
40
0
40
0
40
0.124999999999996
40
0.124999999999996
40
0.249999999999992
40
0.249999999999992
40
0.499999999999991
40
0.499999999999991
40
0.74999999999999
40
0.74999999999999
40
0.874999999999995
40
0.874999999999995
40
1
40
1
40
1
40
1
41
1
10
256.339370109632
20
17.0492117234317
30
0
41
1
10
256.305880638529
20
17.0481590497797
30
0
41
1
10
256.272647969452
20
17.057947460637
30
0
41
1
10
256.209497293633
20
17.0872012247166
30
0
41
1
10
256.179782824586
20
17.1068059870947
30
0
41
1
10
256.096416470686
20
17.1739265365507
30
0
41
1
10
256.048232487232
20
17.2297928776929
30
0
41
1
10
255.969395670404
20
17.3518890580107
30
0
41
1
10
255.938969829482
20
17.4176844053642
30
0
41
1
10
255.913385310678
20
17.5187346821563
30
0
41
1
10
255.908209726893
20
17.5532258634476
30
0
41
1
10
255.908628779963
20
17.6203746133589
30
0
41
1
10
255.913985459357
20
17.6538946343114
30
0
41
1
10
255.929554353535
20
17.6829384821045
30
0
0
SPLINE
5
308
100
AcDbEntity
8
1
62
256
6
ByLayer
370
18
48
1
60
0
100
AcDbSpline
70
4
71
3
72
18
73
14
40
0
40
0
40
0
40
0
40
0.124999999999978
40
0.124999999999978
40
0.249999999999956
40
0.249999999999956
40
0.499999999999911
40
0.499999999999911
40
0.749999999999867
40
0.749999999999867
40
0.874999999999934
40
0.874999999999934
40
1
40
1
40
1
40
1
41
1
10
254.491740052454
20
17.995118049368
30
0
41
1
10
254.507988166816
20
17.9686204436477
30
0
41
1
10
254.533092680185
20
17.9485397852275
30
0
41
1
10
254.58976058001
20
17.9164299209051
30
0
41
1
10
254.621337764999
20
17.9046366802201
30
0
41
1
10
254.720320811087
20
17.8783293453155
30
0
41
1
10
254.792196034659
20
17.8726596299675
30
0
41
1
10
254.936714107686
20
17.8802468125146
30
0
41
1
10
255.009087493506
20
17.8934255527436
30
0
41
1
10
255.110083174777
20
17.9302835991512
30
0
41
1
10
255.142429859739
20
17.9454774068915
30
0
41
1
10
255.200368651469
20
17.9835291556478
30
0
41
1
10
255.226161272449
20
18.0062449183185
30
0
41
1
10
255.242884066841
20
18.0344838390838
30
0
0
SPLINE
5
309
100
AcDbEntity
8
1
62
256
6
ByLayer
370
18
48
1
60
0
100
AcDbSpline
70
4
71
3
72
16
73
12
40
0
40
0
40
0
40
0
40
0.125000000000017
40
0.125000000000017
40
0.250000000000034
40
0.250000000000034
40
0.500000000000023
40
0.500000000000023
40
0.750000000000011
40
0.750000000000011
40
1
40
1
40
1
40
1
41
1
10
253.836137391602
20
17.5907911156045
30
0
41
1
10
253.821311891487
20
17.60198708973
30
0
41
1
10
253.809826442117
20
17.61738441223
30
0
41
1
10
253.797491482587
20
17.6541541653666
30
0
41
1
10
253.796708877842
20
17.6753666739676
30
0
41
1
10
253.806337396034
20
17.7376599808315
30
0
41
1
10
253.826654063493
20
17.7776396084119
30
0
41
1
10
253.876461561669
20
17.8505410418488
30
0
41
1
10
253.906423014291
20
17.8836588673829
30
0
41
1
10
253.971390035318
20
17.9438870533104
30
0
41
1
10
254.006622216223
20
17.9710800669957
30
0
41
1
10
254.043542374233
20
17.9951576340662
30
0
0
SPLINE
5
30A
100
AcDbEntity
8
1
62
256
6
ByLayer
370
18
48
1
60
0
100
AcDbSpline
70
4
71
3
72
16
73
12
40
0
40
0
40
0
40
0
40
0.125
40
0.125
40
0.25
40
0.25
40
0.5
40
0.5
40
0.75
40
0.75
40
1
40
1
40
1
40
1
41
1
10
254.632860719401
20
15.1248518101625
30
0
41
1
10
254.632244545488
20
15.1055336448673
30
0
41
1
10
254.626360419381
20
15.0870086643056
30
0
41
1
10
254.603788562014
20
15.0563941241381
30
0
41
1
10
254.587195022252
20
15.0444478890169
30
0
41
1
10
254.53181632974
20
15.020089715865
30
0
41
1
10
254.488412719756
20
15.0171572768001
30
0
41
1
10
254.402425556881
20
15.0231440356251
30
0
41
1
10
254.359410335939
20
15.0323885842192
30
0
41
1
10
254.275664025426
20
15.0584568526517
30
0
41
1
10
254.234740275375
20
15.0754404965546
30
0
41
1
10
254.195505578768
20
15.0955269568132
30
0
0
SPLINE
5
30B
100
AcDbEntity
8
1
62
256
6
ByLayer
370
18
48
1
60
0
100
AcDbSpline
70
4
71
3
72
8
73
4
40
0
40
0
40
0
40
0
40
1
40
1
40
1
40
1
41
1
10
253.544757802694
20
16.127687854859
30
0
41
1
10
253.538468357683
20
16.1275047180602
30
0
41
1
10
253.532179943435
20
16.1273216158463
30
0
41
1
10
253.525892521034
20
16.1271385469071
30
0
0
SPLINE
5
30C
100
AcDbEntity
8
1
62
256
6
ByLayer
370
18
48
1
60
0
100
AcDbSpline
70
4
71
3
72
8
73
4
40
0
40
0
40
0
40
0
40
1
40
1
40
1
40
1
41
1
10
254.641243845485
20
15.1424157392069
30
0
41
1
10
254.638448910192
20
15.1365603188469
30
0
41
1
10
254.635654542004
20
15.1307056856819
30
0
41
1
10
254.632860719401
20
15.1248518101625
30
0
0
SPLINE
5
30D
100
AcDbEntity
8
1
62
256
6
ByLayer
370
18
48
1
60
0
100
AcDbSpline
70
4
71
3
72
20
73
16
40
0
40
0
40
0
40
0
40
0.124999999999981
40
0.124999999999981
40
0.249999999999962
40
0.249999999999962
40
0.374999999999943
40
0.374999999999943
40
0.499999999999925
40
0.499999999999925
40
0.749999999999962
40
0.749999999999962
40
0.874999999999981
40
0.874999999999981
40
1
40
1
40
1
40
1
41
1
10
256.038549998954
20
15.6031776734933
30
0
41
1
10
256.020064932066
20
15.6303843222364
30
0
41
1
10
256.01120243763
20
15.6630664410196
30
0
41
1
10
256.003734339819
20
15.7303293414758
30
0
41
1
10
256.005297118066
20
15.7647913948635
30
0
41
1
10
256.015270361392
20
15.8338167700696
30
0
41
1
10
256.023826002271
20
15.8684746904513
30
0
41
1
10
256.046101051588
20
15.9357849649038
30
0
41
1
10
256.059896483195
20
15.9688094480876
30
0
41
1
10
256.109106972891
20
16.0660827884946
30
0
41
1
10
256.151181297132
20
16.1267335129137
30
0
41
1
10
256.227242702759
20
16.2023668113759
30
0
41
1
10
256.254823428129
20
16.2250050150932
30
0
41
1
10
256.314448798
20
16.2606057257486
30
0
41
1
10
256.346441232014
20
16.273814985497
30
0
41
1
10
256.379878257244
20
16.2762702218818
30
0
0
SPLINE
5
30E
100
AcDbEntity
8
1
62
256
6
ByLayer
370
18
48
1
60
0
100
AcDbSpline
70
4
71
3
72
8
73
4
40
0
40
0
40
0
40
0
40
1
40
1
40
1
40
1
41
1
10
255.242884066841
20
18.0344838390838
30
0
41
1
10
255.246373128153
20
18.0403756370469
30
0
41
1
10
255.249861922796
20
18.0462666635604
30
0
41
1
10
255.253350460537
20
18.0521569475574
30
0
0
SPLINE
5
30F
100
AcDbEntity
8
1
62
256
6
ByLayer
370
18
48
1
60
0
100
AcDbSpline
70
4
71
3
72
16
73
12
40
0
40
0
40
0
40
0
40
0.12500000000009
40
0.12500000000009
40
0.250000000000179
40
0.250000000000179
40
0.500000000000119
40
0.500000000000119
40
0.75000000000006
40
0.75000000000006
40
1
40
1
40
1
40
1
41
1
10
256.400780878845
20
16.2778050614266
30
0
41
1
10
256.420128113768
20
16.2715060797188
30
0
41
1
10
256.440920760924
20
16.2703784189978
30
0
41
1
10
256.480735799656
20
16.2804496384842
30
0
41
1
10
256.499579886049
20
16.2916141338306
30
0
41
1
10
256.547226218995
20
16.3344439710813
30
0
41
1
10
256.568708360969
20
16.3738269263399
30
0
41
1
10
256.599922985055
20
16.4562471036134
30
0
41
1
10
256.60950951314
20
16.4997960053985
30
0
41
1
10
256.620509221677
20
16.5876531109141
30
0
41
1
10
256.621847753615
20
16.6321982004884
30
0
41
1
10
256.619533215018
20
16.6763622278175
30
0
0
SPLINE
5
310
100
AcDbEntity
8
1
62
256
6
ByLayer
370
18
48
1
60
0
100
AcDbSpline
70
4
71
3
72
8
73
4
40
0
40
0
40
0
40
0
40
1
40
1
40
1
40
1
41
1
10
253.485430301093
20
16.8992036962933
30
0
41
1
10
253.491702416251
20
16.8996788448263
30
0
41
1
10
253.497975521301
20
16.9001540639433
30
0
41
1
10
253.504249655083
20
16.9006293564089
30
0
0
SPLINE
5
311
100
AcDbEntity
8
1
62
256
6
ByLayer
370
18
48
1
60
0
100
AcDbSpline
70
4
71
3
72
8
73
4
40
0
40
0
40
0
40
0
40
1
40
1
40
1
40
1
41
1
10
255.404644260438
20
15.1652992716354
30
0
41
1
10
255.400559130938
20
15.1707926365513
30
0
41
1
10
255.396473668328
20
15.1762867130624
30
0
41
1
10
255.392387859872
20
15.1817815289227
30
0
0
SPLINE
5
312
100
AcDbEntity
8
1
62
256
6
ByLayer
370
18
48
1
60
0
100
AcDbSpline
70
4
71
3
72
8
73
4
40
0
40
0
40
0
40
0
40
1
40
1
40
1
40
1
41
1
10
256.360318658904
20
17.0498702108128
30
0
41
1
10
256.353336521365
20
17.0496507333959
30
0
41
1
10
256.346353680662
20
17.0494312378337
30
0
41
1
10
256.339370109632
20
17.0492117234317
30
0
0
SPLINE
5
313
100
AcDbEntity
8
1
62
256
6
ByLayer
370
18
48
1
60
0
100
AcDbSpline
70
4
71
3
72
8
73
4
40
0
40
0
40
0
40
0
40
1
40
1
40
1
40
1
41
1
10
254.4815669195
20
18.0117094860844
30
0
41
1
10
254.484957333862
20
18.0061797126909
30
0
41
1
10
254.488348370017
20
18.0006492428315
30
0
41
1
10
254.491740052454
20
17.995118049368
30
0
0
SPLINE
5
314
100
AcDbEntity
8
1
62
256
6
ByLayer
370
18
48
1
60
0
100
AcDbSpline
70
4
71
3
72
16
73
12
40
0
40
0
40
0
40
0
40
0.250000000000002
40
0.250000000000002
40
0.500000000000004
40
0.500000000000004
40
0.750000000000006
40
0.750000000000006
40
0.875000000000003
40
0.875000000000003
40
1
40
1
40
1
40
1
41
1
10
254.195505578768
20
15.0955269568132
30
0
41
1
10
254.156243728897
20
15.1156273183637
30
0
41
1
10
254.118446278802
20
15.1389335364866
30
0
41
1
10
254.047457674937
20
15.1920991571696
30
0
41
1
10
254.014218168275
20
15.2218788243849
30
0
41
1
10
253.956950057249
20
15.2893360560621
30
0
41
1
10
253.932512339907
20
15.3269770573469
30
0
41
1
10
253.916482904923
20
15.388448502563
30
0
41
1
10
253.915194087239
20
15.4093665610278
30
0
41
1
10
253.923674276246
20
15.446950424347
30
0
41
1
10
253.933445443596
20
15.4633614123304
30
0
41
1
10
253.946968971562
20
15.4759985890688
30
0
0
SPLINE
5
315
100
AcDbEntity
8
1
62
256
6
ByLayer
370
18
48
1
60
0
100
AcDbSpline
70
4
71
3
72
16
73
12
40
0
40
0
40
0
40
0
40
0.249999999999928
40
0.249999999999928
40
0.499999999999855
40
0.499999999999855
40
0.749999999999783
40
0.749999999999783
40
0.874999999999892
40
0.874999999999892
40
1
40
1
40
1
40
1
41
1
10
255.862178404447
20
15.1828735783984
30
0
41
1
10
255.825232695002
20
15.1587793478995
30
0
41
1
10
255.786200862987
20
15.1376461036792
30
0
41
1
10
255.704650974888
20
15.102878082871
30
0
41
1
10
255.662181019091
20
15.089155919489
30
0
41
1
10
255.574773644713
20
15.0740774212906
30
0
41
1
10
255.52967607063
20
15.0723272606548
30
0
41
1
10
255.467542274469
20
15.0908834400093
30
0
41
1
10
255.448405486164
20
15.1009369255587
30
0
41
1
10
255.419198025698
20
15.1287276254135
30
0
41
1
10
255.409352889563
20
15.1463318587585
30
0
41
1
10
255.404644260438
20
15.1652992716354
30
0
0
SPLINE
5
316
100
AcDbEntity
8
1
62
256
6
ByLayer
370
18
48
1
60
0
100
AcDbSpline
70
4
71
3
72
29
73
25
40
0
40
0
40
0
40
0
40
0.0029611412424607
40
0.0106724304226938
40
0.0260950087831601
40
0.0569401655040927
40
0.118630478945958
40
0.242011105829688
40
0.365391732713419
40
0.427082046155284
40
0.484916715007032
40
0.488772359597149
40
0.496483648777382
40
0.504194937957615
40
0.519617516318082
40
0.550462673039014
40
0.612152986480879
40
0.73553361336461
40
0.85891424024834
40
0.978439222541954
40
0.98229486713207
40
0.990006156312303
40
0.997717445492537
40
1
40
1
40
1
40
1
41
1
10
263.860380357813
20
-17.6278952700669
30
0
41
1
10
263.881666327109
20
-17.6186658542327
30
0
41
1
10
263.958052344442
20
-17.5796482739257
30
0
41
1
10
264.116512298428
20
-17.4285008217967
30
0
41
1
10
264.134036994423
20
-17.0447291355004
30
0
41
1
10
264.235900052741
20
-16.4189084301592
30
0
41
1
10
264.395526719374
20
-15.1191238940091
30
0
41
1
10
264.646768104067
20
-13.2835227457537
30
0
41
1
10
264.884999151113
20
-11.4408018483728
30
0
41
1
10
265.085813606226
20
-9.99188623466875
30
0
41
1
10
265.182590981285
20
-9.25462011759473
30
0
41
1
10
265.23633862789
20
-8.82933018125567
30
0
41
1
10
265.229025230217
20
-8.69404210522421
30
0
41
1
10
265.185051801703
20
-8.50603146504127
30
0
41
1
10
265.14305152123
20
-8.18878596873742
30
0
41
1
10
265.03489576182
20
-7.54537220193546
30
0
41
1
10
264.833868209825
20
-6.26192144225834
30
0
41
1
10
264.539533134499
20
-4.42752299683175
30
0
41
1
10
264.192092452608
20
-2.24946837467223
30
0
41
1
10
263.958402387014
20
-0.782288560144082
30
0
41
1
10
263.834905911486
20
0.0079471410193719
30
0
41
1
10
263.782390043792
20
0.154208487222235
30
0
41
1
10
263.67911778882
20
0.260971070871051
30
0
41
1
10
263.615096798271
20
0.296592458596621
30
0
41
1
10
263.600242115491
20
0.303643294900297
30
0
0
SPLINE
5
317
100
AcDbEntity
8
1
62
256
6
ByLayer
370
18
48
1
60
0
100
AcDbSpline
70
4
71
3
72
26
73
22
40
0
40
0
40
0
40
0
40
0.0032722828985213
40
0.0190044584003223
40
0.0504688094039244
40
0.113397511411128
40
0.239254915425537
40
0.365112319439945
40
0.428041021447149
40
0.487036679578903
40
0.490969723454353
40
0.498835811205253
40
0.506701898956154
40
0.522434074457955
40
0.553898425461557
40
0.616827127468761
40
0.742684531483169
40
0.868541935497577
40
0.990466295636535
40
0.994399339511985
40
1
40
1
40
1
40
1
41
1
10
263.90288941271
20
-17.4157092263664
30
0
41
1
10
263.914747825621
20
-17.40314341703
30
0
41
1
10
263.975669192583
20
-17.3235305080144
30
0
41
1
10
263.989674434094
20
-17.0168310278389
30
0
41
1
10
264.092417856285
20
-16.3856015909248
30
0
41
1
10
264.251823859699
20
-15.0876138387642
30
0
41
1
10
264.503126984376
20
-13.251561610431
30
0
41
1
10
264.741373542455
20
-11.4087207349586
30
0
41
1
10
264.942207127528
20
-9.95966709484554
30
0
41
1
10
265.03887283155
20
-9.22325170628318
30
0
41
1
10
265.090963153961
20
-8.81107570786588
30
0
41
1
10
265.085024334598
20
-8.70121549221943
30
0
41
1
10
265.042320348677
20
-8.51863241869594
30
0
41
1
10
264.999726261415
20
-8.1969016540283
30
0
41
1
10
264.891851845847
20
-7.55516158913747
30
0
41
1
10
264.690741974503
20
-6.27118526552027
30
0
41
1
10
264.396438806997
20
-4.43698568071443
30
0
41
1
10
264.048985227806
20
-2.25885020727804
30
0
41
1
10
263.815259614198
20
-0.791447211124876
30
0
41
1
10
263.695888745847
20
-0.027610660753794
30
0
41
1
10
263.679547754499
20
0.0239071025438591
30
0
41
1
10
263.666553094574
20
0.0517690074103712
30
0
0
SPLINE
5
318
100
AcDbEntity
8
1
62
256
6
ByLayer
370
13
48
1
60
0
100
AcDbSpline
70
4
71
3
72
8
73
4
40
0
40
0
40
0
40
0
40
1
40
1
40
1
40
1
41
1
10
263.608811182911
20
0.571151289927883
30
0
41
1
10
263.761839497505
20
0.593238396790753
30
0
41
1
10
263.913435072569
20
0.60241396276615
30
0
41
1
10
264.064816466276
20
0.600427672963917
30
0
0
SPLINE
5
319
100
AcDbEntity
8
1
62
256
6
ByLayer
370
13
48
1
60
0
100
AcDbSpline
70
4
71
3
72
12
73
8
40
0
40
0
40
0
40
0
40
0.0925377658717101
40
0.0925377658717101
40
0.591129664727694
40
0.591129664727694
40
1
40
1
40
1
40
1
41
1
10
264.542449285378
20
7.34053007479216
30
0
41
1
10
264.5338882604
20
7.33156871129009
30
0
41
1
10
264.525119004893
20
7.32281153554467
30
0
41
1
10
264.467808317604
20
7.26820593428488
30
0
41
1
10
264.412848778498
20
7.22766431172761
30
0
41
1
10
264.306995050793
20
7.16843385349128
30
0
41
1
10
264.256279649683
20
7.14654313390426
30
0
41
1
10
264.203877735257
20
7.12991573995524
30
0
0
SPLINE
5
31A
100
AcDbEntity
8
1
62
256
6
ByLayer
370
13
48
1
60
0
100
AcDbSpline
70
4
71
3
72
24
73
20
40
0
40
0
40
0
40
0
40
0.0612470953000853
40
0.0612470953000853
40
0.122494190600168
40
0.122494190600168
40
0.18374128590025
40
0.18374128590025
40
0.244988381200333
40
0.244988381200333
40
0.3674825718005
40
0.3674825718005
40
0.489976762400666
40
0.489976762400666
40
0.734965143601
40
0.734965143601
40
0.979953524801333
40
0.979953524801333
40
1
40
1
40
1
40
1
41
1
10
264.791228430143
20
7.85303514768776
30
0
41
1
10
264.789978751968
20
7.83571554697158
30
0
41
1
10
264.788253635829
20
7.81671177662543
30
0
41
1
10
264.784232945898
20
7.77931323054432
30
0
41
1
10
264.782004039445
20
7.76180254430557
30
0
41
1
10
264.777646226659
20
7.73148029256998
30
0
41
1
10
264.775482897151
20
7.71821780871682
30
0
41
1
10
264.771329906826
20
7.694575436782
30
0
41
1
10
264.769309599937
20
7.68402776014793
30
0
41
1
10
264.763450702832
20
7.65515982378207
30
0
41
1
10
264.759778314922
20
7.63942908292879
30
0
41
1
10
264.752689063339
20
7.61164009968118
30
0
41
1
10
264.749300838002
20
7.59975137978671
30
0
41
1
10
264.73942589246
20
7.56780089467952
30
0
41
1
10
264.733256014936
20
7.55148844379309
30
0
41
1
10
264.721371195501
20
7.52401248454467
30
0
41
1
10
264.715674131045
20
7.51300874699413
30
0
41
1
10
264.709689812659
20
7.50309853140334
30
0
41
1
10
264.709238316677
20
7.50236112784694
30
0
41
1
10
264.708787941809
20
7.50163568732091
30
0
0
SPLINE
5
31B
100
AcDbEntity
8
1
62
256
6
ByLayer
370
13
48
1
60
0
100
AcDbSpline
70
4
71
3
72
10
73
6
40
0
40
0
40
0
40
0
40
0.121795174088513
40
0.121795174088513
40
1
40
1
40
1
40
1
41
1
10
264.68288953904
20
7.47070362621267
30
0
41
1
10
264.681488621853
20
7.46957965217786
30
0
41
1
10
264.680096080969
20
7.4685439125052
30
0
41
1
10
264.668725135292
20
7.46069608744077
30
0
41
1
10
264.659170804231
20
7.45811736572551
30
0
41
1
10
264.649904815314
20
7.45841965621452
30
0
0
SPLINE
5
31C
100
AcDbEntity
8
1
62
256
6
ByLayer
370
13
48
1
60
0
100
AcDbSpline
70
4
71
1
72
4
73
2
40
0
40
0
40
1
40
1
41
1
10
243.750031349627
20
16.180842948033
30
0
41
1
10
243.828026832951
20
16.1836505621349
30
0
0
SPLINE
5
31D
100
AcDbEntity
8
1
62
256
6
ByLayer
370
13
48
1
60
0
100
AcDbSpline
70
4
71
1
72
4
73
2
40
0
40
0
40
1
40
1
41
1
10
243.83013433748
20
16.0771176722971
30
0
41
1
10
243.774136318056
20
16.073837633182
30
0
0
SPLINE
5
31E
100
AcDbEntity
8
1
62
256
6
ByLayer
370
18
48
1
60
0
100
AcDbSpline
70
4
71
1
72
4
73
2
40
0
40
0
40
1
40
1
41
1
10
264.066724004941
20
0.462943105792959
30
0
41
1
10
263.502621206202
20
0.536690348886026
30
0
0
SPLINE
5
31F
100
AcDbEntity
8
1
62
256
6
ByLayer
370
13
48
1
60
0
100
AcDbSpline
70
4
71
3
72
8
73
4
40
0
40
0
40
0
40
0
40
1
40
1
40
1
40
1
41
1
10
245.075826817668
20
25.8240369457272
30
0
41
1
10
245.156309352993
20
25.828187794038
30
0
41
1
10
245.235777855132
20
25.8301291722787
30
0
41
1
10
245.3141222825
20
25.8308073499797
30
0
0
SPLINE
5
320
100
AcDbEntity
8
1
62
256
6
ByLayer
370
13
48
1
60
0
100
AcDbSpline
70
4
71
3
72
24
73
20
40
0
40
0
40
0
40
0
40
0.0436863032251747
40
0.0436863032251747
40
0.0873726064503493
40
0.0873726064503493
40
0.131058909675524
40
0.131058909675524
40
0.174745212900699
40
0.174745212900699
40
0.262117819351057
40
0.262117819351057
40
0.349490425801416
40
0.349490425801416
40
0.524235638702141
40
0.524235638702141
40
0.698980851602866
40
0.698980851602866
40
1
40
1
40
1
40
1
41
1
10
245.497303922022
20
6.84188341056262
30
0
41
1
10
245.500357145576
20
6.82478931537119
30
0
41
1
10
245.504059246258
20
6.8060699734059
30
0
41
1
10
245.511967122979
20
6.76929657701282
30
0
41
1
10
245.516014184373
20
6.75211480031186
30
0
41
1
10
245.523517662982
20
6.72241417251792
30
0
41
1
10
245.5270554486
20
6.70945047144764
30
0
41
1
10
245.533656989216
20
6.68637172059698
30
0
41
1
10
245.536768761082
20
6.6760930048132
30
0
41
1
10
245.545613083562
20
6.6479956315342
30
0
41
1
10
245.550909663915
20
6.63273493439007
30
0
41
1
10
245.56086481955
20
6.60583921067382
30
0
41
1
10
245.565477193455
20
6.59436978441852
30
0
41
1
10
245.578637778122
20
6.56362654029411
30
0
41
1
10
245.586478971833
20
6.54804837853666
30
0
41
1
10
245.601170704782
20
6.52196523737979
30
0
41
1
10
245.607986763898
20
6.51161728484749
30
0
41
1
10
245.625571947651
20
6.48838727524046
30
0
41
1
10
245.635631338217
20
6.47900371067163
30
0
41
1
10
245.645013692025
20
6.47297093908901
30
0
0
SPLINE
5
321
100
AcDbEntity
8
1
62
256
6
ByLayer
370
13
48
1
60
0
100
AcDbSpline
70
4
71
3
72
10
73
6
40
0
40
0
40
0
40
0
40
0.381050048122793
40
0.381050048122793
40
1
40
1
40
1
40
1
41
1
10
262.134280114193
20
25.560752333179
30
0
41
1
10
262.139525883218
20
25.5605324074888
30
0
41
1
10
262.150501481099
20
25.5602446534381
30
0
41
1
10
262.191655682205
20
25.5594076665349
30
0
41
1
10
262.229589071679
20
25.558816741417
30
0
41
1
10
262.268813601929
20
25.5583470374167
30
0
0
SPLINE
5
322
100
AcDbEntity
8
1
62
256
6
ByLayer
370
13
48
1
60
0
100
AcDbSpline
70
4
71
3
72
10
73
6
40
0
40
0
40
0
40
0
40
0.831982487583389
40
0.831982487583389
40
1
40
1
40
1
40
1
41
1
10
244.373958086286
20
18.5255099663601
30
0
41
1
10
244.338487053883
20
18.478374923775
30
0
41
1
10
244.307654038124
20
18.4331986244946
30
0
41
1
10
244.280273478873
20
18.3881021374583
30
0
41
1
10
244.276034019059
20
18.3808849857835
30
0
41
1
10
244.272250573211
20
18.3741849315548
30
0
0
SPLINE
5
323
100
AcDbEntity
8
1
62
256
6
ByLayer
370
13
48
1
60
0
100
AcDbSpline
70
4
71
3
72
14
73
10
40
0
40
0
40
0
40
0
40
0.0145581563046875
40
0.0145581563046875
40
0.343038770869792
40
0.343038770869792
40
0.671519385434896
40
0.671519385434896
40
1
40
1
40
1
40
1
41
1
10
245.104490710356
20
24.7282841171241
30
0
41
1
10
245.104499997023
20
24.725111087773
30
0
41
1
10
245.10451178338
20
24.7219292510116
30
0
41
1
10
245.104840074466
20
24.6468100221096
30
0
41
1
10
245.106304453329
20
24.5701312356719
30
0
41
1
10
245.109943052513
20
24.4155479775225
30
0
41
1
10
245.112189420293
20
24.3371397124115
30
0
41
1
10
245.117143214699
20
24.1794326932545
30
0
41
1
10
245.119858979333
20
24.1001274308129
30
0
41
1
10
245.122737023227
20
24.0205152612327
30
0
0
SPLINE
5
324
100
AcDbEntity
8
1
62
256
6
ByLayer
370
13
48
1
60
0
100
AcDbSpline
70
4
71
3
72
18
73
14
40
0
40
0
40
0
40
0
40
0.140967321163817
40
0.140967321163817
40
0.312773856931053
40
0.312773856931053
40
0.48458039269829
40
0.48458039269829
40
0.656386928465527
40
0.656386928465527
40
0.828193464232763
40
0.828193464232763
40
1
40
1
40
1
40
1
41
1
10
45.4914
20
-9.39090121894887
30
0
41
1
10
45.4914
20
-9.60824682793321
30
0
41
1
10
45.4914
20
-9.83671727173268
30
0
41
1
10
45.4914
20
-10.3527889353716
30
0
41
1
10
45.4914
20
-10.6445066826257
30
0
41
1
10
45.4914
20
-11.2445973774179
30
0
41
1
10
45.4914
20
-11.5527733237438
30
0
41
1
10
45.4914
20
-12.1608879858372
30
0
41
1
10
45.4914
20
-12.4639823537971
30
0
41
1
10
45.4914
20
-13.0681934051574
30
0
41
1
10
45.4914
20
-13.365049791003
30
0
41
1
10
45.4914
20
-13.9341632719909
30
0
41
1
10
45.4914
20
-14.2087313386434
30
0
41
1
10
45.4914
20
-14.4728762189495
30
0
0
SPLINE
5
325
100
AcDbEntity
8
1
62
256
6
ByLayer
370
13
48
1
60
0
100
AcDbSpline
70
4
71
3
72
12
73
8
40
0
40
0
40
0
40
0
40
0.311637181755072
40
0.311637181755072
40
0.655818590877536
40
0.655818590877536
40
1
40
1
40
1
40
1
41
1
10
45.9413372347218
20
-9.39660327656952
30
0
41
1
10
45.9412073469036
20
-9.87559523546301
30
0
41
1
10
45.9411024776558
20
-10.4006839235629
30
0
41
1
10
45.9409467161521
20
-11.5432678107273
30
0
41
1
10
45.9409026532278
20
-12.1643281927347
30
0
41
1
10
45.9408956948813
20
-13.367502964797
30
0
41
1
10
45.9409328015388
20
-13.949257780723
30
0
41
1
10
45.9410080508573
20
-14.4728762337089
30
0
0
SPLINE
5
326
100
AcDbEntity
8
1
62
256
6
ByLayer
370
13
48
1
60
0
100
AcDbSpline
70
4
71
3
72
67
73
63
40
0
40
0
40
0
40
0
40
0.0142117766766893
40
0.0142117766766893
40
0.0347490313292571
40
0.0347490313292571
40
0.0450176586555413
40
0.0450176586555413
40
0.0552862859818254
40
0.0552862859818254
40
0.0758235406343942
40
0.0758235406343942
40
0.0963607952869631
40
0.0963607952869631
40
0.116898049939532
40
0.116898049939532
40
0.137435304592101
40
0.137435304592101
40
0.178509813897239
40
0.178509813897239
40
0.219584323202378
40
0.219584323202378
40
0.260658832507516
40
0.260658832507516
40
0.281196087160085
40
0.281196087160085
40
0.301733341812654
40
0.301733341812654
40
0.342807851117792
40
0.342807851117792
40
0.363345105770362
40
0.363345105770362
40
0.383882360422931
40
0.383882360422931
40
0.4044196150755
40
0.4044196150755
40
0.424956869728069
40
0.424956869728069
40
0.445494124380638
40
0.445494124380638
40
0.466031379033207
40
0.466031379033207
40
0.486568633685776
40
0.486568633685776
40
0.507105888338345
40
0.507105888338345
40
0.548180397643482
40
0.548180397643482
40
0.568717652296051
40
0.568717652296051
40
0.58925490694862
40
0.58925490694862
40
0.609792161601189
40
0.609792161601189
40
0.630329416253758
40
0.671403925558896
40
0.671403925558896
40
0.753552944169172
40
0.753552944169172
40
0.835701962779448
40
0.835701962779448
40
1
40
1
40
1
40
1
41
1
10
187.241137419124
20
-21.6087985156298
30
0
41
1
10
186.61594899725
20
-21.7555467540958
30
0
41
1
10
185.990938345887
20
-21.8987560884988
30
0
41
1
10
184.462959211465
20
-22.2395367473742
30
0
41
1
10
183.560111371012
20
-22.4330729271798
30
0
41
1
10
182.205593254876
20
-22.7095455516767
30
0
41
1
10
181.754039338788
20
-22.7992151138416
30
0
41
1
10
180.850509204427
20
-22.9727708860333
30
0
41
1
10
180.398501772983
20
-23.0567991817668
30
0
41
1
10
179.040799208767
20
-23.3021581870231
30
0
41
1
10
178.133287610947
20
-23.4574943817394
30
0
41
1
10
176.31116394783
20
-23.7467237274532
30
0
41
1
10
175.396635272057
20
-23.8811555238997
30
0
41
1
10
173.560043495775
20
-24.1332929694198
30
0
41
1
10
172.637975956161
20
-24.2506868784074
30
0
41
1
10
170.788572238845
20
-24.4675346048333
30
0
41
1
10
169.860964161081
20
-24.5670968446896
30
0
41
1
10
167.069497612855
20
-24.840850253855
30
0
41
1
10
165.195999912108
20
-24.9895281994304
30
0
41
1
10
161.433610159538
20
-25.2315546929585
30
0
41
1
10
159.544266673785
20
-25.3259386687673
30
0
41
1
10
155.749839296992
20
-25.4758338673519
30
0
41
1
10
153.844839498267
20
-25.5313189192732
30
0
41
1
10
150.975055200417
20
-25.5916225215978
30
0
41
1
10
150.016099499335
20
-25.6078936660563
30
0
41
1
10
148.095277678345
20
-25.6338875668483
30
0
41
1
10
147.133442965567
20
-25.6436129749237
30
0
41
1
10
144.243349637195
20
-25.6646152349528
30
0
41
1
10
142.31045918306
20
-25.6672950650492
30
0
41
1
10
139.400858970184
20
-25.6627081577955
30
0
41
1
10
138.429296985208
20
-25.6599009496094
30
0
41
1
10
136.48269616497
20
-25.6536863086448
30
0
41
1
10
135.507650429139
20
-25.6504275705298
30
0
41
1
10
133.55410481694
20
-25.6431830278638
30
0
41
1
10
132.575849685387
20
-25.6391620855186
30
0
41
1
10
130.618602783307
20
-25.6297721401618
30
0
41
1
10
129.639298482944
20
-25.6244098839796
30
0
41
1
10
127.679336373224
20
-25.6117937158411
30
0
41
1
10
126.698678408991
20
-25.604538523903
30
0
41
1
10
124.736011092619
20
-25.5876435901573
30
0
41
1
10
123.753993881767
20
-25.5777743783531
30
0
41
1
10
121.788536443329
20
-25.5623237232297
30
0
41
1
10
120.805098137824
20
-25.5569634192292
30
0
41
1
10
118.836804423198
20
-25.5583616801448
30
0
41
1
10
117.851854725517
20
-25.5637191231413
30
0
41
1
10
114.89673798737
20
-25.5703356301433
30
0
41
1
10
112.926615436592
20
-25.5662538054484
30
0
41
1
10
109.971402055375
20
-25.5591105435163
30
0
41
1
10
108.986326002665
20
-25.5565698259375
30
0
41
1
10
107.01617022766
20
-25.5532035578635
30
0
41
1
10
106.031090725019
20
-25.5526557039723
30
0
41
1
10
104.060932889498
20
-25.5537513829696
30
0
41
1
10
103.075854385587
20
-25.5549907125163
30
0
41
1
10
101.105699899907
20
-25.5567527128026
30
0
41
1
10
98.1504704648656
20
-25.5589224811627
30
0
41
1
10
95.1952403917832
20
-25.5598205937586
30
0
41
1
10
89.2847799974828
20
-25.5603578261479
30
0
41
1
10
85.3444727632177
20
-25.559054765194
30
0
41
1
10
77.4638583531371
20
-25.5568045816617
30
0
41
1
10
73.5235510683415
20
-25.5571065461144
30
0
41
1
10
61.7026291314721
20
-25.5581303772947
30
0
41
1
10
53.8220144098477
20
-25.5586222533246
30
0
41
1
10
45.9414
20
-25.5580634576542
30
0
0
SPLINE
5
327
100
AcDbEntity
8
1
62
256
6
ByLayer
370
13
48
1
60
0
100
AcDbSpline
70
4
71
3
72
14
73
10
40
0
40
0
40
0
40
0
40
0.0554899401088749
40
0.0554899401088749
40
0.527744970054437
40
0.527744970054437
40
0.763872485027219
40
0.763872485027219
40
1
40
1
40
1
40
1
41
1
10
213.639095516887
20
11.5915576083206
30
0
41
1
10
214.105363662933
20
11.6211211182085
30
0
41
1
10
214.57161099482
20
11.6495595840532
30
0
41
1
10
219.005776423349
20
11.9092143661312
30
0
41
1
10
222.972598802391
20
12.0590568705774
30
0
41
1
10
228.92648444177
20
12.1537418564251
30
0
41
1
10
230.911897980219
20
12.1636389056256
30
0
41
1
10
234.881683110478
20
12.1394878470103
30
0
41
1
10
236.866430265293
20
12.1054508838718
30
0
41
1
10
238.851461809926
20
12.0493198792368
30
0
0
SPLINE
5
328
100
AcDbEntity
8
1
62
256
6
ByLayer
370
13
48
1
60
0
100
AcDbSpline
70
4
71
3
72
32
73
28
40
0
40
0
40
0
40
0
40
0.0532676199793977
40
0.0532676199793977
40
0.108957759980609
40
0.108957759980609
40
0.16464789998182
40
0.16464789998182
40
0.220338039983031
40
0.220338039983031
40
0.331718319985453
40
0.331718319985453
40
0.387408459986665
40
0.387408459986665
40
0.443098599987877
40
0.443098599987877
40
0.554478879990302
40
0.554478879990302
40
0.665859159992727
40
0.665859159992727
40
0.721549299993938
40
0.721549299993938
40
0.77723943999515
40
0.77723943999515
40
0.888619719997575
40
0.888619719997575
40
1
40
1
40
1
40
1
41
1
10
187.810590379273
20
-21.7277070884401
30
0
41
1
10
186.888189114703
20
-21.9520882218096
30
0
41
1
10
185.96614241248
20
-22.1685818700935
30
0
41
1
10
184.080024105378
20
-22.5942976217607
30
0
41
1
10
183.11606283072
20
-22.8028625029797
30
0
41
1
10
181.186508975981
20
-23.2001677295304
30
0
41
1
10
180.220719869035
20
-23.3886598906626
30
0
41
1
10
178.28314851625
20
-23.7422686653037
30
0
41
1
10
177.311159026625
20
-23.9072039610825
30
0
41
1
10
174.381591208796
20
-24.3656396749289
30
0
41
1
10
172.414534188699
20
-24.6232524375429
30
0
41
1
10
169.442239288395
20
-24.9491166514891
30
0
41
1
10
168.447472093451
20
-25.0477366511986
30
0
41
1
10
166.452453633332
20
-25.2268536575189
30
0
41
1
10
165.452237786168
20
-25.3073366151049
30
0
41
1
10
162.443604251848
20
-25.5249212354032
30
0
41
1
10
160.427312138808
20
-25.6383639845049
30
0
41
1
10
156.375166569265
20
-25.8174477191363
30
0
41
1
10
154.339376642282
20
-25.8830223139676
30
0
41
1
10
151.270697907324
20
-25.9543259685869
30
0
41
1
10
150.245262387615
20
-25.9735465644281
30
0
41
1
10
148.190904720777
20
-26.0042519599907
30
0
41
1
10
147.161737767233
20
-26.0157435948831
30
0
41
1
10
144.0677923231
20
-26.0407807763758
30
0
41
1
10
141.995661752614
20
-26.0449059502695
30
0
41
1
10
137.838176251436
20
-26.0394044833043
30
0
41
1
10
135.752570686742
20
-26.0298317752165
30
0
41
1
10
133.65988
20
-26.0182065701086
30
0
0
SPLINE
5
329
100
AcDbEntity
8
1
62
256
6
ByLayer
370
13
48
1
60
0
100
AcDbSpline
70
4
71
3
72
28
73
24
40
0
40
0
40
0
40
0
40
0.131285241918996
40
0.131285241918996
40
0.262570483837992
40
0.262570483837992
40
0.328213104797489
40
0.328213104797489
40
0.393855725756986
40
0.393855725756986
40
0.525140967675982
40
0.525140967675982
40
0.656426209594978
40
0.656426209594978
40
0.722068830554476
40
0.722068830554476
40
0.787711451513974
40
0.787711451513974
40
0.91899669343297
40
0.91899669343297
40
0.984639314392469
40
0.984639314392469
40
1
40
1
40
1
40
1
41
1
10
234.703626366592
20
25.7745175752796
30
0
41
1
10
232.654501616246
20
25.9067525957907
30
0
41
1
10
230.604531712663
20
25.9903680510562
30
0
41
1
10
226.509317425719
20
26.0592440397398
30
0
41
1
10
224.462994117455
20
26.0446137530959
30
0
41
1
10
221.392608208293
20
25.9491522187509
30
0
41
1
10
220.368998357383
20
25.9050811786445
30
0
41
1
10
218.321043103058
20
25.7924603850185
30
0
41
1
10
217.296318593893
20
25.7238726082001
30
0
41
1
10
214.22365149448
20
25.4817263196168
30
0
41
1
10
212.177434043504
20
25.2718307523953
30
0
41
1
10
208.084520989779
20
24.7580240638237
30
0
41
1
10
206.03757475763
20
24.4543441318947
30
0
41
1
10
202.964248827501
20
23.9304212936077
30
0
41
1
10
201.939119129527
20
23.7442197297517
30
0
41
1
10
199.891142633389
20
23.3490055109648
30
0
41
1
10
198.86816048923
20
23.1398010329841
30
0
41
1
10
195.799499012227
20
22.4800474273347
30
0
41
1
10
193.754278808215
20
21.9967972417952
30
0
41
1
10
190.674274146946
20
21.2254088578341
30
0
41
1
10
189.645486970895
20
20.9607279393482
30
0
41
1
10
188.371943645856
20
20.627482402921
30
0
41
1
10
188.13026533472
20
20.5639898151871
30
0
41
1
10
187.888432641379
20
20.5002126625687
30
0
0
SPLINE
5
32A
100
AcDbEntity
8
1
62
256
6
ByLayer
370
13
48
1
60
0
100
AcDbSpline
70
4
71
3
72
26
73
22
40
0
40
0
40
0
40
0
40
0.0063541948911292
40
0.0063541948911292
40
0.0325027687097826
40
0.0325027687097826
40
0.058651342528436
40
0.058651342528436
40
0.110948490165744
40
0.110948490165744
40
0.163245637803053
40
0.163245637803053
40
0.267839933077671
40
0.267839933077671
40
0.37243422835229
40
0.37243422835229
40
0.581622818901527
40
0.581622818901527
40
0.790811409450763
40
0.790811409450763
40
1
40
1
40
1
40
1
41
1
10
189.17428766911
20
20.139699821874
30
0
41
1
10
189.269245995685
20
20.1624019483361
30
0
41
1
10
189.364163542807
20
20.1851048585391
30
0
41
1
10
189.849448946538
20
20.3012884803272
30
0
41
1
10
190.239104055983
20
20.3948770860029
30
0
41
1
10
191.018012609964
20
20.5797109564992
30
0
41
1
10
191.407233607356
20
20.671038583005
30
0
41
1
10
192.574472892037
20
20.9412459509279
30
0
41
1
10
193.352057617161
20
21.1163348701854
30
0
41
1
10
194.907177899962
20
21.4536110271142
30
0
41
1
10
195.68476871693
20
21.6161168378865
30
0
41
1
10
198.017517055727
20
22.0856136361746
30
0
41
1
10
199.572088660754
20
22.3743039686677
30
0
41
1
10
202.68168387411
20
22.9029117474038
30
0
41
1
10
204.236959676011
20
23.1428665679911
30
0
41
1
10
208.902299478503
20
23.787703426082
30
0
41
1
10
212.012756264184
20
24.1149205718447
30
0
41
1
10
218.231460719946
20
24.5574919028223
30
0
41
1
10
221.342004957939
20
24.6719576107209
30
0
41
1
10
227.562661463427
20
24.6863471970404
30
0
41
1
10
230.673263969063
20
24.5866095472243
30
0
41
1
10
233.784040269141
20
24.3813689792498
30
0
0
SPLINE
5
32B
100
AcDbEntity
8
1
62
256
6
ByLayer
370
13
48
1
60
0
100
AcDbSpline
70
4
71
3
72
14
73
10
40
0
40
0
40
0
40
0
40
0.399960027449537
40
0.399960027449537
40
0.599940041174302
40
0.599940041174302
40
0.799920054899067
40
0.799920054899067
40
1
40
1
40
1
40
1
41
1
10
133.65988
20
26.0272599999607
30
0
41
1
10
131.937432702724
20
26.0399410543573
30
0
41
1
10
130.212259707738
20
26.0492311559655
30
0
41
1
10
127.620344396971
20
26.06079789303
30
0
41
1
10
126.755666496636
20
26.064246913506
30
0
41
1
10
125.02483849059
20
26.0706766223129
30
0
41
1
10
124.158948882747
20
26.0736579291747
30
0
41
1
10
122.426732307744
20
26.0794190221227
30
0
41
1
10
121.560267280739
20
26.0822086847489
30
0
41
1
10
120.693682866855
20
26.0849638288213
30
0
0
SPLINE
5
32C
100
AcDbEntity
8
1
62
256
6
ByLayer
370
13
48
1
60
0
100
AcDbSpline
70
4
71
3
72
10
73
6
40
0
40
0
40
0
40
0
40
0.574135264459755
40
0.574135264459755
40
1
40
1
40
1
40
1
41
1
10
238.395361571142
20
10.0514262274122
30
0
41
1
10
234.420730595632
20
10.1840985120773
30
0
41
1
10
230.449222406432
20
10.242621513777
30
0
41
1
10
223.532935675662
20
10.2169737408437
30
0
41
1
10
220.587867467802
20
10.1657649416237
30
0
41
1
10
217.642112921895
20
10.0753378850293
30
0
0
SPLINE
5
32D
100
AcDbEntity
8
1
62
256
6
ByLayer
370
13
48
1
60
0
100
AcDbSpline
70
4
71
3
72
46
73
42
40
0
40
0
40
0
40
0
40
0.103381917836158
40
0.181601673500202
40
0.265453428602277
40
0.355026880478314
40
0.450353237332294
40
0.5514007134171
40
0.560419394016682
40
0.569719657728821
40
0.579302189541065
40
0.58916765578158
40
0.599316702138265
40
0.60974995146014
40
0.620468001355719
40
0.631471421600819
40
0.642760751366312
40
0.654336496274988
40
0.666199125295682
40
0.678349067481993
40
0.690786708562544
40
0.70351238738934
40
0.716526392250739
40
0.729828957055534
40
0.743420257394846
40
0.757300406488766
40
0.771469451025097
40
0.785927366898007
40
0.800674054854932
40
0.815709336060744
40
0.831032947588868
40
0.846644537849806
40
0.862543661968356
40
0.878729777121739
40
0.895202237851737
40
0.91196029136498
40
0.929003072836603
40
0.946329600733526
40
0.963938772174836
40
0.981829358347884
40
1
40
1
40
1
40
1
41
1
10
41.9186821485215
20
-9.48876563475994
30
0
41
1
10
41.9956305217355
20
-9.6598230888267
30
0
41
1
10
42.1414240189797
20
-9.96551006288442
30
0
41
1
10
42.3800735814557
20
-10.4228406862978
30
0
41
1
10
42.6283687014286
20
-10.8628126060689
30
0
41
1
10
42.9178880862139
20
-11.3361116789712
30
0
41
1
10
43.251155662346
20
-11.8393302406737
30
0
41
1
10
43.5074102797969
20
-12.1973023805949
30
0
41
1
10
43.6604519418083
20
-12.402983220317
30
0
41
1
10
43.6963482012486
20
-12.4510026902934
30
0
41
1
10
43.7334849352627
20
-12.5003918951508
30
0
41
1
10
43.7718807161844
20
-12.5511373544822
30
0
41
1
10
43.811557946407
20
-12.6032198728683
30
0
41
1
10
43.8525372985929
20
-12.6566201703532
30
0
41
1
10
43.8948391364676
20
-12.7113172275218
30
0
41
1
10
43.9384829764331
20
-12.7672886693431
30
0
41
1
10
43.9834874913973
20
-12.8245105790391
30
0
41
1
10
44.0298703576964
20
-12.8829574713441
30
0
41
1
10
44.0776481403282
20
-12.9426022217693
30
0
41
1
10
44.1268361620945
20
-13.0034160088617
30
0
41
1
10
44.1774483718843
20
-13.0653682538514
30
0
41
1
10
44.2294972079552
20
-13.1284265623174
30
0
41
1
10
44.2829934574937
20
-13.1925566668832
30
0
41
1
10
44.3379461122564
20
-13.2577223715256
30
0
41
1
10
44.3943622205372
20
-13.3238854976568
30
0
41
1
10
44.4522467356182
20
-13.39100583227
30
0
41
1
10
44.5116023609219
20
-13.4590410784069
30
0
41
1
10
44.5724293921064
20
-13.527946808253
30
0
41
1
10
44.6347255563716
20
-13.597676419055
30
0
41
1
10
44.6984858493091
20
-13.6681810925185
30
0
41
1
10
44.7637023695455
20
-13.7394097565903
30
0
41
1
10
44.8303641519136
20
-13.811309055315
30
0
41
1
10
44.8984569982192
20
-13.8838233064136
30
0
41
1
10
44.9679633112296
20
-13.9568945262013
30
0
41
1
10
45.0388619125806
20
-14.0304622181219
30
0
41
1
10
45.1111279210207
20
-14.1044640903372
30
0
41
1
10
45.1847324009652
20
-14.1788332403253
30
0
41
1
10
45.259642894464
20
-14.2535088888662
30
0
41
1
10
45.3358205808323
20
-14.3283953064579
30
0
41
1
10
45.4132303419704
20
-14.4035188699107
30
0
41
1
10
45.465208890274
20
-14.4530747465168
30
0
41
1
10
45.4914
20
-14.478045113026
30
0
0
SPLINE
5
32E
100
AcDbEntity
8
1
62
256
6
ByLayer
370
13
48
1
60
0
100
AcDbSpline
70
4
71
3
72
24
73
20
40
0
40
0
40
0
40
0
40
0.025209203100256
40
0.025209203100256
40
0.0793642473724637
40
0.0793642473724637
40
0.133519291644671
40
0.133519291644671
40
0.350139468733503
40
0.350139468733503
40
0.566759645822335
40
0.566759645822335
40
0.620914690094543
40
0.620914690094543
40
0.675069734366751
40
0.675069734366751
40
0.783379822911167
40
0.783379822911167
40
1
40
1
40
1
40
1
41
1
10
28.3312357392115
20
-11.4075509980114
30
0
41
1
10
28.2062061646294
20
-11.4976678484638
30
0
41
1
10
28.081961222742
20
-11.5886844106429
30
0
41
1
10
27.6932883382246
20
-11.878063246447
30
0
41
1
10
27.431712451137
20
-12.0796920240344
30
0
41
1
10
26.9159714478704
20
-12.4914162292451
30
0
41
1
10
26.6614423801885
20
-12.7018421957188
30
0
41
1
10
25.4161964724114
20
-13.7682539387027
30
0
41
1
10
24.5025737111496
20
-14.6716908499241
30
0
41
1
10
22.8304757269903
20
-16.5737903875711
30
0
41
1
10
22.0717519415697
20
-17.5720570386076
30
0
41
1
10
21.2242947969832
20
-18.8807408716309
30
0
41
1
10
21.060037729523
20
-19.1453785739434
30
0
41
1
10
20.7440238060819
20
-19.6773575501872
30
0
41
1
10
20.5920093661257
20
-19.9451620875818
30
0
41
1
10
20.1534480397102
20
-20.754091725193
30
0
41
1
10
19.8842888110414
20
-21.3006140526414
30
0
41
1
10
19.1426349872266
20
-22.9605145012824
30
0
41
1
10
18.7353411353666
20
-24.0940471358357
30
0
41
1
10
18.4122430672415
20
-25.2529991779145
30
0
0
SPLINE
5
32F
100
AcDbEntity
8
1
62
256
6
ByLayer
370
13
48
1
60
0
100
AcDbSpline
70
4
71
3
72
36
73
32
40
0
40
0
40
0
40
0
40
0.106086735415718
40
0.106086735415718
40
0.212173470831437
40
0.212173470831437
40
0.318260206247155
40
0.318260206247155
40
0.371303573955015
40
0.371303573955015
40
0.424346941662874
40
0.424346941662874
40
0.530433677078592
40
0.530433677078592
40
0.63652041249431
40
0.63652041249431
40
0.689563780202172
40
0.689563780202172
40
0.716085464056103
40
0.716085464056103
40
0.742607147910034
40
0.742607147910034
40
0.848693883325763
40
0.848693883325763
40
0.901737251033629
40
0.901737251033629
40
0.928258934887565
40
0.928258934887565
40
0.9547806187415
40
0.9547806187415
40
1
40
1
40
1
40
1
41
1
10
238.182884438545
20
9.34084705591275
30
0
41
1
10
237.649537736174
20
9.47380372426738
30
0
41
1
10
237.110218619544
20
9.58382253693188
30
0
41
1
10
236.020742113938
20
9.7651129902693
30
0
41
1
10
235.47056878116
20
9.83631587250525
30
0
41
1
10
234.359230783221
20
9.94309725848603
30
0
41
1
10
233.798062212206
20
9.97864742964597
30
0
41
1
10
232.947260785324
20
10.0058040814354
30
0
41
1
10
232.662145288055
20
10.0104783945423
30
0
41
1
10
232.088663597435
20
10.0109824951372
30
0
41
1
10
231.800067349591
20
10.0067824806842
30
0
41
1
10
230.937129037139
20
9.98098069656754
30
0
41
1
10
230.363086861337
20
9.94626439339018
30
0
41
1
10
229.217301682495
20
9.84195866145882
30
0
41
1
10
228.645557860962
20
9.7723901489432
30
0
41
1
10
227.78958847571
20
9.64069229211171
30
0
41
1
10
227.504540540019
20
9.59222036904831
30
0
41
1
10
227.077381978716
20
9.51230806782905
30
0
41
1
10
226.934889691486
20
9.48442919076342
30
0
41
1
10
226.651856180157
20
9.42656837894586
30
0
41
1
10
226.511132441569
20
9.39655532205757
30
0
41
1
10
225.811580056677
20
9.24104454040318
30
0
41
1
10
225.264826574349
20
9.09940248340558
30
0
41
1
10
224.46724671989
20
8.85847203324306
30
0
41
1
10
224.205166845107
20
8.77338351568261
30
0
41
1
10
223.818448414481
20
8.63775264819017
30
0
41
1
10
223.690541233898
20
8.59116738164863
30
0
41
1
10
223.43945907349
20
8.49607145391028
30
0
41
1
10
223.315980619922
20
8.44745816116924
30
0
41
1
10
222.987787178248
20
8.31294066873474
30
0
41
1
10
222.787147072249
20
8.22492810767761
30
0
41
1
10
222.593373750058
20
8.13327207291505
30
0
0
SPLINE
5
330
100
AcDbEntity
8
1
62
256
6
ByLayer
370
13
48
1
60
0
100
AcDbSpline
70
4
71
3
72
14
73
10
40
0
40
0
40
0
40
0
40
0.0683573613029259
40
0.0683573613029259
40
0.534178680651463
40
0.534178680651463
40
0.767089340325731
40
0.767089340325731
40
1
40
1
40
1
40
1
41
1
10
213.543066228964
20
11.6313154175266
30
0
41
1
10
214.017191774213
20
11.4529819501295
30
0
41
1
10
214.491298579452
20
11.2734793255079
30
0
41
1
10
218.195840327047
20
9.86213594896327
30
0
41
1
10
221.427094148233
20
8.57960662706361
30
0
41
1
10
226.272995073221
20
6.60600549128392
30
0
41
1
10
227.888908953554
20
5.93946566975973
30
0
41
1
10
231.11954628332
20
4.59398372115356
30
0
41
1
10
232.73437061048
20
3.91500045642778
30
0
41
1
10
234.349408341987
20
3.23133090143423
30
0
0
SPLINE
5
331
100
AcDbEntity
8
1
62
256
6
ByLayer
370
13
48
1
60
0
100
AcDbSpline
70
4
71
3
72
34
73
30
40
0
40
0
40
0
40
0
40
0.0215529809880913
40
0.0215529809880913
40
0.0759111487109748
40
0.0759111487109748
40
0.103090232572417
40
0.103090232572417
40
0.130269316433858
40
0.130269316433858
40
0.238985651879626
40
0.238985651879626
40
0.293343819602509
40
0.293343819602509
40
0.320522903463951
40
0.320522903463951
40
0.347701987325392
40
0.347701987325392
40
0.402060155048276
40
0.402060155048276
40
0.45641832277116
40
0.45641832277116
40
0.565134658216928
40
0.565134658216928
40
0.673850993662696
40
0.673850993662696
40
0.782567329108464
40
0.782567329108464
40
1
40
1
40
1
40
1
41
1
10
152.972465039997
20
-13.4154273192442
30
0
41
1
10
152.210204192908
20
-13.4681472923534
30
0
41
1
10
151.447446934206
20
-13.5191476264216
30
0
41
1
10
148.759117098007
20
-13.6924121102418
30
0
41
1
10
146.830704617669
20
-13.8046193397221
30
0
41
1
10
143.932157205098
20
-13.9517329377151
30
0
41
1
10
142.964983059956
20
-13.9972273399406
30
0
41
1
10
141.028520541836
20
-14.0807378477078
30
0
41
1
10
140.059062773828
20
-14.1187899274675
30
0
41
1
10
135.21288318636
20
-14.2899685775415
30
0
41
1
10
131.33468427908
20
-14.3620687963578
30
0
41
1
10
125.515716972828
20
-14.4300822158019
30
0
41
1
10
123.575790670339
20
-14.4458911892053
30
0
41
1
10
120.665422681094
20
-14.4618062176499
30
0
41
1
10
119.695213358198
20
-14.4658246046095
30
0
41
1
10
117.754655584619
20
-14.4711439909974
30
0
41
1
10
116.784317706948
20
-14.4724775746062
30
0
41
1
10
113.873215389333
20
-14.4744945294339
30
0
41
1
10
111.932353917576
20
-14.4737985415524
30
0
41
1
10
108.0505488994
20
-14.4737360451659
30
0
41
1
10
106.109599298933
20
-14.4738492381687
30
0
41
1
10
100.286761904354
20
-14.4739952028426
30
0
41
1
10
96.4049100554855
20
-14.472666910639
30
0
41
1
10
88.6412876788807
20
-14.4718469653003
30
0
41
1
10
84.7595089291154
20
-14.4720299306031
30
0
41
1
10
76.995922741076
20
-14.4724882018201
30
0
41
1
10
73.1141136393744
20
-14.472926680719
30
0
41
1
10
61.4686566597312
20
-14.4733478043623
30
0
41
1
10
53.704981928168
20
-14.4725838879786
30
0
41
1
10
45.9414
20
-14.4728762189495
30
0
0
SPLINE
5
332
100
AcDbEntity
8
1
62
256
6
ByLayer
370
13
48
1
60
0
100
AcDbSpline
70
4
71
3
72
8
73
4
40
0
40
0
40
0
40
0
40
1
40
1
40
1
40
1
41
1
10
234.567614419594
20
3.11134670252295
30
0
41
1
10
228.034764657493
20
5.87804486396357
30
0
41
1
10
221.497567817123
20
8.57642292433303
30
0
41
1
10
214.961859092304
20
11.0649411540339
30
0
0
SPLINE
5
333
100
AcDbEntity
8
1
62
256
6
ByLayer
370
13
48
1
60
0
100
AcDbSpline
70
4
71
1
72
4
73
2
40
0
40
0
40
1
40
1
41
1
10
243.76373815845
20
15.9651927149298
30
0
41
1
10
243.83825030073
20
15.9712383498778
30
0
0
SPLINE
5
334
100
AcDbEntity
8
1
62
256
6
ByLayer
370
13
48
1
60
0
100
AcDbSpline
70
4
71
3
72
16
73
12
40
0
40
0
40
0
40
0
40
0.36231801680567
40
0.36231801680567
40
0.452897521007087
40
0.452897521007087
40
0.543477025208504
40
0.543477025208504
40
0.72463603361134
40
0.72463603361134
40
1
40
1
40
1
40
1
41
1
10
18.4122834735871
20
-21.3666130513988
30
0
41
1
10
18.7362256819244
20
-20.2572658586868
30
0
41
1
10
19.145692750733
20
-19.1652477253885
30
0
41
1
10
19.7702165231414
20
-17.8222738613172
30
0
41
1
10
19.900978823674
20
-17.5544622842247
30
0
41
1
10
20.1733818184514
20
-17.0227439380413
30
0
41
1
10
20.3148378068738
20
-16.759163457747
30
0
41
1
10
20.7551305332384
20
-15.9753043463028
30
0
41
1
10
21.0701115889031
20
-15.4619718708509
30
0
41
1
10
21.9167537802455
20
-14.192401063362
30
0
41
1
10
22.475185350271
20
-13.4480176821402
30
0
41
1
10
23.0809817686483
20
-12.7245690514277
30
0
0
SPLINE
5
335
100
AcDbEntity
8
1
62
256
6
ByLayer
370
13
48
1
60
0
100
AcDbSpline
70
4
71
2
72
6
73
3
40
0
40
0
40
0
40
1
40
1
40
1
41
1
10
214.953227048324
20
11.0682282201111
30
0
41
1
10
214.695869052015
20
11.1656224808746
30
0
41
1
10
214.434517627083
20
11.2725037908301
30
0
0
SPLINE
5
336
100
AcDbEntity
8
1
62
256
6
ByLayer
370
13
48
1
60
0
100
AcDbSpline
70
4
71
1
72
4
73
2
40
0
40
0
40
1
40
1
41
1
10
43.889643926368
20
26.3650875963453
30
0
41
1
10
43.5879167843997
20
26.3749347982233
30
0
0
SPLINE
5
337
100
AcDbEntity
8
1
62
256
6
ByLayer
370
13
48
1
60
0
100
AcDbSpline
70
4
71
1
72
4
73
2
40
0
40
0
40
1
40
1
41
1
10
264.541579123819
20
7.33966387874042
30
0
41
1
10
264.686254116804
20
7.46922839157867
30
0
0
SPLINE
5
338
100
AcDbEntity
8
1
62
256
6
ByLayer
370
13
48
1
60
0
100
AcDbSpline
70
4
71
1
72
4
73
2
40
0
40
0
40
1
40
1
41
1
10
245.641821905496
20
6.47115199167771
30
0
41
1
10
245.799247533153
20
6.35741990148745
30
0
0
SPLINE
5
339
100
AcDbEntity
8
1
62
256
6
ByLayer
370
13
48
1
60
0
100
AcDbSpline
70
4
71
3
72
12
73
8
40
0
40
0
40
0
40
0
40
0.280013865366657
40
0.560050428588642
40
0.706723378349569
40
0.853357131662409
40
1
40
1
40
1
40
1
41
1
10
17.0094000000001
20
-29.5000000000001
30
0
41
1
10
19.6744577813038
20
-29.2487767860355
30
0
41
1
10
24.9969077989296
20
-28.6835714291392
30
0
41
1
10
31.6995136710509
20
-27.8302719238864
30
0
41
1
10
37.1172503002877
20
-27.0175502926404
30
0
41
1
10
41.2846541192614
20
-26.4186769958564
30
0
41
1
10
44.0861419678489
20
-26.3144101367459
30
0
41
1
10
45.4914
20
-26.3128125000001
30
0
0
SPLINE
5
33A
100
AcDbEntity
8
1
62
256
6
ByLayer
370
13
48
1
60
0
100
AcDbSpline
70
4
71
3
72
14
73
10
40
0
40
0
40
0
40
0
40
0.0488007667805119
40
0.168788177579783
40
0.28872653976188
40
0.408697110038659
40
0.528675796184334
40
0.764350511656155
40
1
40
1
40
1
40
1
41
1
10
43.5879167843997
20
26.3749347982233
30
0
41
1
10
43.1521374686928
20
26.3809415672646
30
0
41
1
10
41.6469016085415
20
26.4276593778747
30
0
41
1
10
39.0812576608704
20
26.70387240058
30
0
41
1
10
35.9108147000422
20
27.2134094218477
30
0
41
1
10
32.7311441835987
20
27.6660278076205
30
0
41
1
10
28.5253626160235
20
28.2357721023317
30
0
41
1
10
23.2866688082327
20
28.8703692673771
30
0
41
1
10
19.103195195997
20
29.3026303617179
30
0
41
1
10
17.0094000000001
20
29.5
30
0
0
LINE
5
7F
100
AcDbEntity
8
1
62
256
6
ByLayer
370
18
48
1
60
0
100
AcDbLine
10
264.019739
20
-17.797559
30
0
11
264.006163
21
-17.801425
31
0
39
0
210
0
220
0
230
1
0
LINE
5
80
100
AcDbEntity
8
1
62
256
6
ByLayer
370
18
48
1
60
0
100
AcDbLine
10
264.112663
20
-18.750216
30
0
11
264.464645
21
-18.649991
31
0
39
0
210
0
220
0
230
1
0
LINE
5
81
100
AcDbEntity
8
1
62
256
6
ByLayer
370
18
48
1
60
0
100
AcDbLine
10
263.99916
20
0.13593
30
0
11
265.406519
21
-8.687774
31
0
39
0
210
0
220
0
230
1
0
LINE
5
82
100
AcDbEntity
8
1
62
256
6
ByLayer
370
18
48
1
60
0
100
AcDbLine
10
264.458411
20
-0.135367
30
0
11
264.357481
21
0.214159
31
0
39
0
210
0
220
0
230
1
0
LINE
5
83
100
AcDbEntity
8
1
62
256
6
ByLayer
370
18
48
1
60
0
100
AcDbLine
10
263.974125
20
0.244108
30
0
11
263.978018
21
0.230627
31
0
39
0
210
0
220
0
230
1
0
LINE
5
84
100
AcDbEntity
8
1
62
256
6
ByLayer
370
18
48
1
60
0
100
AcDbLine
10
265.409524
20
-8.91574
30
0
11
264.270272
21
-17.508831
31
0
39
0
210
0
220
0
230
1
0
LINE
5
85
100
AcDbEntity
8
1
62
256
6
ByLayer
370
13
48
1
60
0
100
AcDbLine
10
262.268814
20
25.558347
30
0
11
263.569574
21
17.321074
31
0
39
0
210
0
220
0
230
1
0
LINE
5
86
100
AcDbEntity
8
1
62
256
6
ByLayer
370
13
48
1
60
0
100
AcDbLine
10
246.514961
20
15.882029
30
0
11
247.819736
21
7.619336
31
0
39
0
210
0
220
0
230
1
0
LINE
5
87
100
AcDbEntity
8
1
62
256
6
ByLayer
370
13
48
1
60
0
100
AcDbLine
10
264.649905
20
7.45842
30
0
11
264.607974
21
7.906027
31
0
39
0
210
0
220
0
230
1
0
LINE
5
88
100
AcDbEntity
8
1
62
256
6
ByLayer
370
13
48
1
60
0
100
AcDbLine
10
247.202996
20
6.438208
30
0
11
247.198297
21
6.437962
31
0
39
0
210
0
220
0
230
1
0
LINE
5
89
100
AcDbEntity
8
1
62
256
6
ByLayer
370
13
48
1
60
0
100
AcDbLine
10
264.126742
20
7.825248
30
0
11
264.607974
21
7.906027
31
0
39
0
210
0
220
0
230
1
0
LINE
5
8A
100
AcDbEntity
8
1
62
256
6
ByLayer
370
13
48
1
60
0
100
AcDbLine
10
245.241957
20
25.33009
30
0
11
245.346238
21
24.157231
31
0
39
0
210
0
220
0
230
1
0
LINE
5
8B
100
AcDbEntity
8
1
62
256
6
ByLayer
370
13
48
1
60
0
100
AcDbLine
10
261.675485
20
8.680012
30
0
11
249.148596
21
8.023505
31
0
39
0
210
0
220
0
230
1
0
LINE
5
8C
100
AcDbEntity
8
1
62
256
6
ByLayer
370
13
48
1
60
0
100
AcDbLine
10
247.016464
20
6.277634
30
0
11
246.817681
21
6.268962
31
0
39
0
210
0
220
0
230
1
0
LINE
5
8D
100
AcDbEntity
8
1
62
256
6
ByLayer
370
13
48
1
60
0
100
AcDbLine
10
247.654132
20
7.620587
30
0
11
246.353372
21
15.85786
31
0
39
0
210
0
220
0
230
1
0
LINE
5
8E
100
AcDbEntity
8
1
62
256
6
ByLayer
370
13
48
1
60
0
100
AcDbLine
10
244.104727
20
16.06634
30
0
11
245.133217
21
23.926798
31
0
39
0
210
0
220
0
230
1
0
LINE
5
8F
100
AcDbEntity
8
1
62
256
6
ByLayer
370
13
48
1
60
0
100
AcDbLine
10
263.142857
20
26.911942
30
0
11
263.138158
21
26.911695
31
0
39
0
210
0
220
0
230
1
0
LINE
5
90
100
AcDbEntity
8
1
62
256
6
ByLayer
370
13
48
1
60
0
100
AcDbLine
10
243.933442
20
15.279344
30
0
11
243.846598
21
15.829298
31
0
39
0
210
0
220
0
230
1
0
LINE
5
91
100
AcDbEntity
8
1
62
256
6
ByLayer
370
13
48
1
60
0
100
AcDbLine
10
247.118622
20
6.23027
30
0
11
246.86195
21
6.170806
31
0
39
0
210
0
220
0
230
1
0
LINE
5
92
100
AcDbEntity
8
1
62
256
6
ByLayer
370
13
48
1
60
0
100
AcDbLine
10
247.800396
20
24.214193
30
0
11
246.733209
21
16.05798
31
0
39
0
210
0
220
0
230
1
0
LINE
5
93
100
AcDbEntity
8
1
62
256
6
ByLayer
370
13
48
1
60
0
100
AcDbLine
10
262.841915
20
26.950634
30
0
11
263.098587
21
27.010098
31
0
39
0
210
0
220
0
230
1
0
LINE
5
94
100
AcDbEntity
8
1
62
256
6
ByLayer
370
13
48
1
60
0
100
AcDbLine
10
263.13061
20
26.7611
30
0
11
262.931827
21
26.752428
31
0
39
0
210
0
220
0
230
1
0
LINE
5
95
100
AcDbEntity
8
1
62
256
6
ByLayer
370
13
48
1
60
0
100
AcDbLine
10
262.805001
20
26.9487
30
0
11
262.841915
21
26.950634
31
0
39
0
210
0
220
0
230
1
0
LINE
5
96
100
AcDbEntity
8
1
62
256
6
ByLayer
370
13
48
1
60
0
100
AcDbLine
10
247.824435
20
7.619582
30
0
11
247.776013
21
7.926218
31
0
39
0
210
0
220
0
230
1
0
LINE
5
97
100
AcDbEntity
8
1
62
256
6
ByLayer
370
13
48
1
60
0
100
AcDbLine
10
244.203436
20
16.053265
30
0
11
245.233973
21
23.92937
31
0
39
0
210
0
220
0
230
1
0
LINE
5
98
100
AcDbEntity
8
1
62
256
6
ByLayer
370
13
48
1
60
0
100
AcDbLine
10
243.933442
20
15.279344
30
0
11
245.497304
21
6.841883
31
0
39
0
210
0
220
0
230
1
0
LINE
5
99
100
AcDbEntity
8
1
62
256
6
ByLayer
370
13
48
1
60
0
100
AcDbLine
10
246.51966
20
15.882276
30
0
11
246.514961
21
15.882029
31
0
39
0
210
0
220
0
230
1
0
LINE
5
9A
100
AcDbEntity
8
1
62
256
6
ByLayer
370
13
48
1
60
0
100
AcDbLine
10
247.824435
20
7.619582
30
0
11
247.819736
21
7.619336
31
0
39
0
210
0
220
0
230
1
0
LINE
5
9B
100
AcDbEntity
8
1
62
256
6
ByLayer
370
13
48
1
60
0
100
AcDbLine
10
264.598485
20
9.122954
30
0
11
262.478646
21
8.767122
31
0
39
0
210
0
220
0
230
1
0
LINE
5
9C
100
AcDbEntity
8
1
62
256
6
ByLayer
370
13
48
1
60
0
100
AcDbLine
10
265.752403
20
17.127393
30
0
11
264.721866
21
9.251287
31
0
39
0
210
0
220
0
230
1
0
LINE
5
9D
100
AcDbEntity
8
1
62
256
6
ByLayer
370
13
48
1
60
0
100
AcDbLine
10
262.485062
20
26.75315
30
0
11
262.65991
21
26.762313
31
0
39
0
210
0
220
0
230
1
0
LINE
5
9E
100
AcDbEntity
8
1
62
256
6
ByLayer
370
13
48
1
60
0
100
AcDbLine
10
243.856909
20
16.73967
30
0
11
243.828027
21
16.183651
31
0
39
0
210
0
220
0
230
1
0
LINE
5
9F
100
AcDbEntity
8
1
62
256
6
ByLayer
370
13
48
1
60
0
100
AcDbLine
10
245.357354
20
24.057704
30
0
11
247.477193
21
24.413536
31
0
39
0
210
0
220
0
230
1
0
LINE
5
A0
100
AcDbEntity
8
1
62
256
6
ByLayer
370
13
48
1
60
0
100
AcDbLine
10
265.754437
20
17.32851
30
0
11
265.749738
21
17.328264
31
0
39
0
210
0
220
0
230
1
0
LINE
5
A1
100
AcDbEntity
8
1
62
256
6
ByLayer
370
13
48
1
60
0
100
AcDbLine
10
264.126742
20
7.825248
30
0
11
264.011752
21
7.311365
31
0
39
0
210
0
220
0
230
1
0
LINE
5
A2
100
AcDbEntity
8
1
62
256
6
ByLayer
370
13
48
1
60
0
100
AcDbLine
10
265.588149
20
17.304094
30
0
11
264.167891
21
26.298105
31
0
39
0
210
0
220
0
230
1
0
LINE
5
A3
100
AcDbEntity
8
1
62
256
6
ByLayer
370
13
48
1
60
0
100
AcDbLine
10
245.36142
20
26.052283
30
0
11
245.47661
21
26.040557
31
0
39
0
210
0
220
0
230
1
0
LINE
5
A4
100
AcDbEntity
8
1
62
256
6
ByLayer
370
13
48
1
60
0
100
AcDbLine
10
264.079521
20
7.817322
30
0
11
264.171291
21
8.024336
31
0
39
0
210
0
220
0
230
1
0
LINE
5
A5
100
AcDbEntity
8
1
62
256
6
ByLayer
370
13
48
1
60
0
100
AcDbLine
10
247.584182
20
24.239359
30
0
11
247.592356
21
24.301829
31
0
39
0
210
0
220
0
230
1
0
LINE
5
A6
100
AcDbEntity
8
1
62
256
6
ByLayer
370
13
48
1
60
0
100
AcDbLine
10
247.776013
20
7.926218
30
0
11
246.51966
21
15.882276
31
0
39
0
210
0
220
0
230
1
0
LINE
5
A7
100
AcDbEntity
8
1
62
256
6
ByLayer
370
13
48
1
60
0
100
AcDbLine
10
245.626358
20
6.858383
30
0
11
244.206101
21
15.852394
31
0
39
0
210
0
220
0
230
1
0
LINE
5
A8
100
AcDbEntity
8
1
62
256
6
ByLayer
370
13
48
1
60
0
100
AcDbLine
10
246.735112
20
15.914501
30
0
11
247.991465
21
7.958443
31
0
39
0
210
0
220
0
230
1
0
LINE
5
A9
100
AcDbEntity
8
1
62
256
6
ByLayer
370
13
48
1
60
0
100
AcDbLine
10
246.350136
20
16.101774
30
0
11
247.416732
21
24.253467
31
0
39
0
210
0
220
0
230
1
0
LINE
5
AA
100
AcDbEntity
8
1
62
256
6
ByLayer
370
13
48
1
60
0
100
AcDbLine
10
265.85581
20
17.114564
30
0
11
264.827321
21
9.254106
31
0
39
0
210
0
220
0
230
1
0
LINE
5
AB
100
AcDbEntity
8
1
62
256
6
ByLayer
370
13
48
1
60
0
100
AcDbLine
10
262.506214
20
8.925467
30
0
11
264.559706
21
9.270162
31
0
39
0
210
0
220
0
230
1
0
LINE
5
AC
100
AcDbEntity
8
1
62
256
6
ByLayer
370
13
48
1
60
0
100
AcDbLine
10
248.285052
20
24.500892
30
0
11
260.811942
21
25.157399
31
0
39
0
210
0
220
0
230
1
0
LINE
5
AD
100
AcDbEntity
8
1
62
256
6
ByLayer
370
13
48
1
60
0
100
AcDbLine
10
262.944074
20
26.90327
30
0
11
262.939375
21
26.903024
31
0
39
0
210
0
220
0
230
1
0
LINE
5
AE
100
AcDbEntity
8
1
62
256
6
ByLayer
370
13
48
1
60
0
100
AcDbLine
10
247.587657
20
24.301583
30
0
11
246.512296
21
16.0829
31
0
39
0
210
0
220
0
230
1
0
LINE
5
AF
100
AcDbEntity
8
1
62
256
6
ByLayer
370
13
48
1
60
0
100
AcDbLine
10
246.516995
20
16.083146
30
0
11
246.512296
21
16.0829
31
0
39
0
210
0
220
0
230
1
0
LINE
5
B0
100
AcDbEntity
8
1
62
256
6
ByLayer
370
13
48
1
60
0
100
AcDbLine
10
264.079521
20
7.817322
30
0
11
264.126742
21
7.825248
31
0
39
0
210
0
220
0
230
1
0
LINE
5
B1
100
AcDbEntity
8
1
62
256
6
ByLayer
370
13
48
1
60
0
100
AcDbLine
10
263.172823
20
26.91301
30
0
11
263.168124
21
26.912764
31
0
39
0
210
0
220
0
230
1
0
LINE
5
B2
100
AcDbEntity
8
1
62
256
6
ByLayer
370
13
48
1
60
0
100
AcDbLine
10
262.197734
20
8.968681
30
0
11
263.264921
21
17.124894
31
0
39
0
210
0
220
0
230
1
0
LINE
5
B3
100
AcDbEntity
8
1
62
256
6
ByLayer
370
13
48
1
60
0
100
AcDbLine
10
264.171291
20
8.024336
30
0
11
264.614299
21
9.023673
31
0
39
0
210
0
220
0
230
1
0
LINE
5
B4
100
AcDbEntity
8
1
62
256
6
ByLayer
370
13
48
1
60
0
100
AcDbLine
10
265.852765
20
17.34413
30
0
11
264.432507
21
26.338141
31
0
39
0
210
0
220
0
230
1
0
LINE
5
B5
100
AcDbEntity
8
1
62
256
6
ByLayer
370
13
48
1
60
0
100
AcDbLine
10
264.386348
20
8.985409
30
0
11
264.614299
21
9.023673
31
0
39
0
210
0
220
0
230
1
0
LINE
5
B6
100
AcDbEntity
8
1
62
256
6
ByLayer
370
13
48
1
60
0
100
AcDbLine
10
264.334179
20
26.322521
30
0
11
264.32948
21
26.322275
31
0
39
0
210
0
220
0
230
1
0
LINE
5
B7
100
AcDbEntity
8
1
62
256
6
ByLayer
370
13
48
1
60
0
100
AcDbLine
10
264.559706
20
9.270162
30
0
11
265.590243
21
17.146267
31
0
39
0
210
0
220
0
230
1
0
LINE
5
B8
100
AcDbEntity
8
1
62
256
6
ByLayer
370
13
48
1
60
0
100
AcDbLine
10
264.726565
20
9.251534
30
0
11
264.721866
21
9.251287
31
0
39
0
210
0
220
0
230
1
0
LINE
5
B9
100
AcDbEntity
8
1
62
256
6
ByLayer
370
13
48
1
60
0
100
AcDbLine
10
262.944074
20
26.90327
30
0
11
263.142857
21
26.911942
31
0
39
0
210
0
220
0
230
1
0
LINE
5
BA
100
AcDbEntity
8
1
62
256
6
ByLayer
370
13
48
1
60
0
100
AcDbLine
10
265.757102
20
17.127639
30
0
11
265.752403
21
17.127393
31
0
39
0
210
0
220
0
230
1
0
LINE
5
BB
100
AcDbEntity
8
1
62
256
6
ByLayer
370
13
48
1
60
0
100
AcDbLine
10
247.712417
20
24.554414
30
0
11
245.346238
21
24.157231
31
0
39
0
210
0
220
0
230
1
0
LINE
5
BC
100
AcDbEntity
8
1
62
256
6
ByLayer
370
13
48
1
60
0
100
AcDbLine
10
245.869084
20
25.832717
30
0
11
245.551595
21
25.83182
31
0
39
0
210
0
220
0
230
1
0
LINE
5
BD
100
AcDbEntity
8
1
62
256
6
ByLayer
370
13
48
1
60
0
100
AcDbLine
10
263.572809
20
17.077159
30
0
11
262.506214
21
8.925467
31
0
39
0
210
0
220
0
230
1
0
LINE
5
BE
100
AcDbEntity
8
1
62
256
6
ByLayer
370
13
48
1
60
0
100
AcDbLine
10
264.603184
20
9.1232
30
0
11
264.598485
21
9.122954
31
0
39
0
210
0
220
0
230
1
0
LINE
5
BF
100
AcDbEntity
8
1
62
256
6
ByLayer
370
13
48
1
60
0
100
AcDbLine
10
247.795523
20
7.532247
30
0
11
247.790824
21
7.532001
31
0
39
0
210
0
220
0
230
1
0
LINE
5
C0
100
AcDbEntity
8
1
62
256
6
ByLayer
370
13
48
1
60
0
100
AcDbLine
10
264.32948
20
26.322275
30
0
11
265.749738
21
17.328264
31
0
39
0
210
0
220
0
230
1
0
LINE
5
C1
100
AcDbEntity
8
1
62
256
6
ByLayer
370
13
48
1
60
0
100
AcDbLine
10
247.416732
20
24.253467
30
0
11
245.36324
21
23.908772
31
0
39
0
210
0
220
0
230
1
0
LINE
5
C2
100
AcDbEntity
8
1
62
256
6
ByLayer
370
13
48
1
60
0
100
AcDbLine
10
246.516995
20
16.083146
30
0
11
247.584182
21
24.239359
31
0
39
0
210
0
220
0
230
1
0
LINE
5
C3
100
AcDbEntity
8
1
62
256
6
ByLayer
370
13
48
1
60
0
100
AcDbLine
10
264.386348
20
8.985409
30
0
11
264.171291
21
8.024336
31
0
39
0
210
0
220
0
230
1
0
LINE
5
C4
100
AcDbEntity
8
1
62
256
6
ByLayer
370
13
48
1
60
0
100
AcDbLine
10
264.603184
20
9.1232
30
0
11
262.483345
21
8.767368
31
0
39
0
210
0
220
0
230
1
0
LINE
5
C5
100
AcDbEntity
8
1
62
256
6
ByLayer
370
13
48
1
60
0
100
AcDbLine
10
262.483345
20
8.767368
30
0
11
262.478646
21
8.767122
31
0
39
0
210
0
220
0
230
1
0
LINE
5
C6
100
AcDbEntity
8
1
62
256
6
ByLayer
370
13
48
1
60
0
100
AcDbLine
10
264.334179
20
26.322521
30
0
11
265.754437
21
17.32851
31
0
39
0
210
0
220
0
230
1
0
LINE
5
C7
100
AcDbEntity
8
1
62
256
6
ByLayer
370
13
48
1
60
0
100
AcDbLine
10
263.263017
20
17.268373
30
0
11
262.006664
21
25.224431
31
0
39
0
210
0
220
0
230
1
0
LINE
5
C8
100
AcDbEntity
8
1
62
256
6
ByLayer
370
13
48
1
60
0
100
AcDbLine
10
263.665079
20
26.912895
30
0
11
263.66038
21
26.912649
31
0
39
0
210
0
220
0
230
1
0
LINE
5
C9
100
AcDbEntity
8
1
62
256
6
ByLayer
370
13
48
1
60
0
100
AcDbLine
10
265.757102
20
17.127639
30
0
11
264.726565
21
9.251534
31
0
39
0
210
0
220
0
230
1
0
LINE
5
CA
100
AcDbEntity
8
1
62
256
6
ByLayer
370
13
48
1
60
0
100
AcDbLine
10
244.107772
20
15.836774
30
0
11
245.52803
21
6.842763
31
0
39
0
210
0
220
0
230
1
0
LINE
5
CB
100
AcDbEntity
8
1
62
256
6
ByLayer
370
13
48
1
60
0
100
AcDbLine
10
247.592356
20
24.301829
30
0
11
247.587657
21
24.301583
31
0
39
0
210
0
220
0
230
1
0
LINE
5
CC
100
AcDbEntity
8
1
62
256
6
ByLayer
370
13
48
1
60
0
100
AcDbLine
10
244.334797
20
15.87484
30
0
11
245.755055
21
6.880829
31
0
39
0
210
0
220
0
230
1
0
LINE
5
CD
100
AcDbEntity
8
1
62
256
6
ByLayer
370
13
48
1
60
0
100
AcDbLine
10
245.36324
20
23.908772
30
0
11
244.332703
21
16.032667
31
0
39
0
210
0
220
0
230
1
0
LINE
5
CE
100
AcDbEntity
8
1
62
256
6
ByLayer
370
13
48
1
60
0
100
AcDbLine
10
262.24812
20
8.62649
30
0
11
264.386348
21
8.985409
31
0
39
0
210
0
220
0
230
1
0
LINE
5
CF
100
AcDbEntity
8
1
62
256
6
ByLayer
370
13
48
1
60
0
100
AcDbLine
10
246.792336
20
6.417834
30
0
11
246.991119
21
6.426506
31
0
39
0
210
0
220
0
230
1
0
LINE
5
D0
100
AcDbEntity
8
1
62
256
6
ByLayer
370
13
48
1
60
0
100
AcDbLine
10
262.918335
20
26.972402
30
0
11
262.805001
21
26.9487
31
0
39
0
210
0
220
0
230
1
0
LINE
5
D1
100
AcDbEntity
8
1
62
256
6
ByLayer
370
13
48
1
60
0
100
AcDbLine
10
263.668333
20
-0.141972
30
0
11
261.791915
21
1.94738
31
0
39
0
210
0
220
0
230
1
0
LINE
5
D2
100
AcDbEntity
8
1
62
256
6
ByLayer
370
13
48
1
60
0
100
AcDbLine
10
264.085258
20
0.615239
30
0
11
264.093066
21
0.605467
31
0
39
0
210
0
220
0
230
1
0
LINE
5
D3
100
AcDbEntity
8
1
62
256
6
ByLayer
370
13
48
1
60
0
100
AcDbLine
10
5.5
20
-31.268533
30
0
11
5.5
21
-29.748313
31
0
39
0
210
0
220
0
230
1
0
LINE
5
D4
100
AcDbEntity
8
1
62
256
6
ByLayer
370
13
48
1
60
0
100
AcDbLine
10
264.928164
20
-9.600726
30
0
11
262.862715
21
-7.300892
31
0
39
0
210
0
220
0
230
1
0
LINE
5
D5
100
AcDbEntity
8
1
62
256
6
ByLayer
370
13
48
1
60
0
100
AcDbLine
10
264.250856
20
-18.985412
30
0
11
263.800552
21
-18.560897
31
0
39
0
210
0
220
0
230
1
0
LINE
5
D6
100
AcDbEntity
8
1
62
256
6
ByLayer
370
13
48
1
60
0
100
AcDbLine
10
0
20
-29.748313
30
0
11
5.5
21
-29.748313
31
0
39
0
210
0
220
0
230
1
0
LINE
5
D7
100
AcDbEntity
8
1
62
256
6
ByLayer
370
13
48
1
60
0
100
AcDbLine
10
240.910106
20
12.127202
30
0
11
241.90855
21
12.682742
31
0
39
0
210
0
220
0
230
1
0
LINE
5
D8
100
AcDbEntity
8
1
62
256
6
ByLayer
370
13
48
1
60
0
100
AcDbLine
10
253.117369
20
6.529167
30
0
11
254.027178
21
6.576848
31
0
39
0
210
0
220
0
230
1
0
LINE
5
D9
100
AcDbEntity
8
1
62
256
6
ByLayer
370
13
48
1
60
0
100
AcDbLine
10
258.465586
20
8.511788
30
0
11
261.448452
21
8.668113
31
0
39
0
210
0
220
0
230
1
0
LINE
5
DA
100
AcDbEntity
8
1
62
256
6
ByLayer
370
13
48
1
60
0
100
AcDbLine
10
241.90855
20
12.682742
30
0
11
240.457478
21
14.917631
31
0
39
0
210
0
220
0
230
1
0
LINE
5
DB
100
AcDbEntity
8
1
62
256
6
ByLayer
370
13
48
1
60
0
100
AcDbLine
10
0
20
-26.761335
30
0
11
0
21
-4.071
31
0
39
0
210
0
220
0
230
1
0
LINE
5
DC
100
AcDbEntity
8
1
62
256
6
ByLayer
370
13
48
1
60
0
100
AcDbLine
10
245.122737
20
24.020515
30
0
11
244.411143
21
18.581999
31
0
39
0
210
0
220
0
230
1
0
LINE
5
DD
100
AcDbEntity
8
1
62
256
6
ByLayer
370
13
48
1
60
0
100
AcDbLine
10
239.451769
20
-25.873926
30
0
11
239.451769
21
-0.001195
31
0
39
0
210
0
220
0
230
1
0
LINE
5
DE
100
AcDbEntity
8
1
62
256
6
ByLayer
370
13
48
1
60
0
100
AcDbLine
10
133.65988
20
-10.460745
30
0
11
133.65988
21
26.02726
31
0
39
0
210
0
220
0
230
1
0
LINE
5
DF
100
AcDbEntity
8
1
62
256
6
ByLayer
370
13
48
1
60
0
100
AcDbLine
10
242.451769
20
-26.14192
30
0
11
242.451769
21
-0.390248
31
0
39
0
210
0
220
0
230
1
0
LINE
5
E0
100
AcDbEntity
8
1
62
256
6
ByLayer
370
13
48
1
60
0
100
AcDbLine
10
264.185006
20
1.107226
30
0
11
264.518306
21
0.690099
31
0
39
0
210
0
220
0
230
1
0
LINE
5
E1
100
AcDbEntity
8
1
62
256
6
ByLayer
370
13
48
1
60
0
100
AcDbLine
10
241.363262
20
8.563705
30
0
11
240.097924
21
8.423011
31
0
39
0
210
0
220
0
230
1
0
LINE
5
E2
100
AcDbEntity
8
1
62
256
6
ByLayer
370
13
48
1
60
0
100
AcDbLine
10
240.927335
20
1.662173
30
0
11
241.329593
21
-0.319598
31
0
39
0
210
0
220
0
230
1
0
LINE
5
E3
100
AcDbEntity
8
1
62
256
6
ByLayer
370
13
48
1
60
0
100
AcDbLine
10
264.303159
20
7.058381
30
0
11
264.508615
21
6.66626
31
0
39
0
210
0
220
0
230
1
0
LINE
5
E4
100
AcDbEntity
8
1
62
256
6
ByLayer
370
13
48
1
60
0
100
AcDbLine
10
262.455155
20
7.018539
30
0
11
263.714234
21
7.084525
31
0
39
0
210
0
220
0
230
1
0
LINE
5
E5
100
AcDbEntity
8
1
62
256
6
ByLayer
370
13
48
1
60
0
100
AcDbLine
10
239.451769
20
-25.873926
30
0
11
224.472469
21
-25.873926
31
0
39
0
210
0
220
0
230
1
0
LINE
5
E6
100
AcDbEntity
8
1
62
256
6
ByLayer
370
13
48
1
60
0
100
AcDbLine
10
245.124821
20
24.879825
30
0
11
245.057274
21
26.1687
31
0
39
0
210
0
220
0
230
1
0
LINE
5
E7
100
AcDbEntity
8
1
62
256
6
ByLayer
370
13
48
1
60
0
100
AcDbLine
10
240.457478
20
12.117439
30
0
11
240.457478
21
14.917631
31
0
39
0
210
0
220
0
230
1
0
LINE
5
E8
100
AcDbEntity
8
1
62
256
6
ByLayer
370
13
48
1
60
0
100
AcDbLine
10
264.268805
20
6.328358
30
0
11
264.219696
21
7.1611
31
0
39
0
210
0
220
0
230
1
0
LINE
5
E9
100
AcDbEntity
8
1
62
256
6
ByLayer
370
13
48
1
60
0
100
AcDbLine
10
0
20
-30.832335
30
0
11
0
21
-29.748313
31
0
39
0
210
0
220
0
230
1
0
LINE
5
EA
100
AcDbEntity
8
1
62
256
6
ByLayer
370
13
48
1
60
0
100
AcDbLine
10
248.254232
20
7.746247
30
0
11
248.418827
21
7.754873
31
0
39
0
210
0
220
0
230
1
0
LINE
5
EB
100
AcDbEntity
8
1
62
256
6
ByLayer
370
13
48
1
60
0
100
AcDbLine
10
263.668333
20
-0.141972
30
0
11
264.905744
21
-7.900152
31
0
39
0
210
0
220
0
230
1
0
LINE
5
EC
100
AcDbEntity
8
1
62
256
6
ByLayer
370
13
48
1
60
0
100
AcDbLine
10
45.4914
20
26.312812
30
0
11
45.4914
21
-9.40224
31
0
39
0
210
0
220
0
230
1
0
LINE
5
ED
100
AcDbEntity
8
1
62
256
6
ByLayer
370
13
48
1
60
0
100
AcDbLine
10
244.499561
20
11.305505
30
0
11
243.747723
21
16.06664
31
0
39
0
210
0
220
0
230
1
0
LINE
5
EE
100
AcDbEntity
8
1
62
256
6
ByLayer
370
13
48
1
60
0
100
AcDbLine
10
258.306039
20
8.47561
30
0
11
258.079582
21
8.463742
31
0
39
0
210
0
220
0
230
1
0
LINE
5
EF
100
AcDbEntity
8
1
62
256
6
ByLayer
370
13
48
1
60
0
100
AcDbLine
10
262.771637
20
-5.523869
30
0
11
264.905744
21
-7.900152
31
0
39
0
210
0
220
0
230
1
0
LINE
5
F0
100
AcDbEntity
8
1
62
256
6
ByLayer
370
13
48
1
60
0
100
AcDbLine
10
244.267852
20
18.330246
30
0
11
245.124821
21
24.879825
31
0
39
0
210
0
220
0
230
1
0
LINE
5
F1
100
AcDbEntity
8
1
62
256
6
ByLayer
370
13
48
1
60
0
100
AcDbLine
10
261.833686
20
2.694652
30
0
11
263.597707
21
0.730451
31
0
39
0
210
0
220
0
230
1
0
LINE
5
F2
100
AcDbEntity
8
1
62
256
6
ByLayer
370
13
48
1
60
0
100
AcDbLine
10
236.732629
20
2.228638
30
0
11
236.995746
21
0.932361
31
0
39
0
210
0
220
0
230
1
0
LINE
5
F3
100
AcDbEntity
8
1
62
256
6
ByLayer
370
13
48
1
60
0
100
AcDbLine
10
5.5
20
-4.071
30
0
11
5.5
21
4.071
31
0
39
0
210
0
220
0
230
1
0
LINE
5
F4
100
AcDbEntity
8
1
62
256
6
ByLayer
370
13
48
1
60
0
100
AcDbLine
10
249.66556
20
7.850324
30
0
11
249.674958
21
7.850816
31
0
39
0
210
0
220
0
230
1
0
LINE
5
F5
100
AcDbEntity
8
1
62
256
6
ByLayer
370
13
48
1
60
0
100
AcDbLine
10
261.903588
20
8.491691
30
0
11
249.674958
21
7.850816
31
0
39
0
210
0
220
0
230
1
0
LINE
5
F6
100
AcDbEntity
8
1
62
256
6
ByLayer
370
13
48
1
60
0
100
AcDbLine
10
255.919826
20
6.676037
30
0
11
262.455155
21
7.018539
31
0
39
0
210
0
220
0
230
1
0
LINE
5
F7
100
AcDbEntity
8
1
62
256
6
ByLayer
370
13
48
1
60
0
100
AcDbLine
10
6
20
-31.067508
30
0
11
6
21
-27.496508
31
0
39
0
210
0
220
0
230
1
0
LINE
5
F8
100
AcDbEntity
8
1
62
256
6
ByLayer
370
13
48
1
60
0
100
AcDbLine
10
261.791915
20
1.94738
30
0
11
261.873496
21
-0.525011
31
0
39
0
210
0
220
0
230
1
0
LINE
5
F9
100
AcDbEntity
8
1
62
256
6
ByLayer
370
13
48
1
60
0
100
AcDbLine
10
50.4914
20
26.312812
30
0
11
50.4914
21
-9.404467
31
0
39
0
210
0
220
0
230
1
0
LINE
5
FA
100
AcDbEntity
8
1
62
256
6
ByLayer
370
13
48
1
60
0
100
AcDbLine
10
0.5
20
-27.197533
30
0
11
5.5
21
-27.197533
31
0
39
0
210
0
220
0
230
1
0
LINE
5
FB
100
AcDbEntity
8
1
62
256
6
ByLayer
370
13
48
1
60
0
100
AcDbLine
10
6
20
-3.571
30
0
11
6
21
3.571
31
0
39
0
210
0
220
0
230
1
0
LINE
5
FC
100
AcDbEntity
8
1
62
256
6
ByLayer
370
13
48
1
60
0
100
AcDbLine
10
249.627245
20
7.760696
30
0
11
249.313257
21
7.74424
31
0
39
0
210
0
220
0
230
1
0
LINE
5
FD
100
AcDbEntity
8
1
62
256
6
ByLayer
370
13
48
1
60
0
100
AcDbLine
10
239.801383
20
7.781776
30
0
11
243.719142
21
6.577859
31
0
39
0
210
0
220
0
230
1
0
LINE
5
FE
100
AcDbEntity
8
1
62
256
6
ByLayer
370
13
48
1
60
0
100
AcDbLine
10
263.302062
20
-26.14192
30
0
11
264.250856
21
-18.985412
31
0
39
0
210
0
220
0
230
1
0
LINE
5
FF
100
AcDbEntity
8
1
62
256
6
ByLayer
370
13
48
1
60
0
100
AcDbLine
10
264.928164
20
-9.600726
30
0
11
263.815011
21
-17.996955
31
0
39
0
210
0
220
0
230
1
0
LINE
5
100
100
AcDbEntity
8
1
62
256
6
ByLayer
370
13
48
1
60
0
100
AcDbLine
10
5.5
20
-31.268533
30
0
11
0.5
21
-31.268533
31
0
39
0
210
0
220
0
230
1
0
LINE
5
101
100
AcDbEntity
8
1
62
256
6
ByLayer
370
13
48
1
60
0
100
AcDbLine
10
252.971054
20
7.522871
30
0
11
262.320341
21
8.012846
31
0
39
0
210
0
220
0
230
1
0
LINE
5
102
100
AcDbEntity
8
1
62
256
6
ByLayer
370
13
48
1
60
0
100
AcDbLine
10
264.508615
20
6.66626
30
0
11
264.518306
21
0.690099
31
0
39
0
210
0
220
0
230
1
0
LINE
5
103
100
AcDbEntity
8
1
62
256
6
ByLayer
370
13
48
1
60
0
100
AcDbLine
10
0.5
20
-27.197533
30
0
11
0.5
21
-4.071
31
0
39
0
210
0
220
0
230
1
0
LINE
5
104
100
AcDbEntity
8
1
62
256
6
ByLayer
370
13
48
1
60
0
100
AcDbLine
10
262.455155
20
7.018539
30
0
11
261.833686
21
2.694652
31
0
39
0
210
0
220
0
230
1
0
LINE
5
105
100
AcDbEntity
8
1
62
256
6
ByLayer
370
13
48
1
60
0
100
AcDbLine
10
250.014907
20
8.068907
30
0
11
252.997772
21
8.225232
31
0
39
0
210
0
220
0
230
1
0
LINE
5
106
100
AcDbEntity
8
1
62
256
6
ByLayer
370
13
48
1
60
0
100
AcDbLine
10
0.5
20
4.071
30
0
11
5.5
21
4.071
31
0
39
0
210
0
220
0
230
1
0
LINE
5
107
100
AcDbEntity
8
1
62
256
6
ByLayer
370
13
48
1
60
0
100
AcDbLine
10
5.5
20
-4.071
30
0
11
0.5
21
-4.071
31
0
39
0
210
0
220
0
230
1
0
LINE
5
108
100
AcDbEntity
8
1
62
256
6
ByLayer
370
13
48
1
60
0
100
AcDbLine
10
264.508615
20
6.66626
30
0
11
264.342116
21
6.032954
31
0
39
0
210
0
220
0
230
1
0
LINE
5
109
100
AcDbEntity
8
1
62
256
6
ByLayer
370
13
48
1
60
0
100
AcDbLine
10
250.035776
20
5.865842
30
0
11
250.659469
21
5.898528
31
0
39
0
210
0
220
0
230
1
0
LINE
5
10A
100
AcDbEntity
8
1
62
256
6
ByLayer
370
13
48
1
60
0
100
AcDbLine
10
263.302062
20
-26.14192
30
0
11
242.451769
21
-26.14192
31
0
39
0
210
0
220
0
230
1
0
LINE
5
10B
100
AcDbEntity
8
1
62
256
6
ByLayer
370
13
48
1
60
0
100
AcDbLine
10
0
20
-4.071
30
0
11
0
21
4.071
31
0
39
0
210
0
220
0
230
1
0
LINE
5
10C
100
AcDbEntity
8
1
62
256
6
ByLayer
370
18
48
1
60
0
100
AcDbLine
10
254.49174
20
17.995118
30
0
11
254.354519
21
17.987927
31
0
39
0
210
0
220
0
230
1
0
LINE
5
10D
100
AcDbEntity
8
1
62
256
6
ByLayer
370
18
48
1
60
0
100
AcDbLine
10
256.222056
20
17.042624
30
0
11
256.202149
21
17.04202
31
0
39
0
210
0
220
0
230
1
0
LINE
5
10E
100
AcDbEntity
8
1
62
256
6
ByLayer
370
18
48
1
60
0
100
AcDbLine
10
254.494598
20
15.117606
30
0
11
254.504023
21
15.135224
31
0
39
0
210
0
220
0
230
1
0
LINE
5
10F
100
AcDbEntity
8
1
62
256
6
ByLayer
370
18
48
1
60
0
100
AcDbLine
10
256.03855
20
15.603178
30
0
11
255.901329
21
15.595986
31
0
39
0
210
0
220
0
230
1
0
LINE
5
110
100
AcDbEntity
8
1
62
256
6
ByLayer
370
18
48
1
60
0
100
AcDbLine
10
255.929554
20
17.682938
30
0
11
255.792333
21
17.675747
31
0
39
0
210
0
220
0
230
1
0
LINE
5
111
100
AcDbEntity
8
1
62
256
6
ByLayer
370
18
48
1
60
0
100
AcDbLine
10
254.481567
20
18.011709
30
0
11
254.343304
21
18.004463
31
0
39
0
210
0
220
0
230
1
0
LINE
5
112
100
AcDbEntity
8
1
62
256
6
ByLayer
370
18
48
1
60
0
100
AcDbLine
10
254.641244
20
15.142416
30
0
11
254.504023
21
15.135224
31
0
39
0
210
0
220
0
230
1
0
LINE
5
113
100
AcDbEntity
8
1
62
256
6
ByLayer
370
18
48
1
60
0
100
AcDbLine
10
254.632861
20
15.124852
30
0
11
254.494598
21
15.117606
31
0
39
0
210
0
220
0
230
1
0
LINE
5
114
100
AcDbEntity
8
1
62
256
6
ByLayer
370
18
48
1
60
0
100
AcDbLine
10
256.379878
20
16.27627
30
0
11
256.242657
21
16.269079
31
0
39
0
210
0
220
0
230
1
0
LINE
5
115
100
AcDbEntity
8
1
62
256
6
ByLayer
370
18
48
1
60
0
100
AcDbLine
10
255.939242
20
17.70101
30
0
11
255.80098
21
17.693764
31
0
39
0
210
0
220
0
230
1
0
LINE
5
116
100
AcDbEntity
8
1
62
256
6
ByLayer
370
18
48
1
60
0
100
AcDbLine
10
256.050074
20
15.586218
30
0
11
255.911811
21
15.578972
31
0
39
0
210
0
220
0
230
1
0
LINE
5
117
100
AcDbEntity
8
1
62
256
6
ByLayer
370
18
48
1
60
0
100
AcDbLine
10
256.242657
20
16.269079
30
0
11
256.262518
21
16.270559
31
0
39
0
210
0
220
0
230
1
0
LINE
5
118
100
AcDbEntity
8
1
62
256
6
ByLayer
370
18
48
1
60
0
100
AcDbLine
10
255.792333
20
17.675747
30
0
11
255.80098
21
17.693764
31
0
39
0
210
0
220
0
230
1
0
LINE
5
119
100
AcDbEntity
8
1
62
256
6
ByLayer
370
18
48
1
60
0
100
AcDbLine
10
256.33937
20
17.049212
30
0
11
256.202149
21
17.04202
31
0
39
0
210
0
220
0
230
1
0
LINE
5
11A
100
AcDbEntity
8
1
62
256
6
ByLayer
370
18
48
1
60
0
100
AcDbLine
10
255.911811
20
15.578972
30
0
11
255.901329
21
15.595986
31
0
39
0
210
0
220
0
230
1
0
LINE
5
11B
100
AcDbEntity
8
1
62
256
6
ByLayer
370
18
48
1
60
0
100
AcDbLine
10
254.354519
20
17.987927
30
0
11
254.343304
21
18.004463
31
0
39
0
210
0
220
0
230
1
0
LINE
5
11C
100
AcDbEntity
8
1
62
256
6
ByLayer
370
18
48
1
60
0
100
AcDbLine
10
263.601566
20
0.503587
30
0
11
263.683368
21
0.492892
31
0
39
0
210
0
220
0
230
1
0
LINE
5
11D
100
AcDbEntity
8
1
62
256
6
ByLayer
370
13
48
1
60
0
100
AcDbLine
10
265.013515
20
10.677158
30
0
11
264.791228
21
7.853035
31
0
39
0
210
0
220
0
230
1
0
LINE
5
11E
100
AcDbEntity
8
1
62
256
6
ByLayer
370
13
48
1
60
0
100
AcDbLine
10
264.715517
20
8.973391
30
0
11
264.607974
21
7.906027
31
0
39
0
210
0
220
0
230
1
0
LINE
5
11F
100
AcDbEntity
8
1
62
256
6
ByLayer
370
13
48
1
60
0
100
AcDbLine
10
244.344291
20
12.288837
30
0
11
244.981017
21
9.627358
31
0
39
0
210
0
220
0
230
1
0
LINE
5
120
100
AcDbEntity
8
1
62
256
6
ByLayer
370
13
48
1
60
0
100
AcDbLine
10
243.856909
20
16.73967
30
0
11
243.867054
21
17.529712
31
0
39
0
210
0
220
0
230
1
0
LINE
5
121
100
AcDbEntity
8
1
62
256
6
ByLayer
370
13
48
1
60
0
100
AcDbLine
10
243.856909
20
16.73967
30
0
11
243.961655
21
17.77927
31
0
39
0
210
0
220
0
230
1
0
LINE
5
122
100
AcDbEntity
8
1
62
256
6
ByLayer
370
13
48
1
60
0
100
AcDbLine
10
262.940036
20
26.903053
30
0
11
263.138158
21
26.911695
31
0
39
0
210
0
220
0
230
1
0
LINE
5
123
100
AcDbEntity
8
1
62
256
6
ByLayer
370
13
48
1
60
0
100
AcDbLine
10
245.241957
20
25.33009
30
0
11
245.102445
21
25.306672
31
0
39
0
210
0
220
0
230
1
0
LINE
5
124
100
AcDbEntity
8
1
62
256
6
ByLayer
370
13
48
1
60
0
100
AcDbLine
10
245.133217
20
23.926798
30
0
11
245.079368
21
24.532433
31
0
39
0
210
0
220
0
230
1
0
LINE
5
125
100
AcDbEntity
8
1
62
256
6
ByLayer
370
13
48
1
60
0
100
AcDbLine
10
244.110457
20
18.079986
30
0
11
243.843778
21
16.041835
31
0
39
0
210
0
220
0
230
1
0
LINE
5
126
100
AcDbEntity
8
1
62
256
6
ByLayer
370
13
48
1
60
0
100
AcDbLine
10
262.136103
20
25.561322
30
0
11
262.181633
21
25.272998
31
0
39
0
210
0
220
0
230
1
0
LINE
5
127
100
AcDbEntity
8
1
62
256
6
ByLayer
370
13
48
1
60
0
100
AcDbLine
10
262.373995
20
8.923507
30
0
11
262.368181
21
8.879075
31
0
39
0
210
0
220
0
230
1
0
LINE
5
128
100
AcDbEntity
8
1
62
256
6
ByLayer
370
18
48
1
60
0
100
AcDbLine
10
253.525893
20
16.127139
30
0
11
253.457658
21
16.123563
31
0
39
0
210
0
220
0
230
1
0
LINE
5
129
100
AcDbEntity
8
1
62
256
6
ByLayer
370
18
48
1
60
0
100
AcDbLine
10
253.48543
20
16.899204
30
0
11
253.417785
21
16.895659
31
0
39
0
210
0
220
0
230
1
0
LINE
5
12A
100
AcDbEntity
8
1
62
256
6
ByLayer
370
13
48
1
60
0
100
AcDbLine
10
248.25257
20
7.755768
30
0
11
248.254232
21
7.746247
31
0
39
0
210
0
220
0
230
1
0
LINE
5
12B
100
AcDbEntity
8
1
62
256
6
ByLayer
370
13
48
1
60
0
100
AcDbLine
10
264.303159
20
7.058381
30
0
11
264.22599
21
7.054336
31
0
39
0
210
0
220
0
230
1
0
LINE
5
12C
100
AcDbEntity
8
1
62
256
6
ByLayer
370
13
48
1
60
0
100
AcDbLine
10
264.342116
20
6.032954
30
0
11
264.306298
21
6.031076
31
0
39
0
210
0
220
0
230
1
0
LINE
5
12D
100
AcDbEntity
8
1
62
256
6
ByLayer
370
13
48
1
60
0
100
AcDbLine
10
249.307486
20
7.731013
30
0
11
248.77562
21
7.703139
31
0
39
0
210
0
220
0
230
1
0
LINE
5
12E
100
AcDbEntity
8
1
62
256
6
ByLayer
370
13
48
1
60
0
100
AcDbLine
10
264.518306
20
0.690099
30
0
11
264.024428
21
0.468461
31
0
39
0
210
0
220
0
230
1
0
LINE
5
12F
100
AcDbEntity
8
1
62
256
6
ByLayer
370
13
48
1
60
0
100
AcDbLine
10
264.185006
20
1.107226
30
0
11
264.160618
21
1.110415
31
0
39
0
210
0
220
0
230
1
0
LINE
5
130
100
AcDbEntity
8
1
62
256
6
ByLayer
370
13
48
1
60
0
100
AcDbLine
10
50.4914
20
-26.215433
30
0
11
50.4914
21
-26.312813
31
0
39
0
210
0
220
0
230
1
0
LINE
5
131
100
AcDbEntity
8
1
62
256
6
ByLayer
370
13
48
1
60
0
100
AcDbLine
10
242.451769
20
26.312812
30
0
11
242.451769
21
26.141666
31
0
39
0
210
0
220
0
230
1
0
LINE
5
132
100
AcDbEntity
8
1
62
256
6
ByLayer
370
13
48
1
60
0
100
AcDbLine
10
264.085258
20
0.615239
30
0
11
264.07315
21
0.616822
31
0
39
0
210
0
220
0
230
1
0
LINE
5
133
100
AcDbEntity
8
1
62
256
6
ByLayer
370
13
48
1
60
0
100
AcDbLine
10
264.093066
20
0.605467
30
0
11
264.068009
21
0.608742
31
0
39
0
210
0
220
0
230
1
0
LINE
5
134
100
AcDbEntity
8
1
62
256
6
ByLayer
370
13
48
1
60
0
100
AcDbLine
10
0
20
-29.748313
30
0
11
0
21
-26.749378
31
0
39
0
210
0
220
0
230
1
0
LINE
5
135
100
AcDbEntity
8
1
62
256
6
ByLayer
370
13
48
1
60
0
100
AcDbLine
10
133.65988
20
-26.018207
30
0
11
133.65988
21
-26.042938
31
0
39
0
210
0
220
0
230
1
0
LINE
5
136
100
AcDbEntity
8
1
62
256
6
ByLayer
370
13
48
1
60
0
100
AcDbLine
10
239.451769
20
26.042937
30
0
11
239.451769
21
25.835442
31
0
39
0
210
0
220
0
230
1
0
LINE
5
137
100
AcDbEntity
8
1
62
256
6
ByLayer
370
13
48
1
60
0
100
AcDbLine
10
0
20
-33.5
30
0
11
0
21
-30.832335
31
0
39
0
210
0
220
0
230
1
0
LINE
5
138
100
AcDbEntity
8
1
62
256
6
ByLayer
370
13
48
1
60
0
100
AcDbLine
10
5.5
20
-27.197361
30
0
11
5.5
21
-29.748313
31
0
39
0
210
0
220
0
230
1
0
LINE
5
139
100
AcDbEntity
8
SK1
62
256
6
ByLayer
370
13
48
1
60
0
100
AcDbLine
10
-10.07646
20
-24.65
30
0
11
-10.07646
21
24.65
31
0
39
0
210
0
220
0
230
1
0
LINE
5
13B
100
AcDbEntity
8
SK1
62
256
6
ByLayer
370
13
48
1
60
0
100
AcDbLine
10
-10.5
20
-24.8475
30
0
11
-10.5
21
24.8475
31
0
39
0
210
0
220
0
230
1
0
LINE
5
13C
100
AcDbEntity
8
SK1
62
256
6
ByLayer
370
13
48
1
60
0
100
AcDbLine
10
-16.5
20
-24.8475
30
0
11
-16.5
21
24.8475
31
0
39
0
210
0
220
0
230
1
0
LINE
5
13D
100
AcDbEntity
8
SK1
62
256
6
ByLayer
370
13
48
1
60
0
100
AcDbLine
10
-18
20
-24.445576
30
0
11
-18
21
24.445576
31
0
39
0
210
0
220
0
230
1
0
LINE
5
13E
100
AcDbEntity
8
SK1
62
256
6
ByLayer
370
13
48
1
60
0
100
AcDbLine
10
-9.296888
20
-24.65
30
0
11
-9.296888
21
24.65
31
0
39
0
210
0
220
0
230
1
0
LINE
5
13F
100
AcDbEntity
8
SK1
62
256
6
ByLayer
370
13
48
1
60
0
100
AcDbLine
10
-1.57646
20
-24.8
30
0
11
-1.57646
21
24.8
31
0
39
0
210
0
220
0
230
1
0
LINE
5
140
100
AcDbEntity
8
SK1
62
256
6
ByLayer
370
13
48
1
60
0
100
AcDbLine
10
-2
20
-24.9975
30
0
11
-2
21
24.9975
31
0
39
0
210
0
220
0
230
1
0
LINE
5
141
100
AcDbEntity
8
SK1
62
256
6
ByLayer
370
13
48
1
60
0
100
AcDbLine
10
-8
20
-24.9975
30
0
11
-8
21
24.9975
31
0
39
0
210
0
220
0
230
1
0
LINE
5
142
100
AcDbEntity
8
SK1
62
256
6
ByLayer
370
13
48
1
60
0
100
AcDbLine
10
-0.3
20
-24.8
30
0
11
-0.3
21
24.8
31
0
39
0
210
0
220
0
230
1
0
LINE
5
143
100
AcDbEntity
8
1
62
256
6
ByLayer
370
18
48
1
60
0
100
AcDbLine
10
263.910801
20
-17.822419
30
0
11
263.836522
21
-17.834101
31
0
39
0
210
0
220
0
230
1
0
LINE
5
144
100
AcDbEntity
8
1
62
256
6
ByLayer
370
13
48
1
60
0
100
AcDbLine
10
45.4914
20
-26.215228
30
0
11
45.4914
21
-26.312813
31
0
39
0
210
0
220
0
230
1
0
LINE
5
145
100
AcDbEntity
8
1
62
256
6
ByLayer
370
13
48
1
60
0
100
AcDbLine
10
17.0094
20
29.5
30
0
11
17.0094
21
-29.5
31
0
39
0
210
0
220
0
230
1
0
LINE
5
146
100
AcDbEntity
8
1
62
256
6
ByLayer
370
13
48
1
60
0
100
AcDbLine
10
7.5
20
29.5
30
0
11
7.5
21
-29.5
31
0
39
0
210
0
220
0
230
1
0
LINE
5
147
100
AcDbEntity
8
1
62
256
6
ByLayer
370
13
48
1
60
0
100
AcDbLine
10
0
20
4.071
30
0
11
0
21
33.5
31
0
39
0
210
0
220
0
230
1
0
LINE
5
148
100
AcDbEntity
8
1
62
256
6
ByLayer
370
13
48
1
60
0
100
AcDbLine
10
7
20
-34
30
0
11
7
21
34
31
0
39
0
210
0
220
0
230
1
0
LINE
5
149
100
AcDbEntity
8
1
62
256
6
ByLayer
370
13
48
1
60
0
100
AcDbLine
10
0.5
20
4.071
30
0
11
0.5
21
34
31
0
39
0
210
0
220
0
230
1
0
LINE
5
14A
100
AcDbEntity
8
1
62
256
6
ByLayer
370
13
48
1
60
0
100
AcDbLine
10
0.5
20
-34
30
0
11
0.5
21
-31.268533
31
0
39
0
210
0
220
0
230
1
0
LINE
5
14B
100
AcDbEntity
8
4
62
256
6
ByLayer
370
18
48
0.05
60
0
100
AcDbLine
10
265.9126
20
0
30
0
11
0
21
0
31
0
39
0
210
0
220
0
230
1
0
LINE
5
14D
100
AcDbEntity
8
SK4
62
256
6
ByLayer
370
13
48
0.05
60
0
100
AcDbLine
10
265.9126
20
0
30
0
11
-18
21
0
31
0
39
0
210
0
220
0
230
1
0
LINE
5
14F
100
AcDbEntity
8
SK1
62
256
6
ByLayer
370
13
48
1
60
0
100
AcDbLine
10
-9.296888
20
24.65
30
0
11
-10.07646
21
24.65
31
0
39
0
210
0
220
0
230
1
0
LINE
5
150
100
AcDbEntity
8
SK1
62
256
6
ByLayer
370
13
48
1
60
0
100
AcDbLine
10
-10.07646
20
-24.65
30
0
11
-9.296888
21
-24.65
31
0
39
0
210
0
220
0
230
1
0
LINE
5
151
100
AcDbEntity
8
SK1
62
256
6
ByLayer
370
13
48
1
60
0
100
AcDbLine
10
-0.3
20
24.8
30
0
11
-1.57646
21
24.8
31
0
39
0
210
0
220
0
230
1
0
LINE
5
152
100
AcDbEntity
8
SK1
62
256
6
ByLayer
370
13
48
1
60
0
100
AcDbLine
10
-1.57646
20
-24.8
30
0
11
-0.3
21
-24.8
31
0
39
0
210
0
220
0
230
1
0
LINE
5
153
100
AcDbEntity
8
SK1
62
256
6
ByLayer
370
13
48
1
60
0
100
AcDbLine
10
-10.07646
20
24.65
30
0
11
-10.5
21
24.8475
31
0
39
0
210
0
220
0
230
1
0
LINE
5
154
100
AcDbEntity
8
SK1
62
256
6
ByLayer
370
13
48
1
60
0
100
AcDbLine
10
-10.5
20
-24.8475
30
0
11
-10.07646
21
-24.65
31
0
39
0
210
0
220
0
230
1
0
LINE
5
155
100
AcDbEntity
8
SK1
62
256
6
ByLayer
370
13
48
1
60
0
100
AcDbLine
10
-10.5
20
24.8475
30
0
11
-16.5
21
24.8475
31
0
39
0
210
0
220
0
230
1
0
LINE
5
156
100
AcDbEntity
8
SK1
62
256
6
ByLayer
370
13
48
1
60
0
100
AcDbLine
10
-16.5
20
-24.8475
30
0
11
-10.5
21
-24.8475
31
0
39
0
210
0
220
0
230
1
0
LINE
5
157
100
AcDbEntity
8
SK1
62
256
6
ByLayer
370
13
48
1
60
0
100
AcDbLine
10
-18
20
-24.445576
30
0
11
-16.5
21
-24.8475
31
0
39
0
210
0
220
0
230
1
0
LINE
5
158
100
AcDbEntity
8
SK1
62
256
6
ByLayer
370
13
48
1
60
0
100
AcDbLine
10
-16.5
20
24.8475
30
0
11
-18
21
24.445576
31
0
39
0
210
0
220
0
230
1
0
LINE
5
159
100
AcDbEntity
8
SK1
62
256
6
ByLayer
370
13
48
1
60
0
100
AcDbLine
10
-2
20
24.9975
30
0
11
-8
21
24.9975
31
0
39
0
210
0
220
0
230
1
0
LINE
5
15A
100
AcDbEntity
8
SK1
62
256
6
ByLayer
370
13
48
1
60
0
100
AcDbLine
10
-8
20
-24.9975
30
0
11
-2
21
-24.9975
31
0
39
0
210
0
220
0
230
1
0
LINE
5
15B
100
AcDbEntity
8
SK1
62
256
6
ByLayer
370
13
48
1
60
0
100
AcDbLine
10
-1.57646
20
24.8
30
0
11
-2
21
24.9975
31
0
39
0
210
0
220
0
230
1
0
LINE
5
15C
100
AcDbEntity
8
SK1
62
256
6
ByLayer
370
13
48
1
60
0
100
AcDbLine
10
-2
20
-24.9975
30
0
11
-1.57646
21
-24.8
31
0
39
0
210
0
220
0
230
1
0
LINE
5
15D
100
AcDbEntity
8
SK1
62
256
6
ByLayer
370
13
48
1
60
0
100
AcDbLine
10
-9.296888
20
-24.65
30
0
11
-8
21
-24.9975
31
0
39
0
210
0
220
0
230
1
0
LINE
5
15E
100
AcDbEntity
8
SK1
62
256
6
ByLayer
370
13
48
1
60
0
100
AcDbLine
10
-8
20
24.9975
30
0
11
-9.296888
21
24.65
31
0
39
0
210
0
220
0
230
1
0
LINE
5
15F
100
AcDbEntity
8
1
62
256
6
ByLayer
370
13
48
1
60
0
100
AcDbLine
10
120.695892
20
26.085005
30
0
11
50.4914
21
26.312812
31
0
39
0
210
0
220
0
230
1
0
LINE
5
160
100
AcDbEntity
8
1
62
256
6
ByLayer
370
13
48
1
60
0
100
AcDbLine
10
264.270782
20
7.970152
30
0
11
264.80556
21
9.176503
31
0
39
0
210
0
220
0
230
1
0
LINE
5
161
100
AcDbEntity
8
1
62
256
6
ByLayer
370
13
48
1
60
0
100
AcDbLine
10
263.441774
20
17.298583
30
0
11
262.18542
21
25.254641
31
0
39
0
210
0
220
0
230
1
0
LINE
5
162
100
AcDbEntity
8
1
62
256
6
ByLayer
370
13
48
1
60
0
100
AcDbLine
10
262.377247
20
8.941749
30
0
11
263.444434
21
17.097961
31
0
39
0
210
0
220
0
230
1
0
LINE
5
163
100
AcDbEntity
8
1
62
256
6
ByLayer
370
18
48
1
60
0
100
AcDbLine
10
254.99944
20
15.299386
30
0
11
254.872372
21
15.292727
31
0
39
0
210
0
220
0
230
1
0
LINE
5
164
100
AcDbEntity
8
1
62
256
6
ByLayer
370
18
48
1
60
0
100
AcDbLine
10
254.737314
20
17.86979
30
0
11
254.864382
21
17.876449
31
0
39
0
210
0
220
0
230
1
0
LINE
5
165
100
AcDbEntity
8
1
62
256
6
ByLayer
370
18
48
1
60
0
100
AcDbLine
10
255.026834
20
13.738981
30
0
11
255.094575
21
13.742531
31
0
39
0
210
0
220
0
230
1
0
LINE
5
166
100
AcDbEntity
8
1
62
256
6
ByLayer
370
18
48
1
60
0
100
AcDbLine
10
254.79626
20
19.43472
30
0
11
254.728519
21
19.43117
31
0
39
0
210
0
220
0
230
1
0
LINE
5
167
100
AcDbEntity
8
1
62
256
6
ByLayer
370
13
48
1
60
0
100
AcDbLine
10
45.4914
20
-26.312813
30
0
11
50.4914
21
-26.312813
31
0
39
0
210
0
220
0
230
1
0
LINE
5
168
100
AcDbEntity
8
1
62
256
6
ByLayer
370
13
48
1
60
0
100
AcDbLine
10
50.4914
20
-26.312813
30
0
11
133.65988
21
-26.042938
31
0
39
0
210
0
220
0
230
1
0
LINE
5
169
100
AcDbEntity
8
1
62
256
6
ByLayer
370
13
48
1
60
0
100
AcDbLine
10
244.7894
20
26.312812
30
0
11
242.451769
21
26.312812
31
0
39
0
210
0
220
0
230
1
0
LINE
5
16A
100
AcDbEntity
8
1
62
256
6
ByLayer
370
13
48
1
60
0
100
AcDbLine
10
242.451769
20
26.312812
30
0
11
239.451769
21
26.042937
31
0
39
0
210
0
220
0
230
1
0
LINE
5
16B
100
AcDbEntity
8
1
62
256
6
ByLayer
370
13
48
1
60
0
100
AcDbLine
10
133.65988
20
-26.042938
30
0
11
140.985727
21
-26.042938
31
0
39
0
210
0
220
0
230
1
0
LINE
5
16C
100
AcDbEntity
8
1
62
256
6
ByLayer
370
13
48
1
60
0
100
AcDbLine
10
239.451769
20
26.042937
30
0
11
226.401241
21
26.042937
31
0
39
0
210
0
220
0
230
1
0
LINE
5
16D
100
AcDbEntity
8
1
62
256
6
ByLayer
370
13
48
1
60
0
100
AcDbLine
10
0
20
-33.5
30
0
11
0.5
21
-34
31
0
39
0
210
0
220
0
230
1
0
LINE
5
16E
100
AcDbEntity
8
1
62
256
6
ByLayer
370
13
48
1
60
0
100
AcDbLine
10
7.5
20
-29.5
30
0
11
17.0094
21
-29.5
31
0
39
0
210
0
220
0
230
1
0
LINE
5
16F
100
AcDbEntity
8
1
62
256
6
ByLayer
370
13
48
1
60
0
100
AcDbLine
10
17.0094
20
29.5
30
0
11
7.5
21
29.5
31
0
39
0
210
0
220
0
230
1
0
LINE
5
170
100
AcDbEntity
8
1
62
256
6
ByLayer
370
13
48
1
60
0
100
AcDbLine
10
0.5
20
34
30
0
11
0
21
33.5
31
0
39
0
210
0
220
0
230
1
0
LINE
5
171
100
AcDbEntity
8
1
62
256
6
ByLayer
370
13
48
1
60
0
100
AcDbLine
10
7
20
34
30
0
11
0.5
21
34
31
0
39
0
210
0
220
0
230
1
0
LINE
5
172
100
AcDbEntity
8
1
62
256
6
ByLayer
370
13
48
1
60
0
100
AcDbLine
10
0.5
20
-34
30
0
11
7
21
-34
31
0
39
0
210
0
220
0
230
1
0
LINE
5
173
100
AcDbEntity
8
81
62
256
6
ByLayer
370
18
48
1
60
0
100
AcDbLine
10
265.9126
20
0
30
0
11
272.9126
21
0
31
0
39
0
210
0
220
0
230
1
0
LINE
5
174
100
AcDbEntity
8
80
62
256
6
ByLayer
370
18
48
1
60
0
100
AcDbLine
10
0
20
0
30
0
11
-7
21
0
31
0
39
0
210
0
220
0
230
1
0
LINE
5
175
100
AcDbEntity
8
SK2
62
256
6
ByLayer
370
13
48
1
60
0
100
AcDbLine
10
-38.725
20
25
30
0
11
-38.725
21
-25
31
0
39
0
210
0
220
0
230
1
0
LINE
5
177
100
AcDbEntity
8
SK2
62
256
6
ByLayer
370
13
48
1
60
0
100
AcDbLine
10
-19.5875
20
-25
30
0
11
-41.9
21
-25
31
0
39
0
210
0
220
0
230
1
0
LINE
5
178
100
AcDbEntity
8
SK2
62
256
6
ByLayer
370
13
48
1
60
0
100
AcDbLine
10
-19.5875
20
25
30
0
11
-41.9
21
25
31
0
39
0
210
0
220
0
230
1
0
LINE
5
179
100
AcDbEntity
8
1
62
256
6
ByLayer
370
18
48
1
60
1
100
AcDbLine
10
-38.725
20
-25
30
0
11
-39.650575
21
-20.825003
31
0
39
0
210
0
220
0
230
1
0
LINE
5
17A
100
AcDbEntity
8
1
62
256
6
ByLayer
370
18
48
1
60
1
100
AcDbLine
10
-39.650575
20
-20.825003
30
0
11
-37.799425
21
-20.824997
31
0
39
0
210
0
220
0
230
1
0
LINE
5
17B
100
AcDbEntity
8
1
62
256
6
ByLayer
370
18
48
1
60
1
100
AcDbLine
10
-37.799425
20
-20.824997
30
0
11
-38.725
21
-25
31
0
39
0
210
0
220
0
230
1
0
LINE
5
17C
100
AcDbEntity
8
1
62
256
6
ByLayer
370
18
48
1
60
1
100
AcDbLine
10
-38.725
20
25
30
0
11
-37.799425
21
20.825003
31
0
39
0
210
0
220
0
230
1
0
LINE
5
17D
100
AcDbEntity
8
1
62
256
6
ByLayer
370
18
48
1
60
1
100
AcDbLine
10
-37.799425
20
20.825003
30
0
11
-39.650575
21
20.824997
31
0
39
0
210
0
220
0
230
1
0
LINE
5
17E
100
AcDbEntity
8
1
62
256
6
ByLayer
370
18
48
1
60
1
100
AcDbLine
10
-39.650575
20
20.824997
30
0
11
-38.725
21
25
31
0
39
0
210
0
220
0
230
1
0
LINE
5
17F
100
AcDbEntity
8
SK2
62
256
6
ByLayer
370
13
48
1
60
0
100
AcDbLine
10
-48.725
20
-34
30
0
11
-48.725
21
34
31
0
39
0
210
0
220
0
230
1
0
LINE
5
180
100
AcDbEntity
8
SK2
62
256
6
ByLayer
370
13
48
1
60
0
100
AcDbLine
10
-1.5875
20
34
30
0
11
-51.9
21
34
31
0
39
0
210
0
220
0
230
1
0
LINE
5
181
100
AcDbEntity
8
SK2
62
256
6
ByLayer
370
13
48
1
60
0
100
AcDbLine
10
-1.5875
20
-34
30
0
11
-51.9
21
-34
31
0
39
0
210
0
220
0
230
1
0
LINE
5
182
100
AcDbEntity
8
1
62
256
6
ByLayer
370
18
48
1
60
1
100
AcDbLine
10
-48.725
20
34
30
0
11
-47.799425
21
29.825003
31
0
39
0
210
0
220
0
230
1
0
LINE
5
183
100
AcDbEntity
8
1
62
256
6
ByLayer
370
18
48
1
60
1
100
AcDbLine
10
-47.799425
20
29.825003
30
0
11
-49.650575
21
29.824997
31
0
39
0
210
0
220
0
230
1
0
LINE
5
184
100
AcDbEntity
8
1
62
256
6
ByLayer
370
18
48
1
60
1
100
AcDbLine
10
-49.650575
20
29.824997
30
0
11
-48.725
21
34
31
0
39
0
210
0
220
0
230
1
0
LINE
5
185
100
AcDbEntity
8
1
62
256
6
ByLayer
370
18
48
1
60
1
100
AcDbLine
10
-48.725
20
-34
30
0
11
-49.650575
21
-29.825003
31
0
39
0
210
0
220
0
230
1
0
LINE
5
186
100
AcDbEntity
8
1
62
256
6
ByLayer
370
18
48
1
60
1
100
AcDbLine
10
-49.650575
20
-29.825003
30
0
11
-47.799425
21
-29.824997
31
0
39
0
210
0
220
0
230
1
0
LINE
5
187
100
AcDbEntity
8
1
62
256
6
ByLayer
370
18
48
1
60
1
100
AcDbLine
10
-47.799425
20
-29.824997
30
0
11
-48.725
21
-34
31
0
39
0
210
0
220
0
230
1
0
LINE
5
188
100
AcDbEntity
8
2
62
256
6
ByLayer
370
13
48
1
60
0
100
AcDbLine
10
292.8876
20
26.9875
30
0
11
292.8876
21
-26.9875
31
0
39
0
210
0
220
0
230
1
0
LINE
5
18A
100
AcDbEntity
8
2
62
256
6
ByLayer
370
13
48
1
60
0
100
AcDbLine
10
267.5001
20
-26.9875
30
0
11
296.0626
21
-26.9875
31
0
39
0
210
0
220
0
230
1
0
LINE
5
18B
100
AcDbEntity
8
2
62
256
6
ByLayer
370
13
48
1
60
0
100
AcDbLine
10
267.5001
20
26.9875
30
0
11
296.0626
21
26.9875
31
0
39
0
210
0
220
0
230
1
0
LINE
5
18C
100
AcDbEntity
8
1
62
256
6
ByLayer
370
18
48
1
60
1
100
AcDbLine
10
292.8876
20
-26.9875
30
0
11
291.962025
21
-22.812503
31
0
39
0
210
0
220
0
230
1
0
LINE
5
18D
100
AcDbEntity
8
1
62
256
6
ByLayer
370
18
48
1
60
1
100
AcDbLine
10
291.962025
20
-22.812503
30
0
11
293.813175
21
-22.812497
31
0
39
0
210
0
220
0
230
1
0
LINE
5
18E
100
AcDbEntity
8
1
62
256
6
ByLayer
370
18
48
1
60
1
100
AcDbLine
10
293.813175
20
-22.812497
30
0
11
292.8876
21
-26.9875
31
0
39
0
210
0
220
0
230
1
0
LINE
5
18F
100
AcDbEntity
8
1
62
256
6
ByLayer
370
18
48
1
60
1
100
AcDbLine
10
292.8876
20
26.9875
30
0
11
293.813175
21
22.812503
31
0
39
0
210
0
220
0
230
1
0
LINE
5
190
100
AcDbEntity
8
1
62
256
6
ByLayer
370
18
48
1
60
1
100
AcDbLine
10
293.813175
20
22.812503
30
0
11
291.962025
21
22.812497
31
0
39
0
210
0
220
0
230
1
0
LINE
5
191
100
AcDbEntity
8
1
62
256
6
ByLayer
370
18
48
1
60
1
100
AcDbLine
10
291.962025
20
22.812497
30
0
11
292.8876
21
26.9875
31
0
39
0
210
0
220
0
230
1
0
LINE
5
33F
100
AcDbEntity
8
1
62
256
6
ByLayer
370
18
48
1
60
1
100
AcDbLine
10
-38.725
20
-25
30
0
11
-39.650575
21
-20.825003
31
0
39
0
210
0
220
0
230
1
0
LINE
5
340
100
AcDbEntity
8
1
62
256
6
ByLayer
370
18
48
1
60
1
100
AcDbLine
10
-39.650575
20
-20.825003
30
0
11
-37.799425
21
-20.824997
31
0
39
0
210
0
220
0
230
1
0
LINE
5
341
100
AcDbEntity
8
1
62
256
6
ByLayer
370
18
48
1
60
1
100
AcDbLine
10
-37.799425
20
-20.824997
30
0
11
-38.725
21
-25
31
0
39
0
210
0
220
0
230
1
0
LINE
5
343
100
AcDbEntity
8
1
62
256
6
ByLayer
370
18
48
1
60
1
100
AcDbLine
10
-38.725
20
25
30
0
11
-37.799425
21
20.825003
31
0
39
0
210
0
220
0
230
1
0
LINE
5
344
100
AcDbEntity
8
1
62
256
6
ByLayer
370
18
48
1
60
1
100
AcDbLine
10
-37.799425
20
20.825003
30
0
11
-39.650575
21
20.824997
31
0
39
0
210
0
220
0
230
1
0
LINE
5
345
100
AcDbEntity
8
1
62
256
6
ByLayer
370
18
48
1
60
1
100
AcDbLine
10
-39.650575
20
20.824997
30
0
11
-38.725
21
25
31
0
39
0
210
0
220
0
230
1
0
LINE
5
349
100
AcDbEntity
8
1
62
256
6
ByLayer
370
18
48
1
60
1
100
AcDbLine
10
-48.725
20
34
30
0
11
-47.799425
21
29.825003
31
0
39
0
210
0
220
0
230
1
0
LINE
5
34A
100
AcDbEntity
8
1
62
256
6
ByLayer
370
18
48
1
60
1
100
AcDbLine
10
-47.799425
20
29.825003
30
0
11
-49.650575
21
29.824997
31
0
39
0
210
0
220
0
230
1
0
LINE
5
34B
100
AcDbEntity
8
1
62
256
6
ByLayer
370
18
48
1
60
1
100
AcDbLine
10
-49.650575
20
29.824997
30
0
11
-48.725
21
34
31
0
39
0
210
0
220
0
230
1
0
LINE
5
34D
100
AcDbEntity
8
1
62
256
6
ByLayer
370
18
48
1
60
1
100
AcDbLine
10
-48.725
20
-34
30
0
11
-49.650575
21
-29.825003
31
0
39
0
210
0
220
0
230
1
0
LINE
5
34E
100
AcDbEntity
8
1
62
256
6
ByLayer
370
18
48
1
60
1
100
AcDbLine
10
-49.650575
20
-29.825003
30
0
11
-47.799425
21
-29.824997
31
0
39
0
210
0
220
0
230
1
0
LINE
5
34F
100
AcDbEntity
8
1
62
256
6
ByLayer
370
18
48
1
60
1
100
AcDbLine
10
-47.799425
20
-29.824997
30
0
11
-48.725
21
-34
31
0
39
0
210
0
220
0
230
1
0
LINE
5
353
100
AcDbEntity
8
1
62
256
6
ByLayer
370
18
48
1
60
1
100
AcDbLine
10
292.8876
20
-26.9875
30
0
11
291.962025
21
-22.812503
31
0
39
0
210
0
220
0
230
1
0
LINE
5
354
100
AcDbEntity
8
1
62
256
6
ByLayer
370
18
48
1
60
1
100
AcDbLine
10
291.962025
20
-22.812503
30
0
11
293.813175
21
-22.812497
31
0
39
0
210
0
220
0
230
1
0
LINE
5
355
100
AcDbEntity
8
1
62
256
6
ByLayer
370
18
48
1
60
1
100
AcDbLine
10
293.813175
20
-22.812497
30
0
11
292.8876
21
-26.9875
31
0
39
0
210
0
220
0
230
1
0
LINE
5
357
100
AcDbEntity
8
1
62
256
6
ByLayer
370
18
48
1
60
1
100
AcDbLine
10
292.8876
20
26.9875
30
0
11
293.813175
21
22.812503
31
0
39
0
210
0
220
0
230
1
0
LINE
5
358
100
AcDbEntity
8
1
62
256
6
ByLayer
370
18
48
1
60
1
100
AcDbLine
10
293.813175
20
22.812503
30
0
11
291.962025
21
22.812497
31
0
39
0
210
0
220
0
230
1
0
LINE
5
359
100
AcDbEntity
8
1
62
256
6
ByLayer
370
18
48
1
60
1
100
AcDbLine
10
291.962025
20
22.812497
30
0
11
292.8876
21
26.9875
31
0
39
0
210
0
220
0
230
1
0
MTEXT
5
33B
100
AcDbEntity
8
SK2
62
256
6
ByLayer
370
18
48
1
60
0
100
AcDbMText
10
-40.736672
20
-6.949399
30
0
210
0
220
0
230
1
1
%%c
40
4.5
41
0
44
1.084337
50
90
71
7
72
5
7
iso_b_vert
0
MTEXT
5
33E
100
AcDbEntity
8
SK2
62
256
6
ByLayer
370
18
48
1
60
0
100
AcDbMText
10
-40.736672
20
4.265444
30
0
210
0
220
0
230
1
1
\W0.6740;50
40
4.5
41
0
44
1.084337
50
90
71
7
72
5
7
iso_b_vert
0
MTEXT
5
347
100
AcDbEntity
8
SK2
62
256
6
ByLayer
370
18
48
1
60
0
100
AcDbMText
10
-50.736672
20
-6.949399
30
0
210
0
220
0
230
1
1
%%c
40
4.5
41
0
44
1.084337
50
90
71
7
72
5
7
iso_b_vert
0
MTEXT
5
348
100
AcDbEntity
8
SK2
62
256
6
ByLayer
370
18
48
1
60
0
100
AcDbMText
10
-50.736672
20
4.265444
30
0
210
0
220
0
230
1
1
\W0.6740;68
40
4.5
41
0
44
1.084337
50
90
71
7
72
5
7
iso_b_vert
0
MTEXT
5
351
100
AcDbEntity
8
2
62
256
6
ByLayer
370
18
48
1
60
0
100
AcDbMText
10
290.875928
20
-11.222683
30
0
210
0
220
0
230
1
1
%%c
40
4.5
41
0
44
1.084337
50
90
71
7
72
5
7
iso_b_vert
0
MTEXT
5
352
100
AcDbEntity
8
2
62
256
6
ByLayer
370
18
48
1
60
0
100
AcDbMText
10
290.875928
20
-0.007839
30
0
210
0
220
0
230
1
1
\W0.7468;53.98
40
4.5
41
0
44
1.084337
50
90
71
7
72
5
7
iso_b_vert
0
MTEXT
5
35B
100
AcDbEntity
8
SK6
62
256
6
ByLayer
370
18
48
1
60
0
100
AcDbMText
10
9.308916
20
-94.592562
30
0
210
0
220
0
230
1
1
\W0.7730;DS20-D5398DM50-04
40
3.5
41
0
44
1.084337
50
0
71
7
72
5
7
iso_b_vert
0
HATCH
5
342
100
AcDbEntity
8
SK2
62
256
6
ByLayer
370
13
48
1
60
0
100
AcDbHatch
10
0
20
0
30
0
210
0
220
0
230
1
2
ANSI31
70
0
71
0
91
1
92
5
93
3
72
1
10
-38.7250000000001
20
-25
11
-39.650575216528
21
-20.8250033998276
72
1
10
-39.650575216528
20
-20.8250033998276
11
-37.7994247834721
21
-20.8249966001723
72
1
10
-37.7994247834721
20
-20.8249966001723
11
-38.7250000000001
21
-25
97
0
75
0
76
1
52
0
41
0.0062
77
0
78
1
53
45
43
0
44
0
45
-0.0139193969876572
46
0.0139193969876572
79
0
47
0
98
1
10
0
20
0
0
HATCH
5
346
100
AcDbEntity
8
SK2
62
256
6
ByLayer
370
13
48
1
60
0
100
AcDbHatch
10
0
20
0
30
0
210
0
220
0
230
1
2
ANSI31
70
0
71
0
91
1
92
5
93
3
72
1
10
-38.7250000000001
20
25
11
-37.7994247834721
21
20.8250033998276
72
1
10
-37.7994247834721
20
20.8250033998276
11
-39.650575216528
21
20.8249966001724
72
1
10
-39.650575216528
20
20.8249966001724
11
-38.7250000000001
21
25
97
0
75
0
76
1
52
0
41
0.0062
77
0
78
1
53
45
43
0
44
0
45
-0.0139193969876572
46
0.0139193969876572
79
0
47
0
98
1
10
0
20
0
0
HATCH
5
34C
100
AcDbEntity
8
SK2
62
256
6
ByLayer
370
13
48
1
60
0
100
AcDbHatch
10
0
20
0
30
0
210
0
220
0
230
1
2
ANSI31
70
0
71
0
91
1
92
5
93
3
72
1
10
-48.7250000000001
20
34
11
-47.7994247834721
21
29.8250033998276
72
1
10
-47.7994247834721
20
29.8250033998276
11
-49.650575216528
21
29.8249966001724
72
1
10
-49.650575216528
20
29.8249966001724
11
-48.7250000000001
21
34
97
0
75
0
76
1
52
0
41
0.0062
77
0
78
1
53
45
43
0
44
0
45
-0.0139193969876572
46
0.0139193969876572
79
0
47
0
98
1
10
0
20
0
0
HATCH
5
350
100
AcDbEntity
8
SK2
62
256
6
ByLayer
370
13
48
1
60
0
100
AcDbHatch
10
0
20
0
30
0
210
0
220
0
230
1
2
ANSI31
70
0
71
0
91
1
92
5
93
3
72
1
10
-48.7250000000001
20
-34
11
-49.650575216528
21
-29.8250033998276
72
1
10
-49.650575216528
20
-29.8250033998276
11
-47.7994247834721
21
-29.8249966001723
72
1
10
-47.7994247834721
20
-29.8249966001723
11
-48.7250000000001
21
-34
97
0
75
0
76
1
52
0
41
0.0062
77
0
78
1
53
45
43
0
44
0
45
-0.0139193969876572
46
0.0139193969876572
79
0
47
0
98
1
10
0
20
0
0
HATCH
5
356
100
AcDbEntity
8
2
62
256
6
ByLayer
370
13
48
1
60
0
100
AcDbHatch
10
0
20
0
30
0
210
0
220
0
230
1
2
ANSI31
70
0
71
0
91
1
92
5
93
3
72
1
10
292.8876
20
-26.9875000000003
11
291.962024783472
21
-22.8125033998279
72
1
10
291.962024783472
20
-22.8125033998279
11
293.813175216528
21
-22.8124966001727
72
1
10
293.813175216528
20
-22.8124966001727
11
292.8876
21
-26.9875000000003
97
0
75
0
76
1
52
0
41
0.0062
77
0
78
1
53
45
43
0
44
0
45
-0.0139193969876572
46
0.0139193969876572
79
0
47
0
98
1
10
0
20
0
0
HATCH
5
35A
100
AcDbEntity
8
2
62
256
6
ByLayer
370
13
48
1
60
0
100
AcDbHatch
10
0
20
0
30
0
210
0
220
0
230
1
2
ANSI31
70
0
71
0
91
1
92
5
93
3
72
1
10
292.8876
20
26.9874999999997
11
293.813175216528
21
22.8125033998273
72
1
10
293.813175216528
20
22.8125033998273
11
291.962024783472
21
22.8124966001721
72
1
10
291.962024783472
20
22.8124966001721
11
292.8876
21
26.9874999999997
97
0
75
0
76
1
52
0
41
0.0062
77
0
78
1
53
45
43
0
44
0
45
-0.0139193969876572
46
0.0139193969876572
79
0
47
0
98
1
10
0
20
0
0
DIMENSION
5
35E
100
AcDbEntity
8
2
62
256
6
ByLayer
370
18
48
1
60
0
100
AcDbDimension
2
_U0
10
265.9126
20
-82.85
30
0
11
132.9563
21
-82.85
31
0
70
32
71
1
72
1
41
1
210
0
220
0
230
1
3
Standard
100
AcDbAlignedDimension
13
0
23
-34
33
0
14
265.9126
24
-26.9875
34
0
50
0
100
AcDbRotatedDimension
1001
ACAD
1000
DSTYLE
1002
{
1070
   371
1070
    13
1070
   372
1070
    13
1070
   170
1070
     0
1070
   144
1040
1.0
1070
   277
1070
     2
1070
   284
1070
     8
1070
   278
1070
    46
1070
   146
1040
0.777778
1070
   345
1005
16
1070
   347
1005
16
1070
   346
1005
16
1070
   344
1005
0
1070
   343
1005
0
1070
   172
1070
     1
1070
    76
1070
     0
1070
    75
1070
     0
1070
   282
1070
     0
1070
   281
1070
     0
1070
    71
1070
     0
1070
    74
1070
     0
1070
   279
1070
     0
1070
   173
1070
     1
1070
   340
1005
33C
1070
   271
1070
     1
1070
   272
1070
     2
1070
    77
1070
     1
1070
    73
1070
     1
1070
   171
1070
     3
1070
   274
1070
     4
1070
   177
1070
   150
1070
   176
1070
     9
1070
   178
1070
    43
1070
    78
1070
     8
1070
    48
1040
-0.1
1070
    41
1040
4.175
1070
   147
1040
2.25
1070
    42
1040
1.5875
1070
    44
1040
3.175
1070
   140
1040
4.5
1002
}
1001
ACAD_DSTYLE_DIM_LINETYPE
1070
   380
1005
16
1001
ACAD_DSTYLE_DIM_EXT1_LINETYPE
1070
   381
1005
16
1001
ACAD_DSTYLE_DIM_EXT2_LINETYPE
1070
   382
1005
16
0
DIMENSION
5
377
100
AcDbEntity
8
SK2
62
256
6
ByLayer
370
18
48
1
60
0
100
AcDbDimension
2
_U1
10
0
20
-82.85
30
0
11
-9
21
-82.85
31
0
70
32
71
1
72
1
41
1
210
0
220
0
230
1
3
Standard
100
AcDbAlignedDimension
13
-18
23
-25
33
0
14
0
24
-34
34
0
50
0
100
AcDbRotatedDimension
1001
ACAD
1000
DSTYLE
1002
{
1070
   371
1070
    13
1070
   372
1070
    13
1070
   170
1070
     0
1070
   144
1040
1.0
1070
   277
1070
     2
1070
   284
1070
     8
1070
   278
1070
    46
1070
   146
1040
0.777778
1070
   345
1005
16
1070
   347
1005
16
1070
   346
1005
16
1070
   344
1005
0
1070
   343
1005
0
1070
   172
1070
     1
1070
    76
1070
     0
1070
    75
1070
     0
1070
   282
1070
     0
1070
   281
1070
     0
1070
    71
1070
     0
1070
    74
1070
     0
1070
   279
1070
     0
1070
   173
1070
     1
1070
   340
1005
33C
1070
   271
1070
     1
1070
   272
1070
     2
1070
    77
1070
     1
1070
    73
1070
     1
1070
   171
1070
     3
1070
   274
1070
     4
1070
   177
1070
   150
1070
   176
1070
     9
1070
   178
1070
    43
1070
    78
1070
     8
1070
    48
1040
-0.1
1070
    41
1040
4.175
1070
   147
1040
2.25
1070
    42
1040
1.5875
1070
    44
1040
3.175
1070
   140
1040
4.5
1002
}
1001
ACAD_DSTYLE_DIM_LINETYPE
1070
   380
1005
16
1001
ACAD_DSTYLE_DIM_EXT1_LINETYPE
1070
   381
1005
16
1001
ACAD_DSTYLE_DIM_EXT2_LINETYPE
1070
   382
1005
16
0
DIMENSION
5
390
100
AcDbEntity
8
SK2
62
256
6
ByLayer
370
18
48
1
60
0
100
AcDbDimension
2
_U2
10
17.5094
20
-72.85
30
0
11
141.711
21
-72.85
31
0
70
32
71
1
72
1
41
1
210
0
220
0
230
1
3
Standard
100
AcDbAlignedDimension
13
265.9126
23
-26.9875
33
0
14
17.5094
24
-34
34
0
50
0
100
AcDbRotatedDimension
1001
ACAD
1000
DSTYLE
1002
{
1070
   371
1070
    13
1070
   372
1070
    13
1070
   170
1070
     0
1070
   144
1040
1.0
1070
   277
1070
     2
1070
   284
1070
     8
1070
   278
1070
    46
1070
   146
1040
0.777778
1070
   345
1005
16
1070
   347
1005
16
1070
   346
1005
16
1070
   344
1005
0
1070
   343
1005
0
1070
   172
1070
     1
1070
    76
1070
     0
1070
    75
1070
     0
1070
   282
1070
     0
1070
   281
1070
     0
1070
    71
1070
     0
1070
    74
1070
     0
1070
   279
1070
     0
1070
   173
1070
     1
1070
   340
1005
33C
1070
   271
1070
     1
1070
   272
1070
     2
1070
    77
1070
     1
1070
    73
1070
     1
1070
   171
1070
     3
1070
   274
1070
     4
1070
   177
1070
   150
1070
   176
1070
     9
1070
   178
1070
    43
1070
    78
1070
     8
1070
    48
1040
-0.1
1070
    41
1040
4.175
1070
   147
1040
2.25
1070
    42
1040
1.5875
1070
    44
1040
3.175
1070
   140
1040
4.5
1002
}
1001
ACAD_DSTYLE_DIM_LINETYPE
1070
   380
1005
16
1001
ACAD_DSTYLE_DIM_EXT1_LINETYPE
1070
   381
1005
16
1001
ACAD_DSTYLE_DIM_EXT2_LINETYPE
1070
   382
1005
16
0
DIMENSION
5
3A8
100
AcDbEntity
8
SK2
62
256
6
ByLayer
370
18
48
1
60
0
100
AcDbDimension
2
_U3
10
265.9126
20
-62.85
30
0
11
155.702
21
-62.85
31
0
70
32
71
1
72
1
41
1
210
0
220
0
230
1
3
Standard
100
AcDbAlignedDimension
13
45.4914
23
-26.9875
33
0
14
265.9126
24
-26.9875
34
0
50
0
100
AcDbRotatedDimension
1001
ACAD
1000
DSTYLE
1002
{
1070
   371
1070
    13
1070
   372
1070
    13
1070
   170
1070
     0
1070
   144
1040
1.0
1070
   277
1070
     2
1070
   284
1070
     8
1070
   278
1070
    46
1070
   146
1040
0.777778
1070
   345
1005
16
1070
   347
1005
16
1070
   346
1005
16
1070
   344
1005
0
1070
   343
1005
0
1070
   172
1070
     1
1070
    76
1070
     0
1070
    75
1070
     0
1070
   282
1070
     0
1070
   281
1070
     0
1070
    71
1070
     0
1070
    74
1070
     0
1070
   279
1070
     0
1070
   173
1070
     1
1070
   340
1005
33C
1070
   271
1070
     1
1070
   272
1070
     2
1070
    77
1070
     1
1070
    73
1070
     1
1070
   171
1070
     3
1070
   274
1070
     4
1070
   177
1070
   150
1070
   176
1070
     9
1070
   178
1070
    43
1070
    78
1070
     8
1070
    48
1040
-0.1
1070
    41
1040
4.175
1070
   147
1040
2.25
1070
    42
1040
1.5875
1070
    44
1040
3.175
1070
   140
1040
4.5
1002
}
1001
ACAD_DSTYLE_DIM_LINETYPE
1070
   380
1005
16
1001
ACAD_DSTYLE_DIM_EXT1_LINETYPE
1070
   381
1005
16
1001
ACAD_DSTYLE_DIM_EXT2_LINETYPE
1070
   382
1005
16
0
DIMENSION
5
3C0
100
AcDbEntity
8
2
62
256
6
ByLayer
370
18
48
1
60
0
100
AcDbDimension
2
_U4
10
265.9126
20
-52.85
30
0
11
287.834921
21
-52.85
31
0
70
32
71
1
72
1
41
1
210
0
220
0
230
1
3
Standard
100
AcDbAlignedDimension
13
264.3235
23
-13.49375
33
0
14
265.9126
24
0
34
0
50
0
100
AcDbRotatedDimension
1001
ACAD
1000
DSTYLE
1002
{
1070
   371
1070
    13
1070
   372
1070
    13
1070
   170
1070
     0
1070
   144
1040
1.0
1070
   277
1070
     2
1070
   284
1070
     8
1070
   278
1070
    46
1070
   146
1040
0.777778
1070
   345
1005
16
1070
   347
1005
16
1070
   346
1005
16
1070
   344
1005
0
1070
   343
1005
0
1070
   172
1070
     1
1070
    76
1070
     0
1070
    75
1070
     0
1070
   282
1070
     0
1070
   281
1070
     0
1070
    71
1070
     0
1070
    74
1070
     0
1070
   279
1070
     0
1070
   173
1070
     1
1070
   340
1005
33C
1070
   271
1070
     2
1070
   272
1070
     2
1070
    77
1070
     1
1070
    73
1070
     1
1070
   171
1070
     3
1070
   274
1070
     4
1070
   177
1070
   150
1070
   176
1070
     9
1070
   178
1070
    43
1070
    78
1070
     8
1070
    48
1040
-0.1
1070
    41
1040
4.175
1070
   147
1040
2.25
1070
    42
1040
1.5875
1070
    44
1040
3.175
1070
   140
1040
4.5
1002
}
1001
ACAD_DSTYLE_DIM_LINETYPE
1070
   380
1005
16
1001
ACAD_DSTYLE_DIM_EXT1_LINETYPE
1070
   381
1005
16
1001
ACAD_DSTYLE_DIM_EXT2_LINETYPE
1070
   382
1005
16
0
ENDSEC
0
SECTION
2
OBJECTS
0
DICTIONARY
5
44a
330
0
100
AcDbDictionary
280
0
281
1
3
ACAD_GROUP
350
44b
3
ACAD_MLINESTYLE
350
44c
0
DICTIONARY
5
44b
330
0
100
AcDbDictionary
280
0
281
1
0
DICTIONARY
5
44c
330
0
100
AcDbDictionary
280
0
281
1
3
Standard
350
18
0
MLINESTYLE
5
18
330
44c
100
AcDbMlineStyle
2
Standard
70
0
3

62
256
51
90
52
90
71
2
49
-0.5
62
256
6
ByLayer
49
0.5
62
256
6
ByLayer
0
RASTERVARIABLES
5
438
330

100
AcDbRasterVariables
90
0
70
1
71
1
72
1
0
ENDSEC
0
EOF
