0
SECTION
2
HEADER
9
$ACADVER
1
AC1015
9
$DWGCODEPAGE
3
ANSI_1252
9
$HANDSEED
5
450
9
$ANGBASE
50
0
9
$ANGDIR
70
0
9
$ATTMODE
70
1
9
$AUNITS
70
0
9
$AUPREC
70
0
9
$CECOLOR
62
256
9
$CELTSCALE
40
1
9
$CELTYPE
6
ByLayer
9
$CELWEIGHT
370
18
9
$CLAYER
8
0
9
$CMLJUST
70
0
9
$CMLSCALE
40
1
9
$CMLSTYLE
2
Standard
9
$DIMSTYLE
2
Standard
9
$TEXTSIZE
40
0.2
9
$TEXTSTYLE
7
Standard
9
$LUNITS
70
2
9
$LUPREC
70
4
9
$EXTNAMES
290
1
9
$INSUNITS
70
4
9
$LTSCALE
40
1
9
$LWDISPLAY
290
1
9
$PDMODE
70
0
9
$PDSIZE
40
0
9
$PLINEGEN
70
0
0
ENDSEC
0
SECTION
2
CLASSES
0
CLASS
1
RASTERVARIABLES
2
AcDbRasterVariables
3
ISM
90
0
280
0
281
0
0
ENDSEC
0
SECTION
2
TABLES
0
TABLE
2
VPORT
5
446
100
AcDbSymbolTable
0
VPORT
5
1
100
AcDbSymbolTableRecord
100
AcDbViewportTableRecord
2
*Active
70
0
10
0
20
0
11
1
21
1
12
-1
22
1
13
0
23
0
14
0.5
24
0.5
15
10
25
10
16
0
26
0
36
1
17
0
27
0
37
0
0
ENDTAB
0
TABLE
2
LTYPE
5
447
100
AcDbSymbolTable
0
LTYPE
5
14
100
AcDbSymbolTableRecord
100
AcDbLinetypeTableRecord
70
0
2
ByBlock
3

72
65
73
0
40
0
0
LTYPE
5
15
100
AcDbSymbolTableRecord
100
AcDbLinetypeTableRecord
70
0
2
ByLayer
3

72
65
73
0
40
0
0
LTYPE
5
16
100
AcDbSymbolTableRecord
100
AcDbLinetypeTableRecord
70
0
2
Continuous
3
Solid line
72
65
73
0
40
0
0
LTYPE
5
6E
100
AcDbSymbolTableRecord
100
AcDbLinetypeTableRecord
70
0
2
CENTER
3
____ _ ____ _ ____ _ ____
72
65
73
4
40
47.5
49
22
74
0
49
-8.5
74
0
49
8.5
74
0
49
-8.5
74
0
0
LTYPE
5
6F
100
AcDbSymbolTableRecord
100
AcDbLinetypeTableRecord
70
0
2
DASHED
3
__ __ __ __ __ __ __ __ __
72
65
73
2
40
25.72
49
12.86
74
0
49
-12.86
74
0
0
ENDTAB
0
TABLE
2
LAYER
5
448
100
AcDbSymbolTable
0
LAYER
5
10
100
AcDbSymbolTableRecord
100
AcDbLayerTableRecord
2
0
70
0
62
7
6
Continuous
290
1
370
-3
390
0
0
LAYER
5
71
100
AcDbSymbolTableRecord
100
AcDbLayerTableRecord
2
1
70
0
62
4
6
Continuous
290
1
370
-3
390
0
0
LAYER
5
73
100
AcDbSymbolTableRecord
100
AcDbLayerTableRecord
2
80
70
0
62
-6
6
Continuous
290
1
370
-3
390
0
0
LAYER
5
75
100
AcDbSymbolTableRecord
100
AcDbLayerTableRecord
2
81
70
0
62
-3
6
Continuous
290
1
370
-3
390
0
0
LAYER
5
14C
100
AcDbSymbolTableRecord
100
AcDbLayerTableRecord
2
4
70
0
62
-2
6
CENTER
290
1
370
-3
390
0
0
LAYER
5
187
100
AcDbSymbolTableRecord
100
AcDbLayerTableRecord
2
2
70
0
62
7
6
Continuous
290
1
370
-3
390
0
0
LAYER
5
35B
100
AcDbSymbolTableRecord
100
AcDbLayerTableRecord
2
Defpoints
70
0
62
7
6
Continuous
290
0
370
-3
390
0
0
LAYER
5
432
100
AcDbSymbolTableRecord
100
AcDbLayerTableRecord
2
SK1
70
0
62
4
6
Continuous
290
1
370
-3
390
0
0
LAYER
5
433
100
AcDbSymbolTableRecord
100
AcDbLayerTableRecord
2
SK4
70
0
62
2
6
CENTER
290
1
370
-3
390
0
0
LAYER
5
434
100
AcDbSymbolTableRecord
100
AcDbLayerTableRecord
2
SK2
70
0
62
7
6
Continuous
290
1
370
-3
390
0
0
LAYER
5
435
100
AcDbSymbolTableRecord
100
AcDbLayerTableRecord
2
SK6
70
0
62
5
6
Continuous
290
1
370
-3
390
0
0
ENDTAB
0
TABLE
2
STYLE
5
449
100
AcDbSymbolTable
0
STYLE
5
11
100
AcDbSymbolTableRecord
100
AcDbTextStyleTableRecord
2
Standard
3
txt
70
0
71
0
40
0
41
1
42
0
50
0
0
STYLE
5
336
100
AcDbSymbolTableRecord
100
AcDbTextStyleTableRecord
2
iso_b_vert
3
simplex.shx
70
0
71
0
40
0
41
1
42
0
50
0
0
STYLE
5
337
100
AcDbSymbolTableRecord
100
AcDbTextStyleTableRecord
2
DWGDirectTextStyle
3
simplex
70
0
71
0
40
0
41
1
42
0
50
0
0
ENDTAB
0
TABLE
2
DIMSTYLE
5
44a
100
AcDbSymbolTable
100
AcDbDimStyleTable
0
DIMSTYLE
105
27
100
AcDbSymbolTableRecord
100
AcDbDimStyleTableRecord
2
Standard
70
0
3
<>
41
0.18
42
0.0625
44
0.18
140
0.18
147
0.09
73
0
74
0
77
1
271
2
275
0
278
52
280
0
340
11
0
ENDTAB
0
TABLE
2
VIEW
5
44b
100
AcDbSymbolTable
0
ENDTAB
0
TABLE
2
UCS
5
44c
100
AcDbSymbolTable
0
ENDTAB
0
TABLE
2
APPID
5
44d
100
AcDbSymbolTable
0
APPID
5
12
100
AcDbSymbolTableRecord
100
AcDbRegAppTableRecord
2
ACAD
70
0
0
APPID
5
357
100
AcDbSymbolTableRecord
100
AcDbRegAppTableRecord
2
ACAD_DSTYLE_DIMBREAK
70
0
0
APPID
5
3F1
100
AcDbSymbolTableRecord
100
AcDbRegAppTableRecord
2
ACAD_DSTYLE_DIM_LINETYPE
70
0
0
APPID
5
3F2
100
AcDbSymbolTableRecord
100
AcDbRegAppTableRecord
2
ACAD_DSTYLE_DIM_EXT1_LINETYPE
70
0
0
APPID
5
3F3
100
AcDbSymbolTableRecord
100
AcDbRegAppTableRecord
2
ACAD_DSTYLE_DIM_EXT2_LINETYPE
70
0
0
APPID
5
42E
100
AcDbSymbolTableRecord
100
AcDbRegAppTableRecord
2
ACAD_MLEADERVER
70
0
0
ENDTAB
0
TABLE
2
BLOCK_RECORD
5
44e
100
AcDbSymbolTable
0
BLOCK_RECORD
5
1F
100
AcDbSymbolTableRecord
100
AcDbBlockTableRecord
2
*Model_Space
340
0
70
0
0
BLOCK_RECORD
5
1B
100
AcDbSymbolTableRecord
100
AcDbBlockTableRecord
2
*Paper_Space
340
0
70
0
0
BLOCK_RECORD
5
23
100
AcDbSymbolTableRecord
100
AcDbBlockTableRecord
2
*Paper_Space0
340
0
70
0
0
BLOCK_RECORD
5
35C
100
AcDbSymbolTableRecord
100
AcDbBlockTableRecord
2
*D1
340
0
70
0
0
BLOCK_RECORD
5
368
100
AcDbSymbolTableRecord
100
AcDbBlockTableRecord
2
_U0
340
0
70
0
0
BLOCK_RECORD
5
374
100
AcDbSymbolTableRecord
100
AcDbBlockTableRecord
2
*D3
340
0
70
0
0
BLOCK_RECORD
5
380
100
AcDbSymbolTableRecord
100
AcDbBlockTableRecord
2
_U1
340
0
70
0
0
BLOCK_RECORD
5
38C
100
AcDbSymbolTableRecord
100
AcDbBlockTableRecord
2
*D5
340
0
70
0
0
BLOCK_RECORD
5
398
100
AcDbSymbolTableRecord
100
AcDbBlockTableRecord
2
_U2
340
0
70
0
0
BLOCK_RECORD
5
3A4
100
AcDbSymbolTableRecord
100
AcDbBlockTableRecord
2
*D7
340
0
70
0
0
BLOCK_RECORD
5
3B0
100
AcDbSymbolTableRecord
100
AcDbBlockTableRecord
2
_U3
340
0
70
0
0
BLOCK_RECORD
5
3BC
100
AcDbSymbolTableRecord
100
AcDbBlockTableRecord
2
*D9
340
0
70
0
0
BLOCK_RECORD
5
3CA
100
AcDbSymbolTableRecord
100
AcDbBlockTableRecord
2
_U4
340
0
70
0
0
ENDTAB
0
ENDSEC
0
SECTION
2
BLOCKS
0
BLOCK
5
20
100
AcDbEntity
8
0
100
AcDbBlockBegin
2
*Model_Space
70
0
10
0
20
0
30
0
3
*Model_Space
0
ENDBLK
5
21
100
AcDbEntity
8
0
100
AcDbBlockEnd
0
BLOCK
5
1C
100
AcDbEntity
8
0
100
AcDbBlockBegin
2
*Paper_Space
70
0
10
0
20
0
30
0
3
*Paper_Space
0
ENDBLK
5
1D
100
AcDbEntity
8
0
100
AcDbBlockEnd
0
BLOCK
5
24
100
AcDbEntity
8
0
100
AcDbBlockBegin
2
*Paper_Space0
70
0
10
0
20
0
30
0
3
*Paper_Space0
0
ENDBLK
5
25
100
AcDbEntity
8
0
100
AcDbBlockEnd
0
BLOCK
5
35D
100
AcDbEntity
8
0
100
AcDbBlockBegin
2
*D1
70
1
10
0
20
0
30
0
3
*D1
0
LINE
5
35F
100
AcDbEntity
8
0
62
256
6
ByLayer
370
-2
48
1
60
0
100
AcDbLine
10
0
20
-21.3375
30
0
11
0
21
-71.786438
31
0
39
0
210
0
220
0
230
1
0
LINE
5
360
100
AcDbEntity
8
0
62
256
6
ByLayer
370
-2
48
1
60
0
100
AcDbLine
10
197
20
-15.5875
30
0
11
197
21
-71.786438
31
0
39
0
210
0
220
0
230
1
0
LINE
5
361
100
AcDbEntity
8
0
62
256
6
ByLayer
370
-2
48
1
60
0
100
AcDbLine
10
4.175
20
-68.611438
30
0
11
192.825
21
-68.611438
31
0
39
0
210
0
220
0
230
1
0
SOLID
5
362
100
AcDbEntity
8
0
62
256
6
ByLayer
370
-1
48
1
60
0
100
AcDbTrace
10
4.175
20
-67.915604
30
0
11
4.175
21
-69.307271
31
0
12
0
22
-68.611438
32
0
13
0
23
-68.611438
33
0
39
0
210
0
220
0
230
1
0
SOLID
5
363
100
AcDbEntity
8
0
62
256
6
ByLayer
370
-1
48
1
60
0
100
AcDbTrace
10
192.825
20
-69.307271
30
0
11
192.825
21
-67.915604
31
0
12
197
22
-68.611438
32
0
13
197
23
-68.611438
33
0
39
0
210
0
220
0
230
1
0
MTEXT
5
364
100
AcDbEntity
8
0
62
256
6
ByLayer
370
18
48
1
60
0
100
AcDbMText
10
98.5
20
-59.217688
30
0
210
0
220
0
230
1
1
\A1;197
40
4.5
41
0
44
1
50
0
71
5
72
5
7
iso_b_vert
0
POINT
5
365
100
AcDbEntity
8
Defpoints
62
0
6
ByLayer
370
-1
48
1
60
0
100
AcDbPoint
10
0
20
-19.75
30
0
39
0
210
0
220
0
230
1
50
360
0
POINT
5
366
100
AcDbEntity
8
Defpoints
62
0
6
ByLayer
370
-1
48
1
60
0
100
AcDbPoint
10
197
20
-14
30
0
39
0
210
0
220
0
230
1
50
360
0
POINT
5
367
100
AcDbEntity
8
Defpoints
62
0
6
ByLayer
370
-1
48
1
60
0
100
AcDbPoint
10
197
20
-68.611438
30
0
39
0
210
0
220
0
230
1
50
360
0
ENDBLK
5
35E
100
AcDbEntity
8
0
100
AcDbBlockEnd
0
BLOCK
5
36F
100
AcDbEntity
8
0
100
AcDbBlockBegin
2
_U0
70
0
10
0
20
0
30
0
3
_U0
0
MTEXT
5
369
100
AcDbEntity
8
2
62
256
6
ByLayer
370
18
48
1
60
0
100
AcDbMText
10
94.931801
20
-67.283766
30
0
210
0
220
0
230
1
1
\W0.6217;197
40
4.5
41
0
44
1.084337
50
0
71
7
72
5
7
iso_b_vert
0
LINE
5
36A
100
AcDbEntity
8
2
62
256
6
ByLayer
370
13
48
1
60
0
100
AcDbLine
10
0
20
-21.3375
30
0
11
0
21
-71.786438
31
0
39
0
210
0
220
0
230
1
0
LINE
5
36B
100
AcDbEntity
8
2
62
256
6
ByLayer
370
13
48
1
60
0
100
AcDbLine
10
197
20
-15.5875
30
0
11
197
21
-71.786438
31
0
39
0
210
0
220
0
230
1
0
LINE
5
36C
100
AcDbEntity
8
2
62
256
6
ByLayer
370
13
48
1
60
0
100
AcDbLine
10
0
20
-68.611438
30
0
11
197
21
-68.611438
31
0
39
0
210
0
220
0
230
1
0
SOLID
5
36D
100
AcDbEntity
8
2
62
256
6
ByLayer
370
18
48
1
60
0
100
AcDbTrace
10
0
20
-68.611438
30
0
11
4.174997
21
-67.685862
31
0
12
4.175003
22
-69.537013
32
0
13
4.175003
23
-69.537013
33
0
39
0
210
0
220
0
230
1
0
SOLID
5
36E
100
AcDbEntity
8
2
62
256
6
ByLayer
370
18
48
1
60
0
100
AcDbTrace
10
197
20
-68.611438
30
0
11
192.825003
21
-69.537013
31
0
12
192.824997
22
-67.685862
32
0
13
192.824997
23
-67.685862
33
0
39
0
210
0
220
0
230
1
0
ENDBLK
5
370
100
AcDbEntity
8
0
100
AcDbBlockEnd
0
BLOCK
5
375
100
AcDbEntity
8
0
100
AcDbBlockBegin
2
*D3
70
1
10
0
20
0
30
0
3
*D3
0
LINE
5
377
100
AcDbEntity
8
0
62
256
6
ByLayer
370
-2
48
1
60
0
100
AcDbLine
10
-60
20
-17.5875
30
0
11
-60
21
-71.786438
31
0
39
0
210
0
220
0
230
1
0
LINE
5
378
100
AcDbEntity
8
0
62
256
6
ByLayer
370
-2
48
1
60
0
100
AcDbLine
10
0
20
-21.3375
30
0
11
0
21
-71.786438
31
0
39
0
210
0
220
0
230
1
0
LINE
5
379
100
AcDbEntity
8
0
62
256
6
ByLayer
370
-2
48
1
60
0
100
AcDbLine
10
-55.825
20
-68.611438
30
0
11
-4.175
21
-68.611438
31
0
39
0
210
0
220
0
230
1
0
SOLID
5
37A
100
AcDbEntity
8
0
62
256
6
ByLayer
370
-1
48
1
60
0
100
AcDbTrace
10
-55.825
20
-67.915604
30
0
11
-55.825
21
-69.307271
31
0
12
-60
22
-68.611438
32
0
13
-60
23
-68.611438
33
0
39
0
210
0
220
0
230
1
0
SOLID
5
37B
100
AcDbEntity
8
0
62
256
6
ByLayer
370
-1
48
1
60
0
100
AcDbTrace
10
-4.175
20
-69.307271
30
0
11
-4.175
21
-67.915604
31
0
12
0
22
-68.611438
32
0
13
0
23
-68.611438
33
0
39
0
210
0
220
0
230
1
0
MTEXT
5
37C
100
AcDbEntity
8
0
62
256
6
ByLayer
370
18
48
1
60
0
100
AcDbMText
10
-30
20
-59.217688
30
0
210
0
220
0
230
1
1
\A1;60
40
4.5
41
0
44
1
50
0
71
5
72
5
7
iso_b_vert
0
POINT
5
37D
100
AcDbEntity
8
Defpoints
62
0
6
ByLayer
370
-1
48
1
60
0
100
AcDbPoint
10
-60
20
-16
30
0
39
0
210
0
220
0
230
1
50
360
0
POINT
5
37E
100
AcDbEntity
8
Defpoints
62
0
6
ByLayer
370
-1
48
1
60
0
100
AcDbPoint
10
0
20
-19.75
30
0
39
0
210
0
220
0
230
1
50
360
0
POINT
5
37F
100
AcDbEntity
8
Defpoints
62
0
6
ByLayer
370
-1
48
1
60
0
100
AcDbPoint
10
0
20
-68.611438
30
0
39
0
210
0
220
0
230
1
50
360
0
ENDBLK
5
376
100
AcDbEntity
8
0
100
AcDbBlockEnd
0
BLOCK
5
387
100
AcDbEntity
8
0
100
AcDbBlockBegin
2
_U1
70
0
10
0
20
0
30
0
3
_U1
0
MTEXT
5
381
100
AcDbEntity
8
SK2
62
256
6
ByLayer
370
18
48
1
60
0
100
AcDbMText
10
-32.449242
20
-67.283766
30
0
210
0
220
0
230
1
1
\W0.6740;60
40
4.5
41
0
44
1.084337
50
0
71
7
72
5
7
iso_b_vert
0
LINE
5
382
100
AcDbEntity
8
SK2
62
256
6
ByLayer
370
13
48
1
60
0
100
AcDbLine
10
-60
20
-17.5875
30
0
11
-60
21
-71.786438
31
0
39
0
210
0
220
0
230
1
0
LINE
5
383
100
AcDbEntity
8
SK2
62
256
6
ByLayer
370
13
48
1
60
0
100
AcDbLine
10
0
20
-21.3375
30
0
11
0
21
-71.786438
31
0
39
0
210
0
220
0
230
1
0
LINE
5
384
100
AcDbEntity
8
SK2
62
256
6
ByLayer
370
13
48
1
60
0
100
AcDbLine
10
-60
20
-68.611438
30
0
11
0
21
-68.611438
31
0
39
0
210
0
220
0
230
1
0
SOLID
5
385
100
AcDbEntity
8
SK2
62
256
6
ByLayer
370
18
48
1
60
0
100
AcDbTrace
10
-60
20
-68.611438
30
0
11
-55.825003
21
-67.685862
31
0
12
-55.824997
22
-69.537013
32
0
13
-55.824997
23
-69.537013
33
0
39
0
210
0
220
0
230
1
0
SOLID
5
386
100
AcDbEntity
8
SK2
62
256
6
ByLayer
370
18
48
1
60
0
100
AcDbTrace
10
0
20
-68.611438
30
0
11
-4.174997
21
-69.537013
31
0
12
-4.175003
22
-67.685862
32
0
13
-4.175003
23
-67.685862
33
0
39
0
210
0
220
0
230
1
0
ENDBLK
5
388
100
AcDbEntity
8
0
100
AcDbBlockEnd
0
BLOCK
5
38D
100
AcDbEntity
8
0
100
AcDbBlockBegin
2
*D5
70
1
10
0
20
0
30
0
3
*D5
0
LINE
5
38F
100
AcDbEntity
8
0
62
256
6
ByLayer
370
-2
48
1
60
0
100
AcDbLine
10
197
20
-15.5875
30
0
11
197
21
-61.786438
31
0
39
0
210
0
220
0
230
1
0
LINE
5
390
100
AcDbEntity
8
0
62
256
6
ByLayer
370
-2
48
1
60
0
100
AcDbLine
10
5.6315
20
-21.3375
30
0
11
5.6315
21
-61.786438
31
0
39
0
210
0
220
0
230
1
0
LINE
5
391
100
AcDbEntity
8
0
62
256
6
ByLayer
370
-2
48
1
60
0
100
AcDbLine
10
192.825
20
-58.611438
30
0
11
9.8065
21
-58.611438
31
0
39
0
210
0
220
0
230
1
0
SOLID
5
392
100
AcDbEntity
8
0
62
256
6
ByLayer
370
-1
48
1
60
0
100
AcDbTrace
10
192.825
20
-59.307271
30
0
11
192.825
21
-57.915604
31
0
12
197
22
-58.611438
32
0
13
197
23
-58.611438
33
0
39
0
210
0
220
0
230
1
0
SOLID
5
393
100
AcDbEntity
8
0
62
256
6
ByLayer
370
-1
48
1
60
0
100
AcDbTrace
10
9.8065
20
-57.915604
30
0
11
9.8065
21
-59.307271
31
0
12
5.6315
22
-58.611438
32
0
13
5.6315
23
-58.611438
33
0
39
0
210
0
220
0
230
1
0
MTEXT
5
394
100
AcDbEntity
8
0
62
256
6
ByLayer
370
18
48
1
60
0
100
AcDbMText
10
101.31575
20
-49.217688
30
0
210
0
220
0
230
1
1
\A1;191.4
40
4.5
41
0
44
1
50
0
71
5
72
5
7
iso_b_vert
0
POINT
5
395
100
AcDbEntity
8
Defpoints
62
0
6
ByLayer
370
-1
48
1
60
0
100
AcDbPoint
10
197
20
-14
30
0
39
0
210
0
220
0
230
1
50
360
0
POINT
5
396
100
AcDbEntity
8
Defpoints
62
0
6
ByLayer
370
-1
48
1
60
0
100
AcDbPoint
10
5.6315
20
-19.75
30
0
39
0
210
0
220
0
230
1
50
360
0
POINT
5
397
100
AcDbEntity
8
Defpoints
62
0
6
ByLayer
370
-1
48
1
60
0
100
AcDbPoint
10
5.6315
20
-58.611438
30
0
39
0
210
0
220
0
230
1
50
360
0
ENDBLK
5
38E
100
AcDbEntity
8
0
100
AcDbBlockEnd
0
BLOCK
5
39F
100
AcDbEntity
8
0
100
AcDbBlockBegin
2
_U2
70
0
10
0
20
0
30
0
3
_U2
0
MTEXT
5
399
100
AcDbEntity
8
SK2
62
256
6
ByLayer
370
18
48
1
60
0
100
AcDbMText
10
95.480108
20
-57.283766
30
0
210
0
220
0
230
1
1
\W0.6413;191.4
40
4.5
41
0
44
1.084337
50
0
71
7
72
5
7
iso_b_vert
0
LINE
5
39A
100
AcDbEntity
8
SK2
62
256
6
ByLayer
370
13
48
1
60
0
100
AcDbLine
10
197
20
-15.5875
30
0
11
197
21
-61.786438
31
0
39
0
210
0
220
0
230
1
0
LINE
5
39B
100
AcDbEntity
8
SK2
62
256
6
ByLayer
370
13
48
1
60
0
100
AcDbLine
10
5.6315
20
-21.3375
30
0
11
5.6315
21
-61.786438
31
0
39
0
210
0
220
0
230
1
0
LINE
5
39C
100
AcDbEntity
8
SK2
62
256
6
ByLayer
370
13
48
1
60
0
100
AcDbLine
10
197
20
-58.611438
30
0
11
5.6315
21
-58.611438
31
0
39
0
210
0
220
0
230
1
0
SOLID
5
39D
100
AcDbEntity
8
SK2
62
256
6
ByLayer
370
18
48
1
60
0
100
AcDbTrace
10
197
20
-58.611438
30
0
11
192.825003
21
-59.537013
31
0
12
192.824997
22
-57.685862
32
0
13
192.824997
23
-57.685862
33
0
39
0
210
0
220
0
230
1
0
SOLID
5
39E
100
AcDbEntity
8
SK2
62
256
6
ByLayer
370
18
48
1
60
0
100
AcDbTrace
10
5.6315
20
-58.611438
30
0
11
9.806497
21
-57.685862
31
0
12
9.806503
22
-59.537013
32
0
13
9.806503
23
-59.537013
33
0
39
0
210
0
220
0
230
1
0
ENDBLK
5
3A0
100
AcDbEntity
8
0
100
AcDbBlockEnd
0
BLOCK
5
3A5
100
AcDbEntity
8
0
100
AcDbBlockBegin
2
*D7
70
1
10
0
20
0
30
0
3
*D7
0
LINE
5
3A7
100
AcDbEntity
8
0
62
256
6
ByLayer
370
-2
48
1
60
0
100
AcDbLine
10
25
20
-15.5875
30
0
11
25
21
-51.786438
31
0
39
0
210
0
220
0
230
1
0
LINE
5
3A8
100
AcDbEntity
8
0
62
256
6
ByLayer
370
-2
48
1
60
0
100
AcDbLine
10
197
20
-15.5875
30
0
11
197
21
-51.786438
31
0
39
0
210
0
220
0
230
1
0
LINE
5
3A9
100
AcDbEntity
8
0
62
256
6
ByLayer
370
-2
48
1
60
0
100
AcDbLine
10
29.175
20
-48.611438
30
0
11
192.825
21
-48.611438
31
0
39
0
210
0
220
0
230
1
0
SOLID
5
3AA
100
AcDbEntity
8
0
62
256
6
ByLayer
370
-1
48
1
60
0
100
AcDbTrace
10
29.175
20
-47.915604
30
0
11
29.175
21
-49.307271
31
0
12
25
22
-48.611438
32
0
13
25
23
-48.611438
33
0
39
0
210
0
220
0
230
1
0
SOLID
5
3AB
100
AcDbEntity
8
0
62
256
6
ByLayer
370
-1
48
1
60
0
100
AcDbTrace
10
192.825
20
-49.307271
30
0
11
192.825
21
-47.915604
31
0
12
197
22
-48.611438
32
0
13
197
23
-48.611438
33
0
39
0
210
0
220
0
230
1
0
MTEXT
5
3AC
100
AcDbEntity
8
0
62
256
6
ByLayer
370
18
48
1
60
0
100
AcDbMText
10
111
20
-39.217688
30
0
210
0
220
0
230
1
1
\A1;172
40
4.5
41
0
44
1
50
0
71
5
72
5
7
iso_b_vert
0
POINT
5
3AD
100
AcDbEntity
8
Defpoints
62
0
6
ByLayer
370
-1
48
1
60
0
100
AcDbPoint
10
25
20
-14
30
0
39
0
210
0
220
0
230
1
50
360
0
POINT
5
3AE
100
AcDbEntity
8
Defpoints
62
0
6
ByLayer
370
-1
48
1
60
0
100
AcDbPoint
10
197
20
-14
30
0
39
0
210
0
220
0
230
1
50
360
0
POINT
5
3AF
100
AcDbEntity
8
Defpoints
62
0
6
ByLayer
370
-1
48
1
60
0
100
AcDbPoint
10
197
20
-48.611438
30
0
39
0
210
0
220
0
230
1
50
360
0
ENDBLK
5
3A6
100
AcDbEntity
8
0
100
AcDbBlockEnd
0
BLOCK
5
3B7
100
AcDbEntity
8
0
100
AcDbBlockBegin
2
_U3
70
0
10
0
20
0
30
0
3
_U3
0
MTEXT
5
3B1
100
AcDbEntity
8
SK2
62
256
6
ByLayer
370
18
48
1
60
0
100
AcDbMText
10
107.431801
20
-47.283766
30
0
210
0
220
0
230
1
1
\W0.6217;172
40
4.5
41
0
44
1.084337
50
0
71
7
72
5
7
iso_b_vert
0
LINE
5
3B2
100
AcDbEntity
8
SK2
62
256
6
ByLayer
370
13
48
1
60
0
100
AcDbLine
10
25
20
-15.5875
30
0
11
25
21
-51.786438
31
0
39
0
210
0
220
0
230
1
0
LINE
5
3B3
100
AcDbEntity
8
SK2
62
256
6
ByLayer
370
13
48
1
60
0
100
AcDbLine
10
197
20
-15.5875
30
0
11
197
21
-51.786438
31
0
39
0
210
0
220
0
230
1
0
LINE
5
3B4
100
AcDbEntity
8
SK2
62
256
6
ByLayer
370
13
48
1
60
0
100
AcDbLine
10
25
20
-48.611438
30
0
11
197
21
-48.611438
31
0
39
0
210
0
220
0
230
1
0
SOLID
5
3B5
100
AcDbEntity
8
SK2
62
256
6
ByLayer
370
18
48
1
60
0
100
AcDbTrace
10
25
20
-48.611438
30
0
11
29.174997
21
-47.685862
31
0
12
29.175003
22
-49.537013
32
0
13
29.175003
23
-49.537013
33
0
39
0
210
0
220
0
230
1
0
SOLID
5
3B6
100
AcDbEntity
8
SK2
62
256
6
ByLayer
370
18
48
1
60
0
100
AcDbTrace
10
197
20
-48.611438
30
0
11
192.825003
21
-49.537013
31
0
12
192.824997
22
-47.685862
32
0
13
192.824997
23
-47.685862
33
0
39
0
210
0
220
0
230
1
0
ENDBLK
5
3B8
100
AcDbEntity
8
0
100
AcDbBlockEnd
0
BLOCK
5
3BD
100
AcDbEntity
8
0
100
AcDbBlockBegin
2
*D9
70
1
10
0
20
0
30
0
3
*D9
0
LINE
5
3BF
100
AcDbEntity
8
0
62
256
6
ByLayer
370
-2
48
1
60
0
100
AcDbLine
10
196.1684
20
-8.5875
30
0
11
196.1684
21
-41.786438
31
0
39
0
210
0
220
0
230
1
0
LINE
5
3C0
100
AcDbEntity
8
0
62
256
6
ByLayer
370
-2
48
1
60
0
100
AcDbLine
10
197
20
-1.5875
30
0
11
197
21
-41.786438
31
0
39
0
210
0
220
0
230
1
0
LINE
5
3C1
100
AcDbEntity
8
0
62
256
6
ByLayer
370
-2
48
1
60
0
100
AcDbLine
10
197
20
-38.611438
30
0
11
233.351786
21
-38.611438
31
0
39
0
210
0
220
0
230
1
0
LINE
5
3C2
100
AcDbEntity
8
0
62
256
6
ByLayer
370
-2
48
1
60
0
100
AcDbLine
10
191.9934
20
-38.611438
30
0
11
187.8184
21
-38.611438
31
0
39
0
210
0
220
0
230
1
0
LINE
5
3C3
100
AcDbEntity
8
0
62
256
6
ByLayer
370
-2
48
1
60
0
100
AcDbLine
10
201.175
20
-38.611438
30
0
11
205.35
21
-38.611438
31
0
39
0
210
0
220
0
230
1
0
SOLID
5
3C4
100
AcDbEntity
8
0
62
256
6
ByLayer
370
-1
48
1
60
0
100
AcDbTrace
10
191.9934
20
-39.307271
30
0
11
191.9934
21
-37.915604
31
0
12
196.1684
22
-38.611438
32
0
13
196.1684
23
-38.611438
33
0
39
0
210
0
220
0
230
1
0
SOLID
5
3C5
100
AcDbEntity
8
0
62
256
6
ByLayer
370
-1
48
1
60
0
100
AcDbTrace
10
201.175
20
-37.915604
30
0
11
201.175
21
-39.307271
31
0
12
197
22
-38.611438
32
0
13
197
23
-38.611438
33
0
39
0
210
0
220
0
230
1
0
MTEXT
5
3C6
100
AcDbEntity
8
0
62
256
6
ByLayer
370
18
48
1
60
0
100
AcDbMText
10
219.350893
20
-29.217688
30
0
210
0
220
0
230
1
1
\A1;0.83
40
4.5
41
0
44
1
50
0
71
5
72
5
7
iso_b_vert
0
POINT
5
3C7
100
AcDbEntity
8
Defpoints
62
0
6
ByLayer
370
-1
48
1
60
0
100
AcDbPoint
10
196.1684
20
-7
30
0
39
0
210
0
220
0
230
1
50
360
0
POINT
5
3C8
100
AcDbEntity
8
Defpoints
62
0
6
ByLayer
370
-1
48
1
60
0
100
AcDbPoint
10
197
20
0
30
0
39
0
210
0
220
0
230
1
50
360
0
POINT
5
3C9
100
AcDbEntity
8
Defpoints
62
0
6
ByLayer
370
-1
48
1
60
0
100
AcDbPoint
10
197
20
-38.611438
30
0
39
0
210
0
220
0
230
1
50
360
0
ENDBLK
5
3BE
100
AcDbEntity
8
0
100
AcDbBlockEnd
0
BLOCK
5
3D1
100
AcDbEntity
8
0
100
AcDbBlockBegin
2
_U4
70
0
10
0
20
0
30
0
3
_U4
0
MTEXT
5
3CB
100
AcDbEntity
8
2
62
256
6
ByLayer
370
18
48
1
60
0
100
AcDbMText
10
209.351
20
-37.283766
30
0
210
0
220
0
230
1
1
\W0.7346;0.83
40
4.5
41
0
44
1.084337
50
0
71
7
72
5
7
iso_b_vert
0
LINE
5
3CC
100
AcDbEntity
8
2
62
256
6
ByLayer
370
13
48
1
60
0
100
AcDbLine
10
196.1684
20
-8.5875
30
0
11
196.1684
21
-41.786438
31
0
39
0
210
0
220
0
230
1
0
LINE
5
3CD
100
AcDbEntity
8
2
62
256
6
ByLayer
370
13
48
1
60
0
100
AcDbLine
10
197
20
-1.5875
30
0
11
197
21
-41.786438
31
0
39
0
210
0
220
0
230
1
0
LINE
5
3CE
100
AcDbEntity
8
2
62
256
6
ByLayer
370
13
48
1
60
0
100
AcDbLine
10
219.673869
20
-38.611438
30
0
11
184.9184
21
-38.611438
31
0
39
0
210
0
220
0
230
1
0
SOLID
5
3CF
100
AcDbEntity
8
2
62
256
6
ByLayer
370
18
48
1
60
0
100
AcDbTrace
10
196.1684
20
-38.611438
30
0
11
191.993403
21
-39.537013
31
0
12
191.993397
22
-37.685862
32
0
13
191.993397
23
-37.685862
33
0
39
0
210
0
220
0
230
1
0
SOLID
5
3D0
100
AcDbEntity
8
2
62
256
6
ByLayer
370
18
48
1
60
0
100
AcDbTrace
10
197
20
-38.611438
30
0
11
201.174997
21
-37.685862
31
0
12
201.175003
22
-39.537013
32
0
13
201.175003
23
-39.537013
33
0
39
0
210
0
220
0
230
1
0
ENDBLK
5
3D2
100
AcDbEntity
8
0
100
AcDbBlockEnd
0
ENDSEC
0
SECTION
2
ENTITIES
0
ARC
5
190
100
AcDbEntity
8
SK1
62
256
6
ByLayer
370
13
48
1
60
0
100
AcDbCircle
39
0
10
-57.894505
20
-16.396
30
0
40
0.800000000000005
210
0
220
0
230
1
100
AcDbArc
50
70.982
51
141
0
ARC
5
191
100
AcDbEntity
8
SK1
62
256
6
ByLayer
370
13
48
1
60
0
100
AcDbCircle
39
0
10
-57.894505
20
16.396
30
0
40
0.800000000000005
210
0
220
0
230
1
100
AcDbArc
50
219
51
289.018
0
ARC
5
192
100
AcDbEntity
8
SK1
62
256
6
ByLayer
370
13
48
1
60
0
100
AcDbCircle
39
0
10
-0.15
20
16.146
30
0
40
0.400000000000002
210
0
220
0
230
1
100
AcDbArc
50
270
51
292.024313
0
ARC
5
193
100
AcDbEntity
8
SK1
62
256
6
ByLayer
370
13
48
1
60
0
100
AcDbCircle
39
0
10
-0.15
20
-16.146
30
0
40
0.400000000000002
210
0
220
0
230
1
100
AcDbArc
50
67.975687
51
90
0
ARC
5
194
100
AcDbEntity
8
SK1
62
256
6
ByLayer
370
13
48
1
60
0
100
AcDbCircle
39
0
10
-1.375195
20
16.146
30
0
40
0.399999999999999
210
0
220
0
230
1
100
AcDbArc
50
245
51
270
0
ARC
5
195
100
AcDbEntity
8
SK1
62
256
6
ByLayer
370
13
48
1
60
0
100
AcDbCircle
39
0
10
-1.375195
20
-16.146
30
0
40
0.399999999999999
210
0
220
0
230
1
100
AcDbArc
50
90
51
115
0
ARC
5
196
100
AcDbEntity
8
1
62
256
6
ByLayer
370
13
48
1
60
0
100
AcDbCircle
39
0
10
194.378455
20
12.926321
30
0
40
0.15
210
0
220
0
230
1
100
AcDbArc
50
8.974534
51
93
0
ARC
5
197
100
AcDbEntity
8
1
62
256
6
ByLayer
370
13
48
1
60
0
100
AcDbCircle
39
0
10
194.45632
20
4.900601
30
0
40
0.15
210
0
220
0
230
1
100
AcDbArc
50
273
51
352.543899
0
ARC
5
198
100
AcDbEntity
8
1
62
256
6
ByLayer
370
13
48
1
60
0
100
AcDbCircle
39
0
10
186.127795
20
12.346394
30
0
40
0.15
210
0
220
0
230
1
100
AcDbArc
50
76.216353
51
93
0
ARC
5
199
100
AcDbEntity
8
1
62
256
6
ByLayer
370
13
48
1
60
0
100
AcDbCircle
39
0
10
186.20566
20
4.320675
30
0
40
0.15
210
0
220
0
230
1
100
AcDbArc
50
273
51
302.692275
0
ELLIPSE
5
19A
100
AcDbEntity
8
1
62
256
6
ByLayer
370
13
48
1
60
0
100
AcDbEllipse
10
186.127795
20
12.346394
30
0
11
0.00785039343644706
21
-0.149794430213186
31
0
210
0
220
0
230
1
40
0.995725
41
-3.14158987498257
42
-1.75405589825431
0
ELLIPSE
5
19B
100
AcDbEntity
8
1
62
256
6
ByLayer
370
13
48
1
60
0
100
AcDbEllipse
10
185.3015
20
8.101341
30
0
11
-0.148163665863161
21
-0.0233993187505466
31
0
210
0
220
0
230
1
40
0.009655
41
-3.04959407911989
42
-1.47879775232047
0
ELLIPSE
5
19C
100
AcDbEntity
8
1
62
256
6
ByLayer
370
13
48
1
60
0
100
AcDbEllipse
10
185.287136
20
5.213344
30
0
11
-0.0915879234251505
21
1.74760168582051
31
0
210
0
220
0
230
1
40
0.995725
41
3.10867844596308
42
3.13286600732979
0
ELLIPSE
5
19D
100
AcDbEntity
8
1
62
256
6
ByLayer
370
13
48
1
60
0
100
AcDbEllipse
10
193.689144
20
3.258936
30
0
11
-1.11484466978513
21
-1.17454029851274
31
0
210
0
220
0
230
1
40
0.721129
41
2.66179706889173
42
-2.99115251878024
0
ELLIPSE
5
19E
100
AcDbEntity
8
1
62
256
6
ByLayer
370
13
48
1
60
0
100
AcDbEllipse
10
196.690921
20
9.106088
30
0
11
0.148163665863162
21
0.0233993187505403
31
0
210
0
220
0
230
1
40
0.009655
41
0.0919985744723613
42
1.66279490126857
0
ELLIPSE
5
19F
100
AcDbEntity
8
1
62
256
6
ByLayer
370
13
48
1
60
0
100
AcDbEllipse
10
195.273391
20
9.145171
30
0
11
0.148163665863162
21
0.0233993187505403
31
0
210
0
220
0
230
1
40
0.009655
41
1.66279490126819
42
2.86108759533098
0
ELLIPSE
5
1A0
100
AcDbEntity
8
1
62
256
6
ByLayer
370
13
48
1
60
0
100
AcDbEllipse
10
193.104438
20
14.313484
30
0
11
0.0732703387401724
21
-1.3980813486564
31
0
210
0
220
0
230
1
40
0.995725
41
0
42
0.499480957373715
0
ELLIPSE
5
1A1
100
AcDbEntity
8
1
62
256
6
ByLayer
370
13
48
1
60
0
100
AcDbEllipse
10
193.482638
20
14.333305
30
0
11
-0.0732703387401206
21
1.3980813486564
31
0
210
0
220
0
230
1
40
0.995725
41
3.14159265358977
42
-1.98892518297755
0
ELLIPSE
5
1A2
100
AcDbEntity
8
1
62
256
6
ByLayer
370
13
48
1
60
0
100
AcDbEllipse
10
186.20566
20
4.320675
30
0
11
0.00785039343644706
21
-0.149794430213186
31
0
210
0
220
0
230
1
40
0.995725
41
-1.46607657167532
42
-1.55852541275569E-05
0
ELLIPSE
5
1A3
100
AcDbEntity
8
1
62
256
6
ByLayer
370
13
48
1
60
0
100
AcDbEllipse
10
194.74058
20
4.80534
30
0
11
-0.0435852065194133
21
-0.158111345871721
31
0
210
0
220
0
230
1
40
0.080185
41
-1.54411081848738
42
0.0266855082525864
0
ELLIPSE
5
1A4
100
AcDbEntity
8
1
62
256
6
ByLayer
370
13
48
1
60
0
100
AcDbEllipse
10
186.137425
20
8.234121
30
0
11
-0.0366351693700601
21
0.699040674328202
31
0
210
0
220
0
230
1
40
0.995725
41
1.38753675533552
42
1.67551608191455
0
ELLIPSE
5
1A5
100
AcDbEntity
8
1
62
256
6
ByLayer
370
13
48
1
60
0
100
AcDbEllipse
10
186.142038
20
8.234363
30
0
11
0.0366351693700863
21
-0.699040674328201
31
0
210
0
220
0
230
1
40
0.995725
41
-1.75405589825427
42
-1.46607657167524
0
ELLIPSE
5
1A6
100
AcDbEntity
8
1
62
256
6
ByLayer
370
13
48
1
60
0
100
AcDbEllipse
10
184.330271
20
12.817925
30
0
11
-0.04359955907527
21
-0.25756036742368
31
0
210
0
220
0
230
1
40
0.953152
41
-2.83905801144568
42
-1.86622065621956
0
ELLIPSE
5
1A7
100
AcDbEntity
8
1
62
256
6
ByLayer
370
13
48
1
60
0
100
AcDbEllipse
10
185.562451
20
3.503938
30
0
11
-0.1401623457184
21
0.0534276786199424
31
0
210
0
220
0
230
1
40
0.037507
41
1.48622321389566
42
3.05701954069289
0
ELLIPSE
5
1A8
100
AcDbEntity
8
1
62
256
6
ByLayer
370
13
48
1
60
0
100
AcDbEllipse
10
196.174812
20
5.020288
30
0
11
-0.0222321776352785
21
0.148343285246058
31
0
210
0
220
0
230
1
40
0.091945
41
1.56190521945488
42
3.1327015462504
0
ELLIPSE
5
1A9
100
AcDbEntity
8
1
62
256
6
ByLayer
370
13
48
1
60
0
100
AcDbEllipse
10
195.012439
20
13.742574
30
0
11
0.1401623457184
21
-0.0534276786199411
31
0
210
0
220
0
230
1
40
0.037507
41
3.0570195406902
42
-1.65536943969377
0
ELLIPSE
5
1AA
100
AcDbEntity
8
1
62
256
6
ByLayer
370
13
48
1
60
0
100
AcDbEllipse
10
187.096865
20
2.913449
30
0
11
-0.0785039343644146
21
1.49794430213187
31
0
210
0
220
0
230
1
40
0.995725
41
0.715943825887328
42
1.15266747061224
0
ELLIPSE
5
1AB
100
AcDbEntity
8
1
62
256
6
ByLayer
370
13
48
1
60
0
100
AcDbEllipse
10
185.305585
20
5.214311
30
0
11
0.0994383168616628
21
-1.89739611603369
31
0
210
0
220
0
230
1
40
0.995725
41
-0.0329142076267746
42
-0.00872664626005121
0
ELLIPSE
5
1AC
100
AcDbEntity
8
1
62
256
6
ByLayer
370
13
48
1
60
0
100
AcDbEllipse
10
193.46419
20
14.332338
30
0
11
0.0863543278009178
21
-1.64773873234505
31
0
210
0
220
0
230
1
40
0.995725
41
0.731800432598546
42
1.15266747061225
0
ELLIPSE
5
1AD
100
AcDbEntity
8
1
62
256
6
ByLayer
370
13
48
1
60
0
100
AcDbEllipse
10
185.502117
20
3.521106
30
0
11
-0.0026167978121472
21
0.0499314767377297
31
0
210
0
220
0
230
1
40
0.995725
41
3.13286600732995
42
-1.98892518297783
0
ELLIPSE
5
1AE
100
AcDbEntity
8
1
62
256
6
ByLayer
370
13
48
1
60
0
100
AcDbEllipse
10
195.260081
20
12.031718
30
0
11
-0.0915879234251505
21
1.74760168582051
31
0
210
0
220
0
230
1
40
0.995725
41
-0.0329142076267083
42
-0.00872664625998658
0
ELLIPSE
5
1AF
100
AcDbEntity
8
1
62
256
6
ByLayer
370
13
48
1
60
0
100
AcDbEllipse
10
194.455914
20
9.013358
30
0
11
-0.0287847759336186
21
0.549246244115016
31
0
210
0
220
0
230
1
40
0.995725
41
-1.75405589825426
42
-1.46607657167522
0
ELLIPSE
5
1B0
100
AcDbEntity
8
1
62
256
6
ByLayer
370
13
48
1
60
0
100
AcDbEllipse
10
195.574471
20
13.332357
30
0
11
0.0314015737457884
21
-0.599177720852747
31
0
210
0
220
0
230
1
40
0.995725
41
1.67551608191457
42
3.06978710609699
0
ELLIPSE
5
1B1
100
AcDbEntity
8
1
62
256
6
ByLayer
370
13
48
1
60
0
100
AcDbEllipse
10
184.331131
20
8.210962
30
0
11
0.0314015737457877
21
-0.599177720852734
31
0
210
0
220
0
230
1
40
0.995725
41
-1.75405589825437
42
-1.46607657167527
0
ELLIPSE
5
1B2
100
AcDbEntity
8
1
62
256
6
ByLayer
370
13
48
1
60
0
100
AcDbEllipse
10
184.85771
20
13.188032
30
0
11
-0.375441693986125
21
0.231127675663674
31
0
210
0
220
0
230
1
40
0.479615
41
-1.75989333429631
42
-0.781758788887032
0
ELLIPSE
5
1B3
100
AcDbEntity
8
1
62
256
6
ByLayer
370
13
48
1
60
0
100
AcDbEllipse
10
193.477292
20
14.333025
30
0
11
-1.25140277683002
21
-1.09295639775672
31
0
210
0
220
0
230
1
40
0.728886
41
1.24780201390693
42
1.87803773340792
0
ELLIPSE
5
1B4
100
AcDbEntity
8
1
62
256
6
ByLayer
370
13
48
1
60
0
100
AcDbEllipse
10
186.155874
20
8.235088
30
0
11
-0.0287847759336186
21
0.549246244115016
31
0
210
0
220
0
230
1
40
0.995725
41
1.38753675533553
42
1.67551608191458
0
ELLIPSE
5
1B5
100
AcDbEntity
8
1
62
256
6
ByLayer
370
13
48
1
60
0
100
AcDbEllipse
10
184.404691
20
12.226465
30
0
11
0.00785039343644727
21
-0.14979443021319
31
0
210
0
220
0
230
1
40
0.995725
41
-3.04559954473105
42
-1.7540558982545
0
ELLIPSE
5
1B6
100
AcDbEntity
8
1
62
256
6
ByLayer
370
13
48
1
60
0
100
AcDbEllipse
10
186.127795
20
12.346394
30
0
11
0.148731686424787
21
-0.0194649801756638
31
0
210
0
220
0
230
1
40
0.016833
41
1.4798342364841
42
3.05063056328133
0
ELLIPSE
5
1B7
100
AcDbEntity
8
1
62
256
6
ByLayer
370
13
48
1
60
0
100
AcDbEllipse
10
195.063549
20
13.724923
30
0
11
0.0104671912485961
21
-0.199725906950915
31
0
210
0
220
0
230
1
40
0.995725
41
3.13286600733067
42
-1.98892518297753
0
ELLIPSE
5
1B8
100
AcDbEntity
8
1
62
256
6
ByLayer
370
13
48
1
60
0
100
AcDbEllipse
10
194.378455
20
12.926321
30
0
11
-0.0810190291751486
21
0.126237541609128
31
0
210
0
220
0
230
1
40
0.080326
41
-1.61656729692057
42
-0.0457709701246603
0
ELLIPSE
5
1B9
100
AcDbEntity
8
1
62
256
6
ByLayer
370
13
48
1
60
0
100
AcDbEllipse
10
185.896895
20
12.500658
30
0
11
0.00523359562429742
21
-0.0998629534754455
31
0
210
0
220
0
230
1
40
0.995725
41
1.38753675533574
42
-3.04559954472956
0
ELLIPSE
5
1BA
100
AcDbEntity
8
1
62
256
6
ByLayer
370
13
48
1
60
0
100
AcDbEllipse
10
190.305894
20
8.624223
30
0
11
0.123446836077728
21
-2.35550595286506
31
0
210
0
220
0
230
1
40
0.995725
41
0
42
6.28318530717959
0
ELLIPSE
5
1BB
100
AcDbEntity
8
1
62
256
6
ByLayer
370
13
48
1
60
0
100
AcDbEllipse
10
194.061997
20
3.278476
30
0
11
-0.07327033874012
21
1.3980813486564
31
0
210
0
220
0
230
1
40
0.995725
41
-0.499480957373682
42
-2.07069498106218E-14
0
ELLIPSE
5
1BC
100
AcDbEntity
8
1
62
256
6
ByLayer
370
13
48
1
60
0
100
AcDbEllipse
10
187.101477
20
2.913691
30
0
11
-0.0732703387401206
21
1.3980813486564
31
0
210
0
220
0
230
1
40
0.995725
41
0
42
1.15266747061217
0
ELLIPSE
5
1BD
100
AcDbEntity
8
1
62
256
6
ByLayer
370
13
48
1
60
0
100
AcDbEllipse
10
190.244534
20
8.621007
30
0
11
0.121012447123835
21
-2.30905504448476
31
0
210
0
220
0
230
1
40
0.995725
41
-0.853733359343731
42
0
0
ELLIPSE
5
1BE
100
AcDbEntity
8
1
62
256
6
ByLayer
370
13
48
1
60
0
100
AcDbEllipse
10
190.244534
20
8.621007
30
0
11
0.121012447123835
21
-2.30905504448476
31
0
210
0
220
0
230
1
40
0.995725
41
0
42
-2.28787047023638
0
ELLIPSE
5
1BF
100
AcDbEntity
8
1
62
256
6
ByLayer
370
13
48
1
60
0
100
AcDbEllipse
10
185.892282
20
12.500416
30
0
11
0.00523359562429742
21
-0.0998629534754455
31
0
210
0
220
0
230
1
40
0.995725
41
1.38753675533574
42
3.11837220864454
0
ELLIPSE
5
1C0
100
AcDbEntity
8
1
62
256
6
ByLayer
370
13
48
1
60
0
100
AcDbEllipse
10
195.27853
20
12.032685
30
0
11
0.0994383168616628
21
-1.89739611603369
31
0
210
0
220
0
230
1
40
0.995725
41
3.10867844596308
42
3.13286600732983
0
ELLIPSE
5
1C1
100
AcDbEntity
8
1
62
256
6
ByLayer
370
13
48
1
60
0
100
AcDbEllipse
10
185.377372
20
3.465738
30
0
11
0.00653729335064122
21
-0.149857478277354
31
0
210
0
220
0
230
1
40
0.092367
41
-1.56998679074977
42
0.000809536045688095
0
ELLIPSE
5
1C2
100
AcDbEntity
8
1
62
256
6
ByLayer
370
13
48
1
60
0
100
AcDbEllipse
10
184.99642
20
3.464489
30
0
11
-0.00296274426889946
21
-0.149970737633703
31
0
210
0
220
0
230
1
40
0.092133
41
-1.56414094857583
42
-0.0695681268493081
0
ELLIPSE
5
1C3
100
AcDbEntity
8
1
62
256
6
ByLayer
370
13
48
1
60
0
100
AcDbEllipse
10
185.150042
20
12.211969
30
0
11
-0.457939617125751
21
8.73800842910252
31
0
210
0
220
0
230
1
40
0.995725
41
3.06978710609691
42
3.10867844596298
0
ELLIPSE
5
1C4
100
AcDbEntity
8
1
62
256
6
ByLayer
370
13
48
1
60
0
100
AcDbEllipse
10
190.494336
20
4.763795
30
0
11
0.00785039343644706
21
-0.149794430213186
31
0
210
0
220
0
230
1
40
0.092371
41
0
42
1.5707963267949
0
ELLIPSE
5
1C5
100
AcDbEntity
8
1
62
256
6
ByLayer
370
13
48
1
60
0
100
AcDbEllipse
10
185.298266
20
8.345255
30
0
11
-0.148731686424787
21
0.0194649801756622
31
0
210
0
220
0
230
1
40
0.016833
41
1.4798342364841
42
3.05063056327851
0
ELLIPSE
5
1C6
100
AcDbEntity
8
1
62
256
6
ByLayer
370
13
48
1
60
0
100
AcDbEllipse
10
196.012408
20
13.402411
30
0
11
0.148163665863162
21
0.0233993187505403
31
0
210
0
220
0
230
1
40
0.009655
41
0.0919985744649635
42
1.66279490126857
0
ELLIPSE
5
1C7
100
AcDbEntity
8
1
62
256
6
ByLayer
370
13
48
1
60
0
100
AcDbEllipse
10
196.248372
20
9.035792
30
0
11
0.0314015737457877
21
-0.599177720852734
31
0
210
0
220
0
230
1
40
0.995725
41
1.38753675533548
42
1.67551608191452
0
ELLIPSE
5
1C8
100
AcDbEntity
8
1
62
256
6
ByLayer
370
13
48
1
60
0
100
AcDbEllipse
10
195.875644
20
4.40925
30
0
11
-0.0435995590706937
21
-0.257560367424915
31
0
210
0
220
0
230
1
40
0.953152
41
0.302534642127773
42
1.2688766858593
0
ELLIPSE
5
1C9
100
AcDbEntity
8
1
62
256
6
ByLayer
370
13
48
1
60
0
100
AcDbEllipse
10
194.841311
20
13.711251
30
0
11
-0.349225564347479
21
-0.269105877391687
31
0
210
0
220
0
230
1
40
0.479615
41
-2.35983386470243
42
-1.38169931929242
0
ELLIPSE
5
1CA
100
AcDbEntity
8
1
62
256
6
ByLayer
370
13
48
1
60
0
100
AcDbEllipse
10
185.518137
20
3.471879
30
0
11
0.00653729335064122
21
-0.149857478277354
31
0
210
0
220
0
230
1
40
0.092367
41
-1.56998679074977
42
-0.0232440763783485
0
ELLIPSE
5
1CB
100
AcDbEntity
8
1
62
256
6
ByLayer
370
13
48
1
60
0
100
AcDbEllipse
10
194.982971
20
9.098549
30
0
11
0.148163665863162
21
0.0233993187505403
31
0
210
0
220
0
230
1
40
0.009655
41
-1.47879775232123
42
-0.000215754775101166
0
ELLIPSE
5
1CC
100
AcDbEntity
8
1
62
256
6
ByLayer
370
13
48
1
60
0
100
AcDbEllipse
10
184.40337
20
12.216081
30
0
11
-0.043599559094401
21
-0.257560367418144
31
0
210
0
220
0
230
1
40
0.953152
41
-2.83905801137449
42
-1.53139650450788
0
ELLIPSE
5
1CD
100
AcDbEntity
8
1
62
256
6
ByLayer
370
13
48
1
60
0
100
AcDbEllipse
10
196.180745
20
5.030915
30
0
11
-0.0435995591019466
21
-0.257560367415892
31
0
210
0
220
0
230
1
40
0.953152
41
0.302534642243713
42
1.61019614911407
0
ELLIPSE
5
1CE
100
AcDbEntity
8
1
62
256
6
ByLayer
370
13
48
1
60
0
100
AcDbEllipse
10
187.083028
20
2.912724
30
0
11
0.0863543278009178
21
-1.64773873234505
31
0
210
0
220
0
230
1
40
0.995725
41
-2.40979222099128
42
-1.98892518297756
0
ELLIPSE
5
1CF
100
AcDbEntity
8
1
62
256
6
ByLayer
370
13
48
1
60
0
100
AcDbEllipse
10
194.590021
20
13.182525
30
0
11
0.00523359562429734
21
-0.0998629534754441
31
0
210
0
220
0
230
1
40
0.995725
41
-2.42564882770162
42
-1.46607657167474
0
ELLIPSE
5
1D0
100
AcDbEntity
8
1
62
256
6
ByLayer
370
13
48
1
60
0
100
AcDbEllipse
10
196.692633
20
8.976956
30
0
11
0.148731686424787
21
-0.0194649801756638
31
0
210
0
220
0
230
1
40
0.016833
41
-1.66175841710551
42
-0.0909620903140981
0
ELLIPSE
5
1D1
100
AcDbEntity
8
1
62
256
6
ByLayer
370
13
48
1
60
0
100
AcDbEllipse
10
194.74058
20
4.80534
30
0
11
-0.157303252984271
21
-0.046073144417294
31
0
210
0
220
0
230
1
40
0.019548
41
-1.48844818371581
42
-0.271753093934824
0
ELLIPSE
5
1D2
100
AcDbEntity
8
1
62
256
6
ByLayer
370
13
48
1
60
0
100
AcDbEllipse
10
193.683797
20
3.258655
30
0
11
0.0732703387401724
21
-1.3980813486564
31
0
210
0
220
0
230
1
40
0.995725
41
2.14406686543237
42
2.81284824856031
0
ELLIPSE
5
1D3
100
AcDbEntity
8
1
62
256
6
ByLayer
370
13
48
1
60
0
100
AcDbEllipse
10
194.378455
20
12.926321
30
0
11
-0.148163665863161
21
-0.0233993187505466
31
0
210
0
220
0
230
1
40
0.009655
41
1.66279490126857
42
3.14137689880979
0
ELLIPSE
5
1D4
100
AcDbEntity
8
1
62
256
6
ByLayer
370
13
48
1
60
0
100
AcDbEllipse
10
186.127795
20
12.346394
30
0
11
-0.0357384400711206
21
-0.145680348370269
31
0
210
0
220
0
230
1
40
0.088467
41
1.59747228714054
42
-3.11491669324648
0
ELLIPSE
5
1D5
100
AcDbEntity
8
1
62
256
6
ByLayer
370
13
48
1
60
0
100
AcDbEllipse
10
194.442077
20
9.012633
30
0
11
0.0366351693700863
21
-0.699040674328201
31
0
210
0
220
0
230
1
40
0.995725
41
1.38753675533552
42
1.67551608191455
0
ELLIPSE
5
1D6
100
AcDbEntity
8
1
62
256
6
ByLayer
370
13
48
1
60
0
100
AcDbEllipse
10
187.101477
20
2.913691
30
0
11
-0.0785039343644146
21
1.49794430213187
31
0
210
0
220
0
230
1
40
0.995725
41
0.715943825887271
42
1.1526674706122
0
ELLIPSE
5
1D7
100
AcDbEntity
8
1
62
256
6
ByLayer
370
13
48
1
60
0
100
AcDbEllipse
10
195.273918
20
12.032443
30
0
11
0.0994383168616628
21
-1.89739611603369
31
0
210
0
220
0
230
1
40
0.995725
41
3.10867844596306
42
3.13286600732982
0
ELLIPSE
5
1D8
100
AcDbEntity
8
1
62
256
6
ByLayer
370
13
48
1
60
0
100
AcDbEllipse
10
185.834311
20
12.441172
30
0
11
-0.157303252991103
21
-0.0460731444193171
31
0
210
0
220
0
230
1
40
0.019548
41
-3.05924451049674
42
-1.4884481837234
0
ELLIPSE
5
1D9
100
AcDbEntity
8
1
62
256
6
ByLayer
370
13
48
1
60
0
100
AcDbEllipse
10
196.252984
20
9.036034
30
0
11
0.0314015737457877
21
-0.599177720852734
31
0
210
0
220
0
230
1
40
0.995725
41
1.38753675533552
42
1.67551608191457
0
ELLIPSE
5
1DA
100
AcDbEntity
8
1
62
256
6
ByLayer
370
13
48
1
60
0
100
AcDbEllipse
10
185.009644
20
3.914638
30
0
11
0.0314015737457884
21
-0.599177720852747
31
0
210
0
220
0
230
1
40
0.995725
41
-1.46607657167527
42
-0.0718055474928534
0
ELLIPSE
5
1DB
100
AcDbEntity
8
1
62
256
6
ByLayer
370
13
48
1
60
0
100
AcDbEllipse
10
195.569859
20
13.332115
30
0
11
0.0314015737457884
21
-0.599177720852747
31
0
210
0
220
0
230
1
40
0.995725
41
1.67551608191452
42
3.06978710609704
0
ELLIPSE
5
1DC
100
AcDbEntity
8
1
62
256
6
ByLayer
370
13
48
1
60
0
100
AcDbEllipse
10
195.411012
20
5.033818
30
0
11
0.465790010562525
21
-8.88780285931569
31
0
210
0
220
0
230
1
40
0.995725
41
3.06978710609692
42
3.10867844596299
0
ELLIPSE
5
1DD
100
AcDbEntity
8
1
62
256
6
ByLayer
370
13
48
1
60
0
100
AcDbEllipse
10
185.335247
20
3.464413
30
0
11
0.00289548769281947
21
-0.149972051232957
31
0
210
0
220
0
230
1
40
0.092321
41
-1.56774352883166
42
-0.0454726900839262
0
ELLIPSE
5
1DE
100
AcDbEntity
8
1
62
256
6
ByLayer
370
13
48
1
60
0
100
AcDbEllipse
10
196.174812
20
5.020288
30
0
11
0.148731686424787
21
-0.0194649801756638
31
0
210
0
220
0
230
1
40
0.016833
41
-1.66175841710548
42
-0.0909620903123466
0
ELLIPSE
5
1DF
100
AcDbEntity
8
1
62
256
6
ByLayer
370
13
48
1
60
0
100
AcDbEllipse
10
195.276625
20
8.901257
30
0
11
0.148731686424787
21
-0.0194649801756638
31
0
210
0
220
0
230
1
40
0.016833
41
-2.86301658541995
42
-1.66175841710589
0
ELLIPSE
5
1E0
100
AcDbEntity
8
1
62
256
6
ByLayer
370
13
48
1
60
0
100
AcDbEllipse
10
190.089779
20
12.483201
30
0
11
0.00785039343644706
21
-0.149794430213186
31
0
210
0
220
0
230
1
40
0.092371
41
1.5707963267949
42
3.14159265358774
0
ELLIPSE
5
1E1
100
AcDbEntity
8
1
62
256
6
ByLayer
370
13
48
1
60
0
100
AcDbEllipse
10
184.562483
20
3.844101
30
0
11
-0.148163665863161
21
-0.0233993187505466
31
0
210
0
220
0
230
1
40
0.009655
41
-1.47879775232088
42
-0.264793552089137
0
ELLIPSE
5
1E2
100
AcDbEntity
8
1
62
256
6
ByLayer
370
13
48
1
60
0
100
AcDbEllipse
10
185.601144
20
8.148446
30
0
11
-0.148163665863161
21
-0.0233993187505466
31
0
210
0
220
0
230
1
40
0.009655
41
0.0919985744699012
42
1.66279490126819
0
ELLIPSE
5
1E3
100
AcDbEntity
8
1
62
256
6
ByLayer
370
13
48
1
60
0
100
AcDbEllipse
10
185.520566
20
3.522073
30
0
11
0.0104671912485961
21
-0.199725906950915
31
0
210
0
220
0
230
1
40
0.995725
41
-0.00872664625926843
42
1.15266747061226
0
ELLIPSE
5
1E4
100
AcDbEntity
8
1
62
256
6
ByLayer
370
13
48
1
60
0
100
AcDbEllipse
10
194.378455
20
12.926321
30
0
11
0.00785039343644706
21
-0.149794430213186
31
0
210
0
220
0
230
1
40
0.995725
41
3.14157761346995
42
-2.62520629028315
0
ELLIPSE
5
1E5
100
AcDbEntity
8
1
62
256
6
ByLayer
370
13
48
1
60
0
100
AcDbEllipse
10
183.883969
20
8.140424
30
0
11
-0.148163665863161
21
-0.0233993187505466
31
0
210
0
220
0
230
1
40
0.009655
41
-1.47879775232104
42
-0.264819008248769
0
ELLIPSE
5
1E6
100
AcDbEntity
8
1
62
256
6
ByLayer
370
13
48
1
60
0
100
AcDbEllipse
10
185.515935
20
3.523855
30
0
11
0.0159614234594919
21
-0.304562102761063
31
0
210
0
220
0
230
1
40
0.995725
41
0.174532925199399
42
1.15266747061209
0
ELLIPSE
5
1E7
100
AcDbEntity
8
1
62
256
6
ByLayer
370
13
48
1
60
0
100
AcDbEllipse
10
185.989482
20
4.064229
30
0
11
0.00523359562429734
21
-0.0998629534754441
31
0
210
0
220
0
230
1
40
0.995725
41
0.715943825888159
42
1.67551608191563
0
ELLIPSE
5
1E8
100
AcDbEntity
8
1
62
256
6
ByLayer
370
13
48
1
60
0
100
AcDbEllipse
10
193.482638
20
14.333305
30
0
11
-0.0785039343644146
21
1.49794430213187
31
0
210
0
220
0
230
1
40
0.995725
41
-2.42564882770244
42
-1.98892518297751
0
ELLIPSE
5
1E9
100
AcDbEntity
8
1
62
256
6
ByLayer
370
13
48
1
60
0
100
AcDbEllipse
10
195.06818
20
13.72314
30
0
11
0.0159614234594919
21
-0.304562102761063
31
0
210
0
220
0
230
1
40
0.995725
41
-2.96705972839027
42
-1.98892518297761
0
ELLIPSE
5
1EA
100
AcDbEntity
8
1
62
256
6
ByLayer
370
13
48
1
60
0
100
AcDbEllipse
10
184.991195
20
3.913672
30
0
11
-0.0235511803093245
21
0.449383290639562
31
0
210
0
220
0
230
1
40
0.995725
41
1.67551608191454
42
3.06978710609702
0
ELLIPSE
5
1EB
100
AcDbEntity
8
1
62
256
6
ByLayer
370
13
48
1
60
0
100
AcDbEllipse
10
194.45632
20
4.900601
30
0
11
-0.148731686424787
21
0.0194649801756622
31
0
210
0
220
0
230
1
40
0.016833
41
-3.14153918958822
42
-1.66175841710567
0
ELLIPSE
5
1EC
100
AcDbEntity
8
1
62
256
6
ByLayer
370
13
48
1
60
0
100
AcDbEllipse
10
195.0451
20
13.723956
30
0
11
-0.0026167978121472
21
0.0499314767377297
31
0
210
0
220
0
230
1
40
0.995725
41
-0.00872664625926942
42
1.15266747061196
0
ELLIPSE
5
1ED
100
AcDbEntity
8
1
62
256
6
ByLayer
370
13
48
1
60
0
100
AcDbEllipse
10
195.397176
20
5.033093
30
0
11
-0.457939617125751
21
8.73800842910252
31
0
210
0
220
0
230
1
40
0.995725
41
-0.0718055474928698
42
-0.0329142076268077
0
ELLIPSE
5
1EE
100
AcDbEntity
8
1
62
256
6
ByLayer
370
13
48
1
60
0
100
AcDbEllipse
10
186.20566
20
4.320675
30
0
11
0.0810190291751406
21
-0.126237541609134
31
0
210
0
220
0
230
1
40
0.080326
41
2.03172933180287E-05
42
1.52502535666941
0
ELLIPSE
5
1EF
100
AcDbEntity
8
1
62
256
6
ByLayer
370
13
48
1
60
0
100
AcDbEllipse
10
193.765641
20
14.348138
30
0
11
-1.60311051886229
21
-1.23532235438928
31
0
210
0
220
0
230
1
40
0.479615
41
1.73694301205276
42
1.75989376797358
0
ELLIPSE
5
1F0
100
AcDbEntity
8
1
62
256
6
ByLayer
370
13
48
1
60
0
100
AcDbEllipse
10
183.882257
20
8.269556
30
0
11
-0.148731686424787
21
0.0194649801756622
31
0
210
0
220
0
230
1
40
0.016833
41
0.26318191249181
42
1.47983423648447
0
ELLIPSE
5
1F1
100
AcDbEntity
8
1
62
256
6
ByLayer
370
13
48
1
60
0
100
AcDbEllipse
10
186.149264
20
13.948979
30
0
11
-1.35879251414461
21
0.956161859051856
31
0
210
0
220
0
230
1
40
0.728886
41
1.26355492017902
42
1.89379063968638
0
ELLIPSE
5
1F2
100
AcDbEntity
8
1
62
256
6
ByLayer
370
13
48
1
60
0
100
AcDbEllipse
10
185.834311
20
12.441172
30
0
11
-0.0435852065165861
21
-0.158111345863163
31
0
210
0
220
0
230
1
40
0.080185
41
-3.11490714533318
42
-1.54411081853376
0
ELLIPSE
5
1F3
100
AcDbEntity
8
1
62
256
6
ByLayer
370
13
48
1
60
0
100
AcDbEllipse
10
185.860912
20
13.933867
30
0
11
-1.72345116441207
21
1.06098313576125
31
0
210
0
220
0
230
1
40
0.479615
41
1.38169938773656
42
1.40465018579553
0
ELLIPSE
5
1F4
100
AcDbEntity
8
1
62
256
6
ByLayer
370
13
48
1
60
0
100
AcDbEllipse
10
186.522118
20
13.968519
30
0
11
-0.07327033874012
21
1.3980813486564
31
0
210
0
220
0
230
1
40
0.995725
41
2.64211169621603
42
3.14159265358971
0
ELLIPSE
5
1F5
100
AcDbEntity
8
1
62
256
6
ByLayer
370
13
48
1
60
0
100
AcDbEllipse
10
196.234536
20
9.035067
30
0
11
-0.023551180309324
21
0.449383290639549
31
0
210
0
220
0
230
1
40
0.995725
41
-1.75405589825432
42
-1.46607657167525
0
ELLIPSE
5
1F6
100
AcDbEntity
8
1
62
256
6
ByLayer
370
13
48
1
60
0
100
AcDbEllipse
10
185.168491
20
12.212936
30
0
11
0.465790010562525
21
-8.88780285931569
31
0
210
0
220
0
230
1
40
0.995725
41
-0.071805547492916
42
-0.032914207626855
0
ELLIPSE
5
1F7
100
AcDbEntity
8
1
62
256
6
ByLayer
370
13
48
1
60
0
100
AcDbEllipse
10
195.578471
20
13.782023
30
0
11
0.0029627442688992
21
0.149970737633703
31
0
210
0
220
0
230
1
40
0.092133
41
0.00665537822012202
42
1.57745170501396
0
ELLIPSE
5
1F8
100
AcDbEntity
8
1
62
256
6
ByLayer
370
13
48
1
60
0
100
AcDbEllipse
10
184.400079
20
12.226224
30
0
11
-0.148731686424787
21
0.0194649801756622
31
0
210
0
220
0
230
1
40
0.016833
41
0.263130755737966
42
1.47983423648466
0
ELLIPSE
5
1F9
100
AcDbEntity
8
1
62
256
6
ByLayer
370
13
48
1
60
0
100
AcDbEllipse
10
194.45632
20
4.900601
30
0
11
0.00785039343644706
21
-0.149794430213186
31
0
210
0
220
0
230
1
40
0.995725
41
-0.291747532450307
42
4.93512716009776E-06
0
ELLIPSE
5
1FA
100
AcDbEntity
8
1
62
256
6
ByLayer
370
13
48
1
60
0
100
AcDbEllipse
10
194.68722
20
4.746337
30
0
11
0.00523359562429742
21
-0.0998629534754455
31
0
210
0
220
0
230
1
40
0.995725
41
-1.75405589825376
42
0.0959931088605118
0
ELLIPSE
5
1FB
100
AcDbEntity
8
1
62
256
6
ByLayer
370
13
48
1
60
0
100
AcDbEllipse
10
194.45632
20
4.900601
30
0
11
0.0357384400711261
21
0.145680348370268
31
0
210
0
220
0
230
1
40
0.088467
41
-3.1149166932422
42
-1.54412036644888
0
ELLIPSE
5
1FC
100
AcDbEntity
8
1
62
256
6
ByLayer
370
13
48
1
60
0
100
AcDbEllipse
10
196.174812
20
5.020288
30
0
11
0.00785039343644727
21
-0.14979443021319
31
0
210
0
220
0
230
1
40
0.995725
41
0.0959931088589722
42
1.38753675533529
0
ELLIPSE
5
1FD
100
AcDbEntity
8
1
62
256
6
ByLayer
370
13
48
1
60
0
100
AcDbEllipse
10
186.123589
20
8.233396
30
0
11
0.0444855628065333
21
-0.848835104541387
31
0
210
0
220
0
230
1
40
0.995725
41
-1.75405589825428
42
-1.46607657167522
0
ELLIPSE
5
1FE
100
AcDbEntity
8
1
62
256
6
ByLayer
370
13
48
1
60
0
100
AcDbEllipse
10
184.400079
20
12.226224
30
0
11
0.0222321776352905
21
-0.148343285246057
31
0
210
0
220
0
230
1
40
0.091945
41
-3.05448529856531
42
-1.57968743413511
0
ELLIPSE
5
1FF
100
AcDbEntity
8
1
62
256
6
ByLayer
370
13
48
1
60
0
100
AcDbEllipse
10
195.556022
20
13.33139
30
0
11
-0.0235511803093245
21
0.449383290639562
31
0
210
0
220
0
230
1
40
0.995725
41
-1.46607657167526
42
-0.0718055474927689
0
ELLIPSE
5
200
100
AcDbEntity
8
1
62
256
6
ByLayer
370
13
48
1
60
0
100
AcDbEllipse
10
195.197519
20
13.780774
30
0
11
-0.00653729335064154
21
0.149857478277354
31
0
210
0
220
0
230
1
40
0.092367
41
0.000809536043604682
42
1.57160586284002
0
ELLIPSE
5
201
100
AcDbEntity
8
1
62
256
6
ByLayer
370
13
48
1
60
0
100
AcDbEllipse
10
185.994094
20
4.06447
30
0
11
0.00523359562429734
21
-0.0998629534754441
31
0
210
0
220
0
230
1
40
0.995725
41
0.715943825887811
42
1.67551608191477
0
ELLIPSE
5
202
100
AcDbEntity
8
1
62
256
6
ByLayer
370
13
48
1
60
0
100
AcDbEllipse
10
185.515954
20
3.521831
30
0
11
0.0104671912485961
21
-0.199725906950915
31
0
210
0
220
0
230
1
40
0.995725
41
0.0114005952937387
42
1.15266747061226
0
ELLIPSE
5
203
100
AcDbEntity
8
1
62
256
6
ByLayer
370
13
48
1
60
0
100
AcDbEllipse
10
194.985063
20
8.940722
30
0
11
0.148731686424787
21
-0.0194649801756638
31
0
210
0
220
0
230
1
40
0.016833
41
5.34640079019429E-05
42
1.47983423648428
0
ELLIPSE
5
204
100
AcDbEntity
8
1
62
256
6
ByLayer
370
13
48
1
60
0
100
AcDbEllipse
10
195.239644
20
13.782099
30
0
11
-0.00289548769282012
21
0.149972051232957
31
0
210
0
220
0
230
1
40
0.092321
41
0.00305279796669836
42
1.57384912475813
0
ELLIPSE
5
205
100
AcDbEntity
8
1
62
256
6
ByLayer
370
13
48
1
60
0
100
AcDbEllipse
10
186.20566
20
4.320675
30
0
11
0.148163665863162
21
0.0233993187505403
31
0
210
0
220
0
230
1
40
0.009655
41
-3.04959407911989
42
-1.47879775232072
0
ELLIPSE
5
206
100
AcDbEntity
8
1
62
256
6
ByLayer
370
13
48
1
60
0
100
AcDbEllipse
10
194.423629
20
9.011666
30
0
11
0.0444855628065333
21
-0.848835104541387
31
0
210
0
220
0
230
1
40
0.995725
41
1.38753675533551
42
1.67551608191457
0
ELLIPSE
5
207
100
AcDbEntity
8
1
62
256
6
ByLayer
370
13
48
1
60
0
100
AcDbEllipse
10
184.312682
20
8.209995
30
0
11
-0.023551180309324
21
0.449383290639549
31
0
210
0
220
0
230
1
40
0.995725
41
1.38753675533547
42
1.67551608191454
0
ELLIPSE
5
208
100
AcDbEntity
8
1
62
256
6
ByLayer
370
13
48
1
60
0
100
AcDbEllipse
10
185.599052
20
8.306273
30
0
11
-0.148731686424787
21
0.0194649801756622
31
0
210
0
220
0
230
1
40
0.016833
41
-1.6617584171057
42
-0.0909620903112785
0
ELLIPSE
5
209
100
AcDbEntity
8
1
62
256
6
ByLayer
370
13
48
1
60
0
100
AcDbEllipse
10
196.179424
20
5.02053
30
0
11
0.00785039343644727
21
-0.14979443021319
31
0
210
0
220
0
230
1
40
0.995725
41
0.0959931088587527
42
1.38753675533529
0
ELLIPSE
5
20A
100
AcDbEntity
8
1
62
256
6
ByLayer
370
13
48
1
60
0
100
AcDbEllipse
10
195.415625
20
5.034059
30
0
11
0.465790010562525
21
-8.88780285931569
31
0
210
0
220
0
230
1
40
0.995725
41
3.06978710609696
42
3.10867844596303
0
ELLIPSE
5
20B
100
AcDbEntity
8
1
62
256
6
ByLayer
370
13
48
1
60
0
100
AcDbEllipse
10
195.056754
20
13.774633
30
0
11
-0.00653729335064154
21
0.149857478277354
31
0
210
0
220
0
230
1
40
0.092367
41
0.000809536045656042
42
1.57160586284002
0
ELLIPSE
5
20C
100
AcDbEntity
8
1
62
256
6
ByLayer
370
18
48
1
60
0
100
AcDbEllipse
10
190.173972
20
8.617309
30
0
11
0.0520428748880196
21
-0.993037209359946
31
0
210
0
220
0
230
1
40
0.995725
41
2.09439510239322
42
-3.14159265358976
0
ELLIPSE
5
20D
100
AcDbEntity
8
1
62
256
6
ByLayer
370
18
48
1
60
0
100
AcDbEllipse
10
191.127261
20
9.238902
30
0
11
-0.16376241827443
21
0.253836478324444
31
0
210
0
220
0
230
1
40
0.486055
41
1.57315770110441
42
2.86004236167002
0
ELLIPSE
5
20E
100
AcDbEntity
8
1
62
256
6
ByLayer
370
18
48
1
60
0
100
AcDbEllipse
10
190.284665
20
8.62311
30
0
11
0.0674636643950137
21
-1.28728340177538
31
0
210
0
220
0
230
1
40
0.995725
41
0.523598775598305
42
1.5707963267949
0
ELLIPSE
5
20F
100
AcDbEntity
8
1
62
256
6
ByLayer
370
18
48
1
60
0
100
AcDbEllipse
10
190.173972
20
8.617309
30
0
11
0.0520428748880196
21
-0.993037209359946
31
0
210
0
220
0
230
1
40
0.995725
41
-1.89506805366492
42
-1.23040823937595
0
ELLIPSE
5
210
100
AcDbEntity
8
1
62
256
6
ByLayer
370
18
48
1
60
0
100
AcDbEllipse
10
191.187013
20
8.098767
30
0
11
-0.136332173611893
21
-0.269563769457541
31
0
210
0
220
0
230
1
40
0.486055
41
-2.86004236166785
42
-1.57315770109549
0
ELLIPSE
5
211
100
AcDbEntity
8
1
62
256
6
ByLayer
370
18
48
1
60
0
100
AcDbEllipse
10
190.173972
20
8.617309
30
0
11
0.0520428748880196
21
-0.993037209359946
31
0
210
0
220
0
230
1
40
0.995725
41
3.14159265358977
42
-2.34675324447649
0
ELLIPSE
5
212
100
AcDbEntity
8
1
62
256
6
ByLayer
370
18
48
1
60
0
100
AcDbEllipse
10
191.309283
20
8.676808
30
0
11
-0.0158263931678675
21
0.301985571309772
31
0
210
0
220
0
230
1
40
0.485021
41
-2.87073611965662
42
0.160873061797057
0
ELLIPSE
5
213
100
AcDbEntity
8
1
62
256
6
ByLayer
370
18
48
1
60
0
100
AcDbEllipse
10
190.793376
20
7.659629
30
0
11
-0.252305142956177
21
-0.164933569732255
31
0
210
0
220
0
230
1
40
0.488142
41
0.611291729660632
42
-2.98309743473648
0
ELLIPSE
5
214
100
AcDbEntity
8
1
62
256
6
ByLayer
370
18
48
1
60
0
100
AcDbEllipse
10
189.554568
20
9.574989
30
0
11
-0.25230514295619
21
-0.164933569732258
31
0
210
0
220
0
230
1
40
0.488142
41
2.97834174884792
42
-2.530301834384
0
ELLIPSE
5
215
100
AcDbEntity
8
1
62
256
6
ByLayer
370
18
48
1
60
0
100
AcDbEllipse
10
190.173972
20
8.617309
30
0
11
-0.0520428748879825
21
0.993037209359949
31
0
210
0
220
0
230
1
40
0.995725
41
-3.03985061808158
42
-2.09439510239319
0
ELLIPSE
5
216
100
AcDbEntity
8
1
62
256
6
ByLayer
370
18
48
1
60
0
100
AcDbEllipse
10
190.284665
20
8.62311
30
0
11
-0.0732703387401206
21
1.3980813486564
31
0
210
0
220
0
230
1
40
0.995725
41
0
42
6.28318530717959
0
ELLIPSE
5
217
100
AcDbEntity
8
1
62
256
6
ByLayer
370
18
48
1
60
0
100
AcDbEllipse
10
190.229319
20
8.62021
30
0
11
-0.115139103734475
21
2.19698497646006
31
0
210
0
220
0
230
1
40
0.995725
41
9.25483807536134E-05
42
3.14158688710878
0
ELLIPSE
5
218
100
AcDbEntity
8
1
62
256
6
ByLayer
370
18
48
1
60
0
100
AcDbEllipse
10
191.127261
20
9.238902
30
0
11
-0.163762418277899
21
0.253836478327652
31
0
210
0
220
0
230
1
40
0.486055
41
0.286273040547621
42
1.57315770109647
0
ELLIPSE
5
219
100
AcDbEntity
8
1
62
256
6
ByLayer
370
18
48
1
60
0
100
AcDbEllipse
10
190.11422
20
9.757444
30
0
11
-0.3006944918494
21
-0.0157587305609367
31
0
210
0
220
0
230
1
40
0.489195
41
0.283911666233658
42
1.5707963267949
0
ELLIPSE
5
21A
100
AcDbEntity
8
1
62
256
6
ByLayer
370
18
48
1
60
0
100
AcDbEllipse
10
190.233724
20
7.477174
30
0
11
-0.300694491848849
21
-0.0157587305603081
31
0
210
0
220
0
230
1
40
0.489195
41
-1.5707963267949
42
-0.283911666234298
0
ELLIPSE
5
21B
100
AcDbEntity
8
1
62
256
6
ByLayer
370
18
48
1
60
0
100
AcDbEllipse
10
190.284665
20
8.62311
30
0
11
0.0674636643950137
21
-1.28728340177538
31
0
210
0
220
0
230
1
40
0.995725
41
-2.61799387799149
42
-1.5707963267949
0
ELLIPSE
5
21C
100
AcDbEntity
8
1
62
256
6
ByLayer
370
18
48
1
60
0
100
AcDbEllipse
10
190.284665
20
8.62311
30
0
11
0.0674636643950137
21
-1.28728340177538
31
0
210
0
220
0
230
1
40
0.995725
41
2.61799387799144
42
-2.61799387799149
0
ELLIPSE
5
21D
100
AcDbEntity
8
1
62
256
6
ByLayer
370
18
48
1
60
0
100
AcDbEllipse
10
190.689879
20
9.634488
30
0
11
-0.268163241569286
21
0.137656977512244
31
0
210
0
220
0
230
1
40
0.488142
41
2.98309743473694
42
-0.609236363569545
0
ELLIPSE
5
21E
100
AcDbEntity
8
1
62
256
6
ByLayer
370
18
48
1
60
0
100
AcDbEllipse
10
190.284665
20
8.62311
30
0
11
0.0674636643950137
21
-1.28728340177538
31
0
210
0
220
0
230
1
40
0.995725
41
-0.523598775598309
42
0.523598775598305
0
ELLIPSE
5
21F
100
AcDbEntity
8
1
62
256
6
ByLayer
370
18
48
1
60
0
100
AcDbEllipse
10
190.173972
20
8.617309
30
0
11
0.0520428748880196
21
-0.993037209359946
31
0
210
0
220
0
230
1
40
0.995725
41
-0.775433507918443
42
-2.87044789750556E-14
0
ELLIPSE
5
220
100
AcDbEntity
8
1
62
256
6
ByLayer
370
18
48
1
60
0
100
AcDbEllipse
10
190.284665
20
8.62311
30
0
11
0.0674636643950137
21
-1.28728340177538
31
0
210
0
220
0
230
1
40
0.995725
41
1.5707963267949
42
2.61799387799144
0
ELLIPSE
5
221
100
AcDbEntity
8
1
62
256
6
ByLayer
370
18
48
1
60
0
100
AcDbEllipse
10
189.658066
20
7.60013
30
0
11
-0.268163241569295
21
0.137656977512245
31
0
210
0
220
0
230
1
40
0.488142
41
2.53235720184639
42
-2.97834174884789
0
ELLIPSE
5
222
100
AcDbEntity
8
1
62
256
6
ByLayer
370
18
48
1
60
0
100
AcDbEllipse
10
190.256068
20
8.621612
30
0
11
-0.115139103734475
21
2.19698497646006
31
0
210
0
220
0
230
1
40
0.995725
41
0
42
6.28318530717959
0
ELLIPSE
5
223
100
AcDbEntity
8
1
62
256
6
ByLayer
370
18
48
1
60
0
100
AcDbEllipse
10
190.284665
20
8.62311
30
0
11
0.0674636643950137
21
-1.28728340177538
31
0
210
0
220
0
230
1
40
0.995725
41
-1.5707963267949
42
-0.523598775598309
0
ELLIPSE
5
224
100
AcDbEntity
8
1
62
256
6
ByLayer
370
18
48
1
60
0
100
AcDbEllipse
10
191.187013
20
8.098767
30
0
11
-0.136332173614687
21
-0.269563769463531
31
0
210
0
220
0
230
1
40
0.486055
41
-1.57315770109713
42
-0.286273040546614
0
ELLIPSE
5
225
100
AcDbEntity
8
1
62
256
6
ByLayer
370
18
48
1
60
0
100
AcDbEllipse
10
190.173972
20
8.617309
30
0
11
0.0520428748880196
21
-0.993037209359946
31
0
210
0
220
0
230
1
40
0.995725
41
1.0471975511966
42
2.09439510239322
0
ELLIPSE
5
226
100
AcDbEntity
8
1
62
256
6
ByLayer
370
18
48
1
60
0
100
AcDbEllipse
10
191.421392
20
-3.562185
30
0
11
1.5
21
0
31
0
210
0
220
0
230
1
40
0.99236
41
0.3440041494067
42
3.14159249569583
0
ELLIPSE
5
227
100
AcDbEntity
8
1
62
256
6
ByLayer
370
18
48
1
60
0
100
AcDbEllipse
10
191.421392
20
-3.525173
30
0
11
-1.2
21
1.21276686609884E-15
31
0
210
0
220
0
230
1
40
0.99236
41
3.14159232774609
42
-3.72923476905279E-16
0
ELLIPSE
5
228
100
AcDbEntity
8
1
62
256
6
ByLayer
370
18
48
1
60
0
100
AcDbEllipse
10
191.421392
20
-3.525173
30
0
11
-1.2
21
1.21276686609884E-15
31
0
210
0
220
0
230
1
40
0.99236
41
0
42
0.697335147723097
0
ELLIPSE
5
229
100
AcDbEntity
8
1
62
256
6
ByLayer
370
18
48
1
60
0
100
AcDbEllipse
10
191.421392
20
-3.525173
30
0
11
-1.2
21
1.21276686609884E-15
31
0
210
0
220
0
230
1
40
0.99236
41
2.99904317844681
42
-3.14159213968479
0
ELLIPSE
5
22A
100
AcDbEntity
8
1
62
256
6
ByLayer
370
13
48
1
60
0
100
AcDbEllipse
10
206.651724
20
2.6E-05
30
0
11
-147.346053944239
21
0.0668402254910566
31
0
210
0
220
0
230
1
40
0.092638
41
-1.41715982042905
42
-1.40436843716551
0
ELLIPSE
5
22B
100
AcDbEntity
8
1
62
256
6
ByLayer
370
13
48
1
60
0
100
AcDbEllipse
10
185.248187
20
8.011644
30
0
11
0.0994383168616628
21
-1.89739611603369
31
0
210
0
220
0
230
1
40
0.995725
41
-2.08866466956342
42
-1.46607657167525
0
ELLIPSE
5
22C
100
AcDbEntity
8
1
62
256
6
ByLayer
370
13
48
1
60
0
100
AcDbEllipse
10
186.367299
20
4.356515
30
0
11
0.02616797812149
21
-0.499314767377284
31
0
210
0
220
0
230
1
40
0.092371
41
-1.00824769397919
42
-0.529775189942083
0
ELLIPSE
5
22D
100
AcDbEntity
8
1
62
256
6
ByLayer
370
13
48
1
60
0
100
AcDbEllipse
10
183.021432
20
4.114253
30
0
11
-0.29369042064903
21
-0.95590058940195
31
0
210
0
220
0
230
1
40
0.0868
41
-1.53907871771949
42
-1.39194541816367E-05
0
ELLIPSE
5
22E
100
AcDbEntity
8
1
62
256
6
ByLayer
370
13
48
1
60
0
100
AcDbEllipse
10
196.091493
20
3.552569
30
0
11
-0.0104962930681568
21
0.500133387513516
31
0
210
0
220
0
230
1
40
0.104598
41
1.92314509112496
42
-2.78924388926174
0
ELLIPSE
5
22F
100
AcDbEntity
8
1
62
256
6
ByLayer
370
13
48
1
60
0
100
AcDbEllipse
10
191.260002
20
-3.402355
30
0
11
-1.6
21
1.61702248813178E-15
31
0
210
0
220
0
230
1
40
0.99236
41
-2.95653298619383
42
-0.174162113399846
0
ELLIPSE
5
230
100
AcDbEntity
8
1
62
256
6
ByLayer
370
13
48
1
60
0
100
AcDbEllipse
10
193.88041
20
0
30
0
11
-28.6604137600701
21
12.2749737235508
31
0
210
0
220
0
230
1
40
0.196897
41
0.948357982396927
42
1.07534849380861
0
ELLIPSE
5
231
100
AcDbEntity
8
1
62
256
6
ByLayer
370
13
48
1
60
0
100
AcDbEllipse
10
185.269662
20
4.770365
30
0
11
0.0994383168616628
21
-1.89739611603369
31
0
210
0
220
0
230
1
40
0.995725
41
-2.11405734037295
42
-1.17439485419602
0
ELLIPSE
5
232
100
AcDbEntity
8
1
62
256
6
ByLayer
370
13
48
1
60
0
100
AcDbEllipse
10
195.672679
20
5.766182
30
0
11
-0.0611032933644022
21
1.89929683605522
31
0
210
0
220
0
230
1
40
0.528853
41
3.12324853817228
42
-3.13090906551517
0
ELLIPSE
5
233
100
AcDbEntity
8
1
62
256
6
ByLayer
370
13
48
1
60
0
100
AcDbEllipse
10
186.979848
20
4.078464
30
0
11
0.276440491862928
21
-0.961031037198374
31
0
210
0
220
0
230
1
40
0.090005
41
-1.39086594294601
42
-0.0208555724289888
0
ELLIPSE
5
234
100
AcDbEntity
8
1
62
256
6
ByLayer
370
13
48
1
60
0
100
AcDbEllipse
10
184.859176
20
4.748853
30
0
11
-0.07327033874012
21
1.3980813486564
31
0
210
0
220
0
230
1
40
0.995725
41
1.02753531321679
42
2.82647361116643
0
ELLIPSE
5
235
100
AcDbEntity
8
1
62
256
6
ByLayer
370
13
48
1
60
0
100
AcDbEllipse
10
183.46073
20
3.624122
30
0
11
-3.96879667330753
21
-0.7049066524773
31
0
210
0
220
0
230
1
40
0.015321
41
-3.01817314097123
42
-2.75435719872261
0
ELLIPSE
5
236
100
AcDbEntity
8
1
62
256
6
ByLayer
370
13
48
1
60
0
100
AcDbEllipse
10
184.965568
20
10.803016
30
0
11
-0.366351693700601
21
6.99040674328202
31
0
210
0
220
0
230
1
40
0.995725
41
2.79252680319569
42
2.88673315539438
0
ELLIPSE
5
237
100
AcDbEntity
8
1
62
256
6
ByLayer
370
13
48
1
60
0
100
AcDbEllipse
10
184.905298
20
4.75127
30
0
11
0.0994383168616628
21
-1.89739611603369
31
0
210
0
220
0
230
1
40
0.995725
41
-3.56751190905942E-05
42
0.983836204116091
0
ELLIPSE
5
238
100
AcDbEntity
8
1
62
256
6
ByLayer
370
13
48
1
60
0
100
AcDbEllipse
10
192.228179
20
-4.204363
30
0
11
-4.02200546534404
21
-0.0146479141825213
31
0
210
0
220
0
230
1
40
0.986925
41
3.00780591423093
42
-2.98895604858796
0
ELLIPSE
5
239
100
AcDbEntity
8
1
62
256
6
ByLayer
370
13
48
1
60
0
100
AcDbEllipse
10
195.735462
20
-8.800115
30
0
11
-0.0630108596018421
21
-0.515769288862969
31
0
210
0
220
0
230
1
40
0.115299
41
-1.66015023142954
42
-0.0893539046367813
0
ELLIPSE
5
23A
100
AcDbEntity
8
1
62
256
6
ByLayer
370
13
48
1
60
0
100
AcDbEllipse
10
178.8
20
3.387935
30
0
11
-2.92909899527141
21
0.918168300047255
31
0
210
0
220
0
230
1
40
0.706152
41
1.38423505392131
42
1.52946434081557
0
ELLIPSE
5
23B
100
AcDbEntity
8
1
62
256
6
ByLayer
370
13
48
1
60
0
100
AcDbEllipse
10
191.260002
20
-3.402355
30
0
11
1.49999999999993
21
0
31
0
210
0
220
0
230
1
40
0.99236
41
0
42
-3.14159249569569
0
ELLIPSE
5
23C
100
AcDbEntity
8
1
62
256
6
ByLayer
370
13
48
1
60
0
100
AcDbEllipse
10
182.751367
20
5.880722
30
0
11
0.0523359562429803
21
-0.998629534754572
31
0
210
0
220
0
230
1
40
0.995725
41
1.02753531321686
42
1.67551608191453
0
ELLIPSE
5
23D
100
AcDbEntity
8
1
62
256
6
ByLayer
370
13
48
1
60
0
100
AcDbEllipse
10
183.161853
20
5.902235
30
0
11
-0.0261679781214715
21
0.499314767377287
31
0
210
0
220
0
230
1
40
0.995725
41
-2.11405734037293
42
-1.46607657167526
0
ELLIPSE
5
23E
100
AcDbEntity
8
1
62
256
6
ByLayer
370
13
48
1
60
0
100
AcDbEllipse
10
185.057812
20
10.807851
30
0
11
0.418687649943843
21
-7.98903627803658
31
0
210
0
220
0
230
1
40
0.995725
41
0.0305567800980349
42
0.226787906202878
0
ELLIPSE
5
23F
100
AcDbEntity
8
1
62
256
6
ByLayer
370
13
48
1
60
0
100
AcDbEllipse
10
198.812045
20
1.396192
30
0
11
-3.94284659035375
21
-1.20185436288799
31
0
210
0
220
0
230
1
40
0.799204
41
-0.356847351506178
42
-0.209295282111295
0
ELLIPSE
5
240
100
AcDbEntity
8
1
62
256
6
ByLayer
370
13
48
1
60
0
100
AcDbEllipse
10
185.104894
20
4.76173
30
0
11
-1.20989216080558
21
-1.50163318296002
31
0
210
0
220
0
230
1
40
0.966608
41
1.63127555346062
42
1.83171264298827
0
ELLIPSE
5
241
100
AcDbEntity
8
1
62
256
6
ByLayer
370
13
48
1
60
0
100
AcDbEllipse
10
314.416295
20
-0.048477
30
0
11
-213.925527122869
21
0.0968409199844897
31
0
210
0
220
0
230
1
40
0.080025
41
-0.904790224432942
42
-0.886828029961688
0
ELLIPSE
5
242
100
AcDbEntity
8
1
62
256
6
ByLayer
370
13
48
1
60
0
100
AcDbEllipse
10
191.260002
20
-3.97604
30
0
11
1.5
21
0
31
0
210
0
220
0
230
1
40
0.99236
41
2.62264088074688
42
2.85286052487649
0
ELLIPSE
5
243
100
AcDbEntity
8
1
62
256
6
ByLayer
370
13
48
1
60
0
100
AcDbEllipse
10
178.8
20
3.736458
30
0
11
-2
21
2.02127811016473E-15
31
0
210
0
220
0
230
1
40
0.755232
41
-3.04696915028827
42
-1.69375173070686
0
ELLIPSE
5
244
100
AcDbEntity
8
1
62
256
6
ByLayer
370
13
48
1
60
0
100
AcDbEllipse
10
178.8
20
2.531671
30
0
11
-0.295713037992765
21
8.54271108909168
31
0
210
0
220
0
230
1
40
0.349466
41
-0.53843703529541
42
-0.435627126353666
0
ELLIPSE
5
245
100
AcDbEntity
8
1
62
256
6
ByLayer
370
13
48
1
60
0
100
AcDbEllipse
10
184.63861
20
4.737293
30
0
11
-1.67600862635147
21
1.35038952617896
31
0
210
0
220
0
230
1
40
0.775936
41
3.13680032661469
42
-2.87148936644727
0
ELLIPSE
5
246
100
AcDbEntity
8
1
62
256
6
ByLayer
370
13
48
1
60
0
100
AcDbEllipse
10
188.730839
20
3.900317
30
0
11
-3.96879667419696
21
-0.704906652638606
31
0
210
0
220
0
230
1
40
0.015321
41
-3.01817314108636
42
-2.75435719876689
0
ELLIPSE
5
247
100
AcDbEntity
8
1
62
256
6
ByLayer
370
13
48
1
60
0
100
AcDbEllipse
10
196.072726
20
-0.405807
30
0
11
-0.0232383381802154
21
1.01141002599262
31
0
210
0
220
0
230
1
40
0.101847
41
-0.138332449628039
42
0.459004625644392
0
ELLIPSE
5
248
100
AcDbEntity
8
1
62
256
6
ByLayer
370
13
48
1
60
0
100
AcDbEllipse
10
195.344444
20
-8.518144
30
0
11
-0.233048563203571
21
-1.98734291975994
31
0
210
0
220
0
230
1
40
0.119451
41
0
42
6.28318530717959
0
ELLIPSE
5
249
100
AcDbEntity
8
1
62
256
6
ByLayer
370
13
48
1
60
0
100
AcDbEllipse
10
195.650415
20
4.763643
30
0
11
-0.0209925861548906
21
1.00026677545246
31
0
210
0
220
0
230
1
40
0.104598
41
-3.13830973966103
42
-2.68545010301424
0
ELLIPSE
5
24A
100
AcDbEntity
8
1
62
256
6
ByLayer
370
13
48
1
60
0
100
AcDbEllipse
10
183.675743
20
5.411527
30
0
11
0.441399848022377
21
-0.234874805302362
31
0
210
0
220
0
230
1
40
0.047749
41
-1.92593779008522
42
-1.65004130108368
0
ELLIPSE
5
24B
100
AcDbEntity
8
1
62
256
6
ByLayer
370
13
48
1
60
0
100
AcDbEllipse
10
183.780932
20
6.039351
30
0
11
0.493878886210539
21
0.0779977291684675
31
0
210
0
220
0
230
1
40
0.009655
41
1.66279490126868
42
1.84419823413616
0
ELLIPSE
5
24C
100
AcDbEntity
8
1
62
256
6
ByLayer
370
13
48
1
60
0
100
AcDbEllipse
10
191.545623
20
6.250853
30
0
11
-1.20989217089654
21
-1.50163317758911
31
0
210
0
220
0
230
1
40
0.966608
41
0.713732916690862
42
1.12487077901069
0
ELLIPSE
5
24D
100
AcDbEntity
8
1
62
256
6
ByLayer
370
13
48
1
60
0
100
AcDbEllipse
10
1505.654689
20
-6E-06
30
0
11
-2516.98501192251
21
11.5321081756831
31
0
210
0
220
0
230
1
40
0.002901
41
1.01716568047496
42
1.02301559616256
0
ELLIPSE
5
24E
100
AcDbEntity
8
1
62
256
6
ByLayer
370
13
48
1
60
0
100
AcDbEllipse
10
206.651569
20
9.5E-05
30
0
11
-145.83441456686
21
0.0661402296144157
31
0
210
0
220
0
230
1
40
0.092638
41
-1.38172443220039
42
-1.37412906590058
0
ELLIPSE
5
24F
100
AcDbEntity
8
1
62
256
6
ByLayer
370
13
48
1
60
0
100
AcDbEllipse
10
188.980013
20
4.414062
30
0
11
0.0523359562429803
21
-0.998629534754572
31
0
210
0
220
0
230
1
40
0.092371
41
-1.36943840600464
42
0
0
ELLIPSE
5
250
100
AcDbEntity
8
1
62
256
6
ByLayer
370
13
48
1
60
0
100
AcDbEllipse
10
158.410147
20
0
30
0
11
-147.346199124176
21
0.06684442603059
31
0
210
0
220
0
230
1
40
0.092638
41
-1.81484928855309
42
-1.75110339041804
0
ELLIPSE
5
251
100
AcDbEntity
8
1
62
256
6
ByLayer
370
13
48
1
60
0
100
AcDbEllipse
10
195.915438
20
0
30
0
11
-2.33881794467912
21
13.6486362632207
31
0
210
0
220
0
230
1
40
0.082496
41
1.57337974354016
42
1.73339319096384
0
ELLIPSE
5
252
100
AcDbEntity
8
1
62
256
6
ByLayer
370
13
48
1
60
0
100
AcDbEllipse
10
197.248777
20
0
30
0
11
-1.62968078809872
21
-13.6486280476378
31
0
210
0
220
0
230
1
40
0.118751
41
-1.29101356694269
42
-0.105846955992929
0
ELLIPSE
5
253
100
AcDbEntity
8
1
62
256
6
ByLayer
370
13
48
1
60
0
100
AcDbEllipse
10
199.629742
20
0.443411
30
0
11
-4.02200550770667
21
-0.0146480436643359
31
0
210
0
220
0
230
1
40
0.986925
41
0.0205159560919688
42
0.152636572453413
0
ELLIPSE
5
254
100
AcDbEntity
8
1
62
256
6
ByLayer
370
13
48
1
60
0
100
AcDbEllipse
10
192.540655
20
4.099981
30
0
11
-0.318392735501043
21
-0.395166567853317
31
0
210
0
220
0
230
1
40
0.966608
41
-2.16350477979374
42
-2.016721711573
0
ELLIPSE
5
255
100
AcDbEntity
8
1
62
256
6
ByLayer
370
13
48
1
60
0
100
AcDbEllipse
10
189.451037
20
-4.573604
30
0
11
-0.418687649943544
21
7.98903627803659
31
0
210
0
220
0
230
1
40
0.995725
41
0
42
0.226787906202896
0
ELLIPSE
5
256
100
AcDbEntity
8
1
62
256
6
ByLayer
370
13
48
1
60
0
100
AcDbEllipse
10
187.270547
20
3.823786
30
0
11
-0.31839267653121
21
-0.395166625711738
31
0
210
0
220
0
230
1
40
0.966608
41
-2.16350494098924
42
-1.3098800049327
0
ELLIPSE
5
257
100
AcDbEntity
8
1
62
256
6
ByLayer
370
13
48
1
60
0
100
AcDbEllipse
10
184.628621
20
0
30
0
11
-0.721567089459849
21
13.6498363230552
31
0
210
0
220
0
230
1
40
0.092638
41
-0.153636664605652
42
-0.004897572502669
0
ELLIPSE
5
258
100
AcDbEntity
8
1
62
256
6
ByLayer
370
13
48
1
60
0
100
AcDbEllipse
10
191.099205
20
-4.487227
30
0
11
-6.50141658414369
21
5.60530311638133
31
0
210
0
220
0
230
1
40
0.864815
41
-0.73439714296229
42
-0.581736994096403
0
ELLIPSE
5
259
100
AcDbEntity
8
1
62
256
6
ByLayer
370
13
48
1
60
0
100
AcDbEllipse
10
195.964617
20
0.058828
30
0
11
-0.0116191690892553
21
0.505705012966231
31
0
210
0
220
0
230
1
40
0.101847
41
-0.138332449632119
42
0.295765610711929
0
ELLIPSE
5
25A
100
AcDbEntity
8
1
62
256
6
ByLayer
370
13
48
1
60
0
100
AcDbEllipse
10
196.112078
20
-1.421094
30
0
11
-1.57053933342997
21
2.70716253110803
31
0
210
0
220
0
230
1
40
0.324855
41
-0.96375230194712
42
-0.804296628429457
0
ELLIPSE
5
25B
100
AcDbEntity
8
1
62
256
6
ByLayer
370
13
48
1
60
0
100
AcDbEllipse
10
184.257589
20
10.459434
30
0
11
-0.143594274779723
21
2.739941984641
31
0
210
0
220
0
230
1
40
0.016833
41
0.316464450531024
42
0.873832985534306
0
POINT
5
70
100
AcDbEntity
8
1
62
256
6
ByLayer
370
18
48
1
60
0
100
AcDbPoint
10
0
20
0
30
0
39
0
210
0
220
0
230
1
50
360
0
POINT
5
72
100
AcDbEntity
8
80
62
256
6
ByLayer
370
18
48
1
60
0
100
AcDbPoint
10
0
20
0
30
0
39
0
210
0
220
0
230
1
50
360
0
POINT
5
74
100
AcDbEntity
8
81
62
256
6
ByLayer
370
18
48
1
60
0
100
AcDbPoint
10
197
20
0
30
0
39
0
210
0
220
0
230
1
50
360
0
POINT
5
76
100
AcDbEntity
8
1
62
256
6
ByLayer
370
18
48
1
60
1
100
AcDbPoint
10
0
20
-19.75
30
0
39
0
210
0
220
0
230
1
50
360
0
POINT
5
77
100
AcDbEntity
8
1
62
256
6
ByLayer
370
18
48
1
60
1
100
AcDbPoint
10
197
20
-14
30
0
39
0
210
0
220
0
230
1
50
360
0
POINT
5
78
100
AcDbEntity
8
1
62
256
6
ByLayer
370
18
48
1
60
1
100
AcDbPoint
10
-60
20
-16
30
0
39
0
210
0
220
0
230
1
50
360
0
POINT
5
79
100
AcDbEntity
8
1
62
256
6
ByLayer
370
18
48
1
60
1
100
AcDbPoint
10
0
20
-19.75
30
0
39
0
210
0
220
0
230
1
50
360
0
POINT
5
7A
100
AcDbEntity
8
1
62
256
6
ByLayer
370
18
48
1
60
1
100
AcDbPoint
10
197
20
-14
30
0
39
0
210
0
220
0
230
1
50
360
0
POINT
5
7B
100
AcDbEntity
8
1
62
256
6
ByLayer
370
18
48
1
60
1
100
AcDbPoint
10
5.6315
20
-19.75
30
0
39
0
210
0
220
0
230
1
50
360
0
POINT
5
7C
100
AcDbEntity
8
1
62
256
6
ByLayer
370
18
48
1
60
1
100
AcDbPoint
10
25
20
-14
30
0
39
0
210
0
220
0
230
1
50
360
0
POINT
5
7D
100
AcDbEntity
8
1
62
256
6
ByLayer
370
18
48
1
60
1
100
AcDbPoint
10
197
20
-14
30
0
39
0
210
0
220
0
230
1
50
360
0
POINT
5
7E
100
AcDbEntity
8
1
62
256
6
ByLayer
370
18
48
1
60
1
100
AcDbPoint
10
196.1684
20
-7
30
0
39
0
210
0
220
0
230
1
50
360
0
SPLINE
5
25C
100
AcDbEntity
8
SK1
62
256
6
ByLayer
370
13
48
1
60
0
100
AcDbSpline
70
4
71
3
72
68
73
64
40
0
40
0
40
0
40
0
40
0.0156250000000001
40
0.0156250000000001
40
0.0234375000000001
40
0.0234375000000001
40
0.0312500000000002
40
0.0312500000000002
40
0.0468750000000002
40
0.0468750000000002
40
0.0625000000000002
40
0.0625000000000002
40
0.0937500000000001
40
0.0937500000000001
40
0.109375
40
0.109375
40
0.125
40
0.125
40
0.15625
40
0.15625
40
0.1875
40
0.1875
40
0.25
40
0.25
40
0.3125
40
0.3125
40
0.374999999999999
40
0.374999999999999
40
0.437499999999999
40
0.437499999999999
40
0.499999999999999
40
0.499999999999999
40
0.562499999999999
40
0.562499999999999
40
0.593749999999999
40
0.593749999999999
40
0.624999999999999
40
0.624999999999999
40
0.687499999999999
40
0.687499999999999
40
0.749999999999999
40
0.749999999999999
40
0.781249999999999
40
0.781249999999999
40
0.812499999999999
40
0.812499999999999
40
0.843749999999999
40
0.843749999999999
40
0.874999999999999
40
0.874999999999999
40
0.906249999999999
40
0.906249999999999
40
0.921874999999999
40
0.921874999999999
40
0.937499999999999
40
0.937499999999999
40
0.953125
40
0.953125
40
0.96875
40
0.96875
40
0.984375
40
0.984375
40
1
40
1
40
1
40
1
41
1
10
-6.50000000009537
20
8.08217792429738
30
0
41
1
10
-6.39728681546227
20
8.08217792430295
30
0
41
1
10
-6.29640240987699
20
8.07321819015161
30
0
41
1
10
-6.14760935643376
20
8.04732412610463
30
0
41
1
10
-6.09843562594533
20
8.03660787890624
30
0
41
1
10
-6.00091880243031
20
8.01107370894184
30
0
41
1
10
-5.95239404796544
20
7.99617764781558
30
0
41
1
10
-5.81053884277202
20
7.94631574243397
30
0
41
1
10
-5.72022692966135
20
7.90609643283966
30
0
41
1
10
-5.54693679687945
20
7.81343669977065
30
0
41
1
10
-5.46358233763597
20
7.76062096471586
30
0
41
1
10
-5.22938932990994
20
7.59010003078564
30
0
41
1
10
-5.09198062975838
20
7.45965870967734
30
0
41
1
10
-4.90595335477917
20
7.24483383959316
30
0
41
1
10
-4.84743644515666
20
7.16999684219442
30
0
41
1
10
-4.73821403722123
20
7.01722836272262
30
0
41
1
10
-4.68720010034833
20
6.93894864132523
30
0
41
1
10
-4.54323026305207
20
6.69909555975084
30
0
41
1
10
-4.45926717147536
20
6.53254051891881
30
0
41
1
10
-4.3093443488095
20
6.18841513117044
30
0
41
1
10
-4.24330317602913
20
6.01022873335722
30
0
41
1
10
-4.06907911492853
20
5.47031069866443
30
0
41
1
10
-3.98292703985176
20
5.10066666331613
30
0
41
1
10
-3.84570406558609
20
4.3460076275565
30
0
41
1
10
-3.79497968232502
20
3.96093681450122
30
0
41
1
10
-3.71582480540853
20
3.17738007021441
30
0
41
1
10
-3.68789829506167
20
2.78322297970973
30
0
41
1
10
-3.64633986418011
20
1.99355753208178
30
0
41
1
10
-3.63271963039239
20
1.59753997542174
30
0
41
1
10
-3.61498986895101
20
0.8032693818231
30
0
41
1
10
-3.61089870808031
20
0.405015959157339
30
0
41
1
10
-3.61081975316974
20
-0.393708095828771
30
0
41
1
10
-3.61482564333887
20
-0.79417841106158
30
0
41
1
10
-3.62821561082676
20
-1.39661779481634
30
0
41
1
10
-3.63394074485679
20
-1.5976566482033
30
0
41
1
10
-3.64830872222703
20
-1.99713286488571
30
0
41
1
10
-3.65695833332805
20
-2.19596450309135
30
0
41
1
10
-3.68830689646764
20
-2.78967605662922
30
0
41
1
10
-3.71625565824056
20
-3.18178799699138
30
0
41
1
10
-3.79469185744706
20
-3.95794446532156
30
0
41
1
10
-3.84504356353052
20
-4.34199975391078
30
0
41
1
10
-3.94841887778485
20
-4.91107497341915
30
0
41
1
10
-3.98770312105462
20
-5.10004649303772
30
0
41
1
10
-4.07779287027169
20
-5.47202177182982
30
0
41
1
10
-4.12859397440818
20
-5.65523270773653
30
0
41
1
10
-4.24512124852822
20
-6.01536285970332
30
0
41
1
10
-4.31115958926657
20
-6.19302001448725
30
0
41
1
10
-4.46122475767433
20
-6.5365844274842
30
0
41
1
10
-4.54510408970728
20
-6.70247592440509
30
0
41
1
10
-4.73611535242114
20
-7.02017882771963
30
0
41
1
10
-4.84311703112593
20
-7.17205090027988
30
0
41
1
10
-5.02826673108481
20
-7.38618951170361
30
0
41
1
10
-5.09451997161402
20
-7.4555748598882
30
0
41
1
10
-5.23421802890766
20
-7.58596007689957
30
0
41
1
10
-5.30784417528007
20
-7.64725133038493
30
0
41
1
10
-5.46399950309441
20
-7.76089792359187
30
0
41
1
10
-5.54724834943178
20
-7.81362228056182
30
0
41
1
10
-5.72052431823744
20
-7.90623639127858
30
0
41
1
10
-5.8103544508825
20
-7.94617017235277
30
0
41
1
10
-5.99716341576658
20
-8.01199361554285
30
0
41
1
10
-6.09472382931473
20
-8.03800054933629
30
0
41
1
10
-6.29565120833736
20
-8.07320511896262
30
0
41
1
10
-6.39723913462657
20
-8.08217792430295
30
0
41
1
10
-6.5000000000954
20
-8.08217792429738
30
0
0
SPLINE
5
25D
100
AcDbEntity
8
SK1
62
256
6
ByLayer
370
13
48
1
60
0
100
AcDbSpline
70
4
71
3
72
8
73
4
40
0
40
0
40
0
40
0
40
1
40
1
40
1
40
1
41
1
10
-58.5162221138915
20
-7.87543832737535
30
0
41
1
10
-58.5439224477985
20
-7.94446778703286
30
0
41
1
10
-58.5718504132243
20
-8.01337984689718
30
0
41
1
10
-58.5999993841625
20
-8.08217792429733
30
0
0
SPLINE
5
25E
100
AcDbEntity
8
1
62
256
6
ByLayer
370
13
48
1
60
0
100
AcDbSpline
70
4
71
1
72
4
73
2
40
0
40
0
40
1
40
1
41
1
10
183.410458367559
20
8.43352100216603
30
0
41
1
10
183.471076669518
20
8.43568736237486
30
0
0
SPLINE
5
25F
100
AcDbEntity
8
1
62
256
6
ByLayer
370
13
48
1
60
0
100
AcDbSpline
70
4
71
2
72
6
73
3
40
0
40
0
40
0
40
1
40
1
40
1
41
1
10
196.949938220076
20
9.0450401019061
30
0
41
0.997409491337352
10
196.949268947762
20
9.09551896888448
30
0
41
1
10
196.941394096999
20
9.14538224779758
30
0
0
SPLINE
5
260
100
AcDbEntity
8
1
62
256
6
ByLayer
370
13
48
1
60
0
100
AcDbSpline
70
4
71
2
72
6
73
3
40
0
40
0
40
0
40
1
40
1
40
1
41
1
10
183.486284092466
20
8.28789507403548
30
0
41
0.999421704679257
10
183.484899400531
20
8.27731465911914
30
0
41
0.999101602263108
10
183.483853906926
20
8.26669487848376
30
0
0
SPLINE
5
261
100
AcDbEntity
8
1
62
256
6
ByLayer
370
13
48
1
60
0
100
AcDbSpline
70
4
71
3
72
9
73
5
40
0
40
0
40
0
40
0
40
0.5
40
1
40
1
40
1
40
1
41
1
10
185.344755042037
20
3.21470376610367
30
0
41
1
10
185.376260466534
20
3.21531203656568
30
0
41
1
10
185.439217868987
20
3.21832925921541
30
0
41
1
10
185.502181985316
20
3.22098569950228
30
0
41
1
10
185.533663204484
20
3.22235901745145
30
0
0
SPLINE
5
262
100
AcDbEntity
8
1
62
256
6
ByLayer
370
13
48
1
60
0
100
AcDbSpline
70
4
71
3
72
26
73
22
40
0
40
0
40
0
40
0
40
0.250000000000169
40
0.250000000000169
40
0.375000000000254
40
0.375000000000254
40
0.500000000000338
40
0.500000000000338
40
0.625000000000423
40
0.625000000000423
40
0.687500000000407
40
0.687500000000407
40
0.750000000000392
40
0.750000000000392
40
0.812500000000376
40
0.812500000000376
40
0.843750000000314
40
0.843750000000314
40
0.875000000000251
40
0.875000000000251
40
1
40
1
40
1
40
1
41
1
10
196.251817801023
20
4.08601441906285
30
0
41
1
10
196.223795642026
20
4.06821628488578
30
0
41
1
10
196.192888271069
20
4.05021422450386
30
0
41
1
10
196.140215249409
20
4.02379649561937
30
0
41
1
10
196.121545822828
20
4.01506593578799
30
0
41
1
10
196.080937231165
20
3.99782642488111
30
0
41
1
10
196.058916644441
20
3.98929430829551
30
0
41
1
10
196.011647663691
20
3.97317332454855
30
0
41
1
10
195.986087341761
20
3.96549491900476
30
0
41
1
10
195.945031955939
20
3.95601137352537
30
0
41
1
10
195.930796552362
20
3.95319459816832
30
0
41
1
10
195.902896582898
20
3.94869032700495
30
0
41
1
10
195.889021149349
20
3.9469405963097
30
0
41
1
10
195.861386001923
20
3.94420597670103
30
0
41
1
10
195.847960705126
20
3.94321345873917
30
0
41
1
10
195.828349195545
20
3.9422276524401
30
0
41
1
10
195.821974035949
20
3.94205070736407
30
0
41
1
10
195.8088611931
20
3.94136782098653
30
0
41
1
10
195.802059264687
20
3.94080569788616
30
0
41
1
10
195.767173348785
20
3.93720742233748
30
0
41
1
10
195.740630053554
20
3.93555615854225
30
0
41
1
10
195.714141060928
20
3.93395370596087
30
0
0
SPLINE
5
263
100
AcDbEntity
8
1
62
256
6
ByLayer
370
13
48
1
60
0
100
AcDbSpline
70
4
71
3
72
19
73
15
40
0
40
0
40
0
40
0
40
0.499999999999958
40
0.499999999999958
40
0.749999999999938
40
0.749999999999938
40
0.812499999999943
40
0.812499999999943
40
0.874999999999948
40
0.874999999999948
40
0.906249999999961
40
0.906249999999961
40
0.937499999999974
40
1
40
1
40
1
40
1
41
1
10
190.508172609997
20
4.764519705406
30
0
41
1
10
191.169395678589
20
4.79917293804166
30
0
41
1
10
191.830619194456
20
4.833817638977
30
0
41
1
10
192.822453756014
20
4.88579826960301
30
0
41
1
10
193.15306410474
20
4.90314749118616
30
0
41
1
10
193.56632891929
20
4.92479819468341
30
0
41
1
10
193.648982220973
20
4.92912187539741
30
0
41
1
10
193.814288542539
20
4.93777461038729
30
0
41
1
10
193.896969147746
20
4.94256261966839
30
0
41
1
10
194.02087772938
20
4.94843935566263
30
0
41
1
10
194.062122219319
20
4.94960506563638
30
0
41
1
10
194.144336067005
20
4.94819769602529
30
0
41
1
10
194.267317813662
20
4.94147961016472
30
0
41
1
10
194.389298837564
20
4.92116263656538
30
0
41
1
10
194.470156542138
20
4.90132654843461
30
0
0
SPLINE
5
264
100
AcDbEntity
8
1
62
256
6
ByLayer
370
13
48
1
60
0
100
AcDbSpline
70
4
71
1
72
4
73
2
40
0
40
0
40
1
40
1
41
1
10
184.428283576747
20
13.4657071485046
30
0
41
1
10
184.578368608755
20
13.2939601003791
30
0
0
SPLINE
5
265
100
AcDbEntity
8
1
62
256
6
ByLayer
370
13
48
1
60
0
100
AcDbSpline
70
4
71
2
72
6
73
3
40
0
40
0
40
0
40
1
40
1
40
1
41
0.999101602263095
10
183.483853906926
20
8.26669487848418
30
0
41
0.997987786658107
10
183.476362676549
20
8.30311661226085
30
0
41
1
10
183.472966170639
20
8.34014868264552
30
0
0
SPLINE
5
266
100
AcDbEntity
8
1
62
256
6
ByLayer
370
13
48
1
60
0
100
AcDbSpline
70
4
71
3
72
10
73
6
40
0
40
0
40
0
40
0
40
0.5
40
0.5
40
1
40
1
40
1
40
1
41
1
10
186.058693106508
20
3.99230482158541
30
0
41
1
10
186.05501510782
20
3.99211206584198
30
0
41
1
10
186.038071249644
20
4.00198049905165
30
0
41
1
10
185.987798400892
20
4.03510186289404
30
0
41
1
10
185.954417858846
20
4.05830021655893
30
0
41
1
10
185.922454136475
20
4.08113988905697
30
0
0
SPLINE
5
267
100
AcDbEntity
8
1
62
256
6
ByLayer
370
13
48
1
60
0
100
AcDbSpline
70
4
71
3
72
18
73
14
40
0
40
0
40
0
40
0
40
0.12499999999995
40
0.12499999999995
40
0.187499999999926
40
0.187499999999926
40
0.218749999999913
40
0.218749999999913
40
0.249999999999901
40
0.249999999999901
40
0.499999999999934
40
0.499999999999934
40
1
40
1
40
1
40
1
41
1
10
194.392291709034
20
12.9270458704622
30
0
41
1
10
194.237899206314
20
12.8279570374348
30
0
41
1
10
194.071960492667
20
12.7563113075596
30
0
41
1
10
193.805508280919
20
12.6905417326112
30
0
41
1
10
193.715533648589
20
12.675983527133
30
0
41
1
10
193.580300854786
20
12.6655225957859
30
0
41
1
10
193.535109391343
20
12.6637685066076
30
0
41
1
10
193.444807466166
20
12.6590275854861
30
0
41
1
10
193.399656236407
20
12.656661190914
30
0
41
1
10
192.993294375196
20
12.6353757139829
30
0
41
1
10
192.632085198094
20
12.6164344982793
30
0
41
1
10
191.548455484668
20
12.5596440602478
30
0
41
1
10
190.826035494107
20
12.5217864278426
30
0
41
1
10
190.103615668239
20
12.4839260090588
30
0
0
SPLINE
5
268
100
AcDbEntity
8
1
62
256
6
ByLayer
370
13
48
1
60
0
100
AcDbSpline
70
4
71
3
72
18
73
14
40
0
40
0
40
0
40
0
40
0.125
40
0.125
40
0.1875
40
0.1875
40
0.21875
40
0.21875
40
0.25
40
0.25
40
0.5
40
0.5
40
1
40
1
40
1
40
1
41
1
10
186.219496569201
20
4.3213998440026
30
0
41
1
10
186.373889071921
20
4.42048867703011
30
0
41
1
10
186.539827785568
20
4.49213440690534
30
0
41
1
10
186.806279997316
20
4.55790398185366
30
0
41
1
10
186.896254629646
20
4.57246218733187
30
0
41
1
10
187.031487423449
20
4.58292311867899
30
0
41
1
10
187.076678886892
20
4.58467720785728
30
0
41
1
10
187.166980812069
20
4.58941812897873
30
0
41
1
10
187.212132041829
20
4.59178452355084
30
0
41
1
10
187.618493903039
20
4.61307000048197
30
0
41
1
10
187.979703080141
20
4.63201121618559
30
0
41
1
10
189.063332793567
20
4.68880165421703
30
0
41
1
10
189.785752784127
20
4.72665928662218
30
0
41
1
10
190.508172609996
20
4.76451970540603
30
0
0
SPLINE
5
269
100
AcDbEntity
8
1
62
256
6
ByLayer
370
13
48
1
60
0
100
AcDbSpline
70
4
71
1
72
4
73
2
40
0
40
0
40
1
40
1
41
1
10
184.772218038223
20
13.2945794061678
30
0
41
1
10
184.616957072174
20
13.477840113344
30
0
0
SPLINE
5
26A
100
AcDbEntity
8
1
62
256
6
ByLayer
370
13
48
1
60
0
100
AcDbSpline
70
4
71
1
72
4
73
2
40
0
40
0
40
1
40
1
41
1
10
183.402110841915
20
8.23881723199227
30
0
41
1
10
183.482126938165
20
8.24534592748563
30
0
0
SPLINE
5
26B
100
AcDbEntity
8
1
62
256
6
ByLayer
370
13
48
1
60
0
100
AcDbSpline
70
4
71
3
72
9
73
5
40
0
40
0
40
0
40
0
40
0.5
40
1
40
1
40
1
40
1
41
1
10
195.239360037168
20
14.0322916574543
30
0
41
1
10
195.20785461267
20
14.0316833869924
30
0
41
1
10
195.144897210217
20
14.0286661643426
30
0
41
1
10
195.081933093889
20
14.0260097240557
30
0
41
1
10
195.050451874721
20
14.0246364061066
30
0
0
SPLINE
5
26C
100
AcDbEntity
8
1
62
256
6
ByLayer
370
13
48
1
60
0
100
AcDbSpline
70
4
71
3
72
10
73
6
40
0
40
0
40
0
40
0
40
0.5
40
0.5
40
1
40
1
40
1
40
1
41
1
10
194.51619757302
20
13.2542071716703
30
0
41
1
10
194.512519574332
20
13.2540144159269
30
0
41
1
10
194.522268411081
20
13.2437689076223
30
0
41
1
10
194.562363626921
20
13.2101141566406
30
0
41
1
10
194.592799621652
20
13.18676148579
30
0
41
1
10
194.624763344023
20
13.163921813292
30
0
0
SPLINE
5
26D
100
AcDbEntity
8
1
62
256
6
ByLayer
370
13
48
1
60
0
100
AcDbSpline
70
4
71
1
72
4
73
2
40
0
40
0
40
1
40
1
41
1
10
183.642720982206
20
8.10161317576046
30
0
41
1
10
183.488811189206
20
8.09729256811033
30
0
0
SPLINE
5
26E
100
AcDbEntity
8
1
62
256
6
ByLayer
370
13
48
1
60
0
100
AcDbSpline
70
4
71
3
72
10
73
6
40
0
40
0
40
0
40
0
40
0.5
40
0.5
40
1
40
1
40
1
40
1
41
1
10
184.578368608755
20
13.2939601003791
30
0
41
1
10
184.611909893017
20
13.2952554838709
30
0
41
1
10
184.643688653344
20
13.2948268373119
30
0
41
1
10
184.707832046317
20
13.2946021768094
30
0
41
1
10
184.740069334291
20
13.2946277473015
30
0
41
1
10
184.772218038223
20
13.2945794061678
30
0
0
SPLINE
5
26F
100
AcDbEntity
8
1
62
256
6
ByLayer
370
13
48
1
60
0
100
AcDbSpline
70
4
71
2
72
6
73
3
40
0
40
0
40
0
40
1
40
1
40
1
41
1
10
183.471076669518
20
8.43568736237486
30
0
41
0.997409491337352
10
183.468590998658
20
8.38785113953053
30
0
41
1
10
183.472966170639
20
8.34014868264552
30
0
0
SPLINE
5
270
100
AcDbEntity
8
1
62
256
6
ByLayer
370
13
48
1
60
0
100
AcDbSpline
70
4
71
3
72
22
73
18
40
0
40
0
40
0
40
0
40
0.125
40
0.125
40
0.25
40
0.25
40
0.375
40
0.375
40
0.5
40
0.5
40
0.625
40
0.625
40
0.75
40
0.75
40
0.875
40
0.875
40
1
40
1
40
1
40
1
41
1
10
196.26288068389
20
13.4417053884547
30
0
41
1
10
196.255906222635
20
13.4885624772334
30
0
41
1
10
196.244481501935
20
13.5341114110697
30
0
41
1
10
196.211895892634
20
13.6223473296103
30
0
41
1
10
196.190618462193
20
13.6649438564411
30
0
41
1
10
196.140957253608
20
13.7440206479242
30
0
41
1
10
196.112408855354
20
13.7810160749386
30
0
41
1
10
196.046982996344
20
13.8493098554648
30
0
41
1
10
196.011309672037
20
13.8796047720669
30
0
41
1
10
195.934825669156
20
13.9329246598374
30
0
41
1
10
195.893354330359
20
13.9560256759927
30
0
41
1
10
195.807167368572
20
13.992974254761
30
0
41
1
10
195.762785976024
20
14.0071541874216
30
0
41
1
10
195.671368725433
20
14.026663118209
30
0
41
1
10
195.624092051379
20
14.0314800934756
30
0
41
1
10
195.53024578232
20
14.0334513780489
30
0
41
1
10
195.483314595617
20
14.0337935368554
30
0
41
1
10
195.436380679436
20
14.0339175713221
30
0
0
SPLINE
5
271
100
AcDbEntity
8
1
62
256
6
ByLayer
370
13
48
1
60
0
100
AcDbSpline
70
4
71
3
72
20
73
16
40
0
40
0
40
0
40
0
40
0.0624999999999604
40
0.0624999999999604
40
0.124999999999921
40
0.124999999999921
40
0.156249999999911
40
0.156249999999911
40
0.1874999999999
40
0.1874999999999
40
0.249999999999899
40
0.249999999999899
40
0.499999999999933
40
0.499999999999933
40
1
40
1
40
1
40
1
41
1
10
186.286130182482
20
4.19427159493611
30
0
41
1
10
186.360426904859
20
4.24195509891709
30
0
41
1
10
186.438547643697
20
4.28304759347401
30
0
41
1
10
186.602663186122
20
4.35166097914816
30
0
41
1
10
186.687995980523
20
4.37862642541461
30
0
41
1
10
186.817117516986
20
4.4072861130237
30
0
41
1
10
186.860516824592
20
4.41497291143284
30
0
41
1
10
186.948042401038
20
4.42656490282005
30
0
41
1
10
186.992246740778
20
4.43006397601104
30
0
41
1
10
187.125540776996
20
4.43701858909338
30
0
41
1
10
187.214396927128
20
4.44169715749396
30
0
41
1
10
187.658693461373
20
4.46496876886766
30
0
41
1
10
188.014129450612
20
4.48360968251663
30
0
41
1
10
189.080439532969
20
4.53949207524735
30
0
41
1
10
189.791313034866
20
4.57674483511599
30
0
41
1
10
190.502186403918
20
4.61400012973942
30
0
0
SPLINE
5
272
100
AcDbEntity
8
1
62
256
6
ByLayer
370
13
48
1
60
0
100
AcDbSpline
70
4
71
1
72
4
73
2
40
0
40
0
40
1
40
1
41
1
10
184.321234395315
20
3.8052900351033
30
0
41
1
10
184.291203216193
20
3.80444698970771
30
0
0
SPLINE
5
273
100
AcDbEntity
8
1
62
256
6
ByLayer
370
13
48
1
60
0
100
AcDbSpline
70
4
71
3
72
18
73
14
40
0
40
0
40
0
40
0
40
0.500000000000021
40
0.500000000000021
40
0.750000000000021
40
0.750000000000021
40
0.875000000000021
40
0.875000000000021
40
0.906250000000016
40
0.906250000000016
40
0.937500000000011
40
0.937500000000011
40
1
40
1
40
1
40
1
41
1
10
190.502186403918
20
4.6140001297394
30
0
41
1
10
191.155145290055
20
4.64822025492498
30
0
41
1
10
191.808104592982
20
4.68243242765774
30
0
41
1
10
192.787542927417
20
4.73376251561737
30
0
41
1
10
193.114021658616
20
4.75089248332409
30
0
41
1
10
193.60374034485
20
4.77655371427284
30
0
41
1
10
193.766981189905
20
4.78502477580457
30
0
41
1
10
193.971027287072
20
4.79593319773395
30
0
41
1
10
194.011836212061
20
4.7981338577649
30
0
41
1
10
194.093514468663
20
4.798642243324
30
0
41
1
10
194.134380073341
20
4.79719015303948
30
0
41
1
10
194.25705390268
20
4.78787059325711
30
0
41
1
10
194.338939691708
20
4.77500445020513
30
0
41
1
10
194.420937975078
20
4.75488855421114
30
0
0
SPLINE
5
274
100
AcDbEntity
8
1
62
256
6
ByLayer
370
13
48
1
60
0
100
AcDbSpline
70
4
71
2
72
6
73
3
40
0
40
0
40
0
40
1
40
1
40
1
41
1
10
183.488811189206
20
8.09729256811033
30
0
41
0.997409491337352
10
183.481338888249
20
8.1446069157656
30
0
41
1
10
183.480703828068
20
8.19250538360424
30
0
0
SPLINE
5
275
100
AcDbEntity
8
1
62
256
6
ByLayer
370
13
48
1
60
0
100
AcDbSpline
70
4
71
3
72
20
73
16
40
0
40
0
40
0
40
0
40
0.0625
40
0.0625
40
0.125
40
0.125
40
0.15625
40
0.15625
40
0.1875
40
0.1875
40
0.25
40
0.25
40
0.5
40
0.5
40
1
40
1
40
1
40
1
41
1
10
194.297984896721
20
13.0527238286214
30
0
41
1
10
194.223688174344
20
13.0050403246404
30
0
41
1
10
194.145567435507
20
12.9639478300835
30
0
41
1
10
193.981451893082
20
12.8953344444093
30
0
41
1
10
193.89611909868
20
12.8683689981429
30
0
41
1
10
193.766997562217
20
12.8397093105339
30
0
41
1
10
193.72359825461
20
12.8320225121249
30
0
41
1
10
193.636072678165
20
12.8204305207377
30
0
41
1
10
193.591868338424
20
12.8169314475469
30
0
41
1
10
193.458574302206
20
12.8099768344645
30
0
41
1
10
193.369718152074
20
12.8052982660639
30
0
41
1
10
192.925421617828
20
12.7820266546902
30
0
41
1
10
192.569985628588
20
12.7633857410412
30
0
41
1
10
191.50367554623
20
12.7075033483103
30
0
41
1
10
190.79280204434
20
12.6702505884421
30
0
41
1
10
190.081928675287
20
12.6329952938186
30
0
0
SPLINE
5
276
100
AcDbEntity
8
1
62
256
6
ByLayer
370
13
48
1
60
0
100
AcDbSpline
70
4
71
1
72
4
73
2
40
0
40
0
40
1
40
1
41
1
10
183.64005774503
20
8.30248387113485
30
0
41
1
10
183.486284092466
20
8.28789507403548
30
0
0
SPLINE
5
277
100
AcDbEntity
8
1
62
256
6
ByLayer
370
13
48
1
60
0
100
AcDbSpline
70
4
71
2
72
6
73
3
40
0
40
0
40
0
40
1
40
1
40
1
41
1
10
183.634176859129
20
8.20195532165192
30
0
41
0.997409491337352
10
183.633507586814
20
8.25243418862893
30
0
41
1
10
183.64005774503
20
8.30248387113485
30
0
0
SPLINE
5
278
100
AcDbEntity
8
1
62
256
6
ByLayer
370
13
48
1
60
0
100
AcDbSpline
70
4
71
3
72
10
73
6
40
0
40
0
40
0
40
0
40
0.5
40
0.5
40
1
40
1
40
1
40
1
41
1
10
195.518996061901
20
3.92752581520176
30
0
41
1
10
195.487757704804
20
3.92635112300854
30
0
41
1
10
195.459182863701
20
3.92694767985901
30
0
41
1
10
195.401111058642
20
3.92749053880092
30
0
41
1
10
195.371839773038
20
3.92762040990638
30
0
41
1
10
195.342694493809
20
3.92782615385897
30
0
0
SPLINE
5
279
100
AcDbEntity
8
1
62
256
6
ByLayer
370
13
48
1
60
0
100
AcDbSpline
70
4
71
3
72
22
73
18
40
0
40
0
40
0
40
0
40
0.124999999999992
40
0.124999999999992
40
0.249999999999984
40
0.249999999999984
40
0.374999999999977
40
0.374999999999977
40
0.499999999999969
40
0.499999999999969
40
0.624999999999961
40
0.624999999999961
40
0.687499999999957
40
0.687499999999957
40
0.749999999999953
40
0.749999999999953
40
1
40
1
40
1
40
1
41
1
10
184.321234395315
20
3.8052900351033
30
0
41
1
10
184.329428590623
20
3.75023830809434
30
0
41
1
10
184.343793166725
20
3.69700036615342
30
0
41
1
10
184.386037207804
20
3.59449718743468
30
0
41
1
10
184.413473761906
20
3.54629100413638
30
0
41
1
10
184.478045712819
20
3.45764318400998
30
0
41
1
10
184.516394928898
20
3.41668141899118
30
0
41
1
10
184.600269395074
20
3.34581348305315
30
0
41
1
10
184.645814318026
20
3.31533592663448
30
0
41
1
10
184.744958131236
20
3.26544572738231
30
0
41
1
10
184.796572635995
20
3.24674349952778
30
0
41
1
10
184.876536323224
20
3.22758587802824
30
0
41
1
10
184.903704809815
20
3.22271752878603
30
0
41
1
10
184.958767460041
20
3.21623138789786
30
0
41
1
10
184.986322407176
20
3.21487605407452
30
0
41
1
10
185.124151950082
20
3.21247926485302
30
0
41
1
10
185.23444143501
20
3.21262766546948
30
0
41
1
10
185.344755042037
20
3.2147037661037
30
0
0
SPLINE
5
27A
100
AcDbEntity
8
1
62
256
6
ByLayer
370
13
48
1
60
0
100
AcDbSpline
70
4
71
2
72
6
73
3
40
0
40
0
40
0
40
1
40
1
40
1
41
1
10
183.634176859129
20
8.20195532165192
30
0
41
0.997409491337352
10
183.634846131443
20
8.15147645467357
30
0
41
1
10
183.642720982206
20
8.10161317576046
30
0
0
SPLINE
5
27B
100
AcDbEntity
8
1
62
256
6
ByLayer
370
13
48
1
60
0
100
AcDbSpline
70
4
71
3
72
10
73
6
40
0
40
0
40
0
40
0
40
0.470262425363474
40
0.470262425363474
40
1
40
1
40
1
40
1
41
1
10
194.48645480618
20
13.1665880352731
30
0
41
1
10
194.486489410716
20
13.166368680999
30
0
41
1
10
194.499379033896
20
13.1659664006476
30
0
41
1
10
194.547565680876
20
13.1649749331924
30
0
41
1
10
194.585531558302
20
13.1643812483811
30
0
41
1
10
194.624763344023
20
13.1639218132919
30
0
0
SPLINE
5
27C
100
AcDbEntity
8
1
62
256
6
ByLayer
370
13
48
1
60
0
100
AcDbSpline
70
4
71
3
72
9
73
5
40
0
40
0
40
0
40
0
40
0.5
40
1
40
1
40
1
40
1
41
1
10
184.428283576747
20
13.4657071485046
30
0
41
1
10
184.459679992809
20
13.4683954238192
30
0
41
1
10
184.522607893671
20
13.4719755703605
30
0
41
1
10
184.585504759604
20
13.4759152246524
30
0
41
1
10
184.616957072174
20
13.477840113344
30
0
0
SPLINE
5
27D
100
AcDbEntity
8
1
62
256
6
ByLayer
370
13
48
1
60
0
100
AcDbSpline
70
4
71
3
72
24
73
20
40
0
40
0
40
0
40
0
40
0.0312500000000019
40
0.0312500000000019
40
0.0625000000000037
40
0.0625000000000037
40
0.125000000000006
40
0.125000000000006
40
0.187500000000008
40
0.187500000000008
40
0.250000000000011
40
0.250000000000011
40
0.375000000000009
40
0.375000000000009
40
0.500000000000008
40
0.500000000000008
40
0.750000000000004
40
0.750000000000004
40
1
40
1
40
1
40
1
41
1
10
196.385566134791
20
4.4382856921145
30
0
41
1
10
196.38455520486
20
4.42471686008349
30
0
41
1
10
196.383294425882
20
4.41024528186873
30
0
41
1
10
196.380125140457
20
4.38078786556454
30
0
41
1
10
196.378228376402
20
4.36614752719177
30
0
41
1
10
196.372467944692
20
4.32705720317026
30
0
41
1
10
196.368571327169
20
4.30646678992304
30
0
41
1
10
196.361207102297
20
4.27188455344037
30
0
41
1
10
196.357735528083
20
4.25793952217032
30
0
41
1
10
196.351033280241
20
4.23330816699826
30
0
41
1
10
196.347794106396
20
4.22267268417781
30
0
41
1
10
196.338366494172
20
4.19405433126198
30
0
41
1
10
196.332420747643
20
4.1791122331299
30
0
41
1
10
196.321016550459
20
4.15386149857341
30
0
41
1
10
196.315547000787
20
4.14363731810585
30
0
41
1
10
196.299600554885
20
4.11773726114501
30
0
41
1
10
196.28957680997
20
4.10674040434452
30
0
41
1
10
196.27019681169
20
4.09163888337307
30
0
41
1
10
196.260878211288
20
4.08765376298342
30
0
41
1
10
196.251817801023
20
4.08601441906293
30
0
0
SPLINE
5
27E
100
AcDbEntity
8
1
62
256
6
ByLayer
370
13
48
1
60
0
100
AcDbSpline
70
4
71
3
72
8
73
4
40
0
40
0
40
0
40
0
40
1
40
1
40
1
40
1
41
1
10
195.436380679436
20
14.0339175713221
30
0
41
1
10
195.370716085436
20
14.0340911062316
30
0
41
1
10
195.305042270993
20
14.0335277962315
30
0
41
1
10
195.239360037168
20
14.0322916574543
30
0
0
SPLINE
5
27F
100
AcDbEntity
8
1
62
256
6
ByLayer
370
13
48
1
60
0
100
AcDbSpline
70
4
71
2
72
6
73
3
40
0
40
0
40
0
40
1
40
1
40
1
41
0.999101602263108
10
183.483853906926
20
8.26669487848379
30
0
41
0.997987786658095
10
183.480210822154
20
8.22968961997609
30
0
41
1
10
183.480703828068
20
8.19250538360424
30
0
0
SPLINE
5
280
100
AcDbEntity
8
1
62
256
6
ByLayer
370
13
48
1
60
0
100
AcDbSpline
70
4
71
3
72
8
73
4
40
0
40
0
40
0
40
0
40
1
40
1
40
1
40
1
41
1
10
195.714141060928
20
3.93395370596087
30
0
41
1
10
195.646799466706
20
3.92987987374633
30
0
41
1
10
195.582265530411
20
3.9283492287272
30
0
41
1
10
195.518996061901
20
3.92752581520176
30
0
0
SPLINE
5
281
100
AcDbEntity
8
1
62
256
6
ByLayer
370
13
48
1
60
0
100
AcDbSpline
70
4
71
3
72
22
73
18
40
0
40
0
40
0
40
0
40
0.042325732635753
40
0.042325732635753
40
0.0846514652715061
40
0.0846514652715061
40
0.169302930543012
40
0.169302930543012
40
0.253954395814518
40
0.253954395814518
40
0.338605861086024
40
0.338605861086024
40
0.507908791629047
40
0.507908791629047
40
0.67721172217207
40
0.67721172217207
40
1
40
1
40
1
40
1
41
1
10
184.291203216193
20
3.80444698970769
30
0
41
1
10
184.293626937306
20
3.79105816011068
30
0
41
1
10
184.296393501436
20
3.77679764600433
30
0
41
1
10
184.302624563642
20
3.74783288104428
30
0
41
1
10
184.306041269096
20
3.73347100980868
30
0
41
1
10
184.315856196058
20
3.69519695574681
30
0
41
1
10
184.321883751757
20
3.67512664637934
30
0
41
1
10
184.332822462671
20
3.64150362611551
30
0
41
1
10
184.337732671927
20
3.62799786550335
30
0
41
1
10
184.346972881858
20
3.60420201913948
30
0
41
1
10
184.351306021845
20
3.59396338447112
30
0
41
1
10
184.363673421075
20
3.5664872597049
30
0
41
1
10
184.371148470738
20
3.55224851569759
30
0
41
1
10
184.385129615016
20
3.52832817051345
30
0
41
1
10
184.391637919795
20
3.51873172279829
30
0
41
1
10
184.409626097743
20
3.49539067195974
30
0
41
1
10
184.420281114025
20
3.48568891916585
30
0
41
1
10
184.430283075878
20
3.47918796565278
30
0
0
SPLINE
5
282
100
AcDbEntity
8
1
62
256
6
ByLayer
370
13
48
1
60
0
100
AcDbSpline
70
4
71
3
72
18
73
14
40
0
40
0
40
0
40
0
40
0.0427228815734148
40
0.0427228815734148
40
0.282042161180314
40
0.282042161180314
40
0.341871981081954
40
0.341871981081954
40
0.401701800983594
40
0.401701800983594
40
0.521361440786875
40
0.521361440786875
40
1
40
1
40
1
40
1
41
1
10
184.119099469532
20
13.2618347262757
30
0
41
1
10
184.125218809388
20
13.2632742401738
30
0
41
1
10
184.131481034922
20
13.2646353522427
30
0
41
1
10
184.173767885223
20
13.2730121296992
30
0
41
1
10
184.212124101188
20
13.2766286934808
30
0
41
1
10
184.257811285124
20
13.2785419783949
30
0
41
1
10
184.266940440947
20
13.2789064550989
30
0
41
1
10
184.285738982702
20
13.2805672875093
30
0
41
1
10
184.295320894918
20
13.2817115138875
30
0
41
1
10
184.323413234782
20
13.2840215416014
30
0
41
1
10
184.34187687822
20
13.2851069593756
30
0
41
1
10
184.434405978616
20
13.2908963829448
30
0
41
1
10
184.506882188091
20
13.2927975387432
30
0
41
1
10
184.578368608755
20
13.2939601003791
30
0
0
SPLINE
5
283
100
AcDbEntity
8
1
62
256
6
ByLayer
370
13
48
1
60
0
100
AcDbSpline
70
4
71
2
72
6
73
3
40
0
40
0
40
0
40
1
40
1
40
1
41
1
10
196.949938220076
20
9.0450401019061
30
0
41
0.997409491337352
10
196.95060749239
20
8.99456123492914
30
0
41
1
10
196.944057334174
20
8.94451155242319
30
0
0
SPLINE
5
284
100
AcDbEntity
8
1
62
256
6
ByLayer
370
13
48
1
60
0
100
AcDbSpline
70
4
71
3
72
10
73
6
40
0
40
0
40
0
40
0
40
0.0824543910097766
40
0.0824543910097766
40
1
40
1
40
1
40
1
41
1
10
184.069733147524
20
13.4274222972882
30
0
41
1
10
184.079537619541
20
13.4289009107272
30
0
41
1
10
184.089360827761
20
13.4302204361322
30
0
41
1
10
184.208656447915
20
13.4448601615105
30
0
41
1
10
184.318357267592
20
13.4562409642222
30
0
41
1
10
184.428283576747
20
13.4657071485046
30
0
0
SPLINE
5
285
100
AcDbEntity
8
1
62
256
6
ByLayer
370
13
48
1
60
0
100
AcDbSpline
70
4
71
3
72
10
73
6
40
0
40
0
40
0
40
0
40
0.5
40
0.5
40
1
40
1
40
1
40
1
41
1
10
186.087825906564
20
4.07984974977188
30
0
41
1
10
186.084146470249
20
4.07965691868557
30
0
41
1
10
186.063823406234
20
4.07972387438755
30
0
41
1
10
186.002596517335
20
4.0802410952725
30
0
41
1
10
185.961685922196
20
4.0806804539678
30
0
41
1
10
185.922454136475
20
4.08113988905697
30
0
0
SPLINE
5
286
100
AcDbEntity
8
1
62
256
6
ByLayer
370
13
48
1
60
0
100
AcDbSpline
70
4
71
1
72
4
73
2
40
0
40
0
40
1
40
1
41
1
10
183.480703828068
20
8.19250538360424
30
0
41
1
10
183.634176859129
20
8.20195532165192
30
0
0
SPLINE
5
287
100
AcDbEntity
8
1
62
256
6
ByLayer
370
13
48
1
60
0
100
AcDbSpline
70
4
71
3
72
19
73
15
40
0
40
0
40
0
40
0
40
0.499999999999969
40
0.499999999999969
40
0.749999999999953
40
0.749999999999953
40
0.812499999999965
40
0.812499999999965
40
0.874999999999976
40
0.874999999999976
40
0.906249999999982
40
0.906249999999982
40
0.937499999999988
40
1
40
1
40
1
40
1
41
1
10
190.103615668238
20
12.4839260090589
30
0
41
1
10
189.442392599645
20
12.4492727764232
30
0
41
1
10
188.781169083779
20
12.4146280754878
30
0
41
1
10
187.789334522221
20
12.3626474448618
30
0
41
1
10
187.458724173495
20
12.3452982232787
30
0
41
1
10
187.045459358944
20
12.3236475197814
30
0
41
1
10
186.962806057262
20
12.3193238390674
30
0
41
1
10
186.797499735696
20
12.3106711040776
30
0
41
1
10
186.714819130489
20
12.3058830947965
30
0
41
1
10
186.590910548855
20
12.3000063588022
30
0
41
1
10
186.549666058916
20
12.2988406488285
30
0
41
1
10
186.467452211229
20
12.3002480184396
30
0
41
1
10
186.344470464573
20
12.3069661043002
30
0
41
1
10
186.22248944067
20
12.3272830778995
30
0
41
1
10
186.141631736097
20
12.3471191660302
30
0
0
SPLINE
5
288
100
AcDbEntity
8
1
62
256
6
ByLayer
370
13
48
1
60
0
100
AcDbSpline
70
4
71
3
72
12
73
8
40
0
40
0
40
0
40
0
40
0.032749872862673
40
0.032749872862673
40
0.889104983254469
40
0.889104983254469
40
1
40
1
40
1
40
1
41
1
10
196.168478787014
20
3.9940502502993
30
0
41
1
10
196.167037654273
20
3.99252006714616
30
0
41
1
10
196.165590332509
20
3.99099724092798
30
0
41
1
10
196.12613330843
20
3.94985841507062
30
0
41
1
10
196.084023657468
20
3.9147870770891
30
0
41
1
10
196.031284218698
20
3.88091333719754
30
0
41
1
10
196.025192645135
20
3.87713025528231
30
0
41
1
10
196.019056885626
20
3.87344711268759
30
0
0
SPLINE
5
289
100
AcDbEntity
8
1
62
256
6
ByLayer
370
13
48
1
60
0
100
AcDbSpline
70
4
71
3
72
18
73
14
40
0
40
0
40
0
40
0
40
0.500000000000021
40
0.500000000000021
40
0.750000000000021
40
0.750000000000021
40
0.875000000000021
40
0.875000000000021
40
0.906250000000016
40
0.906250000000016
40
0.937500000000011
40
0.937500000000011
40
1
40
1
40
1
40
1
41
1
10
190.081928675287
20
12.6329952938186
30
0
41
1
10
189.42896978915
20
12.5987751686331
30
0
41
1
10
188.776010486223
20
12.5645629959003
30
0
41
1
10
187.796572151788
20
12.5132329079406
30
0
41
1
10
187.470093420589
20
12.4961029402339
30
0
41
1
10
186.980374734355
20
12.4704417092852
30
0
41
1
10
186.817133889299
20
12.4619706477535
30
0
41
1
10
186.613087792133
20
12.4510622258241
30
0
41
1
10
186.572278867144
20
12.4488615657931
30
0
41
1
10
186.490600610542
20
12.4483531802341
30
0
41
1
10
186.449735005864
20
12.4498052705185
30
0
41
1
10
186.327061176525
20
12.4591248303009
30
0
41
1
10
186.245175387497
20
12.4719909733529
30
0
41
1
10
186.163177104127
20
12.4921068693469
30
0
0
SPLINE
5
28A
100
AcDbEntity
8
SK1
62
256
6
ByLayer
370
13
48
1
60
0
100
AcDbSpline
70
4
71
3
72
22
73
18
40
0
40
0
40
0
40
0
40
0.125
40
0.125
40
0.250000000000001
40
0.250000000000001
40
0.312500000000001
40
0.312500000000001
40
0.375000000000001
40
0.375000000000001
40
0.500000000000002
40
0.500000000000002
40
0.625000000000004
40
0.625000000000004
40
0.750000000000005
40
0.750000000000005
40
1
40
1
40
1
40
1
41
1
10
-57.6338131992802
20
-7.35178671505685
30
0
41
1
10
-57.6745902238048
20
-7.3218871388861
30
0
41
1
10
-57.7188502336059
20
-7.29709174043171
30
0
41
1
10
-57.814373771013
20
-7.26393071295962
30
0
41
1
10
-57.8642212530089
20
-7.2562166116995
30
0
41
1
10
-57.9401828125352
20
-7.26037094821749
30
0
41
1
10
-57.9649934154392
20
-7.26430468254605
30
0
41
1
10
-58.0136926069433
20
-7.27678108502224
30
0
41
1
10
-58.0377861392479
20
-7.28543920942283
30
0
41
1
10
-58.1066236504335
20
-7.31673178690448
30
0
41
1
10
-58.1485885975357
20
-7.34462265414265
30
0
41
1
10
-58.2262468914571
20
-7.40945129068587
30
0
41
1
10
-58.2609360496114
20
-7.44550135932889
30
0
41
1
10
-58.3248012622005
20
-7.52244312054987
30
0
41
1
10
-58.3540141780759
20
-7.56351301068545
30
0
41
1
10
-58.43460198071
20
-7.69138085766116
30
0
41
1
10
-58.4789677891323
20
-7.78260024402715
30
0
41
1
10
-58.5162221138916
20
-7.87543832737532
30
0
0
SPLINE
5
28B
100
AcDbEntity
8
SK1
62
256
6
ByLayer
370
13
48
1
60
0
100
AcDbSpline
70
4
71
3
72
8
73
4
40
0
40
0
40
0
40
0
40
1
40
1
40
1
40
1
41
1
10
-57.6338131992802
20
7.35178671505699
30
0
41
1
10
-57.2930308684636
20
7.60166387938381
30
0
41
1
10
-56.9481570681903
20
7.84467424065522
30
0
41
1
10
-56.6000022063888
20
8.08217792429744
30
0
0
SPLINE
5
28C
100
AcDbEntity
8
1
62
256
6
ByLayer
370
18
48
1
60
0
100
AcDbSpline
70
4
71
1
72
4
73
2
40
0
40
0
40
1
40
1
41
1
10
196.835476396635
20
-3.447624769909
30
0
41
1
10
196.328852167199
20
-0.273362177465003
30
0
0
SPLINE
5
28D
100
AcDbEntity
8
1
62
256
6
ByLayer
370
18
48
1
60
0
100
AcDbSpline
70
4
71
3
72
24
73
20
40
0
40
0
40
0
40
0
40
0.0132446684776555
40
0.0449303480307022
40
0.108301707136796
40
0.235044425348983
40
0.361787143561169
40
0.480608441885095
40
0.488529861773356
40
0.50437270154988
40
0.520215541326403
40
0.55190122087945
40
0.615272579985543
40
0.74201529819773
40
0.868758016409917
40
0.93212937551601
40
0.963815055069057
40
0.995500734622104
40
1
40
1
40
1
40
1
41
1
10
195.756532632927
20
-8.30699685151066
30
0
41
1
10
195.776862503881
20
-8.2786374781133
30
0
41
1
10
195.832137522926
20
-8.17080800072776
30
0
41
1
10
195.836648910487
20
-7.86482612771681
30
0
41
1
10
195.942607586117
20
-7.24710962469743
30
0
41
1
10
196.048628030392
20
-6.35641345950276
30
0
41
1
10
196.18992653551
20
-5.31262238916338
30
0
41
1
10
196.285930852619
20
-4.60238418069494
30
0
41
1
10
196.338681108226
20
-4.20503248590424
30
0
41
1
10
196.333262296873
20
-4.09930177126282
30
0
41
1
10
196.291877141788
20
-3.92307904102253
30
0
41
1
10
196.250844119398
20
-3.61261344065386
30
0
41
1
10
196.146604232347
20
-2.99326428487203
30
0
41
1
10
196.00893225948
20
-2.1079900825022
30
0
41
1
10
195.864116767485
20
-1.22382277361871
30
0
41
1
10
195.770586250151
20
-0.602818908913122
30
0
41
1
10
195.704236751648
20
-0.250413602775211
30
0
41
1
10
195.697462946837
20
-0.0569914709383568
30
0
41
1
10
195.649580584397
20
0.0224749992000568
30
0
41
1
10
195.64301216448
20
0.0319666638572187
30
0
0
SPLINE
5
28E
100
AcDbEntity
8
1
62
256
6
ByLayer
370
18
48
1
60
0
100
AcDbSpline
70
4
71
1
72
4
73
2
40
0
40
0
40
1
40
1
41
1
10
196.16274075277
20
-9.29033704821259
30
0
41
1
10
195.862428873929
20
-8.70044140735908
30
0
0
SPLINE
5
28F
100
AcDbEntity
8
1
62
256
6
ByLayer
370
18
48
1
60
0
100
AcDbSpline
70
4
71
1
72
4
73
2
40
0
40
0
40
1
40
1
41
1
10
196.994052437891
20
-4.62404789828301
30
0
41
1
10
196.65909619282
20
-4.29529197361299
30
0
0
SPLINE
5
290
100
AcDbEntity
8
1
62
256
6
ByLayer
370
18
48
1
60
0
100
AcDbSpline
70
4
71
3
72
10
73
6
40
0
40
0
40
0
40
0
40
0.172190671173928
40
0.172190671173928
40
1
40
1
40
1
40
1
41
1
10
195.804879315322
20
-9.39220531831853
30
0
41
1
10
195.825546794612
20
-9.38632448286469
30
0
41
1
10
195.846214273653
20
-9.38044404871542
30
0
41
1
10
195.966240977146
20
-9.34629400963283
30
0
41
1
10
196.06560020991
20
-9.31802019634634
30
0
41
1
10
196.164959432414
20
-9.28975147299673
30
0
0
SPLINE
5
291
100
AcDbEntity
8
1
62
256
6
ByLayer
370
18
48
1
60
0
100
AcDbSpline
70
4
71
3
72
12
73
8
40
0
40
0
40
0
40
0
40
0.105537569828376
40
0.105537569828376
40
0.55255916402725
40
0.55255916402725
40
1
40
1
40
1
40
1
41
1
10
195.758425809459
20
-9.40373432808613
30
0
41
1
10
195.760072946334
20
-9.40338452855787
30
0
41
1
10
195.761718738857
20
-9.40302883176045
30
0
41
1
10
195.770330599453
20
-9.40113515592569
30
0
41
1
10
195.777275229147
20
-9.39949694827391
30
0
41
1
10
195.791115581304
20
-9.39600923907437
30
0
41
1
10
195.798012870748
20
-9.39415913330151
30
0
41
1
10
195.804879315322
20
-9.39220531831853
30
0
0
SPLINE
5
292
100
AcDbEntity
8
1
62
256
6
ByLayer
370
18
48
1
60
0
100
AcDbSpline
70
4
71
3
72
25
73
21
40
0
40
0
40
0
40
0
40
0.0040195050644948
40
0.0344701739547812
40
0.0649208428450676
40
0.12582218062564
40
0.247624856186786
40
0.369427531747932
40
0.483617540086506
40
0.491230207309078
40
0.506455541754221
40
0.521680876199364
40
0.55213154508965
40
0.613032882870223
40
0.734835558431369
40
0.856638233992514
40
0.917539571773087
40
0.947990240663374
40
0.97844090955366
40
1
40
1
40
1
40
1
41
1
10
195.687356182425
20
-8.55921132201854
30
0
41
1
10
195.700272611297
20
-8.55385903827946
30
0
41
1
10
195.809187387816
20
-8.50177275190453
30
0
41
1
10
195.975541301071
20
-8.28630170773951
30
0
41
1
10
195.981358764393
20
-7.891736111341
30
0
41
1
10
196.086062367442
20
-7.28133641405626
30
0
41
1
10
196.192380929298
20
-6.38813571129793
30
0
41
1
10
196.333527358378
20
-5.34546804711627
30
0
41
1
10
196.429556243023
20
-4.63504808845369
30
0
41
1
10
196.48405378446
20
-4.22453461884291
30
0
41
1
10
196.477306862187
20
-4.09289008148528
30
0
41
1
10
196.43460647314
20
-3.91106693439934
30
0
41
1
10
196.394172135382
20
-3.60513112425923
30
0
41
1
10
196.28966123378
20
-2.98417171506605
30
0
41
1
10
196.152037492593
20
-2.09920765760623
30
0
41
1
10
196.007277259394
20
-1.21537772989899
30
0
41
1
10
195.913494179801
20
-0.59269695648581
30
0
41
1
10
195.848660152179
20
-0.248340844266693
30
0
41
1
10
195.838292774726
20
0.0476937041701433
30
0
41
1
10
195.688786277982
20
0.187897668349905
30
0
41
1
10
195.620073055788
20
0.230197491875629
30
0
0
SPLINE
5
293
100
AcDbEntity
8
1
62
256
6
ByLayer
370
18
48
1
60
0
100
AcDbSpline
70
4
71
3
72
12
73
8
40
0
40
0
40
0
40
0
40
0.500000000000005
40
0.500000000000005
40
0.750000000000002
40
0.750000000000002
40
1
40
1
40
1
40
1
41
1
10
196.413273379707
20
-9.00185062843539
30
0
41
1
10
196.404380011263
20
-9.06848976866846
30
0
41
1
10
196.375357451451
20
-9.13220789484308
30
0
41
1
10
196.309254657337
20
-9.20887575094221
30
0
41
1
10
196.283439373384
20
-9.23134217785804
30
0
41
1
10
196.226385609473
20
-9.2672524471501
30
0
41
1
10
196.195013930997
20
-9.28003462100085
30
0
41
1
10
196.16274075277
20
-9.29038271237124
30
0
0
SPLINE
5
294
100
AcDbEntity
8
1
62
256
6
ByLayer
370
18
48
1
60
0
100
AcDbSpline
70
4
71
2
72
6
73
3
40
0
40
0
40
0
40
1
40
1
40
1
41
1
10
196.65909619282
20
-4.29529197361299
30
0
41
1
10
196.672343970845
20
-4.19543386195826
30
0
41
1
10
196.656466628272
20
-4.09595410624189
30
0
0
SPLINE
5
295
100
AcDbEntity
8
1
62
256
6
ByLayer
370
18
48
1
60
0
100
AcDbSpline
70
4
71
1
72
4
73
2
40
0
40
0
40
1
40
1
41
1
10
196.413273379707
20
-9.00180090314655
30
0
41
1
10
196.857198359279
20
-5.65561635005412
30
0
0
SPLINE
5
296
100
AcDbEntity
8
1
62
256
6
ByLayer
370
18
48
1
60
0
100
AcDbSpline
70
4
71
2
72
6
73
3
40
0
40
0
40
0
40
1
40
1
40
1
41
1
10
195.649549510561
20
-8.7556307461625
30
0
41
1
10
195.69183623533
20
-8.74898435385037
30
0
41
1
10
195.732991534105
20
-8.73727341788754
30
0
0
SPLINE
5
297
100
AcDbEntity
8
1
62
256
6
ByLayer
370
18
48
1
60
0
100
AcDbSpline
70
4
71
3
72
8
73
4
40
0
40
0
40
0
40
0
40
1
40
1
40
1
40
1
41
1
10
196.310353515924
20
-0.190557620705903
30
0
41
1
10
196.318220910639
20
-0.21778487895736
30
0
41
1
10
196.32438712773
20
-0.24538639787707
30
0
41
1
10
196.328852167199
20
-0.273362177465003
30
0
0
SPLINE
5
298
100
AcDbEntity
8
1
62
256
6
ByLayer
370
18
48
1
60
0
100
AcDbSpline
70
4
71
1
72
4
73
2
40
0
40
0
40
1
40
1
41
1
10
195.986088690018
20
0.0712110382393121
30
0
41
1
10
196.310353515924
20
-0.19055762070596
30
0
0
SPLINE
5
299
100
AcDbEntity
8
1
62
256
6
ByLayer
370
18
48
1
60
0
100
AcDbSpline
70
4
71
1
72
4
73
2
40
0
40
0
40
1
40
1
41
1
10
196.328852167199
20
-0.27336217746489
30
0
41
1
10
196.004587341279
20
-0.0115935185196463
30
0
0
SPLINE
5
29A
100
AcDbEntity
8
1
62
256
6
ByLayer
370
18
48
1
60
0
100
AcDbSpline
70
4
71
3
72
8
73
4
40
0
40
0
40
0
40
0
40
1
40
1
40
1
40
1
41
1
10
196.992539096747
20
-4.42457055023903
30
0
41
1
10
196.996741037132
20
-4.45768754160542
30
0
41
1
10
196.999578584933
20
-4.49090295835555
30
0
41
1
10
197.000018935768
20
-4.52428437560681
30
0
0
SPLINE
5
29B
100
AcDbEntity
8
1
62
256
6
ByLayer
370
18
48
1
60
0
100
AcDbSpline
70
4
71
1
72
4
73
2
40
0
40
0
40
1
40
1
41
1
10
196.965983004659
20
-4.26531610768433
30
0
41
1
10
196.920144732521
20
-3.97811564608918
30
0
0
SPLINE
5
29C
100
AcDbEntity
8
1
62
256
6
ByLayer
370
18
48
1
60
0
100
AcDbSpline
70
4
71
3
72
12
73
8
40
0
40
0
40
0
40
0
40
0.5
40
0.5
40
0.75
40
0.75
40
1
40
1
40
1
40
1
41
1
10
195.91698097373
20
0.4131388083822
30
0
41
1
10
195.984133139925
20
0.404313389822704
30
0
41
1
10
196.048338811509
20
0.375509589210395
30
0
41
1
10
196.125601403102
20
0.309916273785404
30
0
41
1
10
196.148241162913
20
0.284298582579936
30
0
41
1
10
196.184428643998
20
0.227681441292447
30
0
41
1
10
196.197309899054
20
0.196550104148201
30
0
41
1
10
196.207738400028
20
0.164524220933345
30
0
0
SPLINE
5
29D
100
AcDbEntity
8
1
62
256
6
ByLayer
370
18
48
1
60
0
100
AcDbSpline
70
4
71
1
72
4
73
2
40
0
40
0
40
1
40
1
41
1
10
196.207738400028
20
0.164569885091566
30
0
41
1
10
195.948973130083
20
0.199659523736585
30
0
0
SPLINE
5
29E
100
AcDbEntity
8
1
62
256
6
ByLayer
370
18
48
1
60
0
100
AcDbSpline
70
4
71
1
72
4
73
2
40
0
40
0
40
1
40
1
41
1
10
195.732991534105
20
-8.73727341788751
30
0
41
1
10
195.804879315322
20
-9.39216822188925
30
0
0
SPLINE
5
29F
100
AcDbEntity
8
1
62
256
6
ByLayer
370
18
48
1
60
0
100
AcDbSpline
70
4
71
1
72
4
73
2
40
0
40
0
40
1
40
1
41
1
10
196.656466628272
20
-4.09595410624192
30
0
41
1
10
196.991422873346
20
-4.42471003091165
30
0
0
SPLINE
5
2A0
100
AcDbEntity
8
1
62
256
6
ByLayer
370
18
48
1
60
0
100
AcDbSpline
70
4
71
2
72
12
73
9
40
0
40
0
40
0
40
0.25
40
0.5
40
0.5
40
0.75
40
0.75
40
0.875
40
1
40
1
40
1
41
1
10
195.862428873929
20
-8.70044140735897
30
0
41
1
10
195.910912994078
20
-8.68664502042586
30
0
41
1
10
195.9966429727
20
-8.63264873056517
30
0
41
1
10
196.030908499562
20
-8.59351505927359
30
0
41
1
10
196.063678838666
20
-8.55608899885473
30
0
41
1
10
196.085245532823
20
-8.50884172784987
30
0
41
1
10
196.09526147702
20
-8.48689928148426
30
0
41
1
10
196.109544458842
20
-8.43766198651858
30
0
41
1
10
196.112961500878
20
-8.41190526229681
30
0
0
SPLINE
5
2A1
100
AcDbEntity
8
1
62
256
6
ByLayer
370
18
48
1
60
0
100
AcDbSpline
70
4
71
2
72
6
73
3
40
0
40
0
40
0
40
1
40
1
40
1
41
1
10
196.004587341279
20
-0.0115935185196747
30
0
41
1
10
195.997889782055
20
0.0303701509960206
30
0
41
1
10
195.986088690018
20
0.0712110382392837
30
0
0
SPLINE
5
2A2
100
AcDbEntity
8
1
62
256
6
ByLayer
370
18
48
1
60
0
100
AcDbSpline
70
4
71
1
72
4
73
2
40
0
40
0
40
1
40
1
41
1
10
195.658215703783
20
0.448278172316122
30
0
41
1
10
195.916980973729
20
0.413188533671047
30
0
0
SPLINE
5
2A3
100
AcDbEntity
8
1
62
256
6
ByLayer
370
18
48
1
60
0
100
AcDbSpline
70
4
71
1
72
4
73
2
40
0
40
0
40
1
40
1
41
1
10
196.971155556863
20
-4.79663829786907
30
0
41
1
10
196.994052437891
20
-4.62404789828301
30
0
0
SPLINE
5
2A4
100
AcDbEntity
8
1
62
256
6
ByLayer
370
18
48
1
60
0
100
AcDbSpline
70
4
71
1
72
4
73
2
40
0
40
0
40
1
40
1
41
1
10
196.930906681617
20
-5.10002326340467
30
0
41
1
10
196.971155556863
20
-4.79663829786907
30
0
0
SPLINE
5
2A5
100
AcDbEntity
8
1
62
256
6
ByLayer
370
18
48
1
60
0
100
AcDbSpline
70
4
71
1
72
4
73
2
40
0
40
0
40
1
40
1
41
1
10
195.716058102714
20
-9.36152135350827
30
0
41
1
10
195.649549510561
20
-8.7556307461625
30
0
0
SPLINE
5
2A6
100
AcDbEntity
8
1
62
256
6
ByLayer
370
18
48
1
60
0
100
AcDbSpline
70
4
71
1
72
4
73
2
40
0
40
0
40
1
40
1
41
1
10
196.991422873346
20
-4.42471003091165
30
0
41
1
10
196.965983004659
20
-4.26531610768433
30
0
0
SPLINE
5
2A7
100
AcDbEntity
8
1
62
256
6
ByLayer
370
18
48
1
60
0
100
AcDbSpline
70
4
71
1
72
4
73
2
40
0
40
0
40
1
40
1
41
1
10
196.112961500878
20
-8.41190526229639
30
0
41
1
10
196.413273379707
20
-9.0018009031466
30
0
0
SPLINE
5
2A8
100
AcDbEntity
8
1
62
256
6
ByLayer
370
18
48
1
60
0
100
AcDbSpline
70
4
71
1
72
4
73
2
40
0
40
0
40
1
40
1
41
1
10
196.920144732521
20
-3.97811564608918
30
0
41
1
10
196.835476396635
20
-3.447624769909
30
0
0
SPLINE
5
2A9
100
AcDbEntity
8
1
62
256
6
ByLayer
370
18
48
1
60
0
100
AcDbSpline
70
4
71
3
72
8
73
4
40
0
40
0
40
0
40
0
40
1
40
1
40
1
40
1
41
1
10
197.000018935768
20
-4.52428437560681
30
0
41
1
10
197.000459324616
20
-4.5576686750664
30
0
41
1
10
196.998577737503
20
-4.59095137938417
30
0
41
1
10
196.995333121255
20
-4.62417108649728
30
0
0
SPLINE
5
2AA
100
AcDbEntity
8
1
62
256
6
ByLayer
370
18
48
1
60
0
100
AcDbSpline
70
4
71
1
72
4
73
2
40
0
40
0
40
1
40
1
41
1
10
196.857198359279
20
-5.65561635005412
30
0
41
1
10
196.930906681617
20
-5.10002326340467
30
0
0
SPLINE
5
2AB
100
AcDbEntity
8
1
62
256
6
ByLayer
370
18
48
1
60
0
100
AcDbSpline
70
4
71
2
72
12
73
9
40
0
40
0
40
0
40
0.25
40
0.5
40
0.5
40
0.75
40
0.75
40
0.875
40
1
40
1
40
1
41
1
10
195.948973130083
20
0.199659523736614
30
0
41
1
10
195.935070532349
20
0.247773242798104
30
0
41
1
10
195.880658554724
20
0.332848275489369
30
0
41
1
10
195.841223614798
20
0.366852026160899
30
0
41
1
10
195.80350943171
20
0.399372011760363
30
0
41
1
10
195.755898429921
20
0.420773944202523
30
0
41
1
10
195.733787060718
20
0.430713370219678
30
0
41
1
10
195.684170714869
20
0.444887235243044
30
0
41
1
10
195.658215703784
20
0.448278172316066
30
0
0
SPLINE
5
2AC
100
AcDbEntity
8
1
62
256
6
ByLayer
370
18
48
1
60
0
100
AcDbSpline
70
4
71
3
72
18
73
14
40
0
40
0
40
0
40
0
40
0.125000000000001
40
0.125000000000001
40
0.250000000000003
40
0.250000000000003
40
0.375000000000004
40
0.375000000000004
40
0.500000000000005
40
0.500000000000005
40
0.750000000000003
40
0.750000000000003
40
1
40
1
40
1
40
1
41
1
10
191.133488779543
20
7.84736778941368
30
0
41
1
10
191.145654502982
20
7.83828594365434
30
0
41
1
10
191.155008776265
20
7.82612464071843
30
0
41
1
10
191.165414795781
20
7.7975253222433
30
0
41
1
10
191.166359227803
20
7.7816861972542
30
0
41
1
10
191.162324506021
20
7.75050142728065
30
0
41
1
10
191.157416051923
20
7.73494219122776
30
0
41
1
10
191.144532914574
20
7.70550776456062
30
0
41
1
10
191.136456611345
20
7.69132832057011
30
0
41
1
10
191.109040728909
20
7.65044770796067
30
0
41
1
10
191.08682568995
20
7.62567965648756
30
0
41
1
10
191.038273688219
20
7.58047311454993
30
0
41
1
10
191.011890279861
20
7.56007659172232
30
0
41
1
10
190.983980178409
20
7.54187777544726
30
0
0
SPLINE
5
2AD
100
AcDbEntity
8
1
62
256
6
ByLayer
370
18
48
1
60
0
100
AcDbSpline
70
4
71
3
72
16
73
12
40
0
40
0
40
0
40
0
40
0.249999999999997
40
0.249999999999997
40
0.499999999999994
40
0.499999999999994
40
0.749999999999991
40
0.749999999999991
40
0.874999999999996
40
0.874999999999996
40
1
40
1
40
1
40
1
41
1
10
190.867129684012
20
9.7715180310623
30
0
41
1
10
190.896803276484
20
9.75632909701204
30
0
41
1
10
190.92520670334
20
9.73877829616904
30
0
41
1
10
190.978207103165
20
9.69889466452014
30
0
41
1
10
191.002947184595
20
9.67651521281397
30
0
41
1
10
191.044911508371
20
9.62620839401538
30
0
41
1
10
191.062737145787
20
9.59786872290698
30
0
41
1
10
191.073602231508
20
9.5518857224678
30
0
41
1
10
191.074252050706
20
9.53596993587658
30
0
41
1
10
191.066911269291
20
9.50672078345275
30
0
41
1
10
191.058896280098
20
9.49362842732936
30
0
41
1
10
191.047751663089
20
9.48332942767817
30
0
0
SPLINE
5
2AE
100
AcDbEntity
8
1
62
256
6
ByLayer
370
18
48
1
60
0
100
AcDbSpline
70
4
71
3
72
8
73
4
40
0
40
0
40
0
40
0
40
1
40
1
40
1
40
1
41
1
10
191.047751663089
20
9.48332942767817
30
0
41
1
10
191.044493588633
20
9.47732439949351
30
0
41
1
10
191.04123522765
20
9.47131843254411
30
0
41
1
10
191.037976565932
20
9.46531147905287
30
0
0
SPLINE
5
2AF
100
AcDbEntity
8
1
62
256
6
ByLayer
370
18
48
1
60
0
100
AcDbSpline
70
4
71
3
72
20
73
16
40
0
40
0
40
0
40
0
40
0.124999999999988
40
0.124999999999988
40
0.249999999999975
40
0.249999999999975
40
0.374999999999963
40
0.374999999999963
40
0.499999999999951
40
0.499999999999951
40
0.749999999999975
40
0.749999999999975
40
0.874999999999988
40
0.874999999999988
40
1
40
1
40
1
40
1
41
1
10
191.12188384291
20
7.86426525794707
30
0
41
1
10
191.107578694831
20
7.8850957165194
30
0
41
1
10
191.100775493391
20
7.91023686717924
30
0
41
1
10
191.095085344049
20
7.96194286486013
30
0
41
1
10
191.096328963388
20
7.98843999187793
30
0
41
1
10
191.104071236588
20
8.04151094344414
30
0
41
1
10
191.110677638651
20
8.06813461029529
30
0
41
1
10
191.127839422325
20
8.11985614276941
30
0
41
1
10
191.138454341343
20
8.14523523324584
30
0
41
1
10
191.17628425878
20
8.21999836029087
30
0
41
1
10
191.208572417961
20
8.2666172500879
30
0
41
1
10
191.266978354895
20
8.32481658002629
30
0
41
1
10
191.288143853066
20
8.34223299864547
30
0
41
1
10
191.333951305111
20
8.36961441546538
30
0
41
1
10
191.358542216391
20
8.37976529666778
30
0
41
1
10
191.384225925534
20
8.38150807871196
30
0
0
SPLINE
5
2B0
100
AcDbEntity
8
1
62
256
6
ByLayer
370
18
48
1
60
0
100
AcDbSpline
70
4
71
3
72
8
73
4
40
0
40
0
40
0
40
0
40
1
40
1
40
1
40
1
41
1
10
189.150177787809
20
8.86255932318528
30
0
41
1
10
189.156458662008
20
8.86299605899035
30
0
41
1
10
189.162740759993
20
8.86343287596287
30
0
41
1
10
189.169024144456
20
8.86386977825552
30
0
0
SPLINE
5
2B1
100
AcDbEntity
8
1
62
256
6
ByLayer
370
18
48
1
60
0
100
AcDbSpline
70
4
71
3
72
8
73
4
40
0
40
0
40
0
40
0
40
1
40
1
40
1
40
1
41
1
10
190.63501758336
20
7.52233902757914
30
0
41
1
10
190.630970272116
20
7.5278536275861
30
0
41
1
10
190.626922549384
20
7.53336911274488
30
0
41
1
10
190.622874394596
20
7.53888552814283
30
0
0
SPLINE
5
2B2
100
AcDbEntity
8
1
62
256
6
ByLayer
370
18
48
1
60
0
100
AcDbSpline
70
4
71
3
72
8
73
4
40
0
40
0
40
0
40
0
40
1
40
1
40
1
40
1
41
1
10
189.507546359749
20
7.76215575795021
30
0
41
1
10
189.510121426538
20
7.76812499121976
30
0
41
1
10
189.512697130369
20
7.77409518162378
30
0
41
1
10
189.515273504057
20
7.78006637791461
30
0
0
SPLINE
5
2B3
100
AcDbEntity
8
1
62
256
6
ByLayer
370
18
48
1
60
0
100
AcDbSpline
70
4
71
3
72
16
73
12
40
0
40
0
40
0
40
0
40
0.249999999999951
40
0.249999999999951
40
0.499999999999901
40
0.499999999999901
40
0.749999999999852
40
0.749999999999852
40
0.874999999999926
40
0.874999999999926
40
1
40
1
40
1
40
1
41
1
10
190.983980178409
20
7.54187777544726
30
0
41
1
10
190.956056816916
20
7.52367031294617
30
0
41
1
10
190.926627545576
20
7.50768173578319
30
0
41
1
10
190.865285214373
20
7.4812373142903
30
0
41
1
10
190.83326470473
20
7.47068310633034
30
0
41
1
10
190.767712833547
20
7.45857344169707
30
0
41
1
10
190.733534867585
20
7.45670738364831
30
0
41
1
10
190.686343807546
20
7.46889152878632
30
0
41
1
10
190.671430331444
20
7.47572709360179
30
0
41
1
10
190.647873959632
20
7.49544263958606
30
0
41
1
10
190.639461200585
20
7.50822983168652
30
0
41
1
10
190.63501758336
20
7.52233902757911
30
0
0
SPLINE
5
2B4
100
AcDbEntity
8
1
62
256
6
ByLayer
370
18
48
1
60
0
100
AcDbSpline
70
4
71
3
72
18
73
14
40
0
40
0
40
0
40
0
40
0.125000000000032
40
0.125000000000032
40
0.250000000000065
40
0.250000000000065
40
0.375000000000097
40
0.375000000000097
40
0.500000000000129
40
0.500000000000129
40
0.750000000000065
40
0.750000000000065
40
1
40
1
40
1
40
1
41
1
10
189.421809243296
20
9.3981173962147
30
0
41
1
10
189.411198578568
20
9.40728073914778
30
0
41
1
10
189.403393700063
20
9.41952324242322
30
0
41
1
10
189.395762445261
20
9.44826798015507
30
0
41
1
10
189.395996741983
20
9.46416887970003
30
0
41
1
10
189.401958855259
20
9.49545465998159
30
0
41
1
10
189.407636723502
20
9.51105421932115
30
0
41
1
10
189.421773490612
20
9.54055434594011
30
0
41
1
10
189.430348021104
20
9.55475990091506
30
0
41
1
10
189.459007280844
20
9.59570567616774
30
0
41
1
10
189.481716909476
20
9.62049964798729
30
0
41
1
10
189.530913963933
20
9.66573999570582
30
0
41
1
10
189.557439705849
20
9.68614397791913
30
0
41
1
10
189.585349807301
20
9.70434279419422
30
0
0
SPLINE
5
2B5
100
AcDbEntity
8
1
62
256
6
ByLayer
370
18
48
1
60
0
100
AcDbSpline
70
4
71
3
72
8
73
4
40
0
40
0
40
0
40
0
40
1
40
1
40
1
40
1
41
1
10
189.20030196162
20
8.26705347364026
30
0
41
1
10
189.19400732947
20
8.26683119001447
30
0
41
1
10
189.187713985668
20
8.26660895600941
30
0
41
1
10
189.181421867433
20
8.26638676920203
30
0
0
SPLINE
5
2B6
100
AcDbEntity
8
1
62
256
6
ByLayer
370
18
48
1
60
0
100
AcDbSpline
70
4
71
3
72
8
73
4
40
0
40
0
40
0
40
0
40
1
40
1
40
1
40
1
41
1
10
189.920280439479
20
9.72314615804927
30
0
41
1
10
189.923644743055
20
9.71759576312721
30
0
41
1
10
189.927009808634
20
9.71204450142304
30
0
41
1
10
189.930375675393
20
9.70649232882468
30
0
0
SPLINE
5
2B7
100
AcDbEntity
8
1
62
256
6
ByLayer
370
18
48
1
60
0
100
AcDbSpline
70
4
71
3
72
8
73
4
40
0
40
0
40
0
40
0
40
1
40
1
40
1
40
1
41
1
10
191.384225925534
20
8.38150807871196
30
0
41
1
10
191.391191598025
20
8.38198073820502
30
0
41
1
10
191.398156353163
20
8.38245333172296
30
0
41
1
10
191.40512023503
20
8.3829258624431
30
0
0
SPLINE
5
2B8
100
AcDbEntity
8
1
62
256
6
ByLayer
370
18
48
1
60
0
100
AcDbSpline
70
4
71
3
72
16
73
12
40
0
40
0
40
0
40
0
40
0.249999999999967
40
0.249999999999967
40
0.499999999999933
40
0.499999999999933
40
0.7499999999999
40
0.7499999999999
40
0.87499999999995
40
0.87499999999995
40
1
40
1
40
1
40
1
41
1
10
189.002885116144
20
8.55593504795263
30
0
41
1
10
189.001134885165
20
8.58933144450398
30
0
41
1
10
189.001946705518
20
8.62285960598061
30
0
41
1
10
189.009320603676
20
8.689136926651
30
0
41
1
10
189.01585579365
20
8.72203153003605
30
0
41
1
10
189.036959376376
20
8.78431783439507
30
0
41
1
10
189.051592382996
20
8.81443345770825
30
0
41
1
10
189.083566921827
20
8.84800426393886
30
0
41
1
10
189.096048530565
20
8.85699109252761
30
0
41
1
10
189.122818039949
20
8.8663083783197
30
0
41
1
10
189.136921064247
20
8.86649170872346
30
0
41
1
10
189.150177787809
20
8.86255932318528
30
0
0
SPLINE
5
2B9
100
AcDbEntity
8
1
62
256
6
ByLayer
370
18
48
1
60
0
100
AcDbSpline
70
4
71
3
72
16
73
12
40
0
40
0
40
0
40
0
40
0.124999999999997
40
0.124999999999997
40
0.249999999999993
40
0.249999999999993
40
0.499999999999995
40
0.499999999999995
40
0.749999999999998
40
0.749999999999998
40
1
40
1
40
1
40
1
41
1
10
191.40512023503
20
8.3829258624431
30
0
41
1
10
191.419925872764
20
8.37907634728589
30
0
41
1
10
191.435670635602
20
8.37936391873103
30
0
41
1
10
191.465051405378
20
8.38878697608419
30
0
41
1
10
191.478703322057
20
8.39777657477595
30
0
41
1
10
191.513848005184
20
8.43177215007765
30
0
41
1
10
191.529408632274
20
8.46168845268872
30
0
41
1
10
191.552215841661
20
8.52419659721022
30
0
41
1
10
191.55922236439
20
8.55704224182273
30
0
41
1
10
191.567243497816
20
8.62338601442397
30
0
41
1
10
191.568194889062
20
8.65689316048079
30
0
41
1
10
191.566444869566
20
8.69028552168882
30
0
0
SPLINE
5
2BA
100
AcDbEntity
8
1
62
256
6
ByLayer
370
18
48
1
60
0
100
AcDbSpline
70
4
71
3
72
18
73
14
40
0
40
0
40
0
40
0
40
0.124999999999986
40
0.124999999999986
40
0.249999999999972
40
0.249999999999972
40
0.499999999999944
40
0.499999999999944
40
0.749999999999917
40
0.749999999999917
40
0.874999999999958
40
0.874999999999958
40
1
40
1
40
1
40
1
41
1
10
190.622874394596
20
7.53888552814283
30
0
41
1
10
190.607971484701
20
7.55919370456274
30
0
41
1
10
190.586431726572
20
7.57451832568663
30
0
41
1
10
190.538992784849
20
7.59898802734438
30
0
41
1
10
190.513098739762
20
7.60794594424286
30
0
41
1
10
190.433107711456
20
7.62790483802394
30
0
41
1
10
190.376541615213
20
7.63216213935829
30
0
41
1
10
190.265457357609
20
7.62633752837283
30
0
41
1
10
190.210964897123
20
7.61626384460303
30
0
41
1
10
190.137293777499
20
7.5882264443652
30
0
41
1
10
190.114053950174
20
7.57667140063162
30
0
41
1
10
190.07335018412
20
7.54762494486019
30
0
41
1
10
190.055752881699
20
7.53026434395881
30
0
41
1
10
190.045560769536
20
7.50862980310359
30
0
0
SPLINE
5
2BB
100
AcDbEntity
8
1
62
256
6
ByLayer
370
18
48
1
60
0
100
AcDbSpline
70
4
71
3
72
16
73
12
40
0
40
0
40
0
40
0
40
0.250000000000013
40
0.250000000000013
40
0.500000000000026
40
0.500000000000026
40
0.750000000000038
40
0.750000000000038
40
0.875000000000019
40
0.875000000000019
40
1
40
1
40
1
40
1
41
1
10
189.702200301698
20
7.47470253857915
30
0
41
1
10
189.672526709226
20
7.48989147262941
30
0
41
1
10
189.643980599616
20
7.50743479578617
30
0
41
1
10
189.590334844311
20
7.5472846057875
30
0
41
1
10
189.565097937388
20
7.56963801997293
30
0
41
1
10
189.521477637158
20
7.61985805272295
30
0
41
1
10
189.502505785125
20
7.64813765326872
30
0
41
1
10
189.488739742412
20
7.69396862099421
30
0
41
1
10
189.486901891103
20
7.70982214546075
30
0
41
1
10
189.491490909957
20
7.73892708411961
30
0
41
1
10
189.497956083189
20
7.7519382178302
30
0
41
1
10
189.507546359749
20
7.76215575795021
30
0
0
SPLINE
5
2BC
100
AcDbEntity
8
1
62
256
6
ByLayer
370
18
48
1
60
0
100
AcDbSpline
70
4
71
3
72
8
73
4
40
0
40
0
40
0
40
0
40
1
40
1
40
1
40
1
41
1
10
190.045560769536
20
7.50862980310359
30
0
41
1
10
190.042793701416
20
7.50275621700769
30
0
41
1
10
190.040027334874
20
7.49688362056224
30
0
41
1
10
190.037261635556
20
7.49101196580153
30
0
0
SPLINE
5
2BD
100
AcDbEntity
8
1
62
256
6
ByLayer
370
18
48
1
60
0
100
AcDbSpline
70
4
71
3
72
18
73
14
40
0
40
0
40
0
40
0
40
0.124999999999997
40
0.124999999999997
40
0.249999999999995
40
0.249999999999995
40
0.499999999999996
40
0.499999999999996
40
0.749999999999998
40
0.749999999999998
40
0.874999999999999
40
0.874999999999999
40
1
40
1
40
1
40
1
41
1
10
189.515273504057
20
7.78006637791461
30
0
41
1
10
189.524758187064
20
7.8020487884047
30
0
41
1
10
189.526690386173
20
7.82744380224401
30
0
41
1
10
189.523182804781
20
7.8792106455609
30
0
41
1
10
189.51758857381
20
7.9054931277102
30
0
41
1
10
189.493901153967
20
7.98331505753191
30
0
41
1
10
189.468970645942
20
8.03405378664019
30
0
41
1
10
189.40836273451
20
8.12775655587205
30
0
41
1
10
189.372705053119
20
8.17070189261878
30
0
41
1
10
189.312536224823
20
8.2224891361202
30
0
41
1
10
189.291305524967
20
8.23764331512876
30
0
41
1
10
189.246759380557
20
8.26024678897497
30
0
41
1
10
189.223487367298
20
8.26787222458816
30
0
41
1
10
189.20030196162
20
8.26705347364026
30
0
0
SPLINE
5
2BE
100
AcDbEntity
8
1
62
256
6
ByLayer
370
18
48
1
60
0
100
AcDbSpline
70
4
71
3
72
8
73
4
40
0
40
0
40
0
40
0
40
1
40
1
40
1
40
1
41
1
10
191.373876155406
20
8.97909841642635
30
0
41
1
10
191.366901029503
20
8.9788404347039
30
0
41
1
10
191.359925028548
20
8.97858242415344
30
0
41
1
10
191.352948108369
20
8.97832438332722
30
0
0
SPLINE
5
2BF
100
AcDbEntity
8
1
62
256
6
ByLayer
370
18
48
1
60
0
100
AcDbSpline
70
4
71
3
72
18
73
14
40
0
40
0
40
0
40
0
40
0.125
40
0.125
40
0.249999999999999
40
0.249999999999999
40
0.374999999999999
40
0.374999999999999
40
0.499999999999999
40
0.499999999999999
40
0.749999999999999
40
0.749999999999999
40
1
40
1
40
1
40
1
41
1
10
190.518036387282
20
9.75447321982688
30
0
41
1
10
190.520982209983
20
9.76897630735004
30
0
41
1
10
190.527986020134
20
9.78257498529931
30
0
41
1
10
190.549585714793
20
9.80481630917348
30
0
41
1
10
190.56368280495
20
9.81308485808492
30
0
41
1
10
190.594083175519
20
9.82439364505248
30
0
41
1
10
190.610551303949
20
9.82759387644884
30
0
41
1
10
190.643349240708
20
9.83059901300797
30
0
41
1
10
190.660003097343
20
9.83046200303906
30
0
41
1
10
190.70993566089
20
9.82655037884894
30
0
41
1
10
190.742792571765
20
9.81940821409032
30
0
41
1
10
190.806569448728
20
9.79951197412055
30
0
41
1
10
190.837470182717
20
9.78669975230321
30
0
41
1
10
190.867129684012
20
9.7715180310623
30
0
0
SPLINE
5
2C0
100
AcDbEntity
8
1
62
256
6
ByLayer
370
18
48
1
60
0
100
AcDbSpline
70
4
71
3
72
16
73
12
40
0
40
0
40
0
40
0
40
0.249999999999962
40
0.249999999999962
40
0.499999999999925
40
0.499999999999925
40
0.749999999999887
40
0.749999999999887
40
0.874999999999944
40
0.874999999999944
40
1
40
1
40
1
40
1
41
1
10
191.566444869566
20
8.69028552168882
30
0
41
1
10
191.564694638587
20
8.7236819182402
30
0
41
1
10
191.560239935521
20
8.7569340729199
30
0
41
1
10
191.54533321039
20
8.82204371560272
30
0
41
1
10
191.534898573036
20
8.85404896802262
30
0
41
1
10
191.505743929812
20
8.91370135036897
30
0
41
1
10
191.486896929891
20
8.94206236088888
30
0
41
1
10
191.448687489152
20
8.97195498060904
30
0
41
1
10
191.43414684448
20
8.97952563290536
30
0
41
1
10
191.403798297141
20
8.9858494881876
30
0
41
1
10
191.38820355148
20
8.98447642441812
30
0
41
1
10
191.373876155406
20
8.97909841642635
30
0
0
SPLINE
5
2C1
100
AcDbEntity
8
1
62
256
6
ByLayer
370
18
48
1
60
0
100
AcDbSpline
70
4
71
3
72
18
73
14
40
0
40
0
40
0
40
0
40
0.124999999999979
40
0.124999999999979
40
0.249999999999957
40
0.249999999999957
40
0.374999999999936
40
0.374999999999936
40
0.499999999999915
40
0.499999999999915
40
0.749999999999957
40
0.749999999999957
40
1
40
1
40
1
40
1
41
1
10
189.181421867433
20
8.26638676920203
30
0
41
1
10
189.16864290936
20
8.26108777319877
30
0
41
1
10
189.154608918093
20
8.25977219869478
30
0
41
1
10
189.126765350989
20
8.26634832218079
30
0
41
1
10
189.113491921926
20
8.27401156009219
30
0
41
1
10
189.09001736038
20
8.29403905856023
30
0
41
1
10
189.079611807266
20
8.30645854814676
30
0
41
1
10
189.061577452497
20
8.33298638818249
30
0
41
1
10
189.053747239986
20
8.34734200861857
30
0
41
1
10
189.03309562483
20
8.39223198938302
30
0
41
1
10
189.023195637424
20
8.42418108613441
30
0
41
1
10
189.008938341282
20
8.48933457671319
30
0
41
1
10
189.004634515987
20
8.52255451043666
30
0
41
1
10
189.002885116144
20
8.55593504795263
30
0
0
SPLINE
5
2C2
100
AcDbEntity
8
1
62
256
6
ByLayer
370
18
48
1
60
0
100
AcDbSpline
70
4
71
3
72
18
73
14
40
0
40
0
40
0
40
0
40
0.125000000000043
40
0.125000000000043
40
0.250000000000086
40
0.250000000000086
40
0.500000000000058
40
0.500000000000058
40
0.75000000000003
40
0.75000000000003
40
0.875000000000015
40
0.875000000000015
40
1
40
1
40
1
40
1
41
1
10
189.930375675393
20
9.70649232882468
30
0
41
1
10
189.942766804601
20
9.68605251555687
30
0
41
1
10
189.962085480452
20
9.67061149244321
30
0
41
1
10
190.005690986111
20
9.64594088891428
30
0
41
1
10
190.029991944115
20
9.63689948185962
30
0
41
1
10
190.10614379143
20
9.61673938512851
30
0
41
1
10
190.161403710382
20
9.61241362994301
30
0
41
1
10
190.272488474516
20
9.61823826747454
30
0
41
1
10
190.328286587949
20
9.62838037761583
30
0
41
1
10
190.40580071243
20
9.65661918120395
30
0
41
1
10
190.430636604812
20
9.66825787116284
30
0
41
1
10
190.475167412091
20
9.69750489366606
30
0
41
1
10
190.494984074838
20
9.71498180631352
30
0
41
1
10
190.507689300453
20
9.73674805386389
30
0
0
SPLINE
5
2C3
100
AcDbEntity
8
1
62
256
6
ByLayer
370
18
48
1
60
0
100
AcDbSpline
70
4
71
3
72
8
73
4
40
0
40
0
40
0
40
0
40
1
40
1
40
1
40
1
41
1
10
190.507689300453
20
9.73674805386389
30
0
41
1
10
190.511138656602
20
9.74265739716023
30
0
41
1
10
190.514587680297
20
9.74856577015106
30
0
41
1
10
190.518036387282
20
9.75447321982688
30
0
0
SPLINE
5
2C4
100
AcDbEntity
8
1
62
256
6
ByLayer
370
18
48
1
60
0
100
AcDbSpline
70
4
71
3
72
8
73
4
40
0
40
0
40
0
40
0
40
1
40
1
40
1
40
1
41
1
10
189.431366227079
20
9.38111259902041
30
0
41
1
10
189.428179807063
20
9.38678178009073
30
0
41
1
10
189.42499415838
20
9.39245003080381
30
0
41
1
10
189.421809243296
20
9.3981173962147
30
0
0
SPLINE
5
2C5
100
AcDbEntity
8
1
62
256
6
ByLayer
370
18
48
1
60
0
100
AcDbSpline
70
4
71
3
72
18
73
14
40
0
40
0
40
0
40
0
40
0.12500000000003
40
0.12500000000003
40
0.25000000000006
40
0.25000000000006
40
0.50000000000003
40
0.50000000000003
40
0.75
40
0.75
40
0.875
40
0.875
40
1
40
1
40
1
40
1
41
1
10
191.352948108369
20
8.97832438332722
30
0
41
1
10
191.327235094158
20
8.97737338958481
30
0
41
1
10
191.301701282791
20
8.9848934375392
30
0
41
1
10
191.253192109841
20
9.0073913647783
30
0
41
1
10
191.230376927867
20
9.02248315780554
30
0
41
1
10
191.166362439072
20
9.07412979147151
30
0
41
1
10
191.129364584134
20
9.11708630975096
30
0
41
1
10
191.068759956871
20
9.2109252187287
30
0
41
1
10
191.045314202648
20
9.26151571093484
30
0
41
1
10
191.025550369986
20
9.33914041284609
30
0
41
1
10
191.021526036784
20
9.36566588595298
30
0
41
1
10
191.021799084174
20
9.41727716052611
30
0
41
1
10
191.025904131447
20
9.44305738863807
30
0
41
1
10
191.037976565932
20
9.46531147905287
30
0
0
SPLINE
5
2C6
100
AcDbEntity
8
1
62
256
6
ByLayer
370
18
48
1
60
0
100
AcDbSpline
70
4
71
3
72
18
73
14
40
0
40
0
40
0
40
0
40
0.125
40
0.125
40
0.25
40
0.25
40
0.375
40
0.375
40
0.5
40
0.5
40
0.75
40
0.75
40
1
40
1
40
1
40
1
41
1
10
190.037261635556
20
7.49101196580153
30
0
41
1
10
190.035870871567
20
7.47659037545208
30
0
41
1
10
190.030416456194
20
7.46307289784238
30
0
41
1
10
190.011591526249
20
7.44097699322489
30
0
41
1
10
189.998673164836
20
7.43277021886931
30
0
41
1
10
189.970200185761
20
7.42156244220976
30
0
41
1
10
189.954501471476
20
7.41840253410007
30
0
41
1
10
189.922957164478
20
7.41546309749276
30
0
41
1
10
189.906801535106
20
7.41562621844608
30
0
41
1
10
189.858112348862
20
7.41960300527947
30
0
41
1
10
189.82575002766
20
7.42677109038456
30
0
41
1
10
189.762618203424
20
7.44670113613523
30
0
41
1
10
189.731859802993
20
7.45952081733827
30
0
41
1
10
189.702200301698
20
7.47470253857915
30
0
0
SPLINE
5
2C7
100
AcDbEntity
8
1
62
256
6
ByLayer
370
18
48
1
60
0
100
AcDbSpline
70
4
71
3
72
8
73
4
40
0
40
0
40
0
40
0
40
1
40
1
40
1
40
1
41
1
10
191.12188384291
20
7.86426525794707
30
0
41
1
10
191.125752550955
20
7.85863183407716
30
0
41
1
10
191.129620856791
20
7.85299935990949
30
0
41
1
10
191.133488779543
20
7.84736778941368
30
0
0
SPLINE
5
2C8
100
AcDbEntity
8
1
62
256
6
ByLayer
370
18
48
1
60
0
100
AcDbSpline
70
4
71
3
72
18
73
14
40
0
40
0
40
0
40
0
40
0.12499999999997
40
0.12499999999997
40
0.249999999999939
40
0.249999999999939
40
0.499999999999959
40
0.499999999999959
40
0.74999999999998
40
0.74999999999998
40
0.87499999999999
40
0.87499999999999
40
1
40
1
40
1
40
1
41
1
10
189.169024144456
20
8.86386977825552
30
0
41
1
10
189.192155847014
20
8.86547819390177
30
0
41
1
10
189.214517263113
20
8.87549038562233
30
0
41
1
10
189.256531905412
20
8.90268707634587
30
0
41
1
10
189.276035175987
20
8.91996989651858
30
0
41
1
10
189.330419193954
20
8.97773233108418
30
0
41
1
10
189.361401693526
20
9.02417953193256
30
0
41
1
10
189.411878292963
20
9.12370692542291
30
0
41
1
10
189.431365898532
20
9.17676015912517
30
0
41
1
10
189.446789692288
20
9.25668550453955
30
0
41
1
10
189.449596852286
20
9.28343655039438
30
0
41
1
10
189.447667994542
20
9.33518676337792
30
0
41
1
10
189.443102963867
20
9.36023095576553
30
0
41
1
10
189.431366227079
20
9.38111259902041
30
0
0
SPLINE
5
2C9
100
AcDbEntity
8
1
62
256
6
ByLayer
370
18
48
1
60
0
100
AcDbSpline
70
4
71
3
72
16
73
12
40
0
40
0
40
0
40
0
40
0.249999999999953
40
0.249999999999953
40
0.499999999999906
40
0.499999999999906
40
0.74999999999986
40
0.74999999999986
40
0.87499999999993
40
0.87499999999993
40
1
40
1
40
1
40
1
41
1
10
189.585349807301
20
9.70434279419422
30
0
41
1
10
189.613273168794
20
9.72255025669529
30
0
41
1
10
189.64255975738
20
9.73853135617205
30
0
41
1
10
189.703256733103
20
9.76494195601737
30
0
41
1
10
189.734780417254
20
9.77547012645655
30
0
41
1
10
189.798676311982
20
9.78749300504128
30
0
41
1
10
189.831708063327
20
9.78929899252739
30
0
41
1
10
189.875998166375
20
9.77696281467567
30
0
41
1
10
189.889723610366
20
9.77006498773554
30
0
41
1
10
189.910528219616
20
9.7502052279863
30
0
41
1
10
189.917391162702
20
9.73733681347304
30
0
41
1
10
189.920280439479
20
9.72314615804927
30
0
0
SPLINE
5
2CA
100
AcDbEntity
8
SK1
62
256
6
ByLayer
370
13
48
1
60
0
100
AcDbSpline
70
4
71
3
72
8
73
4
40
0
40
0
40
0
40
0
40
1
40
1
40
1
40
1
41
1
10
-58.5999993841625
20
8.08217792429747
30
0
41
1
10
-58.57185140079
20
8.01338226057771
30
0
41
1
10
-58.5439234293097
20
7.94447023296686
30
0
41
1
10
-58.5162221138915
20
7.87543832737546
30
0
0
SPLINE
5
2CB
100
AcDbEntity
8
SK1
62
256
6
ByLayer
370
13
48
1
60
0
100
AcDbSpline
70
4
71
3
72
8
73
4
40
0
40
0
40
0
40
0
40
1
40
1
40
1
40
1
41
1
10
-59
20
-8.08217792429733
30
0
41
1
10
-59.3665953697313
20
-7.35662355155915
30
0
41
1
10
-59.7037451046298
20
-6.61738652838392
30
0
41
1
10
-60
20
-5.85914669555211
30
0
0
SPLINE
5
2CC
100
AcDbEntity
8
SK1
62
256
6
ByLayer
370
13
48
1
60
0
100
AcDbSpline
70
4
71
3
72
8
73
4
40
0
40
0
40
0
40
0
40
1
40
1
40
1
40
1
41
1
10
-60
20
5.85914669555225
30
0
41
1
10
-59.7022804007547
20
6.62113531646736
30
0
41
1
10
-59.3649845597875
20
7.35981161746204
30
0
41
1
10
-59
20
8.08217792429744
30
0
0
SPLINE
5
2CD
100
AcDbEntity
8
SK1
62
256
6
ByLayer
370
13
48
1
60
0
100
AcDbSpline
70
4
71
3
72
22
73
18
40
0
40
0
40
0
40
0
40
0.250000000000013
40
0.250000000000013
40
0.375000000000019
40
0.375000000000019
40
0.500000000000025
40
0.500000000000025
40
0.625000000000032
40
0.625000000000032
40
0.750000000000038
40
0.750000000000038
40
0.812500000000032
40
0.812500000000032
40
0.875000000000027
40
0.875000000000027
40
1
40
1
40
1
40
1
41
1
10
-58.5162221138916
20
7.87543832737546
30
0
41
1
10
-58.4790702178924
20
7.78285549733872
30
0
41
1
10
-58.4348074348417
20
7.69184500866177
30
0
41
1
10
-58.3546954086512
20
7.56452584156625
30
0
41
1
10
-58.3254226390758
20
7.52326743309016
30
0
41
1
10
-58.2615265365677
20
7.44613846458927
30
0
41
1
10
-58.2269746677281
20
7.41021721210197
30
0
41
1
10
-58.1503876554901
20
7.34597125656128
30
0
41
1
10
-58.1077882647388
20
7.31745537535119
30
0
41
1
10
-58.0166306173733
20
7.27563422452508
30
0
41
1
10
-57.9664747697949
20
7.26196817544005
30
0
41
1
10
-57.8907981740471
20
7.25759316225373
30
0
41
1
10
-57.8656812246094
20
7.25870218641109
30
0
41
1
10
-57.8156599766649
20
7.26594822730371
30
0
41
1
10
-57.7907546627403
20
7.27215031305357
30
0
41
1
10
-57.7192386497853
20
7.29691684817604
30
0
41
1
10
-57.6743164465246
20
7.32208788488794
30
0
41
1
10
-57.6338131992801
20
7.35178671505685
30
0
0
SPLINE
5
2CE
100
AcDbEntity
8
SK1
62
256
6
ByLayer
370
13
48
1
60
0
100
AcDbSpline
70
4
71
3
72
8
73
4
40
0
40
0
40
0
40
0
40
1
40
1
40
1
40
1
41
1
10
-56.6000022063888
20
-8.08217792429733
30
0
41
1
10
-56.9490107828242
20
-7.84409185507741
30
0
41
1
10
-57.2939255164024
20
-7.60100788266726
30
0
41
1
10
-57.6338131992802
20
-7.35178671505685
30
0
0
SPLINE
5
2CF
100
AcDbEntity
8
1
62
256
6
ByLayer
370
13
48
1
60
0
100
AcDbSpline
70
4
71
3
72
8
73
4
40
0
40
0
40
0
40
0
40
1
40
1
40
1
40
1
41
1
10
182.248385861136
20
-13.5517967296597
30
0
41
1
10
181.248385860985
20
-13.5054862686981
30
0
41
1
10
180.248385860983
20
-13.4591758045573
30
0
41
1
10
179.248385861136
20
-13.4128653371373
30
0
0
SPLINE
5
2D0
100
AcDbEntity
8
1
62
256
6
ByLayer
370
13
48
1
60
0
100
AcDbSpline
70
4
71
3
72
16
73
12
40
0
40
0
40
0
40
0
40
0.125
40
0.125
40
0.25
40
0.25
40
0.5
40
0.5
40
0.75
40
0.75
40
1
40
1
40
1
40
1
41
1
10
93.8
20
-13.46794529558
30
0
41
1
10
91.1416652414492
20
-13.4738413253254
30
0
41
1
10
88.483330877274
20
-13.4795337213971
30
0
41
1
10
83.1666618748769
20
-13.4910597521668
30
0
41
1
10
80.5083281183292
20
-13.4969356431454
30
0
41
1
10
72.5333287585468
20
-13.5147953935522
30
0
41
1
10
67.2166645264987
20
-13.5269539889733
30
0
41
1
10
56.583332260006
20
-13.550839176252
30
0
41
1
10
51.2666649085483
20
-13.5626525580854
30
0
41
1
10
40.6333315142348
20
-13.5864172760996
30
0
41
1
10
35.3166655932689
20
-13.5983820928949
30
0
41
1
10
30
20
-13.6103797799299
30
0
0
SPLINE
5
2D1
100
AcDbEntity
8
1
62
256
6
ByLayer
370
13
48
1
60
0
100
AcDbSpline
70
4
71
3
72
25
73
21
40
0
40
0
40
0
40
0
40
0.0905797654494605
40
0.0905797654494605
40
0.181159530898921
40
0.181159530898921
40
0.362319061797842
40
0.362319061797842
40
0.452898827247302
40
0.452898827247302
40
0.543478592696762
40
0.543478592696762
40
0.724638123595684
40
0.724638123595684
40
0.815217889045144
40
0.815217889045144
40
0.905797654494605
40
0.996377419944065
40
0.996377419944065
40
1
40
1
40
1
40
1
41
1
10
25.01
20
-7.80358588789855
30
0
41
1
10
25.01
20
-7.72067885037418
30
0
41
1
10
25.01
20
-7.63514535363331
30
0
41
1
10
25.01
20
-7.45865983706568
30
0
41
1
10
25.01
20
-7.3684098196436
30
0
41
1
10
25.01
20
-7.0950091844762
30
0
41
1
10
25.01
20
-6.90792673345914
30
0
41
1
10
25.01
20
-6.62003412506095
30
0
41
1
10
25.01
20
-6.52231148489838
30
0
41
1
10
25.01
20
-6.3277931010384
30
0
41
1
10
25.01
20
-6.23089387146521
30
0
41
1
10
25.01
20
-5.94124986665963
30
0
41
1
10
25.01
20
-5.74954884495969
30
0
41
1
10
25.01
20
-5.4641646507832
30
0
41
1
10
25.01
20
-5.3702985673614
30
0
41
1
10
25.01
20
-5.18694944742708
30
0
41
1
10
25.01
20
-5.00736063929338
30
0
41
1
10
25.01
20
-4.83521613070357
30
0
41
1
10
25.01
20
-4.74767176279406
30
0
41
1
10
25.01
20
-4.74430758112993
30
0
41
1
10
25.01
20
-4.74094588790624
30
0
0
SPLINE
5
2D2
100
AcDbEntity
8
1
62
256
6
ByLayer
370
13
48
1
60
0
100
AcDbSpline
70
4
71
3
72
8
73
4
40
0
40
0
40
0
40
0
40
1
40
1
40
1
40
1
41
1
10
179.045291661473
20
5.2355176608217
30
0
41
1
10
179.045592937097
20
5.23662299029365
30
0
41
1
10
179.045923285711
20
5.23772470678617
30
0
41
1
10
179.04628213173
20
5.23882289020867
30
0
0
SPLINE
5
2D3
100
AcDbEntity
8
1
62
256
6
ByLayer
370
13
48
1
60
0
100
AcDbSpline
70
4
71
3
72
14
73
10
40
0
40
0
40
0
40
0
40
0.12500000000002
40
0.12500000000002
40
0.25000000000004
40
0.25000000000004
40
0.5
40
0.5
40
1
40
1
40
1
40
1
41
1
10
191.761993817158
20
4.35958468787234
30
0
41
1
10
191.792113769766
20
4.36116320770063
30
0
41
1
10
191.822818960288
20
4.36358783961035
30
0
41
1
10
191.883573711222
20
4.37004530760663
30
0
41
1
10
191.913939134247
20
4.37409847681809
30
0
41
1
10
192.004478065703
20
4.38865905538256
30
0
41
1
10
192.064217497994
20
4.40156311876643
30
0
41
1
10
192.242069107209
20
4.45000805474359
30
0
41
1
10
192.358762182606
20
4.495029040178
30
0
41
1
10
192.475090701798
20
4.5555071334596
30
0
0
SPLINE
5
2D4
100
AcDbEntity
8
1
62
256
6
ByLayer
370
13
48
1
60
0
100
AcDbSpline
70
4
71
3
72
66
73
62
40
0
40
0
40
0
40
0
40
1.81787888236E-05
40
1.81787888236E-05
40
0.0091089226180164
40
0.0091089226180164
40
0.0181996664472093
40
0.0181996664472093
40
0.0363811541055943
40
0.0363811541055943
40
0.0545626417639794
40
0.0545626417639794
40
0.0727441294223644
40
0.0727441294223644
40
0.0909256170807495
40
0.0909256170807495
40
0.109107104739135
40
0.109107104739135
40
0.12728859239752
40
0.12728859239752
40
0.145470080055905
40
0.145470080055905
40
0.16365156771429
40
0.16365156771429
40
0.181833055372675
40
0.181833055372675
40
0.20001454303106
40
0.20001454303106
40
0.23637751834783
40
0.23637751834783
40
0.254559006006215
40
0.254559006006215
40
0.2727404936646
40
0.2727404936646
40
0.281831237493792
40
0.281831237493792
40
0.290921981322985
40
0.290921981322985
40
0.30910346898137
40
0.30910346898137
40
0.327284956639755
40
0.327284956639755
40
0.34546644429814
40
0.34546644429814
40
0.38182941961491
40
0.38182941961491
40
0.418192394931679
40
0.418192394931679
40
0.490918345565219
40
0.490918345565219
40
0.527281320881989
40
0.527281320881989
40
0.563644296198759
40
0.563644296198759
40
0.6363702468323
40
0.6363702468323
40
0.70909619746584
40
0.70909619746584
40
0.85454809873292
40
0.85454809873292
40
1
40
1
40
1
40
1
41
1
10
156.194403134664
20
-11.0176673824513
30
0
41
1
10
156.193667412285
20
-11.0178381916322
30
0
41
1
10
156.192931690556
20
-11.018008990909
30
0
41
1
10
155.824280817612
20
-11.1035871435148
30
0
41
1
10
155.456481965116
20
-11.1863616437591
30
0
41
1
10
154.72087174042
20
-11.3454247390004
30
0
41
1
10
154.353047046399
20
-11.4217444584155
30
0
41
1
10
153.248655498269
20
-11.6413536459122
30
0
41
1
10
152.511125742361
20
-11.7750556219762
30
0
41
1
10
151.02945402918
20
-12.0220612014407
30
0
41
1
10
150.285459219333
20
-12.1355280306375
30
0
41
1
10
148.789457371824
20
-12.3402256468721
30
0
41
1
10
148.038394576635
20
-12.4310181020118
30
0
41
1
10
146.529443478288
20
-12.5896012031659
30
0
41
1
10
145.771454065951
20
-12.6585569315757
30
0
41
1
10
144.248756716602
20
-12.7784000549208
30
0
41
1
10
143.484057496819
20
-12.8292071772011
30
0
41
1
10
141.948194692801
20
-12.914450242328
30
0
41
1
10
141.176749973724
20
-12.9489015683391
30
0
41
1
10
139.630262723219
20
-13.0034618846488
30
0
41
1
10
138.854952134437
20
-13.0236172053056
30
0
41
1
10
137.299909783644
20
-13.0560223887655
30
0
41
1
10
136.520162666186
20
-13.0680738793415
30
0
41
1
10
134.955678734524
20
-13.086805358389
30
0
41
1
10
134.170881178001
20
-13.0933472755609
30
0
41
1
10
132.596261968026
20
-13.1004836316128
30
0
41
1
10
131.807447162192
20
-13.1011867805557
30
0
41
1
10
129.43637475771
20
-13.097387104855
30
0
41
1
10
127.849492141967
20
-13.0867746451795
30
0
41
1
10
125.45944677949
20
-13.0691804392404
30
0
41
1
10
124.660947088569
20
-13.0631983462141
30
0
41
1
10
123.063793558513
20
-13.0538622507621
30
0
41
1
10
122.264769629864
20
-13.0506592091808
30
0
41
1
10
121.065669487314
20
-13.055671313183
30
0
41
1
10
120.665879111124
20
-13.0586143415043
30
0
41
1
10
119.86618830342
20
-13.0627570449903
30
0
41
1
10
119.466289280785
20
-13.0637984149006
30
0
41
1
10
118.266464498923
20
-13.0648317917749
30
0
41
1
10
117.466387152133
20
-13.0628528789662
30
0
41
1
10
115.866118271409
20
-13.0571376340908
30
0
41
1
10
115.065987854688
20
-13.0534020914634
30
0
41
1
10
113.465725550963
20
-13.0477261037856
30
0
41
1
10
112.66559326552
20
-13.045950116134
30
0
41
1
10
110.265193477097
20
-13.0430491995045
30
0
41
1
10
108.664922245783
20
-13.0442657664814
30
0
41
1
10
105.464383168198
20
-13.0484189676464
30
0
41
1
10
103.864113346193
20
-13.0515570980464
30
0
41
1
10
99.0632859950765
20
-13.0553879944452
30
0
41
1
10
95.8627153102129
20
-13.05161283886
30
0
41
1
10
91.0618511805036
20
-13.0474071404053
30
0
41
1
10
89.4615629005019
20
-13.0461895006538
30
0
41
1
10
86.2609867496795
20
-13.0454798403469
30
0
41
1
10
84.6606985602742
20
-13.0460616467315
30
0
41
1
10
79.8598329505576
20
-13.0476748763554
30
0
41
1
10
76.6592546318384
20
-13.0491356450251
30
0
41
1
10
70.2580980477384
20
-13.0504899222536
30
0
41
1
10
67.0575197085318
20
-13.0500394984032
30
0
41
1
10
57.4557844853758
20
-13.0502357002556
30
0
41
1
10
51.0546274903394
20
-13.0521011389374
30
0
41
1
10
38.252313729993
20
-13.0516057150834
30
0
41
1
10
31.8511569069706
20
-13.0492939059767
30
0
41
1
10
25.4500000000001
20
-13.0493021627171
30
0
0
SPLINE
5
2D5
100
AcDbEntity
8
1
62
256
6
ByLayer
370
13
48
1
60
0
100
AcDbSpline
70
4
71
3
72
10
73
6
40
0
40
0
40
0
40
0
40
0.5
40
0.5
40
1
40
1
40
1
40
1
41
1
10
180.79105307122
20
3.8791697657604
30
0
41
1
10
180.509536336128
20
4.07414345869114
30
0
41
1
10
180.211264477977
20
4.25010630013909
30
0
41
1
10
179.591237247339
20
4.57538690249706
30
0
41
1
10
179.269342082955
20
4.72454605144173
30
0
41
1
10
178.937972332943
20
4.86295505909644
30
0
0
SPLINE
5
2D6
100
AcDbEntity
8
1
62
256
6
ByLayer
370
13
48
1
60
0
100
AcDbSpline
70
4
71
3
72
10
73
6
40
0
40
0
40
0
40
0
40
0.5
40
0.5
40
1
40
1
40
1
40
1
41
1
10
188.900099871835
20
4.20959918165431
30
0
41
1
10
188.593214066166
20
4.19351597808571
30
0
41
1
10
188.28602176561
20
4.17741671180073
30
0
41
1
10
187.671436215591
20
4.1452076479448
30
0
41
1
10
187.364048947339
20
4.12909816383583
30
0
41
1
10
187.05712485953
20
4.1130129539853
30
0
0
SPLINE
5
2D7
100
AcDbEntity
8
1
62
256
6
ByLayer
370
13
48
1
60
0
100
AcDbSpline
70
4
71
3
72
8
73
4
40
0
40
0
40
0
40
0
40
1
40
1
40
1
40
1
41
1
10
186.577177362957
20
3.6190739044103
30
0
41
1
10
186.594041978989
20
3.64037026495515
30
0
41
1
10
186.610619193222
20
3.66237710923647
30
0
41
1
10
186.626860490697
20
3.6851388045645
30
0
0
SPLINE
5
2D8
100
AcDbEntity
8
1
62
256
6
ByLayer
370
13
48
1
60
0
100
AcDbSpline
70
4
71
3
72
8
73
4
40
0
40
0
40
0
40
0
40
1
40
1
40
1
40
1
41
1
10
187.05712485953
20
4.1130129539853
30
0
41
1
10
187.039611191799
20
4.08678369619807
30
0
41
1
10
187.024557726043
20
4.05877214038242
30
0
41
1
10
187.012314719196
20
4.02930305092869
30
0
0
SPLINE
5
2D9
100
AcDbEntity
8
1
62
256
6
ByLayer
370
13
48
1
60
0
100
AcDbSpline
70
4
71
3
72
22
73
18
40
0
40
0
40
0
40
0
40
0.200090042314856
40
0.200090042314856
40
0.300135063472286
40
0.300135063472286
40
0.400180084629716
40
0.400180084629716
40
0.600270126944578
40
0.600270126944578
40
0.70031514810201
40
0.70031514810201
40
0.800360169259443
40
0.800360169259443
40
0.900405190416875
40
0.900405190416875
40
1
40
1
40
1
40
1
41
1
10
178.161251821588
20
13.262338028997
30
0
41
1
10
176.4879236975
20
13.4060116872044
30
0
41
1
10
174.817126419362
20
13.4876589477841
30
0
41
1
10
172.307975626884
20
13.5151795587876
30
0
41
1
10
171.47058514727
20
13.5085231207223
30
0
41
1
10
169.798553348385
20
13.4637013494999
30
0
41
1
10
168.963480093538
20
13.4255618382007
30
0
41
1
10
166.459686493298
20
13.264518527813
30
0
41
1
10
164.792376003936
20
13.094988745701
30
0
41
1
10
162.288786932956
20
12.7498796905524
30
0
41
1
10
161.453858112146
20
12.6196767305932
30
0
41
1
10
159.782054761291
20
12.3295740858294
30
0
41
1
10
158.944943114556
20
12.169625737185
30
0
41
1
10
157.273581302393
20
11.8224472174043
30
0
41
1
10
156.43887669949
20
11.6346884757629
30
0
41
1
10
154.770620768029
20
11.2378984144619
30
0
41
1
10
153.936970023832
20
11.0291042455252
30
0
41
1
10
153.099554432502
20
10.8138806072643
30
0
0
SPLINE
5
2DA
100
AcDbEntity
8
1
62
256
6
ByLayer
370
13
48
1
60
0
100
AcDbSpline
70
4
71
3
72
14
73
10
40
0
40
0
40
0
40
0
40
0.499999999999955
40
0.499999999999955
40
0.749999999999933
40
0.749999999999933
40
0.874999999999966
40
0.874999999999966
40
1
40
1
40
1
40
1
41
1
10
188.696176937944
20
4.35746265499392
30
0
41
1
10
188.827567025017
20
4.30996694375375
30
0
41
1
10
188.95910403268
20
4.27795514572378
30
0
41
1
10
189.15817792194
20
4.24926403807683
30
0
41
1
10
189.224821409661
20
4.24298342287005
30
0
41
1
10
189.32538096415
20
4.23843789157837
30
0
41
1
10
189.359033671345
20
4.23773977040557
30
0
41
1
10
189.426201740351
20
4.23798645332198
30
0
41
1
10
189.460064915314
20
4.23894570605921
30
0
41
1
10
189.493194820444
20
4.24068197081493
30
0
0
SPLINE
5
2DB
100
AcDbEntity
8
1
62
256
6
ByLayer
370
13
48
1
60
0
100
AcDbSpline
70
4
71
3
72
8
73
4
40
0
40
0
40
0
40
0
40
1
40
1
40
1
40
1
41
1
10
25.0099999999997
20
-13.0630309680196
30
0
41
1
10
24.8675252397984
20
-13.0629968854692
30
0
41
1
10
24.7250504795943
20
-13.0629628111626
30
0
41
1
10
24.5825757193915
20
-13.0629287332367
30
0
0
SPLINE
5
2DC
100
AcDbEntity
8
1
62
256
6
ByLayer
370
13
48
1
60
0
100
AcDbSpline
70
4
71
3
72
10
73
6
40
0
40
0
40
0
40
0
40
0.5
40
0.5
40
1
40
1
40
1
40
1
41
1
10
179.618849572197
20
1.19799734487799
30
0
41
1
10
179.909657108416
20
1.10517399471934
30
0
41
1
10
180.207202075301
20
1.02646248873529
30
0
41
1
10
180.803707167606
20
0.899960559457782
30
0
41
1
10
181.103864522786
20
0.851710561472316
30
0
41
1
10
181.405694392745
20
0.81812319854015
30
0
0
SPLINE
5
2DD
100
AcDbEntity
8
1
62
256
6
ByLayer
370
13
48
1
60
0
100
AcDbSpline
70
4
71
3
72
8
73
4
40
0
40
0
40
0
40
0
40
1
40
1
40
1
40
1
41
1
10
195.182946598137
20
-2.39985730282388
30
0
41
1
10
195.25629432549
20
-2.79564291585078
30
0
41
1
10
195.274351395151
20
-3.19014199613204
30
0
41
1
10
195.240981090501
20
-3.5830247208975
30
0
0
SPLINE
5
2DE
100
AcDbEntity
8
1
62
256
6
ByLayer
370
13
48
1
60
0
100
AcDbSpline
70
4
71
3
72
8
73
4
40
0
40
0
40
0
40
0
40
1
40
1
40
1
40
1
41
1
10
179.407035751306
20
6.30424269533628
30
0
41
1
10
179.542198132302
20
7.64543069239858
30
0
41
1
10
179.671350440336
20
8.98363856725186
30
0
41
1
10
179.792153528484
20
10.3198141635988
30
0
0
SPLINE
5
2DF
100
AcDbEntity
8
1
62
256
6
ByLayer
370
13
48
1
60
0
100
AcDbSpline
70
4
71
3
72
18
73
14
40
0
40
0
40
0
40
0
40
0.171101039553253
40
0.171101039553253
40
0.342202079106507
40
0.342202079106507
40
0.51330311865976
40
0.51330311865976
40
0.684404158213014
40
0.684404158213014
40
0.855505197766267
40
0.855505197766267
40
1
40
1
40
1
40
1
41
1
10
25.01
20
-7.7984522562827
30
0
41
1
10
25.01
20
-7.63996739059058
30
0
41
1
10
25.01
20
-7.4752283460069
30
0
41
1
10
25.01
20
-7.13376333672304
30
0
41
1
10
25.01
20
-6.95565082263795
30
0
41
1
10
25.01
20
-6.59312610766901
30
0
41
1
10
25.01
20
-6.4112701373225
30
0
41
1
10
25.01
20
-6.04640204256967
30
0
41
1
10
25.01
20
-5.86149653000084
30
0
41
1
10
25.01
20
-5.50144139993833
30
0
41
1
10
25.01
20
-5.32641008460649
30
0
41
1
10
25.01
20
-5.01268328286477
30
0
41
1
10
25.01
20
-4.87166476383487
30
0
41
1
10
25.01
20
-4.73784725628823
30
0
0
SPLINE
5
2E0
100
AcDbEntity
8
1
62
256
6
ByLayer
370
13
48
1
60
0
100
AcDbSpline
70
4
71
3
72
8
73
4
40
0
40
0
40
0
40
0
40
1
40
1
40
1
40
1
41
1
10
182.61274388761
20
3.19421023099139
30
0
41
1
10
182.655084157575
20
3.18225788244928
30
0
41
1
10
182.697299325432
20
3.17035048705182
30
0
41
1
10
182.739385246664
20
3.15848931100871
30
0
0
SPLINE
5
2E1
100
AcDbEntity
8
1
62
256
6
ByLayer
370
13
48
1
60
0
100
AcDbSpline
70
4
71
3
72
18
73
14
40
0
40
0
40
0
40
0
40
0.249999999999981
40
0.249999999999981
40
0.374999999999971
40
0.374999999999971
40
0.499999999999962
40
0.499999999999962
40
0.624999999999952
40
0.624999999999952
40
0.749999999999943
40
0.749999999999943
40
1
40
1
40
1
40
1
41
1
10
181.526989782835
20
4.04768302712088
30
0
41
1
10
181.487262479575
20
3.98127007845207
30
0
41
1
10
181.439206421982
20
3.92027234349686
30
0
41
1
10
181.351629037452
20
3.84550418926725
30
0
41
1
10
181.320560088877
20
3.82405061024269
30
0
41
1
10
181.254003815507
20
3.78946113339211
30
0
41
1
10
181.218771241597
20
3.77668550051084
30
0
41
1
10
181.148122412991
20
3.76196967748334
30
0
41
1
10
181.111700062987
20
3.75986889715202
30
0
41
1
10
181.041378124987
20
3.7653879349611
30
0
41
1
10
181.006896479953
20
3.77290251618714
30
0
41
1
10
180.907869297321
20
3.80549663980207
30
0
41
1
10
180.848101050218
20
3.83965930775617
30
0
41
1
10
180.79105307122
20
3.87916976576034
30
0
0
SPLINE
5
2E2
100
AcDbEntity
8
1
62
256
6
ByLayer
370
13
48
1
60
0
100
AcDbSpline
70
4
71
3
72
8
73
4
40
0
40
0
40
0
40
0
40
1
40
1
40
1
40
1
41
1
10
25
20
-4.74960877667746
30
0
41
1
10
24.8607356948425
20
-4.74963665643324
30
0
41
1
10
24.7215944331192
20
-4.74974359345453
30
0
41
1
10
24.5825757210399
20
-4.74992931394328
30
0
0
SPLINE
5
2E3
100
AcDbEntity
8
1
62
256
6
ByLayer
370
13
48
1
60
0
100
AcDbSpline
70
4
71
3
72
16
73
12
40
0
40
0
40
0
40
0
40
0.25
40
0.25
40
0.5
40
0.5
40
0.625
40
0.625
40
0.75
40
0.75
40
1
40
1
40
1
40
1
41
1
10
182.739385246664
20
3.15848931100865
30
0
41
1
10
183.178829818779
20
3.03463959408668
30
0
41
1
10
183.612517283104
20
2.94866129135531
30
0
41
1
10
184.468335818046
20
2.83890701916488
30
0
41
1
10
184.890451416205
20
2.8152782361347
30
0
41
1
10
185.513838121368
20
2.82071660271217
30
0
41
1
10
185.719993027711
20
2.82937270339255
30
0
41
1
10
186.128720891153
20
2.85962702961678
30
0
41
1
10
186.330885202058
20
2.88121977767636
30
0
41
1
10
186.926956487264
20
2.96351069930111
30
0
41
1
10
187.311923318199
20
3.04181254786528
30
0
41
1
10
187.683376017172
20
3.13960363164688
30
0
0
SPLINE
5
2E4
100
AcDbEntity
8
1
62
256
6
ByLayer
370
13
48
1
60
0
100
AcDbSpline
70
4
71
3
72
8
73
4
40
0
40
0
40
0
40
0
40
1
40
1
40
1
40
1
41
1
10
178.014048329422
20
12.9921286201653
30
0
41
1
10
178.529646028168
20
12.0514271418256
30
0
41
1
10
179.117018198292
20
11.1571371010371
30
0
41
1
10
179.792132699053
20
10.3195837748603
30
0
0
SPLINE
5
2E5
100
AcDbEntity
8
1
62
256
6
ByLayer
370
13
48
1
60
0
100
AcDbSpline
70
4
71
3
72
12
73
8
40
0
40
0
40
0
40
0
40
0.49999999999998
40
0.49999999999998
40
0.74999999999999
40
0.74999999999999
40
1
40
1
40
1
40
1
41
1
10
178.031156265902
20
1.35925115275913
30
0
41
1
10
178.304834152016
20
1.2646041602747
30
0
41
1
10
178.574620502874
20
1.20731559998998
30
0
41
1
10
178.975136107471
20
1.16861429373003
30
0
41
1
10
179.108719296892
20
1.1637961051475
30
0
41
1
10
179.368727890659
20
1.16973812593136
30
0
41
1
10
179.495422024469
20
1.18036082982943
30
0
41
1
10
179.618849572196
20
1.19799734487807
30
0
0
SPLINE
5
2E6
100
AcDbEntity
8
1
62
256
6
ByLayer
370
13
48
1
60
0
100
AcDbSpline
70
4
71
3
72
12
73
8
40
0
40
0
40
0
40
0
40
0.135197526517769
40
0.135197526517769
40
0.423465017678517
40
0.423465017678517
40
1
40
1
40
1
40
1
41
1
10
168.110811726974
20
5.61560967520612
30
0
41
1
10
168.45437392991
20
5.47837438482711
30
0
41
1
10
168.798001659848
20
5.34000715578571
30
0
41
1
10
169.874616843043
20
4.90325966261574
30
0
41
1
10
170.6079538481
20
4.60108881127883
30
0
41
1
10
172.805784151675
20
3.68391386498453
30
0
41
1
10
174.269595747282
20
3.05767066672556
30
0
41
1
10
175.734459002513
20
2.42205067148473
30
0
0
SPLINE
5
2E7
100
AcDbEntity
8
1
62
256
6
ByLayer
370
13
48
1
60
0
100
AcDbSpline
70
4
71
3
72
8
73
4
40
0
40
0
40
0
40
0
40
1
40
1
40
1
40
1
41
1
10
187.683376017172
20
3.13960363164691
30
0
41
1
10
187.911983668159
20
3.19978838737092
30
0
41
1
10
188.127787738366
20
3.24717955749446
30
0
41
1
10
188.330823603796
20
3.2854995354038
30
0
0
SPLINE
5
2E8
100
AcDbEntity
8
1
62
256
6
ByLayer
370
13
48
1
60
0
100
AcDbSpline
70
4
71
3
72
8
73
4
40
0
40
0
40
0
40
0
40
1
40
1
40
1
40
1
41
1
10
183.740525732182
20
9.23997232851849
30
0
41
1
10
183.725786317611
20
9.20508087185149
30
0
41
1
10
183.708175011282
20
9.17370082187259
30
0
41
1
10
183.689016925911
20
9.14574223606556
30
0
0
SPLINE
5
2E9
100
AcDbEntity
8
1
62
256
6
ByLayer
370
13
48
1
60
0
100
AcDbSpline
70
4
71
3
72
12
73
8
40
0
40
0
40
0
40
0
40
0.586292447020223
40
0.586292447020223
40
0.879438670530334
40
0.879438670530334
40
1
40
1
40
1
40
1
41
1
10
5.95705392435579
20
-14.7347325879227
30
0
41
1
10
6.16783747147736
20
-13.9347538561486
30
0
41
1
10
6.44305805400131
20
-13.1480114638395
30
0
41
1
10
6.95642097086991
20
-11.9873314682872
30
0
41
1
10
7.14443173492566
20
-11.6037064944969
30
0
41
1
10
7.43516284105982
20
-11.0671042650892
30
0
41
1
10
7.5230169093814
20
-10.9111891024534
30
0
41
1
10
7.61358797926704
20
-10.7565712561722
30
0
0
SPLINE
5
2EA
100
AcDbEntity
8
1
62
256
6
ByLayer
370
13
48
1
60
0
100
AcDbSpline
70
4
71
3
72
16
73
12
40
0
40
0
40
0
40
0
40
0.25
40
0.25
40
0.500000000000001
40
0.500000000000001
40
0.750000000000001
40
0.750000000000001
40
0.875
40
0.875
40
1
40
1
40
1
40
1
41
1
10
181.688475656114
20
4.49061436226063
30
0
41
1
10
181.758722166808
20
4.64695536397611
30
0
41
1
10
181.821464625199
20
4.80619827134092
30
0
41
1
10
181.928542210746
20
5.13180241845657
30
0
41
1
10
181.973055830804
20
5.29864314634258
30
0
41
1
10
182.036860938426
20
5.63974268375193
30
0
41
1
10
182.05575890453
20
5.81131113950988
30
0
41
1
10
182.057756764448
20
6.0707278236882
30
0
41
1
10
182.053911529589
20
6.1580537315503
30
0
41
1
10
182.035752513378
20
6.33028574638922
30
0
41
1
10
182.021506854585
20
6.41527334579257
30
0
41
1
10
182.00131329857
20
6.49896178547124
30
0
0
SPLINE
5
2EB
100
AcDbEntity
8
1
62
256
6
ByLayer
370
13
48
1
60
0
100
AcDbSpline
70
4
71
3
72
8
73
4
40
0
40
0
40
0
40
0
40
1
40
1
40
1
40
1
41
1
10
178.014048329425
20
12.9921286201696
30
0
41
1
10
178.063577487292
20
13.081932419793
30
0
41
1
10
178.112639438655
20
13.1720056128033
30
0
41
1
10
178.161251821588
20
13.2623380290077
30
0
0
SPLINE
5
2EC
100
AcDbEntity
8
1
62
256
6
ByLayer
370
13
48
1
60
0
100
AcDbSpline
70
4
71
3
72
12
73
8
40
0
40
0
40
0
40
0
40
0.25
40
0.25
40
0.5
40
0.5
40
1
40
1
40
1
40
1
41
1
10
180.365514475154
20
6.31317319746515
30
0
41
1
10
180.51260961387
20
6.31249288971313
30
0
41
1
10
180.655166940883
20
6.31813855398843
30
0
41
1
10
180.934908938008
20
6.33766458448881
30
0
41
1
10
181.072045107844
20
6.3515698348437
30
0
41
1
10
181.478029322708
20
6.40200186817822
30
0
41
1
10
181.741575539728
20
6.44706968892555
30
0
41
1
10
182.001313298586
20
6.49896178547422
30
0
0
SPLINE
5
2ED
100
AcDbEntity
8
1
62
256
6
ByLayer
370
13
48
1
60
0
100
AcDbSpline
70
4
71
3
72
8
73
4
40
0
40
0
40
0
40
0
40
1
40
1
40
1
40
1
41
1
10
178.93797233295
20
4.86295505910437
30
0
41
1
10
178.975892838084
20
4.98675971490414
30
0
41
1
10
179.011353159366
20
5.1110030185815
30
0
41
1
10
179.045291661473
20
5.23551766082173
30
0
0
SPLINE
5
2EE
100
AcDbEntity
8
1
62
256
6
ByLayer
370
13
48
1
60
0
100
AcDbSpline
70
4
71
3
72
8
73
4
40
0
40
0
40
0
40
0
40
1
40
1
40
1
40
1
41
1
10
187.012314719196
20
4.02930305092869
30
0
41
1
10
186.991348351042
20
3.9788367082794
30
0
41
1
10
186.96865258751
20
3.92977464863387
30
0
41
1
10
186.944218295836
20
3.8819975456741
30
0
0
SPLINE
5
2EF
100
AcDbEntity
8
1
62
256
6
ByLayer
370
13
48
1
60
0
100
AcDbSpline
70
4
71
3
72
52
73
48
40
0
40
0
40
0
40
0
40
0.0474924031424265
40
0.0474924031424265
40
0.094984806284853
40
0.094984806284853
40
0.189969612569707
40
0.189969612569707
40
0.284954418854562
40
0.284954418854562
40
0.332446821996988
40
0.332446821996988
40
0.379939225139415
40
0.379939225139415
40
0.427431628281841
40
0.427431628281841
40
0.474924031424268
40
0.474924031424268
40
0.522416434566694
40
0.522416434566694
40
0.546162636137907
40
0.546162636137907
40
0.56990883770912
40
0.56990883770912
40
0.617401240851545
40
0.617401240851545
40
0.66489364399397
40
0.66489364399397
40
0.712386047136395
40
0.712386047136395
40
0.75987845027882
40
0.75987845027882
40
0.783624651850032
40
0.783624651850032
40
0.807370853421245
40
0.807370853421245
40
0.831117054992458
40
0.831117054992458
40
0.85486325656367
40
0.85486325656367
40
0.902355659706095
40
0.902355659706095
40
0.949848062848521
40
0.949848062848521
40
0.997340465990946
40
0.997340465990946
40
1
40
1
40
1
40
1
41
1
10
175.207237246057
20
2.57170200856515
30
0
41
1
10
174.399301190866
20
2.92864703283036
30
0
41
1
10
173.591420134996
20
3.28270965218326
30
0
41
1
10
171.974912814895
20
3.98321046836091
30
0
41
1
10
171.165704460179
20
4.32989089928992
30
0
41
1
10
168.740360541483
20
5.3536146757007
30
0
41
1
10
167.127305286425
20
6.01387789887718
30
0
41
1
10
163.902247591391
20
7.27693241923791
30
0
41
1
10
162.290278824135
20
7.87978530427677
30
0
41
1
10
159.868091954182
20
8.73125775812068
30
0
41
1
10
159.059349561953
20
9.00652524035596
30
0
41
1
10
157.442779972075
20
9.53654463881588
30
0
41
1
10
156.635483622722
20
9.79110678216961
30
0
41
1
10
155.021603379851
20
10.2775326717805
30
0
41
1
10
154.214897847975
20
10.5092395702392
30
0
41
1
10
152.601862443485
20
10.9496691358567
30
0
41
1
10
151.795795548893
20
11.1586953844539
30
0
41
1
10
150.182074572819
20
11.5511662497888
30
0
41
1
10
149.374715602981
20
11.7348179570104
30
0
41
1
10
148.156324478756
20
11.9851514696752
30
0
41
1
10
147.748925533741
20
12.0643987392987
30
0
41
1
10
146.930718704507
20
12.2141299764545
30
0
41
1
10
146.519641607503
20
12.2846566872674
30
0
41
1
10
145.282603003444
20
12.4824138181956
30
0
41
1
10
144.452645399958
20
12.5960656263534
30
0
41
1
10
142.784055723276
20
12.7958032472918
30
0
41
1
10
141.945461636442
20
12.8819131436696
30
0
41
1
10
140.261708149502
20
13.0331236812634
30
0
41
1
10
139.416423135799
20
13.0980401248206
30
0
41
1
10
137.719085035053
20
13.210059028915
30
0
41
1
10
136.866931912456
20
13.2571042601667
30
0
41
1
10
135.584051311872
20
13.3168957721289
30
0
41
1
10
135.155703207303
20
13.3350581361443
30
0
41
1
10
134.297941436406
20
13.3683142419374
30
0
41
1
10
133.868512483617
20
13.3834402990919
30
0
41
1
10
133.008496239849
20
13.4105480326858
30
0
41
1
10
132.577941089675
20
13.4225175936235
30
0
41
1
10
131.715048878248
20
13.4433725847308
30
0
41
1
10
131.282692650741
20
13.4522624563964
30
0
41
1
10
129.983007159427
20
13.4752002053148
30
0
41
1
10
129.113067229482
20
13.485554970054
30
0
41
1
10
127.366848629441
20
13.5001340237244
30
0
41
1
10
126.490512827117
20
13.5043486289694
30
0
41
1
10
124.735515742207
20
13.5092917453249
30
0
41
1
10
123.85636618241
20
13.5100184776144
30
0
41
1
10
122.926272123019
20
13.5099986039263
30
0
41
1
10
122.876943711454
20
13.50999518335
30
0
41
1
10
122.827609492565
20
13.5099895216929
30
0
0
SPLINE
5
2F0
100
AcDbEntity
8
1
62
256
6
ByLayer
370
13
48
1
60
0
100
AcDbSpline
70
4
71
3
72
8
73
4
40
0
40
0
40
0
40
0
40
1
40
1
40
1
40
1
41
1
10
30
20
-13.61037977993
30
0
41
1
10
28.3333333259683
20
-13.610401690271
30
0
41
1
10
26.6666666597779
20
-13.6104271267328
30
0
41
1
10
25
20
-13.6104545868233
30
0
0
SPLINE
5
2F1
100
AcDbEntity
8
1
62
256
6
ByLayer
370
13
48
1
60
0
100
AcDbSpline
70
4
71
3
72
38
73
34
40
0
40
0
40
0
40
0
40
0.125000000000001
40
0.125000000000001
40
0.187500000000001
40
0.187500000000001
40
0.218750000000001
40
0.218750000000001
40
0.250000000000001
40
0.250000000000001
40
0.375000000000001
40
0.375000000000001
40
0.4375
40
0.4375
40
0.5
40
0.5
40
0.625
40
0.625
40
0.65625
40
0.65625
40
0.6875
40
0.6875
40
0.749999999999999
40
0.749999999999999
40
0.812499999999999
40
0.812499999999999
40
0.843749999999999
40
0.843749999999999
40
0.874999999999999
40
0.874999999999999
40
0.9375
40
0.9375
40
1
40
1
40
1
40
1
41
1
10
11.4061987534724
20
-8.83814282234974
30
0
41
1
10
11.0085134513242
20
-8.9341817457007
30
0
41
1
10
10.6182419164748
20
-9.05697191010702
30
0
41
1
10
10.0432712489099
20
-9.27926224540906
30
0
41
1
10
9.85336672692657
20
-9.35975875982163
30
0
41
1
10
9.57117610139613
20
-9.49031629996111
30
0
41
1
10
9.47755781412607
20
-9.53547433079135
30
0
41
1
10
9.29122998521473
20
-9.6291490401801
30
0
41
1
10
9.19827092758453
20
-9.67780735308941
30
0
41
1
10
8.74007351138954
20
-9.92740314632107
30
0
41
1
10
8.39302204528215
20
-10.1474839850802
30
0
41
1
10
7.90279141524769
20
-10.5089654047139
30
0
41
1
10
7.74448541841744
20
-10.6347347330728
30
0
41
1
10
7.43895738883646
20
-10.8976706613057
30
0
41
1
10
7.29089577925703
20
-11.0358418463037
30
0
41
1
10
6.87436931592734
20
-11.4587385411175
30
0
41
1
10
6.63130941369539
20
-11.7529126375095
30
0
41
1
10
6.3755391877753
20
-12.1369886519985
30
0
41
1
10
6.3266505466492
20
-12.2149341766564
30
0
41
1
10
6.23495089337433
20
-12.3709453430299
30
0
41
1
10
6.19218047313427
20
-12.4488849719772
30
0
41
1
10
6.0731571080749
20
-12.682497626237
30
0
41
1
10
6.00612989975249
20
-12.8379607190921
30
0
41
1
10
5.89731711357771
20
-13.1482272957382
30
0
41
1
10
5.85552034291246
20
-13.3030309583545
30
0
41
1
10
5.8132236085726
20
-13.5346784296568
30
0
41
1
10
5.80258881522795
20
-13.6117419189431
30
0
41
1
10
5.78862764741316
20
-13.762859326758
30
0
41
1
10
5.7852173539269
20
-13.8372727514345
30
0
41
1
10
5.78566530582438
20
-14.0571125815742
30
0
41
1
10
5.80021708812575
20
-14.1991417035477
30
0
41
1
10
5.85741504483511
20
-14.4742325069293
30
0
41
1
10
5.90042590361813
20
-14.6079453346877
30
0
41
1
10
5.95705392435582
20
-14.7347325879227
30
0
0
SPLINE
5
2F2
100
AcDbEntity
8
1
62
256
6
ByLayer
370
13
48
1
60
0
100
AcDbSpline
70
4
71
3
72
28
73
24
40
0
40
0
40
0
40
0
40
0.111653677807918
40
0.111653677807918
40
0.223307355615835
40
0.223307355615835
40
0.334961033423753
40
0.334961033423753
40
0.390787872327707
40
0.390787872327707
40
0.446614711231661
40
0.446614711231661
40
0.669922066847476
40
0.669922066847476
40
0.725748905751429
40
0.725748905751429
40
0.781575744655383
40
0.781575744655383
40
0.893229422463291
40
0.893229422463291
40
0.94905626136724
40
0.94905626136724
40
1
40
1
40
1
40
1
41
1
10
178.937972332947
20
4.86295505909516
30
0
41
1
10
178.660189174065
20
4.92989983547523
30
0
41
1
10
178.379424213058
20
4.9850740292398
30
0
41
1
10
177.812480640111
20
5.07556412778317
30
0
41
1
10
177.526294096011
20
5.11084478446614
30
0
41
1
10
176.948432287211
20
5.16318983199906
30
0
41
1
10
176.656755003862
20
5.18023946834299
30
0
41
1
10
176.214724790878
20
5.19247618428435
30
0
41
1
10
176.066625586253
20
5.19432383381474
30
0
41
1
10
175.768806816062
20
5.19352062664271
30
0
41
1
10
175.618825635208
20
5.19085325684469
30
0
41
1
10
174.871135355308
20
5.16632520938794
30
0
41
1
10
174.275929755121
20
5.11152140665396
30
0
41
1
10
173.535329161788
20
4.99775143882746
30
0
41
1
10
173.387381861952
20
4.97269897986672
30
0
41
1
10
173.091838580253
20
4.91778501059528
30
0
41
1
10
172.944126396773
20
4.88787900511352
30
0
41
1
10
172.50752758757
20
4.79187911666682
30
0
41
1
10
172.223205542458
20
4.7192541656913
30
0
41
1
10
171.808444175821
20
4.59621375993507
30
0
41
1
10
171.672154822742
20
4.55283344814407
30
0
41
1
10
171.415716449849
20
4.4648498292066
30
0
41
1
10
171.29519785365
20
4.42064915993373
30
0
41
1
10
171.178680485303
20
4.37475295899381
30
0
0
SPLINE
5
2F3
100
AcDbEntity
8
1
62
256
6
ByLayer
370
13
48
1
60
0
100
AcDbSpline
70
4
71
3
72
8
73
4
40
0
40
0
40
0
40
0
40
1
40
1
40
1
40
1
41
1
10
186.309577534668
20
3.38068690433232
30
0
41
1
10
186.300819609977
20
3.3699535510649
30
0
41
1
10
186.294862370822
20
3.36200125438424
30
0
41
1
10
186.292144673411
20
3.35696289932352
30
0
0
SPLINE
5
2F4
100
AcDbEntity
8
1
62
256
6
ByLayer
370
13
48
1
60
0
100
AcDbSpline
70
4
71
3
72
16
73
12
40
0
40
0
40
0
40
0
40
0.038801173145088
40
0.038801173145088
40
0.199000977620907
40
0.199000977620907
40
0.359200782096725
40
0.359200782096725
40
0.679600391048363
40
0.679600391048363
40
1
40
1
40
1
40
1
41
1
10
186.292155225693
20
3.35056075531401
30
0
41
1
10
186.292829188476
20
3.35053296658998
30
0
41
1
10
186.293700345813
20
3.35068439067587
30
0
41
1
10
186.299152660372
20
3.35234930488968
30
0
41
1
10
186.306964937094
20
3.35677634497742
30
0
41
1
10
186.327480828188
20
3.37065455553613
30
0
41
1
10
186.340362351747
20
3.38021411270955
30
0
41
1
10
186.384402765885
20
3.41548128646471
30
0
41
1
10
186.419896225754
20
3.44683067120909
30
0
41
1
10
186.497241845208
20
3.52434231808937
30
0
41
1
10
186.537224154111
20
3.56862164751377
30
0
41
1
10
186.577177362958
20
3.61907390441081
30
0
0
SPLINE
5
2F5
100
AcDbEntity
8
1
62
256
6
ByLayer
370
13
48
1
60
0
100
AcDbSpline
70
4
71
3
72
36
73
32
40
0
40
0
40
0
40
0
40
0.124999999999999
40
0.124999999999999
40
0.156249999999999
40
0.156249999999999
40
0.187499999999999
40
0.187499999999999
40
0.25
40
0.25
40
0.3125
40
0.3125
40
0.375
40
0.375
40
0.40625
40
0.40625
40
0.4375
40
0.4375
40
0.5
40
0.5
40
0.5625
40
0.5625
40
0.625
40
0.625
40
0.75
40
0.75
40
0.8125
40
0.8125
40
0.875
40
0.875
40
1
40
1
40
1
40
1
41
1
10
5.95695790401763
20
-16.5221765030506
30
0
41
1
10
5.84457023593356
20
-16.7543747418634
30
0
41
1
10
5.78646457819511
20
-16.9727008096209
30
0
41
1
10
5.78510761440469
20
-17.2271927722977
30
0
41
1
10
5.78849235000186
20
-17.2769997267487
30
0
41
1
10
5.80224309562314
20
-17.3731522825075
30
0
41
1
10
5.81261454885919
20
-17.4196956392268
30
0
41
1
10
5.85392483643824
20
-17.5548516288245
30
0
41
1
10
5.89501839416968
20
-17.6390056273969
30
0
41
1
10
6.0038105430595
20
-17.795677404195
30
0
41
1
10
6.07202447644548
20
-17.8683963799491
30
0
41
1
10
6.23065842014745
20
-17.9985604012389
30
0
41
1
10
6.32132253833583
20
-18.0565833280137
30
0
41
1
10
6.47336630566761
20
-18.1337452089315
30
0
41
1
10
6.52673553979261
20
-18.1578136573052
30
0
41
1
10
6.63879526260871
20
-18.2027063585453
30
0
41
1
10
6.69767580843379
20
-18.2235839404281
30
0
41
1
10
6.88046143405319
20
-18.2808547170263
30
0
41
1
10
7.01057572871289
20
-18.3120206976939
30
0
41
1
10
7.2861125833366
20
-18.3615959824933
30
0
41
1
10
7.43148965936606
20
-18.3800244817479
30
0
41
1
10
7.73739807581094
20
-18.4046374455205
30
0
41
1
10
7.89830752687939
20
-18.4107800735547
30
0
41
1
10
8.39287413253436
20
-18.4117766106717
30
0
41
1
10
8.74116228240547
20
-18.3897947777897
30
0
41
1
10
9.28964201165022
20
-18.3265963073186
30
0
41
1
10
9.47712373994941
20
-18.3003422190635
30
0
41
1
10
9.85378497336944
20
-18.2390611637351
30
0
41
1
10
10.0438208879835
20
-18.2039508201651
30
0
41
1
10
10.6189568247407
20
-18.0859009918469
30
0
41
1
10
11.0090275832974
20
-17.9903974985183
30
0
41
1
10
11.4062145875538
20
-17.8779790257652
30
0
0
SPLINE
5
2F6
100
AcDbEntity
8
1
62
256
6
ByLayer
370
13
48
1
60
0
100
AcDbSpline
70
4
71
3
72
8
73
4
40
0
40
0
40
0
40
0
40
1
40
1
40
1
40
1
41
1
10
175.207237246054
20
2.57170200856828
30
0
41
1
10
175.383645598994
20
2.51905571154128
30
0
41
1
10
175.559418740976
20
2.46903724804426
30
0
41
1
10
175.734459002513
20
2.4220506714849
30
0
0
SPLINE
5
2F7
100
AcDbEntity
8
1
62
256
6
ByLayer
370
13
48
1
60
0
100
AcDbSpline
70
4
71
3
72
10
73
6
40
0
40
0
40
0
40
0
40
0.43234415345272
40
0.43234415345272
40
1
40
1
40
1
40
1
41
1
10
25.45
20
-13.0493021627171
30
0
41
1
10
25.45
20
-12.2925774085583
30
0
41
1
10
25.45
20
-11.5358526550871
30
0
41
1
10
25.45
20
-9.78556935244447
30
0
41
1
10
25.45
20
-8.79201080377081
30
0
41
1
10
25.45
20
-7.7984522562827
30
0
0
SPLINE
5
2F8
100
AcDbEntity
8
1
62
256
6
ByLayer
370
13
48
1
60
0
100
AcDbSpline
70
4
71
3
72
12
73
8
40
0
40
0
40
0
40
0
40
0.378959411819811
40
0.378959411819811
40
0.757918823639622
40
0.757918823639622
40
1
40
1
40
1
40
1
41
1
10
183.689016925911
20
9.14574223606556
30
0
41
1
10
183.66877855581
20
9.11620712354684
30
0
41
1
10
183.650097724775
20
9.08678141291261
30
0
41
1
10
183.615916730752
20
9.02874734370371
30
0
41
1
10
183.600406384158
20
9.00008931746584
30
0
41
1
10
183.578511891069
20
8.95593108219256
30
0
41
1
10
183.570726791833
20
8.93914141281439
30
0
41
1
10
183.564188981344
20
8.92389014931643
30
0
0
SPLINE
5
2F9
100
AcDbEntity
8
1
62
256
6
ByLayer
370
13
48
1
60
0
100
AcDbSpline
70
4
71
3
72
8
73
4
40
0
40
0
40
0
40
0
40
1
40
1
40
1
40
1
41
1
10
25.45
20
-13.0493021498899
30
0
41
1
10
25.3033333333597
20
-13.0492669305776
30
0
41
1
10
25.1566666666961
20
-13.0492317823285
30
0
41
1
10
25.01
20
-13.0491967341121
30
0
0
SPLINE
5
2FA
100
AcDbEntity
8
1
62
256
6
ByLayer
370
13
48
1
60
0
100
AcDbSpline
70
4
71
3
72
18
73
14
40
0
40
0
40
0
40
0
40
0.125000000000001
40
0.125000000000001
40
0.25
40
0.25
40
0.375
40
0.375
40
0.5
40
0.5
40
0.75
40
0.75
40
1
40
1
40
1
40
1
41
1
10
181.561711059469
20
4.10041055260575
30
0
41
1
10
181.581389771879
20
4.038127016559
30
0
41
1
10
181.607328404836
20
3.97829887858592
30
0
41
1
10
181.667152689926
20
3.86661102886095
30
0
41
1
10
181.700965539551
20
3.81461541661292
30
0
41
1
10
181.774765294934
20
3.71670911508369
30
0
41
1
10
181.814933034364
20
3.67065959710371
30
0
41
1
10
181.899998238565
20
3.58459870455621
30
0
41
1
10
181.944466256773
20
3.54497803700539
30
0
41
1
10
182.08283863388
20
3.43474907651384
30
0
41
1
10
182.181642345319
20
3.37265644178666
30
0
41
1
10
182.390870095874
20
3.26791713457106
30
0
41
1
10
182.500275490415
20
3.22595923694183
30
0
41
1
10
182.612743887608
20
3.19421023098758
30
0
0
SPLINE
5
2FB
100
AcDbEntity
8
1
62
256
6
ByLayer
370
13
48
1
60
0
100
AcDbSpline
70
4
71
3
72
12
73
8
40
0
40
0
40
0
40
0
40
0.250000000000105
40
0.250000000000105
40
0.500000000000209
40
0.500000000000209
40
1
40
1
40
1
40
1
41
1
10
179.267407066454
20
6.23662896283111
30
0
41
1
10
179.270999459586
20
6.24961429205703
30
0
41
1
10
179.279536244836
20
6.26071798882805
30
0
41
1
10
179.300162397432
20
6.27801417443402
30
0
41
1
10
179.31237224855
20
6.28454677300348
30
0
41
1
10
179.350588905978
20
6.29950284660504
30
0
41
1
10
179.378662546328
20
6.30372913402619
30
0
41
1
10
179.40703463433
20
6.30423161182119
30
0
0
SPLINE
5
2FC
100
AcDbEntity
8
1
62
256
6
ByLayer
370
13
48
1
60
0
100
AcDbSpline
70
4
71
3
72
12
73
8
40
0
40
0
40
0
40
0
40
0.313247181327387
40
0.313247181327387
40
0.656623590663694
40
0.656623590663694
40
1
40
1
40
1
40
1
41
1
10
25.450012647811
20
-4.74621325906989
30
0
41
1
10
25.4500321304405
20
-5.03535305533492
30
0
41
1
10
25.4500473027644
20
-5.35269687582399
30
0
41
1
10
25.4500682717766
20
-6.04069909666489
30
0
41
1
10
25.4500730197652
20
-6.41333460216345
30
0
41
1
10
25.4500694553128
20
-7.13523556529825
30
0
41
1
10
25.4500611439371
20
-7.48428528138331
30
0
41
1
10
25.4500468506457
20
-7.79845225745379
30
0
0
SPLINE
5
2FD
100
AcDbEntity
8
1
62
256
6
ByLayer
370
13
48
1
60
0
100
AcDbSpline
70
4
71
3
72
8
73
4
40
0
40
0
40
0
40
0
40
1
40
1
40
1
40
1
41
1
10
0.0999999999999943
20
-4.41588043316384
30
0
41
1
10
0.0650025024878289
20
-4.2593543255559
30
0
41
1
10
0.0316486183334916
20
-4.10227331426066
30
0
41
1
10
-4.26E-14
20
-3.94461658466324
30
0
0
SPLINE
5
2FE
100
AcDbEntity
8
1
62
256
6
ByLayer
370
13
48
1
60
0
100
AcDbSpline
70
4
71
3
72
24
73
20
40
0
40
0
40
0
40
0
40
0.180913600839666
40
0.180913600839666
40
0.271370401259501
40
0.271370401259501
40
0.361827201679336
40
0.361827201679336
40
0.542740802519002
40
0.542740802519002
40
0.723654403358668
40
0.723654403358668
40
0.8141112037785
40
0.8141112037785
40
0.904568004198331
40
0.904568004198331
40
0.995024804618163
40
0.995024804618163
40
1
40
1
40
1
40
1
41
1
10
178.014048329435
20
12.9921286201642
30
0
41
1
10
176.526762059167
20
13.1197656276957
30
0
41
1
10
175.04141906483
20
13.199287306565
30
0
41
1
10
172.812099416378
20
13.2466461532955
30
0
41
1
10
172.068540959221
20
13.2504198114308
30
0
41
1
10
170.581309877651
20
13.2336993563598
30
0
41
1
10
169.838607454624
20
13.213217283207
30
0
41
1
10
167.612209056086
20
13.1151249547725
30
0
41
1
10
166.130174217383
20
13.0006260088358
30
0
41
1
10
163.16529716561
20
12.6757187555726
30
0
41
1
10
161.682462218111
20
12.4648616715627
30
0
41
1
10
159.453756612714
20
12.0802550526594
30
0
41
1
10
158.709683763136
20
11.940779926168
30
0
41
1
10
157.223724790056
20
11.6416535861278
30
0
41
1
10
156.481708539468
20
11.4820372457143
30
0
41
1
10
154.996410710558
20
11.145480291503
30
0
41
1
10
154.252830781702
20
10.9677312243606
30
0
41
1
10
153.465614545287
20
10.7737349207958
30
0
41
1
10
153.42456647911
20
10.763606500775
30
0
41
1
10
153.383510606109
20
10.7534634764974
30
0
0
SPLINE
5
2FF
100
AcDbEntity
8
1
62
256
6
ByLayer
370
13
48
1
60
0
100
AcDbSpline
70
4
71
3
72
8
73
4
40
0
40
0
40
0
40
0
40
1
40
1
40
1
40
1
41
1
10
195.610088274797
20
0.498073840763482
30
0
41
1
10
195.719791893546
20
0.524287134871116
30
0
41
1
10
195.828915168996
20
0.538302237845272
30
0
41
1
10
195.938489834084
20
0.542230373629991
30
0
0
SPLINE
5
300
100
AcDbEntity
8
1
62
256
6
ByLayer
370
13
48
1
60
0
100
AcDbSpline
70
4
71
3
72
10
73
6
40
0
40
0
40
0
40
0
40
0.5
40
0.5
40
1
40
1
40
1
40
1
41
1
10
188.492073335453
20
4.38848988619361
30
0
41
1
10
188.527060981318
20
4.39032351101571
30
0
41
1
10
188.562435076728
20
4.38839812070282
30
0
41
1
10
188.631143639201
20
4.37767647700375
30
0
41
1
10
188.664286883062
20
4.36899047167995
30
0
41
1
10
188.696176937944
20
4.35746265499392
30
0
0
SPLINE
5
301
100
AcDbEntity
8
1
62
256
6
ByLayer
370
13
48
1
60
0
100
AcDbSpline
70
4
71
2
72
12
73
9
40
0
40
0
40
0
40
0.301288730706312
40
0.301288730706312
40
0.602577461412623
40
0.602577461412623
40
0.903866192118934
40
0.903866192118934
40
1
40
1
40
1
41
1
10
24.999999999999
20
-7.80359102800381
30
0
41
1
10
22.1966498883499
20
-8.30863573290989
30
0
41
1
10
19.7221377996686
20
-9.48393163649467
30
0
41
1
10
17.1624804194325
20
-10.6996682042539
30
0
41
1
10
15.1912853095108
20
-12.511285031677
30
0
41
1
10
13.2368201698091
20
-14.3075262651673
30
0
41
1
10
12.0455085940137
20
-16.5185320476518
30
0
41
1
10
11.6840804362907
20
-17.1893219257277
30
0
41
1
10
11.404537713191
20
-17.878023485787
30
0
0
SPLINE
5
302
100
AcDbEntity
8
1
62
256
6
ByLayer
370
13
48
1
60
0
100
AcDbSpline
70
4
71
3
72
10
73
6
40
0
40
0
40
0
40
0
40
0.5
40
0.5
40
1
40
1
40
1
40
1
41
1
10
186.446104162968
20
3.89015369133676
30
0
41
1
10
186.481973695948
20
3.87561773814667
30
0
41
1
10
186.507649145002
20
3.85861926398445
30
0
41
1
10
186.537048554573
20
3.82139822124114
30
0
41
1
10
186.540226489114
20
3.80233184472974
30
0
41
1
10
186.533441382175
20
3.78287128368157
30
0
0
SPLINE
5
303
100
AcDbEntity
8
1
62
256
6
ByLayer
370
13
48
1
60
0
100
AcDbSpline
70
4
71
3
72
12
73
8
40
0
40
0
40
0
40
0
40
0.5
40
0.5
40
0.75
40
0.75
40
1
40
1
40
1
40
1
41
1
10
182.001313298571
20
6.49896178547544
30
0
41
1
10
182.006198614613
20
6.61114303276446
30
0
41
1
10
181.99788218133
20
6.72544977241881
30
0
41
1
10
181.960275755359
20
6.88833882967708
30
0
41
1
10
181.94360342085
20
6.9415507657352
30
0
41
1
10
181.901016574033
20
7.04555193783443
30
0
41
1
10
181.874929737715
20
7.09646966411239
30
0
41
1
10
181.844667739344
20
7.14458540079593
30
0
0
SPLINE
5
304
100
AcDbEntity
8
1
62
256
6
ByLayer
370
13
48
1
60
0
100
AcDbSpline
70
4
71
3
72
40
73
36
40
0
40
0
40
0
40
0
40
0.0088796289443115
40
0.0088796289443115
40
0.0501763110716323
40
0.0501763110716323
40
0.0914729931989532
40
0.0914729931989532
40
0.132769675326274
40
0.132769675326274
40
0.174066357453595
40
0.174066357453595
40
0.256659721708236
40
0.256659721708236
40
0.297956403835557
40
0.297956403835557
40
0.339253085962877
40
0.339253085962877
40
0.380549768090197
40
0.380549768090197
40
0.421846450217517
40
0.421846450217517
40
0.504439814472158
40
0.504439814472158
40
0.545736496599478
40
0.545736496599478
40
0.587033178726798
40
0.587033178726798
40
0.669626542981439
40
0.669626542981439
40
0.752219907236079
40
0.752219907236079
40
0.83481327149072
40
0.83481327149072
40
1
40
1
40
1
40
1
41
1
10
156.790463753484
20
-11.142354685995
30
0
41
1
10
156.616067379219
20
-11.1860267281147
30
0
41
1
10
156.441665653631
20
-11.2291679678512
30
0
41
1
10
155.456139635635
20
-11.4698850629293
30
0
41
1
10
154.645522398445
20
-11.6556998417835
30
0
41
1
10
153.020943173148
20
-11.9984239276084
30
0
41
1
10
152.206891439536
20
-12.155239957137
30
0
41
1
10
150.571131651959
20
-12.4381007732716
30
0
41
1
10
149.749533745878
20
-12.5642723352569
30
0
41
1
10
148.095395202841
20
-12.7868541184479
30
0
41
1
10
147.264176035247
20
-12.8828626105074
30
0
41
1
10
144.757219995118
20
-13.131331871368
30
0
41
1
10
143.068557584031
20
-13.2454288622026
30
0
41
1
10
140.510798883535
20
-13.3661810514373
30
0
41
1
10
139.654724490517
20
-13.3979007853731
30
0
41
1
10
137.937707396101
20
-13.4479236224479
30
0
41
1
10
137.076481754264
20
-13.4662357760013
30
0
41
1
10
135.347989526189
20
-13.49261530493
30
0
41
1
10
134.480717693702
20
-13.5006822203748
30
0
41
1
10
132.739443772201
20
-13.5097077543443
30
0
41
1
10
131.865662113045
20
-13.5106775217152
30
0
41
1
10
129.239929769152
20
-13.5074457457185
30
0
41
1
10
127.481640363646
20
-13.4974067222171
30
0
41
1
10
124.831953023062
20
-13.4840367800288
30
0
41
1
10
123.946533331849
20
-13.4798136731021
30
0
41
1
10
122.175713795618
20
-13.4730409142092
30
0
41
1
10
121.289838404134
20
-13.4704399045608
30
0
41
1
10
118.631265365379
20
-13.4648077187209
30
0
41
1
10
116.857537498898
20
-13.4638387358639
30
0
41
1
10
113.310201998041
20
-13.4636420617208
30
0
41
1
10
111.536550374274
20
-13.4641622449361
30
0
41
1
10
107.989252019701
20
-13.4653741390662
30
0
41
1
10
106.215606744159
20
-13.4661193627334
30
0
41
1
10
100.894655893895
20
-13.4677756404943
30
0
41
1
10
97.3473330499471
20
-13.4680433530433
30
0
41
1
10
93.8
20
-13.46794529558
30
0
0
SPLINE
5
305
100
AcDbEntity
8
1
62
256
6
ByLayer
370
13
48
1
60
0
100
AcDbSpline
70
2053
71
3
72
93
73
89
40
0
40
0
40
0
40
0
40
0.0312500000000142
40
0.0312500000000142
40
0.0468750000000174
40
0.0468750000000174
40
0.0625000000000205
40
0.0625000000000205
40
0.0937500000000268
40
0.0937500000000268
40
0.109375000000027
40
0.109375000000027
40
0.125000000000027
40
0.125000000000027
40
0.156250000000021
40
0.156250000000021
40
0.187500000000015
40
0.187500000000015
40
0.218750000000009
40
0.218750000000009
40
0.250000000000004
40
0.250000000000004
40
0.265625000000001
40
0.265625000000001
40
0.281249999999998
40
0.281249999999998
40
0.312499999999992
40
0.312499999999992
40
0.328124999999989
40
0.328124999999989
40
0.343749999999986
40
0.343749999999986
40
0.37499999999998
40
0.37499999999998
40
0.406249999999975
40
0.406249999999975
40
0.421874999999972
40
0.421874999999972
40
0.437499999999969
40
0.437499999999969
40
0.468749999999963
40
0.468749999999963
40
0.484374999999964
40
0.484374999999964
40
0.499999999999965
40
0.499999999999965
40
0.531249999999967
40
0.531249999999967
40
0.546874999999968
40
0.546874999999968
40
0.562499999999969
40
0.57812499999997
40
0.57812499999997
40
0.593749999999971
40
0.593749999999971
40
0.62499999999998
40
0.62499999999998
40
0.640624999999981
40
0.640624999999981
40
0.656249999999983
40
0.656249999999983
40
0.687499999999982
40
0.687499999999982
40
0.718749999999982
40
0.718749999999982
40
0.734374999999981
40
0.734374999999981
40
0.749999999999981
40
0.749999999999981
40
0.78124999999998
40
0.78124999999998
40
0.796874999999979
40
0.796874999999979
40
0.812499999999978
40
0.812499999999978
40
0.843749999999976
40
0.843749999999976
40
0.874999999999974
40
0.874999999999974
40
0.906249999999972
40
0.906249999999972
40
0.921874999999974
40
0.921874999999974
40
0.937499999999977
40
0.937499999999977
40
0.968749999999988
40
0.968749999999988
40
1
40
1
40
1
40
1
41
1
10
191.260001889738
20
-1.16659442476919
30
0
41
1
10
191.36893443017
20
-1.16659442476919
30
0
41
1
10
191.475945982289
20
-1.17780587833934
30
0
41
1
10
191.633700971261
20
-1.21073430544345
30
0
41
1
10
191.685821867536
20
-1.22441709871345
30
0
41
1
10
191.789111070859
20
-1.25733383146428
30
0
41
1
10
191.840146105414
20
-1.27656609300612
30
0
41
1
10
191.988319073253
20
-1.34123738347992
30
0
41
1
10
192.081757277508
20
-1.39393285930075
30
0
41
1
10
192.213923995239
20
-1.48725192128154
30
0
41
1
10
192.25682965639
20
-1.52094779363009
30
0
41
1
10
192.338189889441
20
-1.591794614082
30
0
41
1
10
192.376816607723
20
-1.62903368773999
30
0
41
1
10
192.486714698248
20
-1.74602213449202
30
0
41
1
10
192.552329554153
20
-1.8314385167962
30
0
41
1
10
192.666134956243
20
-2.0146023325683
30
0
41
1
10
192.713141290017
20
-2.11023941304347
30
0
41
1
10
192.788465533771
20
-2.30907313961683
30
0
41
1
10
192.816861530076
20
-2.41333490327145
30
0
41
1
10
192.853097430839
20
-2.62224635127418
30
0
41
1
10
192.861305098544
20
-2.72728217237003
30
0
41
1
10
192.859101467473
20
-2.88565992165661
30
0
41
1
10
192.855895674765
20
-2.93885134990671
30
0
41
1
10
192.844668195261
20
-3.04396033200885
30
0
41
1
10
192.836678518171
20
-3.09588207198709
30
0
41
1
10
192.805798819582
20
-3.24981399906102
30
0
41
1
10
192.776063046548
20
-3.3500060484912
30
0
41
1
10
192.717415068654
20
-3.49662891070099
30
0
41
1
10
192.695489082315
20
-3.5448516731349
30
0
41
1
10
192.64775773354
20
-3.63815931807275
30
0
41
1
10
192.62185998827
20
-3.68349394879326
30
0
41
1
10
192.538099365517
20
-3.81559094124171
30
0
41
1
10
192.474237292919
20
-3.89848805618763
30
0
41
1
10
192.329116804939
20
-4.05328624915276
30
0
41
1
10
192.249794642559
20
-4.12302022357286
30
0
41
1
10
192.12166185996
20
-4.21518093734224
30
0
41
1
10
192.077359491459
20
-4.24387227833012
30
0
41
1
10
191.985419743644
20
-4.2970327276856
30
0
41
1
10
191.93751936869
20
-4.32161759429658
30
0
41
1
10
191.790289609183
20
-4.38774294056961
30
0
41
1
10
191.688961638107
20
-4.42119502643419
30
0
41
1
10
191.532154890033
20
-4.45537742922724
30
0
41
1
10
191.479077949058
20
-4.46408634015614
30
0
41
1
10
191.371225820715
20
-4.47587248540617
30
0
41
1
10
191.31671210879
20
-4.47887787454803
30
0
41
1
10
191.154959128292
20
-4.47917520403627
30
0
41
1
10
191.048145537174
20
-4.46800443142496
30
0
41
1
10
190.889456448346
20
-4.43416328094071
30
0
41
1
10
190.836862416903
20
-4.41997710670847
30
0
41
1
10
190.734734414473
20
-4.38662735723057
30
0
41
1
10
190.634993868098
20
-4.34817816499822
30
0
41
1
10
190.539855739458
20
-4.29985276397136
30
0
41
1
10
190.447002021931
20
-4.24659756545597
30
0
41
1
10
190.401765398983
20
-4.21749022713473
30
0
41
1
10
190.272224345341
20
-4.12476064120708
30
0
41
1
10
190.193005119295
20
-4.0552347901756
30
0
41
1
10
190.084349582302
20
-3.93979247497489
30
0
41
1
10
190.049746070865
20
-3.89928482823811
30
0
41
1
10
189.985168223545
20
-3.81601880960326
30
0
41
1
10
189.955036414051
20
-3.77311700703132
30
0
41
1
10
189.870885815384
20
-3.6407031367128
30
0
41
1
10
189.822992602049
20
-3.54736915091431
30
0
41
1
10
189.744289162068
20
-3.35114353345122
30
0
41
1
10
189.714470702943
20
-3.25079932692665
30
0
41
1
10
189.683515595622
20
-3.09699790597767
30
0
41
1
10
189.675509446216
20
-3.04517978025169
30
0
41
1
10
189.664232174506
20
-2.94041038446733
30
0
41
1
10
189.660964844999
20
-2.88717801559741
30
0
41
1
10
189.658630364687
20
-2.72821457997554
30
0
41
1
10
189.666830005196
20
-2.6232219371033
30
0
41
1
10
189.693748446887
20
-2.46723094268711
30
0
41
1
10
189.705173607386
20
-2.41548558755946
30
0
41
1
10
189.733129144445
20
-2.31252773928344
30
0
41
1
10
189.749746642845
20
-2.26116009022053
30
0
41
1
10
189.806354610509
20
-2.11128352802081
30
0
41
1
10
189.85325932629
20
-2.01589587350313
30
0
41
1
10
189.965645942828
20
-1.83439758613139
30
0
41
1
10
190.032020577104
20
-1.74754049804449
30
0
41
1
10
190.178740442232
20
-1.59102125445449
30
0
41
1
10
190.259330297397
20
-1.52054816730063
30
0
41
1
10
190.391354442361
20
-1.42690480310031
30
0
41
1
10
190.437489767288
20
-1.39759362507763
30
0
41
1
10
190.53160240609
20
-1.3443778800247
30
0
41
1
10
190.579728921248
20
-1.32033223944438
30
0
41
1
10
190.727259924893
20
-1.25575171783129
30
0
41
1
10
190.830139918852
20
-1.22261907363907
30
0
41
1
10
191.043201427512
20
-1.17782615496361
30
0
41
1
10
191.151069349306
20
-1.16659442476919
30
0
41
1
10
191.260001889738
20
-1.16659442476919
30
0
0
SPLINE
5
306
100
AcDbEntity
8
1
62
256
6
ByLayer
370
13
48
1
60
0
100
AcDbSpline
70
4
71
3
72
62
73
58
40
0
40
0
40
0
40
0
40
0.0312500000000034
40
0.0312500000000034
40
0.0468750000000046
40
0.0468750000000046
40
0.0625000000000057
40
0.0625000000000057
40
0.0781250000000069
40
0.0781250000000069
40
0.0859375000000075
40
0.0859375000000075
40
0.0937500000000081
40
0.0937500000000081
40
0.101562500000009
40
0.101562500000009
40
0.109375000000009
40
0.109375000000009
40
0.12500000000001
40
0.12500000000001
40
0.14062500000001
40
0.14062500000001
40
0.15625000000001
40
0.15625000000001
40
0.18750000000001
40
0.18750000000001
40
0.250000000000009
40
0.250000000000009
40
0.281250000000008
40
0.281250000000008
40
0.312500000000008
40
0.312500000000008
40
0.375000000000007
40
0.375000000000007
40
0.406250000000007
40
0.406250000000007
40
0.437500000000007
40
0.437500000000007
40
0.500000000000005
40
0.500000000000005
40
0.562500000000004
40
0.562500000000004
40
0.593750000000003
40
0.593750000000003
40
0.625000000000003
40
0.625000000000003
40
0.687500000000002
40
0.687500000000002
40
0.718750000000002
40
0.718750000000002
40
0.750000000000002
40
0.750000000000002
40
0.812500000000002
40
0.812500000000002
40
0.875000000000001
40
0.875000000000001
40
1
40
1
40
1
40
1
41
1
10
175.964951740058
20
-13.4128653371373
30
0
41
1
10
175.10236355908
20
-13.4022324972009
30
0
41
1
10
174.237081066925
20
-13.3925529594049
30
0
41
1
10
172.944586795064
20
-13.3731395235265
30
0
41
1
10
172.514714818891
20
-13.3657865873595
30
0
41
1
10
171.658789806472
20
-13.3474429514624
30
0
41
1
10
171.23266578099
20
-13.3365304037367
30
0
41
1
10
170.38679855541
20
-13.3078862175587
30
0
41
1
10
169.967078106834
20
-13.2901788187738
30
0
41
1
10
169.344706488302
20
-13.2543443044109
30
0
41
1
10
169.138473112807
20
-13.2408127160006
30
0
41
1
10
168.728713184065
20
-13.2097318940591
30
0
41
1
10
168.525370133393
20
-13.1919637517645
30
0
41
1
10
168.119927983142
20
-13.1533395608734
30
0
41
1
10
167.91753657696
20
-13.1327738618974
30
0
41
1
10
167.513016181043
20
-13.0898090514458
30
0
41
1
10
167.311020512255
20
-13.0673619230491
30
0
41
1
10
166.705046324008
20
-12.9975651104359
30
0
41
1
10
166.300935603464
20
-12.9478716705926
30
0
41
1
10
165.492936571528
20
-12.8419804597847
30
0
41
1
10
165.089063048777
20
-12.7857731537732
30
0
41
1
10
164.282121300491
20
-12.6663910481287
30
0
41
1
10
163.879045493774
20
-12.6032093771886
30
0
41
1
10
162.670448907045
20
-12.4035234993363
30
0
41
1
10
161.865555883894
20
-12.2568352247249
30
0
41
1
10
159.448955298361
20
-11.780397690213
30
0
41
1
10
157.83538861417
20
-11.4134170740969
30
0
41
1
10
155.392894479366
20
-10.8205028804355
30
0
41
1
10
154.574311440918
20
-10.6159061243086
30
0
41
1
10
152.932960831477
20
-10.1996830609228
30
0
41
1
10
152.10994247984
20
-9.98794311067951
30
0
41
1
10
149.631746182202
20
-9.34999725837528
30
0
41
1
10
147.967212166132
20
-8.92152434730352
30
0
41
1
10
145.446918449101
20
-8.30103472848944
30
0
41
1
10
144.602893836293
20
-8.09795018181072
30
0
41
1
10
142.906547165636
20
-7.70296348606198
30
0
41
1
10
142.053669308694
20
-7.51093244106406
30
0
41
1
10
139.485869922547
20
-6.95800597330529
30
0
41
1
10
137.764919873557
20
-6.62116832752369
30
0
41
1
10
134.304836343879
20
-6.0233597471528
30
0
41
1
10
132.565716135783
20
-5.76233520406564
30
0
41
1
10
129.944408611518
20
-5.42923385075335
30
0
41
1
10
129.068500429507
20
-5.32807543110246
30
0
41
1
10
127.311915768836
20
-5.14881060688433
30
0
41
1
10
126.432799524057
20
-5.0709717409097
30
0
41
1
10
123.79410846357
20
-4.87669036391301
30
0
41
1
10
122.032712164322
20
-4.79800312751695
30
0
41
1
10
119.388208577824
20
-4.7351276580666
30
0
41
1
10
118.506324439613
20
-4.72291086658885
30
0
41
1
10
116.742136202761
20
-4.70809562281363
30
0
41
1
10
115.859843971573
20
-4.70522295350398
30
0
41
1
10
113.212765966524
20
-4.70121814302684
30
0
41
1
10
111.447904531301
20
-4.7066038372235
30
0
41
1
10
107.918339709895
20
-4.72153803264493
30
0
41
1
10
106.153561886045
20
-4.730736485911
30
0
41
1
10
100.859203874128
20
-4.74904818435706
30
0
41
1
10
97.3296084798301
20
-4.75241287308532
30
0
41
1
10
93.8
20
-4.75083569451851
30
0
0
SPLINE
5
307
100
AcDbEntity
8
1
62
256
6
ByLayer
370
13
48
1
60
0
100
AcDbSpline
70
4
71
3
72
22
73
18
40
0
40
0
40
0
40
0
40
0.125
40
0.125
40
0.187500000000001
40
0.187500000000001
40
0.250000000000001
40
0.312500000000001
40
0.312500000000001
40
0.343750000000001
40
0.343750000000001
40
0.375000000000001
40
0.500000000000001
40
0.500000000000001
40
0.75
40
0.75
40
1
40
1
40
1
40
1
41
1
10
22.0955581976288
20
-5.41573013766563
30
0
41
1
10
21.6255502195313
20
-5.49858582612436
30
0
41
1
10
21.1606182206486
20
-5.60138854233645
30
0
41
1
10
20.4709060100123
20
-5.78579538420593
30
0
41
1
10
20.2426843113439
20
-5.85223393908163
30
0
41
1
10
19.7936095697569
20
-5.99367625244091
30
0
41
1
10
19.3507282113436
20
-6.1439878612176
30
0
41
1
10
18.9199679729781
20
-6.31165763942707
30
0
41
1
10
18.6013885544003
20
-6.44384101048536
30
0
41
1
10
18.4962882363876
20
-6.48946711999065
30
0
41
1
10
18.2854342135897
20
-6.57978365003359
30
0
41
1
10
17.7568605727914
20
-6.80351483702603
30
0
41
1
10
17.2211390596352
20
-7.01700984295729
30
0
41
1
10
15.9218925923819
20
-7.51004380355371
30
0
41
1
10
15.0369933061249
20
-7.8131189307052
30
0
41
1
10
13.2414656555424
20
-8.36544762917669
30
0
41
1
10
12.3297671559402
20
-8.61514994290701
30
0
41
1
10
11.4042513300813
20
-8.8386130658366
30
0
0
SPLINE
5
308
100
AcDbEntity
8
1
62
256
6
ByLayer
370
13
48
1
60
0
100
AcDbSpline
70
4
71
3
72
8
73
4
40
0
40
0
40
0
40
0
40
1
40
1
40
1
40
1
41
1
10
24.5825757193915
20
-13.0629287332491
30
0
41
1
10
24.5825757196212
20
-13.2476353777297
30
0
41
1
10
24.5825757198558
20
-13.4323420222086
30
0
41
1
10
24.5825757200952
20
-13.6170486666858
30
0
0
SPLINE
5
309
100
AcDbEntity
8
1
62
256
6
ByLayer
370
13
48
1
60
0
100
AcDbSpline
70
4
71
3
72
8
73
4
40
0
40
0
40
0
40
0
40
1
40
1
40
1
40
1
41
1
10
177.619339593016
20
1.52585715237762
30
0
41
1
10
176.989719488653
20
1.81945863859315
30
0
41
1
10
176.361456655605
20
2.11830851332422
30
0
41
1
10
175.734459002512
20
2.42205067148498
30
0
0
SPLINE
5
30A
100
AcDbEntity
8
1
62
256
6
ByLayer
370
13
48
1
60
0
100
AcDbSpline
70
4
71
3
72
16
73
12
40
0
40
0
40
0
40
0
40
0.125
40
0.125
40
0.25
40
0.25
40
0.5
40
0.5
40
0.75
40
0.75
40
1
40
1
40
1
40
1
41
1
10
93.8
20
-4.75083569451868
30
0
41
1
10
91.1416667441461
20
-4.74985926311788
30
0
41
1
10
88.4833375801855
20
-4.74651104345116
30
0
41
1
10
83.1666733673605
20
-4.74321562973805
30
0
41
1
10
80.5083396544423
20
-4.74339246246225
30
0
41
1
10
72.5333378418574
20
-4.74537650285492
30
0
41
1
10
67.216669329385
20
-4.74757608771895
30
0
41
1
10
56.583334620306
20
-4.74874237359481
30
0
41
1
10
51.2666670410659
20
-4.74956976367733
30
0
41
1
10
40.6333329020097
20
-4.75009970570244
30
0
41
1
10
35.3166671002352
20
-4.74893078980429
30
0
41
1
10
30
20
-4.74921892576845
30
0
0
SPLINE
5
30B
100
AcDbEntity
8
1
62
256
6
ByLayer
370
13
48
1
60
0
100
AcDbSpline
70
4
71
3
72
18
73
14
40
0
40
0
40
0
40
0
40
0.25
40
0.25
40
0.375
40
0.375
40
0.499999999999999
40
0.499999999999999
40
0.750000000000001
40
0.750000000000001
40
0.875
40
0.875
40
1
40
1
40
1
40
1
41
1
10
5.95705392435579
20
-14.7347325879227
30
0
41
1
10
5.87694961710531
20
-14.9019111931731
30
0
41
1
10
5.81552965996082
20
-15.0671213188772
30
0
41
1
10
5.75287045479331
20
-15.3116855173118
30
0
41
1
10
5.73692831358809
20
-15.392949579284
30
0
41
1
10
5.71583164607202
20
-15.5512836680837
30
0
41
1
10
5.71055844755432
20
-15.6286845628507
30
0
41
1
10
5.71052510028301
20
-15.8556449319477
30
0
41
1
10
5.73116828241641
20
-16.0000312296066
30
0
41
1
10
5.79335271161861
20
-16.206162711837
30
0
41
1
10
5.81940169055451
20
-16.2731983880122
30
0
41
1
10
5.88100941395049
20
-16.4015097907021
30
0
41
1
10
5.91663713109696
20
-16.4630891860241
30
0
41
1
10
5.95695790401766
20
-16.5221765030506
30
0
0
SPLINE
5
30C
100
AcDbEntity
8
1
62
256
6
ByLayer
370
13
48
1
60
0
100
AcDbSpline
70
4
71
3
72
40
73
36
40
0
40
0
40
0
40
0
40
0.125
40
0.125
40
0.1875
40
0.1875
40
0.25
40
0.25
40
0.3125
40
0.3125
40
0.34375
40
0.34375
40
0.375
40
0.375
40
0.4375
40
0.4375
40
0.46875
40
0.46875
40
0.5
40
0.5
40
0.5625
40
0.5625
40
0.59375
40
0.59375
40
0.625
40
0.625
40
0.6875
40
0.6875
40
0.75
40
0.75
40
0.875
40
0.875
40
0.9375
40
0.9375
40
1
40
1
40
1
40
1
41
1
10
5.13149999999999
20
-4.41588043316401
30
0
41
1
10
5.5190513135681
20
-4.172278048094
30
0
41
1
10
5.88168417614298
20
-3.89930937746982
30
0
41
1
10
6.38169161756389
20
-3.43807109054137
30
0
41
1
10
6.54098051733556
20
-3.27562740564039
30
0
41
1
10
6.84263004538653
20
-2.93079014189368
30
0
41
1
10
6.98305272015841
20
-2.75047208181877
30
0
41
1
10
7.23897120397751
20
-2.37584897254754
30
0
41
1
10
7.35487793187084
20
-2.18110418158906
30
0
41
1
10
7.50856126525505
20
-1.87654323332461
30
0
41
1
10
7.55641603228528
20
-1.77294265530116
30
0
41
1
10
7.64487447873231
20
-1.56126948223314
30
0
41
1
10
7.6852535258912
20
-1.45364312834042
30
0
41
1
10
7.79316710868702
20
-1.12901673998687
30
0
41
1
10
7.84813801960573
20
-0.908848470973254
30
0
41
1
10
7.90392184401566
20
-0.572701466755376
30
0
41
1
10
7.91806016895856
20
-0.459667631955796
30
0
41
1
10
7.93707353103397
20
-0.231552786543716
30
0
41
1
10
7.94190579927419
20
-0.116172478462175
30
0
41
1
10
7.94206162649857
20
0.226681802214841
30
0
41
1
10
7.92336188942159
20
0.452854389198222
30
0
41
1
10
7.86829433187674
20
0.78866923992274
30
0
41
1
10
7.84542341195154
20
0.900031979262138
30
0
41
1
10
7.79071297776346
20
1.12161421415251
30
0
41
1
10
7.75871433757618
20
1.23228178431455
30
0
41
1
10
7.65055547763129
20
1.55875207722647
30
0
41
1
10
7.56258209417092
20
1.76877480931495
30
0
41
1
10
7.35822241172386
20
2.17516821275251
30
0
41
1
10
7.24147969830042
20
2.37202143877454
30
0
41
1
10
6.85357458346746
20
2.94031596916986
30
0
41
1
10
6.55314027720621
20
3.27927804102126
30
0
41
1
10
6.05357191074881
20
3.74106111627316
30
0
41
1
10
5.87859019971646
20
3.88720610241936
30
0
41
1
10
5.51382130874742
20
4.16418077045003
30
0
41
1
10
5.32541251958566
20
4.29399321304058
30
0
41
1
10
5.13150000000002
20
4.41588043316401
30
0
0
SPLINE
5
30D
100
AcDbEntity
8
1
62
256
6
ByLayer
370
13
48
1
60
0
100
AcDbSpline
70
4
71
3
72
35
73
31
40
0
40
0
40
0
40
0
40
0.0911680983637866
40
0.213568501185752
40
0.346210733994155
40
0.489075761970278
40
0.503282645654639
40
0.518096107725113
40
0.533518194695464
40
0.549550871195298
40
0.56619600698816
40
0.583455362437471
40
0.601330572538493
40
0.619823129612594
40
0.63893436474583
40
0.658665428045038
40
0.679017267780405
40
0.699990608482579
40
0.72158592806445
40
0.743803434042122
40
0.766643038936026
40
0.790104334941322
40
0.814186567966561
40
0.838888611150755
40
0.864208937981582
40
0.890145595151206
40
0.916696175301101
40
0.943857789823271
40
0.971627041902219
40
1
40
1
40
1
40
1
41
1
10
22.9470888233689
20
-5.10548987840372
30
0
41
1
10
22.9905452854387
20
-5.19003418646852
30
0
41
1
10
23.0975130640616
20
-5.39014290046259
30
0
41
1
10
23.290768841466
20
-5.71953661759784
30
0
41
1
10
23.5382346507258
20
-6.09998016109955
30
0
41
1
10
23.7358395325829
20
-6.37460948202397
30
0
41
1
10
23.8572944246722
20
-6.53517800884123
30
0
41
1
10
23.888861460949
20
-6.57661847720669
30
0
41
1
10
23.921927508256
20
-6.61964115150695
30
0
41
1
10
23.9565242102658
20
-6.66422102850078
30
0
41
1
10
23.9926867736771
20
-6.71032448567544
30
0
41
1
10
24.0304474718875
20
-6.75791625533338
30
0
41
1
10
24.069837038547
20
-6.80695719301613
30
0
41
1
10
24.1108837968377
20
-6.8574046606675
30
0
41
1
10
24.1536134067898
20
-6.90921217094612
30
0
41
1
10
24.1980484144594
20
-6.96232924431896
30
0
41
1
10
24.2442078343101
20
-7.01670121159177
30
0
41
1
10
24.2921067002856
20
-7.07226903906962
30
0
41
1
10
24.3417556048338
20
-7.12896915685906
30
0
41
1
10
24.393160221722
20
-7.18673329645122
30
0
41
1
10
24.44632081579
20
-7.24548834326111
30
0
41
1
10
24.5012317394721
20
-7.30515618413659
30
0
41
1
10
24.5578809234104
20
-7.36565363774542
30
0
41
1
10
24.6162493426553
20
-7.42689213490422
30
0
41
1
10
24.6763105410928
20
-7.48877844919124
30
0
41
1
10
24.7380299065178
20
-7.55121144964497
30
0
41
1
10
24.801364900846
20
-7.61409434424277
30
0
41
1
10
24.8662616045287
20
-7.67728715424406
30
0
41
1
10
24.932665518082
20
-7.74079011566803
30
0
41
1
10
24.9773948455289
20
-7.78250785807603
30
0
41
1
10
25
20
-7.80359102800381
30
0
0
SPLINE
5
30E
100
AcDbEntity
8
1
62
256
6
ByLayer
370
13
48
1
60
0
100
AcDbSpline
70
4
71
3
72
10
73
6
40
0
40
0
40
0
40
0
40
0.5
40
0.5
40
1
40
1
40
1
40
1
41
1
10
192.475090701798
20
4.5555071334596
30
0
41
1
10
192.503274804131
20
4.57015978082219
30
0
41
1
10
192.534371923656
20
4.58240039507379
30
0
41
1
10
192.59944641935
20
4.60004149277768
30
0
41
1
10
192.633185713391
20
4.60549738609004
30
0
41
1
10
192.668117385255
20
4.6073470446477
30
0
0
SPLINE
5
30F
100
AcDbEntity
8
1
62
256
6
ByLayer
370
13
48
1
60
0
100
AcDbSpline
70
4
71
3
72
8
73
4
40
0
40
0
40
0
40
0
40
1
40
1
40
1
40
1
41
1
10
25
20
-13.6104545868232
30
0
41
1
10
24.8607372061299
20
-13.6104568813246
30
0
41
1
10
24.7215959394623
20
-13.6126578054122
30
0
41
1
10
24.5825757200952
20
-13.6170486666859
30
0
0
SPLINE
5
310
100
AcDbEntity
8
1
62
256
6
ByLayer
370
13
48
1
60
0
100
AcDbSpline
70
4
71
1
72
4
73
2
40
0
40
0
40
1
40
1
41
1
10
25.0100000007349
20
-13.0491967341121
30
0
41
1
10
25.0099999992651
20
-13.063030968003
30
0
0
SPLINE
5
311
100
AcDbEntity
8
1
62
256
6
ByLayer
370
13
48
1
60
0
100
AcDbSpline
70
4
71
3
72
8
73
4
40
0
40
0
40
0
40
0
40
1
40
1
40
1
40
1
41
1
10
186.36657230402
20
3.92442424359925
30
0
41
1
10
186.395507632396
20
3.91187716539716
30
0
41
1
10
186.421827329267
20
3.89999175971767
30
0
41
1
10
186.446104162968
20
3.89015369133674
30
0
0
SPLINE
5
312
100
AcDbEntity
8
1
62
256
6
ByLayer
370
13
48
1
60
0
100
AcDbSpline
70
4
71
3
72
22
73
18
40
0
40
0
40
0
40
0
40
0.249999999999999
40
0.249999999999999
40
0.499999999999998
40
0.499999999999998
40
0.624999999999998
40
0.624999999999998
40
0.656249999999998
40
0.656249999999998
40
0.687499999999998
40
0.687499999999998
40
0.749999999999999
40
0.749999999999999
40
0.874999999999999
40
0.874999999999999
40
1
40
1
40
1
40
1
41
1
10
11.4043404641477
20
-17.878509422571
30
0
41
1
10
12.3278664590901
20
-17.6171651615593
30
0
41
1
10
13.2373335289296
20
-17.3252845365256
30
0
41
1
10
15.0279679720338
20
-16.680055583203
30
0
41
1
10
15.9095983504709
20
-16.326508143691
30
0
41
1
10
17.2083941109115
20
-15.7494151064581
30
0
41
1
10
17.63729630496
20
-15.5492903039647
30
0
41
1
10
18.1682757092546
20
-15.2892196179463
30
0
41
1
10
18.274213997941
20
-15.2367094090829
30
0
41
1
10
18.4855718773852
20
-15.1306900815686
30
0
41
1
10
18.5909001900081
20
-15.0770051792539
30
0
41
1
10
18.9098188143734
20
-14.9216001732114
30
0
41
1
10
19.1251260801207
20
-14.8231865838648
30
0
41
1
10
19.7791586329853
20
-14.5435655295914
30
0
41
1
10
20.2259683906485
20
-14.3779271585636
30
0
41
1
10
21.1419257082647
20
-14.0896686128602
30
0
41
1
10
21.6110686630984
20
-13.9670395696341
30
0
41
1
10
22.0922071081459
20
-13.8675114719113
30
0
0
SPLINE
5
313
100
AcDbEntity
8
1
62
256
6
ByLayer
370
13
48
1
60
0
100
AcDbSpline
70
4
71
3
72
20
73
16
40
0
40
0
40
0
40
0
40
0.125
40
0.125
40
0.250000000000001
40
0.250000000000001
40
0.500000000000001
40
0.500000000000001
40
0.625000000000001
40
0.625000000000001
40
0.75
40
0.75
40
0.875
40
0.875
40
1
40
1
40
1
40
1
41
1
10
195.715347122108
20
3.86661203265149
30
0
41
1
10
195.643191090478
20
3.86492558310314
30
0
41
1
10
195.571991200656
20
3.86730847804034
30
0
41
1
10
195.43094303029
20
3.87938247985542
30
0
41
1
10
195.360710382103
20
3.88918975771961
30
0
41
1
10
195.156747879877
20
3.92816969096938
30
0
41
1
10
195.027477408278
20
3.96670406562834
30
0
41
1
10
194.838693329923
20
4.04403953063971
30
0
41
1
10
194.776441708171
20
4.07328856557516
30
0
41
1
10
194.655654572832
20
4.13795712685666
30
0
41
1
10
194.596930132006
20
4.17342226955751
30
0
41
1
10
194.482716246098
20
4.25111808692216
30
0
41
1
10
194.427227188164
20
4.29334179627341
30
0
41
1
10
194.319592302452
20
4.38551542300749
30
0
41
1
10
194.267711964588
20
4.43530220888141
30
0
41
1
10
194.21878387269
20
4.48833959884738
30
0
0
SPLINE
5
314
100
AcDbEntity
8
1
62
256
6
ByLayer
370
13
48
1
60
0
100
AcDbSpline
70
4
71
3
72
8
73
4
40
0
40
0
40
0
40
0
40
1
40
1
40
1
40
1
41
1
10
30
20
-4.7492189257683
30
0
41
1
10
28.3333333282304
20
-4.74917492021501
30
0
41
1
10
26.6666666344323
20
-4.74927512148346
30
0
41
1
10
25
20
-4.74960877667746
30
0
0
SPLINE
5
315
100
AcDbEntity
8
1
62
256
6
ByLayer
370
13
48
1
60
0
100
AcDbSpline
70
4
71
3
72
10
73
6
40
0
40
0
40
0
40
0
40
0.438971961140128
40
0.438971961140128
40
1
40
1
40
1
40
1
41
1
10
186.23821878188
20
3.97701357432314
30
0
41
1
10
186.258440454341
20
3.96944366645391
30
0
41
1
10
186.27800131539
20
3.96169411985633
30
0
41
1
10
186.321206720506
20
3.94398562174061
30
0
41
1
10
186.344686435851
20
3.93391450049023
30
0
41
1
10
186.366572304021
20
3.92442424360149
30
0
0
SPLINE
5
316
100
AcDbEntity
8
1
62
256
6
ByLayer
370
13
48
1
60
0
100
AcDbSpline
70
4
71
3
72
14
73
10
40
0
40
0
40
0
40
0
40
0.500000000000002
40
0.500000000000002
40
0.625000000000001
40
0.625000000000001
40
0.750000000000001
40
0.750000000000001
40
1
40
1
40
1
40
1
41
1
10
24.5825757200952
20
-13.6170486666859
30
0
41
1
10
24.1438144228205
20
-13.6309066507789
30
0
41
1
10
23.7148395702823
20
-13.6620108038672
30
0
41
1
10
23.190313056147
20
-13.7176415765057
30
0
41
1
10
23.0860005755285
20
-13.729585693669
30
0
41
1
10
22.8785812388146
20
-13.7549009018061
30
0
41
1
10
22.7759551146486
20
-13.7682171089733
30
0
41
1
10
22.4741397632835
20
-13.809285538726
30
0
41
1
10
22.2798068896932
20
-13.838317734345
30
0
41
1
10
22.0922071081459
20
-13.8675114719113
30
0
0
SPLINE
5
317
100
AcDbEntity
8
1
62
256
6
ByLayer
370
13
48
1
60
0
100
AcDbSpline
70
4
71
3
72
8
73
4
40
0
40
0
40
0
40
0
40
1
40
1
40
1
40
1
41
1
10
0
20
3.94461658466321
30
0
41
1
10
0.0315475824092175
20
4.10177000655756
30
0
41
1
10
0.0648914335652648
20
4.25885757043454
30
0
41
1
10
0.0999999999999943
20
4.41588043316384
30
0
0
SPLINE
5
318
100
AcDbEntity
8
1
62
256
6
ByLayer
370
13
48
1
60
0
100
AcDbSpline
70
4
71
3
72
8
73
4
40
0
40
0
40
0
40
0
40
1
40
1
40
1
40
1
41
1
10
181.526989782837
20
4.04768302712591
30
0
41
1
10
181.538587138949
20
4.06526716448948
30
0
41
1
10
181.550160174963
20
4.08284353219992
30
0
41
1
10
181.561711059469
20
4.10041055260541
30
0
0
SPLINE
5
319
100
AcDbEntity
8
1
62
256
6
ByLayer
370
13
48
1
60
0
100
AcDbSpline
70
4
71
3
72
10
73
6
40
0
40
0
40
0
40
0
40
0.5
40
0.5
40
1
40
1
40
1
40
1
41
1
10
179.248385861136
20
0.36041480215755
30
0
41
1
10
179.625714510487
20
0.214722158611011
30
0
41
1
10
180.009831392865
20
0.101288752295488
30
0
41
1
10
180.791359190175
20
-0.0612780382615767
30
0
41
1
10
181.188757478233
20
-0.110474393510486
30
0
41
1
10
181.593281435682
20
-0.124942098408525
30
0
0
SPLINE
5
31A
100
AcDbEntity
8
1
62
256
6
ByLayer
370
13
48
1
60
0
100
AcDbSpline
70
4
71
3
72
18
73
14
40
0
40
0
40
0
40
0
40
0.125
40
0.125
40
0.249999999999999
40
0.249999999999999
40
0.5
40
0.5
40
0.750000000000001
40
0.750000000000001
40
0.875000000000001
40
0.875000000000001
40
1
40
1
40
1
40
1
41
1
10
179.04628213173
20
5.23882289020867
30
0
41
1
10
179.05711506455
20
5.27197512431059
30
0
41
1
10
179.067533200364
20
5.30707369241421
30
0
41
1
10
179.087890572507
20
5.38117333320469
30
0
41
1
10
179.097879136723
20
5.42042853323088
30
0
41
1
10
179.12664857744
20
5.54076857182409
30
0
41
1
10
179.144481977866
20
5.62522025419887
30
0
41
1
10
179.17931151808
20
5.80220865096715
30
0
41
1
10
179.195475514879
20
5.89101244931209
30
0
41
1
10
179.220527314106
20
6.02417549153708
30
0
41
1
10
179.228990696954
20
6.06836649426211
30
0
41
1
10
179.246838365914
20
6.15416114316417
30
0
41
1
10
179.256185924662
20
6.1960681959539
30
0
41
1
10
179.267407066457
20
6.23662896284227
30
0
0
SPLINE
5
31B
100
AcDbEntity
8
1
62
256
6
ByLayer
370
13
48
1
60
0
100
AcDbSpline
70
4
71
3
72
38
73
34
40
0
40
0
40
0
40
0
40
0.0625000000000199
40
0.0625000000000199
40
0.12500000000004
40
0.12500000000004
40
0.250000000000068
40
0.250000000000068
40
0.312500000000075
40
0.312500000000075
40
0.375000000000081
40
0.375000000000081
40
0.437500000000088
40
0.437500000000088
40
0.468750000000092
40
0.468750000000092
40
0.500000000000095
40
0.500000000000095
40
0.562500000000083
40
0.562500000000083
40
0.625000000000071
40
0.625000000000071
40
0.68750000000006
40
0.68750000000006
40
0.750000000000048
40
0.750000000000048
40
0.812500000000036
40
0.812500000000036
40
0.875000000000024
40
0.875000000000024
40
0.937500000000012
40
0.937500000000012
40
1
40
1
40
1
40
1
41
1
10
186.944218295836
20
3.88199754567429
30
0
41
1
10
186.903081676236
20
3.80156188024665
30
0
41
1
10
186.85756991183
20
3.72573927022461
30
0
41
1
10
186.757991154278
20
3.58225361193584
30
0
41
1
10
186.703540202808
20
3.5142939032929
30
0
41
1
10
186.532445212316
20
3.32775022137176
30
0
41
1
10
186.406795412472
20
3.22369683554893
30
0
41
1
10
186.199832275741
20
3.09484479733746
30
0
41
1
10
186.128854251356
20
3.0572054964166
30
0
41
1
10
185.981688090644
20
2.99177710185901
30
0
41
1
10
185.905572878206
20
2.96397804422551
30
0
41
1
10
185.744859912632
20
2.91833200623301
30
0
41
1
10
185.659344635733
20
2.90045138162594
30
0
41
1
10
185.526989596466
20
2.88324048142803
30
0
41
1
10
185.481989803884
20
2.87904276136933
30
0
41
1
10
185.389928519503
20
2.87392263292387
30
0
41
1
10
185.342993753398
20
2.87305236692427
30
0
41
1
10
185.204886101419
20
2.87539075462797
30
0
41
1
10
185.113863448838
20
2.88342127404471
30
0
41
1
10
184.93604423961
20
2.91084123924716
30
0
41
1
10
184.850349360819
20
2.92997729891425
30
0
41
1
10
184.682866923727
20
2.9785266117311
30
0
41
1
10
184.601135087993
20
3.0079605080625
30
0
41
1
10
184.440822233111
20
3.07771021842495
30
0
41
1
10
184.362997358942
20
3.11776480840126
30
0
41
1
10
184.213694119034
20
3.20750269253563
30
0
41
1
10
184.141883192131
20
3.2573227223875
30
0
41
1
10
184.003984849145
20
3.36784549669136
30
0
41
1
10
183.937354902142
20
3.42915980093508
30
0
41
1
10
183.813707166452
20
3.5610218308731
30
0
41
1
10
183.756600295154
20
3.6314508858506
30
0
41
1
10
183.652385814039
20
3.78230169000352
30
0
41
1
10
183.605162423813
20
3.86327945357465
30
0
41
1
10
183.565272959644
20
3.94644267370748
30
0
0
SPLINE
5
31C
100
AcDbEntity
8
1
62
256
6
ByLayer
370
13
48
1
60
0
100
AcDbSpline
70
4
71
3
72
8
73
4
40
0
40
0
40
0
40
0
40
1
40
1
40
1
40
1
41
1
10
195.608879155404
20
0.347335635053042
30
0
41
1
10
195.608381344367
20
0.367708914413299
30
0
41
1
10
195.60815694047
20
0.388175396380575
30
0
41
1
10
195.608208705406
20
0.408176604209729
30
0
0
SPLINE
5
31D
100
AcDbEntity
8
1
62
256
6
ByLayer
370
13
48
1
60
0
100
AcDbSpline
70
4
71
3
72
18
73
14
40
0
40
0
40
0
40
0
40
0.0472423342485581
40
0.0472423342485581
40
0.206035278540465
40
0.206035278540465
40
0.285431750686418
40
0.285431750686418
40
0.364828222832371
40
0.364828222832371
40
0.682414111416186
40
0.682414111416186
40
1
40
1
40
1
40
1
41
1
10
9.90372968369857
20
-9.34754001005857
30
0
41
1
10
9.81184870041926
20
-9.44574002288334
30
0
41
1
10
9.721195273034
20
-9.54486410448584
30
0
41
1
10
9.33116040688924
20
-9.98118456700928
30
0
41
1
10
9.04443471452586
20
-10.32786588032
30
0
41
1
10
8.63574267063473
20
-10.8638170467195
30
0
41
1
10
8.50284207467621
20
-11.0454941498223
30
0
41
1
10
8.24632417557024
20
-11.4114371573349
30
0
41
1
10
8.12253315644162
20
-11.5959003914095
30
0
41
1
10
7.52583745061534
20
-12.5255822169333
30
0
41
1
10
7.12091988778937
20
-13.2936051614639
30
0
41
1
10
6.44216078995078
20
-14.8752279131031
30
0
41
1
10
6.16769105047356
20
-15.6882070958578
30
0
41
1
10
5.95695790401766
20
-16.5221765030506
30
0
0
SPLINE
5
31E
100
AcDbEntity
8
1
62
256
6
ByLayer
370
13
48
1
60
0
100
AcDbSpline
70
4
71
3
72
16
73
12
40
0
40
0
40
0
40
0
40
0.250000000000002
40
0.250000000000002
40
0.500000000000004
40
0.500000000000004
40
0.625
40
0.625
40
0.749999999999997
40
0.749999999999997
40
1
40
1
40
1
40
1
41
1
10
195.608208705406
20
0.408176604209729
30
0
41
1
10
195.608368123198
20
0.469773287888927
30
0
41
1
10
195.609606488682
20
0.528158154592859
30
0
41
1
10
195.614285443889
20
0.635220430599986
30
0
41
1
10
195.61763996684
20
0.682006118041159
30
0
41
1
10
195.62415510716
20
0.739924883100542
30
0
41
1
10
195.626523380078
20
0.75670265538875
30
0
41
1
10
195.631648396794
20
0.785261026020663
30
0
41
1
10
195.634432964499
20
0.797122200808872
30
0
41
1
10
195.643218925412
20
0.823957217023064
30
0
41
1
10
195.649577340369
20
0.830248306029517
30
0
41
1
10
195.656218686509
20
0.824160427848255
30
0
0
SPLINE
5
31F
100
AcDbEntity
8
1
62
256
6
ByLayer
370
13
48
1
60
0
100
AcDbSpline
70
4
71
3
72
10
73
6
40
0
40
0
40
0
40
0
40
0.5
40
0.5
40
1
40
1
40
1
40
1
41
1
10
179.407075724876
20
6.3042323394086
30
0
41
1
10
179.506548950389
20
6.30599304332546
30
0
41
1
10
179.605749675895
20
6.30409045625049
30
0
41
1
10
179.799166739308
20
6.2929766372406
30
0
41
1
10
179.893906455155
20
6.2837920985296
30
0
41
1
10
179.986699895179
20
6.27095010900553
30
0
0
SPLINE
5
320
100
AcDbEntity
8
1
62
256
6
ByLayer
370
13
48
1
60
0
100
AcDbSpline
70
4
71
3
72
12
73
8
40
0
40
0
40
0
40
0
40
0.25
40
0.25
40
0.5
40
0.5
40
1
40
1
40
1
40
1
41
1
10
22.0955581976287
20
-5.41573013766561
30
0
41
1
10
22.2838926725057
20
-5.3076402746056
30
0
41
1
10
22.477936815468
20
-5.21240021737734
30
0
41
1
10
22.8773460386985
20
-5.04729535027181
30
0
41
1
10
23.0829750467044
20
-4.97735796963136
30
0
41
1
10
23.7159299510557
20
-4.80754242164369
30
0
41
1
10
24.1454166363347
20
-4.75051333171811
30
0
41
1
10
24.5825757210399
20
-4.74992931394328
30
0
0
SPLINE
5
321
100
AcDbEntity
8
1
62
256
6
ByLayer
370
13
48
1
60
0
100
AcDbSpline
70
4
71
3
72
14
73
10
40
0
40
0
40
0
40
0
40
0.25
40
0.25
40
0.5
40
0.5
40
0.75
40
0.75
40
1
40
1
40
1
40
1
41
1
10
24.5825757193915
20
-13.0629287332562
30
0
41
1
10
24.3539208338878
20
-13.0628740422763
30
0
41
1
10
24.1294142528838
20
-13.0817308961875
30
0
41
1
10
23.6880657048248
20
-13.1543865160188
30
0
41
1
10
23.4709190946155
20
-13.2083054752116
30
0
41
1
10
23.045378029237
20
-13.3498890932072
30
0
41
1
10
22.8426663324901
20
-13.4355651548914
30
0
41
1
10
22.4546711151405
20
-13.6327060851431
30
0
41
1
10
22.2689341888886
20
-13.7445328133732
30
0
41
1
10
22.0922071081459
20
-13.8675114719113
30
0
0
SPLINE
5
322
100
AcDbEntity
8
1
62
256
6
ByLayer
370
13
48
1
60
0
100
AcDbSpline
70
4
71
1
72
4
73
2
40
0
40
0
40
1
40
1
41
1
10
25.45
20
-7.79845225633875
30
0
41
1
10
25.01
20
-7.79845225633875
30
0
0
SPLINE
5
323
100
AcDbEntity
8
1
62
256
6
ByLayer
370
13
48
1
60
0
100
AcDbSpline
70
4
71
3
72
34
73
30
40
0
40
0
40
0
40
0
40
0.0381800620384347
40
0.0381800620384347
40
0.0799983202106766
40
0.0799983202106766
40
0.100907449296798
40
0.100907449296798
40
0.121816578382919
40
0.121816578382919
40
0.163634836555161
40
0.163634836555161
40
0.184543965641282
40
0.184543965641282
40
0.205453094727402
40
0.205453094727402
40
0.247271352899644
40
0.247271352899644
40
0.330907869244128
40
0.330907869244128
40
0.414544385588612
40
0.414544385588612
40
0.498180901933096
40
0.498180901933096
40
0.58181741827758
40
0.58181741827758
40
0.665453934622064
40
0.665453934622064
40
1
40
1
40
1
40
1
41
1
10
140.284398747192
20
-7.17189209688439
30
0
41
1
10
138.84180463082
20
-7.27730392417112
30
0
41
1
10
137.395633875999
20
-7.36810295974161
30
0
41
1
10
134.356950294851
20
-7.52868918525019
30
0
41
1
10
132.763614977089
20
-7.5956135342409
30
0
41
1
10
130.365793336706
20
-7.67261347586663
30
0
41
1
10
129.565124006458
20
-7.69433998856357
30
0
41
1
10
127.964460764654
20
-7.73011812617162
30
0
41
1
10
127.164058354458
20
-7.74415180805207
30
0
41
1
10
124.762633941589
20
-7.77711911597439
30
0
41
1
10
123.1613880537
20
-7.78692656032484
30
0
41
1
10
120.75905472983
20
-7.79546606499082
30
0
41
1
10
119.958213847726
20
-7.79716950700634
30
0
41
1
10
118.356519063574
20
-7.79997949692606
30
0
41
1
10
117.555653773949
20
-7.80104025618479
30
0
41
1
10
115.153013910859
20
-7.8033341150535
30
0
41
1
10
113.551194838461
20
-7.80361718318579
30
0
41
1
10
108.745642849933
20
-7.80238977643845
30
0
41
1
10
105.541822184054
20
-7.79943125985218
30
0
41
1
10
99.1343630175849
20
-7.79728947612466
30
0
41
1
10
95.9306997580774
20
-7.79703476971207
30
0
41
1
10
89.5234042040783
20
-7.79772700298579
30
0
41
1
10
86.3197650046203
20
-7.79864396453294
30
0
41
1
10
79.9124402354359
20
-7.79941269065665
30
0
41
1
10
76.7087637285231
20
-7.79937313870644
30
0
41
1
10
70.3014183126279
20
-7.79892645879406
30
0
41
1
10
67.0977456046302
20
-7.79849847405231
30
0
41
1
10
51.0793819826314
20
-7.7974466508058
30
0
41
1
10
38.2646908909675
20
-7.79877257357745
30
0
41
1
10
25.45
20
-7.79845225628273
30
0
0
SPLINE
5
324
100
AcDbEntity
8
1
62
256
6
ByLayer
370
13
48
1
60
0
100
AcDbSpline
70
4
71
3
72
42
73
38
40
0
40
0
40
0
40
0
40
0.124999999999989
40
0.124999999999989
40
0.249999999999979
40
0.249999999999979
40
0.312499999999973
40
0.312499999999973
40
0.343749999999971
40
0.343749999999971
40
0.374999999999968
40
0.374999999999968
40
0.437499999999962
40
0.437499999999962
40
0.468749999999964
40
0.468749999999964
40
0.499999999999965
40
0.499999999999965
40
0.624999999999962
40
0.624999999999962
40
0.656249999999965
40
0.656249999999965
40
0.687499999999967
40
0.687499999999967
40
0.749999999999972
40
0.749999999999972
40
0.781249999999976
40
0.781249999999976
40
0.81249999999998
40
0.81249999999998
40
0.874999999999987
40
0.874999999999987
40
0.90624999999999
40
0.90624999999999
40
0.937499999999994
40
0.937499999999994
40
1
40
1
40
1
40
1
41
1
10
181.405694392736
20
0.818123198541315
30
0
41
1
10
181.814383568051
20
0.772644625927768
30
0
41
1
10
182.224416020336
20
0.736914503319639
30
0
41
1
10
183.048158339544
20
0.692142047395777
30
0
41
1
10
183.461855584601
20
0.683008114482362
30
0
41
1
10
184.086188973867
20
0.696794074899231
30
0
41
1
10
184.294935225883
20
0.705998613938107
30
0
41
1
10
184.609203762987
20
0.728145117211028
30
0
41
1
10
184.713970073407
20
0.7369197010768
30
0
41
1
10
184.921366161233
20
0.757253584387314
30
0
41
1
10
185.024286576778
20
0.768831661636938
30
0
41
1
10
185.330583969702
20
0.80803696441356
30
0
41
1
10
185.531507740354
20
0.840115940257363
30
0
41
1
10
185.827305868589
20
0.898373899443897
30
0
41
1
10
185.92497165526
20
0.919487371929819
30
0
41
1
10
186.118285228791
20
0.96537631211288
30
0
41
1
10
186.21358539415
20
0.990085777323173
30
0
41
1
10
186.677784322472
20
1.12138672495317
30
0
41
1
10
187.015292399544
20
1.25195101543559
30
0
41
1
10
187.386668278347
20
1.4532400733037
30
0
41
1
10
187.45803637652
20
1.49528735995736
30
0
41
1
10
187.592599471973
20
1.58157820485832
30
0
41
1
10
187.656153749509
20
1.6260112430457
30
0
41
1
10
187.835722310358
20
1.76314296382677
30
0
41
1
10
187.940691460582
20
1.859657277286
30
0
41
1
10
188.075522432722
20
2.01224396116862
30
0
41
1
10
188.116851544911
20
2.06466714810898
30
0
41
1
10
188.190817230106
20
2.17088592528
30
0
41
1
10
188.223400666502
20
2.22452587440995
30
0
41
1
10
188.308528116724
20
2.386968016087
30
0
41
1
10
188.348501217713
20
2.49728623831049
30
0
41
1
10
188.384492920133
20
2.66565406357205
30
0
41
1
10
188.392490451744
20
2.72246575305582
30
0
41
1
10
188.400465158652
20
2.83598522790851
30
0
41
1
10
188.400469676628
20
2.89256596230822
30
0
41
1
10
188.389260098685
20
3.06180375738305
30
0
41
1
10
188.366865599921
20
3.17395833033064
30
0
41
1
10
188.330823603795
20
3.28549953540318
30
0
0
SPLINE
5
325
100
AcDbEntity
8
1
62
256
6
ByLayer
370
13
48
1
60
0
100
AcDbSpline
70
4
71
3
72
8
73
4
40
0
40
0
40
0
40
0
40
1
40
1
40
1
40
1
41
1
10
178.12822655731
20
0.871245042351148
30
0
41
1
10
178.487395110351
20
0.670029807150001
30
0
41
1
10
178.860599600504
20
0.499300818948967
30
0
41
1
10
179.248385861136
20
0.36041480215755
30
0
0
SPLINE
5
326
100
AcDbEntity
8
1
62
256
6
ByLayer
370
13
48
1
60
0
100
AcDbSpline
70
4
71
3
72
18
73
14
40
0
40
0
40
0
40
0
40
0.250000000000001
40
0.250000000000001
40
0.500000000000002
40
0.500000000000002
40
0.625000000000001
40
0.625000000000001
40
0.750000000000001
40
0.750000000000001
40
0.875
40
0.875
40
1
40
1
40
1
40
1
41
1
10
193.76218182354
20
4.66468456863495
30
0
41
1
10
193.810129052732
20
4.66719737643967
30
0
41
1
10
193.85871114672
20
4.66257411155127
30
0
41
1
10
193.950597047392
20
4.64124407856676
30
0
41
1
10
193.994591670394
20
4.62424028067343
30
0
41
1
10
194.05179742161
20
4.59494368051611
30
0
41
1
10
194.069770234266
20
4.58440761930842
30
0
41
1
10
194.101903050115
20
4.563790359954
30
0
41
1
10
194.116242468164
20
4.55363825450681
30
0
41
1
10
194.141913882884
20
4.53452336859331
30
0
41
1
10
194.153146526484
20
4.52563311165264
30
0
41
1
10
194.172186498432
20
4.51048689709555
30
0
41
1
10
194.180144436367
20
4.50411382074381
30
0
41
1
10
194.186754930878
20
4.49917818745917
30
0
0
SPLINE
5
327
100
AcDbEntity
8
1
62
256
6
ByLayer
370
13
48
1
60
0
100
AcDbSpline
70
4
71
3
72
10
73
6
40
0
40
0
40
0
40
0
40
0.5
40
0.5
40
1
40
1
40
1
40
1
41
1
10
180.077019525223
20
6.28202830709856
30
0
41
1
10
180.124086649533
20
6.29120772969196
30
0
41
1
10
180.171527484622
20
6.2991327274803
30
0
41
1
10
180.267714681583
20
6.310600496794
30
0
41
1
10
180.316364220324
20
6.3142884896848
30
0
41
1
10
180.365514475155
20
6.31317319746492
30
0
0
SPLINE
5
328
100
AcDbEntity
8
1
62
256
6
ByLayer
370
13
48
1
60
0
100
AcDbSpline
70
4
71
3
72
20
73
16
40
0
40
0
40
0
40
0
40
0.249999999999998
40
0.249999999999998
40
0.499999999999997
40
0.499999999999997
40
0.625000000000003
40
0.625000000000003
40
0.750000000000008
40
0.750000000000008
40
0.875000000000014
40
0.875000000000014
40
0.937500000000007
40
0.937500000000007
40
1
40
1
40
1
40
1
41
1
10
181.526989782871
20
4.04768302713583
30
0
41
1
10
181.516781914631
20
4.24946841895519
30
0
41
1
10
181.472880754574
20
4.45127854931567
30
0
41
1
10
181.319442433611
20
4.85622577926739
30
0
41
1
10
181.213498808378
20
5.05224733425851
30
0
41
1
10
181.013934427236
20
5.34191332610626
30
0
41
1
10
180.939757043082
20
5.43822505666216
30
0
41
1
10
180.780307269713
20
5.62360552475357
30
0
41
1
10
180.694858575854
20
5.71307868316239
30
0
41
1
10
180.512635365851
20
5.88606737023903
30
0
41
1
10
180.415958165779
20
5.96974954285679
30
0
41
1
10
180.26112807988
20
6.08945783487516
30
0
41
1
10
180.207608208327
20
6.12848893814575
30
0
41
1
10
180.098756400131
20
6.20257459372692
30
0
41
1
10
180.043276754554
20
6.23775337245615
30
0
41
1
10
179.986699895178
20
6.27095010900444
30
0
0
SPLINE
5
329
100
AcDbEntity
8
1
62
256
6
ByLayer
370
13
48
1
60
0
100
AcDbSpline
70
4
71
3
72
8
73
4
40
0
40
0
40
0
40
0
40
1
40
1
40
1
40
1
41
1
10
181.593281435682
20
-0.124942098408269
30
0
41
1
10
181.811649130781
20
-0.132751968043379
30
0
41
1
10
182.030017274333
20
-0.140557724394512
30
0
41
1
10
182.248385861136
20
-0.148359407805998
30
0
0
SPLINE
5
32A
100
AcDbEntity
8
1
62
256
6
ByLayer
370
13
48
1
60
0
100
AcDbSpline
70
4
71
3
72
10
73
6
40
0
40
0
40
0
40
0
40
0.22420503468847
40
0.22420503468847
40
1
40
1
40
1
40
1
41
1
10
167.046960844677
20
6.0284457542794
30
0
41
1
10
167.960004142436
20
6.08239431233349
30
0
41
1
10
168.872953635
20
6.12803846352588
30
0
41
1
10
172.945170985268
20
6.29354003657753
30
0
41
1
10
176.10636573191
20
6.31891988819126
30
0
41
1
10
179.267407066462
20
6.23662896284102
30
0
0
SPLINE
5
32B
100
AcDbEntity
8
1
62
256
6
ByLayer
370
13
48
1
60
0
100
AcDbSpline
70
4
71
3
72
18
73
14
40
0
40
0
40
0
40
0
40
0.25000000000006
40
0.25000000000006
40
0.375000000000089
40
0.375000000000089
40
0.500000000000118
40
0.500000000000118
40
0.750000000000111
40
0.750000000000111
40
0.875000000000056
40
0.875000000000056
40
1
40
1
40
1
40
1
41
1
10
187.047897987271
20
4.11252939410048
30
0
41
1
10
187.042577437435
20
4.11225055589898
30
0
41
1
10
187.043841381656
20
4.12250900803286
30
0
41
1
10
187.059106477318
20
4.15092733890125
30
0
41
1
10
187.066465131792
20
4.16243184767751
30
0
41
1
10
187.086407390984
20
4.18793020725923
30
0
41
1
10
187.099258471755
20
4.2021749921569
30
0
41
1
10
187.145341733364
20
4.24464200090787
30
0
41
1
10
187.187529427437
20
4.27333474003569
30
0
41
1
10
187.260818392842
20
4.30452000891404
30
0
41
1
10
187.287330506632
20
4.31319799118995
30
0
41
1
10
187.341475229412
20
4.32567952924092
30
0
41
1
10
187.369340552782
20
4.32963435159303
30
0
41
1
10
187.398008897118
20
4.33115236220371
30
0
0
SPLINE
5
32C
100
AcDbEntity
8
1
62
256
6
ByLayer
370
13
48
1
60
0
100
AcDbSpline
70
4
71
3
72
8
73
4
40
0
40
0
40
0
40
0
40
1
40
1
40
1
40
1
41
1
10
194.272363248236
20
4.49757597328849
30
0
41
1
10
194.26147250031
20
4.4847916290839
30
0
41
1
10
194.250627479486
20
4.47236675097815
30
0
41
1
10
194.239795201107
20
4.4603222315458
30
0
0
SPLINE
5
32D
100
AcDbEntity
8
1
62
256
6
ByLayer
370
13
48
1
60
0
100
AcDbSpline
70
4
71
3
72
10
73
6
40
0
40
0
40
0
40
0
40
0.5
40
0.5
40
1
40
1
40
1
40
1
41
1
10
181.561711059469
20
4.10041055260569
30
0
41
1
10
181.574733931135
20
4.16267720237363
30
0
41
1
10
181.591544234495
20
4.22694832206528
30
0
41
1
10
181.634082517343
20
4.35934745806432
30
0
41
1
10
181.659108823011
20
4.42525538486495
30
0
41
1
10
181.688475656114
20
4.49061436226057
30
0
0
SPLINE
5
32E
100
AcDbEntity
8
1
62
256
6
ByLayer
370
13
48
1
60
0
100
AcDbSpline
70
4
71
3
72
10
73
6
40
0
40
0
40
0
40
0
40
0.951474786268755
40
0.951474786268755
40
1
40
1
40
1
40
1
41
1
10
179.04628213173
20
5.23882289020867
30
0
41
1
10
175.880143432938
20
5.33784140619034
30
0
41
1
10
172.71769786663
20
5.34591443620033
30
0
41
1
10
169.393108288368
20
5.2620622138833
30
0
41
1
10
169.23177986258
20
5.25776585298436
30
0
41
1
10
169.070448824929
20
5.25324294750467
30
0
0
SPLINE
5
32F
100
AcDbEntity
8
1
62
256
6
ByLayer
370
13
48
1
60
0
100
AcDbSpline
70
4
71
3
72
8
73
4
40
0
40
0
40
0
40
0
40
1
40
1
40
1
40
1
41
1
10
180.07701952523
20
6.2820283070825
30
0
41
1
10
180.047656260239
20
6.27555239351349
30
0
41
1
10
180.017521653728
20
6.27206173048469
30
0
41
1
10
179.986699895179
20
6.27095010900601
30
0
0
SPLINE
5
330
100
AcDbEntity
8
1
62
256
6
ByLayer
370
13
48
1
60
0
100
AcDbSpline
70
4
71
2
72
6
73
3
40
0
40
0
40
0
40
1
40
1
40
1
41
1
10
167.1087177687
20
6.01269059662278
30
0
41
1
10
167.059300462662
20
6.03198270200116
30
0
41
1
10
167.009891416309
20
6.05198725754212
30
0
0
SPLINE
5
331
100
AcDbEntity
8
1
62
256
6
ByLayer
370
13
48
1
60
0
100
AcDbSpline
70
4
71
3
72
16
73
12
40
0
40
0
40
0
40
0
40
0.139665633531927
40
0.279886670419242
40
0.42027159331273
40
0.560426135727219
40
0.648242254507529
40
0.73578248570447
40
0.823995510285273
40
0.912341347248506
40
1
40
1
40
1
40
1
41
1
10
5.13149999999999
20
-19.75
30
0
41
1
10
6.09863591778668
20
-19.61397543899
30
0
41
1
10
8.02040522354426
20
-19.2703460045019
30
0
41
1
10
10.8645374114461
20
-18.5390396900889
30
0
41
1
10
13.6472911708082
20
-17.5954298248308
30
0
41
1
10
16.0167433175323
20
-16.5908436528684
30
0
41
1
10
17.9847951453984
20
-15.6043540679079
30
0
41
1
10
19.6004977585362
20
-14.7187273772899
30
0
41
1
10
21.3484563171775
20
-14.1109368717044
30
0
41
1
10
23.1600688248605
20
-13.7327753983721
30
0
41
1
10
24.3840781498737
20
-13.6503835441465
30
0
41
1
10
25
20
-13.65
30
0
0
SPLINE
5
332
100
AcDbEntity
8
1
62
256
6
ByLayer
370
13
48
1
60
0
100
AcDbSpline
70
4
71
3
72
16
73
12
40
0
40
0
40
0
40
0
40
0.092993710312687
40
0.186704615039854
40
0.280154079733346
40
0.373006574083166
40
0.466225515448667
40
0.559687864665825
40
0.706747392120327
40
0.853668275195053
40
1
40
1
40
1
40
1
41
1
10
25
20
13.65
30
0
41
1
10
24.3460408645439
20
13.6504857384198
30
0
41
1
10
23.0484218919037
20
13.7436041821797
30
0
41
1
10
21.1307822601644
20
14.1668113968041
30
0
41
1
10
19.2938728839817
20
14.8561784613687
30
0
41
1
10
17.5951388749038
20
15.8207788472837
30
0
41
1
10
15.8340176801428
20
16.6612670639368
30
0
41
1
10
13.6892058523096
20
17.5708136083308
30
0
41
1
10
11.1334946835038
20
18.461325281592
30
0
41
1
10
8.15784704598482
20
19.2439296717232
30
0
41
1
10
6.14498827645335
20
19.6074400334059
30
0
41
1
10
5.13150000000002
20
19.75
30
0
0
SPLINE
5
333
100
AcDbEntity
8
1
62
256
6
ByLayer
370
13
48
1
60
0
100
AcDbSpline
70
4
71
2
72
6
73
3
40
0
40
0
40
0
40
1
40
1
40
1
41
1
10
196.166630855151
20
3.99212775698862
30
0
41
1
10
196.225285555596
20
4.05326904018065
30
0
41
1
10
196.28445378847
20
4.10172866876653
30
0
0
SPLINE
5
334
100
AcDbEntity
8
1
62
256
6
ByLayer
370
13
48
1
60
0
100
AcDbSpline
70
4
71
2
72
6
73
3
40
0
40
0
40
0
40
1
40
1
40
1
41
1
10
184.426941446954
20
3.48030277912653
30
0
41
1
10
184.490850960564
20
3.43829338191296
30
0
41
1
10
184.555575348798
20
3.38361812276861
30
0
0
LINE
5
7F
100
AcDbEntity
8
SK1
62
256
6
ByLayer
370
13
48
1
60
0
100
AcDbLine
10
-6.5
20
-8.082178
30
0
11
-56.600002
21
-8.082178
31
0
39
0
210
0
220
0
230
1
0
LINE
5
81
100
AcDbEntity
8
SK1
62
256
6
ByLayer
370
13
48
1
60
0
100
AcDbLine
10
-58.599999
20
-15.996
30
0
11
-58.599999
21
-8.082178
31
0
39
0
210
0
220
0
230
1
0
LINE
5
82
100
AcDbEntity
8
SK1
62
256
6
ByLayer
370
13
48
1
60
0
100
AcDbLine
10
-58.599999
20
8.082178
30
0
11
-58.599999
21
15.996
31
0
39
0
210
0
220
0
230
1
0
LINE
5
83
100
AcDbEntity
8
SK1
62
256
6
ByLayer
370
13
48
1
60
0
100
AcDbLine
10
-60
20
5.859147
30
0
11
-60
21
-5.859147
31
0
39
0
210
0
220
0
230
1
0
LINE
5
84
100
AcDbEntity
8
SK1
62
256
6
ByLayer
370
13
48
1
60
0
100
AcDbLine
10
-57.633813
20
15.639667
30
0
11
-57.633813
21
7.351787
31
0
39
0
210
0
220
0
230
1
0
LINE
5
85
100
AcDbEntity
8
SK1
62
256
6
ByLayer
370
13
48
1
60
0
100
AcDbLine
10
-57.633813
20
-7.351787
30
0
11
-57.633813
21
-15.639667
31
0
39
0
210
0
220
0
230
1
0
LINE
5
86
100
AcDbEntity
8
SK1
62
256
6
ByLayer
370
13
48
1
60
0
100
AcDbLine
10
-1.375195
20
-15.746
30
0
11
-1.375195
21
15.746
31
0
39
0
210
0
220
0
230
1
0
LINE
5
87
100
AcDbEntity
8
SK1
62
256
6
ByLayer
370
13
48
1
60
0
100
AcDbLine
10
-56.600002
20
8.082178
30
0
11
-6.5
21
8.082178
31
0
39
0
210
0
220
0
230
1
0
LINE
5
88
100
AcDbEntity
8
SK1
62
256
6
ByLayer
370
13
48
1
60
0
100
AcDbLine
10
-0.15
20
-15.746
30
0
11
-0.15
21
15.746
31
0
39
0
210
0
220
0
230
1
0
LINE
5
89
100
AcDbEntity
8
SK1
62
256
6
ByLayer
370
13
48
1
60
0
100
AcDbLine
10
-59
20
8.082178
30
0
11
-58.599999
21
8.082178
31
0
39
0
210
0
220
0
230
1
0
LINE
5
8A
100
AcDbEntity
8
SK1
62
256
6
ByLayer
370
13
48
1
60
0
100
AcDbLine
10
-56.600002
20
15.996
30
0
11
-56.600002
21
8.082178
31
0
39
0
210
0
220
0
230
1
0
LINE
5
8B
100
AcDbEntity
8
SK1
62
256
6
ByLayer
370
13
48
1
60
0
100
AcDbLine
10
-56.600002
20
-8.082178
30
0
11
-56.600002
21
-15.996
31
0
39
0
210
0
220
0
230
1
0
LINE
5
8C
100
AcDbEntity
8
SK1
62
256
6
ByLayer
370
13
48
1
60
0
100
AcDbLine
10
-59
20
-15.996
30
0
11
-59
21
-8.082178
31
0
39
0
210
0
220
0
230
1
0
LINE
5
8D
100
AcDbEntity
8
SK1
62
256
6
ByLayer
370
13
48
1
60
0
100
AcDbLine
10
-59
20
8.082178
30
0
11
-59
21
15.996
31
0
39
0
210
0
220
0
230
1
0
LINE
5
8E
100
AcDbEntity
8
1
62
256
6
ByLayer
370
13
48
1
60
0
100
AcDbLine
10
195.907167
20
4.151005
30
0
11
196.212268
21
4.77267
31
0
39
0
210
0
220
0
230
1
0
LINE
5
8F
100
AcDbEntity
8
1
62
256
6
ByLayer
370
13
48
1
60
0
100
AcDbLine
10
185.584314
20
3.22668
30
0
11
185.573086
21
3.224079
31
0
39
0
210
0
220
0
230
1
0
LINE
5
90
100
AcDbEntity
8
1
62
256
6
ByLayer
370
13
48
1
60
0
100
AcDbLine
10
196.201534
20
4.872174
30
0
11
194.70196
21
4.647434
31
0
39
0
210
0
220
0
230
1
0
LINE
5
91
100
AcDbEntity
8
1
62
256
6
ByLayer
370
13
48
1
60
0
100
AcDbLine
10
196.941394
20
9.145382
30
0
11
196.262881
21
13.441705
31
0
39
0
210
0
220
0
230
1
0
LINE
5
92
100
AcDbEntity
8
1
62
256
6
ByLayer
370
13
48
1
60
0
100
AcDbLine
10
195.907167
20
4.151005
30
0
11
196.232342
21
4.199739
31
0
39
0
210
0
220
0
230
1
0
LINE
5
93
100
AcDbEntity
8
1
62
256
6
ByLayer
370
13
48
1
60
0
100
AcDbLine
10
195.924006
20
4.729469
30
0
11
195.714141
21
3.933954
31
0
39
0
210
0
220
0
230
1
0
LINE
5
94
100
AcDbEntity
8
1
62
256
6
ByLayer
370
13
48
1
60
0
100
AcDbLine
10
196.677085
20
9.105362
30
0
11
195.998571
21
13.401686
31
0
39
0
210
0
220
0
230
1
0
LINE
5
95
100
AcDbEntity
8
1
62
256
6
ByLayer
370
13
48
1
60
0
100
AcDbLine
10
194.996807
20
9.099275
30
0
11
194.392292
21
12.927046
31
0
39
0
210
0
220
0
230
1
0
LINE
5
96
100
AcDbEntity
8
1
62
256
6
ByLayer
370
13
48
1
60
0
100
AcDbLine
10
196.327511
20
5.000918
30
0
11
196.322899
21
5.000676
31
0
39
0
210
0
220
0
230
1
0
LINE
5
97
100
AcDbEntity
8
1
62
256
6
ByLayer
370
13
48
1
60
0
100
AcDbLine
10
195.011029
20
14.022917
30
0
11
194.998216
21
14.020233
31
0
39
0
210
0
220
0
230
1
0
LINE
5
98
100
AcDbEntity
8
1
62
256
6
ByLayer
370
13
48
1
60
0
100
AcDbLine
10
185.529298
20
3.322264
30
0
11
185.388533
21
3.316123
31
0
39
0
210
0
220
0
230
1
0
LINE
5
99
100
AcDbEntity
8
1
62
256
6
ByLayer
370
13
48
1
60
0
100
AcDbLine
10
183.472621
20
8.465403
30
0
11
183.503594
21
8.747465
31
0
39
0
210
0
220
0
230
1
0
LINE
5
9A
100
AcDbEntity
8
1
62
256
6
ByLayer
370
13
48
1
60
0
100
AcDbLine
10
196.845333
20
8.957586
30
0
11
196.84072
21
8.957344
31
0
39
0
210
0
220
0
230
1
0
LINE
5
9B
100
AcDbEntity
8
1
62
256
6
ByLayer
370
13
48
1
60
0
100
AcDbLine
10
195.241319
20
13.932311
30
0
11
195.236706
21
13.93207
31
0
39
0
210
0
220
0
230
1
0
LINE
5
9C
100
AcDbEntity
8
1
62
256
6
ByLayer
370
13
48
1
60
0
100
AcDbLine
10
185.614981
20
8.149171
30
0
11
186.219497
21
4.3214
31
0
39
0
210
0
220
0
230
1
0
LINE
5
9D
100
AcDbEntity
8
1
62
256
6
ByLayer
370
13
48
1
60
0
100
AcDbLine
10
196.201534
20
4.872174
30
0
11
196.196922
21
4.871933
31
0
39
0
210
0
220
0
230
1
0
LINE
5
9E
100
AcDbEntity
8
1
62
256
6
ByLayer
370
13
48
1
60
0
100
AcDbLine
10
194.664454
20
4.5407
30
0
11
195.924006
21
4.729469
31
0
39
0
210
0
220
0
230
1
0
LINE
5
9F
100
AcDbEntity
8
1
62
256
6
ByLayer
370
13
48
1
60
0
100
AcDbLine
10
185.450965
20
8.325885
30
0
11
185.979708
21
12.366006
31
0
39
0
210
0
220
0
230
1
0
LINE
5
A0
100
AcDbEntity
8
1
62
256
6
ByLayer
370
13
48
1
60
0
100
AcDbLine
10
185.573086
20
3.224079
30
0
11
185.533663
21
3.222359
31
0
39
0
210
0
220
0
230
1
0
LINE
5
A1
100
AcDbEntity
8
1
62
256
6
ByLayer
370
13
48
1
60
0
100
AcDbLine
10
194.998216
20
14.020233
30
0
11
194.999801
21
14.020316
31
0
39
0
210
0
220
0
230
1
0
LINE
5
A2
100
AcDbEntity
8
1
62
256
6
ByLayer
370
13
48
1
60
0
100
AcDbLine
10
186.058144
20
4.297243
30
0
11
185.453628
21
8.125014
31
0
39
0
210
0
220
0
230
1
0
LINE
5
A3
100
AcDbEntity
8
1
62
256
6
ByLayer
370
13
48
1
60
0
100
AcDbLine
10
184.419579
20
3.820911
30
0
11
183.741065
21
8.117234
31
0
39
0
210
0
220
0
230
1
0
LINE
5
A4
100
AcDbEntity
8
1
62
256
6
ByLayer
370
13
48
1
60
0
100
AcDbLine
10
195.195582
20
13.930872
30
0
11
195.19097
21
13.930631
31
0
39
0
210
0
220
0
230
1
0
LINE
5
A5
100
AcDbEntity
8
1
62
256
6
ByLayer
370
13
48
1
60
0
100
AcDbLine
10
193.988727
20
4.676557
30
0
11
187.028206
21
4.311772
31
0
39
0
210
0
220
0
230
1
0
LINE
5
A6
100
AcDbEntity
8
1
62
256
6
ByLayer
370
13
48
1
60
0
100
AcDbLine
10
195.054818
20
13.924732
30
0
11
195.195582
21
13.930872
31
0
39
0
210
0
220
0
230
1
0
LINE
5
A7
100
AcDbEntity
8
1
62
256
6
ByLayer
370
13
48
1
60
0
100
AcDbLine
10
195.585954
20
13.932234
30
0
11
195.581342
21
13.931992
31
0
39
0
210
0
220
0
230
1
0
LINE
5
A8
100
AcDbEntity
8
1
62
256
6
ByLayer
370
13
48
1
60
0
100
AcDbLine
10
185.995619
20
12.487583
30
0
11
185.991007
21
12.487342
31
0
39
0
210
0
220
0
230
1
0
LINE
5
A9
100
AcDbEntity
8
1
62
256
6
ByLayer
370
13
48
1
60
0
100
AcDbLine
10
186.063305
20
3.992547
30
0
11
186.058693
21
3.992305
31
0
39
0
210
0
220
0
230
1
0
LINE
5
AA
100
AcDbEntity
8
1
62
256
6
ByLayer
370
13
48
1
60
0
100
AcDbLine
10
194.491677
20
13.166904
30
0
11
194.523843
21
12.963233
31
0
39
0
210
0
220
0
230
1
0
LINE
5
AB
100
AcDbEntity
8
1
62
256
6
ByLayer
370
13
48
1
60
0
100
AcDbLine
10
194.690773
20
4.64643
30
0
11
194.697348
21
4.647192
31
0
39
0
210
0
220
0
230
1
0
LINE
5
AC
100
AcDbEntity
8
1
62
256
6
ByLayer
370
13
48
1
60
0
100
AcDbLine
10
184.656343
20
13.480251
30
0
11
184.669367
21
13.478921
31
0
39
0
210
0
220
0
230
1
0
LINE
5
AD
100
AcDbEntity
8
1
62
256
6
ByLayer
370
13
48
1
60
0
100
AcDbLine
10
196.160975
20
5.019563
30
0
11
196.678797
21
8.976231
31
0
39
0
210
0
220
0
230
1
0
LINE
5
AE
100
AcDbEntity
8
1
62
256
6
ByLayer
370
13
48
1
60
0
100
AcDbLine
10
195.924006
20
4.729469
30
0
11
196.212268
21
4.77267
31
0
39
0
210
0
220
0
230
1
0
LINE
5
AF
100
AcDbEntity
8
1
62
256
6
ByLayer
370
13
48
1
60
0
100
AcDbLine
10
185.363535
20
3.465013
30
0
11
185.5043
21
3.471154
31
0
39
0
210
0
220
0
230
1
0
LINE
5
B0
100
AcDbEntity
8
1
62
256
6
ByLayer
370
13
48
1
60
0
100
AcDbLine
10
183.640058
20
8.302484
30
0
11
184.156349
21
12.24746
31
0
39
0
210
0
220
0
230
1
0
LINE
5
B1
100
AcDbEntity
8
1
62
256
6
ByLayer
370
13
48
1
60
0
100
AcDbLine
10
183.369173
20
7.791153
30
0
11
184.176883
21
4.415406
31
0
39
0
210
0
220
0
230
1
0
LINE
5
B2
100
AcDbEntity
8
1
62
256
6
ByLayer
370
13
48
1
60
0
100
AcDbLine
10
185.820474
20
12.440447
30
0
11
184.386242
21
12.225499
31
0
39
0
210
0
220
0
230
1
0
LINE
5
B3
100
AcDbEntity
8
1
62
256
6
ByLayer
370
13
48
1
60
0
100
AcDbLine
10
196.845333
20
8.957586
30
0
11
196.327511
21
5.000918
31
0
39
0
210
0
220
0
230
1
0
LINE
5
B4
100
AcDbEntity
8
1
62
256
6
ByLayer
370
13
48
1
60
0
100
AcDbLine
10
183.493453
20
8.067902
30
0
11
184.291203
21
3.804447
31
0
39
0
210
0
220
0
230
1
0
LINE
5
B5
100
AcDbEntity
8
1
62
256
6
ByLayer
370
13
48
1
60
0
100
AcDbLine
10
196.196922
20
4.871933
30
0
11
194.697348
21
4.647192
31
0
39
0
210
0
220
0
230
1
0
LINE
5
B6
100
AcDbEntity
8
1
62
256
6
ByLayer
370
13
48
1
60
0
100
AcDbLine
10
185.450965
20
8.325885
30
0
11
185.446353
21
8.325643
31
0
39
0
210
0
220
0
230
1
0
LINE
5
B7
100
AcDbEntity
8
1
62
256
6
ByLayer
370
13
48
1
60
0
100
AcDbLine
10
183.472621
20
8.465403
30
0
11
183.47472
21
8.674116
31
0
39
0
210
0
220
0
230
1
0
LINE
5
B8
100
AcDbEntity
8
1
62
256
6
ByLayer
370
13
48
1
60
0
100
AcDbLine
10
194.470157
20
4.901327
30
0
11
194.9989
21
8.941448
31
0
39
0
210
0
220
0
230
1
0
LINE
5
B9
100
AcDbEntity
8
1
62
256
6
ByLayer
370
13
48
1
60
0
100
AcDbLine
10
183.642721
20
8.101613
30
0
11
184.321234
21
3.80529
31
0
39
0
210
0
220
0
230
1
0
LINE
5
BA
100
AcDbEntity
8
1
62
256
6
ByLayer
370
13
48
1
60
0
100
AcDbLine
10
186.092438
20
4.080091
30
0
11
186.087826
21
4.07985
31
0
39
0
210
0
220
0
230
1
0
LINE
5
BB
100
AcDbEntity
8
1
62
256
6
ByLayer
370
13
48
1
60
0
100
AcDbLine
10
195.248841
20
3.928489
30
0
11
195.342694
21
3.927826
31
0
39
0
210
0
220
0
230
1
0
LINE
5
BC
100
AcDbEntity
8
1
62
256
6
ByLayer
370
13
48
1
60
0
100
AcDbLine
10
196.435394
20
5.057828
30
0
11
196.385566
21
4.438286
31
0
39
0
210
0
220
0
230
1
0
LINE
5
BD
100
AcDbEntity
8
1
62
256
6
ByLayer
370
13
48
1
60
0
100
AcDbLine
10
183.870133
20
8.139699
30
0
11
184.548646
21
3.843376
31
0
39
0
210
0
220
0
230
1
0
LINE
5
BE
100
AcDbEntity
8
1
62
256
6
ByLayer
370
13
48
1
60
0
100
AcDbLine
10
186.595388
20
12.570438
30
0
11
193.555909
21
12.935224
31
0
39
0
210
0
220
0
230
1
0
LINE
5
BF
100
AcDbEntity
8
1
62
256
6
ByLayer
370
13
48
1
60
0
100
AcDbLine
10
183.738782
20
8.289409
30
0
11
184.256604
21
12.246077
31
0
39
0
210
0
220
0
230
1
0
LINE
5
C0
100
AcDbEntity
8
1
62
256
6
ByLayer
370
13
48
1
60
0
100
AcDbLine
10
185.284429
20
8.34453
30
0
11
185.820474
21
12.440447
31
0
39
0
210
0
220
0
230
1
0
LINE
5
C1
100
AcDbEntity
8
1
62
256
6
ByLayer
370
13
48
1
60
0
100
AcDbLine
10
184.298748
20
13.076169
30
0
11
184.106813
21
13.047404
31
0
39
0
210
0
220
0
230
1
0
LINE
5
C2
100
AcDbEntity
8
1
62
256
6
ByLayer
370
13
48
1
60
0
100
AcDbLine
10
194.624763
20
13.163922
30
0
11
195.259555
21
9.144446
31
0
39
0
210
0
220
0
230
1
0
LINE
5
C3
100
AcDbEntity
8
1
62
256
6
ByLayer
370
13
48
1
60
0
100
AcDbLine
10
196.944057
20
8.944512
30
0
11
196.427766
21
4.999535
31
0
39
0
210
0
220
0
230
1
0
LINE
5
C4
100
AcDbEntity
8
1
62
256
6
ByLayer
370
13
48
1
60
0
100
AcDbLine
10
196.284527
20
4.674975
30
0
11
196.232342
21
4.199739
31
0
39
0
210
0
220
0
230
1
0
LINE
5
C5
100
AcDbEntity
8
1
62
256
6
ByLayer
370
13
48
1
60
0
100
AcDbLine
10
185.706556
20
3.450499
30
0
11
185.701943
21
3.450257
31
0
39
0
210
0
220
0
230
1
0
LINE
5
C6
100
AcDbEntity
8
1
62
256
6
ByLayer
370
13
48
1
60
0
100
AcDbLine
10
184.656343
20
13.480251
30
0
11
184.616957
21
13.47784
31
0
39
0
210
0
220
0
230
1
0
LINE
5
C7
100
AcDbEntity
8
1
62
256
6
ByLayer
370
13
48
1
60
0
100
AcDbLine
10
185.979708
20
12.366006
30
0
11
185.995619
21
12.487583
31
0
39
0
210
0
220
0
230
1
0
LINE
5
C8
100
AcDbEntity
8
1
62
256
6
ByLayer
370
13
48
1
60
0
100
AcDbLine
10
185.922454
20
4.08114
30
0
11
185.287663
21
8.100616
31
0
39
0
210
0
220
0
230
1
0
LINE
5
C9
100
AcDbEntity
8
1
62
256
6
ByLayer
370
13
48
1
60
0
100
AcDbLine
10
184.386242
20
12.225499
30
0
11
183.868421
21
8.26883
31
0
39
0
210
0
220
0
230
1
0
LINE
5
CA
100
AcDbEntity
8
1
62
256
6
ByLayer
370
13
48
1
60
0
100
AcDbLine
10
195.011029
20
14.022917
30
0
11
195.050452
21
14.024636
31
0
39
0
210
0
220
0
230
1
0
LINE
5
CB
100
AcDbEntity
8
1
62
256
6
ByLayer
370
13
48
1
60
0
100
AcDbLine
10
185.919661
20
12.706296
30
0
11
184.371847
21
12.474325
31
0
39
0
210
0
220
0
230
1
0
LINE
5
CC
100
AcDbEntity
8
1
62
256
6
ByLayer
370
13
48
1
60
0
100
AcDbLine
10
194.6489
20
13.825174
30
0
11
194.784565
21
13.832284
31
0
39
0
210
0
220
0
230
1
0
LINE
5
CD
100
AcDbEntity
8
1
62
256
6
ByLayer
370
13
48
1
60
0
100
AcDbLine
10
195.262788
20
8.900532
30
0
11
194.726743
21
4.804615
31
0
39
0
210
0
220
0
230
1
0
LINE
5
CE
100
AcDbEntity
8
1
62
256
6
ByLayer
370
13
48
1
60
0
100
AcDbLine
10
195.050817
20
13.924517
30
0
11
195.19097
21
13.930631
31
0
39
0
210
0
220
0
230
1
0
LINE
5
CF
100
AcDbEntity
8
1
62
256
6
ByLayer
370
13
48
1
60
0
100
AcDbLine
10
184.156349
20
12.24746
30
0
11
184.117642
21
12.566146
31
0
39
0
210
0
220
0
230
1
0
LINE
5
D0
100
AcDbEntity
8
1
62
256
6
ByLayer
370
13
48
1
60
0
100
AcDbLine
10
195.183682
20
13.780049
30
0
11
195.042917
21
13.773908
31
0
39
0
210
0
220
0
230
1
0
LINE
5
D1
100
AcDbEntity
8
1
62
256
6
ByLayer
370
13
48
1
60
0
100
AcDbLine
10
183.472621
20
8.465403
30
0
11
183.471077
21
8.435687
31
0
39
0
210
0
220
0
230
1
0
LINE
5
D2
100
AcDbEntity
8
1
62
256
6
ByLayer
370
13
48
1
60
0
100
AcDbLine
10
185.074027
20
13.294126
30
0
11
184.772218
21
13.294579
31
0
39
0
210
0
220
0
230
1
0
LINE
5
D3
100
AcDbEntity
8
1
62
256
6
ByLayer
370
13
48
1
60
0
100
AcDbLine
10
196.164536
20
13.426084
30
0
11
196.159924
21
13.425842
31
0
39
0
210
0
220
0
230
1
0
LINE
5
D4
100
AcDbEntity
8
1
62
256
6
ByLayer
370
13
48
1
60
0
100
AcDbLine
10
186.141632
20
12.347119
30
0
11
185.612888
21
8.306998
31
0
39
0
210
0
220
0
230
1
0
LINE
5
D5
100
AcDbEntity
8
1
62
256
6
ByLayer
370
13
48
1
60
0
100
AcDbLine
10
186.092438
20
4.080091
30
0
11
186.058144
21
4.297243
31
0
39
0
210
0
220
0
230
1
0
LINE
5
D6
100
AcDbEntity
8
1
62
256
6
ByLayer
370
13
48
1
60
0
100
AcDbLine
10
195.054818
20
13.924732
30
0
11
195.050205
21
13.92449
31
0
39
0
210
0
220
0
230
1
0
LINE
5
D7
100
AcDbEntity
8
1
62
256
6
ByLayer
370
13
48
1
60
0
100
AcDbLine
10
196.84305
20
9.129761
30
0
11
196.838438
21
9.129519
31
0
39
0
210
0
220
0
230
1
0
LINE
5
D8
100
AcDbEntity
8
1
62
256
6
ByLayer
370
13
48
1
60
0
100
AcDbLine
10
196.84072
20
8.957344
30
0
11
196.322899
21
5.000676
31
0
39
0
210
0
220
0
230
1
0
LINE
5
D9
100
AcDbEntity
8
1
62
256
6
ByLayer
370
13
48
1
60
0
100
AcDbLine
10
194.70196
20
4.647434
30
0
11
194.697348
21
4.647192
31
0
39
0
210
0
220
0
230
1
0
LINE
5
DA
100
AcDbEntity
8
1
62
256
6
ByLayer
370
13
48
1
60
0
100
AcDbLine
10
194.602668
20
4.867705
30
0
11
194.588496
21
4.759412
31
0
39
0
210
0
220
0
230
1
0
LINE
5
DB
100
AcDbEntity
8
1
62
256
6
ByLayer
370
13
48
1
60
0
100
AcDbLine
10
183.493453
20
8.067902
30
0
11
183.488811
21
8.097293
31
0
39
0
210
0
220
0
230
1
0
LINE
5
DC
100
AcDbEntity
8
1
62
256
6
ByLayer
370
13
48
1
60
0
100
AcDbLine
10
184.298748
20
13.076169
30
0
11
184.371847
21
12.474325
31
0
39
0
210
0
220
0
230
1
0
LINE
5
DD
100
AcDbEntity
8
1
62
256
6
ByLayer
370
13
48
1
60
0
100
AcDbLine
10
183.57124
20
8.937041
30
0
11
183.486284
21
8.287895
31
0
39
0
210
0
220
0
230
1
0
LINE
5
DE
100
AcDbEntity
8
1
62
256
6
ByLayer
370
13
48
1
60
0
100
AcDbLine
10
185.449016
20
8.124772
30
0
11
186.087826
21
4.07985
31
0
39
0
210
0
220
0
230
1
0
LINE
5
DF
100
AcDbEntity
8
1
62
256
6
ByLayer
370
13
48
1
60
0
100
AcDbLine
10
194.726743
20
4.804615
30
0
11
196.160975
21
5.019563
31
0
39
0
210
0
220
0
230
1
0
LINE
5
E0
100
AcDbEntity
8
1
62
256
6
ByLayer
370
13
48
1
60
0
100
AcDbLine
10
194.999801
20
14.020316
30
0
11
195.011029
21
14.022917
31
0
39
0
210
0
220
0
230
1
0
LINE
5
E1
100
AcDbEntity
8
1
62
256
6
ByLayer
370
13
48
1
60
0
100
AcDbLine
10
196.251818
20
4.086014
30
0
11
196.232342
21
4.199739
31
0
39
0
210
0
220
0
230
1
0
LINE
5
E2
100
AcDbEntity
8
1
62
256
6
ByLayer
370
13
48
1
60
0
100
AcDbLine
10
185.991007
20
12.487342
30
0
11
185.446353
21
8.325643
31
0
39
0
210
0
220
0
230
1
0
LINE
5
E3
100
AcDbEntity
8
1
62
256
6
ByLayer
370
13
48
1
60
0
100
AcDbLine
10
196.164536
20
13.426084
30
0
11
196.84305
21
9.129761
31
0
39
0
210
0
220
0
230
1
0
LINE
5
E4
100
AcDbEntity
8
1
62
256
6
ByLayer
370
13
48
1
60
0
100
AcDbLine
10
185.453628
20
8.125014
30
0
11
185.449016
21
8.124772
31
0
39
0
210
0
220
0
230
1
0
LINE
5
E5
100
AcDbEntity
8
1
62
256
6
ByLayer
370
13
48
1
60
0
100
AcDbLine
10
196.159924
20
13.425842
30
0
11
196.838438
21
9.129519
31
0
39
0
210
0
220
0
230
1
0
LINE
5
E6
100
AcDbEntity
8
1
62
256
6
ByLayer
370
13
48
1
60
0
100
AcDbLine
10
184.382581
20
12.374821
30
0
11
185.882155
21
12.599562
31
0
39
0
210
0
220
0
230
1
0
LINE
5
E7
100
AcDbEntity
8
SK1
62
256
6
ByLayer
370
13
48
1
60
0
100
AcDbLine
10
-2
20
-15.996
30
0
11
-2
21
15.996
31
0
39
0
210
0
220
0
230
1
0
LINE
5
E8
100
AcDbEntity
8
SK1
62
256
6
ByLayer
370
13
48
1
60
0
100
AcDbLine
10
-6.5
20
-8.082178
30
0
11
-6.5
21
8.082178
31
0
39
0
210
0
220
0
230
1
0
LINE
5
E9
100
AcDbEntity
8
SK1
62
256
6
ByLayer
370
13
48
1
60
0
100
AcDbLine
10
-1.544243
20
-15.783477
30
0
11
-1.544243
21
15.783477
31
0
39
0
210
0
220
0
230
1
0
LINE
5
EA
100
AcDbEntity
8
1
62
256
6
ByLayer
370
18
48
1
60
0
100
AcDbLine
10
195.862429
20
-8.700441
30
0
11
195.732992
21
-8.737273
31
0
39
0
210
0
220
0
230
1
0
LINE
5
EB
100
AcDbEntity
8
1
62
256
6
ByLayer
370
18
48
1
60
0
100
AcDbLine
10
195.948973
20
0.19966
30
0
11
195.986089
21
0.071211
31
0
39
0
210
0
220
0
230
1
0
LINE
5
EC
100
AcDbEntity
8
1
62
256
6
ByLayer
370
18
48
1
60
0
100
AcDbLine
10
195.804879
20
-9.392168
30
0
11
196.162741
21
-9.290337
31
0
39
0
210
0
220
0
230
1
0
LINE
5
ED
100
AcDbEntity
8
1
62
256
6
ByLayer
370
18
48
1
60
0
100
AcDbLine
10
196.310354
20
-0.190558
30
0
11
196.207738
21
0.16457
31
0
39
0
210
0
220
0
230
1
0
LINE
5
EE
100
AcDbEntity
8
1
62
256
6
ByLayer
370
18
48
1
60
0
100
AcDbLine
10
196.004587
20
-0.011594
30
0
11
196.656467
21
-4.095954
31
0
39
0
210
0
220
0
230
1
0
LINE
5
EF
100
AcDbEntity
8
1
62
256
6
ByLayer
370
18
48
1
60
0
100
AcDbLine
10
196.659096
20
-4.295292
30
0
11
196.112962
21
-8.411905
31
0
39
0
210
0
220
0
230
1
0
LINE
5
F0
100
AcDbEntity
8
1
62
256
6
ByLayer
370
18
48
1
60
0
100
AcDbLine
10
195.609084
20
0.454697
30
0
11
195.658216
21
0.448278
31
0
39
0
210
0
220
0
230
1
0
LINE
5
F1
100
AcDbEntity
8
1
62
256
6
ByLayer
370
18
48
1
60
0
100
AcDbLine
10
189.827723
20
9.701113
30
0
11
189.816604
21
9.717713
31
0
39
0
210
0
220
0
230
1
0
LINE
5
F2
100
AcDbEntity
8
1
62
256
6
ByLayer
370
18
48
1
60
0
100
AcDbLine
10
191.133489
20
7.847368
30
0
11
191.029812
21
7.841934
31
0
39
0
210
0
220
0
230
1
0
LINE
5
F3
100
AcDbEntity
8
1
62
256
6
ByLayer
370
18
48
1
60
0
100
AcDbLine
10
190.045561
20
7.50863
30
0
11
189.942908
21
7.50325
31
0
39
0
210
0
220
0
230
1
0
LINE
5
F4
100
AcDbEntity
8
1
62
256
6
ByLayer
370
18
48
1
60
0
100
AcDbLine
10
190.037262
20
7.491012
30
0
11
189.933585
21
7.485578
31
0
39
0
210
0
220
0
230
1
0
LINE
5
F5
100
AcDbEntity
8
1
62
256
6
ByLayer
370
18
48
1
60
0
100
AcDbLine
10
191.270199
20
8.973665
30
0
11
191.250295
21
8.972945
31
0
39
0
210
0
220
0
230
1
0
LINE
5
F6
100
AcDbEntity
8
1
62
256
6
ByLayer
370
18
48
1
60
0
100
AcDbLine
10
191.384226
20
8.381508
30
0
11
191.281573
21
8.376128
31
0
39
0
210
0
220
0
230
1
0
LINE
5
F7
100
AcDbEntity
8
1
62
256
6
ByLayer
370
18
48
1
60
0
100
AcDbLine
10
189.150178
20
8.862559
30
0
11
189.10995
21
8.860451
31
0
39
0
210
0
220
0
230
1
0
LINE
5
F8
100
AcDbEntity
8
1
62
256
6
ByLayer
370
18
48
1
60
0
100
AcDbLine
10
191.047752
20
9.483329
30
0
11
190.944075
21
9.477896
31
0
39
0
210
0
220
0
230
1
0
LINE
5
F9
100
AcDbEntity
8
1
62
256
6
ByLayer
370
18
48
1
60
0
100
AcDbLine
10
189.92028
20
9.723146
30
0
11
189.816604
21
9.717713
31
0
39
0
210
0
220
0
230
1
0
LINE
5
FA
100
AcDbEntity
8
1
62
256
6
ByLayer
370
18
48
1
60
0
100
AcDbLine
10
191.029812
20
7.841934
30
0
11
191.019231
21
7.858885
31
0
39
0
210
0
220
0
230
1
0
LINE
5
FB
100
AcDbEntity
8
1
62
256
6
ByLayer
370
18
48
1
60
0
100
AcDbLine
10
190.935324
20
9.459932
30
0
11
190.944075
21
9.477896
31
0
39
0
210
0
220
0
230
1
0
LINE
5
FC
100
AcDbEntity
8
1
62
256
6
ByLayer
370
18
48
1
60
0
100
AcDbLine
10
189.933585
20
7.485578
30
0
11
189.942908
21
7.50325
31
0
39
0
210
0
220
0
230
1
0
LINE
5
FD
100
AcDbEntity
8
1
62
256
6
ByLayer
370
18
48
1
60
0
100
AcDbLine
10
191.373876
20
8.979098
30
0
11
191.270199
21
8.973665
31
0
39
0
210
0
220
0
230
1
0
LINE
5
FE
100
AcDbEntity
8
1
62
256
6
ByLayer
370
18
48
1
60
0
100
AcDbLine
10
191.121884
20
7.864265
30
0
11
191.019231
21
7.858885
31
0
39
0
210
0
220
0
230
1
0
LINE
5
FF
100
AcDbEntity
8
1
62
256
6
ByLayer
370
18
48
1
60
0
100
AcDbLine
10
191.281573
20
8.376128
30
0
11
191.301443
21
8.377492
31
0
39
0
210
0
220
0
230
1
0
LINE
5
100
100
AcDbEntity
8
1
62
256
6
ByLayer
370
18
48
1
60
0
100
AcDbLine
10
191.037977
20
9.465311
30
0
11
190.935324
21
9.459932
31
0
39
0
210
0
220
0
230
1
0
LINE
5
101
100
AcDbEntity
8
1
62
256
6
ByLayer
370
18
48
1
60
0
100
AcDbLine
10
189.930376
20
9.706492
30
0
11
189.827723
21
9.701113
31
0
39
0
210
0
220
0
230
1
0
LINE
5
102
100
AcDbEntity
8
1
62
256
6
ByLayer
370
18
48
1
60
0
100
AcDbLine
10
191.352948
20
8.978324
30
0
11
191.250295
21
8.972945
31
0
39
0
210
0
220
0
230
1
0
LINE
5
103
100
AcDbEntity
8
1
62
256
6
ByLayer
370
18
48
1
60
0
100
AcDbLine
10
189.181422
20
8.266387
30
0
11
189.139125
21
8.26417
31
0
39
0
210
0
220
0
230
1
0
LINE
5
104
100
AcDbEntity
8
SK1
62
256
6
ByLayer
370
13
48
1
60
0
100
AcDbLine
10
-58.516222
20
15.892544
30
0
11
-58.516222
21
7.875438
31
0
39
0
210
0
220
0
230
1
0
LINE
5
105
100
AcDbEntity
8
SK1
62
256
6
ByLayer
370
13
48
1
60
0
100
AcDbLine
10
-58.516222
20
-7.875438
30
0
11
-58.516222
21
-15.892544
31
0
39
0
210
0
220
0
230
1
0
LINE
5
106
100
AcDbEntity
8
SK1
62
256
6
ByLayer
370
13
48
1
60
0
100
AcDbLine
10
-60
20
-14.996
30
0
11
-60
21
-5.859147
31
0
39
0
210
0
220
0
230
1
0
LINE
5
107
100
AcDbEntity
8
SK1
62
256
6
ByLayer
370
13
48
1
60
0
100
AcDbLine
10
-60
20
5.859147
30
0
11
-60
21
14.996
31
0
39
0
210
0
220
0
230
1
0
LINE
5
108
100
AcDbEntity
8
SK1
62
256
6
ByLayer
370
13
48
1
60
0
100
AcDbLine
10
-58.599999
20
-8.082178
30
0
11
-59
21
-8.082178
31
0
39
0
210
0
220
0
230
1
0
LINE
5
109
100
AcDbEntity
8
1
62
256
6
ByLayer
370
13
48
1
60
0
100
AcDbLine
10
25
20
13.65
30
0
11
25
21
-4.749609
31
0
39
0
210
0
220
0
230
1
0
LINE
5
10A
100
AcDbEntity
8
1
62
256
6
ByLayer
370
13
48
1
60
0
100
AcDbLine
10
196.016112
20
3.881573
30
0
11
195.74451
21
3.867339
31
0
39
0
210
0
220
0
230
1
0
LINE
5
10B
100
AcDbEntity
8
1
62
256
6
ByLayer
370
13
48
1
60
0
100
AcDbLine
10
183.653574
20
5.980341
30
0
11
183.379647
21
7.714841
31
0
39
0
210
0
220
0
230
1
0
LINE
5
10C
100
AcDbEntity
8
1
62
256
6
ByLayer
370
13
48
1
60
0
100
AcDbLine
10
189.522165
20
3.441102
30
0
11
195.116559
21
3.734292
31
0
39
0
210
0
220
0
230
1
0
LINE
5
10D
100
AcDbEntity
8
1
62
256
6
ByLayer
370
13
48
1
60
0
100
AcDbLine
10
184.130051
20
12.216328
30
0
11
183.740526
21
9.239972
31
0
39
0
210
0
220
0
230
1
0
LINE
5
10E
100
AcDbEntity
8
1
62
256
6
ByLayer
370
13
48
1
60
0
100
AcDbLine
10
183.62978
20
6.70198
30
0
11
183.73481
21
6.036934
31
0
39
0
210
0
220
0
230
1
0
LINE
5
10F
100
AcDbEntity
8
1
62
256
6
ByLayer
370
13
48
1
60
0
100
AcDbLine
10
195.456982
20
-13.551797
30
0
11
195.97832
21
-9.622091
31
0
39
0
210
0
220
0
230
1
0
LINE
5
110
100
AcDbEntity
8
1
62
256
6
ByLayer
370
13
48
1
60
0
100
AcDbLine
10
195.182947
20
-2.399857
30
0
11
196.201226
21
-3.586357
31
0
39
0
210
0
220
0
230
1
0
LINE
5
111
100
AcDbEntity
8
1
62
256
6
ByLayer
370
13
48
1
60
0
100
AcDbLine
10
192.475091
20
4.555507
30
0
11
192.333357
21
4.548079
31
0
39
0
210
0
220
0
230
1
0
LINE
5
112
100
AcDbEntity
8
1
62
256
6
ByLayer
370
13
48
1
60
0
100
AcDbLine
10
196.155785
20
0.476553
30
0
11
195.984226
21
0.394085
31
0
39
0
210
0
220
0
230
1
0
LINE
5
113
100
AcDbEntity
8
1
62
256
6
ByLayer
370
13
48
1
60
0
100
AcDbLine
10
187.012315
20
4.029303
30
0
11
186.819369
21
4.019191
31
0
39
0
210
0
220
0
230
1
0
LINE
5
114
100
AcDbEntity
8
1
62
256
6
ByLayer
370
13
48
1
60
0
100
AcDbLine
10
196.150597
20
3.202659
30
0
11
196.155785
21
0.476553
31
0
39
0
210
0
220
0
230
1
0
LINE
5
115
100
AcDbEntity
8
1
62
256
6
ByLayer
370
13
48
1
60
0
100
AcDbLine
10
196.216172
20
-4.719318
30
0
11
195.681855
21
-8.746854
31
0
39
0
210
0
220
0
230
1
0
LINE
5
116
100
AcDbEntity
8
1
62
256
6
ByLayer
370
13
48
1
60
0
100
AcDbLine
10
0.1
20
-19.75
30
0
11
0.1
21
-4.41588
31
0
39
0
210
0
220
0
230
1
0
LINE
5
117
100
AcDbEntity
8
1
62
256
6
ByLayer
370
13
48
1
60
0
100
AcDbLine
10
184.12475
20
13.19994
30
0
11
184.109062
21
13.499285
31
0
39
0
210
0
220
0
230
1
0
LINE
5
118
100
AcDbEntity
8
1
62
256
6
ByLayer
370
13
48
1
60
0
100
AcDbLine
10
181.688476
20
4.490614
30
0
11
182.929188
21
4.109419
31
0
39
0
210
0
220
0
230
1
0
LINE
5
119
100
AcDbEntity
8
1
62
256
6
ByLayer
370
13
48
1
60
0
100
AcDbLine
10
180.365514
20
6.313173
30
0
11
181.844668
21
7.144585
31
0
39
0
210
0
220
0
230
1
0
LINE
5
11A
100
AcDbEntity
8
1
62
256
6
ByLayer
370
13
48
1
60
0
100
AcDbLine
10
5.1315
20
-4.41588
30
0
11
5.1315
21
-19.75
31
0
39
0
210
0
220
0
230
1
0
LINE
5
11B
100
AcDbEntity
8
1
62
256
6
ByLayer
370
13
48
1
60
0
100
AcDbLine
10
178.031156
20
1.359251
30
0
11
178.128227
21
0.871245
31
0
39
0
210
0
220
0
230
1
0
LINE
5
11C
100
AcDbEntity
8
1
62
256
6
ByLayer
370
13
48
1
60
0
100
AcDbLine
10
194.218784
20
4.48834
30
0
11
188.9001
21
4.209599
31
0
39
0
210
0
220
0
230
1
0
LINE
5
11D
100
AcDbEntity
8
1
62
256
6
ByLayer
370
13
48
1
60
0
100
AcDbLine
10
187.047898
20
4.112529
30
0
11
187.057125
21
4.113013
31
0
39
0
210
0
220
0
230
1
0
LINE
5
11E
100
AcDbEntity
8
1
62
256
6
ByLayer
370
13
48
1
60
0
100
AcDbLine
10
195.456982
20
-13.551797
30
0
11
182.248386
21
-13.551797
31
0
39
0
210
0
220
0
230
1
0
LINE
5
11F
100
AcDbEntity
8
1
62
256
6
ByLayer
370
13
48
1
60
0
100
AcDbLine
10
196.119397
20
3.08354
30
0
11
196.083633
21
3.081666
31
0
39
0
210
0
220
0
230
1
0
LINE
5
120
100
AcDbEntity
8
1
62
256
6
ByLayer
370
13
48
1
60
0
100
AcDbLine
10
5.1315
20
19.75
30
0
11
5.1315
21
4.41588
31
0
39
0
210
0
220
0
230
1
0
LINE
5
121
100
AcDbEntity
8
1
62
256
6
ByLayer
370
13
48
1
60
0
100
AcDbLine
10
195.96021
20
0.559866
30
0
11
196.006254
21
0.499867
31
0
39
0
210
0
220
0
230
1
0
LINE
5
122
100
AcDbEntity
8
1
62
256
6
ByLayer
370
13
48
1
60
0
100
AcDbLine
10
192.668118
20
4.607347
30
0
11
193.762182
21
4.664685
31
0
39
0
210
0
220
0
230
1
0
LINE
5
123
100
AcDbEntity
8
1
62
256
6
ByLayer
370
13
48
1
60
0
100
AcDbLine
10
195.97832
20
-9.622091
30
0
11
195.667396
21
-9.313179
31
0
39
0
210
0
220
0
230
1
0
LINE
5
124
100
AcDbEntity
8
1
62
256
6
ByLayer
370
13
48
1
60
0
100
AcDbLine
10
196.150597
20
3.202659
30
0
11
196.119397
21
3.08354
31
0
39
0
210
0
220
0
230
1
0
LINE
5
125
100
AcDbEntity
8
1
62
256
6
ByLayer
370
13
48
1
60
0
100
AcDbLine
10
30
20
-13.61038
30
0
11
30
21
-13.65
31
0
39
0
210
0
220
0
230
1
0
LINE
5
126
100
AcDbEntity
8
1
62
256
6
ByLayer
370
13
48
1
60
0
100
AcDbLine
10
195.656696
20
-0.174595
30
0
11
194.755672
21
0.875279
31
0
39
0
210
0
220
0
230
1
0
LINE
5
127
100
AcDbEntity
8
1
62
256
6
ByLayer
370
13
48
1
60
0
100
AcDbLine
10
187.254424
20
3.117123
30
0
11
187.683376
21
3.139604
31
0
39
0
210
0
220
0
230
1
0
LINE
5
128
100
AcDbEntity
8
1
62
256
6
ByLayer
370
13
48
1
60
0
100
AcDbLine
10
179.248386
20
-13.412865
30
0
11
175.964952
21
-13.412865
31
0
39
0
210
0
220
0
230
1
0
LINE
5
129
100
AcDbEntity
8
1
62
256
6
ByLayer
370
13
48
1
60
0
100
AcDbLine
10
182.248386
20
13.65
30
0
11
182.248386
21
13.472307
31
0
39
0
210
0
220
0
230
1
0
LINE
5
12A
100
AcDbEntity
8
1
62
256
6
ByLayer
370
13
48
1
60
0
100
AcDbLine
10
0
20
-3.944617
30
0
11
0
21
3.944617
31
0
39
0
210
0
220
0
230
1
0
LINE
5
12B
100
AcDbEntity
8
1
62
256
6
ByLayer
370
13
48
1
60
0
100
AcDbLine
10
0
20
19.65
30
0
11
0
21
3.944617
31
0
39
0
210
0
220
0
230
1
0
LINE
5
12C
100
AcDbEntity
8
1
62
256
6
ByLayer
370
13
48
1
60
0
100
AcDbLine
10
195.116559
20
3.734292
30
0
11
195.671751
21
3.763388
31
0
39
0
210
0
220
0
230
1
0
LINE
5
12D
100
AcDbEntity
8
1
62
256
6
ByLayer
370
13
48
1
60
0
100
AcDbLine
10
0
20
-19.65
30
0
11
0
21
-3.944617
31
0
39
0
210
0
220
0
230
1
0
LINE
5
12E
100
AcDbEntity
8
1
62
256
6
ByLayer
370
13
48
1
60
0
100
AcDbLine
10
25.01
20
-7.798452
30
0
11
25.01
21
-13.049197
31
0
39
0
210
0
220
0
230
1
0
LINE
5
12F
100
AcDbEntity
8
1
62
256
6
ByLayer
370
13
48
1
60
0
100
AcDbLine
10
0.1
20
4.41588
30
0
11
5.1315
21
4.41588
31
0
39
0
210
0
220
0
230
1
0
LINE
5
130
100
AcDbEntity
8
1
62
256
6
ByLayer
370
13
48
1
60
0
100
AcDbLine
10
0.1
20
19.75
30
0
11
0.1
21
4.41588
31
0
39
0
210
0
220
0
230
1
0
LINE
5
131
100
AcDbEntity
8
1
62
256
6
ByLayer
370
13
48
1
60
0
100
AcDbLine
10
183.557408
20
8.86488
30
0
11
184.12475
21
13.19994
31
0
39
0
210
0
220
0
230
1
0
LINE
5
132
100
AcDbEntity
8
1
62
256
6
ByLayer
370
13
48
1
60
0
100
AcDbLine
10
182.248386
20
-13.551797
30
0
11
182.248386
21
-0.148359
31
0
39
0
210
0
220
0
230
1
0
LINE
5
133
100
AcDbEntity
8
1
62
256
6
ByLayer
370
13
48
1
60
0
100
AcDbLine
10
5.1315
20
-4.41588
30
0
11
0.1
21
-4.41588
31
0
39
0
210
0
220
0
230
1
0
LINE
5
134
100
AcDbEntity
8
1
62
256
6
ByLayer
370
13
48
1
60
0
100
AcDbLine
10
93.8
20
13.51
30
0
11
93.8
21
-4.750836
31
0
39
0
210
0
220
0
230
1
0
LINE
5
135
100
AcDbEntity
8
1
62
256
6
ByLayer
370
13
48
1
60
0
100
AcDbLine
10
179.248386
20
13.51
30
0
11
179.248386
21
13.281513
31
0
39
0
210
0
220
0
230
1
0
LINE
5
136
100
AcDbEntity
8
1
62
256
6
ByLayer
370
13
48
1
60
0
100
AcDbLine
10
187.398009
20
4.331152
30
0
11
188.492073
21
4.38849
31
0
39
0
210
0
220
0
230
1
0
LINE
5
137
100
AcDbEntity
8
1
62
256
6
ByLayer
370
13
48
1
60
0
100
AcDbLine
10
181.405694
20
0.818123
30
0
11
181.593281
21
-0.124942
31
0
39
0
210
0
220
0
230
1
0
LINE
5
138
100
AcDbEntity
8
1
62
256
6
ByLayer
370
13
48
1
60
0
100
AcDbLine
10
195.656696
20
-0.174595
30
0
11
196.201226
21
-3.586357
31
0
39
0
210
0
220
0
230
1
0
LINE
5
139
100
AcDbEntity
8
1
62
256
6
ByLayer
370
13
48
1
60
0
100
AcDbLine
10
194.755672
20
0.875279
30
0
11
194.79553
21
-0.228202
31
0
39
0
210
0
220
0
230
1
0
LINE
5
13A
100
AcDbEntity
8
1
62
256
6
ByLayer
370
13
48
1
60
0
100
AcDbLine
10
196.006254
20
0.499867
30
0
11
195.826623
21
0.523336
31
0
39
0
210
0
220
0
230
1
0
LINE
5
13B
100
AcDbEntity
8
1
62
256
6
ByLayer
370
13
48
1
60
0
100
AcDbLine
10
195.96021
20
0.559866
30
0
11
195.947548
21
0.56152
31
0
39
0
210
0
220
0
230
1
0
LINE
5
13C
100
AcDbEntity
8
1
62
256
6
ByLayer
370
13
48
1
60
0
100
AcDbLine
10
181.844668
20
7.144585
30
0
11
180.07702
21
9.918678
31
0
39
0
210
0
220
0
230
1
0
LINE
5
13D
100
AcDbEntity
8
1
62
256
6
ByLayer
370
13
48
1
60
0
100
AcDbLine
10
93.8
20
-13.467945
30
0
11
93.8
21
-13.51
31
0
39
0
210
0
220
0
230
1
0
LINE
5
13E
100
AcDbEntity
8
1
62
256
6
ByLayer
370
13
48
1
60
0
100
AcDbLine
10
189.032349
20
3.415432
30
0
11
189.522165
21
3.441102
31
0
39
0
210
0
220
0
230
1
0
LINE
5
13F
100
AcDbEntity
8
1
62
256
6
ByLayer
370
13
48
1
60
0
100
AcDbLine
10
196.044321
20
3.407443
30
0
11
196.150597
21
3.202659
31
0
39
0
210
0
220
0
230
1
0
LINE
5
140
100
AcDbEntity
8
1
62
256
6
ByLayer
370
13
48
1
60
0
100
AcDbLine
10
196.063914
20
0.596268
30
0
11
196.155785
21
0.476553
31
0
39
0
210
0
220
0
230
1
0
LINE
5
141
100
AcDbEntity
8
1
62
256
6
ByLayer
370
13
48
1
60
0
100
AcDbLine
10
25
20
-13.610455
30
0
11
25
21
-13.65
31
0
39
0
210
0
220
0
230
1
0
LINE
5
142
100
AcDbEntity
8
1
62
256
6
ByLayer
370
13
48
1
60
0
100
AcDbLine
10
180.07702
20
6.282028
30
0
11
180.07702
21
9.918678
31
0
39
0
210
0
220
0
230
1
0
LINE
5
143
100
AcDbEntity
8
1
62
256
6
ByLayer
370
13
48
1
60
0
100
AcDbLine
10
196.046016
20
3.378941
30
0
11
196.016112
21
3.881573
31
0
39
0
210
0
220
0
230
1
0
LINE
5
144
100
AcDbEntity
8
1
62
256
6
ByLayer
370
13
48
1
60
0
100
AcDbLine
10
194.782054
20
1.370813
30
0
11
195.608209
21
0.408177
31
0
39
0
210
0
220
0
230
1
0
LINE
5
145
100
AcDbEntity
8
1
62
256
6
ByLayer
370
13
48
1
60
0
100
AcDbLine
10
196.216172
20
-4.719318
30
0
11
195.240981
21
-3.583025
31
0
39
0
210
0
220
0
230
1
0
LINE
5
146
100
AcDbEntity
8
1
62
256
6
ByLayer
370
13
48
1
60
0
100
AcDbLine
10
196.063914
20
0.596268
30
0
11
196.038598
21
0.599575
31
0
39
0
210
0
220
0
230
1
0
LINE
5
147
100
AcDbEntity
8
1
62
256
6
ByLayer
370
13
48
1
60
0
100
AcDbLine
10
186.764145
20
3.906822
30
0
11
186.446104
21
3.890154
31
0
39
0
210
0
220
0
230
1
0
LINE
5
148
100
AcDbEntity
8
1
62
256
6
ByLayer
370
13
48
1
60
0
100
AcDbLine
10
195.116559
20
3.734292
30
0
11
194.782054
21
1.370813
31
0
39
0
210
0
220
0
230
1
0
LINE
5
149
100
AcDbEntity
8
1
62
256
6
ByLayer
370
13
48
1
60
0
100
AcDbLine
10
30
20
13.65
30
0
11
30
21
-4.749219
31
0
39
0
210
0
220
0
230
1
0
LINE
5
14A
100
AcDbEntity
8
1
62
256
6
ByLayer
370
13
48
1
60
0
100
AcDbLine
10
179.248386
20
-13.412865
30
0
11
179.248386
21
0.360415
31
0
39
0
210
0
220
0
230
1
0
LINE
5
14B
100
AcDbEntity
8
4
62
256
6
ByLayer
370
18
48
0.05
60
0
100
AcDbLine
10
197
20
0
30
0
11
0
21
0
31
0
39
0
210
0
220
0
230
1
0
LINE
5
14D
100
AcDbEntity
8
SK4
62
256
6
ByLayer
370
13
48
0.05
60
0
100
AcDbLine
10
197
20
0
30
0
11
-60
21
0
31
0
39
0
210
0
220
0
230
1
0
LINE
5
14F
100
AcDbEntity
8
SK1
62
256
6
ByLayer
370
13
48
1
60
0
100
AcDbLine
10
-60
20
-14.996
30
0
11
-59
21
-15.996
31
0
39
0
210
0
220
0
230
1
0
LINE
5
150
100
AcDbEntity
8
SK1
62
256
6
ByLayer
370
13
48
1
60
0
100
AcDbLine
10
-59
20
15.996
30
0
11
-60
21
14.996
31
0
39
0
210
0
220
0
230
1
0
LINE
5
151
100
AcDbEntity
8
SK1
62
256
6
ByLayer
370
13
48
1
60
0
100
AcDbLine
10
-57.633813
20
-15.639667
30
0
11
-56.600002
21
-15.996
31
0
39
0
210
0
220
0
230
1
0
LINE
5
152
100
AcDbEntity
8
SK1
62
256
6
ByLayer
370
13
48
1
60
0
100
AcDbLine
10
-56.600002
20
15.996
30
0
11
-57.633813
21
15.639667
31
0
39
0
210
0
220
0
230
1
0
LINE
5
153
100
AcDbEntity
8
SK1
62
256
6
ByLayer
370
13
48
1
60
0
100
AcDbLine
10
-58.599999
20
15.996
30
0
11
-59
21
15.996
31
0
39
0
210
0
220
0
230
1
0
LINE
5
154
100
AcDbEntity
8
SK1
62
256
6
ByLayer
370
13
48
1
60
0
100
AcDbLine
10
-59
20
-15.996
30
0
11
-58.599999
21
-15.996
31
0
39
0
210
0
220
0
230
1
0
LINE
5
155
100
AcDbEntity
8
SK1
62
256
6
ByLayer
370
13
48
1
60
0
100
AcDbLine
10
-58.516222
20
15.892544
30
0
11
-58.599999
21
15.996
31
0
39
0
210
0
220
0
230
1
0
LINE
5
156
100
AcDbEntity
8
SK1
62
256
6
ByLayer
370
13
48
1
60
0
100
AcDbLine
10
-58.599999
20
-15.996
30
0
11
-58.516222
21
-15.892544
31
0
39
0
210
0
220
0
230
1
0
LINE
5
157
100
AcDbEntity
8
SK1
62
256
6
ByLayer
370
13
48
1
60
0
100
AcDbLine
10
-0.15
20
15.746
30
0
11
-1.375195
21
15.746
31
0
39
0
210
0
220
0
230
1
0
LINE
5
158
100
AcDbEntity
8
SK1
62
256
6
ByLayer
370
13
48
1
60
0
100
AcDbLine
10
-1.375195
20
-15.746
30
0
11
-0.15
21
-15.746
31
0
39
0
210
0
220
0
230
1
0
LINE
5
159
100
AcDbEntity
8
SK1
62
256
6
ByLayer
370
13
48
1
60
0
100
AcDbLine
10
-1.544243
20
15.783477
30
0
11
-2
21
15.996
31
0
39
0
210
0
220
0
230
1
0
LINE
5
15A
100
AcDbEntity
8
SK1
62
256
6
ByLayer
370
13
48
1
60
0
100
AcDbLine
10
-2
20
-15.996
30
0
11
-1.544243
21
-15.783477
31
0
39
0
210
0
220
0
230
1
0
LINE
5
15B
100
AcDbEntity
8
SK1
62
256
6
ByLayer
370
13
48
1
60
0
100
AcDbLine
10
-2
20
15.996
30
0
11
-56.600002
21
15.996
31
0
39
0
210
0
220
0
230
1
0
LINE
5
15C
100
AcDbEntity
8
SK1
62
256
6
ByLayer
370
13
48
1
60
0
100
AcDbLine
10
-56.600002
20
-15.996
30
0
11
-2
21
-15.996
31
0
39
0
210
0
220
0
230
1
0
LINE
5
15D
100
AcDbEntity
8
1
62
256
6
ByLayer
370
13
48
1
60
0
100
AcDbLine
10
25
20
-13.65
30
0
11
30
21
-13.65
31
0
39
0
210
0
220
0
230
1
0
LINE
5
15E
100
AcDbEntity
8
1
62
256
6
ByLayer
370
13
48
1
60
0
100
AcDbLine
10
30
20
-13.65
30
0
11
93.8
21
-13.51
31
0
39
0
210
0
220
0
230
1
0
LINE
5
15F
100
AcDbEntity
8
1
62
256
6
ByLayer
370
13
48
1
60
0
100
AcDbLine
10
183.913255
20
13.65
30
0
11
182.248386
21
13.65
31
0
39
0
210
0
220
0
230
1
0
LINE
5
160
100
AcDbEntity
8
1
62
256
6
ByLayer
370
13
48
1
60
0
100
AcDbLine
10
182.248386
20
13.65
30
0
11
179.248386
21
13.51
31
0
39
0
210
0
220
0
230
1
0
LINE
5
161
100
AcDbEntity
8
1
62
256
6
ByLayer
370
13
48
1
60
0
100
AcDbLine
10
93.8
20
-13.51
30
0
11
131.472756
21
-13.51
31
0
39
0
210
0
220
0
230
1
0
LINE
5
162
100
AcDbEntity
8
1
62
256
6
ByLayer
370
13
48
1
60
0
100
AcDbLine
10
179.248386
20
13.51
30
0
11
172.415769
21
13.51
31
0
39
0
210
0
220
0
230
1
0
LINE
5
163
100
AcDbEntity
8
1
62
256
6
ByLayer
370
13
48
1
60
0
100
AcDbLine
10
122.835037
20
13.51
30
0
11
93.8
21
13.51
31
0
39
0
210
0
220
0
230
1
0
LINE
5
164
100
AcDbEntity
8
1
62
256
6
ByLayer
370
13
48
1
60
0
100
AcDbLine
10
93.8
20
13.51
30
0
11
30
21
13.65
31
0
39
0
210
0
220
0
230
1
0
LINE
5
165
100
AcDbEntity
8
1
62
256
6
ByLayer
370
13
48
1
60
0
100
AcDbLine
10
30
20
13.65
30
0
11
25
21
13.65
31
0
39
0
210
0
220
0
230
1
0
LINE
5
166
100
AcDbEntity
8
1
62
256
6
ByLayer
370
13
48
1
60
0
100
AcDbLine
10
0.1
20
19.75
30
0
11
0
21
19.65
31
0
39
0
210
0
220
0
230
1
0
LINE
5
167
100
AcDbEntity
8
1
62
256
6
ByLayer
370
13
48
1
60
0
100
AcDbLine
10
0.1
20
-19.75
30
0
11
5.1315
21
-19.75
31
0
39
0
210
0
220
0
230
1
0
LINE
5
168
100
AcDbEntity
8
1
62
256
6
ByLayer
370
13
48
1
60
0
100
AcDbLine
10
0
20
-19.65
30
0
11
0.1
21
-19.75
31
0
39
0
210
0
220
0
230
1
0
LINE
5
169
100
AcDbEntity
8
1
62
256
6
ByLayer
370
13
48
1
60
0
100
AcDbLine
10
5.1315
20
19.75
30
0
11
0.1
21
19.75
31
0
39
0
210
0
220
0
230
1
0
LINE
5
16A
100
AcDbEntity
8
1
62
256
6
ByLayer
370
13
48
1
60
0
100
AcDbLine
10
196.09707
20
4.292988
30
0
11
196.402171
21
4.914653
31
0
39
0
210
0
220
0
230
1
0
LINE
5
16B
100
AcDbEntity
8
1
62
256
6
ByLayer
370
13
48
1
60
0
100
AcDbLine
10
195.131134
20
9.121949
30
0
11
194.526619
21
12.94972
31
0
39
0
210
0
220
0
230
1
0
LINE
5
16C
100
AcDbEntity
8
1
62
256
6
ByLayer
370
13
48
1
60
0
100
AcDbLine
10
194.605052
20
4.881136
30
0
11
195.133795
21
8.921258
31
0
39
0
210
0
220
0
230
1
0
LINE
5
16D
100
AcDbEntity
8
1
62
256
6
ByLayer
370
18
48
1
60
0
100
AcDbLine
10
190.344458
20
6.423225
30
0
11
190.371207
21
6.424627
31
0
39
0
210
0
220
0
230
1
0
LINE
5
16E
100
AcDbEntity
8
1
62
256
6
ByLayer
370
18
48
1
60
0
100
AcDbLine
10
190.140929
20
10.818597
30
0
11
190.114179
21
10.817195
31
0
39
0
210
0
220
0
230
1
0
LINE
5
16F
100
AcDbEntity
8
1
62
256
6
ByLayer
370
18
48
1
60
0
100
AcDbLine
10
190.121929
20
9.610346
30
0
11
190.21693
21
9.615325
31
0
39
0
210
0
220
0
230
1
0
LINE
5
170
100
AcDbEntity
8
1
62
256
6
ByLayer
370
18
48
1
60
0
100
AcDbLine
10
190.321016
20
7.629251
30
0
11
190.226015
21
7.624272
31
0
39
0
210
0
220
0
230
1
0
LINE
5
171
100
AcDbEntity
8
81
62
256
6
ByLayer
370
18
48
1
60
0
100
AcDbLine
10
197
20
0
30
0
11
204
21
0
31
0
39
0
210
0
220
0
230
1
0
LINE
5
172
100
AcDbEntity
8
80
62
256
6
ByLayer
370
18
48
1
60
0
100
AcDbLine
10
0
20
0
30
0
11
-7
21
0
31
0
39
0
210
0
220
0
230
1
0
LINE
5
173
100
AcDbEntity
8
SK2
62
256
6
ByLayer
370
13
48
1
60
0
100
AcDbLine
10
-80.725
20
16
30
0
11
-80.725
21
-16
31
0
39
0
210
0
220
0
230
1
0
LINE
5
175
100
AcDbEntity
8
SK2
62
256
6
ByLayer
370
13
48
1
60
0
100
AcDbLine
10
-61.5875
20
-16
30
0
11
-83.9
21
-16
31
0
39
0
210
0
220
0
230
1
0
LINE
5
176
100
AcDbEntity
8
SK2
62
256
6
ByLayer
370
13
48
1
60
0
100
AcDbLine
10
-61.5875
20
16
30
0
11
-83.9
21
16
31
0
39
0
210
0
220
0
230
1
0
LINE
5
177
100
AcDbEntity
8
1
62
256
6
ByLayer
370
18
48
1
60
1
100
AcDbLine
10
-80.725
20
-16
30
0
11
-81.650575
21
-11.825003
31
0
39
0
210
0
220
0
230
1
0
LINE
5
178
100
AcDbEntity
8
1
62
256
6
ByLayer
370
18
48
1
60
1
100
AcDbLine
10
-81.650575
20
-11.825003
30
0
11
-79.799425
21
-11.824997
31
0
39
0
210
0
220
0
230
1
0
LINE
5
179
100
AcDbEntity
8
1
62
256
6
ByLayer
370
18
48
1
60
1
100
AcDbLine
10
-79.799425
20
-11.824997
30
0
11
-80.725
21
-16
31
0
39
0
210
0
220
0
230
1
0
LINE
5
17A
100
AcDbEntity
8
1
62
256
6
ByLayer
370
18
48
1
60
1
100
AcDbLine
10
-80.725
20
16
30
0
11
-79.799425
21
11.825003
31
0
39
0
210
0
220
0
230
1
0
LINE
5
17B
100
AcDbEntity
8
1
62
256
6
ByLayer
370
18
48
1
60
1
100
AcDbLine
10
-79.799425
20
11.825003
30
0
11
-81.650575
21
11.824997
31
0
39
0
210
0
220
0
230
1
0
LINE
5
17C
100
AcDbEntity
8
1
62
256
6
ByLayer
370
18
48
1
60
1
100
AcDbLine
10
-81.650575
20
11.824997
30
0
11
-80.725
21
16
31
0
39
0
210
0
220
0
230
1
0
LINE
5
17D
100
AcDbEntity
8
SK2
62
256
6
ByLayer
370
13
48
1
60
0
100
AcDbLine
10
-90.725
20
-19.75
30
0
11
-90.725
21
19.75
31
0
39
0
210
0
220
0
230
1
0
LINE
5
17E
100
AcDbEntity
8
SK2
62
256
6
ByLayer
370
13
48
1
60
0
100
AcDbLine
10
-1.5875
20
19.75
30
0
11
-93.9
21
19.75
31
0
39
0
210
0
220
0
230
1
0
LINE
5
17F
100
AcDbEntity
8
SK2
62
256
6
ByLayer
370
13
48
1
60
0
100
AcDbLine
10
-1.5875
20
-19.75
30
0
11
-93.9
21
-19.75
31
0
39
0
210
0
220
0
230
1
0
LINE
5
180
100
AcDbEntity
8
1
62
256
6
ByLayer
370
18
48
1
60
1
100
AcDbLine
10
-90.725
20
19.75
30
0
11
-89.799425
21
15.575003
31
0
39
0
210
0
220
0
230
1
0
LINE
5
181
100
AcDbEntity
8
1
62
256
6
ByLayer
370
18
48
1
60
1
100
AcDbLine
10
-89.799425
20
15.575003
30
0
11
-91.650575
21
15.574997
31
0
39
0
210
0
220
0
230
1
0
LINE
5
182
100
AcDbEntity
8
1
62
256
6
ByLayer
370
18
48
1
60
1
100
AcDbLine
10
-91.650575
20
15.574997
30
0
11
-90.725
21
19.75
31
0
39
0
210
0
220
0
230
1
0
LINE
5
183
100
AcDbEntity
8
1
62
256
6
ByLayer
370
18
48
1
60
1
100
AcDbLine
10
-90.725
20
-19.75
30
0
11
-91.650575
21
-15.575003
31
0
39
0
210
0
220
0
230
1
0
LINE
5
184
100
AcDbEntity
8
1
62
256
6
ByLayer
370
18
48
1
60
1
100
AcDbLine
10
-91.650575
20
-15.575003
30
0
11
-89.799425
21
-15.574997
31
0
39
0
210
0
220
0
230
1
0
LINE
5
185
100
AcDbEntity
8
1
62
256
6
ByLayer
370
18
48
1
60
1
100
AcDbLine
10
-89.799425
20
-15.574997
30
0
11
-90.725
21
-19.75
31
0
39
0
210
0
220
0
230
1
0
LINE
5
186
100
AcDbEntity
8
2
62
256
6
ByLayer
370
13
48
1
60
0
100
AcDbLine
10
223.975
20
25.25
30
0
11
223.975
21
-25.25
31
0
39
0
210
0
220
0
230
1
0
LINE
5
188
100
AcDbEntity
8
2
62
256
6
ByLayer
370
13
48
1
60
0
100
AcDbLine
10
198.5875
20
-14
30
0
11
227.15
21
-14
31
0
39
0
210
0
220
0
230
1
0
LINE
5
189
100
AcDbEntity
8
2
62
256
6
ByLayer
370
13
48
1
60
0
100
AcDbLine
10
198.5875
20
14
30
0
11
227.15
21
14
31
0
39
0
210
0
220
0
230
1
0
LINE
5
18A
100
AcDbEntity
8
1
62
256
6
ByLayer
370
18
48
1
60
1
100
AcDbLine
10
223.975
20
-14
30
0
11
224.900575
21
-18.174997
31
0
39
0
210
0
220
0
230
1
0
LINE
5
18B
100
AcDbEntity
8
1
62
256
6
ByLayer
370
18
48
1
60
1
100
AcDbLine
10
224.900575
20
-18.174997
30
0
11
223.049425
21
-18.175003
31
0
39
0
210
0
220
0
230
1
0
LINE
5
18C
100
AcDbEntity
8
1
62
256
6
ByLayer
370
18
48
1
60
1
100
AcDbLine
10
223.049425
20
-18.175003
30
0
11
223.975
21
-14
31
0
39
0
210
0
220
0
230
1
0
LINE
5
18D
100
AcDbEntity
8
1
62
256
6
ByLayer
370
18
48
1
60
1
100
AcDbLine
10
223.975
20
14
30
0
11
223.049425
21
18.174997
31
0
39
0
210
0
220
0
230
1
0
LINE
5
18E
100
AcDbEntity
8
1
62
256
6
ByLayer
370
18
48
1
60
1
100
AcDbLine
10
223.049425
20
18.174997
30
0
11
224.900575
21
18.175003
31
0
39
0
210
0
220
0
230
1
0
LINE
5
18F
100
AcDbEntity
8
1
62
256
6
ByLayer
370
18
48
1
60
1
100
AcDbLine
10
224.900575
20
18.175003
30
0
11
223.975
21
14
31
0
39
0
210
0
220
0
230
1
0
LINE
5
339
100
AcDbEntity
8
1
62
256
6
ByLayer
370
18
48
1
60
1
100
AcDbLine
10
-80.725
20
-16
30
0
11
-81.650575
21
-11.825003
31
0
39
0
210
0
220
0
230
1
0
LINE
5
33A
100
AcDbEntity
8
1
62
256
6
ByLayer
370
18
48
1
60
1
100
AcDbLine
10
-81.650575
20
-11.825003
30
0
11
-79.799425
21
-11.824997
31
0
39
0
210
0
220
0
230
1
0
LINE
5
33B
100
AcDbEntity
8
1
62
256
6
ByLayer
370
18
48
1
60
1
100
AcDbLine
10
-79.799425
20
-11.824997
30
0
11
-80.725
21
-16
31
0
39
0
210
0
220
0
230
1
0
LINE
5
33D
100
AcDbEntity
8
1
62
256
6
ByLayer
370
18
48
1
60
1
100
AcDbLine
10
-80.725
20
16
30
0
11
-79.799425
21
11.825003
31
0
39
0
210
0
220
0
230
1
0
LINE
5
33E
100
AcDbEntity
8
1
62
256
6
ByLayer
370
18
48
1
60
1
100
AcDbLine
10
-79.799425
20
11.825003
30
0
11
-81.650575
21
11.824997
31
0
39
0
210
0
220
0
230
1
0
LINE
5
33F
100
AcDbEntity
8
1
62
256
6
ByLayer
370
18
48
1
60
1
100
AcDbLine
10
-81.650575
20
11.824997
30
0
11
-80.725
21
16
31
0
39
0
210
0
220
0
230
1
0
LINE
5
343
100
AcDbEntity
8
1
62
256
6
ByLayer
370
18
48
1
60
1
100
AcDbLine
10
-90.725
20
19.75
30
0
11
-89.799425
21
15.575003
31
0
39
0
210
0
220
0
230
1
0
LINE
5
344
100
AcDbEntity
8
1
62
256
6
ByLayer
370
18
48
1
60
1
100
AcDbLine
10
-89.799425
20
15.575003
30
0
11
-91.650575
21
15.574997
31
0
39
0
210
0
220
0
230
1
0
LINE
5
345
100
AcDbEntity
8
1
62
256
6
ByLayer
370
18
48
1
60
1
100
AcDbLine
10
-91.650575
20
15.574997
30
0
11
-90.725
21
19.75
31
0
39
0
210
0
220
0
230
1
0
LINE
5
347
100
AcDbEntity
8
1
62
256
6
ByLayer
370
18
48
1
60
1
100
AcDbLine
10
-90.725
20
-19.75
30
0
11
-91.650575
21
-15.575003
31
0
39
0
210
0
220
0
230
1
0
LINE
5
348
100
AcDbEntity
8
1
62
256
6
ByLayer
370
18
48
1
60
1
100
AcDbLine
10
-91.650575
20
-15.575003
30
0
11
-89.799425
21
-15.574997
31
0
39
0
210
0
220
0
230
1
0
LINE
5
349
100
AcDbEntity
8
1
62
256
6
ByLayer
370
18
48
1
60
1
100
AcDbLine
10
-89.799425
20
-15.574997
30
0
11
-90.725
21
-19.75
31
0
39
0
210
0
220
0
230
1
0
LINE
5
34D
100
AcDbEntity
8
1
62
256
6
ByLayer
370
18
48
1
60
1
100
AcDbLine
10
223.975
20
-14
30
0
11
224.900575
21
-18.174997
31
0
39
0
210
0
220
0
230
1
0
LINE
5
34E
100
AcDbEntity
8
1
62
256
6
ByLayer
370
18
48
1
60
1
100
AcDbLine
10
224.900575
20
-18.174997
30
0
11
223.049425
21
-18.175003
31
0
39
0
210
0
220
0
230
1
0
LINE
5
34F
100
AcDbEntity
8
1
62
256
6
ByLayer
370
18
48
1
60
1
100
AcDbLine
10
223.049425
20
-18.175003
30
0
11
223.975
21
-14
31
0
39
0
210
0
220
0
230
1
0
LINE
5
351
100
AcDbEntity
8
1
62
256
6
ByLayer
370
18
48
1
60
1
100
AcDbLine
10
223.975
20
14
30
0
11
223.049425
21
18.174997
31
0
39
0
210
0
220
0
230
1
0
LINE
5
352
100
AcDbEntity
8
1
62
256
6
ByLayer
370
18
48
1
60
1
100
AcDbLine
10
223.049425
20
18.174997
30
0
11
224.900575
21
18.175003
31
0
39
0
210
0
220
0
230
1
0
LINE
5
353
100
AcDbEntity
8
1
62
256
6
ByLayer
370
18
48
1
60
1
100
AcDbLine
10
224.900575
20
18.175003
30
0
11
223.975
21
14
31
0
39
0
210
0
220
0
230
1
0
MTEXT
5
335
100
AcDbEntity
8
SK2
62
256
6
ByLayer
370
18
48
1
60
0
100
AcDbMText
10
-82.736672
20
-6.949399
30
0
210
0
220
0
230
1
1
%%c
40
4.5
41
0
44
1.084337
50
90
71
7
72
5
7
iso_b_vert
0
MTEXT
5
338
100
AcDbEntity
8
SK2
62
256
6
ByLayer
370
18
48
1
60
0
100
AcDbMText
10
-82.736672
20
4.265444
30
0
210
0
220
0
230
1
1
\W0.6740;32
40
4.5
41
0
44
1.084337
50
90
71
7
72
5
7
iso_b_vert
0
MTEXT
5
341
100
AcDbEntity
8
SK2
62
256
6
ByLayer
370
18
48
1
60
0
100
AcDbMText
10
-92.736672
20
-9.541655
30
0
210
0
220
0
230
1
1
%%c
40
4.5
41
0
44
1.084337
50
90
71
7
72
5
7
iso_b_vert
0
MTEXT
5
342
100
AcDbEntity
8
SK2
62
256
6
ByLayer
370
18
48
1
60
0
100
AcDbMText
10
-92.736672
20
1.673189
30
0
210
0
220
0
230
1
1
\W0.7346;39.5
40
4.5
41
0
44
1.084337
50
90
71
7
72
5
7
iso_b_vert
0
MTEXT
5
34B
100
AcDbEntity
8
2
62
256
6
ByLayer
370
18
48
1
60
0
100
AcDbMText
10
221.963328
20
-6.949399
30
0
210
0
220
0
230
1
1
%%c
40
4.5
41
0
44
1.084337
50
90
71
7
72
5
7
iso_b_vert
0
MTEXT
5
34C
100
AcDbEntity
8
2
62
256
6
ByLayer
370
18
48
1
60
0
100
AcDbMText
10
221.963328
20
4.265444
30
0
210
0
220
0
230
1
1
\W0.6740;28
40
4.5
41
0
44
1.084337
50
90
71
7
72
5
7
iso_b_vert
0
MTEXT
5
355
100
AcDbEntity
8
SK6
62
256
6
ByLayer
370
18
48
1
60
0
100
AcDbMText
10
9.308916
20
-94.592562
30
0
210
0
220
0
230
1
1
\W0.7663;DS20-D2800L32-06
40
3.5
41
0
44
1.084337
50
0
71
7
72
5
7
iso_b_vert
0
HATCH
5
33C
100
AcDbEntity
8
SK2
62
256
6
ByLayer
370
13
48
1
60
0
100
AcDbHatch
10
0
20
0
30
0
210
0
220
0
230
1
2
ANSI31
70
0
71
0
91
1
92
5
93
3
72
1
10
-80.725
20
-15.9999999999999
11
-81.650575216528
21
-11.8250033998275
72
1
10
-81.650575216528
20
-11.8250033998275
11
-79.799424783472
21
-11.8249966001723
72
1
10
-79.799424783472
20
-11.8249966001723
11
-80.725
21
-15.9999999999999
97
0
75
0
76
1
52
0
41
0.0062
77
0
78
1
53
45
43
0
44
0
45
-0.0139193969876572
46
0.0139193969876572
79
0
47
0
98
1
10
0
20
0
0
HATCH
5
340
100
AcDbEntity
8
SK2
62
256
6
ByLayer
370
13
48
1
60
0
100
AcDbHatch
10
0
20
0
30
0
210
0
220
0
230
1
2
ANSI31
70
0
71
0
91
1
92
5
93
3
72
1
10
-80.725
20
16.0000000000001
11
-79.799424783472
21
11.8250033998277
72
1
10
-79.799424783472
20
11.8250033998277
11
-81.650575216528
21
11.8249966001724
72
1
10
-81.650575216528
20
11.8249966001724
11
-80.725
21
16.0000000000001
97
0
75
0
76
1
52
0
41
0.0062
77
0
78
1
53
45
43
0
44
0
45
-0.0139193969876572
46
0.0139193969876572
79
0
47
0
98
1
10
0
20
0
0
HATCH
5
346
100
AcDbEntity
8
SK2
62
256
6
ByLayer
370
13
48
1
60
0
100
AcDbHatch
10
0
20
0
30
0
210
0
220
0
230
1
2
ANSI31
70
0
71
0
91
1
92
5
93
3
72
1
10
-90.725
20
19.75
11
-89.799424783472
21
15.5750033998276
72
1
10
-89.799424783472
20
15.5750033998276
11
-91.650575216528
21
15.5749966001724
72
1
10
-91.650575216528
20
15.5749966001724
11
-90.725
21
19.75
97
0
75
0
76
1
52
0
41
0.0062
77
0
78
1
53
45
43
0
44
0
45
-0.0139193969876572
46
0.0139193969876572
79
0
47
0
98
1
10
0
20
0
0
HATCH
5
34A
100
AcDbEntity
8
SK2
62
256
6
ByLayer
370
13
48
1
60
0
100
AcDbHatch
10
0
20
0
30
0
210
0
220
0
230
1
2
ANSI31
70
0
71
0
91
1
92
5
93
3
72
1
10
-90.725
20
-19.75
11
-91.650575216528
21
-15.5750033998276
72
1
10
-91.650575216528
20
-15.5750033998276
11
-89.799424783472
21
-15.5749966001724
72
1
10
-89.799424783472
20
-15.5749966001724
11
-90.725
21
-19.75
97
0
75
0
76
1
52
0
41
0.0062
77
0
78
1
53
45
43
0
44
0
45
-0.0139193969876572
46
0.0139193969876572
79
0
47
0
98
1
10
0
20
0
0
HATCH
5
350
100
AcDbEntity
8
2
62
256
6
ByLayer
370
13
48
1
60
0
100
AcDbHatch
10
0
20
0
30
0
210
0
220
0
230
1
2
ANSI31
70
0
71
0
91
1
92
5
93
3
72
1
10
223.975
20
-14.0000000000002
11
224.900575216528
21
-18.1749966001726
72
1
10
224.900575216528
20
-18.1749966001726
11
223.049424783472
21
-18.1750033998279
72
1
10
223.049424783472
20
-18.1750033998279
11
223.975
21
-14.0000000000002
97
0
75
0
76
1
52
0
41
0.0062
77
0
78
1
53
45
43
0
44
0
45
-0.0139193969876572
46
0.0139193969876572
79
0
47
0
98
1
10
0
20
0
0
HATCH
5
354
100
AcDbEntity
8
2
62
256
6
ByLayer
370
13
48
1
60
0
100
AcDbHatch
10
0
20
0
30
0
210
0
220
0
230
1
2
ANSI31
70
0
71
0
91
1
92
5
93
3
72
1
10
223.975
20
13.9999999999998
11
223.049424783472
21
18.1749966001722
72
1
10
223.049424783472
20
18.1749966001722
11
224.900575216528
21
18.1750033998274
72
1
10
224.900575216528
20
18.1750033998274
11
223.975
21
13.9999999999998
97
0
75
0
76
1
52
0
41
0.0062
77
0
78
1
53
45
43
0
44
0
45
-0.0139193969876572
46
0.0139193969876572
79
0
47
0
98
1
10
0
20
0
0
DIMENSION
5
358
100
AcDbEntity
8
2
62
256
6
ByLayer
370
18
48
1
60
0
100
AcDbDimension
2
_U0
10
197
20
-68.611438
30
0
11
98.5
21
-68.611438
31
0
70
32
71
1
72
1
41
1
210
0
220
0
230
1
3
Standard
100
AcDbAlignedDimension
13
0
23
-19.75
33
0
14
197
24
-14
34
0
50
0
100
AcDbRotatedDimension
1001
ACAD
1000
DSTYLE
1002
{
1070
   371
1070
    13
1070
   372
1070
    13
1070
   170
1070
     0
1070
   144
1040
1.0
1070
   277
1070
     2
1070
   284
1070
     8
1070
   278
1070
    46
1070
   146
1040
0.777778
1070
   345
1005
16
1070
   347
1005
16
1070
   346
1005
16
1070
   344
1005
0
1070
   343
1005
0
1070
   172
1070
     1
1070
    76
1070
     0
1070
    75
1070
     0
1070
   282
1070
     0
1070
   281
1070
     0
1070
    71
1070
     0
1070
    74
1070
     0
1070
   279
1070
     0
1070
   173
1070
     1
1070
   340
1005
336
1070
   271
1070
     1
1070
   272
1070
     2
1070
    77
1070
     1
1070
    73
1070
     1
1070
   171
1070
     3
1070
   274
1070
     4
1070
   177
1070
   150
1070
   176
1070
     9
1070
   178
1070
    43
1070
    78
1070
     8
1070
    48
1040
-0.1
1070
    41
1040
4.175
1070
   147
1040
2.25
1070
    42
1040
1.5875
1070
    44
1040
3.175
1070
   140
1040
4.5
1002
}
1001
ACAD_DSTYLE_DIM_LINETYPE
1070
   380
1005
16
1001
ACAD_DSTYLE_DIM_EXT1_LINETYPE
1070
   381
1005
16
1001
ACAD_DSTYLE_DIM_EXT2_LINETYPE
1070
   382
1005
16
0
DIMENSION
5
371
100
AcDbEntity
8
SK2
62
256
6
ByLayer
370
18
48
1
60
0
100
AcDbDimension
2
_U1
10
0
20
-68.611438
30
0
11
-30
21
-68.611438
31
0
70
32
71
1
72
1
41
1
210
0
220
0
230
1
3
Standard
100
AcDbAlignedDimension
13
-60
23
-16
33
0
14
0
24
-19.75
34
0
50
0
100
AcDbRotatedDimension
1001
ACAD
1000
DSTYLE
1002
{
1070
   371
1070
    13
1070
   372
1070
    13
1070
   170
1070
     0
1070
   144
1040
1.0
1070
   277
1070
     2
1070
   284
1070
     8
1070
   278
1070
    46
1070
   146
1040
0.777778
1070
   345
1005
16
1070
   347
1005
16
1070
   346
1005
16
1070
   344
1005
0
1070
   343
1005
0
1070
   172
1070
     1
1070
    76
1070
     0
1070
    75
1070
     0
1070
   282
1070
     0
1070
   281
1070
     0
1070
    71
1070
     0
1070
    74
1070
     0
1070
   279
1070
     0
1070
   173
1070
     1
1070
   340
1005
336
1070
   271
1070
     1
1070
   272
1070
     2
1070
    77
1070
     1
1070
    73
1070
     1
1070
   171
1070
     3
1070
   274
1070
     4
1070
   177
1070
   150
1070
   176
1070
     9
1070
   178
1070
    43
1070
    78
1070
     8
1070
    48
1040
-0.1
1070
    41
1040
4.175
1070
   147
1040
2.25
1070
    42
1040
1.5875
1070
    44
1040
3.175
1070
   140
1040
4.5
1002
}
1001
ACAD_DSTYLE_DIM_LINETYPE
1070
   380
1005
16
1001
ACAD_DSTYLE_DIM_EXT1_LINETYPE
1070
   381
1005
16
1001
ACAD_DSTYLE_DIM_EXT2_LINETYPE
1070
   382
1005
16
0
DIMENSION
5
389
100
AcDbEntity
8
SK2
62
256
6
ByLayer
370
18
48
1
60
0
100
AcDbDimension
2
_U2
10
5.6315
20
-58.611438
30
0
11
101.31575
21
-58.611438
31
0
70
32
71
1
72
1
41
1
210
0
220
0
230
1
3
Standard
100
AcDbAlignedDimension
13
197
23
-14
33
0
14
5.6315
24
-19.75
34
0
50
0
100
AcDbRotatedDimension
1001
ACAD
1000
DSTYLE
1002
{
1070
   371
1070
    13
1070
   372
1070
    13
1070
   170
1070
     0
1070
   144
1040
1.0
1070
   277
1070
     2
1070
   284
1070
     8
1070
   278
1070
    46
1070
   146
1040
0.777778
1070
   345
1005
16
1070
   347
1005
16
1070
   346
1005
16
1070
   344
1005
0
1070
   343
1005
0
1070
   172
1070
     1
1070
    76
1070
     0
1070
    75
1070
     0
1070
   282
1070
     0
1070
   281
1070
     0
1070
    71
1070
     0
1070
    74
1070
     0
1070
   279
1070
     0
1070
   173
1070
     1
1070
   340
1005
336
1070
   271
1070
     1
1070
   272
1070
     2
1070
    77
1070
     1
1070
    73
1070
     1
1070
   171
1070
     3
1070
   274
1070
     4
1070
   177
1070
   150
1070
   176
1070
     9
1070
   178
1070
    43
1070
    78
1070
     8
1070
    48
1040
-0.1
1070
    41
1040
4.175
1070
   147
1040
2.25
1070
    42
1040
1.5875
1070
    44
1040
3.175
1070
   140
1040
4.5
1002
}
1001
ACAD_DSTYLE_DIM_LINETYPE
1070
   380
1005
16
1001
ACAD_DSTYLE_DIM_EXT1_LINETYPE
1070
   381
1005
16
1001
ACAD_DSTYLE_DIM_EXT2_LINETYPE
1070
   382
1005
16
0
DIMENSION
5
3A1
100
AcDbEntity
8
SK2
62
256
6
ByLayer
370
18
48
1
60
0
100
AcDbDimension
2
_U3
10
197
20
-48.611438
30
0
11
111
21
-48.611438
31
0
70
32
71
1
72
1
41
1
210
0
220
0
230
1
3
Standard
100
AcDbAlignedDimension
13
25
23
-14
33
0
14
197
24
-14
34
0
50
0
100
AcDbRotatedDimension
1001
ACAD
1000
DSTYLE
1002
{
1070
   371
1070
    13
1070
   372
1070
    13
1070
   170
1070
     0
1070
   144
1040
1.0
1070
   277
1070
     2
1070
   284
1070
     8
1070
   278
1070
    46
1070
   146
1040
0.777778
1070
   345
1005
16
1070
   347
1005
16
1070
   346
1005
16
1070
   344
1005
0
1070
   343
1005
0
1070
   172
1070
     1
1070
    76
1070
     0
1070
    75
1070
     0
1070
   282
1070
     0
1070
   281
1070
     0
1070
    71
1070
     0
1070
    74
1070
     0
1070
   279
1070
     0
1070
   173
1070
     1
1070
   340
1005
336
1070
   271
1070
     1
1070
   272
1070
     2
1070
    77
1070
     1
1070
    73
1070
     1
1070
   171
1070
     3
1070
   274
1070
     4
1070
   177
1070
   150
1070
   176
1070
     9
1070
   178
1070
    43
1070
    78
1070
     8
1070
    48
1040
-0.1
1070
    41
1040
4.175
1070
   147
1040
2.25
1070
    42
1040
1.5875
1070
    44
1040
3.175
1070
   140
1040
4.5
1002
}
1001
ACAD_DSTYLE_DIM_LINETYPE
1070
   380
1005
16
1001
ACAD_DSTYLE_DIM_EXT1_LINETYPE
1070
   381
1005
16
1001
ACAD_DSTYLE_DIM_EXT2_LINETYPE
1070
   382
1005
16
0
DIMENSION
5
3B9
100
AcDbEntity
8
2
62
256
6
ByLayer
370
18
48
1
60
0
100
AcDbDimension
2
_U4
10
197
20
-38.611438
30
0
11
219.350893
21
-38.611438
31
0
70
32
71
1
72
1
41
1
210
0
220
0
230
1
3
Standard
100
AcDbAlignedDimension
13
196.1684
23
-7
33
0
14
197
24
0
34
0
50
0
100
AcDbRotatedDimension
1001
ACAD
1000
DSTYLE
1002
{
1070
   371
1070
    13
1070
   372
1070
    13
1070
   170
1070
     0
1070
   144
1040
1.0
1070
   277
1070
     2
1070
   284
1070
     8
1070
   278
1070
    46
1070
   146
1040
0.777778
1070
   345
1005
16
1070
   347
1005
16
1070
   346
1005
16
1070
   344
1005
0
1070
   343
1005
0
1070
   172
1070
     1
1070
    76
1070
     0
1070
    75
1070
     0
1070
   282
1070
     0
1070
   281
1070
     0
1070
    71
1070
     0
1070
    74
1070
     0
1070
   279
1070
     0
1070
   173
1070
     1
1070
   340
1005
336
1070
   271
1070
     2
1070
   272
1070
     2
1070
    77
1070
     1
1070
    73
1070
     1
1070
   171
1070
     3
1070
   274
1070
     4
1070
   177
1070
   150
1070
   176
1070
     9
1070
   178
1070
    43
1070
    78
1070
     8
1070
    48
1040
-0.1
1070
    41
1040
4.175
1070
   147
1040
2.25
1070
    42
1040
1.5875
1070
    44
1040
3.175
1070
   140
1040
4.5
1002
}
1001
ACAD_DSTYLE_DIM_LINETYPE
1070
   380
1005
16
1001
ACAD_DSTYLE_DIM_EXT1_LINETYPE
1070
   381
1005
16
1001
ACAD_DSTYLE_DIM_EXT2_LINETYPE
1070
   382
1005
16
0
ENDSEC
0
SECTION
2
OBJECTS
0
DICTIONARY
5
443
330
0
100
AcDbDictionary
280
0
281
1
3
ACAD_GROUP
350
444
3
ACAD_MLINESTYLE
350
445
0
DICTIONARY
5
444
330
0
100
AcDbDictionary
280
0
281
1
0
DICTIONARY
5
445
330
0
100
AcDbDictionary
280
0
281
1
3
Standard
350
18
0
MLINESTYLE
5
18
330
445
100
AcDbMlineStyle
2
Standard
70
0
3

62
256
51
90
52
90
71
2
49
-0.5
62
256
6
ByLayer
49
0.5
62
256
6
ByLayer
0
RASTERVARIABLES
5
431
330

100
AcDbRasterVariables
90
0
70
1
71
1
72
1
0
ENDSEC
0
EOF
