0
SECTION
2
HEADER
9
$ACADVER
1
AC1015
9
$DWGCODEPAGE
3
ANSI_1252
9
$HANDSEED
5
25f
9
$ANGBASE
50
0
9
$ANGDIR
70
0
9
$ATTMODE
70
1
9
$AUNITS
70
0
9
$AUPREC
70
0
9
$CECOLOR
62
256
9
$CELTSCALE
40
1
9
$CELTYPE
6
ByLayer
9
$CELWEIGHT
370
18
9
$CLAYER
8
0
9
$CMLJUST
70
0
9
$CMLSCALE
40
1
9
$CMLSTYLE
2
Standard
9
$DIMSTYLE
2
Standard
9
$TEXTSIZE
40
0.2
9
$TEXTSTYLE
7
Standard
9
$LUNITS
70
2
9
$LUPREC
70
4
9
$EXTNAMES
290
1
9
$INSUNITS
70
4
9
$LTSCALE
40
1
9
$LWDISPLAY
290
1
9
$PDMODE
70
0
9
$PDSIZE
40
0
9
$PLINEGEN
70
0
0
ENDSEC
0
SECTION
2
CLASSES
0
CLASS
1
RASTERVARIABLES
2
AcDbRasterVariables
3
ISM
90
0
280
0
281
0
0
ENDSEC
0
SECTION
2
TABLES
0
TABLE
2
VPORT
5
255
100
AcDbSymbolTable
0
VPORT
5
1
100
AcDbSymbolTableRecord
100
AcDbViewportTableRecord
2
*Active
70
0
10
0
20
0
11
1
21
1
12
-1
22
1
13
0
23
0
14
0.5
24
0.5
15
10
25
10
16
0
26
0
36
1
17
0
27
0
37
0
0
ENDTAB
0
TABLE
2
LTYPE
5
256
100
AcDbSymbolTable
0
LTYPE
5
14
100
AcDbSymbolTableRecord
100
AcDbLinetypeTableRecord
70
0
2
ByBlock
3

72
65
73
0
40
0
0
LTYPE
5
15
100
AcDbSymbolTableRecord
100
AcDbLinetypeTableRecord
70
0
2
ByLayer
3

72
65
73
0
40
0
0
LTYPE
5
16
100
AcDbSymbolTableRecord
100
AcDbLinetypeTableRecord
70
0
2
Continuous
3
Solid line
72
65
73
0
40
0
0
LTYPE
5
6E
100
AcDbSymbolTableRecord
100
AcDbLinetypeTableRecord
70
0
2
CENTER
3
____ _ ____ _ ____ _ ____
72
65
73
4
40
47.5
49
22
74
0
49
-8.5
74
0
49
8.5
74
0
49
-8.5
74
0
0
LTYPE
5
6F
100
AcDbSymbolTableRecord
100
AcDbLinetypeTableRecord
70
0
2
DASHED
3
__ __ __ __ __ __ __ __ __
72
65
73
2
40
25.72
49
12.86
74
0
49
-12.86
74
0
0
ENDTAB
0
TABLE
2
LAYER
5
257
100
AcDbSymbolTable
0
LAYER
5
10
100
AcDbSymbolTableRecord
100
AcDbLayerTableRecord
2
0
70
0
62
7
6
Continuous
290
1
370
-3
390
0
0
LAYER
5
71
100
AcDbSymbolTableRecord
100
AcDbLayerTableRecord
2
80
70
0
62
-6
6
Continuous
290
1
370
-3
390
0
0
LAYER
5
73
100
AcDbSymbolTableRecord
100
AcDbLayerTableRecord
2
81
70
0
62
-3
6
Continuous
290
1
370
-3
390
0
0
LAYER
5
75
100
AcDbSymbolTableRecord
100
AcDbLayerTableRecord
2
1
70
0
62
4
6
Continuous
290
1
370
-3
390
0
0
LAYER
5
AA
100
AcDbSymbolTableRecord
100
AcDbLayerTableRecord
2
4
70
0
62
-2
6
CENTER
290
1
370
-3
390
0
0
LAYER
5
119
100
AcDbSymbolTableRecord
100
AcDbLayerTableRecord
2
Defpoints
70
0
62
7
6
Continuous
290
0
370
-3
390
0
0
LAYER
5
146
100
AcDbSymbolTableRecord
100
AcDbLayerTableRecord
2
2
70
0
62
7
6
Continuous
290
1
370
-3
390
0
0
LAYER
5
241
100
AcDbSymbolTableRecord
100
AcDbLayerTableRecord
2
SK1
70
0
62
4
6
Continuous
290
1
370
-3
390
0
0
LAYER
5
242
100
AcDbSymbolTableRecord
100
AcDbLayerTableRecord
2
SK4
70
0
62
2
6
CENTER
290
1
370
-3
390
0
0
LAYER
5
243
100
AcDbSymbolTableRecord
100
AcDbLayerTableRecord
2
SK2
70
0
62
7
6
Continuous
290
1
370
-3
390
0
0
LAYER
5
244
100
AcDbSymbolTableRecord
100
AcDbLayerTableRecord
2
SK6
70
0
62
5
6
Continuous
290
1
370
-3
390
0
0
ENDTAB
0
TABLE
2
STYLE
5
258
100
AcDbSymbolTable
0
STYLE
5
11
100
AcDbSymbolTableRecord
100
AcDbTextStyleTableRecord
2
Standard
3
txt
70
0
71
0
40
0
41
1
42
0
50
0
0
STYLE
5
10A
100
AcDbSymbolTableRecord
100
AcDbTextStyleTableRecord
2
iso_b_vert
3
simplex.shx
70
0
71
0
40
0
41
1
42
0
50
0
0
STYLE
5
10B
100
AcDbSymbolTableRecord
100
AcDbTextStyleTableRecord
2
DWGDirectTextStyle
3
simplex
70
0
71
0
40
0
41
1
42
0
50
0
0
ENDTAB
0
TABLE
2
DIMSTYLE
5
259
100
AcDbSymbolTable
100
AcDbDimStyleTable
0
DIMSTYLE
105
27
100
AcDbSymbolTableRecord
100
AcDbDimStyleTableRecord
2
Standard
70
0
3
<>
41
0.18
42
0.0625
44
0.18
140
0.18
147
0.09
73
0
74
0
77
1
271
2
275
0
278
52
280
0
340
11
0
ENDTAB
0
TABLE
2
VIEW
5
25a
100
AcDbSymbolTable
0
ENDTAB
0
TABLE
2
UCS
5
25b
100
AcDbSymbolTable
0
ENDTAB
0
TABLE
2
APPID
5
25c
100
AcDbSymbolTable
0
APPID
5
12
100
AcDbSymbolTableRecord
100
AcDbRegAppTableRecord
2
ACAD
70
0
0
APPID
5
10E
100
AcDbSymbolTableRecord
100
AcDbRegAppTableRecord
2
ACAD_DSTYLE_DIMBREAK
70
0
0
APPID
5
200
100
AcDbSymbolTableRecord
100
AcDbRegAppTableRecord
2
ACAD_DSTYLE_DIM_LINETYPE
70
0
0
APPID
5
201
100
AcDbSymbolTableRecord
100
AcDbRegAppTableRecord
2
ACAD_DSTYLE_DIM_EXT1_LINETYPE
70
0
0
APPID
5
202
100
AcDbSymbolTableRecord
100
AcDbRegAppTableRecord
2
ACAD_DSTYLE_DIM_EXT2_LINETYPE
70
0
0
APPID
5
23D
100
AcDbSymbolTableRecord
100
AcDbRegAppTableRecord
2
ACAD_MLEADERVER
70
0
0
ENDTAB
0
TABLE
2
BLOCK_RECORD
5
25d
100
AcDbSymbolTable
0
BLOCK_RECORD
5
1F
100
AcDbSymbolTableRecord
100
AcDbBlockTableRecord
2
*Model_Space
340
0
70
0
0
BLOCK_RECORD
5
1B
100
AcDbSymbolTableRecord
100
AcDbBlockTableRecord
2
*Paper_Space
340
0
70
0
0
BLOCK_RECORD
5
23
100
AcDbSymbolTableRecord
100
AcDbBlockTableRecord
2
*Paper_Space0
340
0
70
0
0
BLOCK_RECORD
5
110
100
AcDbSymbolTableRecord
100
AcDbBlockTableRecord
2
_Closed
340
0
70
0
0
BLOCK_RECORD
5
11A
100
AcDbSymbolTableRecord
100
AcDbBlockTableRecord
2
*D2
340
0
70
0
0
BLOCK_RECORD
5
126
100
AcDbSymbolTableRecord
100
AcDbBlockTableRecord
2
_U0
340
0
70
0
0
BLOCK_RECORD
5
138
100
AcDbSymbolTableRecord
100
AcDbBlockTableRecord
2
*D4
340
0
70
0
0
BLOCK_RECORD
5
147
100
AcDbSymbolTableRecord
100
AcDbBlockTableRecord
2
_U1
340
0
70
0
0
BLOCK_RECORD
5
157
100
AcDbSymbolTableRecord
100
AcDbBlockTableRecord
2
*D6
340
0
70
0
0
BLOCK_RECORD
5
165
100
AcDbSymbolTableRecord
100
AcDbBlockTableRecord
2
_U2
340
0
70
0
0
BLOCK_RECORD
5
175
100
AcDbSymbolTableRecord
100
AcDbBlockTableRecord
2
*D8
340
0
70
0
0
BLOCK_RECORD
5
181
100
AcDbSymbolTableRecord
100
AcDbBlockTableRecord
2
_U3
340
0
70
0
0
BLOCK_RECORD
5
191
100
AcDbSymbolTableRecord
100
AcDbBlockTableRecord
2
*D10
340
0
70
0
0
BLOCK_RECORD
5
19D
100
AcDbSymbolTableRecord
100
AcDbBlockTableRecord
2
_U4
340
0
70
0
0
BLOCK_RECORD
5
1AD
100
AcDbSymbolTableRecord
100
AcDbBlockTableRecord
2
*D12
340
0
70
0
0
BLOCK_RECORD
5
1B9
100
AcDbSymbolTableRecord
100
AcDbBlockTableRecord
2
_U5
340
0
70
0
0
BLOCK_RECORD
5
1C9
100
AcDbSymbolTableRecord
100
AcDbBlockTableRecord
2
*D14
340
0
70
0
0
BLOCK_RECORD
5
1D5
100
AcDbSymbolTableRecord
100
AcDbBlockTableRecord
2
_U6
340
0
70
0
0
ENDTAB
0
ENDSEC
0
SECTION
2
BLOCKS
0
BLOCK
5
20
100
AcDbEntity
8
0
100
AcDbBlockBegin
2
*Model_Space
70
0
10
0
20
0
30
0
3
*Model_Space
0
ENDBLK
5
21
100
AcDbEntity
8
0
100
AcDbBlockEnd
0
BLOCK
5
1C
100
AcDbEntity
8
0
100
AcDbBlockBegin
2
*Paper_Space
70
0
10
0
20
0
30
0
3
*Paper_Space
0
ENDBLK
5
1D
100
AcDbEntity
8
0
100
AcDbBlockEnd
0
BLOCK
5
24
100
AcDbEntity
8
0
100
AcDbBlockBegin
2
*Paper_Space0
70
0
10
0
20
0
30
0
3
*Paper_Space0
0
ENDBLK
5
25
100
AcDbEntity
8
0
100
AcDbBlockEnd
0
BLOCK
5
111
100
AcDbEntity
8
0
100
AcDbBlockBegin
2
_Closed
70
0
10
0
20
0
30
0
3
_Closed
0
LINE
5
113
100
AcDbEntity
8
0
62
256
6
ByLayer
370
-2
48
1
60
0
100
AcDbLine
10
-1
20
0.166667
30
0
11
0
21
0
31
0
39
0
210
0
220
0
230
1
0
LINE
5
114
100
AcDbEntity
8
0
62
256
6
ByLayer
370
-2
48
1
60
0
100
AcDbLine
10
0
20
0
30
0
11
-1
21
-0.166667
31
0
39
0
210
0
220
0
230
1
0
LINE
5
115
100
AcDbEntity
8
0
62
256
6
ByLayer
370
-2
48
1
60
0
100
AcDbLine
10
-1
20
0.166667
30
0
11
-1
21
-0.166667
31
0
39
0
210
0
220
0
230
1
0
LINE
5
116
100
AcDbEntity
8
0
62
256
6
ByLayer
370
-2
48
1
60
0
100
AcDbLine
10
0
20
0
30
0
11
-1
21
0
31
0
39
0
210
0
220
0
230
1
0
ENDBLK
5
112
100
AcDbEntity
8
0
100
AcDbBlockEnd
0
BLOCK
5
11B
100
AcDbEntity
8
0
100
AcDbBlockBegin
2
*D2
70
1
10
0
20
0
30
0
3
*D2
0
LINE
5
11D
100
AcDbEntity
8
0
62
256
6
ByLayer
370
-2
48
1
60
0
100
AcDbLine
10
0
20
-6.5875
30
0
11
0
21
-31.941787
31
0
39
0
210
0
220
0
230
1
0
LINE
5
11E
100
AcDbEntity
8
0
62
256
6
ByLayer
370
-2
48
1
60
0
100
AcDbLine
10
112
20
-1.5875
30
0
11
112
21
-31.941787
31
0
39
0
210
0
220
0
230
1
0
LINE
5
11F
100
AcDbEntity
8
0
62
256
6
ByLayer
370
-2
48
1
60
0
100
AcDbLine
10
3.175
20
-28.766787
30
0
11
108.825
21
-28.766787
31
0
39
0
210
0
220
0
230
1
0
SOLID
5
120
100
AcDbEntity
8
0
62
256
6
ByLayer
370
-1
48
1
60
0
100
AcDbTrace
10
3.175
20
-28.23762
30
0
11
3.175
21
-29.295953
31
0
12
0
22
-28.766787
32
0
13
0
23
-28.766787
33
0
39
0
210
0
220
0
230
1
0
SOLID
5
121
100
AcDbEntity
8
0
62
256
6
ByLayer
370
-1
48
1
60
0
100
AcDbTrace
10
108.825
20
-29.295953
30
0
11
108.825
21
-28.23762
31
0
12
112
22
-28.766787
32
0
13
112
23
-28.766787
33
0
39
0
210
0
220
0
230
1
0
MTEXT
5
122
100
AcDbEntity
8
0
62
256
6
ByLayer
370
18
48
1
60
0
100
AcDbMText
10
56
20
-21.460286
30
0
210
0
220
0
230
1
1
\A1;112
40
3.50012
41
0
44
1
50
0
71
5
72
5
7
iso_b_vert
0
POINT
5
123
100
AcDbEntity
8
Defpoints
62
0
6
ByLayer
370
-1
48
1
60
0
100
AcDbPoint
10
0
20
-5
30
0
39
0
210
0
220
0
230
1
50
360
0
POINT
5
124
100
AcDbEntity
8
Defpoints
62
0
6
ByLayer
370
-1
48
1
60
0
100
AcDbPoint
10
112
20
0
30
0
39
0
210
0
220
0
230
1
50
360
0
POINT
5
125
100
AcDbEntity
8
Defpoints
62
0
6
ByLayer
370
-1
48
1
60
0
100
AcDbPoint
10
112
20
-28.766787
30
0
39
0
210
0
220
0
230
1
50
360
0
ENDBLK
5
11C
100
AcDbEntity
8
0
100
AcDbBlockEnd
0
BLOCK
5
133
100
AcDbEntity
8
0
100
AcDbBlockBegin
2
_U0
70
0
10
0
20
0
30
0
3
_U0
0
MTEXT
5
127
100
AcDbEntity
8
SK2
62
256
6
ByLayer
370
18
48
1
60
0
100
AcDbMText
10
50.337507
20
-27.734118
30
0
210
0
220
0
230
1
1
\W0.6532;112.00
40
3.50012
41
0
44
1.084337
50
0
71
7
72
5
7
iso_b_vert
0
MTEXT
5
128
100
AcDbEntity
8
SK2
62
256
6
ByLayer
370
18
48
1
60
0
100
AcDbMText
10
46.811448
20
-27.667481
30
0
210
0
220
0
230
1
1
\W0.1790;(
40
3.175
41
0
44
1.084337
50
0
71
7
72
5
7
iso_b_vert
0
MTEXT
5
129
100
AcDbEntity
8
SK2
62
256
6
ByLayer
370
18
48
1
60
0
100
AcDbMText
10
65.191274
20
-27.667481
30
0
210
0
220
0
230
1
1
\W0.1969;)
40
3.175
41
0
44
1.084337
50
0
71
7
72
5
7
iso_b_vert
0
LINE
5
12A
100
AcDbEntity
8
SK2
62
256
6
ByLayer
370
13
48
1
60
0
100
AcDbLine
10
0
20
-6.5875
30
0
11
0
21
-31.941787
31
0
39
0
210
0
220
0
230
1
0
LINE
5
12B
100
AcDbEntity
8
SK2
62
256
6
ByLayer
370
13
48
1
60
0
100
AcDbLine
10
112
20
-1.5875
30
0
11
112
21
-31.941787
31
0
39
0
210
0
220
0
230
1
0
LINE
5
12C
100
AcDbEntity
8
SK2
62
256
6
ByLayer
370
13
48
1
60
0
100
AcDbLine
10
0
20
-28.766787
30
0
11
112
21
-28.766787
31
0
39
0
210
0
220
0
230
1
0
LINE
5
12D
100
AcDbEntity
8
SK2
62
256
6
ByLayer
370
13
48
1
60
0
100
AcDbLine
10
0
20
-28.766787
30
0
11
3.174998
21
-28.34879
31
0
39
0
210
0
220
0
230
1
0
LINE
5
12E
100
AcDbEntity
8
SK2
62
256
6
ByLayer
370
13
48
1
60
0
100
AcDbLine
10
0
20
-28.766787
30
0
11
3.175002
21
-29.184783
31
0
39
0
210
0
220
0
230
1
0
LINE
5
12F
100
AcDbEntity
8
SK2
62
256
6
ByLayer
370
13
48
1
60
0
100
AcDbLine
10
3.174998
20
-28.34879
30
0
11
3.175002
21
-29.184783
31
0
39
0
210
0
220
0
230
1
0
LINE
5
130
100
AcDbEntity
8
SK2
62
256
6
ByLayer
370
13
48
1
60
0
100
AcDbLine
10
112
20
-28.766787
30
0
11
108.825002
21
-29.184783
31
0
39
0
210
0
220
0
230
1
0
LINE
5
131
100
AcDbEntity
8
SK2
62
256
6
ByLayer
370
13
48
1
60
0
100
AcDbLine
10
112
20
-28.766787
30
0
11
108.824998
21
-28.34879
31
0
39
0
210
0
220
0
230
1
0
LINE
5
132
100
AcDbEntity
8
SK2
62
256
6
ByLayer
370
13
48
1
60
0
100
AcDbLine
10
108.825002
20
-29.184783
30
0
11
108.824998
21
-28.34879
31
0
39
0
210
0
220
0
230
1
0
ENDBLK
5
134
100
AcDbEntity
8
0
100
AcDbBlockEnd
0
BLOCK
5
139
100
AcDbEntity
8
0
100
AcDbBlockBegin
2
*D4
70
1
10
0
20
0
30
0
3
*D4
0
LINE
5
13B
100
AcDbEntity
8
0
62
256
6
ByLayer
370
-2
48
1
60
0
100
AcDbLine
10
111.8222
20
-4.85
30
0
11
121.92506
21
-4.85
31
0
39
0
210
0
220
0
230
1
0
LINE
5
13C
100
AcDbEntity
8
0
62
256
6
ByLayer
370
-2
48
1
60
0
100
AcDbLine
10
111.8222
20
4.85
30
0
11
121.92506
21
4.85
31
0
39
0
210
0
220
0
230
1
0
LINE
5
13D
100
AcDbEntity
8
0
62
256
6
ByLayer
370
-2
48
1
60
0
100
AcDbLine
10
118.75006
20
4.85
30
0
11
118.75006
21
29.646466
31
0
39
0
210
0
220
0
230
1
0
LINE
5
13E
100
AcDbEntity
8
0
62
256
6
ByLayer
370
-2
48
1
60
0
100
AcDbLine
10
118.75006
20
-8.025
30
0
11
118.75006
21
-11.2
31
0
39
0
210
0
220
0
230
1
0
LINE
5
13F
100
AcDbEntity
8
0
62
256
6
ByLayer
370
-2
48
1
60
0
100
AcDbLine
10
118.75006
20
8.025
30
0
11
118.75006
21
11.2
31
0
39
0
210
0
220
0
230
1
0
SOLID
5
140
100
AcDbEntity
8
0
62
256
6
ByLayer
370
-1
48
1
60
0
100
AcDbTrace
10
119.279227
20
-8.025
30
0
11
118.220893
21
-8.025
31
0
12
118.75006
22
-4.85
32
0
13
118.75006
23
-4.85
33
0
39
0
210
0
220
0
230
1
0
SOLID
5
141
100
AcDbEntity
8
0
62
256
6
ByLayer
370
-1
48
1
60
0
100
AcDbTrace
10
118.220893
20
8.025
30
0
11
119.279227
21
8.025
31
0
12
118.75006
22
4.85
32
0
13
118.75006
23
4.85
33
0
39
0
210
0
220
0
230
1
0
MTEXT
5
142
100
AcDbEntity
8
0
62
256
6
ByLayer
370
18
48
1
60
0
100
AcDbMText
10
111.443559
20
20.423233
30
0
210
0
220
0
230
1
1
\A1;9.7
40
3.50012
41
0
44
1
50
90
71
5
72
5
7
iso_b_vert
0
POINT
5
143
100
AcDbEntity
8
Defpoints
62
0
6
ByLayer
370
-1
48
1
60
0
100
AcDbPoint
10
110.2347
20
-4.85
30
0
39
0
210
0
220
0
230
1
50
360
0
POINT
5
144
100
AcDbEntity
8
Defpoints
62
0
6
ByLayer
370
-1
48
1
60
0
100
AcDbPoint
10
110.2347
20
4.85
30
0
39
0
210
0
220
0
230
1
50
360
0
POINT
5
145
100
AcDbEntity
8
Defpoints
62
0
6
ByLayer
370
-1
48
1
60
0
100
AcDbPoint
10
118.75006
20
4.85
30
0
39
0
210
0
220
0
230
1
50
360
0
ENDBLK
5
13A
100
AcDbEntity
8
0
100
AcDbBlockEnd
0
BLOCK
5
152
100
AcDbEntity
8
0
100
AcDbBlockBegin
2
_U1
70
0
10
0
20
0
30
0
3
_U1
0
MTEXT
5
148
100
AcDbEntity
8
2
62
256
6
ByLayer
370
18
48
1
60
0
100
AcDbMText
10
118.060403
20
9.007505
30
0
210
0
220
0
230
1
1
\W0.7346;9.70
40
3.50012
41
0
44
1.084337
50
90
71
7
72
5
7
iso_b_vert
0
LINE
5
149
100
AcDbEntity
8
2
62
256
6
ByLayer
370
13
48
1
60
0
100
AcDbLine
10
111.8222
20
-4.85
30
0
11
121.92506
21
-4.85
31
0
39
0
210
0
220
0
230
1
0
LINE
5
14A
100
AcDbEntity
8
2
62
256
6
ByLayer
370
13
48
1
60
0
100
AcDbLine
10
111.8222
20
4.85
30
0
11
121.92506
21
4.85
31
0
39
0
210
0
220
0
230
1
0
LINE
5
14B
100
AcDbEntity
8
2
62
256
6
ByLayer
370
13
48
1
60
0
100
AcDbLine
10
118.75006
20
-4.85
30
0
11
118.75006
21
17.06468
31
0
39
0
210
0
220
0
230
1
0
LINE
5
14C
100
AcDbEntity
8
2
62
256
6
ByLayer
370
13
48
1
60
0
100
AcDbLine
10
118.75006
20
-4.85
30
0
11
118.332063
21
-1.675002
31
0
39
0
210
0
220
0
230
1
0
LINE
5
14D
100
AcDbEntity
8
2
62
256
6
ByLayer
370
13
48
1
60
0
100
AcDbLine
10
118.75006
20
-4.85
30
0
11
119.168057
21
-1.674998
31
0
39
0
210
0
220
0
230
1
0
LINE
5
14E
100
AcDbEntity
8
2
62
256
6
ByLayer
370
13
48
1
60
0
100
AcDbLine
10
118.332063
20
-1.675002
30
0
11
119.168057
21
-1.674998
31
0
39
0
210
0
220
0
230
1
0
LINE
5
14F
100
AcDbEntity
8
2
62
256
6
ByLayer
370
13
48
1
60
0
100
AcDbLine
10
118.75006
20
4.85
30
0
11
119.168057
21
1.675002
31
0
39
0
210
0
220
0
230
1
0
LINE
5
150
100
AcDbEntity
8
2
62
256
6
ByLayer
370
13
48
1
60
0
100
AcDbLine
10
118.75006
20
4.85
30
0
11
118.332063
21
1.674998
31
0
39
0
210
0
220
0
230
1
0
LINE
5
151
100
AcDbEntity
8
2
62
256
6
ByLayer
370
13
48
1
60
0
100
AcDbLine
10
119.168057
20
1.675002
30
0
11
118.332063
21
1.674998
31
0
39
0
210
0
220
0
230
1
0
ENDBLK
5
153
100
AcDbEntity
8
0
100
AcDbBlockEnd
0
BLOCK
5
158
100
AcDbEntity
8
0
100
AcDbBlockBegin
2
*D6
70
1
10
0
20
0
30
0
3
*D6
0
LINE
5
15A
100
AcDbEntity
8
0
62
256
6
ByLayer
370
-2
48
1
60
0
100
AcDbLine
10
-41.5875
20
5
30
0
11
-46.491607
21
5
31
0
39
0
210
0
220
0
230
1
0
LINE
5
15B
100
AcDbEntity
8
0
62
256
6
ByLayer
370
-2
48
1
60
0
100
AcDbLine
10
-41.5875
20
-5
30
0
11
-46.491607
21
-5
31
0
39
0
210
0
220
0
230
1
0
LINE
5
15C
100
AcDbEntity
8
0
62
256
6
ByLayer
370
-2
48
1
60
0
100
AcDbLine
10
-43.316607
20
5
30
0
11
-43.316607
21
28.250865
31
0
39
0
210
0
220
0
230
1
0
LINE
5
15D
100
AcDbEntity
8
0
62
256
6
ByLayer
370
-2
48
1
60
0
100
AcDbLine
10
-43.316607
20
8.175
30
0
11
-43.316607
21
11.35
31
0
39
0
210
0
220
0
230
1
0
LINE
5
15E
100
AcDbEntity
8
0
62
256
6
ByLayer
370
-2
48
1
60
0
100
AcDbLine
10
-43.316607
20
-8.175
30
0
11
-43.316607
21
-11.35
31
0
39
0
210
0
220
0
230
1
0
SOLID
5
15F
100
AcDbEntity
8
0
62
256
6
ByLayer
370
-1
48
1
60
0
100
AcDbTrace
10
-43.845773
20
8.175
30
0
11
-42.78744
21
8.175
31
0
12
-43.316607
22
5
32
0
13
-43.316607
23
5
33
0
39
0
210
0
220
0
230
1
0
SOLID
5
160
100
AcDbEntity
8
0
62
256
6
ByLayer
370
-1
48
1
60
0
100
AcDbTrace
10
-42.78744
20
-8.175
30
0
11
-43.845773
21
-8.175
31
0
12
-43.316607
22
-5
32
0
13
-43.316607
23
-5
33
0
39
0
210
0
220
0
230
1
0
MTEXT
5
161
100
AcDbEntity
8
0
62
256
6
ByLayer
370
18
48
1
60
0
100
AcDbMText
10
-50.623107
20
20.111003
30
0
210
0
220
0
230
1
1
\A1;10
40
3.50012
41
0
44
1
50
90
71
5
72
5
7
iso_b_vert
0
POINT
5
162
100
AcDbEntity
8
Defpoints
62
0
6
ByLayer
370
-1
48
1
60
0
100
AcDbPoint
10
-40
20
5
30
0
39
0
210
0
220
0
230
1
50
360
0
POINT
5
163
100
AcDbEntity
8
Defpoints
62
0
6
ByLayer
370
-1
48
1
60
0
100
AcDbPoint
10
-40
20
-5
30
0
39
0
210
0
220
0
230
1
50
360
0
POINT
5
164
100
AcDbEntity
8
Defpoints
62
0
6
ByLayer
370
-1
48
1
60
0
100
AcDbPoint
10
-43.316607
20
-5
30
0
39
0
210
0
220
0
230
1
50
360
0
ENDBLK
5
159
100
AcDbEntity
8
0
100
AcDbBlockEnd
0
BLOCK
5
170
100
AcDbEntity
8
0
100
AcDbBlockBegin
2
_U2
70
0
10
0
20
0
30
0
3
_U2
0
MTEXT
5
166
100
AcDbEntity
8
SK2
62
256
6
ByLayer
370
18
48
1
60
0
100
AcDbMText
10
-44.006264
20
15.290839
30
0
210
0
220
0
230
1
1
\W0.6864;10.00
40
3.50012
41
0
44
1.084337
50
90
71
7
72
5
7
iso_b_vert
0
LINE
5
167
100
AcDbEntity
8
SK2
62
256
6
ByLayer
370
13
48
1
60
0
100
AcDbLine
10
-41.5875
20
5
30
0
11
-46.491607
21
5
31
0
39
0
210
0
220
0
230
1
0
LINE
5
168
100
AcDbEntity
8
SK2
62
256
6
ByLayer
370
13
48
1
60
0
100
AcDbLine
10
-41.5875
20
-5
30
0
11
-46.491607
21
-5
31
0
39
0
210
0
220
0
230
1
0
LINE
5
169
100
AcDbEntity
8
SK2
62
256
6
ByLayer
370
13
48
1
60
0
100
AcDbLine
10
-43.316607
20
-5
30
0
11
-43.316607
21
25.088672
31
0
39
0
210
0
220
0
230
1
0
LINE
5
16A
100
AcDbEntity
8
SK2
62
256
6
ByLayer
370
13
48
1
60
0
100
AcDbLine
10
-43.316607
20
5
30
0
11
-42.89861
21
1.825002
31
0
39
0
210
0
220
0
230
1
0
LINE
5
16B
100
AcDbEntity
8
SK2
62
256
6
ByLayer
370
13
48
1
60
0
100
AcDbLine
10
-43.316607
20
5
30
0
11
-43.734603
21
1.824998
31
0
39
0
210
0
220
0
230
1
0
LINE
5
16C
100
AcDbEntity
8
SK2
62
256
6
ByLayer
370
13
48
1
60
0
100
AcDbLine
10
-42.89861
20
1.825002
30
0
11
-43.734603
21
1.824998
31
0
39
0
210
0
220
0
230
1
0
LINE
5
16D
100
AcDbEntity
8
SK2
62
256
6
ByLayer
370
13
48
1
60
0
100
AcDbLine
10
-43.316607
20
-5
30
0
11
-43.734603
21
-1.825002
31
0
39
0
210
0
220
0
230
1
0
LINE
5
16E
100
AcDbEntity
8
SK2
62
256
6
ByLayer
370
13
48
1
60
0
100
AcDbLine
10
-43.316607
20
-5
30
0
11
-42.89861
21
-1.824998
31
0
39
0
210
0
220
0
230
1
0
LINE
5
16F
100
AcDbEntity
8
SK2
62
256
6
ByLayer
370
13
48
1
60
0
100
AcDbLine
10
-43.734603
20
-1.825002
30
0
11
-42.89861
21
-1.824998
31
0
39
0
210
0
220
0
230
1
0
ENDBLK
5
171
100
AcDbEntity
8
0
100
AcDbBlockEnd
0
BLOCK
5
176
100
AcDbEntity
8
0
100
AcDbBlockBegin
2
*D8
70
1
10
0
20
0
30
0
3
*D8
0
LINE
5
178
100
AcDbEntity
8
0
62
256
6
ByLayer
370
-2
48
1
60
0
100
AcDbLine
10
-40
20
-6.5875
30
0
11
-40
21
-31.941787
31
0
39
0
210
0
220
0
230
1
0
LINE
5
179
100
AcDbEntity
8
0
62
256
6
ByLayer
370
-2
48
1
60
0
100
AcDbLine
10
0
20
-6.5875
30
0
11
0
21
-31.941787
31
0
39
0
210
0
220
0
230
1
0
LINE
5
17A
100
AcDbEntity
8
0
62
256
6
ByLayer
370
-2
48
1
60
0
100
AcDbLine
10
-36.825
20
-28.766787
30
0
11
-3.175
21
-28.766787
31
0
39
0
210
0
220
0
230
1
0
SOLID
5
17B
100
AcDbEntity
8
0
62
256
6
ByLayer
370
-1
48
1
60
0
100
AcDbTrace
10
-36.825
20
-28.23762
30
0
11
-36.825
21
-29.295953
31
0
12
-40
22
-28.766787
32
0
13
-40
23
-28.766787
33
0
39
0
210
0
220
0
230
1
0
SOLID
5
17C
100
AcDbEntity
8
0
62
256
6
ByLayer
370
-1
48
1
60
0
100
AcDbTrace
10
-3.175
20
-29.295953
30
0
11
-3.175
21
-28.23762
31
0
12
0
22
-28.766787
32
0
13
0
23
-28.766787
33
0
39
0
210
0
220
0
230
1
0
MTEXT
5
17D
100
AcDbEntity
8
0
62
256
6
ByLayer
370
18
48
1
60
0
100
AcDbMText
10
-20
20
-21.460286
30
0
210
0
220
0
230
1
1
\A1;40
40
3.50012
41
0
44
1
50
0
71
5
72
5
7
iso_b_vert
0
POINT
5
17E
100
AcDbEntity
8
Defpoints
62
0
6
ByLayer
370
-1
48
1
60
0
100
AcDbPoint
10
-40
20
-5
30
0
39
0
210
0
220
0
230
1
50
360
0
POINT
5
17F
100
AcDbEntity
8
Defpoints
62
0
6
ByLayer
370
-1
48
1
60
0
100
AcDbPoint
10
0
20
-5
30
0
39
0
210
0
220
0
230
1
50
360
0
POINT
5
180
100
AcDbEntity
8
Defpoints
62
0
6
ByLayer
370
-1
48
1
60
0
100
AcDbPoint
10
0
20
-28.766787
30
0
39
0
210
0
220
0
230
1
50
360
0
ENDBLK
5
177
100
AcDbEntity
8
0
100
AcDbBlockEnd
0
BLOCK
5
18C
100
AcDbEntity
8
0
100
AcDbBlockBegin
2
_U3
70
0
10
0
20
0
30
0
3
_U3
0
MTEXT
5
182
100
AcDbEntity
8
SK2
62
256
6
ByLayer
370
18
48
1
60
0
100
AcDbMText
10
-25.413884
20
-27.734118
30
0
210
0
220
0
230
1
1
\W0.7694;40.00
40
3.50012
41
0
44
1.084337
50
0
71
7
72
5
7
iso_b_vert
0
LINE
5
183
100
AcDbEntity
8
SK2
62
256
6
ByLayer
370
13
48
1
60
0
100
AcDbLine
10
-40
20
-6.5875
30
0
11
-40
21
-31.941787
31
0
39
0
210
0
220
0
230
1
0
LINE
5
184
100
AcDbEntity
8
SK2
62
256
6
ByLayer
370
13
48
1
60
0
100
AcDbLine
10
0
20
-6.5875
30
0
11
0
21
-31.941787
31
0
39
0
210
0
220
0
230
1
0
LINE
5
185
100
AcDbEntity
8
SK2
62
256
6
ByLayer
370
13
48
1
60
0
100
AcDbLine
10
-40
20
-28.766787
30
0
11
0
21
-28.766787
31
0
39
0
210
0
220
0
230
1
0
LINE
5
186
100
AcDbEntity
8
SK2
62
256
6
ByLayer
370
13
48
1
60
0
100
AcDbLine
10
-40
20
-28.766787
30
0
11
-36.825002
21
-28.34879
31
0
39
0
210
0
220
0
230
1
0
LINE
5
187
100
AcDbEntity
8
SK2
62
256
6
ByLayer
370
13
48
1
60
0
100
AcDbLine
10
-40
20
-28.766787
30
0
11
-36.824998
21
-29.184783
31
0
39
0
210
0
220
0
230
1
0
LINE
5
188
100
AcDbEntity
8
SK2
62
256
6
ByLayer
370
13
48
1
60
0
100
AcDbLine
10
-36.825002
20
-28.34879
30
0
11
-36.824998
21
-29.184783
31
0
39
0
210
0
220
0
230
1
0
LINE
5
189
100
AcDbEntity
8
SK2
62
256
6
ByLayer
370
13
48
1
60
0
100
AcDbLine
10
0
20
-28.766787
30
0
11
-3.174998
21
-29.184783
31
0
39
0
210
0
220
0
230
1
0
LINE
5
18A
100
AcDbEntity
8
SK2
62
256
6
ByLayer
370
13
48
1
60
0
100
AcDbLine
10
0
20
-28.766787
30
0
11
-3.175002
21
-28.34879
31
0
39
0
210
0
220
0
230
1
0
LINE
5
18B
100
AcDbEntity
8
SK2
62
256
6
ByLayer
370
13
48
1
60
0
100
AcDbLine
10
-3.174998
20
-29.184783
30
0
11
-3.175002
21
-28.34879
31
0
39
0
210
0
220
0
230
1
0
ENDBLK
5
18D
100
AcDbEntity
8
0
100
AcDbBlockEnd
0
BLOCK
5
192
100
AcDbEntity
8
0
100
AcDbBlockBegin
2
*D10
70
1
10
0
20
0
30
0
3
*D10
0
LINE
5
194
100
AcDbEntity
8
0
62
256
6
ByLayer
370
-2
48
1
60
0
100
AcDbLine
10
6
20
3.7625
30
0
11
6
21
-23.191487
31
0
39
0
210
0
220
0
230
1
0
LINE
5
195
100
AcDbEntity
8
0
62
256
6
ByLayer
370
-2
48
1
60
0
100
AcDbLine
10
112
20
-1.5875
30
0
11
112
21
-23.191487
31
0
39
0
210
0
220
0
230
1
0
LINE
5
196
100
AcDbEntity
8
0
62
256
6
ByLayer
370
-2
48
1
60
0
100
AcDbLine
10
9.175
20
-20.016487
30
0
11
108.825
21
-20.016487
31
0
39
0
210
0
220
0
230
1
0
SOLID
5
197
100
AcDbEntity
8
0
62
256
6
ByLayer
370
-1
48
1
60
0
100
AcDbTrace
10
9.175
20
-19.48732
30
0
11
9.175
21
-20.545653
31
0
12
6
22
-20.016487
32
0
13
6
23
-20.016487
33
0
39
0
210
0
220
0
230
1
0
SOLID
5
198
100
AcDbEntity
8
0
62
256
6
ByLayer
370
-1
48
1
60
0
100
AcDbTrace
10
108.825
20
-20.545653
30
0
11
108.825
21
-19.48732
31
0
12
112
22
-20.016487
32
0
13
112
23
-20.016487
33
0
39
0
210
0
220
0
230
1
0
MTEXT
5
199
100
AcDbEntity
8
0
62
256
6
ByLayer
370
18
48
1
60
0
100
AcDbMText
10
59
20
-12.709986
30
0
210
0
220
0
230
1
1
\A1;106
40
3.50012
41
0
44
1
50
0
71
5
72
5
7
iso_b_vert
0
POINT
5
19A
100
AcDbEntity
8
Defpoints
62
0
6
ByLayer
370
-1
48
1
60
0
100
AcDbPoint
10
6
20
5.35
30
0
39
0
210
0
220
0
230
1
50
360
0
POINT
5
19B
100
AcDbEntity
8
Defpoints
62
0
6
ByLayer
370
-1
48
1
60
0
100
AcDbPoint
10
112
20
0
30
0
39
0
210
0
220
0
230
1
50
360
0
POINT
5
19C
100
AcDbEntity
8
Defpoints
62
0
6
ByLayer
370
-1
48
1
60
0
100
AcDbPoint
10
112
20
-20.016487
30
0
39
0
210
0
220
0
230
1
50
360
0
ENDBLK
5
193
100
AcDbEntity
8
0
100
AcDbBlockEnd
0
BLOCK
5
1A8
100
AcDbEntity
8
0
100
AcDbBlockBegin
2
_U4
70
0
10
0
20
0
30
0
3
_U4
0
MTEXT
5
19E
100
AcDbEntity
8
SK2
62
256
6
ByLayer
370
18
48
1
60
0
100
AcDbMText
10
52.900059
20
-18.983818
30
0
210
0
220
0
230
1
1
\W0.7022;106.00
40
3.50012
41
0
44
1.084337
50
0
71
7
72
5
7
iso_b_vert
0
LINE
5
19F
100
AcDbEntity
8
SK2
62
256
6
ByLayer
370
13
48
1
60
0
100
AcDbLine
10
6
20
3.7625
30
0
11
6
21
-23.191487
31
0
39
0
210
0
220
0
230
1
0
LINE
5
1A0
100
AcDbEntity
8
SK2
62
256
6
ByLayer
370
13
48
1
60
0
100
AcDbLine
10
112
20
-1.5875
30
0
11
112
21
-23.191487
31
0
39
0
210
0
220
0
230
1
0
LINE
5
1A1
100
AcDbEntity
8
SK2
62
256
6
ByLayer
370
13
48
1
60
0
100
AcDbLine
10
6
20
-20.016487
30
0
11
112
21
-20.016487
31
0
39
0
210
0
220
0
230
1
0
LINE
5
1A2
100
AcDbEntity
8
SK2
62
256
6
ByLayer
370
13
48
1
60
0
100
AcDbLine
10
6
20
-20.016487
30
0
11
9.174998
21
-19.59849
31
0
39
0
210
0
220
0
230
1
0
LINE
5
1A3
100
AcDbEntity
8
SK2
62
256
6
ByLayer
370
13
48
1
60
0
100
AcDbLine
10
6
20
-20.016487
30
0
11
9.175002
21
-20.434483
31
0
39
0
210
0
220
0
230
1
0
LINE
5
1A4
100
AcDbEntity
8
SK2
62
256
6
ByLayer
370
13
48
1
60
0
100
AcDbLine
10
9.174998
20
-19.59849
30
0
11
9.175002
21
-20.434483
31
0
39
0
210
0
220
0
230
1
0
LINE
5
1A5
100
AcDbEntity
8
SK2
62
256
6
ByLayer
370
13
48
1
60
0
100
AcDbLine
10
112
20
-20.016487
30
0
11
108.825002
21
-20.434483
31
0
39
0
210
0
220
0
230
1
0
LINE
5
1A6
100
AcDbEntity
8
SK2
62
256
6
ByLayer
370
13
48
1
60
0
100
AcDbLine
10
112
20
-20.016487
30
0
11
108.824998
21
-19.59849
31
0
39
0
210
0
220
0
230
1
0
LINE
5
1A7
100
AcDbEntity
8
SK2
62
256
6
ByLayer
370
13
48
1
60
0
100
AcDbLine
10
108.825002
20
-20.434483
30
0
11
108.824998
21
-19.59849
31
0
39
0
210
0
220
0
230
1
0
ENDBLK
5
1A9
100
AcDbEntity
8
0
100
AcDbBlockEnd
0
BLOCK
5
1AE
100
AcDbEntity
8
0
100
AcDbBlockBegin
2
*D12
70
1
10
0
20
0
30
0
3
*D12
0
LINE
5
1B0
100
AcDbEntity
8
0
62
256
6
ByLayer
370
-2
48
1
60
0
100
AcDbLine
10
32.7
20
-6.4375
30
0
11
32.7
21
-12.386667
31
0
39
0
210
0
220
0
230
1
0
LINE
5
1B1
100
AcDbEntity
8
0
62
256
6
ByLayer
370
-2
48
1
60
0
100
AcDbLine
10
112
20
-1.5875
30
0
11
112
21
-12.386667
31
0
39
0
210
0
220
0
230
1
0
LINE
5
1B2
100
AcDbEntity
8
0
62
256
6
ByLayer
370
-2
48
1
60
0
100
AcDbLine
10
35.875
20
-11.886667
30
0
11
108.825
21
-11.886667
31
0
39
0
210
0
220
0
230
1
0
SOLID
5
1B3
100
AcDbEntity
8
0
62
256
6
ByLayer
370
-1
48
1
60
0
100
AcDbTrace
10
35.875
20
-11.3575
30
0
11
35.875
21
-12.415833
31
0
12
32.7
22
-11.886667
32
0
13
32.7
23
-11.886667
33
0
39
0
210
0
220
0
230
1
0
SOLID
5
1B4
100
AcDbEntity
8
0
62
256
6
ByLayer
370
-1
48
1
60
0
100
AcDbTrace
10
108.825
20
-12.415833
30
0
11
108.825
21
-11.3575
31
0
12
112
22
-11.886667
32
0
13
112
23
-11.886667
33
0
39
0
210
0
220
0
230
1
0
MTEXT
5
1B5
100
AcDbEntity
8
0
62
256
6
ByLayer
370
18
48
1
60
0
100
AcDbMText
10
72.35
20
-6.041667
30
0
210
0
220
0
230
1
1
\A1;79.3
40
2.8
41
0
44
1
50
0
71
5
72
5
7
iso_b_vert
0
POINT
5
1B6
100
AcDbEntity
8
Defpoints
62
0
6
ByLayer
370
-1
48
1
60
0
100
AcDbPoint
10
32.7
20
-4.85
30
0
39
0
210
0
220
0
230
1
50
360
0
POINT
5
1B7
100
AcDbEntity
8
Defpoints
62
0
6
ByLayer
370
-1
48
1
60
0
100
AcDbPoint
10
112
20
0
30
0
39
0
210
0
220
0
230
1
50
360
0
POINT
5
1B8
100
AcDbEntity
8
Defpoints
62
0
6
ByLayer
370
-1
48
1
60
0
100
AcDbPoint
10
112
20
-11.886667
30
0
39
0
210
0
220
0
230
1
50
360
0
ENDBLK
5
1AF
100
AcDbEntity
8
0
100
AcDbBlockEnd
0
BLOCK
5
1C4
100
AcDbEntity
8
0
100
AcDbBlockBegin
2
_U5
70
0
10
0
20
0
30
0
3
_U5
0
MTEXT
5
1BA
100
AcDbEntity
8
SK2
62
256
6
ByLayer
370
18
48
1
60
0
100
AcDbMText
10
68.166454
20
-12.04056
30
0
210
0
220
0
230
1
1
\W0.7468;79.30
40
2.8
41
0
44
1.084337
50
0
71
7
72
5
7
iso_b_vert
0
LINE
5
1BB
100
AcDbEntity
8
SK2
62
256
6
ByLayer
370
13
48
1
60
0
100
AcDbLine
10
32.7
20
-6.4375
30
0
11
32.7
21
-12.386667
31
0
39
0
210
0
220
0
230
1
0
LINE
5
1BC
100
AcDbEntity
8
SK2
62
256
6
ByLayer
370
13
48
1
60
0
100
AcDbLine
10
112
20
-1.5875
30
0
11
112
21
-12.386667
31
0
39
0
210
0
220
0
230
1
0
LINE
5
1BD
100
AcDbEntity
8
SK2
62
256
6
ByLayer
370
13
48
1
60
0
100
AcDbLine
10
32.7
20
-11.886667
30
0
11
112
21
-11.886667
31
0
39
0
210
0
220
0
230
1
0
LINE
5
1BE
100
AcDbEntity
8
SK2
62
256
6
ByLayer
370
13
48
1
60
0
100
AcDbLine
10
32.7
20
-11.886667
30
0
11
35.874998
21
-11.46867
31
0
39
0
210
0
220
0
230
1
0
LINE
5
1BF
100
AcDbEntity
8
SK2
62
256
6
ByLayer
370
13
48
1
60
0
100
AcDbLine
10
32.7
20
-11.886667
30
0
11
35.875002
21
-12.304663
31
0
39
0
210
0
220
0
230
1
0
LINE
5
1C0
100
AcDbEntity
8
SK2
62
256
6
ByLayer
370
13
48
1
60
0
100
AcDbLine
10
35.874998
20
-11.46867
30
0
11
35.875002
21
-12.304663
31
0
39
0
210
0
220
0
230
1
0
LINE
5
1C1
100
AcDbEntity
8
SK2
62
256
6
ByLayer
370
13
48
1
60
0
100
AcDbLine
10
112
20
-11.886667
30
0
11
108.825002
21
-12.304663
31
0
39
0
210
0
220
0
230
1
0
LINE
5
1C2
100
AcDbEntity
8
SK2
62
256
6
ByLayer
370
13
48
1
60
0
100
AcDbLine
10
112
20
-11.886667
30
0
11
108.824998
21
-11.46867
31
0
39
0
210
0
220
0
230
1
0
LINE
5
1C3
100
AcDbEntity
8
SK2
62
256
6
ByLayer
370
13
48
1
60
0
100
AcDbLine
10
108.825002
20
-12.304663
30
0
11
108.824998
21
-11.46867
31
0
39
0
210
0
220
0
230
1
0
ENDBLK
5
1C5
100
AcDbEntity
8
0
100
AcDbBlockEnd
0
BLOCK
5
1CA
100
AcDbEntity
8
0
100
AcDbBlockBegin
2
*D14
70
1
10
0
20
0
30
0
3
*D14
0
LINE
5
1CC
100
AcDbEntity
8
0
62
256
6
ByLayer
370
-2
48
1
60
0
100
AcDbLine
10
-40
20
-1.5875
30
0
11
-40
21
-42.07512
31
0
39
0
210
0
220
0
230
1
0
LINE
5
1CD
100
AcDbEntity
8
0
62
256
6
ByLayer
370
-2
48
1
60
0
100
AcDbLine
10
112
20
-1.5875
30
0
11
112
21
-42.07512
31
0
39
0
210
0
220
0
230
1
0
LINE
5
1CE
100
AcDbEntity
8
0
62
256
6
ByLayer
370
-2
48
1
60
0
100
AcDbLine
10
-36.825
20
-38.90012
30
0
11
108.825
21
-38.90012
31
0
39
0
210
0
220
0
230
1
0
SOLID
5
1CF
100
AcDbEntity
8
0
62
256
6
ByLayer
370
-1
48
1
60
0
100
AcDbTrace
10
-36.825
20
-38.370953
30
0
11
-36.825
21
-39.429287
31
0
12
-40
22
-38.90012
32
0
13
-40
23
-38.90012
33
0
39
0
210
0
220
0
230
1
0
SOLID
5
1D0
100
AcDbEntity
8
0
62
256
6
ByLayer
370
-1
48
1
60
0
100
AcDbTrace
10
108.825
20
-39.429287
30
0
11
108.825
21
-38.370953
31
0
12
112
22
-38.90012
32
0
13
112
23
-38.90012
33
0
39
0
210
0
220
0
230
1
0
MTEXT
5
1D1
100
AcDbEntity
8
0
62
256
6
ByLayer
370
18
48
1
60
0
100
AcDbMText
10
36
20
-31.593619
30
0
210
0
220
0
230
1
1
\A1;152
40
3.50012
41
0
44
1
50
0
71
5
72
5
7
iso_b_vert
0
POINT
5
1D2
100
AcDbEntity
8
Defpoints
62
0
6
ByLayer
370
-1
48
1
60
0
100
AcDbPoint
10
-40
20
0
30
0
39
0
210
0
220
0
230
1
50
360
0
POINT
5
1D3
100
AcDbEntity
8
Defpoints
62
0
6
ByLayer
370
-1
48
1
60
0
100
AcDbPoint
10
112
20
0
30
0
39
0
210
0
220
0
230
1
50
360
0
POINT
5
1D4
100
AcDbEntity
8
Defpoints
62
0
6
ByLayer
370
-1
48
1
60
0
100
AcDbPoint
10
112
20
-38.90012
30
0
39
0
210
0
220
0
230
1
50
360
0
ENDBLK
5
1CB
100
AcDbEntity
8
0
100
AcDbBlockEnd
0
BLOCK
5
1E0
100
AcDbEntity
8
0
100
AcDbBlockBegin
2
_U6
70
0
10
0
20
0
30
0
3
_U6
0
MTEXT
5
1D6
100
AcDbEntity
8
SK2
62
256
6
ByLayer
370
18
48
1
60
0
100
AcDbMText
10
29.900059
20
-37.867451
30
0
210
0
220
0
230
1
1
\W0.7022;152.00
40
3.50012
41
0
44
1.084337
50
0
71
7
72
5
7
iso_b_vert
0
LINE
5
1D7
100
AcDbEntity
8
SK2
62
256
6
ByLayer
370
13
48
1
60
0
100
AcDbLine
10
-40
20
-1.5875
30
0
11
-40
21
-42.07512
31
0
39
0
210
0
220
0
230
1
0
LINE
5
1D8
100
AcDbEntity
8
SK2
62
256
6
ByLayer
370
13
48
1
60
0
100
AcDbLine
10
112
20
-1.5875
30
0
11
112
21
-42.07512
31
0
39
0
210
0
220
0
230
1
0
LINE
5
1D9
100
AcDbEntity
8
SK2
62
256
6
ByLayer
370
13
48
1
60
0
100
AcDbLine
10
-40
20
-38.90012
30
0
11
112
21
-38.90012
31
0
39
0
210
0
220
0
230
1
0
LINE
5
1DA
100
AcDbEntity
8
SK2
62
256
6
ByLayer
370
13
48
1
60
0
100
AcDbLine
10
-40
20
-38.90012
30
0
11
-36.825002
21
-38.482123
31
0
39
0
210
0
220
0
230
1
0
LINE
5
1DB
100
AcDbEntity
8
SK2
62
256
6
ByLayer
370
13
48
1
60
0
100
AcDbLine
10
-40
20
-38.90012
30
0
11
-36.824998
21
-39.318117
31
0
39
0
210
0
220
0
230
1
0
LINE
5
1DC
100
AcDbEntity
8
SK2
62
256
6
ByLayer
370
13
48
1
60
0
100
AcDbLine
10
-36.825002
20
-38.482123
30
0
11
-36.824998
21
-39.318117
31
0
39
0
210
0
220
0
230
1
0
LINE
5
1DD
100
AcDbEntity
8
SK2
62
256
6
ByLayer
370
13
48
1
60
0
100
AcDbLine
10
112
20
-38.90012
30
0
11
108.825002
21
-39.318117
31
0
39
0
210
0
220
0
230
1
0
LINE
5
1DE
100
AcDbEntity
8
SK2
62
256
6
ByLayer
370
13
48
1
60
0
100
AcDbLine
10
112
20
-38.90012
30
0
11
108.824998
21
-38.482123
31
0
39
0
210
0
220
0
230
1
0
LINE
5
1DF
100
AcDbEntity
8
SK2
62
256
6
ByLayer
370
13
48
1
60
0
100
AcDbLine
10
108.825002
20
-39.318117
30
0
11
108.824998
21
-38.482123
31
0
39
0
210
0
220
0
230
1
0
ENDBLK
5
1E1
100
AcDbEntity
8
0
100
AcDbBlockEnd
0
ENDSEC
0
SECTION
2
ENTITIES
0
ARC
5
B6
100
AcDbEntity
8
1
62
256
6
ByLayer
370
18
48
1
60
0
100
AcDbCircle
39
0
10
0.356541
20
4.981325
30
0
40
0.200000000000002
210
0
220
0
230
1
100
AcDbArc
50
206.956427
51
270.03581
0
ARC
5
B7
100
AcDbEntity
8
1
62
256
6
ByLayer
370
18
48
1
60
0
100
AcDbCircle
39
0
10
0.356541
20
-4.981325
30
0
40
0.200000000000002
210
0
220
0
230
1
100
AcDbArc
50
89.96419
51
153.043573
0
ARC
5
B8
100
AcDbEntity
8
1
62
256
6
ByLayer
370
18
48
1
60
0
100
AcDbCircle
39
0
10
0
20
4.8
30
0
40
0.200000000000003
210
0
220
0
230
1
100
AcDbArc
50
26.956427
51
90
0
ARC
5
B9
100
AcDbEntity
8
1
62
256
6
ByLayer
370
18
48
1
60
0
100
AcDbCircle
39
0
10
0
20
-4.8
30
0
40
0.200000000000003
210
0
220
0
230
1
100
AcDbArc
50
270
51
333.043573
0
ARC
5
BA
100
AcDbEntity
8
SK2
62
256
6
ByLayer
370
13
48
1
60
0
100
AcDbCircle
39
0
10
112
20
0
30
0
40
20.2666666666666
210
0
220
0
230
1
100
AcDbArc
50
9.478775
51
69.999537
0
ARC
5
BB
100
AcDbEntity
8
SK2
62
256
6
ByLayer
370
13
48
1
60
0
100
AcDbCircle
39
0
10
112
20
0
30
0
40
20.2666666666666
210
0
220
0
230
1
100
AcDbArc
50
290.000463
51
350.521225
0
ELLIPSE
5
BC
100
AcDbEntity
8
1
62
256
6
ByLayer
370
18
48
1
60
0
100
AcDbEllipse
10
63.601734
20
-4.678651
30
0
11
0.1
21
0
31
0
210
0
220
0
230
1
40
1
41
1.60081155338114
42
3.14116146821421
0
ELLIPSE
5
BD
100
AcDbEntity
8
1
62
256
6
ByLayer
370
18
48
1
60
0
100
AcDbEllipse
10
63.601734
20
4.678651
30
0
11
0.1
21
0
31
0
210
0
220
0
230
1
40
1
41
-3.1411614682142
42
-1.56750514877533
0
POINT
5
70
100
AcDbEntity
8
80
62
256
6
ByLayer
370
18
48
1
60
0
100
AcDbPoint
10
0
20
0
30
0
39
0
210
0
220
0
230
1
50
360
0
POINT
5
72
100
AcDbEntity
8
81
62
256
6
ByLayer
370
18
48
1
60
0
100
AcDbPoint
10
112
20
0
30
0
39
0
210
0
220
0
230
1
50
360
0
POINT
5
74
100
AcDbEntity
8
1
62
256
6
ByLayer
370
18
48
1
60
0
100
AcDbPoint
10
-40
20
0
30
0
39
0
210
0
220
0
230
1
50
360
0
POINT
5
76
100
AcDbEntity
8
1
62
256
6
ByLayer
370
18
48
1
60
1
100
AcDbPoint
10
0
20
-5
30
0
39
0
210
0
220
0
230
1
50
360
0
POINT
5
77
100
AcDbEntity
8
1
62
256
6
ByLayer
370
18
48
1
60
1
100
AcDbPoint
10
112
20
0
30
0
39
0
210
0
220
0
230
1
50
360
0
POINT
5
78
100
AcDbEntity
8
1
62
256
6
ByLayer
370
18
48
1
60
1
100
AcDbPoint
10
110.2347
20
-4.85
30
0
39
0
210
0
220
0
230
1
50
360
0
POINT
5
79
100
AcDbEntity
8
1
62
256
6
ByLayer
370
18
48
1
60
1
100
AcDbPoint
10
110.2347
20
4.85
30
0
39
0
210
0
220
0
230
1
50
360
0
POINT
5
7A
100
AcDbEntity
8
1
62
256
6
ByLayer
370
18
48
1
60
1
100
AcDbPoint
10
-40
20
5
30
0
39
0
210
0
220
0
230
1
50
360
0
POINT
5
7B
100
AcDbEntity
8
1
62
256
6
ByLayer
370
18
48
1
60
1
100
AcDbPoint
10
-40
20
-5
30
0
39
0
210
0
220
0
230
1
50
360
0
POINT
5
7C
100
AcDbEntity
8
1
62
256
6
ByLayer
370
18
48
1
60
1
100
AcDbPoint
10
-40
20
-5
30
0
39
0
210
0
220
0
230
1
50
360
0
POINT
5
7D
100
AcDbEntity
8
1
62
256
6
ByLayer
370
18
48
1
60
1
100
AcDbPoint
10
0
20
-5
30
0
39
0
210
0
220
0
230
1
50
360
0
POINT
5
7E
100
AcDbEntity
8
1
62
256
6
ByLayer
370
18
48
1
60
1
100
AcDbPoint
10
6
20
5.35
30
0
39
0
210
0
220
0
230
1
50
360
0
POINT
5
7F
100
AcDbEntity
8
1
62
256
6
ByLayer
370
18
48
1
60
1
100
AcDbPoint
10
112
20
0
30
0
39
0
210
0
220
0
230
1
50
360
0
POINT
5
80
100
AcDbEntity
8
1
62
256
6
ByLayer
370
18
48
1
60
1
100
AcDbPoint
10
32.7
20
-4.85
30
0
39
0
210
0
220
0
230
1
50
360
0
POINT
5
81
100
AcDbEntity
8
1
62
256
6
ByLayer
370
18
48
1
60
1
100
AcDbPoint
10
112
20
0
30
0
39
0
210
0
220
0
230
1
50
360
0
POINT
5
82
100
AcDbEntity
8
1
62
256
6
ByLayer
370
18
48
1
60
1
100
AcDbPoint
10
-40
20
0
30
0
39
0
210
0
220
0
230
1
50
360
0
POINT
5
83
100
AcDbEntity
8
1
62
256
6
ByLayer
370
18
48
1
60
1
100
AcDbPoint
10
112
20
0
30
0
39
0
210
0
220
0
230
1
50
360
0
SPLINE
5
BE
100
AcDbEntity
8
SK1
62
256
6
ByLayer
370
18
48
1
60
0
100
AcDbSpline
70
4
71
3
72
12
73
8
40
0
40
0
40
0
40
0
40
0.5
40
0.5
40
0.75
40
0.75
40
1
40
1
40
1
40
1
41
1
10
-40.0000000000001
20
3.64301778503415
30
0
41
1
10
-39.9123015823215
20
3.71885964335289
30
0
41
1
10
-39.8274378507374
20
3.78556074039338
30
0
41
1
10
-39.7059807717948
20
3.86814480569086
30
0
41
1
10
-39.6664759830087
20
3.89273630844991
30
0
41
1
10
-39.589878798846
20
3.9348692860984
30
0
41
1
10
-39.5527407465257
20
3.95239042612806
30
0
41
1
10
-39.5179491924311
20
3.96524580004717
30
0
0
SPLINE
5
BF
100
AcDbEntity
8
SK1
62
256
6
ByLayer
370
18
48
1
60
0
100
AcDbSpline
70
4
71
3
72
10
73
6
40
0
40
0
40
0
40
0
40
0.5
40
0.5
40
1
40
1
40
1
40
1
41
1
10
-39.5179491924311
20
2.94200861507471
30
-2E-16
41
1
10
-39.5876702969376
20
2.79268024868173
30
-2E-16
41
1
10
-39.6641392526984
20
2.64321977646983
30
-2E-16
41
1
10
-39.8261142497238
20
2.3439533172907
30
-1E-16
41
1
10
-39.9120447599511
20
2.19361012751253
30
-1E-16
41
1
10
-40
20
2.04548924202405
30
-1E-16
0
SPLINE
5
C0
100
AcDbEntity
8
SK1
62
256
6
ByLayer
370
18
48
1
60
0
100
AcDbSpline
70
4
71
3
72
8
73
4
40
0
40
0
40
0
40
0
40
1
40
1
40
1
40
1
41
1
10
-39.5179491924311
20
2.94200861507471
30
-2E-16
41
1
10
-39.4620006886794
20
2.99154562495446
30
-2E-16
41
1
10
-39.4060162396577
20
3.04105243876811
30
-2E-16
41
1
10
-39.35
20
3.09053254664383
30
-2E-16
0
SPLINE
5
C1
100
AcDbEntity
8
SK1
62
256
6
ByLayer
370
18
48
1
60
0
100
AcDbSpline
70
4
71
3
72
12
73
8
40
0
40
0
40
0
40
0
40
0.25
40
0.25
40
0.5
40
0.5
40
1
40
1
40
1
40
1
41
1
10
-39.25
20
4.16983815373612
30
0
41
1
10
-39.25
20
4.17537881001925
30
0
41
1
10
-39.254235624227
20
4.17671064379539
30
0
41
1
10
-39.2670201311554
20
4.17368163696474
30
0
41
1
10
-39.2754786511826
20
4.16948051315069
30
0
41
1
10
-39.3037388067419
20
4.15220642868658
30
0
41
1
10
-39.3264172660865
20
4.13460076606592
30
0
41
1
10
-39.35
20
4.11376973161634
30
0
0
SPLINE
5
C2
100
AcDbEntity
8
SK1
62
256
6
ByLayer
370
18
48
1
60
0
100
AcDbSpline
70
4
71
3
72
12
73
8
40
0
40
0
40
0
40
0
40
0.500000000000002
40
0.500000000000002
40
0.750000000000001
40
0.750000000000001
40
1
40
1
40
1
40
1
41
1
10
-39.35
20
3.09053254664383
30
-2E-16
41
1
10
-39.3264103729719
20
3.11136966990003
30
-2E-16
41
1
10
-39.3036886178189
20
3.13718251355857
30
-2E-16
41
1
10
-39.275599229617
20
3.17897438324454
30
-2E-16
41
1
10
-39.2670477807072
20
3.19378475529984
30
-2E-16
41
1
10
-39.2542670006876
20
3.22283685666784
30
-2E-16
41
1
10
-39.25
20
3.23742662317406
30
-2E-16
41
1
10
-39.25
20
3.24892468726088
30
-2E-16
0
SPLINE
5
C3
100
AcDbEntity
8
SK1
62
256
6
ByLayer
370
18
48
1
60
0
100
AcDbSpline
70
4
71
3
72
8
73
4
40
0
40
0
40
0
40
0
40
1
40
1
40
1
40
1
41
1
10
-39.35
20
4.11376973161632
30
0
41
1
10
-39.4060164955297
20
4.06428939772448
30
0
41
1
10
-39.4620009549077
20
4.01478257420743
30
0
41
1
10
-39.5179491924311
20
3.96524580004717
30
0
0
SPLINE
5
C4
100
AcDbEntity
8
1
62
256
6
ByLayer
370
18
48
1
60
0
100
AcDbSpline
70
4
71
3
72
8
73
4
40
0
40
0
40
0
40
0
40
1
40
1
40
1
40
1
41
1
10
111.995527494933
20
0.26776537145642
30
0
41
1
10
112.00149782228
20
0.089045963042679
30
0
41
1
10
112.001483864103
20
-0.0894637955882729
30
0
41
1
10
111.995527494934
20
-0.267765371443033
30
0
0
SPLINE
5
C5
100
AcDbEntity
8
1
62
256
6
ByLayer
370
18
48
1
60
0
100
AcDbSpline
70
4
71
3
72
58
73
54
40
0
40
0
40
0
40
0
40
0.0177837594852302
40
0.0177837594852302
40
0.0645214553173958
40
0.0645214553173958
40
0.0878903032334792
40
0.0878903032334792
40
0.111259151149562
40
0.111259151149562
40
0.15799684698173
40
0.15799684698173
40
0.181365694897814
40
0.181365694897814
40
0.204734542813897
40
0.204734542813897
40
0.251472238646064
40
0.251472238646064
40
0.298209934478231
40
0.298209934478231
40
0.391685326142564
40
0.391685326142564
40
0.438423021974731
40
0.438423021974731
40
0.461791869890815
40
0.461791869890815
40
0.485160717806899
40
0.485160717806899
40
0.531898413639068
40
0.531898413639068
40
0.555267261555152
40
0.555267261555152
40
0.578636109471238
40
0.578636109471238
40
0.625373805303407
40
0.625373805303407
40
0.648742653219492
40
0.648742653219492
40
0.672111501135577
40
0.672111501135577
40
0.765586892799915
40
0.765586892799915
40
0.812324588632084
40
0.812324588632084
40
0.859062284464254
40
0.859062284464254
40
0.882431132380338
40
0.882431132380338
40
0.905799980296422
40
0.905799980296422
40
0.95253767612859
40
0.95253767612859
40
1
40
1
40
1
40
1
41
1
10
22.0112815516523
20
3.51650093996611
30
-1E-16
41
1
10
22.2092703577755
20
3.59115438856975
30
0
41
1
10
22.4072063482328
20
3.66303212494535
30
0
41
1
10
23.1255428317503
20
3.91325869475747
30
2E-16
41
1
10
23.6461781799204
20
4.0745306795406
30
2E-16
41
1
10
24.4307642015988
20
4.28268122039796
30
2E-16
41
1
10
24.6928839319297
20
4.34645617766469
30
2E-16
41
1
10
25.2187815618591
20
4.46221581087201
30
-1E-16
41
1
10
25.4829142815632
20
4.51423909506002
30
-1E-16
41
1
10
26.2731135008984
20
4.65081084503242
30
-1E-16
41
1
10
26.7985413476674
20
4.71625351298471
30
0
41
1
10
27.5875136845955
20
4.77500848866021
30
0
41
1
10
27.8506159009971
20
4.78802476966314
30
0
41
1
10
28.3777270535864
20
4.80072333115464
30
0
41
1
10
28.6416221267883
20
4.80039116159941
30
0
41
1
10
29.4314111958321
20
4.77943015196556
30
0
41
1
10
29.9566382755304
20
4.73885112682851
30
0
41
1
10
31.0089374519455
20
4.60569620132199
30
-1E-16
41
1
10
31.5374833918048
20
4.51260172798459
30
-1E-16
41
1
10
33.1106014579644
20
4.16256319564363
30
2E-16
41
1
10
34.1478838087749
20
3.83492500092277
30
2E-16
41
1
10
35.7102003022721
20
3.22888696876663
30
-2E-16
41
1
10
36.2319568546906
20
3.00766846274351
30
-2E-16
41
1
10
37.0193204339277
20
2.65092060509295
30
-2E-16
41
1
10
37.2829970364659
20
2.52760149901823
30
-2E-16
41
1
10
37.8100388109695
20
2.27436202492737
30
-1E-16
41
1
10
38.0730877072199
20
2.14452385045939
30
-1E-16
41
1
10
38.8618206814425
20
1.74701785484541
30
-1E-16
41
1
10
39.3870314056009
20
1.4712709007128
30
-1E-16
41
1
10
40.1767980010279
20
1.04636199229037
30
-1E-16
41
1
10
40.4406770508675
20
0.902713437699049
30
-1E-16
41
1
10
40.9673544943009
20
0.613966538662851
30
0
41
1
10
41.230328598268
20
0.468739000284273
30
0
41
1
10
42.0188690981824
20
0.0317815596057471
30
0
41
1
10
42.5440866576599
20
-0.261164049313038
30
0
41
1
10
43.3343831865893
20
-0.697283363613849
30
0
41
1
10
43.5981440307704
20
-0.842092490398755
30
1E-16
41
1
10
44.1231075597765
20
-1.12764859846814
30
1E-16
41
1
10
44.3847569495846
20
-1.26872725652879
30
1E-16
41
1
10
45.6905245800578
20
-1.96278157655087
30
1E-16
41
1
10
46.7266473801872
20
-2.48275152850178
30
2E-16
41
1
10
48.2915945226646
20
-3.17167176878684
30
2E-16
41
1
10
48.8150311265673
20
-3.38617191252806
30
2E-16
41
1
10
49.8696498426394
20
-3.7781221439746
30
-2E-16
41
1
10
50.3949348158596
20
-3.95352099441507
30
-2E-16
41
1
10
51.1830940161053
20
-4.18255536343065
30
-2E-16
41
1
10
51.4458487394724
20
-4.25323084105293
30
-2E-16
41
1
10
51.9718946147616
20
-4.38279298345941
30
0
41
1
10
52.235613797732
20
-4.44175290087063
30
0
41
1
10
53.025224868276
20
-4.59962550280488
30
1E-16
41
1
10
53.5480726012371
20
-4.679140925448
30
1E-16
41
1
10
54.5985483484749
20
-4.78724869197436
30
0
41
1
10
55.1261245182231
20
-4.81498814879981
30
0
41
1
10
55.654094987753
20
-4.81585410651275
30
0
0
SPLINE
5
C6
100
AcDbEntity
8
1
62
256
6
ByLayer
370
18
48
1
60
0
100
AcDbSpline
70
4
71
3
72
34
73
30
40
0
40
0
40
0
40
0
40
0.111054835564352
40
0.111054835564352
40
0.167313632354317
40
0.167313632354317
40
0.223572429144282
40
0.223572429144282
40
0.336090022724215
40
0.336090022724215
40
0.448607616304148
40
0.448607616304148
40
0.504866413094113
40
0.504866413094113
40
0.561125209884078
40
0.561125209884078
40
0.617384006674043
40
0.617384006674043
40
0.673642803464009
40
0.673642803464009
40
0.729901600253974
40
0.729901600253974
40
0.786160397043939
40
0.786160397043939
40
0.898677990623869
40
0.898677990623869
40
0.954936787413833
40
0.954936787413833
40
1
40
1
40
1
40
1
41
1
10
69.4413643308474
20
4.57723515161166
30
0
41
1
10
69.9129884336418
20
4.5566340088501
30
1E-16
41
1
10
70.3858259831724
20
4.51406701626928
30
-1E-16
41
1
10
71.1009663379183
20
4.41990633082497
30
0
41
1
10
71.3419086331909
20
4.3831323810646
30
0
41
1
10
71.8247515926339
20
4.29984575412894
30
0
41
1
10
72.067064380639
20
4.25327505899082
30
0
41
1
10
72.7910600825391
20
4.09876163762357
30
2E-16
41
1
10
73.2711358920601
20
3.97584668575823
30
2E-16
41
1
10
74.2285232922349
20
3.69608613663996
30
2E-16
41
1
10
74.7056319513747
20
3.53932953320887
30
-2E-16
41
1
10
75.4214198157526
20
3.28107350337649
30
-2E-16
41
1
10
75.6601373212842
20
3.19102966115653
30
-2E-16
41
1
10
76.1378036917887
20
3.00377289819619
30
-2E-16
41
1
10
76.3767129874006
20
2.90659070677987
30
-2E-16
41
1
10
76.8554168204331
20
2.70544745791634
30
-2E-16
41
1
10
77.0952569441497
20
2.60146045540529
30
-2E-16
41
1
10
77.5758860210723
20
2.38722557655322
30
-1E-16
41
1
10
77.8166260094929
20
2.27699055413109
30
-1E-16
41
1
10
78.2996873858854
20
2.05078795042823
30
-1E-16
41
1
10
78.5421101158721
20
1.93478612508207
30
-1E-16
41
1
10
79.0243324348914
20
1.69947661816889
30
-1E-16
41
1
10
79.2646677982141
20
1.57989972307473
30
-1E-16
41
1
10
79.9846577241246
20
1.21751722442247
30
-1E-16
41
1
10
80.4629004234847
20
0.97053874640298
30
-1E-16
41
1
10
81.179093622271
20
0.595015338757179
30
0
41
1
10
81.4176740872201
20
0.469065370684575
30
0
41
1
10
81.8470802314426
20
0.240897828545826
30
0
41
1
10
82.0379059734095
20
0.138854127118861
30
0
41
1
10
82.2290235872646
20
0.0370101194402253
30
0
0
SPLINE
5
C7
100
AcDbEntity
8
1
62
256
6
ByLayer
370
18
48
1
60
0
100
AcDbSpline
70
4
71
3
72
22
73
18
40
0
40
0
40
0
40
0
40
0.0585308697411192
40
0.0585308697411192
40
0.117061739482238
40
0.117061739482238
40
0.234123478964477
40
0.234123478964477
40
0.468246957928959
40
0.468246957928959
40
0.5853086974112
40
0.5853086974112
40
0.702370436893441
40
0.702370436893441
40
0.936493915857919
40
0.936493915857919
40
1
40
1
40
1
40
1
41
1
10
110.268805442149
20
-4.57700517787964
30
-1E-16
41
1
10
110.02404320283
20
-4.55915264994172
30
-1E-16
41
1
10
109.77933226489
20
-4.53684243918457
30
-1E-16
41
1
10
109.289675280343
20
-4.48028253754381
30
1E-16
41
1
10
109.044855898708
20
-4.44654698542197
30
1E-16
41
1
10
108.313326431657
20
-4.32993946526446
30
0
41
1
10
107.828341551055
20
-4.23164304557687
30
0
41
1
10
106.377169099112
20
-3.88032263233907
30
-2E-16
41
1
10
105.414399210361
20
-3.57004198715717
30
2E-16
41
1
10
103.959995693817
20
-3.01049908905171
30
2E-16
41
1
10
103.473467996939
20
-2.8082589902958
30
2E-16
41
1
10
102.493799505165
20
-2.37615699133326
30
1E-16
41
1
10
102.007005754705
20
-2.14902040572125
30
1E-16
41
1
10
100.552243222748
20
-1.44351877591467
30
1E-16
41
1
10
99.5893677129439
20
-0.940872969481092
30
1E-16
41
1
10
98.3592960646032
20
-0.288627324384066
30
0
41
1
10
98.096489113604
20
-0.148680008191036
30
0
41
1
10
97.8330898183918
20
-0.0084273882323487
30
0
0
SPLINE
5
C8
100
AcDbEntity
8
1
62
256
6
ByLayer
370
18
48
1
60
0
100
AcDbSpline
70
4
71
3
72
18
73
14
40
0
40
0
40
0
40
0
40
0.127376480991246
40
0.127376480991246
40
0.36649804741087
40
0.36649804741087
40
0.605619613830493
40
0.605619613830493
40
0.725180397040305
40
0.725180397040305
40
0.844741180250117
40
0.844741180250117
40
1
40
1
40
1
40
1
41
1
10
63.6020775356247
20
4.57865159897042
30
0
41
1
10
63.6020689145919
20
4.57894717688256
30
0
41
1
10
63.6020603901522
20
4.57315810520828
30
0
41
1
10
63.6020361637342
20
4.53894753677454
30
1E-16
41
1
10
63.6020208589037
20
4.49531353151824
30
-1E-16
41
1
10
63.6019908016621
20
4.36600586354083
30
0
41
1
10
63.6019761540346
20
4.28078761497406
30
0
41
1
10
63.6019540676128
20
4.12304206735382
30
0
41
1
10
63.6019467160907
20
4.06570875307409
30
2E-16
41
1
10
63.6019318592322
20
3.94159924204709
30
2E-16
41
1
10
63.6019243377727
20
3.87466880966838
30
2E-16
41
1
10
63.6019067386615
20
3.71067739046677
30
2E-16
41
1
10
63.6018966003506
20
3.61092565567873
30
0
41
1
10
63.6018860382558
20
3.50404827335379
30
-1E-16
0
SPLINE
5
C9
100
AcDbEntity
8
1
62
256
6
ByLayer
370
18
48
1
60
0
100
AcDbSpline
70
4
71
3
72
16
73
12
40
0
40
0
40
0
40
0
40
0.125
40
0.125
40
0.25
40
0.25
40
0.499999999999999
40
0.499999999999999
40
0.75
40
0.75
40
1
40
1
40
1
40
1
41
1
10
110.535145174658
20
0.949245352664974
30
-1E-16
41
1
10
110.49464869513
20
0.951635477906279
30
-1E-16
41
1
10
110.453913287041
20
0.951649043589441
30
-1E-16
41
1
10
110.372196601128
20
0.947565588685876
30
-1E-16
41
1
10
110.331258076677
20
0.944088908355241
30
-1E-16
41
1
10
110.208325156893
20
0.928247433668957
30
-1E-16
41
1
10
110.126065337757
20
0.908822302697303
30
-1E-16
41
1
10
109.965342893039
20
0.854771252442418
30
-1E-16
41
1
10
109.886467214552
20
0.820405837123076
30
-1E-16
41
1
10
109.732598621407
20
0.738475813951737
30
0
41
1
10
109.657733196188
20
0.689831988455012
30
0
41
1
10
109.585603649084
20
0.633066484363695
30
0
0
SPLINE
5
CA
100
AcDbEntity
8
1
62
256
6
ByLayer
370
18
48
1
60
0
100
AcDbSpline
70
4
71
3
72
44
73
40
40
0
40
0
40
0
40
0
40
0.0041700310963461
40
0.0041700310963461
40
0.066409404152822
40
0.066409404152822
40
0.0975290906810599
40
0.0975290906810599
40
0.128648777209298
40
0.128648777209298
40
0.190888150265775
40
0.190888150265775
40
0.222007836794014
40
0.222007836794014
40
0.253127523322253
40
0.253127523322253
40
0.315366896378731
40
0.315366896378731
40
0.37760626943521
40
0.37760626943521
40
0.439845642491689
40
0.439845642491689
40
0.502085015548167
40
0.502085015548167
40
0.564324388604646
40
0.564324388604646
40
0.626563761661124
40
0.626563761661124
40
0.688803134717603
40
0.688803134717603
40
0.751042507774081
40
0.751042507774081
40
0.81328188083056
40
0.81328188083056
40
0.8444015673588
40
0.8444015673588
40
0.87552125388704
40
0.87552125388704
40
1
40
1
40
1
40
1
41
1
10
86.8774536366079
20
-4.60894389907028
30
1E-16
41
1
10
86.8450631598248
20
-4.61439798839265
30
1E-16
41
1
10
86.8126752337468
20
-4.61975461588264
30
1E-16
41
1
10
86.2969166700601
20
-4.70350503942137
30
1E-16
41
1
10
85.8139702531231
20
-4.7602230227366
30
0
41
1
10
85.08780392222
20
-4.81171087137463
30
0
41
1
10
84.8452489709483
20
-4.82329139658719
30
0
41
1
10
84.3608391045213
20
-4.83505249688147
30
0
41
1
10
84.1189672052384
20
-4.83524999738233
30
0
41
1
10
83.3937459068939
20
-4.81890648277465
30
0
41
1
10
82.9107804028068
20
-4.78542667079481
30
0
41
1
10
82.1846789732346
20
-4.70184451140739
30
1E-16
41
1
10
81.9421894794558
20
-4.66834753335186
30
1E-16
41
1
10
81.457657389321
20
-4.59049995974524
30
1E-16
41
1
10
81.2157448384854
20
-4.54619416233689
30
1E-16
41
1
10
80.4904349063073
20
-4.3976150453615
30
-2E-16
41
1
10
80.0074105582726
20
-4.27772244146362
30
-2E-16
41
1
10
79.0393318573042
20
-3.99872465536294
30
-2E-16
41
1
10
78.5540709606981
20
-3.83912092294938
30
-2E-16
41
1
10
77.5867379096221
20
-3.48691636434856
30
2E-16
41
1
10
77.1037385363115
20
-3.29394832800628
30
2E-16
41
1
10
76.1358498408819
20
-2.87840013108999
30
2E-16
41
1
10
75.6503880131352
20
-2.6554151763801
30
2E-16
41
1
10
74.6828367894053
20
-2.18837819057052
30
1E-16
41
1
10
74.1998047884202
20
-1.94389703497822
30
1E-16
41
1
10
73.2320115631313
20
-1.43823528223729
30
1E-16
41
1
10
72.7464322649593
20
-1.17672362569559
30
1E-16
41
1
10
71.7785973541854
20
-0.647040869891725
30
0
41
1
10
71.2956462522827
20
-0.378098629324967
30
0
41
1
10
70.3279701831681
20
0.161351559012644
30
0
41
1
10
69.8422983419575
20
0.432298971326503
30
0
41
1
10
68.8745038756188
20
0.965508789326464
30
-1E-16
41
1
10
68.3916968648654
20
1.22841167793797
30
-1E-16
41
1
10
67.6665454700451
20
1.61269435194544
30
-1E-16
41
1
10
67.4246628646687
20
1.7390962212192
30
-1E-16
41
1
10
66.9402078644153
20
1.98788840473455
30
-1E-16
41
1
10
66.6974255996671
20
2.11036731802469
30
-1E-16
41
1
10
65.4864581608373
20
2.70801590010944
30
-2E-16
41
1
10
64.5233614903691
20
3.14132411232501
30
-2E-16
41
1
10
63.5530862556326
20
3.51108701088461
30
-2E-16
0
SPLINE
5
CB
100
AcDbEntity
8
1
62
256
6
ByLayer
370
18
48
1
60
0
100
AcDbSpline
70
4
71
3
72
18
73
14
40
0
40
0
40
0
40
0
40
0.23534357338231
40
0.23534357338231
40
0.431319864158165
40
0.431319864158165
40
0.629041483188681
40
0.629041483188681
40
0.80119849843576
40
0.80119849843576
40
0.967039742802692
40
0.967039742802692
40
1
40
1
40
1
40
1
41
1
10
110.271389774163
20
-4.56577078457258
30
-1E-16
41
1
10
110.271473621296
20
-4.56594398880591
30
-1E-16
41
1
10
110.271499537628
20
-4.56630268052436
30
-1E-16
41
1
10
110.271413224848
20
-4.56731886584743
30
-1E-16
41
1
10
110.271321589664
20
-4.56792987238916
30
-1E-16
41
1
10
110.271028406444
20
-4.56940463031785
30
-1E-16
41
1
10
110.270820377796
20
-4.57029567037429
30
-1E-16
41
1
10
110.270348665887
20
-4.57208972378831
30
-1E-16
41
1
10
110.270089294028
20
-4.57300033988338
30
-1E-16
41
1
10
110.269549208576
20
-4.5747751809603
30
-1E-16
41
1
10
110.269263222122
20
-4.57566145355645
30
-1E-16
41
1
10
110.268920448835
20
-4.57667140401696
30
-1E-16
41
1
10
110.268862948247
20
-4.57683911045422
30
-1E-16
41
1
10
110.268805442149
20
-4.57700517787967
30
-1E-16
0
SPLINE
5
CC
100
AcDbEntity
8
1
62
256
6
ByLayer
370
18
48
1
60
0
100
AcDbSpline
70
4
71
3
72
10
73
6
40
0
40
0
40
0
40
0
40
0.507646348570807
40
0.507646348570807
40
1
40
1
40
1
40
1
41
1
10
110.535145174658
20
0.949245352665059
30
-1E-16
41
1
10
110.489922670578
20
0.973468746766571
30
-1E-16
41
1
10
110.445895333635
20
0.995368814982186
30
-1E-16
41
1
10
110.362044954083
20
1.03291460820631
30
-1E-16
41
1
10
110.322580072408
20
1.04858039355551
30
-1E-16
41
1
10
110.285673837824
20
1.06070436363061
30
-1E-16
0
SPLINE
5
CD
100
AcDbEntity
8
1
62
256
6
ByLayer
370
18
48
1
60
0
100
AcDbSpline
70
4
71
3
72
32
73
28
40
0
40
0
40
0
40
0
40
0.0345746450586504
40
0.0345746450586504
40
0.0861796728959404
40
0.0861796728959404
40
0.189389728570521
40
0.189389728570521
40
0.292599784245101
40
0.292599784245101
40
0.395809839919681
40
0.395809839919681
40
0.499019895594262
40
0.499019895594262
40
0.55062492343155
40
0.55062492343155
40
0.602229951268837
40
0.602229951268837
40
0.705440006943413
40
0.705440006943413
40
0.808650062617989
40
0.808650062617989
40
0.911860118292565
40
0.911860118292565
40
0.963465146129853
40
0.963465146129853
40
1
40
1
40
1
40
1
41
1
10
95.5846395240843
20
4.6047064718272
30
0
41
1
10
95.7451722341815
20
4.60792352330776
30
0
41
1
10
95.9058900398954
20
4.60886333657308
30
0
41
1
10
96.3071939427685
20
4.60524752423529
30
0
41
1
10
96.548410888187
20
4.59747026017604
30
0
41
1
10
97.2733339972133
20
4.5580698936395
30
1E-16
41
1
10
97.7532547823955
20
4.5115216057506
30
-1E-16
41
1
10
98.7102961176432
20
4.37594964671763
30
0
41
1
10
99.1870571369848
20
4.28845155654142
30
0
41
1
10
100.140103066906
20
4.07514862872918
30
2E-16
41
1
10
100.615674722063
20
3.95065943650539
30
2E-16
41
1
10
101.570573583344
20
3.66393490562786
30
2E-16
41
1
10
102.049557362966
20
3.50255263198636
30
-2E-16
41
1
10
102.771207795349
20
3.23647133704563
30
-2E-16
41
1
10
103.012679490721
20
3.14362461398602
30
-2E-16
41
1
10
103.49501963457
20
2.95105127700739
30
-2E-16
41
1
10
103.735460143077
20
2.85147347585505
30
-2E-16
41
1
10
104.455162305806
20
2.54381328256835
30
-2E-16
41
1
10
104.932723537368
20
2.32701094782939
30
-1E-16
41
1
10
105.886077412614
20
1.87512549032229
30
-1E-16
41
1
10
106.361683280095
20
1.63994449577359
30
-1E-16
41
1
10
107.314270247818
20
1.15634111462867
30
-1E-16
41
1
10
107.791010015464
20
0.907791047958597
30
-1E-16
41
1
10
108.509410534852
20
0.529109642012457
30
0
41
1
10
108.749380489853
20
0.401870097460602
30
0
41
1
10
109.160265015043
20
0.183266747709439
30
0
41
1
10
109.3310344675
20
0.0922040150697114
30
0
41
1
10
109.501885453983
20
0.0010273102212466
30
0
0
SPLINE
5
CE
100
AcDbEntity
8
1
62
256
6
ByLayer
370
18
48
1
60
0
100
AcDbSpline
70
4
71
3
72
8
73
4
40
0
40
0
40
0
40
0
40
1
40
1
40
1
40
1
41
1
10
111.186667121103
20
-0.509953427860694
30
0
41
1
10
111.015851346701
20
-0.053980213020111
30
0
41
1
10
110.798316790483
20
0.432656036815502
30
0
41
1
10
110.535145174658
20
0.949245352664974
30
-1E-16
0
SPLINE
5
CF
100
AcDbEntity
8
1
62
256
6
ByLayer
370
18
48
1
60
0
100
AcDbSpline
70
4
71
3
72
10
73
6
40
0
40
0
40
0
40
0
40
0.5
40
0.5
40
1
40
1
40
1
40
1
41
1
10
63.5017340025457
20
-4.07102321828106
30
-2E-16
41
1
10
63.5017340025457
20
-4.0522599655221
30
-2E-16
41
1
10
63.5211150977464
20
-4.0338613957413
30
-2E-16
41
1
10
63.5813063308272
20
-4.01448915635171
30
-2E-16
41
1
10
63.6201505743439
20
-4.01427088590441
30
-2E-16
41
1
10
63.6506963965797
20
-4.02373425296361
30
-2E-16
0
SPLINE
5
D0
100
AcDbEntity
8
1
62
256
6
ByLayer
370
18
48
1
60
0
100
AcDbSpline
70
4
71
3
72
10
73
6
40
0
40
0
40
0
40
0
40
0.5
40
0.5
40
1
40
1
40
1
40
1
41
1
10
110.785899388851
20
1.32388658904199
30
0
41
1
10
110.919260389973
20
1.3435964395438
30
0
41
1
10
111.05220835058
20
1.36593835233532
30
0
41
1
10
111.316803917775
20
1.41890856304988
30
0
41
1
10
111.448317613554
20
1.44899502735467
30
0
41
1
10
111.577986478263
20
1.48567500487059
30
0
0
SPLINE
5
D1
100
AcDbEntity
8
1
62
256
6
ByLayer
370
18
48
1
60
0
100
AcDbSpline
70
4
71
3
72
32
73
28
40
0
40
0
40
0
40
0
40
0.0519966862900292
40
0.0519966862900292
40
0.103993372580058
40
0.103993372580058
40
0.207986745160122
40
0.207986745160122
40
0.311980117740185
40
0.311980117740185
40
0.415973490320248
40
0.415973490320248
40
0.467970176610282
40
0.467970176610282
40
0.519966862900316
40
0.519966862900316
40
0.623960235480384
40
0.623960235480384
40
0.727953608060452
40
0.727953608060452
40
0.83194698064052
40
0.83194698064052
40
0.935940353220588
40
0.935940353220588
40
0.987937039510625
40
0.987937039510625
40
1
40
1
40
1
40
1
41
1
10
109.718735058091
20
-0.125770727030812
30
0
41
1
10
109.477359435783
20
0.0028036755542473
30
0
41
1
10
109.235820507101
20
0.131453028008508
30
0
41
1
10
108.754548260633
20
0.386995280487099
30
0
41
1
10
108.514511440311
20
0.514032205185856
30
0
41
1
10
107.79591161294
20
0.892161045346626
30
-1E-16
41
1
10
107.319042694057
20
1.14041304355481
30
-1E-16
41
1
10
106.366213030659
20
1.62355099525368
30
-1E-16
41
1
10
105.890492795483
20
1.85856532800594
30
-1E-16
41
1
10
104.936935332919
20
2.31024577319656
30
-1E-16
41
1
10
104.459282908966
20
2.52701095009834
30
-2E-16
41
1
10
103.739469159846
20
2.83472392871565
30
-2E-16
41
1
10
103.498996105945
20
2.93434134376355
30
-2E-16
41
1
10
103.016596786561
20
3.12701489400385
30
-2E-16
41
1
10
102.775048963918
20
3.21994122830213
30
-2E-16
41
1
10
102.053208266337
20
3.48630455277279
30
-2E-16
41
1
10
101.574097224987
20
3.64794564508182
30
2E-16
41
1
10
100.618947084544
20
3.93533022781062
30
2E-16
41
1
10
100.143251947327
20
4.06020485014653
30
2E-16
41
1
10
99.1899860145316
20
4.27436748302679
30
0
41
1
10
98.7131206554759
20
4.36236366464357
30
0
41
1
10
97.7558998285481
20
4.49902450286339
30
-1E-16
41
1
10
97.2758989554818
20
4.54617986486238
30
1E-16
41
1
10
96.5508842614139
20
4.58654308853875
30
0
41
1
10
96.3095799411474
20
4.59466510413188
30
0
41
1
10
96.0134494880838
20
4.59775761162285
30
0
41
1
10
95.9577195895689
20
4.59805325375515
30
0
41
1
10
95.9020195581667
20
4.59806707189514
30
0
0
SPLINE
5
D2
100
AcDbEntity
8
1
62
256
6
ByLayer
370
18
48
1
60
0
100
AcDbSpline
70
4
71
3
72
8
73
4
40
0
40
0
40
0
40
0
40
1
40
1
40
1
40
1
41
1
10
111.577986478263
20
1.4856750048707
30
0
41
1
10
111.720961087286
20
1.08106299171911
30
0
41
1
10
111.860160074627
20
0.675099787680523
30
0
41
1
10
111.995527494933
20
0.26776537145642
30
0
0
SPLINE
5
D3
100
AcDbEntity
8
1
62
256
6
ByLayer
370
18
48
1
60
0
100
AcDbSpline
70
4
71
3
72
20
73
16
40
0
40
0
40
0
40
0
40
0.500000000000238
40
0.500000000000238
40
0.750000000000279
40
0.750000000000279
40
0.875000000000221
40
0.875000000000221
40
0.937500000000113
40
0.937500000000113
40
0.968749999999978
40
0.968749999999978
40
0.984374999999989
40
0.984374999999989
40
1
40
1
40
1
40
1
41
1
10
110.014105571375
20
4.84873673044294
30
0
41
1
10
110.062638600085
20
4.81717797168423
30
0
41
1
10
110.11126067874
20
4.78527793097777
30
0
41
1
10
110.184271436482
20
4.73697300668363
30
0
41
1
10
110.208610230599
20
4.72080296307141
30
0
41
1
10
110.245208177765
20
4.69638644677639
30
0
41
1
10
110.257423222004
20
4.68822024320596
30
0
41
1
10
110.275778565746
20
4.67592437754277
30
0
41
1
10
110.281906401682
20
4.67181536159077
30
0
41
1
10
110.291057999849
20
4.66567333434006
30
0
41
1
10
110.294100411507
20
4.66363053759224
30
0
41
1
10
110.298648400897
20
4.66057539661782
30
0
41
1
10
110.300167349259
20
4.65955472908058
30
0
41
1
10
110.303254136967
20
4.65747961618482
30
0
41
1
10
110.305076996436
20
4.65625273968669
30
0
41
1
10
110.306176329549
20
4.65551546482163
30
0
0
SPLINE
5
D4
100
AcDbEntity
8
1
62
256
6
ByLayer
370
18
48
1
60
0
100
AcDbSpline
70
4
71
3
72
22
73
18
40
0
40
0
40
0
40
0
40
0.250000000000006
40
0.250000000000006
40
0.500000000000013
40
0.500000000000013
40
0.56250000000001
40
0.56250000000001
40
0.625000000000007
40
0.625000000000007
40
0.750000000000002
40
0.750000000000002
40
0.812500000000004
40
0.812500000000004
40
0.875000000000006
40
0.875000000000006
40
1
40
1
40
1
40
1
41
1
10
110.315495150077
20
-4.64924184177949
30
0
41
1
10
110.411177224408
20
-4.37949804172524
30
0
41
1
10
110.506070193761
20
-4.10789606105644
30
0
41
1
10
110.697950679634
20
-3.562861656422
30
0
41
1
10
110.794956365902
20
-3.28950799525376
30
0
41
1
10
110.918221865079
20
-2.9497831717629
30
0
41
1
10
110.942980245386
20
-2.88191021343639
30
0
41
1
10
110.992729125376
20
-2.74630945933501
30
0
41
1
10
111.017560211649
20
-2.67847713707178
30
0
41
1
10
111.093946401124
20
-2.47619853158935
30
0
41
1
10
111.147387092238
20
-2.34294995836768
30
0
41
1
10
111.232970923123
20
-2.14617618623004
30
0
41
1
10
111.262395292326
20
-2.08114019620288
30
0
41
1
10
111.322126738921
20
-1.95452124987665
30
0
41
1
10
111.352565299777
20
-1.89262370383355
30
0
41
1
10
111.445770701696
20
-1.7111011740916
30
0
41
1
10
111.510428907724
20
-1.59562124868182
30
0
41
1
10
111.577986478263
20
-1.48567500487076
30
0
0
SPLINE
5
D5
100
AcDbEntity
8
1
62
256
6
ByLayer
370
18
48
1
60
0
100
AcDbSpline
70
4
71
3
72
10
73
6
40
0
40
0
40
0
40
0
40
0.5
40
0.5
40
1
40
1
40
1
40
1
41
1
10
109.596106388311
20
-0.0517383155707307
30
0
41
1
10
109.589959442769
20
0.0627622317867065
30
0
41
1
10
109.585734193519
20
0.178482932290109
30
0
41
1
10
109.582030821322
20
0.4071636350929
30
0
41
1
10
109.582513617659
20
0.520577313982216
30
0
41
1
10
109.585603649074
20
0.633066484367788
30
0
0
SPLINE
5
D6
100
AcDbEntity
8
1
62
256
6
ByLayer
370
18
48
1
60
0
100
AcDbSpline
70
4
71
3
72
8
73
4
40
0
40
0
40
0
40
0
40
1
40
1
40
1
40
1
41
1
10
110.306176329536
20
4.65551546482322
30
0
41
1
10
110.309282560882
20
4.6534245682931
30
0
41
1
10
110.312388834245
20
4.65133336060077
30
0
41
1
10
110.315495150077
20
4.64924184177949
30
0
0
SPLINE
5
D7
100
AcDbEntity
8
1
62
256
6
ByLayer
370
18
48
1
60
0
100
AcDbSpline
70
4
71
3
72
20
73
16
40
0
40
0
40
0
40
0
40
0.225555942497284
40
0.225555942497284
40
0.338333913745931
40
0.338333913745931
40
0.451111884994578
40
0.451111884994578
40
0.676667827491872
40
0.676667827491872
40
0.789445798740514
40
0.789445798740514
40
0.902223769989156
40
0.902223769989156
40
1
40
1
40
1
40
1
41
1
10
110.306176329612
20
4.65551546454932
30
0
41
1
10
109.817281773083
20
4.65971618810914
30
0
41
1
10
109.329027149629
20
4.64123991273144
30
0
41
1
10
108.59537527448
20
4.58075255103375
30
1E-16
41
1
10
108.350577342225
20
4.55511145720405
30
1E-16
41
1
10
107.861983196137
20
4.4931974328187
30
-1E-16
41
1
10
107.617960081243
20
4.45691250947263
30
-1E-16
41
1
10
106.886137491513
20
4.33232033513178
30
0
41
1
10
106.398665608058
20
4.22813945714691
30
0
41
1
10
105.665657588028
20
4.0417908628543
30
2E-16
41
1
10
105.420772378488
20
3.97458780121499
30
2E-16
41
1
10
104.931959697263
20
3.83110973896925
30
2E-16
41
1
10
104.68786401629
20
3.75481441771461
30
2E-16
41
1
10
104.232396878494
20
3.60436261233079
30
-1E-16
41
1
10
104.02097278678
20
3.53125550951165
30
-1E-16
41
1
10
103.809507715572
20
3.4550537952814
30
-2E-16
0
SPLINE
5
D8
100
AcDbEntity
8
1
62
256
6
ByLayer
370
18
48
1
60
0
100
AcDbSpline
70
4
71
3
72
16
73
12
40
0
40
0
40
0
40
0
40
0.122518254006168
40
0.122518254006168
40
0.341888690504626
40
0.341888690504626
40
0.561259127003084
40
0.561259127003084
40
0.780629563501542
40
0.780629563501542
40
1
40
1
40
1
40
1
41
1
10
70.188692428704
20
-0.439456890742633
30
0
41
1
10
69.9161532922653
20
-0.293657656313627
30
0
41
1
10
69.6435770456173
20
-0.14720810171508
30
0
41
1
10
68.8822224579163
20
0.262131299231896
30
0
41
1
10
68.3923107300813
20
0.525709767872343
30
0
41
1
10
67.4130701073373
20
1.04471218382088
30
-1E-16
41
1
10
66.9233123349819
20
1.30054007887
30
-1E-16
41
1
10
65.9454103741274
20
1.79650488363146
30
-1E-16
41
1
10
65.4568756328769
20
2.03678104894516
30
-1E-16
41
1
10
64.4778258207728
20
2.49687686470315
30
-2E-16
41
1
10
63.9890980849668
20
2.71550378776195
30
-2E-16
41
1
10
63.5000000000001
20
2.92020280000744
30
-2E-16
0
SPLINE
5
D9
100
AcDbEntity
8
1
62
256
6
ByLayer
370
18
48
1
60
0
100
AcDbSpline
70
4
71
3
72
16
73
12
40
0
40
0
40
0
40
0
40
0.008304509852877
40
0.008304509852877
40
0.173587091544064
40
0.173587091544064
40
0.338869673235251
40
0.338869673235251
40
0.669434836617626
40
0.669434836617626
40
1
40
1
40
1
40
1
41
1
10
110.175569501026
20
1.10007850605828
30
0
41
1
10
110.17691812073
20
1.10084287285125
30
0
41
1
10
110.178270863939
20
1.1016082197358
30
0
41
1
10
110.206633329977
20
1.11762613646206
30
0
41
1
10
110.235277888401
20
1.13321950240612
30
0
41
1
10
110.294528996424
20
1.16380515948532
30
0
41
1
10
110.325319095223
20
1.17890255868198
30
0
41
1
10
110.421416428207
20
1.22282170574223
30
0
41
1
10
110.491390375088
20
1.25051471931971
30
0
41
1
10
110.634998028102
20
1.29521325300897
30
0
41
1
10
110.709216919645
20
1.31255344073432
30
0
41
1
10
110.785899388851
20
1.32388658904202
30
0
0
SPLINE
5
DA
100
AcDbEntity
8
1
62
256
6
ByLayer
370
18
48
1
60
0
100
AcDbSpline
70
4
71
3
72
65
73
61
40
0
40
0
40
0
40
0
40
0.0088496950330917
40
0.0088496950330917
40
0.0270441782677402
40
0.0270441782677402
40
0.0452386615023888
40
0.0452386615023888
40
0.0543359031197131
40
0.0543359031197131
40
0.0546201919202544
40
0.0546201919202544
40
0.0547623363205251
40
0.0547623363205251
40
0.0549044807207957
40
0.0549044807207957
40
0.0554730583218784
40
0.0554730583218784
40
0.0566102135240437
40
0.0566102135240437
40
0.0588845239283742
40
0.0588845239283742
40
0.0634331447370352
40
0.0634331447370352
40
0.0816276279716795
40
0.0816276279716795
40
0.118016594440968
40
0.118016594440968
40
0.190794527379545
40
0.190794527379545
40
0.336350393256699
40
0.336350393256699
40
0.409128326195276
40
0.409128326195276
40
0.445517292664565
40
0.445517292664565
40
0.463711775899209
40
0.463711775899209
40
0.472809017516531
40
0.472809017516531
40
0.473946172718696
40
0.473946172718696
40
0.475083327920861
40
0.475083327920861
40
0.475225472321132
40
0.475225472321132
40
0.475367616721402
40
0.475367616721402
40
0.475651905521944
40
0.475651905521944
40
0.476220483123026
40
0.477357638325191
40
0.481906259133848
40
0.627462125010888
40
0.627462125010888
40
0.773017990887929
40
0.773017990887929
40
0.918573856764969
40
0.918573856764969
40
1
40
1
40
1
40
1
41
1
10
12.6988045105926
20
1.15954014669697
30
-1E-16
41
1
10
12.6764392309439
20
1.16145721957054
30
-1E-16
41
1
10
12.6536503589652
20
1.16256901348348
30
-1E-16
41
1
10
12.5828772616265
20
1.16344295012925
30
-1E-16
41
1
10
12.5339168309469
20
1.16042795893705
30
-1E-16
41
1
10
12.4324009049881
20
1.14759783597958
30
-1E-16
41
1
10
12.379883646605
20
1.13788407910332
30
-1E-16
41
1
10
12.2990580761874
20
1.11812991490098
30
-1E-16
41
1
10
12.2717710004688
20
1.11067964115256
30
-1E-16
41
1
10
12.2433520858235
20
1.10209203841575
30
-1E-16
41
1
10
12.242490639096
20
1.10183095104259
30
-1E-16
41
1
10
12.2411980704834
20
1.10143803385904
30
-1E-16
41
1
10
12.2406093029693
20
1.10137137516529
30
-1E-16
41
1
10
12.2401980822263
20
1.10092049865486
30
-1E-16
41
1
10
12.24081518377
20
1.10046367826993
30
-1E-16
41
1
10
12.2436343322867
20
1.09854811429113
30
-1E-16
41
1
10
12.2465960430028
20
1.09705204914113
30
-1E-16
41
1
10
12.255085736984
20
1.09260900246193
30
-1E-16
41
1
10
12.2609414871773
20
1.08968625203593
30
-1E-16
41
1
10
12.2785448737648
20
1.08094430862559
30
-1E-16
41
1
10
12.2904290401957
20
1.07515489397233
30
-1E-16
41
1
10
12.3261658782072
20
1.05780509429428
30
-1E-16
41
1
10
12.350132159279
20
1.04627413718478
30
-1E-16
41
1
10
12.4701201565594
20
0.988616433159706
30
-1E-16
41
1
10
12.5666542535847
20
0.942496090961441
30
-1E-16
41
1
10
12.8563283215534
20
0.803658431036212
30
0
41
1
10
13.0497725100739
20
0.710507159538196
30
0
41
1
10
13.6300395253644
20
0.428792658498765
30
0
41
1
10
14.0169149716756
20
0.23812759255739
30
0
41
1
10
15.1769376727841
20
-0.342934456544043
30
0
41
1
10
15.9494345208852
20
-0.743010281696968
30
0
41
1
10
17.1076674386632
20
-1.35963675273263
30
0
41
1
10
17.4936668771321
20
-1.56785629099983
30
0
41
1
10
18.0719589973165
20
-1.88486097716864
30
0
41
1
10
18.2646468993639
20
-1.99124493478172
30
0
41
1
10
18.5531725749418
20
-2.15253883969902
30
0
41
1
10
18.6493023300583
20
-2.2065233806122
30
0
41
1
10
18.7928632584147
20
-2.288825088523
30
0
41
1
10
18.8408274994854
20
-2.3161206563604
30
0
41
1
10
18.8936579114992
20
-2.34879757895504
30
0
41
1
10
18.89950580799
20
-2.35246684318273
30
0
41
1
10
18.9110673365101
20
-2.36003696427432
30
0
41
1
10
18.9170892297461
20
-2.36358396258819
30
0
41
1
10
18.9226655184705
20
-2.36907764597666
30
0
41
1
10
18.9233191985456
20
-2.36970912503429
30
0
41
1
10
18.9239671876872
20
-2.37134151640106
30
0
41
1
10
18.9229512746421
20
-2.37196457153064
30
0
41
1
10
18.9203644695035
20
-2.3724482291349
30
0
41
1
10
18.9186251595592
20
-2.37264851149689
30
0
41
1
10
18.9134275418507
20
-2.37341669641219
30
0
41
1
10
18.9030324978826
20
-2.37495294609298
30
0
41
1
10
18.8649194463416
20
-2.38058453779462
30
0
41
1
10
17.9434489052002
20
-2.51665945860873
30
0
41
1
10
17.0333053516052
20
-2.64888602353261
30
0
41
1
10
15.2784185274422
20
-2.89810196284804
30
0
41
1
10
14.4059194006104
20
-3.01911861679656
30
0
41
1
10
12.6703110656607
20
-3.25227028382778
30
0
41
1
10
11.8071937850165
20
-3.36446274122045
30
2E-16
41
1
10
10.4704130447976
20
-3.53151138126557
30
2E-16
41
1
10
9.99259222662826
20
-3.5898615454368
30
2E-16
41
1
10
9.51645652996874
20
-3.6465768205496
30
-2E-16
0
SPLINE
5
DB
100
AcDbEntity
8
1
62
256
6
ByLayer
370
18
48
1
60
0
100
AcDbSpline
70
4
71
3
72
26
73
22
40
0
40
0
40
0
40
0
40
0.0467904503759858
40
0.0467904503759858
40
0.0988956349355482
40
0.0988956349355482
40
0.15100081949511
40
0.15100081949511
40
0.359421557733352
40
0.359421557733352
40
0.567842295971594
40
0.567842295971594
40
0.619947480531155
40
0.619947480531155
40
0.672052665090716
40
0.672052665090716
40
0.776263034209841
40
0.776263034209841
40
0.984683772448087
40
0.984683772448087
40
1
40
1
40
1
40
1
41
1
10
70.246901172033
20
0.207535063182462
30
0
41
1
10
70.4644509170024
20
0.0925034149821897
30
0
41
1
10
70.6822419752593
20
-0.0228996040443974
30
0
41
1
10
71.1433489013017
20
-0.267071065312308
30
0
41
1
10
71.3867543201728
20
-0.395869687743357
30
0
41
1
10
71.8749784117215
20
-0.652796577607376
30
0
41
1
10
72.1203434339025
20
-0.781180854082862
30
0
41
1
10
73.3436963763546
20
-1.41585719486974
30
1E-16
41
1
10
74.3102283039561
20
-1.90030252893052
30
1E-16
41
1
10
76.2434831949616
20
-2.78141858476187
30
2E-16
41
1
10
77.2100320682001
20
-3.17835042763119
30
2E-16
41
1
10
78.432895271763
20
-3.59580112378694
30
2E-16
41
1
10
78.6781731604193
20
-3.67532982462973
30
-2E-16
41
1
10
79.1662878843213
20
-3.82454588842043
30
-2E-16
41
1
10
79.4097346252401
20
-3.89452603458929
30
-2E-16
41
1
10
80.1386840922664
20
-4.09017286778962
30
-2E-16
41
1
10
80.6225970368328
20
-4.20129688940898
30
0
41
1
10
82.0728363382155
20
-4.47433775346948
30
1E-16
41
1
10
83.0380016316062
20
-4.57538746753585
30
-1E-16
41
1
10
84.0845621572692
20
-4.59064988495382
30
0
41
1
10
84.1562796211417
20
-4.59121731898708
30
0
41
1
10
84.2280552316506
20
-4.59130884946021
30
0
0
SPLINE
5
DC
100
AcDbEntity
8
1
62
256
6
ByLayer
370
18
48
1
60
0
100
AcDbSpline
70
4
71
3
72
8
73
4
40
0
40
0
40
0
40
0
40
1
40
1
40
1
40
1
41
1
10
110.306176329711
20
-4.65551546470579
30
0
41
1
10
110.309282560999
20
-4.6534245682148
30
0
41
1
10
110.312388834303
20
-4.65133336056164
30
0
41
1
10
110.315495150077
20
-4.64924184177949
30
0
0
SPLINE
5
DD
100
AcDbEntity
8
1
62
256
6
ByLayer
370
18
48
1
60
0
100
AcDbSpline
70
4
71
3
72
20
73
16
40
0
40
0
40
0
40
0
40
0.500000000000156
40
0.500000000000156
40
0.750000000000155
40
0.750000000000155
40
0.875000000000154
40
0.875000000000154
40
0.937500000000154
40
0.937500000000154
40
0.968750000000155
40
0.968750000000155
40
0.984375000000078
40
0.984375000000078
40
1
40
1
40
1
40
1
41
1
10
110.014105571371
20
-4.84873673044567
30
0
41
1
10
110.062638600101
20
-4.81717797167363
30
0
41
1
10
110.111260678777
20
-4.78527793095353
30
0
41
1
10
110.18427143655
20
-4.73697300663855
30
0
41
1
10
110.208610230677
20
-4.72080296301937
30
0
41
1
10
110.245208177859
20
-4.69638644671363
30
0
41
1
10
110.257423222103
20
-4.68822024313957
30
0
41
1
10
110.275778565854
20
-4.67592437747089
30
0
41
1
10
110.281906401791
20
-4.67181536151716
30
0
41
1
10
110.291057999962
20
-4.66567333426411
30
0
41
1
10
110.29410041162
20
-4.66363053751579
30
0
41
1
10
110.298648401013
20
-4.66057539653997
30
0
41
1
10
110.300167349377
20
-4.65955472900168
30
0
41
1
10
110.303254137088
20
-4.65747961610339
30
0
41
1
10
110.305076996596
20
-4.65625273957934
30
0
41
1
10
110.306176329635
20
-4.65551546476374
30
0
0
SPLINE
5
DE
100
AcDbEntity
8
1
62
256
6
ByLayer
370
18
48
1
60
0
100
AcDbSpline
70
4
71
3
72
56
73
52
40
0
40
0
40
0
40
0
40
0.0562809574029068
40
0.0562809574029068
40
0.112561914805814
40
0.112561914805814
40
0.16884287220872
40
0.16884287220872
40
0.225123829611627
40
0.225123829611627
40
0.281404787014534
40
0.281404787014534
40
0.309545265715989
40
0.309545265715989
40
0.337685744417443
40
0.337685744417443
40
0.39396670182035
40
0.39396670182035
40
0.422107180521804
40
0.422107180521804
40
0.450247659223257
40
0.450247659223257
40
0.506528616626164
40
0.506528616626164
40
0.534669095327616
40
0.534669095327616
40
0.562809574029068
40
0.562809574029068
40
0.61909053143197
40
0.61909053143197
40
0.64723101013342
40
0.64723101013342
40
0.67537148883487
40
0.67537148883487
40
0.731652446237771
40
0.731652446237771
40
0.759792924939223
40
0.759792924939223
40
0.787933403640674
40
0.787933403640674
40
0.844214361043578
40
0.844214361043578
40
0.872354839745029
40
0.872354839745029
40
0.90049531844648
40
0.90049531844648
40
0.956776275849385
40
0.956776275849385
40
0.984916754550837
40
0.984916754550837
40
1
40
1
40
1
40
1
41
1
10
109.996539818364
20
-4.78470725443205
30
0
41
1
10
109.512885938243
20
-4.74009973207663
30
1E-16
41
1
10
109.029530624474
20
-4.67314206263978
30
1E-16
41
1
10
108.060350832721
20
-4.4958899228788
30
1E-16
41
1
10
107.577163471332
20
-4.38591206434387
30
-2E-16
41
1
10
106.611263959075
20
-4.12642942478934
30
-2E-16
41
1
10
106.128423065232
20
-3.97684095784501
30
-2E-16
41
1
10
105.15961873267
20
-3.64094547828549
30
-2E-16
41
1
10
104.675992865069
20
-3.4554048527306
30
2E-16
41
1
10
103.71004492365
20
-3.05430562868585
30
2E-16
41
1
10
103.227235631243
20
-2.83862040761898
30
2E-16
41
1
10
102.500743459958
20
-2.49584085806347
30
2E-16
41
1
10
102.258398786026
20
-2.37845403564634
30
1E-16
41
1
10
101.774711062519
20
-2.13890039168851
30
1E-16
41
1
10
101.533119636491
20
-2.01661715294
30
1E-16
41
1
10
100.808514235426
20
-1.64322889400694
30
1E-16
41
1
10
100.325630666213
20
-1.38564930217657
30
1E-16
41
1
10
99.5992287369735
20
-0.990239224206334
30
1E-16
41
1
10
99.3568017825762
20
-0.856949114199494
30
1E-16
41
1
10
98.8730029476827
20
-0.589334543237982
30
0
41
1
10
98.6313633486531
20
-0.454854315905777
30
0
41
1
10
97.9066837498621
20
-0.0503648471276676
30
0
41
1
10
97.4238111655045
20
0.220564557715306
30
0
41
1
10
96.6975030281335
20
0.62460727384763
30
0
41
1
10
96.4550055343192
20
0.758941320810465
30
0
41
1
10
95.9710870112735
20
1.02483442615423
30
-1E-16
41
1
10
95.7294004740362
20
1.15655251698763
30
-1E-16
41
1
10
95.004610537429
20
1.54708214697257
30
-1E-16
41
1
10
94.5217393323577
20
1.80120223230205
30
-1E-16
41
1
10
93.7954985589486
20
2.16889591098428
30
-1E-16
41
1
10
93.5529411027696
20
2.28929060194429
30
-1E-16
41
1
10
93.0688857414236
20
2.52385420420106
30
-2E-16
41
1
10
92.8271549892172
20
2.63816117240887
30
-2E-16
41
1
10
92.1022574373104
20
2.97129862750262
30
-2E-16
41
1
10
91.6193748443679
20
3.18032864864114
30
-2E-16
41
1
10
90.8932157736571
20
3.47083308616291
30
-2E-16
41
1
10
90.6506371042586
20
3.56390878475895
30
-2E-16
41
1
10
90.1664853713677
20
3.74109682564369
30
2E-16
41
1
10
89.924725165392
20
3.82528772615609
30
2E-16
41
1
10
89.1997451545184
20
4.06400406676187
30
2E-16
41
1
10
88.7168111938253
20
4.20465978590769
30
2E-16
41
1
10
87.9906123260885
20
4.38561732363664
30
2E-16
41
1
10
87.7480425966251
20
4.44102610882402
30
0
41
1
10
87.2637740283494
20
4.54108062917487
30
-1E-16
41
1
10
87.0219756446558
20
4.58576778697733
30
-1E-16
41
1
10
86.2969166700601
20
4.70350503942134
30
-1E-16
41
1
10
85.8139702531231
20
4.7602230227366
30
0
41
1
10
85.08780392222
20
4.81171087137463
30
0
41
1
10
84.8452489709482
20
4.82329139658719
30
0
41
1
10
84.4732226336494
20
4.8323239109275
30
0
41
1
10
84.3434969082314
20
4.83384316875978
30
0
41
1
10
84.2138358222958
20
4.83373552730501
30
0
0
SPLINE
5
DF
100
AcDbEntity
8
1
62
256
6
ByLayer
370
18
48
1
60
0
100
AcDbSpline
70
2053
71
3
72
60
73
56
40
0
40
0
40
0
40
0
40
0.0624999999999994
40
0.0624999999999994
40
0.124999999999999
40
0.124999999999999
40
0.187499999999998
40
0.187499999999998
40
0.249999999999998
40
0.249999999999998
40
0.281249999999997
40
0.281249999999997
40
0.312499999999997
40
0.312499999999997
40
0.343749999999997
40
0.343749999999997
40
0.374999999999997
40
0.374999999999997
40
0.406249999999996
40
0.406249999999996
40
0.437499999999996
40
0.437499999999996
40
0.468749999999996
40
0.468749999999996
40
0.499999999999996
40
0.499999999999996
40
0.531249999999995
40
0.531249999999995
40
0.562499999999995
40
0.562499999999995
40
0.593749999999995
40
0.593749999999995
40
0.624999999999994
40
0.624999999999994
40
0.656249999999994
40
0.656249999999994
40
0.687499999999994
40
0.687499999999994
40
0.718749999999994
40
0.718749999999994
40
0.749999999999994
40
0.749999999999994
40
0.781249999999994
40
0.781249999999994
40
0.812499999999994
40
0.812499999999994
40
0.843749999999993
40
0.843749999999993
40
0.874999999999993
40
0.874999999999993
40
0.937499999999993
40
0.937499999999993
40
0.968749999999996
40
0.968749999999996
40
1
40
1
40
1
40
1
41
1
10
110.766404464404
20
-1.86745000976351
30
-1E-16
41
1
10
110.732614885184
20
-1.90570896481196
30
-1E-16
41
1
10
110.701049675149
20
-1.92954087455681
30
-1E-16
41
1
10
110.640899867709
20
-1.94937214677145
30
-1E-16
41
1
10
110.613906101072
20
-1.9447961891257
30
1E-16
41
1
10
110.564624852173
20
-1.90594044714842
30
1E-16
41
1
10
110.543625151623
20
-1.87270322982698
30
1E-16
41
1
10
110.508330361877
20
-1.77684638693049
30
1E-16
41
1
10
110.494970591779
20
-1.71684899813627
30
1E-16
41
1
10
110.482513608571
20
-1.60747780406288
30
1E-16
41
1
10
110.47981232609
20
-1.56894599333609
30
1E-16
41
1
10
110.477560941442
20
-1.488005888125
30
1E-16
41
1
10
110.478033247336
20
-1.44497376567082
30
1E-16
41
1
10
110.482737978093
20
-1.35709311875959
30
1E-16
41
1
10
110.486890276892
20
-1.31290784090007
30
1E-16
41
1
10
110.49921833136
20
-1.22407101273367
30
1E-16
41
1
10
110.507493098844
20
-1.1793375464718
30
1E-16
41
1
10
110.527531758685
20
-1.09471275925512
30
1E-16
41
1
10
110.539547955458
20
-1.05365927036291
30
1E-16
41
1
10
110.566639932516
20
-0.977564594687891
30
1E-16
41
1
10
110.581566743221
20
-0.942731640946818
30
1E-16
41
1
10
110.61406838721
20
-0.879008755385172
30
1E-16
41
1
10
110.63135318443
20
-0.85075313508753
30
1E-16
41
1
10
110.667094688975
20
-0.80162303485838
30
0
41
1
10
110.685814566338
20
-0.780440236522622
30
0
41
1
10
110.723382960412
20
-0.745685940478268
30
0
41
1
10
110.7422971354
20
-0.731957128114573
30
0
41
1
10
110.780241582306
20
-0.711208595432595
30
0
41
1
10
110.799232878196
20
-0.704274468674356
30
0
41
1
10
110.836059781383
20
-0.697184732172786
30
0
41
1
10
110.85404375354
20
-0.696940195015486
30
0
41
1
10
110.888985713606
20
-0.703010549165185
30
0
41
1
10
110.905908462079
20
-0.709389260929129
30
0
41
1
10
110.937448376387
20
-0.728443326043447
30
0
41
1
10
110.952212959465
20
-0.741127196545477
30
0
41
1
10
110.979447341233
20
-0.773220086042159
30
0
41
1
10
110.992004529908
20
-0.792867702718326
30
0
41
1
10
111.013539493554
20
-0.83836576047446
30
1E-16
41
1
10
111.022617465055
20
-0.864234919008538
30
1E-16
41
1
10
111.036918312451
20
-0.923010206838569
30
1E-16
41
1
10
111.04206739357
20
-0.955968068959436
30
1E-16
41
1
10
111.047527326563
20
-1.026749785428
30
1E-16
41
1
10
111.047902634832
20
-1.06542118856694
30
1E-16
41
1
10
111.043560048092
20
-1.14656401143458
30
1E-16
41
1
10
111.038938952469
20
-1.18849622567836
30
1E-16
41
1
10
111.024894404345
20
-1.27522121946058
30
1E-16
41
1
10
111.015441738462
20
-1.31975383457842
30
1E-16
41
1
10
110.993079078599
20
-1.40662596648352
30
1E-16
41
1
10
110.979877006628
20
-1.45011840648135
30
1E-16
41
1
10
110.936972785851
20
-1.57411207894032
30
1E-16
41
1
10
110.90350356299
20
-1.64993452084178
30
1E-16
41
1
10
110.852304394857
20
-1.74534563631909
30
1E-16
41
1
10
110.834812601425
20
-1.77455934593385
30
1E-16
41
1
10
110.800400659996
20
-1.82588007505785
30
-1E-16
41
1
10
110.783299254014
20
-1.84832053223929
30
-1E-16
41
1
10
110.766404464404
20
-1.86745000976351
30
-1E-16
0
SPLINE
5
E0
100
AcDbEntity
8
1
62
256
6
ByLayer
370
18
48
1
60
0
100
AcDbSpline
70
4
71
3
72
62
73
58
40
0
40
0
40
0
40
0
40
0.0037467678937807
40
0.0037467678937807
40
0.0470621258114405
40
0.0470621258114405
40
0.0903774837291003
40
0.0903774837291003
40
0.13369284164676
40
0.13369284164676
40
0.17700819956442
40
0.17700819956442
40
0.19866587852325
40
0.19866587852325
40
0.22032355748208
40
0.22032355748208
40
0.306954273317396
40
0.306954273317396
40
0.350269631235055
40
0.350269631235055
40
0.371927310193885
40
0.371927310193885
40
0.393584989152715
40
0.393584989152715
40
0.436900347070375
40
0.436900347070375
40
0.458558026029206
40
0.458558026029206
40
0.480215704988037
40
0.480215704988037
40
0.523531062905698
40
0.523531062905698
40
0.545188741864529
40
0.545188741864529
40
0.56684642082336
40
0.56684642082336
40
0.610161778741022
40
0.610161778741022
40
0.631819457699853
40
0.631819457699853
40
0.653477136658684
40
0.653477136658684
40
0.696792494576346
40
0.696792494576346
40
0.718450173535178
40
0.718450173535178
40
0.74010785249401
40
0.74010785249401
40
0.82673856832934
40
0.82673856832934
40
0.870053926247005
40
0.870053926247005
40
0.91336928416467
40
0.91336928416467
40
0.956684642082335
40
0.956684642082335
40
1
40
1
40
1
40
1
41
1
10
76.4519927057345
20
3.51345093983031
30
0
41
1
10
76.4940979665959
20
3.5295870278527
30
0
41
1
10
76.5362143882935
20
3.54560312800047
30
0
41
1
10
77.0653811200323
20
3.74525021493383
30
2E-16
41
1
10
77.5508186437057
20
3.9114960334112
30
2E-16
41
1
10
78.5216827655857
20
4.20555612459401
30
2E-16
41
1
10
79.0071233696393
20
4.33342358745375
30
2E-16
41
1
10
79.9810867789195
20
4.54785820863123
30
-1E-16
41
1
10
80.4667956158963
20
4.63375778449944
30
-1E-16
41
1
10
81.4375418542569
20
4.76115284988768
30
0
41
1
10
81.9228277649499
20
4.80270157891292
30
0
41
1
10
82.6530386205645
20
4.83083059552681
30
0
41
1
10
82.8961994217089
20
4.83446994057607
30
0
41
1
10
83.3806601467462
20
4.83038597642752
30
0
41
1
10
83.6222347938258
20
4.82267420027452
30
0
41
1
10
84.8278634368028
20
4.75625158363979
30
-1E-16
41
1
10
85.7852888088462
20
4.61396876100775
30
-1E-16
41
1
10
87.2292633276714
20
4.27639208550434
30
2E-16
41
1
10
87.7119002741655
20
4.14317741496288
30
2E-16
41
1
10
88.4402724878526
20
3.91370011599622
30
2E-16
41
1
10
88.6840223334269
20
3.83217379089521
30
2E-16
41
1
10
89.1701565210467
20
3.66067460401351
30
2E-16
41
1
10
89.4129138431354
20
3.57059205197055
30
-2E-16
41
1
10
90.1408670986232
20
3.28812994909342
30
-2E-16
41
1
10
90.6257438999393
20
3.08353105872126
30
-2E-16
41
1
10
91.3549242835983
20
2.75546158131169
30
-2E-16
41
1
10
91.5985292364301
20
2.64246251105237
30
-2E-16
41
1
10
92.0847506611641
20
2.41093937402172
30
-1E-16
41
1
10
92.3275453143898
20
2.29234172881789
30
-1E-16
41
1
10
93.0555660375605
20
1.92899986878763
30
-1E-16
41
1
10
93.5404174048964
20
1.67668564256814
30
-1E-16
41
1
10
94.2694301630139
20
1.28715164249087
30
-1E-16
41
1
10
94.5129894521714
20
1.15532174633876
30
-1E-16
41
1
10
94.9992358580617
20
0.889713718795605
30
-1E-16
41
1
10
95.2420321081789
20
0.755883077616204
30
0
41
1
10
95.9700378116298
20
0.35238244590542
30
0
41
1
10
96.4548408197641
20
0.0806618355016724
30
0
41
1
10
97.1836685500764
20
-0.326657301641063
30
0
41
1
10
97.4271611033694
20
-0.462534450296232
30
0
41
1
10
97.9134134491577
20
-0.732476707841244
30
0
41
1
10
98.1561968196168
20
-0.866554953848549
30
1E-16
41
1
10
98.8841500260964
20
-1.26501457575054
30
1E-16
41
1
10
99.3689357542872
20
-1.52559977815369
30
1E-16
41
1
10
100.097683627803
20
-1.90483469837716
30
1E-16
41
1
10
100.341266017648
20
-2.02951144820639
30
1E-16
41
1
10
100.827109531433
20
-2.27315760626178
30
1E-16
41
1
10
101.069253682018
20
-2.39207615983699
30
1E-16
41
1
10
102.277136848351
20
-2.97073189919883
30
2E-16
41
1
10
103.23449220489
20
-3.38244748691329
30
2E-16
41
1
10
104.675755240625
20
-3.89887369313854
30
-2E-16
41
1
10
105.157046246688
20
-4.05416041069668
30
-2E-16
41
1
10
106.124631153903
20
-4.32688577165581
30
-2E-16
41
1
10
106.612059229981
20
-4.44445077271385
30
1E-16
41
1
10
107.583942169311
20
-4.63580549959329
30
1E-16
41
1
10
108.069826947259
20
-4.71004450852962
30
1E-16
41
1
10
109.042719404746
20
-4.81350269976514
30
0
41
1
10
109.528106445712
20
-4.84257262794958
30
0
41
1
10
110.014105571371
20
-4.84873673045473
30
0
0
SPLINE
5
E1
100
AcDbEntity
8
1
62
256
6
ByLayer
370
18
48
1
60
0
100
AcDbSpline
70
4
71
3
72
22
73
18
40
0
40
0
40
0
40
0
40
0.0928162358475236
40
0.0928162358475236
40
0.319612176885637
40
0.319612176885637
40
0.433010147404697
40
0.433010147404697
40
0.546408117923757
40
0.546408117923757
40
0.773204058961876
40
0.773204058961876
40
0.886602029480935
40
0.886602029480935
40
0.943301014740468
40
0.943301014740468
40
1
40
1
40
1
40
1
41
1
10
97.4336835641713
20
0.215010013376229
30
0
41
1
10
97.8320794583853
20
0.0036064573801866
30
0
41
1
10
98.2288425645302
20
-0.207680876249839
30
0
41
1
10
99.5924108483326
20
-0.929286779437973
30
1E-16
41
1
10
100.555274975952
20
-1.4311127832238
30
1E-16
41
1
10
102.009967688468
20
-2.13573539946611
30
1E-16
41
1
10
102.496714054204
20
-2.36262826187843
30
1E-16
41
1
10
103.476330399725
20
-2.79438828731159
30
2E-16
41
1
10
103.96284167591
20
-2.99653072036358
30
2E-16
41
1
10
105.417204894041
20
-3.55598708540393
30
2E-16
41
1
10
106.379963677821
20
-3.86648245686095
30
-2E-16
41
1
10
107.831084896868
20
-4.21849912497754
30
0
41
1
10
108.316046062197
20
-4.31708959381947
30
0
41
1
10
109.047520854621
20
-4.43423615140549
30
0
41
1
10
109.292317390617
20
-4.46816643720646
30
1E-16
41
1
10
109.781942247657
20
-4.52514774536653
30
1E-16
41
1
10
110.026609254868
20
-4.5477182468247
30
-1E-16
41
1
10
110.271389774168
20
-4.56577078457298
30
-1E-16
0
SPLINE
5
E2
100
AcDbEntity
8
1
62
256
6
ByLayer
370
18
48
1
60
0
100
AcDbSpline
70
4
71
3
72
8
73
4
40
0
40
0
40
0
40
0
40
1
40
1
40
1
40
1
41
1
10
63.5
20
2.97869589871274
30
-2E-16
41
1
10
63.5
20
2.96012821477726
30
-2E-16
41
1
10
63.5
20
2.9406243579156
30
-2E-16
41
1
10
63.5
20
2.92020280000807
30
-2E-16
0
SPLINE
5
E3
100
AcDbEntity
8
1
62
256
6
ByLayer
370
18
48
1
60
0
100
AcDbSpline
70
4
71
3
72
8
73
4
40
0
40
0
40
0
40
0
40
1
40
1
40
1
40
1
41
1
10
109.996539818363
20
-4.78470725443131
30
0
41
1
10
110.079719576813
20
-4.73780434965181
30
0
41
1
10
110.163124240257
20
-4.68984311005102
30
0
41
1
10
110.246794525402
20
-4.64085504865011
30
0
0
SPLINE
5
E4
100
AcDbEntity
8
1
62
256
6
ByLayer
370
18
48
1
60
0
100
AcDbSpline
70
4
71
3
72
8
73
4
40
0
40
0
40
0
40
0
40
1
40
1
40
1
40
1
41
1
10
111.995527494933
20
0.26776537145642
30
0
41
1
10
111.97457820159
20
0.197939754153822
30
0
41
1
10
111.953524383291
20
0.128146640551762
30
0
41
1
10
111.93236642964
20
0.058385909496991
30
0
0
SPLINE
5
E5
100
AcDbEntity
8
1
62
256
6
ByLayer
370
18
48
1
60
0
100
AcDbSpline
70
4
71
3
72
36
73
32
40
0
40
0
40
0
40
0
40
0.0372897373832015
40
0.0372897373832015
40
0.0745794747664029
40
0.0745794747664029
40
0.149158949532806
40
0.149158949532806
40
0.186448686916007
40
0.186448686916007
40
0.223738424299209
40
0.223738424299209
40
0.298317899065612
40
0.298317899065612
40
0.447476848598418
40
0.447476848598418
40
0.52205632336482
40
0.52205632336482
40
0.596635798131222
40
0.596635798131222
40
0.671215272897624
40
0.671215272897624
40
0.745794747664026
40
0.745794747664026
40
0.820374222430428
40
0.820374222430428
40
0.89495369719683
40
0.89495369719683
40
0.969533171963232
40
0.969533171963232
40
1
40
1
40
1
40
1
41
1
10
63.4999999999999
20
3.03494829760723
30
-2E-16
41
1
10
63.7435638847719
20
2.92965784295029
30
-2E-16
41
1
10
63.9873408829098
20
2.82067011468422
30
-2E-16
41
1
10
64.4738762894816
20
2.59675574644592
30
-2E-16
41
1
10
64.7167298146886
20
2.4817947055065
30
-2E-16
41
1
10
65.4446198170247
20
2.128844496489
30
-1E-16
41
1
10
65.9289696502583
20
1.88276076388888
30
-1E-16
41
1
10
66.6565442939011
20
1.50142752911364
30
-1E-16
41
1
10
66.8992467332218
20
1.37228631098185
30
-1E-16
41
1
10
67.385428955494
20
1.11064427574064
30
-1E-16
41
1
10
67.6293336355071
20
0.977909390537718
30
-1E-16
41
1
10
68.3583146246836
20
0.578229433981079
30
0
41
1
10
68.8413769314858
20
0.309490498094846
30
0
41
1
10
70.2864033385935
20
-0.495201740721171
30
0
41
1
10
71.2439541158314
20
-1.03007828535024
30
1E-16
41
1
10
72.6908313500824
20
-1.79505181001377
30
1E-16
41
1
10
73.1753517327581
20
-2.04391507851832
30
1E-16
41
1
10
74.1495221137258
20
-2.52242193809516
30
2E-16
41
1
10
74.6350074206124
20
-2.75008997170778
30
2E-16
41
1
10
75.6059043698557
20
-3.17774733168184
30
2E-16
41
1
10
76.0913050030649
20
-3.37774514037093
30
2E-16
41
1
10
77.0653811200354
20
-3.74525021493491
30
-2E-16
41
1
10
77.5508186437089
20
-3.91149603341225
30
-2E-16
41
1
10
78.5216827655891
20
-4.20555612459492
30
-2E-16
41
1
10
79.0071233696427
20
-4.33342358745463
30
-2E-16
41
1
10
79.9810867789232
20
-4.54785820863194
30
1E-16
41
1
10
80.4667956159001
20
-4.63375778450003
30
1E-16
41
1
10
81.4375418542609
20
-4.76115284988811
30
0
41
1
10
81.922827764954
20
-4.8027015789132
30
0
41
1
10
82.6085030206848
20
-4.82911500527047
30
0
41
1
10
82.8072089495613
20
-4.83294609391624
30
0
41
1
10
83.0053777612356
20
-4.83297788311367
30
0
0
SPLINE
5
E6
100
AcDbEntity
8
1
62
256
6
ByLayer
370
18
48
1
60
0
100
AcDbSpline
70
4
71
3
72
16
73
12
40
0
40
0
40
0
40
0
40
0.0857142768742599
40
0.0857142768742599
40
0.314285707655695
40
0.314285707655695
40
0.54285713843713
40
0.54285713843713
40
0.771428569218565
40
0.771428569218565
40
1
40
1
40
1
40
1
41
1
10
103.655146397934
20
3.52606684478465
30
-1E-16
41
1
10
103.835141088552
20
3.59525445102003
30
0
41
1
10
104.015176369578
20
3.66217835590371
30
0
41
1
10
104.675755240634
20
3.89887369314161
30
2E-16
41
1
10
105.157046246698
20
4.05416041069955
30
2E-16
41
1
10
106.124631153912
20
4.32688577165825
30
2E-16
41
1
10
106.61205922999
20
4.44445077271607
30
-1E-16
41
1
10
107.583942169321
20
4.63580549959494
30
-1E-16
41
1
10
108.069826947269
20
4.71004450853101
30
-1E-16
41
1
10
109.042719404756
20
4.81350269976591
30
0
41
1
10
109.528106445723
20
4.84257262795003
30
0
41
1
10
110.014105571381
20
4.84873673045485
30
0
0
SPLINE
5
E7
100
AcDbEntity
8
1
62
256
6
ByLayer
370
18
48
1
60
0
100
AcDbSpline
70
4
71
3
72
10
73
6
40
0
40
0
40
0
40
0
40
0.5
40
0.5
40
1
40
1
40
1
40
1
41
1
10
110.315495150077
20
-4.64924184177949
30
0
41
1
10
110.299895933573
20
-4.65956661014815
30
0
41
1
10
110.286641518266
20
-4.66390844594187
30
0
41
1
10
110.264036069741
20
-4.6608493736548
30
0
41
1
10
110.254738165211
20
-4.65352160942945
30
0
41
1
10
110.246794525402
20
-4.6408550486502
30
0
0
SPLINE
5
E8
100
AcDbEntity
8
1
62
256
6
ByLayer
370
18
48
1
60
0
100
AcDbSpline
70
4
71
3
72
30
73
26
40
0
40
0
40
0
40
0
40
0.125
40
0.125
40
0.1875
40
0.1875
40
0.25
40
0.25
40
0.3125
40
0.3125
40
0.375
40
0.375
40
0.4375
40
0.4375
40
0.5
40
0.5
40
0.5625
40
0.5625
40
0.625
40
0.625
40
0.75
40
0.75
40
0.875
40
0.875
40
1
40
1
40
1
40
1
41
1
10
111.93236642964
20
0.0583859094969625
30
0
41
1
10
111.90888933654
20
-0.0190213485352899
30
0
41
1
10
111.881897614403
20
-0.0946589052706486
30
0
41
1
10
111.835939607329
20
-0.205269880540101
30
0
41
1
10
111.81955499184
20
-0.241947663643089
30
0
41
1
10
111.785695316027
20
-0.3123736499372
30
0
41
1
10
111.768211957637
20
-0.346196101666777
30
0
41
1
10
111.732163794419
20
-0.410973534354383
30
0
41
1
10
111.713599732037
20
-0.441930397908976
30
0
41
1
10
111.675334672899
20
-0.500722752213306
30
0
41
1
10
111.655678714432
20
-0.528424933644203
30
0
41
1
10
111.616813683487
20
-0.578274542901937
30
0
41
1
10
111.597407981921
20
-0.600736872433231
30
0
41
1
10
111.55862437998
20
-0.640634409789271
30
0
41
1
10
111.539069732565
20
-0.658178914829563
30
0
41
1
10
111.501217729823
20
-0.686947494504864
30
0
41
1
10
111.482829382863
20
-0.698314995217117
30
0
41
1
10
111.446986957756
20
-0.715252676621759
30
0
41
1
10
111.429402403147
20
-0.720824447278801
30
0
41
1
10
111.379128934893
20
-0.728643215452905
30
0
41
1
10
111.348508604635
20
-0.722247967230032
30
0
41
1
10
111.292843064356
20
-0.689765152120344
30
0
41
1
10
111.268333491997
20
-0.664200552643962
30
0
41
1
10
111.223963209359
20
-0.597735864253593
30
0
41
1
10
111.204169514578
20
-0.556674069722703
30
0
41
1
10
111.186667121103
20
-0.509953427860921
30
0
0
SPLINE
5
E9
100
AcDbEntity
8
1
62
256
6
ByLayer
370
18
48
1
60
0
100
AcDbSpline
70
4
71
3
72
18
73
14
40
0
40
0
40
0
40
0
40
0.284535477179416
40
0.284535477179416
40
0.426803215769127
40
0.426803215769127
40
0.569070954358838
40
0.569070954358838
40
0.853606431538254
40
0.853606431538254
40
0.995874170127965
40
0.995874170127965
40
1
40
1
40
1
40
1
41
1
10
63.6506963965797
20
-4.02373425296358
30
-2E-16
41
1
10
64.1295538170235
20
-4.17208853538199
30
-2E-16
41
1
10
64.6083918777861
20
-4.30041929062423
30
-2E-16
41
1
10
65.3277313819952
20
-4.4627233412532
30
1E-16
41
1
10
65.567858896397
20
-4.5118249139046
30
1E-16
41
1
10
66.047588329633
20
-4.59971093261063
30
1E-16
41
1
10
66.286945744997
20
-4.63841162716776
30
1E-16
41
1
10
67.0048103282881
20
-4.73818948868677
30
0
41
1
10
67.4829258103254
20
-4.78309839451859
30
0
41
1
10
68.2013156474622
20
-4.81756651336369
30
0
41
1
10
68.441065805339
20
-4.82357177752618
30
0
41
1
10
68.6879070254321
20
-4.82402903599805
30
0
41
1
10
68.6948632850978
20
-4.82403722328363
30
0
41
1
10
68.7018190581048
20
-4.82404071261672
30
0
0
SPLINE
5
EA
100
AcDbEntity
8
1
62
256
6
ByLayer
370
18
48
1
60
0
100
AcDbSpline
70
4
71
3
72
32
73
28
40
0
40
0
40
0
40
0
40
0.122541927704518
40
0.122541927704518
40
0.210287734934065
40
0.210287734934065
40
0.298033542163612
40
0.298033542163612
40
0.385779349393158
40
0.385779349393158
40
0.473525156622705
40
0.473525156622705
40
0.517398060237478
40
0.517398060237478
40
0.561270963852252
40
0.561270963852252
40
0.649016771081802
40
0.649016771081802
40
0.692889674696575
40
0.692889674696575
40
0.736762578311349
40
0.736762578311349
40
0.824508385540899
40
0.824508385540899
40
0.91225419277045
40
0.91225419277045
40
1
40
1
40
1
40
1
41
1
10
93.2437230936766
20
4.61293479669553
30
0
41
1
10
93.9115144646493
20
4.72615848359266
30
0
41
1
10
94.5778830437612
20
4.79814712357341
30
0
41
1
10
95.7272749743068
20
4.84733138216106
30
0
41
1
10
96.2053580590075
20
4.84560528308745
30
0
41
1
10
97.1613957930096
20
4.79808921053478
30
0
41
1
10
97.6388390158361
20
4.75215419441813
30
0
41
1
10
98.5976362388692
20
4.61717062943782
30
-1E-16
41
1
10
99.0762892335246
20
4.5281079654653
30
-1E-16
41
1
10
100.032303731009
20
4.30998962520101
30
2E-16
41
1
10
100.509348039434
20
4.1801144396336
30
2E-16
41
1
10
101.227998267361
20
3.95776875202617
30
2E-16
41
1
10
101.467967940654
20
3.87901493547147
30
2E-16
41
1
10
101.946819266687
20
3.71317239980124
30
2E-16
41
1
10
102.185965554267
20
3.62599882920071
30
-2E-16
41
1
10
102.902890579525
20
3.35210308022781
30
-2E-16
41
1
10
103.379939653075
20
3.15264759743144
30
-2E-16
41
1
10
104.098200714485
20
2.83339466619844
30
-2E-16
41
1
10
104.338134545525
20
2.72344349653574
30
-2E-16
41
1
10
104.816820643461
20
2.49802249432409
30
-2E-16
41
1
10
105.055850621372
20
2.38249133344297
30
-1E-16
41
1
10
105.772520998616
20
2.02828713372284
30
-1E-16
41
1
10
106.249509512071
20
1.78161337744692
30
-1E-16
41
1
10
107.20586381623
20
1.27363822790463
30
-1E-16
41
1
10
107.68565591936
20
1.01151866702151
30
-1E-16
41
1
10
108.641666425179
20
0.483170468023587
30
0
41
1
10
109.118705539338
20
0.216018408795321
30
0
41
1
10
109.596106388318
20
-0.0517383155676043
30
0
0
SPLINE
5
EB
100
AcDbEntity
8
1
62
256
6
ByLayer
370
18
48
1
60
0
100
AcDbSpline
70
4
71
3
72
10
73
6
40
0
40
0
40
0
40
0
40
0.5
40
0.5
40
1
40
1
40
1
40
1
41
1
10
109.996539818362
20
-4.78470725443256
30
0
41
1
10
109.999610734797
20
-4.80341583790636
30
0
41
1
10
110.002542536214
20
-4.81815694479536
30
0
41
1
10
110.008339297612
20
-4.83956827885493
30
0
41
1
10
110.011215190327
20
-4.84624270176354
30
0
41
1
10
110.014105571357
20
-4.84873673045476
30
0
0
SPLINE
5
EC
100
AcDbEntity
8
1
62
256
6
ByLayer
370
18
48
1
60
0
100
AcDbSpline
70
4
71
3
72
14
73
10
40
0
40
0
40
0
40
0
40
0.264625740791766
40
0.264625740791766
40
0.497067800152029
40
0.497067800152029
40
0.776529956062552
40
0.776529956062552
40
1
40
1
40
1
40
1
41
1
10
109.713322685947
20
-0.111835097419856
30
0
41
1
10
109.714058304891
20
-0.112192003714796
30
0
41
1
10
109.714776934251
20
-0.112919701776406
30
0
41
1
10
109.715980725193
20
-0.114705111094708
30
0
41
1
10
109.716500030773
20
-0.115735742621297
30
0
41
1
10
109.717485249942
20
-0.118264536478506
30
0
41
1
10
109.717934923857
20
-0.119853557327275
30
0
41
1
10
109.7185034944
20
-0.122885660044005
30
0
41
1
10
109.71867616323
20
-0.12432953415157
30
0
41
1
10
109.718735058076
20
-0.125770727022683
30
0
0
SPLINE
5
ED
100
AcDbEntity
8
1
62
256
6
ByLayer
370
18
48
1
60
0
100
AcDbSpline
70
4
71
3
72
28
73
24
40
0
40
0
40
0
40
0
40
0.205802453910381
40
0.205802453910381
40
0.308703680865572
40
0.308703680865572
40
0.360154294343168
40
0.360154294343168
40
0.411604907820763
40
0.411604907820763
40
0.617407361731144
40
0.617407361731144
40
0.720308588686336
40
0.720308588686336
40
0.771759202163932
40
0.771759202163932
40
0.823209815641528
40
0.823209815641528
40
0.92611104259672
40
0.92611104259672
40
0.977561656074315
40
0.977561656074315
40
1
40
1
40
1
40
1
41
1
10
13.1955654075381
20
0.929554801646361
30
-1E-16
41
1
10
14.251230142068
20
0.3564111049144
30
0
41
1
10
15.2915868995476
20
-0.228785288405476
30
0
41
1
10
16.852957858372
20
-1.08119488995288
30
1E-16
41
1
10
17.3734736122092
20
-1.3612467392463
30
1E-16
41
1
10
18.1574849583248
20
-1.76947248569621
30
1E-16
41
1
10
18.4193476182709
20
-1.90359804436537
30
1E-16
41
1
10
18.9446092136357
20
-2.16706720370021
30
1E-16
41
1
10
19.2086313962674
20
-2.29671947295503
30
1E-16
41
1
10
20.5253634245369
20
-2.92660302754339
30
2E-16
41
1
10
21.5645089753392
20
-3.36948546840316
30
2E-16
41
1
10
23.1255428317503
20
-3.91325869475744
30
-2E-16
41
1
10
23.6461781799204
20
-4.07453067954057
30
-2E-16
41
1
10
24.4307642015988
20
-4.28268122039793
30
-2E-16
41
1
10
24.6928839319297
20
-4.34645617766469
30
-2E-16
41
1
10
25.2187815618591
20
-4.46221581087201
30
1E-16
41
1
10
25.4829142815632
20
-4.51423909506002
30
1E-16
41
1
10
26.2731135008984
20
-4.65081084503242
30
1E-16
41
1
10
26.7985413476674
20
-4.71625351298471
30
0
41
1
10
27.5875136845954
20
-4.77500848866021
30
0
41
1
10
27.8506159009971
20
-4.78802476966314
30
0
41
1
10
28.2291118106467
20
-4.79714306199929
30
0
41
1
10
28.3441167148226
20
-4.79864129108191
30
0
41
1
10
28.4591056028942
20
-4.79887094542781
30
0
0
SPLINE
5
EE
100
AcDbEntity
8
1
62
256
6
ByLayer
370
18
48
1
60
0
100
AcDbSpline
70
4
71
3
72
30
73
26
40
0
40
0
40
0
40
0
40
0.0101190433149467
40
0.0101190433149467
40
0.120105816279952
40
0.120105816279952
40
0.175099202762454
40
0.175099202762454
40
0.230092589244955
40
0.230092589244955
40
0.340079362209961
40
0.340079362209961
40
0.560052908139974
40
0.560052908139974
40
0.615046294622477
40
0.615046294622477
40
0.670039681104981
40
0.670039681104981
40
0.780026454069987
40
0.780026454069987
40
0.83501984055249
40
0.83501984055249
40
0.890013227034994
40
0.890013227034994
40
1
40
1
40
1
40
1
41
1
10
49.196896077512
20
3.52758872985223
30
0
41
1
10
49.2453458484281
20
3.54592987579738
30
0
41
1
10
49.2938267761773
20
3.56411685397495
30
0
41
1
10
49.8696498426394
20
3.7781221439746
30
2E-16
41
1
10
50.3949348158596
20
3.95352099441504
30
2E-16
41
1
10
51.1830940161053
20
4.18255536343062
30
2E-16
41
1
10
51.4458487394723
20
4.2532308410529
30
2E-16
41
1
10
51.9718946147616
20
4.38279298345941
30
0
41
1
10
52.2356137977319
20
4.4417529008706
30
0
41
1
10
53.025224868276
20
4.59962550280486
30
-1E-16
41
1
10
53.5480726012371
20
4.679140925448
30
-1E-16
41
1
10
55.1116651389445
20
4.84005515640794
30
0
41
1
10
56.147458206784
20
4.84365027397936
30
0
41
1
10
57.4539651434354
20
4.71717483403927
30
0
41
1
10
57.7158601692227
20
4.68534142086696
30
-1E-16
41
1
10
58.2413041271379
20
4.6085634738418
30
-1E-16
41
1
10
58.5051766577092
20
4.56353405830711
30
-1E-16
41
1
10
59.2945417566936
20
4.40999802978959
30
0
41
1
10
59.8194203545685
20
4.28290735969432
30
2E-16
41
1
10
60.6076417438944
20
4.05763654742492
30
2E-16
41
1
10
60.8704975410772
20
3.97673581211632
30
2E-16
41
1
10
61.3971111336809
20
3.80390114758075
30
2E-16
41
1
10
61.6607091019588
20
3.71199784220417
30
2E-16
41
1
10
62.4496585387635
20
3.4218452483907
30
-2E-16
41
1
10
62.9743552311755
20
3.20867370179127
30
-2E-16
41
1
10
63.5
20
2.9786958987122
30
-2E-16
0
SPLINE
5
EF
100
AcDbEntity
8
1
62
256
6
ByLayer
370
18
48
1
60
0
100
AcDbSpline
70
4
71
3
72
32
73
28
40
0
40
0
40
0
40
0
40
0.125
40
0.125
40
0.1875
40
0.1875
40
0.250000000000001
40
0.250000000000001
40
0.312500000000001
40
0.312500000000001
40
0.375000000000001
40
0.375000000000001
40
0.437500000000001
40
0.437500000000001
40
0.500000000000001
40
0.500000000000001
40
0.562500000000001
40
0.562500000000001
40
0.625000000000001
40
0.625000000000001
40
0.687500000000001
40
0.687500000000001
40
0.750000000000001
40
0.750000000000001
40
0.875
40
0.875
40
1
40
1
40
1
40
1
41
1
10
109.718735058076
20
-0.125770727032204
30
0
41
1
10
109.729875499912
20
-0.398384148020341
30
0
41
1
10
109.751844716432
20
-0.665331420901509
30
0
41
1
10
109.793276640564
20
-1.05838105645478
30
1E-16
41
1
10
109.808530201049
20
-1.18815840196808
30
1E-16
41
1
10
109.840904591681
20
-1.44530805059148
30
1E-16
41
1
10
109.858083657184
20
-1.57308450309637
30
1E-16
41
1
10
109.893130194972
20
-1.82422187587693
30
1E-16
41
1
10
109.910940121205
20
-1.94722893830652
30
1E-16
41
1
10
109.946333868974
20
-2.18824059849604
30
1E-16
41
1
10
109.963958333952
20
-2.3065129774786
30
1E-16
41
1
10
109.998085266522
20
-2.53632284607494
30
2E-16
41
1
10
110.014595657648
20
-2.64791792270475
30
2E-16
41
1
10
110.046063911987
20
-2.86451833052738
30
2E-16
41
1
10
110.061044705706
20
-2.96969993045775
30
2E-16
41
1
10
110.088922756305
20
-3.17151555973601
30
2E-16
41
1
10
110.101851838852
20
-3.26835919752753
30
2E-16
41
1
10
110.125648466561
20
-3.45387153080318
30
2E-16
41
1
10
110.136514189551
20
-3.54255245741311
30
2E-16
41
1
10
110.156141576046
20
-3.7099177210678
30
-2E-16
41
1
10
110.164934474514
20
-3.78884016938267
30
-2E-16
41
1
10
110.180865469417
20
-3.93707736134658
30
-2E-16
41
1
10
110.187985545763
20
-4.00622873463843
30
-2E-16
41
1
10
110.207557533325
20
-4.19721577240608
30
0
41
1
10
110.218270111916
20
-4.30365961245977
30
0
41
1
10
110.241306188526
20
-4.46927476984999
30
1E-16
41
1
10
110.253676975731
20
-4.52918120098039
30
1E-16
41
1
10
110.271389774163
20
-4.565770784573
30
-1E-16
0
SPLINE
5
F0
100
AcDbEntity
8
1
62
256
6
ByLayer
370
18
48
1
60
0
100
AcDbSpline
70
4
71
3
72
24
73
20
40
0
40
0
40
0
40
0
40
0.125391851091825
40
0.125391851091825
40
0.25078370218365
40
0.25078370218365
40
0.376175553275475
40
0.376175553275475
40
0.438871478821385
40
0.438871478821385
40
0.501567404367295
40
0.501567404367295
40
0.75235110655094
40
0.75235110655094
40
0.877742957642763
40
0.877742957642763
40
0.940438883188674
40
0.940438883188674
40
1
40
1
40
1
40
1
41
1
10
109.585603649074
20
0.633066484355624
30
0
41
1
10
109.064267344236
20
0.922880809389028
30
-1E-16
41
1
10
108.545304365217
20
1.20732899464994
30
-1E-16
41
1
10
107.509208975185
20
1.76058739173391
30
-1E-16
41
1
10
106.991558430927
20
2.02848387940267
30
-1E-16
41
1
10
105.953469648991
20
2.54081604227034
30
-2E-16
41
1
10
105.433407797009
20
2.78583220717079
30
-2E-16
41
1
10
104.647940176909
20
3.13020749140642
30
-2E-16
41
1
10
104.384855547234
20
3.24134819747621
30
-2E-16
41
1
10
103.861431856389
20
3.4532311349758
30
-2E-16
41
1
10
103.600545743401
20
3.55423067846775
30
-2E-16
41
1
10
102.298911736593
20
4.03327862289484
30
2E-16
41
1
10
101.266510648971
20
4.33341992579898
30
2E-16
41
1
10
99.7078168822439
20
4.63826449364751
30
-1E-16
41
1
10
99.1868879255464
20
4.71578733128206
30
-1E-16
41
1
10
98.399289612018
20
4.79284060421466
30
0
41
1
10
98.1367677750697
20
4.81191594639603
30
0
41
1
10
97.6274049101996
20
4.83613670912271
30
0
41
1
10
97.3799249506229
20
4.84193842270832
30
0
41
1
10
97.1328928301054
20
4.84181019688774
30
0
0
SPLINE
5
F1
100
AcDbEntity
8
1
62
256
6
ByLayer
370
18
48
1
60
0
100
AcDbSpline
70
4
71
3
72
60
73
56
40
0
40
0
40
0
40
0
40
0.0133853120820758
40
0.0133853120820758
40
0.058759485316097
40
0.058759485316097
40
0.0814465719331075
40
0.0814465719331075
40
0.104133658550118
40
0.104133658550118
40
0.149507831784139
40
0.149507831784139
40
0.240256178252182
40
0.240256178252182
40
0.262943264869192
40
0.262943264869192
40
0.285630351486203
40
0.285630351486203
40
0.331004524720224
40
0.331004524720224
40
0.376378697954245
40
0.376378697954245
40
0.421752871188266
40
0.421752871188266
40
0.444439957805277
40
0.444439957805277
40
0.467127044422288
40
0.467127044422288
40
0.512501217656309
40
0.512501217656309
40
0.55787539089033
40
0.55787539089033
40
0.603249564124351
40
0.603249564124351
40
0.625936650741363
40
0.625936650741363
40
0.648623737358373
40
0.648623737358373
40
0.693997910592395
40
0.693997910592395
40
0.739372083826416
40
0.739372083826416
40
0.784746257060437
40
0.784746257060437
40
0.830120430294458
40
0.830120430294458
40
0.875494603528479
40
0.875494603528479
40
0.920868776762501
40
0.920868776762501
40
0.943555863379511
40
0.943555863379511
40
0.966242949996522
40
0.966242949996522
40
1
40
1
40
1
40
1
41
1
10
77.2547668144585
20
-3.21071225171633
30
2E-16
41
1
10
77.1018395144495
20
-3.27442267187803
30
2E-16
41
1
10
76.9488977411268
20
-3.33663700433766
30
2E-16
41
1
10
76.277239351456
20
-3.60289806414573
30
2E-16
41
1
10
75.7575224048214
20
-3.79013788511642
30
-2E-16
41
1
10
74.9743230780763
20
-4.04045968137615
30
-2E-16
41
1
10
74.7125795393037
20
-4.11871686007146
30
-2E-16
41
1
10
74.187072626872
20
-4.26402627148912
30
-2E-16
41
1
10
73.9246834327333
20
-4.33067677825696
30
-2E-16
41
1
10
73.1403705012084
20
-4.51178683459904
30
1E-16
41
1
10
72.6207398868579
20
-4.60803045448623
30
1E-16
41
1
10
71.0642225841285
20
-4.82018807613852
30
0
41
1
10
70.0301082895366
20
-4.85988207580408
30
0
41
1
10
68.722330914838
20
-4.77704123826004
30
0
41
1
10
68.4595180268368
20
-4.75378312955198
30
0
41
1
10
67.9342881153424
20
-4.69419607899061
30
1E-16
41
1
10
67.6725459537327
20
-4.65799642739239
30
1E-16
41
1
10
66.8892175118691
20
-4.53090037432784
30
1E-16
41
1
10
66.3700955609031
20
-4.42111013602764
30
0
41
1
10
65.3324371478994
20
-4.15612401895916
30
-2E-16
41
1
10
64.8142009925379
20
-4.00077955902958
30
-2E-16
41
1
10
63.7755214648539
20
-3.64746987956121
30
-2E-16
41
1
10
63.25484198589
20
-3.44974823472887
30
2E-16
41
1
10
62.4688543371136
20
-3.12445634172153
30
2E-16
41
1
10
62.2054481661721
20
-3.01096520165876
30
2E-16
41
1
10
61.6810188698061
20
-2.77706725877007
30
2E-16
41
1
10
61.4196354270354
20
-2.65655816243279
30
2E-16
41
1
10
60.6372857188807
20
-2.28555666741335
30
1E-16
41
1
10
60.1182297480495
20
-2.02540214464781
30
1E-16
41
1
10
59.0806443242297
20
-1.48717808659353
30
1E-16
41
1
10
58.5623181482515
20
-1.20877203333177
30
1E-16
41
1
10
57.5227245329173
20
-0.64005337510531
30
0
41
1
10
57.0009988115506
20
-0.350601248510088
30
0
41
1
10
56.2136525253022
20
0.0881095573286643
30
0
41
1
10
55.9504059121378
20
0.234845679544804
30
0
41
1
10
55.4267597969925
20
0.525599960009828
30
0
41
1
10
55.1657150024883
20
0.669979018354809
30
0
41
1
10
54.3841731281985
20
1.0988477490593
30
-1E-16
41
1
10
53.8652969986602
20
1.37911658487735
30
-1E-16
41
1
10
52.8277407593099
20
1.92132254174837
30
-1E-16
41
1
10
52.3091203609272
20
2.18336868597035
30
-1E-16
41
1
10
51.2684146567531
20
2.68287442458734
30
-2E-16
41
1
10
50.7460085329563
20
2.91984275095908
30
-2E-16
41
1
10
49.69426326175
20
3.36319644319477
30
-2E-16
41
1
10
49.1712442224022
20
3.56578649981978
30
-2E-16
41
1
10
48.1296334093543
20
3.92829411722406
30
2E-16
41
1
10
47.6111290215513
20
4.08894528034909
30
2E-16
41
1
10
46.5735204110975
20
4.36406067370132
30
2E-16
41
1
10
46.0546240951797
20
4.47877020930406
30
-1E-16
41
1
10
45.2732078953473
20
4.61403393203958
30
-1E-16
41
1
10
45.012207208561
20
4.65297953073073
30
-1E-16
41
1
10
44.4886637907553
20
4.71818205619007
30
0
41
1
10
44.2256061117205
20
4.74448048022217
30
0
41
1
10
43.5717746257354
20
4.79338463702189
30
0
41
1
10
43.18273027558
20
4.80785878925903
30
0
41
1
10
42.7948648850344
20
4.80784674421369
30
0
0
SPLINE
5
F2
100
AcDbEntity
8
1
62
256
6
ByLayer
370
18
48
1
60
0
100
AcDbSpline
70
4
71
3
72
26
73
22
40
0
40
0
40
0
40
0
40
0.124452812881661
40
0.124452812881661
40
0.186991897675829
40
0.186991897675829
40
0.249530982469997
40
0.249530982469997
40
0.37460915205833
40
0.37460915205833
40
0.499687321646664
40
0.499687321646664
40
0.624765491234998
40
0.624765491234998
40
0.687304576029165
40
0.687304576029165
40
0.749843660823333
40
0.749843660823333
40
0.874921830411667
40
0.874921830411667
40
1
40
1
40
1
40
1
41
1
10
22.055949144083
20
-3.52504727761146
30
0
41
1
10
21.5388399787745
20
-3.71918137178514
30
-2E-16
41
1
10
21.0207303099976
20
-3.89474999182676
30
-2E-16
41
1
10
20.2377602625424
20
-4.12665132049824
30
-2E-16
41
1
10
19.9747043868466
20
-4.1989374861958
30
-2E-16
41
1
10
19.4484777247283
20
-4.3316809133714
30
-2E-16
41
1
10
19.1863104670073
20
-4.39190465566909
30
0
41
1
10
18.4018754183644
20
-4.55387571914281
30
1E-16
41
1
10
17.8813063061517
20
-4.63674071202004
30
1E-16
41
1
10
16.8424148781217
20
-4.75183581927848
30
0
41
1
10
16.3236769669983
20
-4.78380162481886
30
0
41
1
10
15.2831607571723
20
-4.79583102067988
30
0
41
1
10
14.7620472911404
20
-4.77589698374214
30
0
41
1
10
13.9753294903206
20
-4.70639034952262
30
0
41
1
10
13.7117233244953
20
-4.6765435033021
30
1E-16
41
1
10
13.185850328341
20
-4.60409984169249
30
1E-16
41
1
10
12.9235079346106
20
-4.56152046062789
30
1E-16
41
1
10
12.1373605045861
20
-4.41540587333117
30
0
41
1
10
11.6144235121418
20
-4.29355098222456
30
-2E-16
41
1
10
10.5677364730009
20
-4.00341739511353
30
-2E-16
41
1
10
10.0437339023495
20
-3.83526669030348
30
-2E-16
41
1
10
9.51647132511704
20
-3.64657505821353
30
-2E-16
0
SPLINE
5
F3
100
AcDbEntity
8
1
62
256
6
ByLayer
370
18
48
1
60
0
100
AcDbSpline
70
4
71
3
72
8
73
4
40
0
40
0
40
0
40
0
40
1
40
1
40
1
40
1
41
1
10
63.5530862556327
20
3.51108701088458
30
-2E-16
41
1
10
63.5218514244705
20
3.52299031552752
30
-2E-16
41
1
10
63.5017340025458
20
3.54633434302357
30
-2E-16
41
1
10
63.5017340025458
20
3.57035599591421
30
-2E-16
0
SPLINE
5
F4
100
AcDbEntity
8
1
62
256
6
ByLayer
370
18
48
1
60
0
100
AcDbSpline
70
4
71
3
72
70
73
66
40
0
40
0
40
0
40
0
40
0.016938526572861
40
0.016938526572861
40
0.0649910771482969
40
0.0649910771482969
40
0.0890173524360154
40
0.0890173524360154
40
0.113043627723734
40
0.113043627723734
40
0.161096178299171
40
0.161096178299171
40
0.185122453586889
40
0.185122453586889
40
0.209148728874607
40
0.209148728874607
40
0.257201279450044
40
0.257201279450044
40
0.281227554737762
40
0.281227554737762
40
0.305253830025481
40
0.305253830025481
40
0.353306380600919
40
0.353306380600919
40
0.377332655888638
40
0.377332655888638
40
0.401358931176358
40
0.401358931176358
40
0.425385206464078
40
0.425385206464078
40
0.449411481751797
40
0.449411481751797
40
0.473437757039517
40
0.473437757039517
40
0.497464032327236
40
0.497464032327236
40
0.521490307614956
40
0.521490307614956
40
0.545516582902675
40
0.545516582902675
40
0.569542858190395
40
0.569542858190395
40
0.593569133478115
40
0.593569133478115
40
0.617595408765834
40
0.617595408765834
40
0.641621684053554
40
0.641621684053554
40
0.665647959341273
40
0.665647959341273
40
0.689674234628993
40
0.689674234628993
40
0.713700509916712
40
0.713700509916712
40
0.737726785204432
40
0.737726785204432
40
0.785779335779871
40
0.785779335779871
40
0.83383188635531
40
0.83383188635531
40
0.881884436930749
40
0.881884436930749
40
0.97798953808163
40
0.97798953808163
40
1
40
1
40
1
40
1
41
1
10
66.0198826154637
20
4.59328372529922
30
-1E-16
41
1
10
66.1888031310375
20
4.62207079621729
30
-1E-16
41
1
10
66.3575357375046
20
4.64822311342991
30
-1E-16
41
1
10
67.0048103282876
20
4.73818948868671
30
0
41
1
10
67.4829258103247
20
4.78309839451853
30
0
41
1
10
68.2013156474614
20
4.81756651336366
30
0
41
1
10
68.4410658053382
20
4.82357177752615
30
0
41
1
10
68.9208347260956
20
4.82446052051441
30
0
41
1
10
69.1601246172694
20
4.81931685030338
30
0
41
1
10
69.877857535062
20
4.78733570081806
30
0
41
1
10
70.3562302548141
20
4.74411351317482
30
0
41
1
10
71.0746158217554
20
4.64705271864042
30
-1E-16
41
1
10
71.3142305583118
20
4.60932008108992
30
-1E-16
41
1
10
71.7938967066425
20
4.52299617694851
30
-1E-16
41
1
10
72.0333946063477
20
4.47445441011374
30
-1E-16
41
1
10
72.7511722154927
20
4.31399060054181
30
2E-16
41
1
10
73.2293038969807
20
4.18727872290501
30
2E-16
41
1
10
73.9473297435112
20
3.96909735784337
30
2E-16
41
1
10
74.1868323911362
20
3.89169794708732
30
2E-16
41
1
10
74.6663790949223
20
3.7276865392036
30
2E-16
41
1
10
74.9061779713082
20
3.64109878954929
30
2E-16
41
1
10
75.6243705800943
20
3.36989992978386
30
-2E-16
41
1
10
76.1023350554416
20
3.17337354411217
30
-2E-16
41
1
10
76.8199110006532
20
2.8575510791934
30
-2E-16
41
1
10
77.0593531772323
20
2.74897962714135
30
-2E-16
41
1
10
77.5387880290722
20
2.52528758750145
30
-2E-16
41
1
10
77.7787506659697
20
2.41007907292288
30
-1E-16
41
1
10
78.2576792455558
20
2.17503131522727
30
-1E-16
41
1
10
78.4969665644079
20
2.05516165715869
30
-1E-16
41
1
10
78.9751126143466
20
1.81062076911175
30
-1E-16
41
1
10
79.2139023118348
20
1.68582221391995
30
-1E-16
41
1
10
79.6922769248245
20
1.43346734605495
30
-1E-16
41
1
10
79.9316990470099
20
1.30564491065323
30
-1E-16
41
1
10
80.4110890898205
20
1.04683390286718
30
-1E-16
41
1
10
80.6512191096858
20
0.915735034067751
30
-1E-16
41
1
10
81.1303337037662
20
0.652118977656272
30
0
41
1
10
81.3695776509403
20
0.519540072628502
30
0
41
1
10
81.8474812976579
20
0.252915245709829
30
0
41
1
10
82.086012844252
20
0.118637365391379
30
0
41
1
10
82.5641353238606
20
-0.148428806941524
30
0
41
1
10
82.8035181799044
20
-0.281590261919604
30
0
41
1
10
83.2828953839053
20
-0.54722496950447
30
0
41
1
10
83.5231640166139
20
-0.679796588228868
30
0
41
1
10
84.0026143660615
20
-0.943015628556736
30
1E-16
41
1
10
84.2419031850852
20
-1.07373680221892
30
1E-16
41
1
10
84.7197024437371
20
-1.33320318620795
30
1E-16
41
1
10
84.9583090353883
20
-1.4617713491221
30
1E-16
41
1
10
85.4362689616769
20
-1.71430193171747
30
1E-16
41
1
10
85.6755382940359
20
-1.83841701240186
30
1E-16
41
1
10
86.1546701643515
20
-2.08234299176505
30
1E-16
41
1
10
86.3947916359172
20
-2.2022881546462
30
1E-16
41
1
10
86.874271660079
20
-2.43695642589225
30
1E-16
41
1
10
87.113560367508
20
-2.55164252979569
30
2E-16
41
1
10
87.5913644100314
20
-2.77546681754711
30
2E-16
41
1
10
87.830001123255
20
-2.88440581937678
30
2E-16
41
1
10
88.5469738608505
20
-3.19968303741513
30
2E-16
41
1
10
89.0263607649139
20
-3.39545861619567
30
2E-16
41
1
10
89.9856738813837
20
-3.75603734364336
30
-2E-16
41
1
10
90.4628537604725
20
-3.92048119859283
30
-2E-16
41
1
10
91.4186915505665
20
-4.21067677916037
30
-2E-16
41
1
10
91.8971902389925
20
-4.33692711539368
30
-2E-16
41
1
10
93.3362850066328
20
-4.65585725497124
30
1E-16
41
1
10
94.2884703364498
20
-4.78576270616364
30
0
41
1
10
95.4673548279171
20
-4.83620899705264
30
0
41
1
10
95.6867176396852
20
-4.8409414512841
30
0
41
1
10
95.9059016212068
20
-4.84102671244162
30
0
0
SPLINE
5
F5
100
AcDbEntity
8
1
62
256
6
ByLayer
370
18
48
1
60
0
100
AcDbSpline
70
4
71
3
72
56
73
52
40
0
40
0
40
0
40
0
40
0.0139369790922749
40
0.0139369790922749
40
0.106234797875654
40
0.106234797875654
40
0.152383707267343
40
0.152383707267343
40
0.175458161963188
40
0.175458161963188
40
0.198532616659032
40
0.198532616659032
40
0.290830435442412
40
0.290830435442412
40
0.313904890138257
40
0.313904890138257
40
0.336979344834103
40
0.336979344834103
40
0.383128254225795
40
0.383128254225795
40
0.429277163617488
40
0.429277163617488
40
0.47542607300918
40
0.47542607300918
40
0.498500527705027
40
0.498500527705027
40
0.521574982400873
40
0.521574982400873
40
0.567723891792565
40
0.567723891792565
40
0.613872801184257
40
0.613872801184257
40
0.660021710575949
40
0.660021710575949
40
0.683096165271794
40
0.683096165271794
40
0.70617061996764
40
0.70617061996764
40
0.752319529359333
40
0.752319529359333
40
0.798468438751025
40
0.798468438751025
40
0.844617348142718
40
0.844617348142718
40
0.867691802838564
40
0.867691802838564
40
0.890766257534411
40
0.890766257534411
40
0.936915166926104
40
0.936915166926104
40
1
40
1
40
1
40
1
41
1
10
103.812602236172
20
-3.47080769771301
30
2E-16
41
1
10
103.654897954963
20
-3.53240883298054
30
2E-16
41
1
10
103.497456425462
20
-3.5921712405555
30
2E-16
41
1
10
102.298911736593
20
-4.03327862289487
30
-2E-16
41
1
10
101.26651064897
20
-4.33341992579892
30
-2E-16
41
1
10
99.7078168822439
20
-4.63826449364751
30
1E-16
41
1
10
99.1868879255463
20
-4.71578733128206
30
1E-16
41
1
10
98.399289612018
20
-4.79284060421463
30
0
41
1
10
98.1367677750697
20
-4.81191594639603
30
0
41
1
10
97.6143442706889
20
-4.83675775685205
30
0
41
1
10
97.3538761787575
20
-4.84253251646004
30
0
41
1
10
96.0539517070335
20
-4.83857333854797
30
0
41
1
10
95.021745281211
20
-4.73030242308806
30
1E-16
41
1
10
93.7215109367269
20
-4.47044951320461
30
1E-16
41
1
10
93.4609837060747
20
-4.41224351943117
30
0
41
1
10
92.938444044679
20
-4.28355129733899
30
-2E-16
41
1
10
92.6759964791046
20
-4.21295492789832
30
-2E-16
41
1
10
91.8882608249475
20
-3.98410633906045
30
-2E-16
41
1
10
91.367120473388
20
-3.80951592074311
30
-2E-16
41
1
10
90.3278926953731
20
-3.42287044760545
30
2E-16
41
1
10
89.8097420411191
20
-3.21096314713657
30
2E-16
41
1
10
88.7734831826988
20
-2.75407370094101
30
2E-16
41
1
10
88.2550487550588
20
-2.50952477027425
30
2E-16
41
1
10
87.4739933131861
20
-2.12276179730799
30
1E-16
41
1
10
87.2130782926909
20
-1.99051069131781
30
1E-16
41
1
10
86.6896010627092
20
-1.72010174227216
30
1E-16
41
1
10
86.4264055311897
20
-1.58162003474729
30
1E-16
41
1
10
85.6400653092364
20
-1.16204056738553
30
1E-16
41
1
10
85.1193571952336
20
-0.876187853487693
30
1E-16
41
1
10
84.0807372299796
20
-0.299965434604587
30
0
41
1
10
83.5627262067628
20
-0.0097765537054784
30
0
41
1
10
82.5261122354808
20
0.568929792339162
30
0
41
1
10
82.0068840551369
20
0.856306331224545
30
-1E-16
41
1
10
81.2247599663953
20
1.28093420972394
30
-1E-16
41
1
10
80.9634615254015
20
1.42132460737343
30
-1E-16
41
1
10
80.4390345939894
20
1.69861615466925
30
-1E-16
41
1
10
80.1759038292078
20
1.83554184717005
30
-1E-16
41
1
10
79.390833162703
20
2.23586176470195
30
-1E-16
41
1
10
78.8706355082009
20
2.49022111720507
30
-2E-16
41
1
10
77.8325069849246
20
2.9681444211115
30
-2E-16
41
1
10
77.3145508242526
20
3.19168358913069
30
-2E-16
41
1
10
76.2772393514561
20
3.60289806414576
30
-2E-16
41
1
10
75.7575224048216
20
3.79013788511642
30
2E-16
41
1
10
74.9743230780764
20
4.04045968137612
30
2E-16
41
1
10
74.7125795393038
20
4.11871686007143
30
2E-16
41
1
10
74.1870726268722
20
4.26402627148909
30
2E-16
41
1
10
73.9246834327334
20
4.33067677825693
30
2E-16
41
1
10
73.1403705012084
20
4.51178683459898
30
-1E-16
41
1
10
72.620739886858
20
4.6080304544862
30
-1E-16
41
1
10
71.3926558979423
20
4.77542170533883
30
0
41
1
10
70.6850759301703
20
4.82456267590979
30
0
41
1
10
69.9741569497947
20
4.82482440231678
30
0
0
SPLINE
5
F6
100
AcDbEntity
8
1
62
256
6
ByLayer
370
18
48
1
60
0
100
AcDbSpline
70
4
71
3
72
58
73
54
40
0
40
0
40
0
40
0
40
0.017087704870984
40
0.017087704870984
40
0.0636557567547859
40
0.0636557567547859
40
0.110223808638588
40
0.110223808638588
40
0.133507834580489
40
0.133507834580489
40
0.15679186052239
40
0.15679186052239
40
0.203359912406191
40
0.203359912406191
40
0.249927964289992
40
0.249927964289992
40
0.296496016173793
40
0.296496016173793
40
0.319780042115693
40
0.319780042115693
40
0.343064068057592
40
0.343064068057592
40
0.436200171825195
40
0.436200171825195
40
0.482768223708996
40
0.482768223708996
40
0.506052249650898
40
0.506052249650898
40
0.529336275592799
40
0.529336275592799
40
0.622472379360406
40
0.622472379360406
40
0.669040431244209
40
0.669040431244209
40
0.692324457186111
40
0.692324457186111
40
0.715608483128012
40
0.715608483128012
40
0.762176535011814
40
0.762176535011814
40
0.808744586895616
40
0.808744586895616
40
0.855312638779418
40
0.855312638779418
40
0.878596664721319
40
0.878596664721319
40
0.90188069066322
40
0.90188069066322
40
0.948448742547022
40
0.948448742547022
40
0.995016794430823
40
0.995016794430823
40
1
40
1
40
1
40
1
41
1
10
49.2246784103905
20
-3.53900487111909
30
2E-16
41
1
10
49.0329460778314
20
-3.61114875087813
30
1E-16
41
1
10
48.8415434191822
20
-3.68053094288277
30
1E-16
41
1
10
48.1296334093542
20
-3.928294117224
30
-2E-16
41
1
10
47.6111290215513
20
-4.08894528034909
30
-2E-16
41
1
10
46.5735204110975
20
-4.36406067370135
30
-2E-16
41
1
10
46.0546240951797
20
-4.47877020930403
30
1E-16
41
1
10
45.2732078953473
20
-4.61403393203958
30
1E-16
41
1
10
45.0122072085611
20
-4.65297953073073
30
1E-16
41
1
10
44.4886637907554
20
-4.71818205619007
30
0
41
1
10
44.2256061117206
20
-4.74448048022217
30
0
41
1
10
43.4372054499189
20
-4.8034499095204
30
0
41
1
10
42.9151947885561
20
-4.81607137970664
30
0
41
1
10
41.8744288338086
20
-4.78932690331143
30
0
41
1
10
41.3561031826057
20
-4.74982056221643
30
0
41
1
10
40.3178820182505
20
-4.62041764042729
30
1E-16
41
1
10
39.7986103730146
20
-4.53034864537906
30
1E-16
41
1
10
39.0163297882395
20
-4.35829647937175
30
-2E-16
41
1
10
38.7549855954883
20
-4.29480782781684
30
-2E-16
41
1
10
38.2306331203943
20
-4.15576330103667
30
-2E-16
41
1
10
37.9670364035793
20
-4.08000832730605
30
-2E-16
41
1
10
36.6549910687421
20
-3.67527866610271
30
-2E-16
41
1
10
35.6190290120796
20
-3.26740879569289
30
2E-16
41
1
10
34.06113000043
20
-2.5645575819357
30
2E-16
41
1
10
33.5415676569686
20
-2.31450382222772
30
1E-16
41
1
10
32.7582141110597
20
-1.92106818883641
30
1E-16
41
1
10
32.496387151432
20
-1.78694319089382
30
1E-16
41
1
10
31.9709089343561
20
-1.51333783448447
30
1E-16
41
1
10
31.7074482029254
20
-1.37353914739595
30
1E-16
41
1
10
30.3972854742782
20
-0.670043689209649
30
0
41
1
10
29.3616784349418
20
-0.0874724554490172
30
0
41
1
10
27.8032816830784
20
0.772332781763282
30
0
41
1
10
27.2831019685052
20
1.05680744375809
30
-1E-16
41
1
10
26.4986541090621
20
1.47461859638796
30
-1E-16
41
1
10
26.2364077948158
20
1.61228295067193
30
-1E-16
41
1
10
25.7100223902712
20
1.88372733356502
30
-1E-16
41
1
10
25.4473208036674
20
2.01716899862964
30
-1E-16
41
1
10
24.6621947842073
20
2.40668540867537
30
-1E-16
41
1
10
24.1412815540727
20
2.65234874006879
30
-2E-16
41
1
10
23.1020391513158
20
3.11265132327367
30
-2E-16
41
1
10
22.5834417630415
20
3.32682235129454
30
-2E-16
41
1
10
21.5440467497433
20
3.71741642390887
30
2E-16
41
1
10
21.0233487954849
20
3.89397444458126
30
2E-16
41
1
10
20.2377602625423
20
4.12665132049824
30
2E-16
41
1
10
19.9747043868466
20
4.1989374861958
30
2E-16
41
1
10
19.4484777247283
20
4.3316809133714
30
2E-16
41
1
10
19.1863104670073
20
4.39190465566912
30
0
41
1
10
18.4018754183643
20
4.55387571914284
30
-1E-16
41
1
10
17.8813063061516
20
4.63674071202004
30
-1E-16
41
1
10
16.8424148781217
20
4.75183581927848
30
0
41
1
10
16.3236769669982
20
4.78380162481886
30
0
41
1
10
15.7477465077363
20
4.79045995019376
30
0
41
1
10
15.6920643586912
20
4.79080644000831
30
0
41
1
10
15.6363693396663
20
4.79085523467532
30
0
0
SPLINE
5
F7
100
AcDbEntity
8
1
62
256
6
ByLayer
370
18
48
1
60
0
100
AcDbSpline
70
4
71
3
72
40
73
36
40
0
40
0
40
0
40
0
40
0.0247975723946506
40
0.0247975723946506
40
0.0744919489687551
40
0.0744919489687551
40
0.12418632554286
40
0.12418632554286
40
0.223575078691068
40
0.223575078691068
40
0.273269455265171
40
0.273269455265171
40
0.322963831839275
40
0.322963831839275
40
0.372658208413379
40
0.372658208413379
40
0.422352584987483
40
0.422352584987483
40
0.472046961561587
40
0.472046961561587
40
0.52174133813569
40
0.52174133813569
40
0.621130091283896
40
0.621130091283896
40
0.720518844432101
40
0.720518844432101
40
0.770213221006204
40
0.770213221006204
40
0.819907597580306
40
0.819907597580306
40
0.919296350728511
40
0.919296350728511
40
0.968990727302614
40
0.968990727302614
40
1
40
1
40
1
40
1
41
1
10
82.7288439512663
20
-0.239204432509553
30
0
41
1
10
82.6094308444063
20
-0.176129141133828
30
0
41
1
10
82.4901262932002
20
-0.112971298177115
30
0
41
1
10
82.1320563870188
20
0.0769796169810775
30
0
41
1
10
81.8938103791449
20
0.204318890399918
30
0
41
1
10
81.4168387505064
20
0.457247840002509
30
0
41
1
10
81.1782015056061
20
0.582986796745899
30
0
41
1
10
80.4618434170011
20
0.957918032601157
30
-1E-16
41
1
10
79.9834961121671
20
1.20454961950935
30
-1E-16
41
1
10
79.2633662908295
20
1.5665010950602
30
-1E-16
41
1
10
79.022986792507
20
1.68595016909285
30
-1E-16
41
1
10
78.5406765383064
20
1.92101588714678
30
-1E-16
41
1
10
78.2982160907488
20
2.03691264450725
30
-1E-16
41
1
10
77.8150480015509
20
2.26295130657692
30
-1E-16
41
1
10
77.5742522272542
20
2.37311673880961
30
-1E-16
41
1
10
77.0935111610604
20
2.58724470333735
30
-2E-16
41
1
10
76.8536154727551
20
2.69119786865903
30
-2E-16
41
1
10
76.374798393408
20
2.89230302760336
30
-2E-16
41
1
10
76.1358304827031
20
2.98947705683693
30
-2E-16
41
1
10
75.6580483917799
20
3.17674708013777
30
-2E-16
41
1
10
75.419274921779
20
3.26681631593363
30
-2E-16
41
1
10
74.7033192534739
20
3.52519183245465
30
-2E-16
41
1
10
74.2260950871527
20
3.68207047473743
30
2E-16
41
1
10
73.2684988272827
20
3.96219995296019
30
2E-16
41
1
10
72.7883268873301
20
4.08535651141472
30
2E-16
41
1
10
72.0642009666093
20
4.24031641362473
30
0
41
1
10
71.8218415813286
20
4.28704713908144
30
0
41
1
10
71.3388932182472
20
4.37067628802262
30
0
41
1
10
71.0978980393832
20
4.40763523029034
30
0
41
1
10
70.3763455796833
20
4.50321016531194
30
-1E-16
41
1
10
69.8971974860087
20
4.54651456012124
30
1E-16
41
1
10
69.1803259399051
20
4.57766757308531
30
0
41
1
10
68.9416523942141
20
4.58248550641576
30
0
41
1
10
68.5537013099845
20
4.58255667143621
30
0
41
1
10
68.4045608944763
20
4.58070586886342
30
0
41
1
10
68.2553480664285
20
4.57686009420871
30
0
0
SPLINE
5
F8
100
AcDbEntity
8
1
62
256
6
ByLayer
370
18
48
1
60
0
100
AcDbSpline
70
4
71
3
72
26
73
22
40
0
40
0
40
0
40
0
40
0.0338333257871412
40
0.0338333257871412
40
0.244006635845124
40
0.244006635845124
40
0.349093290874116
40
0.349093290874116
40
0.401636618388611
40
0.401636618388611
40
0.454179945903106
40
0.454179945903106
40
0.664353255961089
40
0.664353255961089
40
0.874526566019072
40
0.874526566019072
40
0.927069893533567
40
0.927069893533567
40
0.979613221048063
40
0.979613221048063
40
1
40
1
40
1
40
1
41
1
10
84.4808531863782
20
-4.59932838315657
30
0
41
1
10
84.3233586312424
20
-4.60178103289866
30
0
41
1
10
84.1660546171203
20
-4.60195282461876
30
0
41
1
10
83.0341290789268
20
-4.58662529832841
30
-1E-16
41
1
10
82.0689447200479
20
-4.48637861253999
30
1E-16
41
1
10
80.6186707454789
20
-4.21418765540298
30
0
41
1
10
80.134744277216
20
-4.10328593352457
30
-2E-16
41
1
10
79.4057645784623
20
-3.90788119765716
30
-2E-16
41
1
10
79.1623090678724
20
-3.83796199797871
30
-2E-16
41
1
10
78.6741697024998
20
-3.68883666094231
30
-2E-16
41
1
10
78.4288743077623
20
-3.60933712978766
30
2E-16
41
1
10
77.2059241487773
20
-3.19194396917663
30
2E-16
41
1
10
76.2393509432975
20
-2.79480376668684
30
2E-16
41
1
10
74.3060493250953
20
-1.91279163407788
30
1E-16
41
1
10
73.3394954788375
20
-1.42765649279451
30
1E-16
41
1
10
72.1160672010314
20
-0.791812457435896
30
0
41
1
10
71.8706839218417
20
-0.663176308445372
30
0
41
1
10
71.3824319158661
20
-0.405730529701145
30
0
41
1
10
71.1390147413033
20
-0.276663390705096
30
0
41
1
10
70.8017945731485
20
-0.097717188057203
30
0
41
1
10
70.7075982439939
20
-0.047716176958545
30
0
41
1
10
70.6134610509503
20
0.0022433434120046
30
0
0
SPLINE
5
F9
100
AcDbEntity
8
1
62
256
6
ByLayer
370
18
48
1
60
0
100
AcDbSpline
70
4
71
3
72
59
73
55
40
0
40
0
40
0
40
0
40
0.0625000000000039
40
0.0625000000000039
40
0.125000000000008
40
0.125000000000008
40
0.187500000000012
40
0.187500000000012
40
0.250000000000016
40
0.250000000000016
40
0.281250000000017
40
0.281250000000017
40
0.312500000000019
40
0.312500000000019
40
0.34375000000002
40
0.34375000000002
40
0.375000000000022
40
0.375000000000022
40
0.390625000000022
40
0.390625000000022
40
0.406250000000023
40
0.406250000000023
40
0.437500000000024
40
0.437500000000024
40
0.453125000000025
40
0.453125000000025
40
0.468750000000025
40
0.468750000000025
40
0.500000000000027
40
0.500000000000027
40
0.531250000000029
40
0.531250000000029
40
0.562500000000031
40
0.562500000000031
40
0.625000000000035
40
0.625000000000035
40
0.656250000000038
40
0.656250000000038
40
0.660156250000037
40
0.660156250000037
40
0.664062500000037
40
0.664062500000037
40
0.667968750000037
40
0.667968750000037
40
0.671875000000037
40
0.687500000000035
40
0.687500000000035
40
0.750000000000028
40
0.750000000000028
40
0.812500000000021
40
0.812500000000021
40
0.875000000000014
40
0.875000000000014
40
1
40
1
40
1
40
1
41
1
10
9.51644209086638
20
-3.6465591537995
30
-2E-16
41
1
10
9.24835026199327
20
-3.5505011893311
30
2E-16
41
1
10
8.98473783000662
20
-3.44565522779027
30
2E-16
41
1
10
8.46839709613522
20
-3.21397618164161
30
2E-16
41
1
10
8.21563400850235
20
-3.08721862347906
30
2E-16
41
1
10
7.72423516274904
20
-2.80443658374463
30
2E-16
41
1
10
7.48522205728778
20
-2.64843177667527
30
2E-16
41
1
10
7.02885484583331
20
-2.29383445910798
30
1E-16
41
1
10
6.8152329054071
20
-2.09860373601251
30
1E-16
41
1
10
6.52961315817899
20
-1.76340841320774
30
1E-16
41
1
10
6.44183007262876
20
-1.64621258173261
30
1E-16
41
1
10
6.28462840445027
20
-1.3982683785421
30
1E-16
41
1
10
6.21515411803546
20
-1.26756085476919
30
1E-16
41
1
10
6.10034480978564
20
-0.9883108435059
30
1E-16
41
1
10
6.05669754788747
20
-0.843291772309726
30
1E-16
41
1
10
6.00253713571877
20
-0.5446480994502
30
0
41
1
10
5.99228396548017
20
-0.388773855281812
30
0
41
1
10
6.00436358342506
20
-0.159787563403711
30
0
41
1
10
6.01280876298244
20
-0.083830897491481
30
0
41
1
10
6.03832113015599
20
0.06735546746296
30
0
41
1
10
6.05549853330373
20
0.142952606574681
30
0
41
1
10
6.11898417847496
20
0.366050390822096
30
0
41
1
10
6.17636695576638
20
0.50790259939788
30
0
41
1
10
6.28067150370552
20
0.712372376787471
30
0
41
1
10
6.31865801344205
20
0.77935217763536
30
0
41
1
10
6.39890946795026
20
0.908735670457702
30
-1E-16
41
1
10
6.44126726013346
20
0.971370460404358
30
-1E-16
41
1
10
6.57413446191555
20
1.15394840795545
30
-1E-16
41
1
10
6.67039429552321
20
1.26860560016104
30
-1E-16
41
1
10
6.87500746190662
20
1.48686315153648
30
-1E-16
41
1
10
6.98388214327537
20
1.59083859992154
30
-1E-16
41
1
10
7.20836837015381
20
1.7869266007975
30
-1E-16
41
1
10
7.32411837194709
20
1.87927326643205
30
-1E-16
41
1
10
7.67982496029046
20
2.14270392266135
30
-1E-16
41
1
10
7.9281344124951
20
2.30035284132367
30
-1E-16
41
1
10
8.31263755547175
20
2.51785781319896
30
-2E-16
41
1
10
8.4428178990666
20
2.58711493559648
30
-2E-16
41
1
10
8.59071234393022
20
2.66160941165981
30
-2E-16
41
1
10
8.60716203013706
20
2.67052693329637
30
-2E-16
41
1
10
8.64389341363997
20
2.67863224651256
30
-2E-16
41
1
10
8.66332556344423
20
2.67911505459023
30
-2E-16
41
1
10
8.70088475305482
20
2.6757103448773
30
-2E-16
41
1
10
8.71930300949955
20
2.67113935299824
30
-2E-16
41
1
10
8.75610277464176
20
2.66269879731274
30
-2E-16
41
1
10
8.84805760079814
20
2.64143888456448
30
-2E-16
41
1
10
8.93977871327661
20
2.61938271110992
30
-2E-16
41
1
10
9.30590572159957
20
2.52859017527217
30
-2E-16
41
1
10
9.59613809307226
20
2.44779282605899
30
-1E-16
41
1
10
10.1714275569256
20
2.26952070084499
30
-1E-16
41
1
10
10.456080447562
20
2.17215440792404
30
-1E-16
41
1
10
11.0183705484496
20
1.96204161069602
30
-1E-16
41
1
10
11.2962635767713
20
1.84917619428077
30
-1E-16
41
1
10
12.1218529156181
20
1.48898340082158
30
-1E-16
41
1
10
12.6613856885911
20
1.21980918122361
30
-1E-16
41
1
10
13.19556944466
20
0.929547469920323
30
-1E-16
0
SPLINE
5
FA
100
AcDbEntity
8
1
62
256
6
ByLayer
370
18
48
1
60
0
100
AcDbSpline
70
4
71
3
72
8
73
4
40
0
40
0
40
0
40
0
40
1
40
1
40
1
40
1
41
1
10
111.577986478263
20
-1.4856750048707
30
0
41
1
10
111.720961087288
20
-1.08106299171283
30
0
41
1
10
111.860160074631
20
-0.675099787667989
30
0
41
1
10
111.99552749494
20
-0.267765371437548
30
0
0
SPLINE
5
FB
100
AcDbEntity
8
1
62
256
6
ByLayer
370
18
48
1
60
0
100
AcDbSpline
70
4
71
3
72
8
73
4
40
0
40
0
40
0
40
0
40
1
40
1
40
1
40
1
41
1
10
110.268805442149
20
-4.57700517787964
30
-1E-16
41
1
10
110.261435133779
20
-4.59828932310779
30
-1E-16
41
1
10
110.254097939056
20
-4.61957254320626
30
-1E-16
41
1
10
110.246794525402
20
-4.64085504865011
30
0
0
SPLINE
5
FC
100
AcDbEntity
8
1
62
256
6
ByLayer
370
18
48
1
60
0
100
AcDbSpline
70
4
71
3
72
18
73
14
40
0
40
0
40
0
40
0
40
0.156292841334626
40
0.156292841334626
40
0.32626836897119
40
0.32626836897119
40
0.496243896607755
40
0.496243896607755
40
0.66621942424432
40
0.66621942424432
40
0.836194951880884
40
0.836194951880884
40
1
40
1
40
1
40
1
41
1
10
63.6022193526108
20
-4.0331266494631
30
-2E-16
41
1
10
63.6022127060237
20
-4.08891474185211
30
-2E-16
41
1
10
63.6022057720247
20
-4.14076129214334
30
0
41
1
10
63.6021909350654
20
-4.2399955000478
30
0
41
1
10
63.6021829870827
20
-4.28672300182126
30
0
41
1
10
63.6021667880997
20
-4.37021625732294
30
0
41
1
10
63.6021585301657
20
-4.40697858518263
30
0
41
1
10
63.6021419760968
20
-4.46980365923136
30
1E-16
41
1
10
63.6021336607005
20
-4.49597763292772
30
1E-16
41
1
10
63.6021170266602
20
-4.53784515312037
30
-1E-16
41
1
10
63.6021086878987
20
-4.55354932777411
30
0
41
1
10
63.6020924964413
20
-4.57374910890096
30
0
41
1
10
63.6020846237054
20
-4.57869518904167
30
0
41
1
10
63.6020768301832
20
-4.57866220370514
30
0
0
SPLINE
5
FD
100
AcDbEntity
8
1
62
256
6
ByLayer
370
18
48
1
60
0
100
AcDbSpline
70
4
71
3
72
22
73
18
40
0
40
0
40
0
40
0
40
0.250000000000005
40
0.250000000000005
40
0.500000000000011
40
0.500000000000011
40
0.562500000000008
40
0.562500000000008
40
0.625000000000006
40
0.625000000000006
40
0.75
40
0.75
40
0.812499999999997
40
0.812499999999997
40
0.874999999999995
40
0.874999999999995
40
1
40
1
40
1
40
1
41
1
10
110.315495150077
20
4.64924184177946
30
0
41
1
10
110.411177224408
20
4.37949804172516
30
0
41
1
10
110.506070193761
20
4.10789606105632
30
0
41
1
10
110.697950679634
20
3.56286165642186
30
0
41
1
10
110.794956365902
20
3.28950799525359
30
0
41
1
10
110.918221865079
20
2.9497831717627
30
0
41
1
10
110.942980245386
20
2.88191021343616
30
0
41
1
10
110.992729125376
20
2.74630945933481
30
0
41
1
10
111.017560211649
20
2.67847713707152
30
0
41
1
10
111.093946401124
20
2.47619853158903
30
0
41
1
10
111.147387092238
20
2.34294995836731
30
0
41
1
10
111.232970923124
20
2.14617618622953
30
0
41
1
10
111.262395292326
20
2.08114019620251
30
0
41
1
10
111.322126738921
20
1.95452124987645
30
0
41
1
10
111.352565299777
20
1.89262370383341
30
0
41
1
10
111.445770701696
20
1.7111011740916
30
0
41
1
10
111.510428907724
20
1.59562124868188
30
0
41
1
10
111.577986478263
20
1.48567500487076
30
0
0
SPLINE
5
FE
100
AcDbEntity
8
1
62
256
6
ByLayer
370
18
48
1
60
0
100
AcDbSpline
70
4
71
3
72
8
73
4
40
0
40
0
40
0
40
0
40
1
40
1
40
1
40
1
41
1
10
109.596106388319
20
-0.0517383155676896
30
0
41
1
10
109.635424026206
20
-0.072967655599399
30
0
41
1
10
109.674479508976
20
-0.0929892335882982
30
0
41
1
10
109.713322685954
20
-0.111835097418521
30
0
0
SPLINE
5
FF
100
AcDbEntity
8
1
62
256
6
ByLayer
370
18
48
1
60
0
100
AcDbSpline
70
4
71
3
72
44
73
40
40
0
40
0
40
0
40
0
40
0.0070066431007468
40
0.0070066431007468
40
0.0423935987012421
40
0.0423935987012421
40
0.0777805543017374
40
0.0777805543017374
40
0.148554465502728
40
0.148554465502728
40
0.183941421103222
40
0.183941421103222
40
0.219328376703716
40
0.219328376703716
40
0.2901022879047
40
0.2901022879047
40
0.325489243505194
40
0.325489243505194
40
0.360876199105688
40
0.360876199105688
40
0.431650110306678
40
0.431650110306678
40
0.467037065907175
40
0.467037065907175
40
0.502424021507672
40
0.502424021507672
40
0.573197932708663
40
0.573197932708663
40
0.643971843909653
40
0.643971843909653
40
0.785519666311635
40
0.785519666311635
40
0.927067488713616
40
0.927067488713616
40
0.962454444314112
40
0.962454444314112
40
0.997841399914608
40
0.997841399914608
40
1
40
1
40
1
40
1
41
1
10
97.3060246796536
20
-0.395324677791109
30
0
41
1
10
97.2579415786074
20
-0.369557762044877
30
0
41
1
10
97.2098368359113
20
-0.343762574775354
30
0
41
1
10
96.9186390826254
20
-0.18753571658084
30
0
41
1
10
96.674980444072
20
-0.0564863236520807
30
0
41
1
10
96.1861693480809
20
0.206292924033249
30
0
41
1
10
95.9413721848585
20
0.337877884900109
30
0
41
1
10
95.208759584215
20
0.729869515937793
30
0
41
1
10
94.7213308931156
20
0.98825621015456
30
-1E-16
41
1
10
93.989486626274
20
1.36763078075546
30
-1E-16
41
1
10
93.745437298281
20
1.49275713951289
30
-1E-16
41
1
10
93.2565904069592
20
1.7392979766075
30
-1E-16
41
1
10
93.0117156532462
20
1.8608489345813
30
-1E-16
41
1
10
92.2787388839897
20
2.21756980757991
30
-1E-16
41
1
10
91.7913103308332
20
2.44537312713925
30
-1E-16
41
1
10
91.0595670812312
20
2.76827832212999
30
-2E-16
41
1
10
90.8155429192113
20
2.87275392424368
30
-2E-16
41
1
10
90.3268943942587
20
3.07484618255458
30
-2E-16
41
1
10
90.0820308142019
20
3.17257448068153
30
-2E-16
41
1
10
89.3488256127855
20
3.45363740456486
30
-2E-16
41
1
10
88.8612688632267
20
3.62492076391464
30
-2E-16
41
1
10
88.1295357771609
20
3.85477892234272
30
2E-16
41
1
10
87.8855744439829
20
3.92693866140851
30
2E-16
41
1
10
87.3971537685927
20
4.06197175608432
30
2E-16
41
1
10
87.1523863380642
20
4.12478594497614
30
2E-16
41
1
10
86.4188068373987
20
4.29805598276377
30
0
41
1
10
85.9311345190829
20
4.39335646502471
30
0
41
1
10
84.9556431652591
20
4.54161902409021
30
-1E-16
41
1
10
84.4673293442344
20
4.59402622574842
30
1E-16
41
1
10
82.9995441690191
20
4.68524881430781
30
0
41
1
10
82.0270413696651
20
4.65759347627119
30
0
41
1
10
80.0694125675509
20
4.42580777749234
30
0
41
1
10
79.0966415682635
20
4.22421628394696
30
2E-16
41
1
10
77.8736342168219
20
3.87448465884
30
2E-16
41
1
10
77.6291213832881
20
3.7997267307868
30
2E-16
41
1
10
77.142078035357
20
3.64200191705646
30
2E-16
41
1
10
76.8992046946405
20
3.55889062062047
30
-2E-16
41
1
10
76.6419780588618
20
3.46657292610536
30
-2E-16
41
1
10
76.6271909743481
20
3.4612509924209
30
-2E-16
41
1
10
76.6124054519961
20
3.45591479119312
30
-2E-16
0
SPLINE
5
100
100
AcDbEntity
8
1
62
256
6
ByLayer
370
18
48
1
60
0
100
AcDbSpline
70
4
71
3
72
17
73
13
40
0
40
0
40
0
40
0
40
0.158867404542796
40
0.261368356891497
40
0.32681800033719
40
0.392032481082722
40
0.457780454479156
40
0.523872559568484
40
0.620447595562913
40
0.705944417287212
40
0.830884040477352
40
1
40
1
40
1
40
1
41
1
10
68.6977663651338
20
4.58254337863889
30
0
41
1
10
68.4279193812358
20
4.58244251588292
30
0
41
1
10
67.9839666150322
20
4.58229754426497
30
0
41
1
10
67.4288416877742
20
4.58221299738579
30
0
41
1
10
67.032791394139
20
4.5821098026997
30
0
41
1
10
66.6991694154625
20
4.58197045315893
30
0
41
1
10
66.3644562354938
20
4.58156436257127
30
0
41
1
10
65.9764750120463
20
4.58086310150586
30
0
41
1
10
65.5549481362974
20
4.58055410986174
30
0
41
1
10
65.0334638822679
20
4.58078159114618
30
0
41
1
10
64.3887635679072
20
4.58068841409582
30
0
41
1
10
63.8892876727878
20
4.57950193046463
30
0
41
1
10
63.6020316284468
20
4.57852092693517
30
0
0
SPLINE
5
101
100
AcDbEntity
8
1
62
256
6
ByLayer
370
18
48
1
60
0
100
AcDbSpline
70
4
71
2
72
6
73
3
40
0
40
0
40
0
40
1
40
1
40
1
41
1
10
97.8163289564874
20
0.0005256798495736
30
0
41
1
10
97.8163081970096
20
0.0005366919461096
30
0
41
1
10
97.8162874375155
20
0.0005483101414825
30
0
0
SPLINE
5
102
100
AcDbEntity
8
1
62
256
6
ByLayer
370
18
48
1
60
0
100
AcDbSpline
70
4
71
3
72
13
73
9
40
0
40
0
40
0
40
0
40
0.251547111722839
40
0.347210068637977
40
0.462421794727566
40
0.613290099040439
40
0.799762963333526
40
1
40
1
40
1
40
1
41
1
10
110.297073916266
20
1.0618852575779
30
-1E-16
41
1
10
109.794227546451
20
1.22122154922266
30
-1E-16
41
1
10
109.103072969822
20
1.44975636017926
30
-1E-16
41
1
10
108.188226297815
20
1.77086688310848
30
-1E-16
41
1
10
107.474642300307
20
2.02797936787832
30
-1E-16
41
1
10
106.585558087207
20
2.35967228787678
30
-1E-16
41
1
10
105.534782013045
20
2.76791926171015
30
-2E-16
41
1
10
104.783998366821
20
3.07423251790414
30
-2E-16
41
1
10
104.396552107499
20
3.23615056968234
30
-2E-16
0
SPLINE
5
103
100
AcDbEntity
8
1
62
256
6
ByLayer
370
18
48
1
60
0
100
AcDbSpline
70
4
71
3
72
29
73
25
40
0
40
0
40
0
40
0
40
2.00822557964E-05
40
3.87752346407E-05
40
5.65334024749E-05
40
8.84753445827E-05
40
0.0002068039484364
40
0.000299304860136
40
0.0004665594700292
40
0.0007703390072649
40
0.0013287014941174
40
0.0023766157310149
40
0.0044106873285396
40
0.0085650978891855
40
0.0176600963705046
40
0.0491648912478897
40
0.0897128585616627
40
0.205081954603517
40
0.327005647726367
40
0.443095628132948
40
0.548998879825035
40
0.671527877270841
40
0.831626349275262
40
1
40
1
40
1
40
1
41
1
10
31.6494682687612
20
0.173557272462318
30
0
41
1
10
31.6494684882416
20
0.173558417850529
30
0
41
1
10
31.6494538419442
20
0.173564759502227
30
0
41
1
10
31.6493896003766
20
0.173585514650171
30
0
41
1
10
31.6492724829536
20
0.173620996847717
30
0
41
1
10
31.6488623284916
20
0.173739567584079
30
0
41
1
10
31.6481388111788
20
0.173941601383177
30
0
41
1
10
31.6470615693107
20
0.174243973845165
30
0
41
1
10
31.6454506123826
20
0.174696325683811
30
0
41
1
10
31.6425095952647
20
0.175521722432535
30
0
41
1
10
31.6370349979285
20
0.177056701159245
30
0
41
1
10
31.6265615746513
20
0.179988943277579
30
0
41
1
10
31.6056154540784
20
0.185841146299111
30
0
41
1
10
31.5610309534822
20
0.19827073615815
30
0
41
1
10
31.4293410957377
20
0.234961130797473
30
0
41
1
10
31.188656823404
20
0.302510942490898
30
0
41
1
10
30.6339076643314
20
0.461014908976949
30
0
41
1
10
29.8123726570148
20
0.704543726972673
30
0
41
1
10
28.7729043272986
20
1.02979205766977
30
-1E-16
41
1
10
27.7659885064063
20
1.36145834338276
30
-1E-16
41
1
10
26.7620801529942
20
1.70752612224069
30
-1E-16
41
1
10
25.6356379991494
20
2.11382187000012
30
-1E-16
41
1
10
24.3360125975567
20
2.60708233868402
30
-2E-16
41
1
10
23.3977884543798
20
2.98694996160532
30
-2E-16
41
1
10
22.9189053201337
20
3.18688787998533
30
-2E-16
0
SPLINE
5
104
100
AcDbEntity
8
1
62
256
6
ByLayer
370
18
48
1
60
0
100
AcDbSpline
70
4
71
3
72
24
73
20
40
0
40
0
40
0
40
0
40
1.42901103974E-05
40
3.75680204441E-05
40
7.60022220503E-05
40
0.0004521725386172
40
0.0007527897221131
40
0.0037953076687379
40
0.0093982110102642
40
0.0422722533773848
40
0.0809944801464222
40
0.141881992257427
40
0.246051783907974
40
0.328966852338093
40
0.403128749336514
40
0.506700932570555
40
0.644127092349967
40
0.815385087635114
40
1
40
1
40
1
40
1
41
1
10
85.9745524191017
20
0.194397514726205
30
0
41
1
10
85.9745564389705
20
0.19439764143948
30
0
41
1
10
85.9745579447502
20
0.194400479130167
30
0
41
1
10
85.9745066904617
20
0.194421027242356
30
0
41
1
10
85.9735862264201
20
0.194701535229285
30
0
41
1
10
85.9719371137427
20
0.195190739474441
30
0
41
1
10
85.9637116841536
20
0.197645488120372
30
0
41
1
10
85.9433489865998
20
0.2035343012098
30
0
41
1
10
85.8202088377383
20
0.237694042847437
30
0
41
1
10
85.5923796503877
20
0.301691036711105
30
0
41
1
10
85.1987446403833
20
0.414076949691008
30
0
41
1
10
84.5957630133483
20
0.590465044144366
30
0
41
1
10
83.8636904330964
20
0.812962668937644
30
0
41
1
10
83.0954846127206
20
1.05642534724964
30
-1E-16
41
1
10
82.3314507334808
20
1.30689275115742
30
-1E-16
41
1
10
81.4110389840995
20
1.61995654769581
30
-1E-16
41
1
10
80.2132993607774
20
2.04750300543156
30
-1E-16
41
1
10
78.7896593110978
20
2.58545863283223
30
-2E-16
41
1
10
77.7719493022285
20
2.99685531761014
30
-2E-16
41
1
10
77.2463844032586
20
3.21642569951155
30
-2E-16
0
SPLINE
5
105
100
AcDbEntity
8
1
62
256
6
ByLayer
370
18
48
1
60
0
100
AcDbSpline
70
4
71
3
72
28
73
24
40
0
40
0
40
0
40
0
40
1.10822377492E-05
40
3.07454002789E-05
40
4.87105978446E-05
40
6.54917101974E-05
40
8.11108054304E-05
40
0.0001307288206181
40
0.0010156611514302
40
0.0017608403374389
40
0.0032011142131461
40
0.0061254791162227
40
0.0124828809758998
40
0.0274118008093908
40
0.103067073993174
40
0.221051564480358
40
0.337839782702226
40
0.448593860032049
40
0.560781556066034
40
0.652529264682875
40
0.748981064527196
40
0.870849887674764
40
1
40
1
40
1
40
1
41
1
10
58.853990453619
20
0.172675894666497
30
0
41
1
10
58.8539971923899
20
0.17267471153383
30
0
41
1
10
58.8540103596573
20
0.172672965605869
30
0
41
1
10
58.8540033323887
20
0.172677891226272
30
0
41
1
10
58.8539542046595
20
0.172694564722576
30
0
41
1
10
58.8538769744889
20
0.172718424492132
30
0
41
1
10
58.8537119033761
20
0.172767546373876
30
0
41
1
10
58.851005883966
20
0.173536325712348
30
0
41
1
10
58.8462522589403
20
0.174876026310812
30
0
41
1
10
58.8374494802979
20
0.177354855810194
30
0
41
1
10
58.8227015397117
20
0.181490044159091
30
0
41
1
10
58.791414934059
20
0.19022621002577
30
0
41
1
10
58.7199778950832
20
0.210106837180945
30
0
41
1
10
58.4310987752524
20
0.290649745346087
30
0
41
1
10
57.8103003097355
20
0.467607680574957
30
0
41
1
10
56.8885336546158
20
0.742724492279905
30
0
41
1
10
55.8675198557523
20
1.06415956919528
30
-1E-16
41
1
10
54.8683162023253
20
1.39455239889279
30
-1E-16
41
1
10
53.9471910094321
20
1.7134328091914
30
-1E-16
41
1
10
53.0718686916046
20
2.02884487174961
30
-1E-16
41
1
10
52.1722611051597
20
2.36489512116003
30
-1E-16
41
1
10
51.169000227734
20
2.75430267378673
30
-2E-16
41
1
10
50.4492289506897
20
3.04786932015304
30
-2E-16
41
1
10
50.0801449344827
20
3.20201494851688
30
-2E-16
0
SPLINE
5
106
100
AcDbEntity
8
1
62
256
6
ByLayer
370
18
48
1
60
0
100
AcDbSpline
70
4
71
3
72
17
73
13
40
0
40
0
40
0
40
0
40
0.0874586273380734
40
0.147565302121644
40
0.190549004615624
40
0.23619349341552
40
0.283148057513596
40
0.330101960775214
40
0.377053435279429
40
0.63525911743425
40
0.963872741644893
40
1
40
1
40
1
40
1
41
1
10
84.2193899571473
20
-4.59132960982529
30
0
41
1
10
84.4823314920222
20
-4.59144037177734
30
0
41
1
10
84.9259892925014
20
-4.59167982839452
30
0
41
1
10
85.4989654094521
20
-4.59247063939023
30
0
41
1
10
85.9461217016867
20
-4.59265896765248
30
0
41
1
10
86.3538109087116
20
-4.59266396279563
30
0
41
1
10
86.7734201882855
20
-4.59265097195646
30
0
41
1
10
87.1969641775963
20
-4.59269869860486
30
0
41
1
10
88.2557006729149
20
-4.59489151953468
30
0
41
1
10
90.1613511379238
20
-4.59297952691364
30
0
41
1
10
92.0344485582824
20
-4.5948558960809
30
0
41
1
10
93.1311642665472
20
-4.59640445199133
30
0
41
1
10
93.2397929995509
20
-4.5965368657134
30
0
0
SPLINE
5
107
100
AcDbEntity
8
1
62
256
6
ByLayer
370
18
48
1
60
0
100
AcDbSpline
70
4
71
3
72
15
73
11
40
0
40
0
40
0
40
0
40
0.0881112964093856
40
0.145759211739142
40
0.182243698847499
40
0.218378002241566
40
0.254920061850274
40
0.401255730684212
40
0.668741671770448
40
1
40
1
40
1
40
1
41
1
10
95.9017382683911
20
4.59807111804332
30
0
41
1
10
95.6368083148415
20
4.59798831652401
30
0
41
1
10
95.1985428768142
20
4.59777598943131
30
0
41
1
10
94.650573584962
20
4.59770675883857
30
0
41
1
10
94.2588861609324
20
4.59717437081338
30
0
41
1
10
93.9306602803431
20
4.59699359117735
30
0
41
1
10
93.2721327074288
20
4.59680421891272
30
0
41
1
10
91.9179746536919
20
4.59558838128646
30
0
41
1
10
89.677662329652
20
4.5934667565102
30
0
41
1
10
87.877351157322
20
4.59272758369906
30
0
41
1
10
86.8813202054862
20
4.59266995990666
30
0
0
SPLINE
5
108
100
AcDbEntity
8
1
62
256
6
ByLayer
370
18
48
1
60
0
100
AcDbSpline
70
4
71
3
72
12
73
8
40
0
40
0
40
0
40
0
40
0.313092536329765
40
0.555371620719782
40
0.71512012573222
40
0.879764227579087
40
1
40
1
40
1
40
1
41
1
10
63.6020289081784
20
-4.57853552654299
30
0
41
1
10
63.8541405983981
20
-4.5794128176349
30
0
41
1
10
64.3013433422477
20
-4.58053157290828
30
0
41
1
10
64.8771819123957
20
-4.5807839194527
30
0
41
1
10
65.333485404474
20
-4.58065951592354
30
0
41
1
10
65.6915153731716
20
-4.58059767098686
30
0
41
1
10
65.9209102913923
20
-4.58086208679839
30
0
41
1
10
66.0177281809932
20
-4.58099592424929
30
0
0
LINE
5
84
100
AcDbEntity
8
SK1
62
256
6
ByLayer
370
18
48
1
60
0
100
AcDbLine
10
-38.66
20
-5
30
0
11
-38.66
21
5
31
0
39
0
210
0
220
0
230
1
0
LINE
5
86
100
AcDbEntity
8
SK1
62
256
6
ByLayer
370
18
48
1
60
0
100
AcDbLine
10
-39.25
20
3.248925
30
0
11
-39.25
21
4.169838
31
0
39
0
210
0
220
0
230
1
0
LINE
5
87
100
AcDbEntity
8
SK1
62
256
6
ByLayer
370
18
48
1
60
0
100
AcDbLine
10
-39.517949
20
2.942001
30
0
11
-39.517949
21
3.965246
31
0
39
0
210
0
220
0
230
1
0
LINE
5
88
100
AcDbEntity
8
SK1
62
256
6
ByLayer
370
18
48
1
60
0
100
AcDbLine
10
-40
20
2.045436
30
0
11
-40
21
3.643018
31
0
39
0
210
0
220
0
230
1
0
LINE
5
89
100
AcDbEntity
8
SK1
62
256
6
ByLayer
370
18
48
1
60
0
100
AcDbLine
10
0
20
5
30
0
11
0
21
-5
31
0
39
0
210
0
220
0
230
1
0
LINE
5
8A
100
AcDbEntity
8
SK1
62
256
6
ByLayer
370
18
48
1
60
0
100
AcDbLine
10
-40
20
3.643018
30
0
11
-40
21
3.66
31
0
39
0
210
0
220
0
230
1
0
LINE
5
8B
100
AcDbEntity
8
SK1
62
256
6
ByLayer
370
18
48
1
60
0
100
AcDbLine
10
-40
20
-3.66
30
0
11
-40
21
2.045489
31
0
39
0
210
0
220
0
230
1
0
LINE
5
8C
100
AcDbEntity
8
SK1
62
256
6
ByLayer
370
18
48
1
60
0
100
AcDbLine
10
-39.35
20
3.090421
30
0
11
-39.35
21
4.11377
31
0
39
0
210
0
220
0
230
1
0
LINE
5
8D
100
AcDbEntity
8
1
62
256
6
ByLayer
370
18
48
1
60
0
100
AcDbLine
10
0.17827
20
4.890663
30
0
11
0.17827
21
0
31
0
39
0
210
0
220
0
230
1
0
LINE
5
8E
100
AcDbEntity
8
1
62
256
6
ByLayer
370
18
48
1
60
0
100
AcDbLine
10
0.17827
20
0
30
0
11
0.17827
21
-4.890663
31
0
39
0
210
0
220
0
230
1
0
LINE
5
8F
100
AcDbEntity
8
1
62
256
6
ByLayer
370
18
48
1
60
0
100
AcDbLine
10
0.356666
20
4.781325
30
0
11
0.356666
21
0
31
0
39
0
210
0
220
0
230
1
0
LINE
5
90
100
AcDbEntity
8
1
62
256
6
ByLayer
370
18
48
1
60
0
100
AcDbLine
10
0.356666
20
0
30
0
11
0.356666
21
-4.781325
31
0
39
0
210
0
220
0
230
1
0
LINE
5
91
100
AcDbEntity
8
1
62
256
6
ByLayer
370
18
48
1
60
0
100
AcDbLine
10
63.501734
20
-4.071023
30
0
11
63.501734
21
-4.820791
31
0
39
0
210
0
220
0
230
1
0
LINE
5
92
100
AcDbEntity
8
1
62
256
6
ByLayer
370
18
48
1
60
0
100
AcDbLine
10
0
20
5
30
0
11
0
21
0
31
0
39
0
210
0
220
0
230
1
0
LINE
5
93
100
AcDbEntity
8
1
62
256
6
ByLayer
370
18
48
1
60
0
100
AcDbLine
10
0
20
0
30
0
11
0
21
-5
31
0
39
0
210
0
220
0
230
1
0
LINE
5
94
100
AcDbEntity
8
1
62
256
6
ByLayer
370
18
48
1
60
0
100
AcDbLine
10
63.501734
20
4.820791
30
0
11
63.501734
21
3.570356
31
0
39
0
210
0
220
0
230
1
0
LINE
5
95
100
AcDbEntity
8
1
62
256
6
ByLayer
370
18
48
1
60
0
100
AcDbLine
10
111.932366
20
0.058386
30
0
11
110.785899
21
1.323887
31
0
39
0
210
0
220
0
230
1
0
LINE
5
96
100
AcDbEntity
8
1
62
256
6
ByLayer
370
18
48
1
60
0
100
AcDbLine
10
63.5
20
3.034948
30
0
11
63.5
21
2.978696
31
0
39
0
210
0
220
0
230
1
0
LINE
5
97
100
AcDbEntity
8
SK4
62
256
6
ByLayer
370
18
48
0.05
60
0
100
AcDbLine
10
117
20
0
30
0
11
-45
21
0
31
0
39
0
210
0
220
0
230
1
0
LINE
5
99
100
AcDbEntity
8
SK1
62
256
6
ByLayer
370
18
48
1
60
0
100
AcDbLine
10
-40
20
-3.66
30
0
11
-38.66
21
-5
31
0
39
0
210
0
220
0
230
1
0
LINE
5
9A
100
AcDbEntity
8
SK1
62
256
6
ByLayer
370
18
48
1
60
0
100
AcDbLine
10
-38.66
20
5
30
0
11
-40
21
3.66
31
0
39
0
210
0
220
0
230
1
0
LINE
5
9B
100
AcDbEntity
8
SK1
62
256
6
ByLayer
370
18
48
1
60
0
100
AcDbLine
10
-38.66
20
-5
30
0
11
0
21
-5
31
0
39
0
210
0
220
0
230
1
0
LINE
5
9C
100
AcDbEntity
8
SK1
62
256
6
ByLayer
370
18
48
1
60
0
100
AcDbLine
10
0
20
5
30
0
11
-38.66
21
5
31
0
39
0
210
0
220
0
230
1
0
LINE
5
9D
100
AcDbEntity
8
1
62
256
6
ByLayer
370
18
48
1
60
0
100
AcDbLine
10
0.356666
20
-4.781325
30
0
11
15.612124
21
-4.79086
31
0
39
0
210
0
220
0
230
1
0
LINE
5
9E
100
AcDbEntity
8
1
62
256
6
ByLayer
370
18
48
1
60
0
100
AcDbLine
10
28.480309
20
-4.798902
30
0
11
42.785321
21
-4.807843
31
0
39
0
210
0
220
0
230
1
0
LINE
5
9F
100
AcDbEntity
8
1
62
256
6
ByLayer
370
18
48
1
60
0
100
AcDbLine
10
55.669377
20
-4.815896
30
0
11
63.501734
21
-4.820791
31
0
39
0
210
0
220
0
230
1
0
LINE
5
A0
100
AcDbEntity
8
1
62
256
6
ByLayer
370
18
48
1
60
0
100
AcDbLine
10
68.699878
20
-4.82404
30
0
11
69.958752
21
-4.824826
31
0
39
0
210
0
220
0
230
1
0
LINE
5
A1
100
AcDbEntity
8
1
62
256
6
ByLayer
370
18
48
1
60
0
100
AcDbLine
10
82.99763
20
-4.832976
30
0
11
84.216978
21
-4.833738
31
0
39
0
210
0
220
0
230
1
0
LINE
5
A2
100
AcDbEntity
8
1
62
256
6
ByLayer
370
18
48
1
60
0
100
AcDbLine
10
95.902096
20
-4.841041
30
0
11
97.131147
21
-4.841809
31
0
39
0
210
0
220
0
230
1
0
LINE
5
A3
100
AcDbEntity
8
1
62
256
6
ByLayer
370
18
48
1
60
0
100
AcDbLine
10
97.131147
20
4.841809
30
0
11
95.902096
21
4.841041
31
0
39
0
210
0
220
0
230
1
0
LINE
5
A4
100
AcDbEntity
8
1
62
256
6
ByLayer
370
18
48
1
60
0
100
AcDbLine
10
84.216978
20
4.833738
30
0
11
82.99763
21
4.832976
31
0
39
0
210
0
220
0
230
1
0
LINE
5
A5
100
AcDbEntity
8
1
62
256
6
ByLayer
370
18
48
1
60
0
100
AcDbLine
10
69.958752
20
4.824826
30
0
11
68.699878
21
4.82404
31
0
39
0
210
0
220
0
230
1
0
LINE
5
A6
100
AcDbEntity
8
1
62
256
6
ByLayer
370
18
48
1
60
0
100
AcDbLine
10
63.501734
20
4.820791
30
0
11
55.669377
21
4.815896
31
0
39
0
210
0
220
0
230
1
0
LINE
5
A7
100
AcDbEntity
8
1
62
256
6
ByLayer
370
18
48
1
60
0
100
AcDbLine
10
42.785321
20
4.807843
30
0
11
28.480309
21
4.798902
31
0
39
0
210
0
220
0
230
1
0
LINE
5
A8
100
AcDbEntity
8
1
62
256
6
ByLayer
370
18
48
1
60
0
100
AcDbLine
10
15.612124
20
4.79086
30
0
11
0.356666
21
4.781325
31
0
39
0
210
0
220
0
230
1
0
LINE
5
A9
100
AcDbEntity
8
4
62
256
6
ByLayer
370
18
48
0.05
60
0
100
AcDbLine
10
-40
20
0
30
0
11
117
21
0
31
0
39
0
210
0
220
0
230
1
0
LINE
5
AB
100
AcDbEntity
8
80
62
256
6
ByLayer
370
18
48
1
60
0
100
AcDbLine
10
0
20
0
30
0
11
-6
21
0
31
0
39
0
210
0
220
0
230
1
0
LINE
5
AC
100
AcDbEntity
8
81
62
256
6
ByLayer
370
18
48
1
60
0
100
AcDbLine
10
112
20
0
30
0
11
118
21
0
31
0
39
0
210
0
220
0
230
1
0
LINE
5
AD
100
AcDbEntity
8
SK2
62
256
6
ByLayer
370
13
48
1
60
0
100
AcDbLine
10
112.542969
20
1.491758
30
0
11
120.0177
21
22.027896
31
0
39
0
210
0
220
0
230
1
0
LINE
5
AF
100
AcDbEntity
8
SK2
62
256
6
ByLayer
370
13
48
1
60
0
100
AcDbLine
10
112.542969
20
-1.491758
30
0
11
120.0177
21
-22.027896
31
0
39
0
210
0
220
0
230
1
0
LINE
5
B0
100
AcDbEntity
8
1
62
256
6
ByLayer
370
13
48
1
60
0
100
AcDbLine
10
118.931762
20
19.044381
30
0
11
122.028769
21
18.229591
31
0
39
0
210
0
220
0
230
1
0
LINE
5
B1
100
AcDbEntity
8
1
62
256
6
ByLayer
370
13
48
1
60
0
100
AcDbLine
10
118.931762
20
19.044381
30
0
11
121.712361
21
17.455789
31
0
39
0
210
0
220
0
230
1
0
LINE
5
B2
100
AcDbEntity
8
1
62
256
6
ByLayer
370
13
48
1
60
0
100
AcDbLine
10
122.028769
20
18.229591
30
0
11
121.712361
21
17.455789
31
0
39
0
210
0
220
0
230
1
0
LINE
5
B3
100
AcDbEntity
8
1
62
256
6
ByLayer
370
13
48
1
60
0
100
AcDbLine
10
118.931762
20
-19.044381
30
0
11
121.712358
21
-17.45579
31
0
39
0
210
0
220
0
230
1
0
LINE
5
B4
100
AcDbEntity
8
1
62
256
6
ByLayer
370
13
48
1
60
0
100
AcDbLine
10
118.931762
20
-19.044381
30
0
11
122.028772
21
-18.22959
31
0
39
0
210
0
220
0
230
1
0
LINE
5
B5
100
AcDbEntity
8
1
62
256
6
ByLayer
370
13
48
1
60
0
100
AcDbLine
10
121.712358
20
-17.45579
30
0
11
122.028772
21
-18.22959
31
0
39
0
210
0
220
0
230
1
0
MTEXT
5
109
100
AcDbEntity
8
SK2
62
256
6
ByLayer
370
18
48
1
60
0
100
AcDbMText
10
125.984055
20
-2.467451
30
0
210
0
220
0
230
1
1
\W0.7237;140.00
40
3.50012
41
0
44
1.084337
50
0
71
7
72
5
7
iso_b_vert
0
MTEXT
5
10C
100
AcDbEntity
8
SK6
62
256
6
ByLayer
370
18
48
1
60
0
100
AcDbMText
10
-2.446273
20
-66.681145
30
0
210
0
220
0
230
1
1
\W0.7454;860.1-0970-079A1-GM X1BM
40
3.175
41
0
44
1.084337
50
0
71
7
72
5
7
iso_b_vert
0
DIMENSION
5
10F
100
AcDbEntity
8
SK2
62
256
6
ByLayer
370
18
48
1
60
0
100
AcDbDimension
2
_U0
10
112
20
-28.766787
30
0
11
56
21
-28.766787
31
0
70
32
71
2
72
1
41
1
210
0
220
0
230
1
3
Standard
100
AcDbAlignedDimension
13
0
23
-5
33
0
14
112
24
0
34
0
50
0
100
AcDbRotatedDimension
1001
ACAD
1000
DSTYLE
1002
{
1070
   371
1070
    13
1070
   372
1070
    13
1070
     3
1000

1070
   170
1070
     0
1070
   144
1040
1.0
1070
   277
1070
     2
1070
   284
1070
     8
1070
   278
1070
    46
1070
   146
1040
0.999966
1070
   345
1005
16
1070
   347
1005
16
1070
   346
1005
16
1070
   344
1005
110
1070
   343
1005
110
1070
   172
1070
     1
1070
    76
1070
     0
1070
    75
1070
     0
1070
   282
1070
     0
1070
   281
1070
     0
1070
    71
1070
     0
1070
    74
1070
     0
1070
   279
1070
     0
1070
   173
1070
     1
1070
   340
1005
10A
1070
   271
1070
     1
1070
   272
1070
     2
1070
    77
1070
     1
1070
    73
1070
     1
1070
   171
1070
     3
1070
   274
1070
     4
1070
   177
1070
   150
1070
   176
1070
     9
1070
   178
1070
    43
1070
    78
1070
     8
1070
    48
1040
-0.1
1070
    41
1040
3.175
1070
   147
1040
1.75006
1070
    42
1040
1.5875
1070
    44
1040
3.175
1070
   140
1040
3.50012
1002
}
1001
ACAD_DSTYLE_DIM_LINETYPE
1070
   380
1005
16
1001
ACAD_DSTYLE_DIM_EXT1_LINETYPE
1070
   381
1005
16
1001
ACAD_DSTYLE_DIM_EXT2_LINETYPE
1070
   382
1005
16
0
DIMENSION
5
135
100
AcDbEntity
8
2
62
256
6
ByLayer
370
18
48
1
60
0
100
AcDbDimension
2
_U1
10
118.75006
20
4.85
30
0
11
118.75006
21
20.423233
31
0
70
32
71
1
72
1
41
1
210
0
220
0
230
1
3
Standard
100
AcDbAlignedDimension
13
110.2347
23
-4.85
33
0
14
110.2347
24
4.85
34
0
50
90
100
AcDbRotatedDimension
1001
ACAD
1000
DSTYLE
1002
{
1070
   371
1070
    13
1070
   372
1070
    13
1070
     3
1000

1070
   170
1070
     0
1070
   144
1040
1.0
1070
   277
1070
     2
1070
   284
1070
     8
1070
   278
1070
    46
1070
   146
1040
0.999966
1070
   345
1005
16
1070
   347
1005
16
1070
   346
1005
16
1070
   344
1005
110
1070
   343
1005
110
1070
   172
1070
     1
1070
    76
1070
     0
1070
    75
1070
     0
1070
   282
1070
     0
1070
   281
1070
     0
1070
    71
1070
     0
1070
    74
1070
     0
1070
   279
1070
     0
1070
   173
1070
     1
1070
   340
1005
10A
1070
   271
1070
     1
1070
   272
1070
     2
1070
    77
1070
     1
1070
    73
1070
     0
1070
   171
1070
     3
1070
   274
1070
     4
1070
   177
1070
   150
1070
   176
1070
     9
1070
   178
1070
    43
1070
    78
1070
     8
1070
    48
1040
-0.1
1070
    41
1040
3.175
1070
   147
1040
1.75006
1070
    42
1040
1.5875
1070
    44
1040
3.175
1070
   140
1040
3.50012
1002
}
1001
ACAD_DSTYLE_DIM_LINETYPE
1070
   380
1005
16
1001
ACAD_DSTYLE_DIM_EXT1_LINETYPE
1070
   381
1005
16
1001
ACAD_DSTYLE_DIM_EXT2_LINETYPE
1070
   382
1005
16
0
DIMENSION
5
154
100
AcDbEntity
8
SK2
62
256
6
ByLayer
370
18
48
1
60
0
100
AcDbDimension
2
_U2
10
-43.316607
20
-5
30
0
11
-43.316607
21
20.111003
31
0
70
32
71
1
72
1
41
1
210
0
220
0
230
1
3
Standard
100
AcDbAlignedDimension
13
-40
23
5
33
0
14
-40
24
-5
34
0
50
90
100
AcDbRotatedDimension
1001
ACAD
1000
DSTYLE
1002
{
1070
   371
1070
    13
1070
   372
1070
    13
1070
     3
1000

1070
   170
1070
     0
1070
   144
1040
1.0
1070
   277
1070
     2
1070
   284
1070
     8
1070
   278
1070
    46
1070
   146
1040
0.999966
1070
   345
1005
16
1070
   347
1005
16
1070
   346
1005
16
1070
   344
1005
110
1070
   343
1005
110
1070
   172
1070
     1
1070
    76
1070
     0
1070
    75
1070
     0
1070
   282
1070
     0
1070
   281
1070
     0
1070
    71
1070
     0
1070
    74
1070
     0
1070
   279
1070
     0
1070
   173
1070
     1
1070
   340
1005
10A
1070
   271
1070
     1
1070
   272
1070
     2
1070
    77
1070
     1
1070
    73
1070
     0
1070
   171
1070
     3
1070
   274
1070
     4
1070
   177
1070
   150
1070
   176
1070
     9
1070
   178
1070
    43
1070
    78
1070
     8
1070
    48
1040
-0.1
1070
    41
1040
3.175
1070
   147
1040
1.75006
1070
    42
1040
1.5875
1070
    44
1040
3.175
1070
   140
1040
3.50012
1002
}
1001
ACAD_DSTYLE_DIM_LINETYPE
1070
   380
1005
16
1001
ACAD_DSTYLE_DIM_EXT1_LINETYPE
1070
   381
1005
16
1001
ACAD_DSTYLE_DIM_EXT2_LINETYPE
1070
   382
1005
16
0
DIMENSION
5
172
100
AcDbEntity
8
SK2
62
256
6
ByLayer
370
18
48
1
60
0
100
AcDbDimension
2
_U3
10
0
20
-28.766787
30
0
11
-20
21
-28.766787
31
0
70
32
71
1
72
1
41
1
210
0
220
0
230
1
3
Standard
100
AcDbAlignedDimension
13
-40
23
-5
33
0
14
0
24
-5
34
0
50
0
100
AcDbRotatedDimension
1001
ACAD
1000
DSTYLE
1002
{
1070
   371
1070
    13
1070
   372
1070
    13
1070
     3
1000

1070
   170
1070
     0
1070
   144
1040
1.0
1070
   277
1070
     2
1070
   284
1070
     8
1070
   278
1070
    46
1070
   146
1040
0.999966
1070
   345
1005
16
1070
   347
1005
16
1070
   346
1005
16
1070
   344
1005
110
1070
   343
1005
110
1070
   172
1070
     1
1070
    76
1070
     0
1070
    75
1070
     0
1070
   282
1070
     0
1070
   281
1070
     0
1070
    71
1070
     0
1070
    74
1070
     0
1070
   279
1070
     0
1070
   173
1070
     1
1070
   340
1005
10A
1070
   271
1070
     1
1070
   272
1070
     2
1070
    77
1070
     1
1070
    73
1070
     1
1070
   171
1070
     3
1070
   274
1070
     4
1070
   177
1070
   150
1070
   176
1070
     9
1070
   178
1070
    43
1070
    78
1070
     8
1070
    48
1040
-0.1
1070
    41
1040
3.175
1070
   147
1040
1.75006
1070
    42
1040
1.5875
1070
    44
1040
3.175
1070
   140
1040
3.50012
1002
}
1001
ACAD_DSTYLE_DIM_LINETYPE
1070
   380
1005
16
1001
ACAD_DSTYLE_DIM_EXT1_LINETYPE
1070
   381
1005
16
1001
ACAD_DSTYLE_DIM_EXT2_LINETYPE
1070
   382
1005
16
0
DIMENSION
5
18E
100
AcDbEntity
8
SK2
62
256
6
ByLayer
370
18
48
1
60
0
100
AcDbDimension
2
_U4
10
112
20
-20.016487
30
0
11
59
21
-20.016487
31
0
70
32
71
1
72
1
41
1
210
0
220
0
230
1
3
Standard
100
AcDbAlignedDimension
13
6
23
5.35
33
0
14
112
24
0
34
0
50
0
100
AcDbRotatedDimension
1001
ACAD
1000
DSTYLE
1002
{
1070
   371
1070
    13
1070
   372
1070
    13
1070
     3
1000

1070
   170
1070
     0
1070
   144
1040
1.0
1070
   277
1070
     2
1070
   284
1070
     8
1070
   278
1070
    46
1070
   146
1040
0.999966
1070
   345
1005
16
1070
   347
1005
16
1070
   346
1005
16
1070
   344
1005
110
1070
   343
1005
110
1070
   172
1070
     1
1070
    76
1070
     0
1070
    75
1070
     0
1070
   282
1070
     0
1070
   281
1070
     0
1070
    71
1070
     0
1070
    74
1070
     0
1070
   279
1070
     0
1070
   173
1070
     1
1070
   340
1005
10A
1070
   271
1070
     1
1070
   272
1070
     2
1070
    77
1070
     1
1070
    73
1070
     1
1070
   171
1070
     3
1070
   274
1070
     4
1070
   177
1070
   150
1070
   176
1070
     9
1070
   178
1070
    43
1070
    78
1070
     8
1070
    48
1040
-0.1
1070
    41
1040
3.175
1070
   147
1040
1.75006
1070
    42
1040
1.5875
1070
    44
1040
3.175
1070
   140
1040
3.50012
1002
}
1001
ACAD_DSTYLE_DIM_LINETYPE
1070
   380
1005
16
1001
ACAD_DSTYLE_DIM_EXT1_LINETYPE
1070
   381
1005
16
1001
ACAD_DSTYLE_DIM_EXT2_LINETYPE
1070
   382
1005
16
0
DIMENSION
5
1AA
100
AcDbEntity
8
SK2
62
256
6
ByLayer
370
18
48
1
60
0
100
AcDbDimension
2
_U5
10
112
20
-11.886667
30
0
11
72.35
21
-11.886667
31
0
70
32
71
1
72
1
41
1
210
0
220
0
230
1
3
Standard
100
AcDbAlignedDimension
13
32.7
23
-4.85
33
0
14
112
24
0
34
0
50
0
100
AcDbRotatedDimension
1001
ACAD
1000
DSTYLE
1002
{
1070
   371
1070
    13
1070
   372
1070
    13
1070
     3
1000

1070
   170
1070
     0
1070
   144
1040
1.0
1070
   277
1070
     2
1070
   284
1070
     8
1070
   278
1070
    46
1070
   146
1040
1.25
1070
   345
1005
16
1070
   347
1005
16
1070
   346
1005
16
1070
   344
1005
110
1070
   343
1005
110
1070
   172
1070
     1
1070
    76
1070
     0
1070
    75
1070
     0
1070
   282
1070
     0
1070
   281
1070
     0
1070
    71
1070
     0
1070
    74
1070
     0
1070
   279
1070
     0
1070
   173
1070
     1
1070
   340
1005
10A
1070
   271
1070
     1
1070
   272
1070
     2
1070
    77
1070
     1
1070
    73
1070
     1
1070
   171
1070
     3
1070
   274
1070
     4
1070
   177
1070
   150
1070
   176
1070
     9
1070
   178
1070
    43
1070
    78
1070
     8
1070
    48
1040
-0.1
1070
    41
1040
3.175
1070
   147
1040
0.42
1070
    42
1040
1.5875
1070
    44
1040
0.5
1070
   140
1040
2.8
1002
}
1001
ACAD_DSTYLE_DIM_LINETYPE
1070
   380
1005
16
1001
ACAD_DSTYLE_DIM_EXT1_LINETYPE
1070
   381
1005
16
1001
ACAD_DSTYLE_DIM_EXT2_LINETYPE
1070
   382
1005
16
0
DIMENSION
5
1C6
100
AcDbEntity
8
SK2
62
256
6
ByLayer
370
18
48
1
60
0
100
AcDbDimension
2
_U6
10
112
20
-38.90012
30
0
11
36
21
-38.90012
31
0
70
32
71
1
72
1
41
1
210
0
220
0
230
1
3
Standard
100
AcDbAlignedDimension
13
-40
23
0
33
0
14
112
24
0
34
0
50
0
100
AcDbRotatedDimension
1001
ACAD
1000
DSTYLE
1002
{
1070
   371
1070
    13
1070
   372
1070
    13
1070
     3
1000

1070
   170
1070
     0
1070
   144
1040
1.0
1070
   277
1070
     2
1070
   284
1070
     8
1070
   278
1070
    46
1070
   146
1040
0.999966
1070
   345
1005
16
1070
   347
1005
16
1070
   346
1005
16
1070
   344
1005
110
1070
   343
1005
110
1070
   172
1070
     1
1070
    76
1070
     0
1070
    75
1070
     0
1070
   282
1070
     0
1070
   281
1070
     0
1070
    71
1070
     0
1070
    74
1070
     0
1070
   279
1070
     0
1070
   173
1070
     1
1070
   340
1005
10A
1070
   271
1070
     1
1070
   272
1070
     2
1070
    77
1070
     1
1070
    73
1070
     1
1070
   171
1070
     3
1070
   274
1070
     4
1070
   177
1070
   150
1070
   176
1070
     9
1070
   178
1070
    43
1070
    78
1070
     8
1070
    48
1040
-0.1
1070
    41
1040
3.175
1070
   147
1040
1.75006
1070
    42
1040
1.5875
1070
    44
1040
3.175
1070
   140
1040
3.50012
1002
}
1001
ACAD_DSTYLE_DIM_LINETYPE
1070
   380
1005
16
1001
ACAD_DSTYLE_DIM_EXT1_LINETYPE
1070
   381
1005
16
1001
ACAD_DSTYLE_DIM_EXT2_LINETYPE
1070
   382
1005
16
0
ENDSEC
0
SECTION
2
OBJECTS
0
DICTIONARY
5
252
330
0
100
AcDbDictionary
280
0
281
1
3
ACAD_GROUP
350
253
3
ACAD_MLINESTYLE
350
254
0
DICTIONARY
5
253
330
0
100
AcDbDictionary
280
0
281
1
0
DICTIONARY
5
254
330
0
100
AcDbDictionary
280
0
281
1
3
Standard
350
18
0
MLINESTYLE
5
18
330
254
100
AcDbMlineStyle
2
Standard
70
0
3

62
256
51
90
52
90
71
2
49
-0.5
62
256
6
ByLayer
49
0.5
62
256
6
ByLayer
0
RASTERVARIABLES
5
240
330

100
AcDbRasterVariables
90
0
70
1
71
1
72
1
0
ENDSEC
0
EOF
