0
SECTION
2
HEADER
9
$ACADVER
1
AC1015
9
$DWGCODEPAGE
3
ANSI_1252
9
$HANDSEED
5
25f
9
$ANGBASE
50
0
9
$ANGDIR
70
0
9
$ATTMODE
70
1
9
$AUNITS
70
0
9
$AUPREC
70
0
9
$CECOLOR
62
256
9
$CELTSCALE
40
1
9
$CELTYPE
6
ByLayer
9
$CELWEIGHT
370
18
9
$CLAYER
8
0
9
$CMLJUST
70
0
9
$CMLSCALE
40
1
9
$CMLSTYLE
2
Standard
9
$DIMSTYLE
2
Standard
9
$TEXTSIZE
40
0.2
9
$TEXTSTYLE
7
Standard
9
$LUNITS
70
2
9
$LUPREC
70
4
9
$EXTNAMES
290
1
9
$INSUNITS
70
4
9
$LTSCALE
40
1
9
$LWDISPLAY
290
1
9
$PDMODE
70
0
9
$PDSIZE
40
0
9
$PLINEGEN
70
0
0
ENDSEC
0
SECTION
2
CLASSES
0
CLASS
1
RASTERVARIABLES
2
AcDbRasterVariables
3
ISM
90
0
280
0
281
0
0
ENDSEC
0
SECTION
2
TABLES
0
TABLE
2
VPORT
5
255
100
AcDbSymbolTable
0
VPORT
5
1
100
AcDbSymbolTableRecord
100
AcDbViewportTableRecord
2
*Active
70
0
10
0
20
0
11
1
21
1
12
-1
22
1
13
0
23
0
14
0.5
24
0.5
15
10
25
10
16
0
26
0
36
1
17
0
27
0
37
0
0
ENDTAB
0
TABLE
2
LTYPE
5
256
100
AcDbSymbolTable
0
LTYPE
5
14
100
AcDbSymbolTableRecord
100
AcDbLinetypeTableRecord
70
0
2
ByBlock
3

72
65
73
0
40
0
0
LTYPE
5
15
100
AcDbSymbolTableRecord
100
AcDbLinetypeTableRecord
70
0
2
ByLayer
3

72
65
73
0
40
0
0
LTYPE
5
16
100
AcDbSymbolTableRecord
100
AcDbLinetypeTableRecord
70
0
2
Continuous
3
Solid line
72
65
73
0
40
0
0
LTYPE
5
6E
100
AcDbSymbolTableRecord
100
AcDbLinetypeTableRecord
70
0
2
CENTER
3
____ _ ____ _ ____ _ ____
72
65
73
4
40
47.5
49
22
74
0
49
-8.5
74
0
49
8.5
74
0
49
-8.5
74
0
0
LTYPE
5
6F
100
AcDbSymbolTableRecord
100
AcDbLinetypeTableRecord
70
0
2
DASHED
3
__ __ __ __ __ __ __ __ __
72
65
73
2
40
25.72
49
12.86
74
0
49
-12.86
74
0
0
ENDTAB
0
TABLE
2
LAYER
5
257
100
AcDbSymbolTable
0
LAYER
5
10
100
AcDbSymbolTableRecord
100
AcDbLayerTableRecord
2
0
70
0
62
7
6
Continuous
290
1
370
-3
390
0
0
LAYER
5
71
100
AcDbSymbolTableRecord
100
AcDbLayerTableRecord
2
80
70
0
62
-6
6
Continuous
290
1
370
-3
390
0
0
LAYER
5
73
100
AcDbSymbolTableRecord
100
AcDbLayerTableRecord
2
81
70
0
62
-3
6
Continuous
290
1
370
-3
390
0
0
LAYER
5
75
100
AcDbSymbolTableRecord
100
AcDbLayerTableRecord
2
1
70
0
62
4
6
Continuous
290
1
370
-3
390
0
0
LAYER
5
A8
100
AcDbSymbolTableRecord
100
AcDbLayerTableRecord
2
4
70
0
62
-2
6
CENTER
290
1
370
-3
390
0
0
LAYER
5
119
100
AcDbSymbolTableRecord
100
AcDbLayerTableRecord
2
Defpoints
70
0
62
7
6
Continuous
290
0
370
-3
390
0
0
LAYER
5
146
100
AcDbSymbolTableRecord
100
AcDbLayerTableRecord
2
2
70
0
62
7
6
Continuous
290
1
370
-3
390
0
0
LAYER
5
241
100
AcDbSymbolTableRecord
100
AcDbLayerTableRecord
2
SK1
70
0
62
4
6
Continuous
290
1
370
-3
390
0
0
LAYER
5
242
100
AcDbSymbolTableRecord
100
AcDbLayerTableRecord
2
SK4
70
0
62
2
6
CENTER
290
1
370
-3
390
0
0
LAYER
5
243
100
AcDbSymbolTableRecord
100
AcDbLayerTableRecord
2
SK2
70
0
62
7
6
Continuous
290
1
370
-3
390
0
0
LAYER
5
244
100
AcDbSymbolTableRecord
100
AcDbLayerTableRecord
2
SK6
70
0
62
5
6
Continuous
290
1
370
-3
390
0
0
ENDTAB
0
TABLE
2
STYLE
5
258
100
AcDbSymbolTable
0
STYLE
5
11
100
AcDbSymbolTableRecord
100
AcDbTextStyleTableRecord
2
Standard
3
txt
70
0
71
0
40
0
41
1
42
0
50
0
0
STYLE
5
10A
100
AcDbSymbolTableRecord
100
AcDbTextStyleTableRecord
2
iso_b_vert
3
simplex.shx
70
0
71
0
40
0
41
1
42
0
50
0
0
STYLE
5
10B
100
AcDbSymbolTableRecord
100
AcDbTextStyleTableRecord
2
DWGDirectTextStyle
3
simplex
70
0
71
0
40
0
41
1
42
0
50
0
0
ENDTAB
0
TABLE
2
DIMSTYLE
5
259
100
AcDbSymbolTable
100
AcDbDimStyleTable
0
DIMSTYLE
105
27
100
AcDbSymbolTableRecord
100
AcDbDimStyleTableRecord
2
Standard
70
0
3
<>
41
0.18
42
0.0625
44
0.18
140
0.18
147
0.09
73
0
74
0
77
1
271
2
275
0
278
52
280
0
340
11
0
ENDTAB
0
TABLE
2
VIEW
5
25a
100
AcDbSymbolTable
0
ENDTAB
0
TABLE
2
UCS
5
25b
100
AcDbSymbolTable
0
ENDTAB
0
TABLE
2
APPID
5
25c
100
AcDbSymbolTable
0
APPID
5
12
100
AcDbSymbolTableRecord
100
AcDbRegAppTableRecord
2
ACAD
70
0
0
APPID
5
10E
100
AcDbSymbolTableRecord
100
AcDbRegAppTableRecord
2
ACAD_DSTYLE_DIMBREAK
70
0
0
APPID
5
200
100
AcDbSymbolTableRecord
100
AcDbRegAppTableRecord
2
ACAD_DSTYLE_DIM_LINETYPE
70
0
0
APPID
5
201
100
AcDbSymbolTableRecord
100
AcDbRegAppTableRecord
2
ACAD_DSTYLE_DIM_EXT1_LINETYPE
70
0
0
APPID
5
202
100
AcDbSymbolTableRecord
100
AcDbRegAppTableRecord
2
ACAD_DSTYLE_DIM_EXT2_LINETYPE
70
0
0
APPID
5
23D
100
AcDbSymbolTableRecord
100
AcDbRegAppTableRecord
2
ACAD_MLEADERVER
70
0
0
ENDTAB
0
TABLE
2
BLOCK_RECORD
5
25d
100
AcDbSymbolTable
0
BLOCK_RECORD
5
1F
100
AcDbSymbolTableRecord
100
AcDbBlockTableRecord
2
*Model_Space
340
0
70
0
0
BLOCK_RECORD
5
1B
100
AcDbSymbolTableRecord
100
AcDbBlockTableRecord
2
*Paper_Space
340
0
70
0
0
BLOCK_RECORD
5
23
100
AcDbSymbolTableRecord
100
AcDbBlockTableRecord
2
*Paper_Space0
340
0
70
0
0
BLOCK_RECORD
5
110
100
AcDbSymbolTableRecord
100
AcDbBlockTableRecord
2
_Closed
340
0
70
0
0
BLOCK_RECORD
5
11A
100
AcDbSymbolTableRecord
100
AcDbBlockTableRecord
2
*D2
340
0
70
0
0
BLOCK_RECORD
5
126
100
AcDbSymbolTableRecord
100
AcDbBlockTableRecord
2
_U0
340
0
70
0
0
BLOCK_RECORD
5
138
100
AcDbSymbolTableRecord
100
AcDbBlockTableRecord
2
*D4
340
0
70
0
0
BLOCK_RECORD
5
147
100
AcDbSymbolTableRecord
100
AcDbBlockTableRecord
2
_U1
340
0
70
0
0
BLOCK_RECORD
5
157
100
AcDbSymbolTableRecord
100
AcDbBlockTableRecord
2
*D6
340
0
70
0
0
BLOCK_RECORD
5
165
100
AcDbSymbolTableRecord
100
AcDbBlockTableRecord
2
_U2
340
0
70
0
0
BLOCK_RECORD
5
175
100
AcDbSymbolTableRecord
100
AcDbBlockTableRecord
2
*D8
340
0
70
0
0
BLOCK_RECORD
5
181
100
AcDbSymbolTableRecord
100
AcDbBlockTableRecord
2
_U3
340
0
70
0
0
BLOCK_RECORD
5
191
100
AcDbSymbolTableRecord
100
AcDbBlockTableRecord
2
*D10
340
0
70
0
0
BLOCK_RECORD
5
19D
100
AcDbSymbolTableRecord
100
AcDbBlockTableRecord
2
_U4
340
0
70
0
0
BLOCK_RECORD
5
1AD
100
AcDbSymbolTableRecord
100
AcDbBlockTableRecord
2
*D12
340
0
70
0
0
BLOCK_RECORD
5
1B9
100
AcDbSymbolTableRecord
100
AcDbBlockTableRecord
2
_U5
340
0
70
0
0
BLOCK_RECORD
5
1C9
100
AcDbSymbolTableRecord
100
AcDbBlockTableRecord
2
*D14
340
0
70
0
0
BLOCK_RECORD
5
1D5
100
AcDbSymbolTableRecord
100
AcDbBlockTableRecord
2
_U6
340
0
70
0
0
ENDTAB
0
ENDSEC
0
SECTION
2
BLOCKS
0
BLOCK
5
20
100
AcDbEntity
8
0
100
AcDbBlockBegin
2
*Model_Space
70
0
10
0
20
0
30
0
3
*Model_Space
0
ENDBLK
5
21
100
AcDbEntity
8
0
100
AcDbBlockEnd
0
BLOCK
5
1C
100
AcDbEntity
8
0
100
AcDbBlockBegin
2
*Paper_Space
70
0
10
0
20
0
30
0
3
*Paper_Space
0
ENDBLK
5
1D
100
AcDbEntity
8
0
100
AcDbBlockEnd
0
BLOCK
5
24
100
AcDbEntity
8
0
100
AcDbBlockBegin
2
*Paper_Space0
70
0
10
0
20
0
30
0
3
*Paper_Space0
0
ENDBLK
5
25
100
AcDbEntity
8
0
100
AcDbBlockEnd
0
BLOCK
5
111
100
AcDbEntity
8
0
100
AcDbBlockBegin
2
_Closed
70
0
10
0
20
0
30
0
3
_Closed
0
LINE
5
113
100
AcDbEntity
8
0
62
256
6
ByLayer
370
-2
48
1
60
0
100
AcDbLine
10
-1
20
0.166667
30
0
11
0
21
0
31
0
39
0
210
0
220
0
230
1
0
LINE
5
114
100
AcDbEntity
8
0
62
256
6
ByLayer
370
-2
48
1
60
0
100
AcDbLine
10
0
20
0
30
0
11
-1
21
-0.166667
31
0
39
0
210
0
220
0
230
1
0
LINE
5
115
100
AcDbEntity
8
0
62
256
6
ByLayer
370
-2
48
1
60
0
100
AcDbLine
10
-1
20
0.166667
30
0
11
-1
21
-0.166667
31
0
39
0
210
0
220
0
230
1
0
LINE
5
116
100
AcDbEntity
8
0
62
256
6
ByLayer
370
-2
48
1
60
0
100
AcDbLine
10
0
20
0
30
0
11
-1
21
0
31
0
39
0
210
0
220
0
230
1
0
ENDBLK
5
112
100
AcDbEntity
8
0
100
AcDbBlockEnd
0
BLOCK
5
11B
100
AcDbEntity
8
0
100
AcDbBlockBegin
2
*D2
70
1
10
0
20
0
30
0
3
*D2
0
LINE
5
11D
100
AcDbEntity
8
0
62
256
6
ByLayer
370
-2
48
1
60
0
100
AcDbLine
10
0
20
-6.5875
30
0
11
0
21
-31.941787
31
0
39
0
210
0
220
0
230
1
0
LINE
5
11E
100
AcDbEntity
8
0
62
256
6
ByLayer
370
-2
48
1
60
0
100
AcDbLine
10
112
20
-1.5875
30
0
11
112
21
-31.941787
31
0
39
0
210
0
220
0
230
1
0
LINE
5
11F
100
AcDbEntity
8
0
62
256
6
ByLayer
370
-2
48
1
60
0
100
AcDbLine
10
3.175
20
-28.766787
30
0
11
108.825
21
-28.766787
31
0
39
0
210
0
220
0
230
1
0
SOLID
5
120
100
AcDbEntity
8
0
62
256
6
ByLayer
370
-1
48
1
60
0
100
AcDbTrace
10
3.175
20
-28.23762
30
0
11
3.175
21
-29.295953
31
0
12
0
22
-28.766787
32
0
13
0
23
-28.766787
33
0
39
0
210
0
220
0
230
1
0
SOLID
5
121
100
AcDbEntity
8
0
62
256
6
ByLayer
370
-1
48
1
60
0
100
AcDbTrace
10
108.825
20
-29.295953
30
0
11
108.825
21
-28.23762
31
0
12
112
22
-28.766787
32
0
13
112
23
-28.766787
33
0
39
0
210
0
220
0
230
1
0
MTEXT
5
122
100
AcDbEntity
8
0
62
256
6
ByLayer
370
18
48
1
60
0
100
AcDbMText
10
56
20
-21.460286
30
0
210
0
220
0
230
1
1
\A1;112
40
3.50012
41
0
44
1
50
0
71
5
72
5
7
iso_b_vert
0
POINT
5
123
100
AcDbEntity
8
Defpoints
62
0
6
ByLayer
370
-1
48
1
60
0
100
AcDbPoint
10
0
20
-5
30
0
39
0
210
0
220
0
230
1
50
360
0
POINT
5
124
100
AcDbEntity
8
Defpoints
62
0
6
ByLayer
370
-1
48
1
60
0
100
AcDbPoint
10
112
20
0
30
0
39
0
210
0
220
0
230
1
50
360
0
POINT
5
125
100
AcDbEntity
8
Defpoints
62
0
6
ByLayer
370
-1
48
1
60
0
100
AcDbPoint
10
112
20
-28.766787
30
0
39
0
210
0
220
0
230
1
50
360
0
ENDBLK
5
11C
100
AcDbEntity
8
0
100
AcDbBlockEnd
0
BLOCK
5
133
100
AcDbEntity
8
0
100
AcDbBlockBegin
2
_U0
70
0
10
0
20
0
30
0
3
_U0
0
MTEXT
5
127
100
AcDbEntity
8
SK2
62
256
6
ByLayer
370
18
48
1
60
0
100
AcDbMText
10
50.337507
20
-27.734118
30
0
210
0
220
0
230
1
1
\W0.6532;112.00
40
3.50012
41
0
44
1.084337
50
0
71
7
72
5
7
iso_b_vert
0
MTEXT
5
128
100
AcDbEntity
8
SK2
62
256
6
ByLayer
370
18
48
1
60
0
100
AcDbMText
10
46.811448
20
-27.667481
30
0
210
0
220
0
230
1
1
\W0.1790;(
40
3.175
41
0
44
1.084337
50
0
71
7
72
5
7
iso_b_vert
0
MTEXT
5
129
100
AcDbEntity
8
SK2
62
256
6
ByLayer
370
18
48
1
60
0
100
AcDbMText
10
65.191274
20
-27.667481
30
0
210
0
220
0
230
1
1
\W0.1969;)
40
3.175
41
0
44
1.084337
50
0
71
7
72
5
7
iso_b_vert
0
LINE
5
12A
100
AcDbEntity
8
SK2
62
256
6
ByLayer
370
13
48
1
60
0
100
AcDbLine
10
0
20
-6.5875
30
0
11
0
21
-31.941787
31
0
39
0
210
0
220
0
230
1
0
LINE
5
12B
100
AcDbEntity
8
SK2
62
256
6
ByLayer
370
13
48
1
60
0
100
AcDbLine
10
112
20
-1.5875
30
0
11
112
21
-31.941787
31
0
39
0
210
0
220
0
230
1
0
LINE
5
12C
100
AcDbEntity
8
SK2
62
256
6
ByLayer
370
13
48
1
60
0
100
AcDbLine
10
0
20
-28.766787
30
0
11
112
21
-28.766787
31
0
39
0
210
0
220
0
230
1
0
LINE
5
12D
100
AcDbEntity
8
SK2
62
256
6
ByLayer
370
13
48
1
60
0
100
AcDbLine
10
0
20
-28.766787
30
0
11
3.174998
21
-28.34879
31
0
39
0
210
0
220
0
230
1
0
LINE
5
12E
100
AcDbEntity
8
SK2
62
256
6
ByLayer
370
13
48
1
60
0
100
AcDbLine
10
0
20
-28.766787
30
0
11
3.175002
21
-29.184783
31
0
39
0
210
0
220
0
230
1
0
LINE
5
12F
100
AcDbEntity
8
SK2
62
256
6
ByLayer
370
13
48
1
60
0
100
AcDbLine
10
3.174998
20
-28.34879
30
0
11
3.175002
21
-29.184783
31
0
39
0
210
0
220
0
230
1
0
LINE
5
130
100
AcDbEntity
8
SK2
62
256
6
ByLayer
370
13
48
1
60
0
100
AcDbLine
10
112
20
-28.766787
30
0
11
108.825002
21
-29.184783
31
0
39
0
210
0
220
0
230
1
0
LINE
5
131
100
AcDbEntity
8
SK2
62
256
6
ByLayer
370
13
48
1
60
0
100
AcDbLine
10
112
20
-28.766787
30
0
11
108.824998
21
-28.34879
31
0
39
0
210
0
220
0
230
1
0
LINE
5
132
100
AcDbEntity
8
SK2
62
256
6
ByLayer
370
13
48
1
60
0
100
AcDbLine
10
108.825002
20
-29.184783
30
0
11
108.824998
21
-28.34879
31
0
39
0
210
0
220
0
230
1
0
ENDBLK
5
134
100
AcDbEntity
8
0
100
AcDbBlockEnd
0
BLOCK
5
139
100
AcDbEntity
8
0
100
AcDbBlockBegin
2
*D4
70
1
10
0
20
0
30
0
3
*D4
0
LINE
5
13B
100
AcDbEntity
8
0
62
256
6
ByLayer
370
-2
48
1
60
0
100
AcDbLine
10
111.8768
20
-4.7
30
0
11
121.92506
21
-4.7
31
0
39
0
210
0
220
0
230
1
0
LINE
5
13C
100
AcDbEntity
8
0
62
256
6
ByLayer
370
-2
48
1
60
0
100
AcDbLine
10
111.8768
20
4.7
30
0
11
121.92506
21
4.7
31
0
39
0
210
0
220
0
230
1
0
LINE
5
13D
100
AcDbEntity
8
0
62
256
6
ByLayer
370
-2
48
1
60
0
100
AcDbLine
10
118.75006
20
4.7
30
0
11
118.75006
21
29.663138
31
0
39
0
210
0
220
0
230
1
0
LINE
5
13E
100
AcDbEntity
8
0
62
256
6
ByLayer
370
-2
48
1
60
0
100
AcDbLine
10
118.75006
20
-7.875
30
0
11
118.75006
21
-11.05
31
0
39
0
210
0
220
0
230
1
0
LINE
5
13F
100
AcDbEntity
8
0
62
256
6
ByLayer
370
-2
48
1
60
0
100
AcDbLine
10
118.75006
20
7.875
30
0
11
118.75006
21
11.05
31
0
39
0
210
0
220
0
230
1
0
SOLID
5
140
100
AcDbEntity
8
0
62
256
6
ByLayer
370
-1
48
1
60
0
100
AcDbTrace
10
119.279227
20
-7.875
30
0
11
118.220893
21
-7.875
31
0
12
118.75006
22
-4.7
32
0
13
118.75006
23
-4.7
33
0
39
0
210
0
220
0
230
1
0
SOLID
5
141
100
AcDbEntity
8
0
62
256
6
ByLayer
370
-1
48
1
60
0
100
AcDbTrace
10
118.220893
20
7.875
30
0
11
119.279227
21
7.875
31
0
12
118.75006
22
4.7
32
0
13
118.75006
23
4.7
33
0
39
0
210
0
220
0
230
1
0
MTEXT
5
142
100
AcDbEntity
8
0
62
256
6
ByLayer
370
18
48
1
60
0
100
AcDbMText
10
111.44356
20
20.356569
30
0
210
0
220
0
230
1
1
\A1;9.4
40
3.50012
41
0
44
1
50
90
71
5
72
5
7
iso_b_vert
0
POINT
5
143
100
AcDbEntity
8
Defpoints
62
0
6
ByLayer
370
-1
48
1
60
0
100
AcDbPoint
10
110.2893
20
-4.7
30
0
39
0
210
0
220
0
230
1
50
360
0
POINT
5
144
100
AcDbEntity
8
Defpoints
62
0
6
ByLayer
370
-1
48
1
60
0
100
AcDbPoint
10
110.2893
20
4.7
30
0
39
0
210
0
220
0
230
1
50
360
0
POINT
5
145
100
AcDbEntity
8
Defpoints
62
0
6
ByLayer
370
-1
48
1
60
0
100
AcDbPoint
10
118.75006
20
4.7
30
0
39
0
210
0
220
0
230
1
50
360
0
ENDBLK
5
13A
100
AcDbEntity
8
0
100
AcDbBlockEnd
0
BLOCK
5
152
100
AcDbEntity
8
0
100
AcDbBlockBegin
2
_U1
70
0
10
0
20
0
30
0
3
_U1
0
MTEXT
5
148
100
AcDbEntity
8
2
62
256
6
ByLayer
370
18
48
1
60
0
100
AcDbMText
10
118.060403
20
8.857505
30
0
210
0
220
0
230
1
1
\W0.7640;9.40
40
3.50012
41
0
44
1.084337
50
90
71
7
72
5
7
iso_b_vert
0
LINE
5
149
100
AcDbEntity
8
2
62
256
6
ByLayer
370
13
48
1
60
0
100
AcDbLine
10
111.8768
20
-4.7
30
0
11
121.92506
21
-4.7
31
0
39
0
210
0
220
0
230
1
0
LINE
5
14A
100
AcDbEntity
8
2
62
256
6
ByLayer
370
13
48
1
60
0
100
AcDbLine
10
111.8768
20
4.7
30
0
11
121.92506
21
4.7
31
0
39
0
210
0
220
0
230
1
0
LINE
5
14B
100
AcDbEntity
8
2
62
256
6
ByLayer
370
13
48
1
60
0
100
AcDbLine
10
118.75006
20
-4.7
30
0
11
118.75006
21
17.283226
31
0
39
0
210
0
220
0
230
1
0
LINE
5
14C
100
AcDbEntity
8
2
62
256
6
ByLayer
370
13
48
1
60
0
100
AcDbLine
10
118.75006
20
-4.7
30
0
11
118.332063
21
-1.525002
31
0
39
0
210
0
220
0
230
1
0
LINE
5
14D
100
AcDbEntity
8
2
62
256
6
ByLayer
370
13
48
1
60
0
100
AcDbLine
10
118.75006
20
-4.7
30
0
11
119.168057
21
-1.524998
31
0
39
0
210
0
220
0
230
1
0
LINE
5
14E
100
AcDbEntity
8
2
62
256
6
ByLayer
370
13
48
1
60
0
100
AcDbLine
10
118.332063
20
-1.525002
30
0
11
119.168057
21
-1.524998
31
0
39
0
210
0
220
0
230
1
0
LINE
5
14F
100
AcDbEntity
8
2
62
256
6
ByLayer
370
13
48
1
60
0
100
AcDbLine
10
118.75006
20
4.7
30
0
11
119.168057
21
1.525002
31
0
39
0
210
0
220
0
230
1
0
LINE
5
150
100
AcDbEntity
8
2
62
256
6
ByLayer
370
13
48
1
60
0
100
AcDbLine
10
118.75006
20
4.7
30
0
11
118.332063
21
1.524998
31
0
39
0
210
0
220
0
230
1
0
LINE
5
151
100
AcDbEntity
8
2
62
256
6
ByLayer
370
13
48
1
60
0
100
AcDbLine
10
119.168057
20
1.525002
30
0
11
118.332063
21
1.524998
31
0
39
0
210
0
220
0
230
1
0
ENDBLK
5
153
100
AcDbEntity
8
0
100
AcDbBlockEnd
0
BLOCK
5
158
100
AcDbEntity
8
0
100
AcDbBlockBegin
2
*D6
70
1
10
0
20
0
30
0
3
*D6
0
LINE
5
15A
100
AcDbEntity
8
0
62
256
6
ByLayer
370
-2
48
1
60
0
100
AcDbLine
10
-41.5875
20
5
30
0
11
-46.491607
21
5
31
0
39
0
210
0
220
0
230
1
0
LINE
5
15B
100
AcDbEntity
8
0
62
256
6
ByLayer
370
-2
48
1
60
0
100
AcDbLine
10
-41.5875
20
-5
30
0
11
-46.491607
21
-5
31
0
39
0
210
0
220
0
230
1
0
LINE
5
15C
100
AcDbEntity
8
0
62
256
6
ByLayer
370
-2
48
1
60
0
100
AcDbLine
10
-43.316607
20
5
30
0
11
-43.316607
21
28.250865
31
0
39
0
210
0
220
0
230
1
0
LINE
5
15D
100
AcDbEntity
8
0
62
256
6
ByLayer
370
-2
48
1
60
0
100
AcDbLine
10
-43.316607
20
8.175
30
0
11
-43.316607
21
11.35
31
0
39
0
210
0
220
0
230
1
0
LINE
5
15E
100
AcDbEntity
8
0
62
256
6
ByLayer
370
-2
48
1
60
0
100
AcDbLine
10
-43.316607
20
-8.175
30
0
11
-43.316607
21
-11.35
31
0
39
0
210
0
220
0
230
1
0
SOLID
5
15F
100
AcDbEntity
8
0
62
256
6
ByLayer
370
-1
48
1
60
0
100
AcDbTrace
10
-43.845773
20
8.175
30
0
11
-42.78744
21
8.175
31
0
12
-43.316607
22
5
32
0
13
-43.316607
23
5
33
0
39
0
210
0
220
0
230
1
0
SOLID
5
160
100
AcDbEntity
8
0
62
256
6
ByLayer
370
-1
48
1
60
0
100
AcDbTrace
10
-42.78744
20
-8.175
30
0
11
-43.845773
21
-8.175
31
0
12
-43.316607
22
-5
32
0
13
-43.316607
23
-5
33
0
39
0
210
0
220
0
230
1
0
MTEXT
5
161
100
AcDbEntity
8
0
62
256
6
ByLayer
370
18
48
1
60
0
100
AcDbMText
10
-50.623107
20
20.111003
30
0
210
0
220
0
230
1
1
\A1;10
40
3.50012
41
0
44
1
50
90
71
5
72
5
7
iso_b_vert
0
POINT
5
162
100
AcDbEntity
8
Defpoints
62
0
6
ByLayer
370
-1
48
1
60
0
100
AcDbPoint
10
-40
20
5
30
0
39
0
210
0
220
0
230
1
50
360
0
POINT
5
163
100
AcDbEntity
8
Defpoints
62
0
6
ByLayer
370
-1
48
1
60
0
100
AcDbPoint
10
-40
20
-5
30
0
39
0
210
0
220
0
230
1
50
360
0
POINT
5
164
100
AcDbEntity
8
Defpoints
62
0
6
ByLayer
370
-1
48
1
60
0
100
AcDbPoint
10
-43.316607
20
-5
30
0
39
0
210
0
220
0
230
1
50
360
0
ENDBLK
5
159
100
AcDbEntity
8
0
100
AcDbBlockEnd
0
BLOCK
5
170
100
AcDbEntity
8
0
100
AcDbBlockBegin
2
_U2
70
0
10
0
20
0
30
0
3
_U2
0
MTEXT
5
166
100
AcDbEntity
8
SK2
62
256
6
ByLayer
370
18
48
1
60
0
100
AcDbMText
10
-44.006264
20
15.290839
30
0
210
0
220
0
230
1
1
\W0.6864;10.00
40
3.50012
41
0
44
1.084337
50
90
71
7
72
5
7
iso_b_vert
0
LINE
5
167
100
AcDbEntity
8
SK2
62
256
6
ByLayer
370
13
48
1
60
0
100
AcDbLine
10
-41.5875
20
5
30
0
11
-46.491607
21
5
31
0
39
0
210
0
220
0
230
1
0
LINE
5
168
100
AcDbEntity
8
SK2
62
256
6
ByLayer
370
13
48
1
60
0
100
AcDbLine
10
-41.5875
20
-5
30
0
11
-46.491607
21
-5
31
0
39
0
210
0
220
0
230
1
0
LINE
5
169
100
AcDbEntity
8
SK2
62
256
6
ByLayer
370
13
48
1
60
0
100
AcDbLine
10
-43.316607
20
-5
30
0
11
-43.316607
21
25.088672
31
0
39
0
210
0
220
0
230
1
0
LINE
5
16A
100
AcDbEntity
8
SK2
62
256
6
ByLayer
370
13
48
1
60
0
100
AcDbLine
10
-43.316607
20
5
30
0
11
-42.89861
21
1.825002
31
0
39
0
210
0
220
0
230
1
0
LINE
5
16B
100
AcDbEntity
8
SK2
62
256
6
ByLayer
370
13
48
1
60
0
100
AcDbLine
10
-43.316607
20
5
30
0
11
-43.734603
21
1.824998
31
0
39
0
210
0
220
0
230
1
0
LINE
5
16C
100
AcDbEntity
8
SK2
62
256
6
ByLayer
370
13
48
1
60
0
100
AcDbLine
10
-42.89861
20
1.825002
30
0
11
-43.734603
21
1.824998
31
0
39
0
210
0
220
0
230
1
0
LINE
5
16D
100
AcDbEntity
8
SK2
62
256
6
ByLayer
370
13
48
1
60
0
100
AcDbLine
10
-43.316607
20
-5
30
0
11
-43.734603
21
-1.825002
31
0
39
0
210
0
220
0
230
1
0
LINE
5
16E
100
AcDbEntity
8
SK2
62
256
6
ByLayer
370
13
48
1
60
0
100
AcDbLine
10
-43.316607
20
-5
30
0
11
-42.89861
21
-1.824998
31
0
39
0
210
0
220
0
230
1
0
LINE
5
16F
100
AcDbEntity
8
SK2
62
256
6
ByLayer
370
13
48
1
60
0
100
AcDbLine
10
-43.734603
20
-1.825002
30
0
11
-42.89861
21
-1.824998
31
0
39
0
210
0
220
0
230
1
0
ENDBLK
5
171
100
AcDbEntity
8
0
100
AcDbBlockEnd
0
BLOCK
5
176
100
AcDbEntity
8
0
100
AcDbBlockBegin
2
*D8
70
1
10
0
20
0
30
0
3
*D8
0
LINE
5
178
100
AcDbEntity
8
0
62
256
6
ByLayer
370
-2
48
1
60
0
100
AcDbLine
10
-40
20
-6.5875
30
0
11
-40
21
-31.941787
31
0
39
0
210
0
220
0
230
1
0
LINE
5
179
100
AcDbEntity
8
0
62
256
6
ByLayer
370
-2
48
1
60
0
100
AcDbLine
10
0
20
-6.5875
30
0
11
0
21
-31.941787
31
0
39
0
210
0
220
0
230
1
0
LINE
5
17A
100
AcDbEntity
8
0
62
256
6
ByLayer
370
-2
48
1
60
0
100
AcDbLine
10
-36.825
20
-28.766787
30
0
11
-3.175
21
-28.766787
31
0
39
0
210
0
220
0
230
1
0
SOLID
5
17B
100
AcDbEntity
8
0
62
256
6
ByLayer
370
-1
48
1
60
0
100
AcDbTrace
10
-36.825
20
-28.23762
30
0
11
-36.825
21
-29.295953
31
0
12
-40
22
-28.766787
32
0
13
-40
23
-28.766787
33
0
39
0
210
0
220
0
230
1
0
SOLID
5
17C
100
AcDbEntity
8
0
62
256
6
ByLayer
370
-1
48
1
60
0
100
AcDbTrace
10
-3.175
20
-29.295953
30
0
11
-3.175
21
-28.23762
31
0
12
0
22
-28.766787
32
0
13
0
23
-28.766787
33
0
39
0
210
0
220
0
230
1
0
MTEXT
5
17D
100
AcDbEntity
8
0
62
256
6
ByLayer
370
18
48
1
60
0
100
AcDbMText
10
-20
20
-21.460286
30
0
210
0
220
0
230
1
1
\A1;40
40
3.50012
41
0
44
1
50
0
71
5
72
5
7
iso_b_vert
0
POINT
5
17E
100
AcDbEntity
8
Defpoints
62
0
6
ByLayer
370
-1
48
1
60
0
100
AcDbPoint
10
-40
20
-5
30
0
39
0
210
0
220
0
230
1
50
360
0
POINT
5
17F
100
AcDbEntity
8
Defpoints
62
0
6
ByLayer
370
-1
48
1
60
0
100
AcDbPoint
10
0
20
-5
30
0
39
0
210
0
220
0
230
1
50
360
0
POINT
5
180
100
AcDbEntity
8
Defpoints
62
0
6
ByLayer
370
-1
48
1
60
0
100
AcDbPoint
10
0
20
-28.766787
30
0
39
0
210
0
220
0
230
1
50
360
0
ENDBLK
5
177
100
AcDbEntity
8
0
100
AcDbBlockEnd
0
BLOCK
5
18C
100
AcDbEntity
8
0
100
AcDbBlockBegin
2
_U3
70
0
10
0
20
0
30
0
3
_U3
0
MTEXT
5
182
100
AcDbEntity
8
SK2
62
256
6
ByLayer
370
18
48
1
60
0
100
AcDbMText
10
-25.413884
20
-27.734118
30
0
210
0
220
0
230
1
1
\W0.7694;40.00
40
3.50012
41
0
44
1.084337
50
0
71
7
72
5
7
iso_b_vert
0
LINE
5
183
100
AcDbEntity
8
SK2
62
256
6
ByLayer
370
13
48
1
60
0
100
AcDbLine
10
-40
20
-6.5875
30
0
11
-40
21
-31.941787
31
0
39
0
210
0
220
0
230
1
0
LINE
5
184
100
AcDbEntity
8
SK2
62
256
6
ByLayer
370
13
48
1
60
0
100
AcDbLine
10
0
20
-6.5875
30
0
11
0
21
-31.941787
31
0
39
0
210
0
220
0
230
1
0
LINE
5
185
100
AcDbEntity
8
SK2
62
256
6
ByLayer
370
13
48
1
60
0
100
AcDbLine
10
-40
20
-28.766787
30
0
11
0
21
-28.766787
31
0
39
0
210
0
220
0
230
1
0
LINE
5
186
100
AcDbEntity
8
SK2
62
256
6
ByLayer
370
13
48
1
60
0
100
AcDbLine
10
-40
20
-28.766787
30
0
11
-36.825002
21
-28.34879
31
0
39
0
210
0
220
0
230
1
0
LINE
5
187
100
AcDbEntity
8
SK2
62
256
6
ByLayer
370
13
48
1
60
0
100
AcDbLine
10
-40
20
-28.766787
30
0
11
-36.824998
21
-29.184783
31
0
39
0
210
0
220
0
230
1
0
LINE
5
188
100
AcDbEntity
8
SK2
62
256
6
ByLayer
370
13
48
1
60
0
100
AcDbLine
10
-36.825002
20
-28.34879
30
0
11
-36.824998
21
-29.184783
31
0
39
0
210
0
220
0
230
1
0
LINE
5
189
100
AcDbEntity
8
SK2
62
256
6
ByLayer
370
13
48
1
60
0
100
AcDbLine
10
0
20
-28.766787
30
0
11
-3.174998
21
-29.184783
31
0
39
0
210
0
220
0
230
1
0
LINE
5
18A
100
AcDbEntity
8
SK2
62
256
6
ByLayer
370
13
48
1
60
0
100
AcDbLine
10
0
20
-28.766787
30
0
11
-3.175002
21
-28.34879
31
0
39
0
210
0
220
0
230
1
0
LINE
5
18B
100
AcDbEntity
8
SK2
62
256
6
ByLayer
370
13
48
1
60
0
100
AcDbLine
10
-3.174998
20
-29.184783
30
0
11
-3.175002
21
-28.34879
31
0
39
0
210
0
220
0
230
1
0
ENDBLK
5
18D
100
AcDbEntity
8
0
100
AcDbBlockEnd
0
BLOCK
5
192
100
AcDbEntity
8
0
100
AcDbBlockBegin
2
*D10
70
1
10
0
20
0
30
0
3
*D10
0
LINE
5
194
100
AcDbEntity
8
0
62
256
6
ByLayer
370
-2
48
1
60
0
100
AcDbLine
10
6
20
3.6125
30
0
11
6
21
-23.191487
31
0
39
0
210
0
220
0
230
1
0
LINE
5
195
100
AcDbEntity
8
0
62
256
6
ByLayer
370
-2
48
1
60
0
100
AcDbLine
10
112
20
-1.5875
30
0
11
112
21
-23.191487
31
0
39
0
210
0
220
0
230
1
0
LINE
5
196
100
AcDbEntity
8
0
62
256
6
ByLayer
370
-2
48
1
60
0
100
AcDbLine
10
9.175
20
-20.016487
30
0
11
108.825
21
-20.016487
31
0
39
0
210
0
220
0
230
1
0
SOLID
5
197
100
AcDbEntity
8
0
62
256
6
ByLayer
370
-1
48
1
60
0
100
AcDbTrace
10
9.175
20
-19.48732
30
0
11
9.175
21
-20.545653
31
0
12
6
22
-20.016487
32
0
13
6
23
-20.016487
33
0
39
0
210
0
220
0
230
1
0
SOLID
5
198
100
AcDbEntity
8
0
62
256
6
ByLayer
370
-1
48
1
60
0
100
AcDbTrace
10
108.825
20
-20.545653
30
0
11
108.825
21
-19.48732
31
0
12
112
22
-20.016487
32
0
13
112
23
-20.016487
33
0
39
0
210
0
220
0
230
1
0
MTEXT
5
199
100
AcDbEntity
8
0
62
256
6
ByLayer
370
18
48
1
60
0
100
AcDbMText
10
59
20
-12.709986
30
0
210
0
220
0
230
1
1
\A1;106
40
3.50012
41
0
44
1
50
0
71
5
72
5
7
iso_b_vert
0
POINT
5
19A
100
AcDbEntity
8
Defpoints
62
0
6
ByLayer
370
-1
48
1
60
0
100
AcDbPoint
10
6
20
5.2
30
0
39
0
210
0
220
0
230
1
50
360
0
POINT
5
19B
100
AcDbEntity
8
Defpoints
62
0
6
ByLayer
370
-1
48
1
60
0
100
AcDbPoint
10
112
20
0
30
0
39
0
210
0
220
0
230
1
50
360
0
POINT
5
19C
100
AcDbEntity
8
Defpoints
62
0
6
ByLayer
370
-1
48
1
60
0
100
AcDbPoint
10
112
20
-20.016487
30
0
39
0
210
0
220
0
230
1
50
360
0
ENDBLK
5
193
100
AcDbEntity
8
0
100
AcDbBlockEnd
0
BLOCK
5
1A8
100
AcDbEntity
8
0
100
AcDbBlockBegin
2
_U4
70
0
10
0
20
0
30
0
3
_U4
0
MTEXT
5
19E
100
AcDbEntity
8
SK2
62
256
6
ByLayer
370
18
48
1
60
0
100
AcDbMText
10
52.900059
20
-18.983818
30
0
210
0
220
0
230
1
1
\W0.7022;106.00
40
3.50012
41
0
44
1.084337
50
0
71
7
72
5
7
iso_b_vert
0
LINE
5
19F
100
AcDbEntity
8
SK2
62
256
6
ByLayer
370
13
48
1
60
0
100
AcDbLine
10
6
20
3.6125
30
0
11
6
21
-23.191487
31
0
39
0
210
0
220
0
230
1
0
LINE
5
1A0
100
AcDbEntity
8
SK2
62
256
6
ByLayer
370
13
48
1
60
0
100
AcDbLine
10
112
20
-1.5875
30
0
11
112
21
-23.191487
31
0
39
0
210
0
220
0
230
1
0
LINE
5
1A1
100
AcDbEntity
8
SK2
62
256
6
ByLayer
370
13
48
1
60
0
100
AcDbLine
10
6
20
-20.016487
30
0
11
112
21
-20.016487
31
0
39
0
210
0
220
0
230
1
0
LINE
5
1A2
100
AcDbEntity
8
SK2
62
256
6
ByLayer
370
13
48
1
60
0
100
AcDbLine
10
6
20
-20.016487
30
0
11
9.174998
21
-19.59849
31
0
39
0
210
0
220
0
230
1
0
LINE
5
1A3
100
AcDbEntity
8
SK2
62
256
6
ByLayer
370
13
48
1
60
0
100
AcDbLine
10
6
20
-20.016487
30
0
11
9.175002
21
-20.434483
31
0
39
0
210
0
220
0
230
1
0
LINE
5
1A4
100
AcDbEntity
8
SK2
62
256
6
ByLayer
370
13
48
1
60
0
100
AcDbLine
10
9.174998
20
-19.59849
30
0
11
9.175002
21
-20.434483
31
0
39
0
210
0
220
0
230
1
0
LINE
5
1A5
100
AcDbEntity
8
SK2
62
256
6
ByLayer
370
13
48
1
60
0
100
AcDbLine
10
112
20
-20.016487
30
0
11
108.825002
21
-20.434483
31
0
39
0
210
0
220
0
230
1
0
LINE
5
1A6
100
AcDbEntity
8
SK2
62
256
6
ByLayer
370
13
48
1
60
0
100
AcDbLine
10
112
20
-20.016487
30
0
11
108.824998
21
-19.59849
31
0
39
0
210
0
220
0
230
1
0
LINE
5
1A7
100
AcDbEntity
8
SK2
62
256
6
ByLayer
370
13
48
1
60
0
100
AcDbLine
10
108.825002
20
-20.434483
30
0
11
108.824998
21
-19.59849
31
0
39
0
210
0
220
0
230
1
0
ENDBLK
5
1A9
100
AcDbEntity
8
0
100
AcDbBlockEnd
0
BLOCK
5
1AE
100
AcDbEntity
8
0
100
AcDbBlockBegin
2
*D12
70
1
10
0
20
0
30
0
3
*D12
0
LINE
5
1B0
100
AcDbEntity
8
0
62
256
6
ByLayer
370
-2
48
1
60
0
100
AcDbLine
10
35.1
20
-6.2875
30
0
11
35.1
21
-12.386667
31
0
39
0
210
0
220
0
230
1
0
LINE
5
1B1
100
AcDbEntity
8
0
62
256
6
ByLayer
370
-2
48
1
60
0
100
AcDbLine
10
112
20
-1.5875
30
0
11
112
21
-12.386667
31
0
39
0
210
0
220
0
230
1
0
LINE
5
1B2
100
AcDbEntity
8
0
62
256
6
ByLayer
370
-2
48
1
60
0
100
AcDbLine
10
38.275
20
-11.886667
30
0
11
108.825
21
-11.886667
31
0
39
0
210
0
220
0
230
1
0
SOLID
5
1B3
100
AcDbEntity
8
0
62
256
6
ByLayer
370
-1
48
1
60
0
100
AcDbTrace
10
38.275
20
-11.3575
30
0
11
38.275
21
-12.415833
31
0
12
35.1
22
-11.886667
32
0
13
35.1
23
-11.886667
33
0
39
0
210
0
220
0
230
1
0
SOLID
5
1B4
100
AcDbEntity
8
0
62
256
6
ByLayer
370
-1
48
1
60
0
100
AcDbTrace
10
108.825
20
-12.415833
30
0
11
108.825
21
-11.3575
31
0
12
112
22
-11.886667
32
0
13
112
23
-11.886667
33
0
39
0
210
0
220
0
230
1
0
MTEXT
5
1B5
100
AcDbEntity
8
0
62
256
6
ByLayer
370
18
48
1
60
0
100
AcDbMText
10
73.55
20
-6.041667
30
0
210
0
220
0
230
1
1
\A1;76.9
40
2.8
41
0
44
1
50
0
71
5
72
5
7
iso_b_vert
0
POINT
5
1B6
100
AcDbEntity
8
Defpoints
62
0
6
ByLayer
370
-1
48
1
60
0
100
AcDbPoint
10
35.1
20
-4.7
30
0
39
0
210
0
220
0
230
1
50
360
0
POINT
5
1B7
100
AcDbEntity
8
Defpoints
62
0
6
ByLayer
370
-1
48
1
60
0
100
AcDbPoint
10
112
20
0
30
0
39
0
210
0
220
0
230
1
50
360
0
POINT
5
1B8
100
AcDbEntity
8
Defpoints
62
0
6
ByLayer
370
-1
48
1
60
0
100
AcDbPoint
10
112
20
-11.886667
30
0
39
0
210
0
220
0
230
1
50
360
0
ENDBLK
5
1AF
100
AcDbEntity
8
0
100
AcDbBlockEnd
0
BLOCK
5
1C4
100
AcDbEntity
8
0
100
AcDbBlockBegin
2
_U5
70
0
10
0
20
0
30
0
3
_U5
0
MTEXT
5
1BA
100
AcDbEntity
8
SK2
62
256
6
ByLayer
370
18
48
1
60
0
100
AcDbMText
10
69.366454
20
-12.04056
30
0
210
0
220
0
230
1
1
\W0.7468;76.90
40
2.8
41
0
44
1.084337
50
0
71
7
72
5
7
iso_b_vert
0
LINE
5
1BB
100
AcDbEntity
8
SK2
62
256
6
ByLayer
370
13
48
1
60
0
100
AcDbLine
10
35.1
20
-6.2875
30
0
11
35.1
21
-12.386667
31
0
39
0
210
0
220
0
230
1
0
LINE
5
1BC
100
AcDbEntity
8
SK2
62
256
6
ByLayer
370
13
48
1
60
0
100
AcDbLine
10
112
20
-1.5875
30
0
11
112
21
-12.386667
31
0
39
0
210
0
220
0
230
1
0
LINE
5
1BD
100
AcDbEntity
8
SK2
62
256
6
ByLayer
370
13
48
1
60
0
100
AcDbLine
10
35.1
20
-11.886667
30
0
11
112
21
-11.886667
31
0
39
0
210
0
220
0
230
1
0
LINE
5
1BE
100
AcDbEntity
8
SK2
62
256
6
ByLayer
370
13
48
1
60
0
100
AcDbLine
10
35.1
20
-11.886667
30
0
11
38.274998
21
-11.46867
31
0
39
0
210
0
220
0
230
1
0
LINE
5
1BF
100
AcDbEntity
8
SK2
62
256
6
ByLayer
370
13
48
1
60
0
100
AcDbLine
10
35.1
20
-11.886667
30
0
11
38.275002
21
-12.304663
31
0
39
0
210
0
220
0
230
1
0
LINE
5
1C0
100
AcDbEntity
8
SK2
62
256
6
ByLayer
370
13
48
1
60
0
100
AcDbLine
10
38.274998
20
-11.46867
30
0
11
38.275002
21
-12.304663
31
0
39
0
210
0
220
0
230
1
0
LINE
5
1C1
100
AcDbEntity
8
SK2
62
256
6
ByLayer
370
13
48
1
60
0
100
AcDbLine
10
112
20
-11.886667
30
0
11
108.825002
21
-12.304663
31
0
39
0
210
0
220
0
230
1
0
LINE
5
1C2
100
AcDbEntity
8
SK2
62
256
6
ByLayer
370
13
48
1
60
0
100
AcDbLine
10
112
20
-11.886667
30
0
11
108.824998
21
-11.46867
31
0
39
0
210
0
220
0
230
1
0
LINE
5
1C3
100
AcDbEntity
8
SK2
62
256
6
ByLayer
370
13
48
1
60
0
100
AcDbLine
10
108.825002
20
-12.304663
30
0
11
108.824998
21
-11.46867
31
0
39
0
210
0
220
0
230
1
0
ENDBLK
5
1C5
100
AcDbEntity
8
0
100
AcDbBlockEnd
0
BLOCK
5
1CA
100
AcDbEntity
8
0
100
AcDbBlockBegin
2
*D14
70
1
10
0
20
0
30
0
3
*D14
0
LINE
5
1CC
100
AcDbEntity
8
0
62
256
6
ByLayer
370
-2
48
1
60
0
100
AcDbLine
10
-40
20
-1.5875
30
0
11
-40
21
-42.07512
31
0
39
0
210
0
220
0
230
1
0
LINE
5
1CD
100
AcDbEntity
8
0
62
256
6
ByLayer
370
-2
48
1
60
0
100
AcDbLine
10
112
20
-1.5875
30
0
11
112
21
-42.07512
31
0
39
0
210
0
220
0
230
1
0
LINE
5
1CE
100
AcDbEntity
8
0
62
256
6
ByLayer
370
-2
48
1
60
0
100
AcDbLine
10
-36.825
20
-38.90012
30
0
11
108.825
21
-38.90012
31
0
39
0
210
0
220
0
230
1
0
SOLID
5
1CF
100
AcDbEntity
8
0
62
256
6
ByLayer
370
-1
48
1
60
0
100
AcDbTrace
10
-36.825
20
-38.370953
30
0
11
-36.825
21
-39.429287
31
0
12
-40
22
-38.90012
32
0
13
-40
23
-38.90012
33
0
39
0
210
0
220
0
230
1
0
SOLID
5
1D0
100
AcDbEntity
8
0
62
256
6
ByLayer
370
-1
48
1
60
0
100
AcDbTrace
10
108.825
20
-39.429287
30
0
11
108.825
21
-38.370953
31
0
12
112
22
-38.90012
32
0
13
112
23
-38.90012
33
0
39
0
210
0
220
0
230
1
0
MTEXT
5
1D1
100
AcDbEntity
8
0
62
256
6
ByLayer
370
18
48
1
60
0
100
AcDbMText
10
36
20
-31.593619
30
0
210
0
220
0
230
1
1
\A1;152
40
3.50012
41
0
44
1
50
0
71
5
72
5
7
iso_b_vert
0
POINT
5
1D2
100
AcDbEntity
8
Defpoints
62
0
6
ByLayer
370
-1
48
1
60
0
100
AcDbPoint
10
-40
20
0
30
0
39
0
210
0
220
0
230
1
50
360
0
POINT
5
1D3
100
AcDbEntity
8
Defpoints
62
0
6
ByLayer
370
-1
48
1
60
0
100
AcDbPoint
10
112
20
0
30
0
39
0
210
0
220
0
230
1
50
360
0
POINT
5
1D4
100
AcDbEntity
8
Defpoints
62
0
6
ByLayer
370
-1
48
1
60
0
100
AcDbPoint
10
112
20
-38.90012
30
0
39
0
210
0
220
0
230
1
50
360
0
ENDBLK
5
1CB
100
AcDbEntity
8
0
100
AcDbBlockEnd
0
BLOCK
5
1E0
100
AcDbEntity
8
0
100
AcDbBlockBegin
2
_U6
70
0
10
0
20
0
30
0
3
_U6
0
MTEXT
5
1D6
100
AcDbEntity
8
SK2
62
256
6
ByLayer
370
18
48
1
60
0
100
AcDbMText
10
29.900059
20
-37.867451
30
0
210
0
220
0
230
1
1
\W0.7022;152.00
40
3.50012
41
0
44
1.084337
50
0
71
7
72
5
7
iso_b_vert
0
LINE
5
1D7
100
AcDbEntity
8
SK2
62
256
6
ByLayer
370
13
48
1
60
0
100
AcDbLine
10
-40
20
-1.5875
30
0
11
-40
21
-42.07512
31
0
39
0
210
0
220
0
230
1
0
LINE
5
1D8
100
AcDbEntity
8
SK2
62
256
6
ByLayer
370
13
48
1
60
0
100
AcDbLine
10
112
20
-1.5875
30
0
11
112
21
-42.07512
31
0
39
0
210
0
220
0
230
1
0
LINE
5
1D9
100
AcDbEntity
8
SK2
62
256
6
ByLayer
370
13
48
1
60
0
100
AcDbLine
10
-40
20
-38.90012
30
0
11
112
21
-38.90012
31
0
39
0
210
0
220
0
230
1
0
LINE
5
1DA
100
AcDbEntity
8
SK2
62
256
6
ByLayer
370
13
48
1
60
0
100
AcDbLine
10
-40
20
-38.90012
30
0
11
-36.825002
21
-38.482123
31
0
39
0
210
0
220
0
230
1
0
LINE
5
1DB
100
AcDbEntity
8
SK2
62
256
6
ByLayer
370
13
48
1
60
0
100
AcDbLine
10
-40
20
-38.90012
30
0
11
-36.824998
21
-39.318117
31
0
39
0
210
0
220
0
230
1
0
LINE
5
1DC
100
AcDbEntity
8
SK2
62
256
6
ByLayer
370
13
48
1
60
0
100
AcDbLine
10
-36.825002
20
-38.482123
30
0
11
-36.824998
21
-39.318117
31
0
39
0
210
0
220
0
230
1
0
LINE
5
1DD
100
AcDbEntity
8
SK2
62
256
6
ByLayer
370
13
48
1
60
0
100
AcDbLine
10
112
20
-38.90012
30
0
11
108.825002
21
-39.318117
31
0
39
0
210
0
220
0
230
1
0
LINE
5
1DE
100
AcDbEntity
8
SK2
62
256
6
ByLayer
370
13
48
1
60
0
100
AcDbLine
10
112
20
-38.90012
30
0
11
108.824998
21
-38.482123
31
0
39
0
210
0
220
0
230
1
0
LINE
5
1DF
100
AcDbEntity
8
SK2
62
256
6
ByLayer
370
13
48
1
60
0
100
AcDbLine
10
108.825002
20
-39.318117
30
0
11
108.824998
21
-38.482123
31
0
39
0
210
0
220
0
230
1
0
ENDBLK
5
1E1
100
AcDbEntity
8
0
100
AcDbBlockEnd
0
ENDSEC
0
SECTION
2
ENTITIES
0
ARC
5
B4
100
AcDbEntity
8
1
62
256
6
ByLayer
370
18
48
1
60
0
100
AcDbCircle
39
0
10
1.021224
20
5.431707
30
0
40
0.800000000000001
210
0
220
0
230
1
100
AcDbArc
50
230.337421
51
268.476001
0
ARC
5
B5
100
AcDbEntity
8
1
62
256
6
ByLayer
370
18
48
1
60
0
100
AcDbCircle
39
0
10
1.021224
20
-5.431707
30
0
40
0.800000000000001
210
0
220
0
230
1
100
AcDbArc
50
91.486386
51
129.662579
0
ARC
5
B6
100
AcDbEntity
8
1
62
256
6
ByLayer
370
18
48
1
60
0
100
AcDbCircle
39
0
10
0
20
4.2
30
0
40
0.799999999999997
210
0
220
0
230
1
100
AcDbArc
50
50.337421
51
90
0
ARC
5
B7
100
AcDbEntity
8
1
62
256
6
ByLayer
370
18
48
1
60
0
100
AcDbCircle
39
0
10
0
20
-4.2
30
0
40
0.799999999999997
210
0
220
0
230
1
100
AcDbArc
50
270
51
309.662579
0
ARC
5
B8
100
AcDbEntity
8
SK2
62
256
6
ByLayer
370
13
48
1
60
0
100
AcDbCircle
39
0
10
112
20
0
30
0
40
20.2666666666667
210
0
220
0
230
1
100
AcDbArc
50
9.478775
51
69.999571
0
ARC
5
B9
100
AcDbEntity
8
SK2
62
256
6
ByLayer
370
13
48
1
60
0
100
AcDbCircle
39
0
10
112
20
0
30
0
40
20.2666666666667
210
0
220
0
230
1
100
AcDbArc
50
290.000429
51
350.521225
0
ELLIPSE
5
BA
100
AcDbEntity
8
1
62
256
6
ByLayer
370
18
48
1
60
0
100
AcDbEllipse
10
65.10173
20
-4.537091
30
0
11
-0.1
21
1.22460635382238E-17
31
0
210
0
220
0
230
1
40
1
41
-1.57080285582587
42
-4.82194882247164E-06
0
ELLIPSE
5
BB
100
AcDbEntity
8
1
62
256
6
ByLayer
370
18
48
1
60
0
100
AcDbEllipse
10
65.10173
20
4.537091
30
0
11
-0.1
21
1.22460635382238E-17
31
0
210
0
220
0
230
1
40
1
41
4.82194979946791E-06
42
1.57828490065247
0
POINT
5
70
100
AcDbEntity
8
80
62
256
6
ByLayer
370
18
48
1
60
0
100
AcDbPoint
10
0
20
0
30
0
39
0
210
0
220
0
230
1
50
360
0
POINT
5
72
100
AcDbEntity
8
81
62
256
6
ByLayer
370
18
48
1
60
0
100
AcDbPoint
10
112
20
0
30
0
39
0
210
0
220
0
230
1
50
360
0
POINT
5
74
100
AcDbEntity
8
1
62
256
6
ByLayer
370
18
48
1
60
0
100
AcDbPoint
10
-40
20
0
30
0
39
0
210
0
220
0
230
1
50
360
0
POINT
5
76
100
AcDbEntity
8
1
62
256
6
ByLayer
370
18
48
1
60
1
100
AcDbPoint
10
0
20
-5
30
0
39
0
210
0
220
0
230
1
50
360
0
POINT
5
77
100
AcDbEntity
8
1
62
256
6
ByLayer
370
18
48
1
60
1
100
AcDbPoint
10
112
20
0
30
0
39
0
210
0
220
0
230
1
50
360
0
POINT
5
78
100
AcDbEntity
8
1
62
256
6
ByLayer
370
18
48
1
60
1
100
AcDbPoint
10
110.2893
20
-4.7
30
0
39
0
210
0
220
0
230
1
50
360
0
POINT
5
79
100
AcDbEntity
8
1
62
256
6
ByLayer
370
18
48
1
60
1
100
AcDbPoint
10
110.2893
20
4.7
30
0
39
0
210
0
220
0
230
1
50
360
0
POINT
5
7A
100
AcDbEntity
8
1
62
256
6
ByLayer
370
18
48
1
60
1
100
AcDbPoint
10
-40
20
5
30
0
39
0
210
0
220
0
230
1
50
360
0
POINT
5
7B
100
AcDbEntity
8
1
62
256
6
ByLayer
370
18
48
1
60
1
100
AcDbPoint
10
-40
20
-5
30
0
39
0
210
0
220
0
230
1
50
360
0
POINT
5
7C
100
AcDbEntity
8
1
62
256
6
ByLayer
370
18
48
1
60
1
100
AcDbPoint
10
-40
20
-5
30
0
39
0
210
0
220
0
230
1
50
360
0
POINT
5
7D
100
AcDbEntity
8
1
62
256
6
ByLayer
370
18
48
1
60
1
100
AcDbPoint
10
0
20
-5
30
0
39
0
210
0
220
0
230
1
50
360
0
POINT
5
7E
100
AcDbEntity
8
1
62
256
6
ByLayer
370
18
48
1
60
1
100
AcDbPoint
10
6
20
5.2
30
0
39
0
210
0
220
0
230
1
50
360
0
POINT
5
7F
100
AcDbEntity
8
1
62
256
6
ByLayer
370
18
48
1
60
1
100
AcDbPoint
10
112
20
0
30
0
39
0
210
0
220
0
230
1
50
360
0
POINT
5
80
100
AcDbEntity
8
1
62
256
6
ByLayer
370
18
48
1
60
1
100
AcDbPoint
10
35.1
20
-4.7
30
0
39
0
210
0
220
0
230
1
50
360
0
POINT
5
81
100
AcDbEntity
8
1
62
256
6
ByLayer
370
18
48
1
60
1
100
AcDbPoint
10
112
20
0
30
0
39
0
210
0
220
0
230
1
50
360
0
POINT
5
82
100
AcDbEntity
8
1
62
256
6
ByLayer
370
18
48
1
60
1
100
AcDbPoint
10
-40
20
0
30
0
39
0
210
0
220
0
230
1
50
360
0
POINT
5
83
100
AcDbEntity
8
1
62
256
6
ByLayer
370
18
48
1
60
1
100
AcDbPoint
10
112
20
0
30
0
39
0
210
0
220
0
230
1
50
360
0
SPLINE
5
BC
100
AcDbEntity
8
SK1
62
256
6
ByLayer
370
18
48
1
60
0
100
AcDbSpline
70
4
71
3
72
8
73
4
40
0
40
0
40
0
40
0
40
1
40
1
40
1
40
1
41
1
10
-39.5179491924311
20
2.91823636163807
30
-2E-16
41
1
10
-39.462000694054
20
2.96753221967774
30
-2E-16
41
1
10
-39.4060162448233
20
3.01679803357692
30
-2E-16
41
1
10
-39.35
20
3.06603727588879
30
-2E-16
0
SPLINE
5
BD
100
AcDbEntity
8
SK1
62
256
6
ByLayer
370
18
48
1
60
0
100
AcDbSpline
70
4
71
3
72
10
73
6
40
0
40
0
40
0
40
0
40
0.5
40
0.5
40
1
40
1
40
1
40
1
41
1
10
-39.5179491924311
20
2.91823636163807
30
-2E-16
41
1
10
-39.5876702969376
20
2.76849368154834
30
-2E-16
41
1
10
-39.6641392526984
20
2.61877744818511
30
-2E-16
41
1
10
-39.8261142497238
20
2.31921915195983
30
-1E-16
41
1
10
-39.9120447599511
20
2.16884251331416
30
-1E-16
41
1
10
-40
20
2.02077717371526
30
-1E-16
0
SPLINE
5
BE
100
AcDbEntity
8
SK1
62
256
6
ByLayer
370
18
48
1
60
0
100
AcDbSpline
70
4
71
3
72
8
73
4
40
0
40
0
40
0
40
0
40
1
40
1
40
1
40
1
41
1
10
-39.35
20
4.10319432211872
30
0
41
1
10
-39.4060164961557
20
4.0539548588813
30
0
41
1
10
-39.462000955559
20
4.00468903549734
30
0
41
1
10
-39.5179491924311
20
3.95539340786795
30
0
0
SPLINE
5
BF
100
AcDbEntity
8
SK1
62
256
6
ByLayer
370
18
48
1
60
0
100
AcDbSpline
70
4
71
3
72
12
73
8
40
0
40
0
40
0
40
0
40
0.5
40
0.5
40
0.75
40
0.75
40
1
40
1
40
1
40
1
41
1
10
-39.35
20
3.06603727588879
30
-2E-16
41
1
10
-39.3264103729719
20
3.08677296363339
30
-2E-16
41
1
10
-39.3036886178189
20
3.11253580541572
30
-2E-16
41
1
10
-39.275599229617
20
3.15435151606189
30
-2E-16
41
1
10
-39.2670477807072
20
3.16918726138846
30
-2E-16
41
1
10
-39.2542670006876
20
3.1983381632005
30
-2E-16
41
1
10
-39.25
20
3.21300400564917
30
-2E-16
41
1
10
-39.25
20
3.2246034105234
30
-2E-16
0
SPLINE
5
C0
100
AcDbEntity
8
SK1
62
256
6
ByLayer
370
18
48
1
60
0
100
AcDbSpline
70
4
71
3
72
12
73
8
40
0
40
0
40
0
40
0
40
0.5
40
0.5
40
0.75
40
0.75
40
1
40
1
40
1
40
1
41
1
10
-40.0000000000001
20
3.64003809314809
30
0
41
1
10
-39.9123015823215
20
3.71484718570295
30
0
41
1
10
-39.8274378507374
20
3.78046879893711
30
0
41
1
10
-39.7059807717948
20
3.86134228650314
30
0
41
1
10
-39.6664759830087
20
3.8853482423383
30
0
41
1
10
-39.589878798846
20
3.92627298045113
30
0
41
1
10
-39.5527407465257
20
3.94317010824938
30
0
41
1
10
-39.5179491924311
20
3.95539340786795
30
0
0
SPLINE
5
C1
100
AcDbEntity
8
SK1
62
256
6
ByLayer
370
18
48
1
60
0
100
AcDbSpline
70
4
71
3
72
12
73
8
40
0
40
0
40
0
40
0
40
0.249999999999999
40
0.249999999999999
40
0.499999999999999
40
0.499999999999999
40
1
40
1
40
1
40
1
41
1
10
-39.25
20
4.15804475213037
30
0
41
1
10
-39.25
20
4.1637159163347
30
0
41
1
10
-39.254235624227
20
4.16518741228529
30
0
41
1
10
-39.2670201311554
20
4.16241384153781
30
0
41
1
10
-39.2754786511826
20
4.15832985687308
30
0
41
1
10
-39.3037388067419
20
4.14136891760916
30
0
41
1
10
-39.3264172660865
20
4.12392395069719
30
0
41
1
10
-39.35
20
4.10319432211875
30
0
0
SPLINE
5
C2
100
AcDbEntity
8
1
62
256
6
ByLayer
370
18
48
1
60
0
100
AcDbSpline
70
4
71
3
72
8
73
4
40
0
40
0
40
0
40
0
40
1
40
1
40
1
40
1
41
1
10
109.669931768402
20
-0.0403249952496481
30
0
41
1
10
109.708210630514
20
-0.0605373453974209
30
0
41
1
10
109.746236128664
20
-0.0796069782318511
30
0
41
1
10
109.784055820112
20
-0.0975636446295312
30
0
0
SPLINE
5
C3
100
AcDbEntity
8
1
62
256
6
ByLayer
370
18
48
1
60
0
100
AcDbSpline
70
4
71
3
72
18
73
14
40
0
40
0
40
0
40
0
40
0.232969674276471
40
0.232969674276471
40
0.428998352336495
40
0.428998352336495
40
0.626674607816961
40
0.626674607816961
40
0.799916536172113
40
0.799916536172113
40
0.967656009692985
40
0.967656009692985
40
1
40
1
40
1
40
1
41
1
10
110.324836674835
20
-4.4245175810772
30
0
41
1
10
110.324919439639
20
-4.42468858115808
30
0
41
1
10
110.324944818818
20
-4.42504326332656
30
0
41
1
10
110.324859335398
20
-4.42605079311826
30
0
41
1
10
110.324767675222
20
-4.42666091095344
30
0
41
1
10
110.324475013846
20
-4.42813223884812
30
0
41
1
10
110.324267699836
20
-4.42902021266878
30
0
41
1
10
110.323796868132
20
-4.43081273697641
30
0
41
1
10
110.323537148916
20
-4.43172560941329
30
0
41
1
10
110.322994765921
20
-4.43351048373236
30
0
41
1
10
110.322706649337
20
-4.43440458357932
30
0
41
1
10
110.322362849872
20
-4.43541890191347
30
0
41
1
10
110.322306612678
20
-4.43558319031075
30
0
41
1
10
110.322250361727
20
-4.43574594292662
30
0
0
SPLINE
5
C4
100
AcDbEntity
8
1
62
256
6
ByLayer
370
18
48
1
60
0
100
AcDbSpline
70
4
71
3
72
32
73
28
40
0
40
0
40
0
40
0
40
0.100923449527648
40
0.100923449527648
40
0.201846899055296
40
0.201846899055296
40
0.252308623819118
40
0.252308623819118
40
0.30277034858294
40
0.30277034858294
40
0.403693798110584
40
0.403693798110584
40
0.454155522874408
40
0.454155522874408
40
0.504617247638232
40
0.504617247638232
40
0.605540697165876
40
0.605540697165876
40
0.70646414669352
40
0.70646414669352
40
0.807387596221163
40
0.807387596221163
40
0.908311045748807
40
0.908311045748807
40
0.958772770512629
40
0.958772770512629
40
1
40
1
40
1
40
1
41
1
10
109.789444047154
20
-0.111347317258605
30
0
41
1
10
109.323620897927
20
0.129679327166514
30
0
41
1
10
108.859588748366
20
0.36925365794022
30
0
41
1
10
107.933099895888
20
0.841519429845761
30
-1E-16
41
1
10
107.470706927161
20
1.07428600262773
30
-1E-16
41
1
10
106.777302096504
20
1.41563822404928
30
-1E-16
41
1
10
106.546197780382
20
1.52811374990245
30
-1E-16
41
1
10
106.083833562999
20
1.74983493190669
30
-1E-16
41
1
10
105.85251046333
20
1.85903258991834
30
-1E-16
41
1
10
105.157012284618
20
2.1804546273608
30
-1E-16
41
1
10
104.691610134372
20
2.38672268714973
30
-1E-16
41
1
10
103.989864883708
20
2.68105698274459
30
-2E-16
41
1
10
103.754892776526
20
2.77675662687855
30
-2E-16
41
1
10
103.287342818509
20
2.96081138125709
30
-2E-16
41
1
10
103.054292454201
20
3.04940762790821
30
-2E-16
41
1
10
102.356294180081
20
3.30468679207343
30
-2E-16
41
1
10
101.892765158167
20
3.46075105027509
30
-2E-16
41
1
10
100.968435997603
20
3.74098664581766
30
2E-16
41
1
10
100.507971899513
20
3.86432972749463
30
2E-16
41
1
10
99.5852584616175
20
4.07954958686128
30
0
41
1
10
99.123564809842
20
4.17067759868257
30
0
41
1
10
98.1978027435852
20
4.31607840353186
30
0
41
1
10
97.7340801362596
20
4.36844672659447
30
0
41
1
10
97.0336911629871
20
4.42230524666343
30
0
41
1
10
96.7991805889906
20
4.43590170209509
30
0
41
1
10
96.3729006956723
20
4.45170761110225
30
0
41
1
10
96.1817045092814
20
4.45554532508797
30
0
41
1
10
95.9910074689347
20
4.45590069604495
30
0
0
SPLINE
5
C5
100
AcDbEntity
8
1
62
256
6
ByLayer
370
18
48
1
60
0
100
AcDbSpline
70
4
71
3
72
36
73
32
40
0
40
0
40
0
40
0
40
0.0153127236386135
40
0.0153127236386135
40
0.0650294039643012
40
0.0650294039643012
40
0.263896125267047
40
0.263896125267047
40
0.313612805592733
40
0.313612805592733
40
0.363329485918419
40
0.363329485918419
40
0.46276284656979
40
0.46276284656979
40
0.512479526895478
40
0.512479526895478
40
0.562196207221165
40
0.562196207221165
40
0.661629567872539
40
0.661629567872539
40
0.711346248198226
40
0.711346248198226
40
0.761062928523913
40
0.761062928523913
40
0.860496289175285
40
0.860496289175285
40
0.910212969500971
40
0.910212969500971
40
0.959929649826657
40
0.959929649826657
40
1
40
1
40
1
40
1
41
1
10
82.8019222016765
20
-0.222073820370071
30
0
41
1
10
82.7307375255427
20
-0.185376668465693
30
0
41
1
10
82.6595605100754
20
-0.148674047333856
30
0
41
1
10
82.3572289320295
20
0.0070356826904856
30
0
41
1
10
82.1260205729644
20
0.125846792550789
30
0
41
1
10
80.9697094597966
20
0.718828901083953
30
0
41
1
10
80.0431128289206
20
1.18850457797947
30
-1E-16
41
1
10
78.872068216132
20
1.74785847691893
30
-1E-16
41
1
10
78.6376325114933
20
1.85822501224806
30
-1E-16
41
1
10
78.1703149900395
20
2.07344257910756
30
-1E-16
41
1
10
77.9369591714813
20
2.1785556672875
30
-1E-16
41
1
10
77.2380735757708
20
2.48601226432055
30
-2E-16
41
1
10
76.7736009579988
20
2.68060796511716
30
-2E-16
41
1
10
76.0792392376035
20
2.95294541561535
30
-2E-16
41
1
10
75.8481259382285
20
3.04047568252059
30
-2E-16
41
1
10
75.3854232863623
20
3.2090424041325
30
-2E-16
41
1
10
75.1538778170993
20
3.29006176087319
30
-2E-16
41
1
10
74.4585730390143
20
3.52278960830552
30
-2E-16
41
1
10
73.9941434227034
20
3.66411946383374
30
2E-16
41
1
10
73.2953906134623
20
3.85062517505759
30
2E-16
41
1
10
73.0620983936137
20
3.90859288210871
30
2E-16
41
1
10
72.5939950521723
20
4.01665624115549
30
0
41
1
10
72.3588242227463
20
4.06677559549749
30
0
41
1
10
71.6560652279128
20
4.20325756521251
30
0
41
1
10
71.1900004600249
20
4.2760594706416
30
0
41
1
10
70.4938091036551
20
4.35513675102956
30
0
41
1
10
70.2622075366673
20
4.37652681235909
30
0
41
1
10
69.7990306922551
20
4.41054225296139
30
0
41
1
10
69.5674721667217
20
4.42313049268665
30
0
41
1
10
69.1493835158775
20
4.43718031312386
30
0
41
1
10
68.9628190640859
20
4.44037377681082
30
0
41
1
10
68.7762018920095
20
4.44044995507957
30
0
0
SPLINE
5
C6
100
AcDbEntity
8
1
62
256
6
ByLayer
370
18
48
1
60
0
100
AcDbSpline
70
4
71
3
72
26
73
22
40
0
40
0
40
0
40
0
40
0.207435022020197
40
0.207435022020197
40
0.311152533030295
40
0.311152533030295
40
0.363011288535345
40
0.363011288535345
40
0.414870044040394
40
0.414870044040394
40
0.622305066060595
40
0.622305066060595
40
0.726022577070694
40
0.726022577070694
40
0.777881332575744
40
0.777881332575744
40
0.829740088080794
40
0.829740088080794
40
0.933457599090895
40
0.933457599090895
40
1
40
1
40
1
40
1
41
1
10
12.8011422088738
20
1.13635450039632
30
-1E-16
41
1
10
13.8965085403948
20
0.567163413571876
30
0
41
1
10
14.9757864382686
20
-0.0207426543759937
30
0
41
1
10
16.5959687883114
20
-0.882429304999448
30
1E-16
41
1
10
17.1361560194413
20
-1.16645745301164
30
1E-16
41
1
10
17.9499639751656
20
-1.58139411749431
30
1E-16
41
1
10
18.2217933090072
20
-1.71790744287935
30
1E-16
41
1
10
18.7671346464513
20
-1.98627590976022
30
1E-16
41
1
10
19.0412589673784
20
-2.11851944708053
30
1E-16
41
1
10
20.406491066037
20
-2.76001856990374
30
2E-16
41
1
10
21.4843356284458
20
-3.21244969655459
30
2E-16
41
1
10
23.104598674617
20
-3.76691226912496
30
-2E-16
41
1
10
23.6452457765529
20
-3.931072475306
30
-2E-16
41
1
10
24.4603279101142
20
-4.14222724538811
30
-2E-16
41
1
10
24.7326842189965
20
-4.20678862956299
30
0
41
1
10
25.2792854973237
20
-4.32357236082785
30
0
41
1
10
25.5531560277886
20
-4.37568615051566
30
0
41
1
10
26.3725516849986
20
-4.51173383547737
30
1E-16
41
1
10
26.9175716007833
20
-4.57585048195742
30
-1E-16
41
1
10
27.8137785795666
20
-4.63600038851271
30
0
41
1
10
28.1648985309476
20
-4.64813687355871
30
0
41
1
10
28.5157676961274
20
-4.64884631040422
30
0
0
SPLINE
5
C7
100
AcDbEntity
8
1
62
256
6
ByLayer
370
18
48
1
60
0
100
AcDbSpline
70
4
71
3
72
30
73
26
40
0
40
0
40
0
40
0
40
0.0137043163660769
40
0.0137043163660769
40
0.0656146155047051
40
0.0656146155047051
40
0.169435213781961
40
0.169435213781961
40
0.273255812059217
40
0.273255812059217
40
0.377076410336472
40
0.377076410336472
40
0.4289867094751
40
0.4289867094751
40
0.480897008613728
40
0.480897008613728
40
0.584717606890982
40
0.584717606890982
40
0.79235880344549
40
0.79235880344549
40
0.844269102584118
40
0.844269102584118
40
0.896179401722746
40
0.896179401722746
40
1
40
1
40
1
40
1
41
1
10
49.2747387369381
20
3.42529753957726
30
-2E-16
41
1
10
49.3466507918945
20
3.45160471597197
30
-2E-16
41
1
10
49.4186204899773
20
3.47758029496578
30
-2E-16
41
1
10
49.763501192055
20
3.60032413767982
30
-2E-16
41
1
10
50.0373425166374
20
3.69256011531039
30
2E-16
41
1
10
50.856356407564
20
3.95144615370694
30
2E-16
41
1
10
51.4010898311356
20
4.10099345683395
30
2E-16
41
1
10
52.4919237258675
20
4.35037217240739
30
0
41
1
10
53.0394457153189
20
4.45011004070895
30
-1E-16
41
1
10
54.1308194145971
20
4.59482821905317
30
1E-16
41
1
10
54.6753558040067
20
4.64010725346753
30
0
41
1
10
55.4939608133103
20
4.66637875603962
30
0
41
1
10
55.7674841740312
20
4.66819520268268
30
0
41
1
10
56.3137809648001
20
4.65785391703139
30
0
41
1
10
56.5859516763956
20
4.64572856649426
30
0
41
1
10
57.4004534412408
20
4.58901924717208
30
1E-16
41
1
10
57.9406673119946
20
4.52407782536534
30
-1E-16
41
1
10
59.55929055301
20
4.2519320649522
30
2E-16
41
1
10
60.6356962378728
20
3.96729625472682
30
2E-16
41
1
10
61.999059867168
20
3.49794898262837
30
-2E-16
41
1
10
62.2728320372158
20
3.39829427217325
30
-2E-16
41
1
10
62.8186660953894
20
3.18966015607782
30
-2E-16
41
1
10
63.0912594776161
20
3.08059361268875
30
-2E-16
41
1
10
63.9088155573831
20
2.74025610548492
30
-2E-16
41
1
10
64.4534524605857
20
2.49568463951317
30
-2E-16
41
1
10
65.0000000000001
20
2.23684480427158
30
-1E-16
0
SPLINE
5
C8
100
AcDbEntity
8
1
62
256
6
ByLayer
370
18
48
1
60
0
100
AcDbSpline
70
4
71
3
72
34
73
30
40
0
40
0
40
0
40
0
40
0.498011580010749
40
0.498011580010749
40
0.665800735715796
40
0.665800735715796
40
0.777726197736806
40
0.777726197736806
40
0.852406371252314
40
0.852406371252314
40
0.902248508728059
40
0.902248508728059
40
0.935523070678899
40
0.935523070678899
40
0.957768371720118
40
0.957768371720118
40
0.972606801518815
40
0.972606801518815
40
0.982463229151366
40
0.982463229151366
40
0.989005621054195
40
0.989005621054195
40
0.993351341235113
40
0.993351341235113
40
0.996286211623382
40
0.996286211623382
40
0.998410307334066
40
0.998410307334066
40
1
40
1
40
1
40
1
41
1
10
110.075673166295
20
-4.6988693889416
30
0
41
1
10
110.122607233297
20
-4.66829297843535
30
0
41
1
10
110.169620813978
20
-4.63740700527927
30
0
41
1
10
110.232575579939
20
-4.59571782542929
30
0
41
1
10
110.24845014568
20
-4.58517753711899
30
0
41
1
10
110.274928491783
20
-4.56755059630151
30
0
41
1
10
110.285527509125
20
-4.56048242982769
30
0
41
1
10
110.303204970441
20
-4.54867359335404
30
0
41
1
10
110.310281287067
20
-4.54394108662899
30
0
41
1
10
110.322083264027
20
-4.53603918689058
30
0
41
1
10
110.32680912262
20
-4.53287261966318
30
0
41
1
10
110.334686746107
20
-4.52759031572339
30
0
41
1
10
110.3378382066
20
-4.52547610812471
30
0
41
1
10
110.343079727206
20
-4.52195817497758
30
0
41
1
10
110.345173458375
20
-4.52055252168103
30
0
41
1
10
110.348679866444
20
-4.51819743683438
30
0
41
1
10
110.350087429302
20
-4.51725177695479
30
0
41
1
10
110.352443283362
20
-4.51566854387372
30
0
41
1
10
110.353387137567
20
-4.51503411069541
30
0
41
1
10
110.3549641883
20
-4.51397386115525
30
0
41
1
10
110.355595406253
20
-4.51354943945003
30
0
41
1
10
110.356648039053
20
-4.51284158958123
30
0
41
1
10
110.357068350956
20
-4.51255893228725
30
0
41
1
10
110.357768262861
20
-4.51208825510329
30
0
41
1
10
110.358049902569
20
-4.51189885617552
30
0
41
1
10
110.358527192313
20
-4.51157793068319
30
0
41
1
10
110.358725652765
20
-4.51144450094958
30
0
41
1
10
110.359056401364
20
-4.51122221275517
30
0
41
1
10
110.359194570499
20
-4.51112937718159
30
0
41
1
10
110.359314398229
20
-4.51104894704298
30
0
0
SPLINE
5
C9
100
AcDbEntity
8
1
62
256
6
ByLayer
370
18
48
1
60
0
100
AcDbSpline
70
4
71
3
72
12
73
8
40
0
40
0
40
0
40
0
40
0.0696596381273295
40
0.0696596381273295
40
0.688169584045022
40
0.688169584045022
40
1
40
1
40
1
40
1
41
1
10
65.1021791419347
20
-4.27455847465046
30
0
41
1
10
65.1021775980561
20
-4.28207586361182
30
0
41
1
10
65.102176041656
20
-4.28933504892404
30
0
41
1
10
65.1021605534826
20
-4.35848219101931
30
0
41
1
10
65.1021456538443
20
-4.40045212463841
30
0
41
1
10
65.1021228358981
20
-4.43191652151293
30
0
41
1
10
65.1021150912012
20
-4.43713452901386
30
0
41
1
10
65.102107323711
20
-4.43705140865004
30
0
0
SPLINE
5
CA
100
AcDbEntity
8
1
62
256
6
ByLayer
370
18
48
1
60
0
100
AcDbSpline
70
4
71
3
72
40
73
36
40
0
40
0
40
0
40
0
40
0.035214776603886
40
0.035214776603886
40
0.0995337914969576
40
0.0995337914969576
40
0.163852806390029
40
0.163852806390029
40
0.196012313836566
40
0.196012313836566
40
0.228171821283103
40
0.228171821283103
40
0.292490836176177
40
0.292490836176177
40
0.356809851069252
40
0.356809851069252
40
0.421128865962327
40
0.421128865962327
40
0.485447880855401
40
0.485447880855401
40
0.549766895748476
40
0.549766895748476
40
0.581926403195014
40
0.581926403195014
40
0.614085910641552
40
0.614085910641552
40
0.678404925534627
40
0.678404925534627
40
0.742723940427702
40
0.742723940427702
40
0.807042955320776
40
0.807042955320776
40
0.871361970213851
40
0.871361970213851
40
1
40
1
40
1
40
1
41
1
10
86.9258045110433
20
-4.46682756503114
30
0
41
1
10
86.6693275940673
20
-4.50856376511371
30
0
41
1
10
86.4126566604185
20
-4.54443646071792
30
0
41
1
10
85.6860029395963
20
-4.62886513439005
30
0
41
1
10
85.2169823871515
20
-4.66320331294514
30
0
41
1
10
84.2804591372255
20
-4.69058790628594
30
0
41
1
10
83.8124229001482
20
-4.68373490350462
30
0
41
1
10
83.1086012527462
20
-4.64263900170869
30
0
41
1
10
82.8735506455386
20
-4.62376039461236
30
0
41
1
10
82.4043557851603
20
-4.57591150776921
30
1E-16
41
1
10
82.1700496173642
20
-4.54694794097833
30
1E-16
41
1
10
81.4674580931548
20
-4.44526098317374
30
1E-16
41
1
10
80.9994510701074
20
-4.35777430084985
30
0
41
1
10
80.0616543456423
20
-4.14500946263124
30
-2E-16
41
1
10
79.5913824298416
20
-4.0194952298248
30
-2E-16
41
1
10
78.6540647500633
20
-3.73518992468931
30
-2E-16
41
1
10
78.1861667886974
20
-3.57614400252638
30
2E-16
41
1
10
77.2488006071745
20
-3.22788655549675
30
2E-16
41
1
10
76.7784556873026
20
-3.03818160922407
30
2E-16
41
1
10
75.840603336202
20
-2.6346928962538
30
2E-16
41
1
10
75.3726274142494
20
-2.42081947644738
30
1E-16
41
1
10
74.6698671421862
20
-2.08534746960291
30
1E-16
41
1
10
74.4354839281087
20
-1.97107656328635
30
1E-16
41
1
10
73.9661062863705
20
-1.73821035006836
30
1E-16
41
1
10
73.730946300806
20
-1.61952924554893
30
1E-16
41
1
10
73.0269098983418
20
-1.25933678216029
30
1E-16
41
1
10
72.5587907798706
20
-1.01301333692504
30
1E-16
41
1
10
71.6219756882283
20
-0.513526580467868
30
0
41
1
10
71.1526757449233
20
-0.260199498406564
30
0
41
1
10
70.2130816560193
20
0.246907352377605
30
0
41
1
10
69.7446251289604
20
0.49990076176627
30
0
41
1
10
68.8074233556563
20
0.999284384064396
30
-1E-16
41
1
10
68.3383298798697
20
1.24580715191271
30
-1E-16
41
1
10
66.9286565515556
20
1.96701725151519
30
-1E-16
41
1
10
65.9942659389976
20
2.41840765057992
30
-1E-16
41
1
10
65.0542435732744
20
2.82225570626525
30
-2E-16
0
SPLINE
5
CB
100
AcDbEntity
8
1
62
256
6
ByLayer
370
18
48
1
60
0
100
AcDbSpline
70
4
71
3
72
10
73
6
40
0
40
0
40
0
40
0
40
0.681946329726237
40
0.681946329726237
40
1
40
1
40
1
40
1
41
1
10
110.595593865761
20
0.890092607767002
30
-1E-16
41
1
10
110.554432010956
20
0.910250726969906
30
-1E-16
41
1
10
110.514944650582
20
0.92774842348615
30
-1E-16
41
1
10
110.459820596316
20
0.948990274322057
30
-1E-16
41
1
10
110.442640958861
20
0.955114611837587
30
-1E-16
41
1
10
110.425971698781
20
0.960483057089618
30
-1E-16
0
SPLINE
5
CC
100
AcDbEntity
8
1
62
256
6
ByLayer
370
18
48
1
60
0
100
AcDbSpline
70
4
71
3
72
24
73
20
40
0
40
0
40
0
40
0
40
0.0567375880783509
40
0.0567375880783509
40
0.113475176156702
40
0.113475176156702
40
0.226950352313403
40
0.226950352313403
40
0.453900704626807
40
0.453900704626807
40
0.510638292705161
40
0.510638292705161
40
0.567375880783515
40
0.567375880783515
40
0.680851056940217
40
0.680851056940217
40
0.90780140925362
40
0.90780140925362
40
1
40
1
40
1
40
1
41
1
10
110.322250361727
20
-4.43574594292664
30
0
41
1
10
110.085368587115
20
-4.41904862896536
30
0
41
1
10
109.849037146219
20
-4.3983238038098
30
0
41
1
10
109.377555902663
20
-4.34627260918526
30
0
41
1
10
109.142342324855
20
-4.31541069721459
30
0
41
1
10
108.4378099012
20
-4.20876166443205
30
0
41
1
10
107.969598911669
20
-4.11890695629955
30
0
41
1
10
106.565750528308
20
-3.79695710691953
30
-2E-16
41
1
10
105.630944068603
20
-3.51250272558016
30
2E-16
41
1
10
104.45072236803
20
-3.08162972883494
30
2E-16
41
1
10
104.21409834265
20
-2.9917150727965
30
2E-16
41
1
10
103.739358636576
20
-2.80482324226935
30
2E-16
41
1
10
103.502296226282
20
-2.70826510005742
30
2E-16
41
1
10
102.793717214538
20
-2.41094770996136
30
1E-16
41
1
10
102.323896087486
20
-2.2021508131144
30
1E-16
41
1
10
100.91819357305
20
-1.55147552237452
30
1E-16
41
1
10
99.9860399955048
20
-1.08535217811567
30
1E-16
41
1
10
98.6680191784625
20
-0.411434573931103
30
0
41
1
10
98.286409550138
20
-0.214612723028495
30
0
41
1
10
97.9032858747659
20
-0.0169019596318947
30
0
0
SPLINE
5
CD
100
AcDbEntity
8
1
62
256
6
ByLayer
370
18
48
1
60
0
100
AcDbSpline
70
4
71
3
72
26
73
22
40
0
40
0
40
0
40
0
40
0.0347781140141557
40
0.0347781140141557
40
0.135584442212216
40
0.135584442212216
40
0.185987606311246
40
0.185987606311246
40
0.236390770410276
40
0.236390770410276
40
0.438003426806399
40
0.438003426806399
40
0.53880975500446
40
0.53880975500446
40
0.58921291910349
40
0.58921291910349
40
0.63961608320252
40
0.63961608320252
40
0.841228739598638
40
0.841228739598638
40
1
40
1
40
1
40
1
41
1
10
70.2713930186636
20
0.215903287571052
30
0
41
1
10
70.4332964308541
20
0.133007914329283
30
0
41
1
10
70.5953004785877
20
0.049950740075019
30
0
41
1
10
71.2274802642541
20
-0.274078728959125
30
0
41
1
10
71.6987128468238
20
-0.515647892292122
30
0
41
1
10
72.4093031749062
20
-0.875146257630917
30
1E-16
41
1
10
72.64724986922
20
-0.994725946856676
30
1E-16
41
1
10
73.1214746406285
20
-1.23035004509248
30
1E-16
41
1
10
73.3579687899212
20
-1.34650939505363
30
1E-16
41
1
10
74.5377900170647
20
-1.91811707319553
30
1E-16
41
1
10
75.4732637399026
20
-2.34596024589328
30
1E-16
41
1
10
76.8799599227724
20
-2.91654223328274
30
2E-16
41
1
10
77.3493857316116
20
-3.09497472738562
30
2E-16
41
1
10
78.0562097894129
20
-3.34204038177725
30
2E-16
41
1
10
78.2922651858742
20
-3.42096016591435
30
2E-16
41
1
10
78.765603660972
20
-3.571285948401
30
2E-16
41
1
10
79.0033831771734
20
-3.64287890965835
30
-2E-16
41
1
10
80.1896940236845
20
-3.97918601682045
30
-2E-16
41
1
10
81.1276991611342
20
-4.17797887436532
30
0
41
1
10
82.8030244879667
20
-4.39801700375222
30
0
41
1
10
83.5407665038927
20
-4.44781528990984
30
0
41
1
10
84.2830213637903
20
-4.44872143367343
30
0
0
SPLINE
5
CE
100
AcDbEntity
8
1
62
256
6
ByLayer
370
18
48
1
60
0
100
AcDbSpline
70
4
71
3
72
40
73
36
40
0
40
0
40
0
40
0
40
0.0624914382513077
40
0.0624914382513077
40
0.124982876502615
40
0.124982876502615
40
0.187474314753923
40
0.187474314753923
40
0.249965753005231
40
0.249965753005231
40
0.312457191256538
40
0.312457191256538
40
0.374948629507846
40
0.374948629507846
40
0.437440067759154
40
0.437440067759154
40
0.499931506010461
40
0.499931506010461
40
0.562422944261769
40
0.562422944261769
40
0.624914382513076
40
0.624914382513076
40
0.687405820764384
40
0.687405820764384
40
0.749897259015692
40
0.749897259015692
40
0.812388697266999
40
0.812388697266999
40
0.874880135518307
40
0.874880135518307
40
0.937371573769614
40
0.937371573769614
40
0.999863012020922
40
0.999863012020922
40
1
40
1
40
1
40
1
41
1
10
1.00000782120787
20
-4.63198947609257
30
0
41
1
10
1.00000782120787
20
-4.63198303794883
30
0
41
1
10
1.00000782120787
20
-4.60212971228984
30
-1E-16
41
1
10
1.00000782120787
20
-4.48384141671818
30
1E-16
41
1
10
1.00000782120787
20
-4.39541424720414
30
0
41
1
10
1.00000782120787
20
-4.16338340892278
30
-2E-16
41
1
10
1.00000782120787
20
-4.01978547757511
30
-2E-16
41
1
10
1.00000782120787
20
-3.68292891157481
30
-2E-16
41
1
10
1.00000782120787
20
-3.48967860636455
30
2E-16
41
1
10
1.00000782120787
20
-3.06094152156533
30
2E-16
41
1
10
1.00000782120787
20
-2.82546534334568
30
2E-16
41
1
10
1.00000782120787
20
-2.32132386547789
30
1E-16
41
1
10
1.00000782120787
20
-2.05267103172128
30
1E-16
41
1
10
1.00000782120787
20
-1.49249903505355
30
1E-16
41
1
10
1.00000782120787
20
-1.20099372349898
30
1E-16
41
1
10
1.00000782120787
20
-0.606318303715227
30
0
41
1
10
1.00000782120787
20
-0.303162900007663
30
0
41
1
10
1.00000782120787
20
0.303162900007663
30
0
41
1
10
1.00000782120787
20
0.606318303715227
30
0
41
1
10
1.00000782120787
20
1.20099372349898
30
-1E-16
41
1
10
1.00000782120787
20
1.49249903505355
30
-1E-16
41
1
10
1.00000782120787
20
2.05267103172128
30
-1E-16
41
1
10
1.00000782120787
20
2.32132386547789
30
-1E-16
41
1
10
1.00000782120787
20
2.82546534334568
30
-2E-16
41
1
10
1.00000782120787
20
3.06094152156533
30
-2E-16
41
1
10
1.00000782120787
20
3.48967860636455
30
-2E-16
41
1
10
1.00000782120787
20
3.68292891157481
30
2E-16
41
1
10
1.00000782120787
20
4.01978547757511
30
2E-16
41
1
10
1.00000782120787
20
4.16338340892278
30
2E-16
41
1
10
1.00000782120787
20
4.39541424720414
30
0
41
1
10
1.00000782120787
20
4.48384141671818
30
-1E-16
41
1
10
1.00000782120787
20
4.60212971228984
30
1E-16
41
1
10
1.00000782120787
20
4.63199891453633
30
0
41
1
10
1.00000782120787
20
4.63199178919551
30
0
41
1
10
1.00000782120787
20
4.63199078909551
30
0
41
1
10
1.00000782120787
20
4.63198978899551
30
0
0
SPLINE
5
CF
100
AcDbEntity
8
1
62
256
6
ByLayer
370
18
48
1
60
0
100
AcDbSpline
70
4
71
3
72
10
73
6
40
0
40
0
40
0
40
0
40
0.5
40
0.5
40
1
40
1
40
1
40
1
41
1
10
110.815721880516
20
1.29147092320488
30
0
41
1
10
110.945760606895
20
1.31072446970154
30
0
41
1
10
111.075271196916
20
1.33271400247753
30
0
41
1
10
111.332910497391
20
1.38385183202371
30
0
41
1
10
111.461010709334
20
1.41314776402777
30
0
41
1
10
111.587947139378
20
1.44847261501053
30
0
0
SPLINE
5
D0
100
AcDbEntity
8
1
62
256
6
ByLayer
370
18
48
1
60
0
100
AcDbSpline
70
4
71
3
72
8
73
4
40
0
40
0
40
0
40
0
40
1
40
1
40
1
40
1
41
1
10
110.359314398261
20
-4.51104894702147
30
0
41
1
10
110.362042993346
20
-4.50921223018571
30
0
41
1
10
110.364771630136
20
-4.50737527632131
30
0
41
1
10
110.367500308682
20
-4.5055380857045
30
0
0
SPLINE
5
D1
100
AcDbEntity
8
1
62
256
6
ByLayer
370
18
48
1
60
0
100
AcDbSpline
70
4
71
3
72
10
73
6
40
0
40
0
40
0
40
0
40
0.5
40
0.5
40
1
40
1
40
1
40
1
41
1
10
110.367500308682
20
-4.50553808570453
30
0
41
1
10
110.352409967739
20
-4.51551103141696
30
0
41
1
10
110.339577319143
20
-4.51969852898148
30
0
41
1
10
110.317719472271
20
-4.51672587388901
30
0
41
1
10
110.308723501441
20
-4.50964236093853
30
0
41
1
10
110.301035261561
20
-4.49739891790284
30
1E-16
0
SPLINE
5
D2
100
AcDbEntity
8
1
62
256
6
ByLayer
370
18
48
1
60
0
100
AcDbSpline
70
4
71
3
72
8
73
4
40
0
40
0
40
0
40
0
40
1
40
1
40
1
40
1
41
1
10
110.359314398118
20
4.51104894711776
30
0
41
1
10
110.36204299325
20
4.50921223024994
30
0
41
1
10
110.364771630089
20
4.5073752763534
30
0
41
1
10
110.367500308682
20
4.50553808570447
30
0
0
SPLINE
5
D3
100
AcDbEntity
8
1
62
256
6
ByLayer
370
18
48
1
60
0
100
AcDbSpline
70
4
71
3
72
52
73
48
40
0
40
0
40
0
40
0
40
0.0545226604749012
40
0.0545226604749012
40
0.109045320949802
40
0.109045320949802
40
0.163567981424704
40
0.163567981424704
40
0.218090641899605
40
0.218090641899605
40
0.245351972137055
40
0.245351972137055
40
0.272613302374506
40
0.272613302374506
40
0.32713596284941
40
0.32713596284941
40
0.354397293086862
40
0.354397293086862
40
0.381658623324313
40
0.381658623324313
40
0.436181283799217
40
0.436181283799217
40
0.490703944274121
40
0.490703944274121
40
0.545226604749024
40
0.545226604749024
40
0.572487934986476
40
0.572487934986476
40
0.599749265223928
40
0.599749265223928
40
0.654271925698832
40
0.654271925698832
40
0.681533255936284
40
0.681533255936284
40
0.708794586173735
40
0.708794586173735
40
0.763317246648639
40
0.763317246648639
40
0.817839907123543
40
0.817839907123543
40
0.872362567598446
40
0.872362567598446
40
0.92688522807335
40
0.92688522807335
40
0.981407888548253
40
0.981407888548253
40
1
40
1
40
1
40
1
41
1
10
110.05866231735
20
-4.63748150548136
30
0
41
1
10
109.590089021082
20
-4.5958185918245
30
1E-16
41
1
10
109.121747012494
20
-4.53381740582549
30
1E-16
41
1
10
108.182985601347
20
-4.37033843133173
30
0
41
1
10
107.714135206702
20
-4.26909539598077
30
0
41
1
10
106.776686349534
20
-4.03009468753487
30
-2E-16
41
1
10
106.307026187896
20
-3.89206720322602
30
-2E-16
41
1
10
105.369266457753
20
-3.58333216187452
30
2E-16
41
1
10
104.900853585453
20
-3.41283320571517
30
2E-16
41
1
10
104.197044908436
20
-3.13521285980488
30
2E-16
41
1
10
103.962198774339
20
-3.03900695422954
30
2E-16
41
1
10
103.493459161825
20
-2.84054580286926
30
2E-16
41
1
10
103.259349740522
20
-2.73820934038125
30
2E-16
41
1
10
102.557266627576
20
-2.42272718266614
30
1E-16
41
1
10
102.089550762609
20
-2.20109025045446
30
1E-16
41
1
10
101.386460868835
20
-1.85486707105838
30
1E-16
41
1
10
101.151590473375
20
-1.73704098955915
30
1E-16
41
1
10
100.682403308224
20
-1.49816905568991
30
1E-16
41
1
10
100.448121425254
20
-1.37713968141642
30
1E-16
41
1
10
99.7457323569379
20
-1.01014038164331
30
1E-16
41
1
10
99.2780525519225
20
-0.760309861973582
30
0
41
1
10
98.3410233919773
20
-0.255466549283511
30
0
41
1
10
97.8710076110696
20
0.0001102705655285
30
0
41
1
10
96.9340770674615
20
0.507256260722556
30
0
41
1
10
96.4663455396902
20
0.759127417159874
30
0
41
1
10
95.7638003096035
20
1.13063278180766
30
-1E-16
41
1
10
95.5294701285659
20
1.25343533753562
30
-1E-16
41
1
10
95.0602402319133
20
1.49647148749764
30
-1E-16
41
1
10
94.8253570797118
20
1.61663077244214
30
-1E-16
41
1
10
94.1221655332803
20
1.97049136613788
30
-1E-16
41
1
10
93.6543358403908
20
2.19813542892771
30
-1E-16
41
1
10
92.951991179958
20
2.52388567628742
30
-2E-16
41
1
10
92.7177808130656
20
2.62985738153742
30
-2E-16
41
1
10
92.2488460082742
20
2.83604958437985
30
-2E-16
41
1
10
92.0138694675498
20
2.93635723920528
30
-2E-16
41
1
10
91.310034845894
20
3.22667848562944
30
-2E-16
41
1
10
90.8420779000102
20
3.40637117938886
30
-2E-16
41
1
10
89.9057297711499
20
3.73436905732629
30
2E-16
41
1
10
89.4371433398845
20
3.88276484803293
30
2E-16
41
1
10
88.4977231758292
20
4.14470270506709
30
2E-16
41
1
10
88.0295925082782
20
4.25764834089793
30
0
41
1
10
87.0933084375557
20
4.44516796986957
30
-1E-16
41
1
10
86.6251342795915
20
4.51974904350982
30
-1E-16
41
1
10
85.6860029395964
20
4.62886513439003
30
0
41
1
10
85.2169823871515
20
4.66320331294514
30
0
41
1
10
84.5890445423552
20
4.68156465370672
30
0
41
1
10
84.4293945305243
20
4.68384469958431
30
0
41
1
10
84.2697150731368
20
4.68373578826214
30
0
0
SPLINE
5
D4
100
AcDbEntity
8
1
62
256
6
ByLayer
370
18
48
1
60
0
100
AcDbSpline
70
4
71
3
72
38
73
34
40
0
40
0
40
0
40
0
40
0.0582770654680272
40
0.0582770654680272
40
0.126838296875607
40
0.126838296875607
40
0.161118912579397
40
0.161118912579397
40
0.195399528283187
40
0.195399528283187
40
0.332521991098345
40
0.332521991098345
40
0.401083222505923
40
0.401083222505923
40
0.435363838209712
40
0.435363838209712
40
0.469644453913502
40
0.469644453913502
40
0.53820568532108
40
0.53820568532108
40
0.606766916728659
40
0.606766916728659
40
0.675328148136237
40
0.675328148136237
40
0.743889379543816
40
0.743889379543816
40
0.812450610951394
40
0.812450610951394
40
0.846731226655183
40
0.846731226655183
40
0.881011842358971
40
0.881011842358971
40
1
40
1
40
1
40
1
41
1
10
97.3629729904703
20
-0.384661399639583
30
0
41
1
10
96.9635224412136
20
-0.177304271125536
30
0
41
1
10
96.5643023578091
20
0.0311539186791379
30
0
41
1
10
95.6941493192591
20
0.483819085462528
30
0
41
1
10
95.2230953680041
20
0.728035342887836
30
0
41
1
10
94.5131863243666
20
1.08923850915258
30
-1E-16
41
1
10
94.2755838973406
20
1.2090049783518
30
-1E-16
41
1
10
93.8016613510015
20
1.44498309292751
30
-1E-16
41
1
10
93.5652985807421
20
1.56126877351903
30
-1E-16
41
1
10
92.385556717513
20
2.13234687783967
30
-1E-16
41
1
10
91.4482828984653
20
2.55556897873154
30
-2E-16
41
1
10
90.0363915900184
20
3.11498428640036
30
-2E-16
41
1
10
89.564773564899
20
3.28895422527165
30
-2E-16
41
1
10
88.8538882373002
20
3.52799991294288
30
-2E-16
41
1
10
88.6163211904438
20
3.6039621363492
30
-2E-16
41
1
10
88.1424007387808
20
3.74708155580183
30
2E-16
41
1
10
87.9057008688993
20
3.81438846830724
30
2E-16
41
1
10
87.1959320406376
20
4.00342510109661
30
2E-16
41
1
10
86.7231493710987
20
4.11203474510373
30
0
41
1
10
85.7755012123281
20
4.29178528536082
30
0
41
1
10
85.3004931056917
20
4.36311200491517
30
0
41
1
10
84.3537017188528
20
4.46486888688676
30
-1E-16
41
1
10
83.8809384202504
20
4.49565471075815
30
0
41
1
10
82.9340361456531
20
4.51730779530007
30
0
41
1
10
82.4589568979929
20
4.50799426759068
30
0
41
1
10
81.5114365856961
20
4.44910149698748
30
-1E-16
41
1
10
81.03863551787
20
4.39978484753223
30
0
41
1
10
80.3288134932299
20
4.29610100253507
30
0
41
1
10
80.0920874317027
20
4.25659188051884
30
0
41
1
10
79.6180673972962
20
4.16807903826773
30
0
41
1
10
79.3804504918162
20
4.11900098822804
30
0
41
1
10
78.3219791406612
20
3.88013434987045
30
2E-16
41
1
10
77.5082086111285
20
3.64147131819354
30
-1E-16
41
1
10
76.6955341988096
20
3.35884519228205
30
-2E-16
0
SPLINE
5
D5
100
AcDbEntity
8
1
62
256
6
ByLayer
370
18
48
1
60
0
100
AcDbSpline
70
4
71
3
72
62
73
58
40
0
40
0
40
0
40
0
40
0.0624999999999953
40
0.0624999999999953
40
0.124999999999991
40
0.124999999999991
40
0.187499999999986
40
0.187499999999986
40
0.249999999999981
40
0.249999999999981
40
0.281249999999978
40
0.281249999999978
40
0.312499999999976
40
0.312499999999976
40
0.328124999999974
40
0.328124999999974
40
0.343749999999973
40
0.343749999999973
40
0.359374999999971
40
0.359374999999971
40
0.37499999999997
40
0.37499999999997
40
0.406249999999967
40
0.406249999999967
40
0.421874999999966
40
0.421874999999966
40
0.437499999999964
40
0.437499999999964
40
0.468749999999961
40
0.468749999999961
40
0.499999999999959
40
0.499999999999959
40
0.531249999999956
40
0.531249999999956
40
0.562499999999953
40
0.562499999999953
40
0.624999999999948
40
0.624999999999948
40
0.656249999999945
40
0.656249999999945
40
0.671874999999944
40
0.671874999999944
40
0.675781249999944
40
0.675781249999944
40
0.677734374999944
40
0.677734374999944
40
0.679687499999943
40
0.679687499999943
40
0.683593749999943
40
0.683593749999943
40
0.687499999999942
40
0.687499999999942
40
0.749999999999954
40
0.749999999999954
40
0.874999999999977
40
0.874999999999977
40
1
40
1
40
1
40
1
41
1
10
9.61992991554277
20
-3.53721223336203
30
2E-16
41
1
10
9.35775963678137
20
-3.44638400730315
30
2E-16
41
1
10
9.09954457075381
20
-3.34744208261381
30
2E-16
41
1
10
8.59263252189373
20
-3.12944360071901
30
2E-16
41
1
10
8.34390915718723
20
-3.01044739063374
30
2E-16
41
1
10
7.85863216222378
20
-2.74605855014841
30
2E-16
41
1
10
7.6220018742614
20
-2.60084086821098
30
2E-16
41
1
10
7.16598056956065
20
-2.27219387302014
30
1E-16
41
1
10
6.94991543962922
20
-2.09140955923735
30
1E-16
41
1
10
6.6547612106616
20
-1.78328280269128
30
1E-16
41
1
10
6.56163793533369
20
-1.67455733110708
30
1E-16
41
1
10
6.39168202638712
20
-1.44581041776087
30
1E-16
41
1
10
6.31438543849771
20
-1.32539262112166
30
1E-16
41
1
10
6.21340343833694
20
-1.13297058495235
30
1E-16
41
1
10
6.18211886043261
20
-1.06651082264389
30
1E-16
41
1
10
6.12611666072135
20
-0.930616826175481
30
1E-16
41
1
10
6.10151001905342
20
-0.861536076572179
30
1E-16
41
1
10
6.05961874739739
20
-0.720929093807911
30
0
41
1
10
6.04233277249
20
-0.649403300025995
30
0
41
1
10
6.01575602644095
20
-0.503682509898482
30
0
41
1
10
6.00645199679056
20
-0.428926023842024
30
0
41
1
10
5.99201837213485
20
-0.205485893395405
30
0
41
1
10
5.99997266750114
20
-0.0574396861133266
30
0
41
1
10
6.03746921791668
20
0.163296778942083
30
0
41
1
10
6.05438426613173
20
0.237027885135149
30
0
41
1
10
6.0956012311039
20
0.380616922250795
30
0
41
1
10
6.11991675324836
20
0.450827080559435
30
0
41
1
10
6.20287321225723
20
0.657184670174672
30
0
41
1
10
6.27222616180873
20
0.790090376311127
30
0
41
1
10
6.42825621605738
20
1.03903452380067
30
-1E-16
41
1
10
6.51499899893977
20
1.15581392135027
30
-1E-16
41
1
10
6.70191833619825
20
1.37759321722365
30
-1E-16
41
1
10
6.80252307185359
20
1.48292893851323
30
-1E-16
41
1
10
7.01292123831308
20
1.68232351629516
30
-1E-16
41
1
10
7.12195125628529
20
1.77575728262914
30
-1E-16
41
1
10
7.45805115687486
20
2.04146310174684
30
-1E-16
41
1
10
7.69400802104798
20
2.1993465821966
30
-1E-16
41
1
10
8.0603586264869
20
2.41647716993001
30
-1E-16
41
1
10
8.18458738019717
20
2.48549975952076
30
-2E-16
41
1
10
8.37368921249075
20
2.5846985597465
30
-2E-16
41
1
10
8.43711937164233
20
2.61700577518485
30
-2E-16
41
1
10
8.51681016490005
20
2.6564795334568
30
-2E-16
41
1
10
8.53276668887457
20
2.66433215052118
30
-2E-16
41
1
10
8.55673818942651
20
2.67603559231159
30
-2E-16
41
1
10
8.5648749868372
20
2.67974979162892
30
-2E-16
41
1
10
8.58223100191563
20
2.68508573868041
30
-2E-16
41
1
10
8.59130969958676
20
2.68679377439185
30
-2E-16
41
1
10
8.61862839648413
20
2.68975395110755
30
-2E-16
41
1
10
8.63736089685074
20
2.68898202723889
30
-2E-16
41
1
10
8.67368488283847
20
2.68334852195517
30
-2E-16
41
1
10
8.69142928040299
20
2.67875052201228
30
-2E-16
41
1
10
8.99476938257772
20
2.60937208799612
30
-2E-16
41
1
10
9.27801069488871
20
2.53643467155294
30
-2E-16
41
1
10
10.1201889708421
20
2.29425744330302
30
-1E-16
41
1
10
10.6691734331994
20
2.10201626406104
30
-1E-16
41
1
10
11.748187211148
20
1.65905298966075
30
-1E-16
41
1
10
12.2787291877788
20
1.40812275050266
30
-1E-16
41
1
10
12.8011549006539
20
1.13634789800364
30
-1E-16
0
SPLINE
5
D6
100
AcDbEntity
8
1
62
256
6
ByLayer
370
18
48
1
60
0
100
AcDbSpline
70
4
71
3
72
8
73
4
40
0
40
0
40
0
40
0
40
1
40
1
40
1
40
1
41
1
10
65
20
2.23684480427238
30
-1E-16
41
1
10
65
20
2.22744386028847
30
-1E-16
41
1
10
65
20
2.21714602090998
30
-1E-16
41
1
10
65
20
2.20597082495297
30
-1E-16
0
SPLINE
5
D7
100
AcDbEntity
8
1
62
256
6
ByLayer
370
18
48
1
60
0
100
AcDbSpline
70
4
71
3
72
20
73
16
40
0
40
0
40
0
40
0
40
0.0957839502543813
40
0.0957839502543813
40
0.287496454065127
40
0.287496454065127
40
0.479208957875873
40
0.479208957875873
40
0.670921461686618
40
0.670921461686618
40
0.766777713591991
40
0.766777713591991
40
0.862633965497363
40
0.862633965497363
40
1
40
1
40
1
40
1
41
1
10
65.1021074987337
20
4.43705238439918
30
0
41
1
10
65.10209980155
20
4.43704893125545
30
0
41
1
10
65.1020920814373
20
4.43183921670294
30
0
41
1
10
65.1020690562339
20
4.4006546247837
30
0
41
1
10
65.1020537904308
20
4.35922005028797
30
0
41
1
10
65.1020235377625
20
4.23494240979542
30
0
41
1
10
65.1020087040065
20
4.15274005838859
30
0
41
1
10
65.1019792299191
20
3.9493306295652
30
2E-16
41
1
10
65.1019646901406
20
3.82882613847426
30
2E-16
41
1
10
65.1019425962885
20
3.62124873173391
30
-2E-16
41
1
10
65.1019352138295
20
3.54788970321078
30
-2E-16
41
1
10
65.101920260595
20
3.39288914197482
30
-2E-16
41
1
10
65.1019126726556
20
3.31105374429143
30
-2E-16
41
1
10
65.1018938787352
20
3.10289580525821
30
-2E-16
41
1
10
65.1018825628666
20
2.97306328657305
30
-2E-16
41
1
10
65.101870735746
20
2.83597646977907
30
-2E-16
0
SPLINE
5
D8
100
AcDbEntity
8
1
62
256
6
ByLayer
370
18
48
1
60
0
100
AcDbSpline
70
4
71
3
72
8
73
4
40
0
40
0
40
0
40
0
40
1
40
1
40
1
40
1
41
1
10
111.587947139378
20
-1.44847261501059
30
0
41
1
10
111.727584897541
20
-1.05347848826355
30
0
41
1
10
111.863509600704
20
-0.657155551548897
30
0
41
1
10
111.99566581983
20
-0.259483968194132
30
0
0
SPLINE
5
D9
100
AcDbEntity
8
1
62
256
6
ByLayer
370
18
48
1
60
0
100
AcDbSpline
70
4
71
3
72
12
73
8
40
0
40
0
40
0
40
0
40
0.3824066017051
40
0.3824066017051
40
0.7648132034102
40
0.7648132034102
40
1
40
1
40
1
40
1
41
1
10
65.1495126930409
20
-4.26456574261556
30
0
41
1
10
65.6136463781565
20
-4.36791801716151
30
0
41
1
10
66.077745898207
20
-4.45177691265837
30
1E-16
41
1
10
67.0071434286307
20
-4.58074266045497
30
-1E-16
41
1
10
67.4725026477022
20
-4.62594095252317
30
0
41
1
10
68.2217040362611
20
-4.6662013532092
30
0
41
1
10
68.5067893533475
20
-4.67392938760935
30
0
41
1
10
68.7919237931468
20
-4.67406532744019
30
0
0
SPLINE
5
DA
100
AcDbEntity
8
1
62
256
6
ByLayer
370
18
48
1
60
0
100
AcDbSpline
70
4
71
3
72
36
73
32
40
0
40
0
40
0
40
0
40
0.0649441295234501
40
0.0649441295234501
40
0.107446669090563
40
0.107446669090563
40
0.149949208657676
40
0.149949208657676
40
0.234954287791906
40
0.234954287791906
40
0.277456827359023
40
0.277456827359023
40
0.319959366926141
40
0.319959366926141
40
0.404964446060374
40
0.404964446060374
40
0.489969525194608
40
0.489969525194608
40
0.574974604328842
40
0.574974604328842
40
0.659979683463076
40
0.659979683463076
40
0.74498476259731
40
0.74498476259731
40
0.787487302164425
40
0.787487302164425
40
0.82998984173154
40
0.82998984173154
40
0.91499492086577
40
0.91499492086577
40
1
40
1
40
1
40
1
41
1
10
93.3153269864965
20
4.46696057744182
30
-1E-16
41
1
10
93.6695530532946
20
4.52537797409039
30
-1E-16
41
1
10
94.0240899009036
20
4.57263160859333
30
0
41
1
10
94.6114633832621
20
4.63201819248624
30
0
41
1
10
94.8436090547864
20
4.65057248293027
30
0
41
1
10
95.3066635842098
20
4.67760984198577
30
0
41
1
10
95.5379863276634
20
4.68602899457406
30
0
41
1
10
96.2328536108601
20
4.69609915049244
30
0
41
1
10
96.6966259775446
20
4.68278774653862
30
0
41
1
10
97.3931148151239
20
4.63267594849452
30
0
41
1
10
97.6255739179149
20
4.61089371426232
30
1E-16
41
1
10
98.0891089020855
20
4.55730221462127
30
-1E-16
41
1
10
98.3205864024657
20
4.52554437708264
30
-1E-16
41
1
10
99.0155255721132
20
4.41627054405154
30
0
41
1
10
99.4786880502507
20
4.3244114591788
30
0
41
1
10
100.406528451304
20
4.10386749609779
30
2E-16
41
1
10
100.870932697228
20
3.97429208197565
30
2E-16
41
1
10
101.797861704379
20
3.68420429456833
30
2E-16
41
1
10
102.261004012483
20
3.52332593744302
30
-2E-16
41
1
10
103.187895137297
20
3.1713469250947
30
-2E-16
41
1
10
103.652330146856
20
2.97937804636751
30
-2E-16
41
1
10
104.579869152323
20
2.57453105527705
30
-2E-16
41
1
10
105.043096761608
20
2.36112579424412
30
-1E-16
41
1
10
105.737826113571
20
2.02563238943975
30
-1E-16
41
1
10
105.96932671382
20
1.91112760103874
30
-1E-16
41
1
10
106.432867091619
20
1.67786508617513
30
-1E-16
41
1
10
106.665304490727
20
1.55931820104507
30
-1E-16
41
1
10
107.360941345427
20
1.20050121820273
30
-1E-16
41
1
10
107.823314350925
20
0.956505457969001
30
-1E-16
41
1
10
108.746901630935
20
0.461946476593937
30
0
41
1
10
109.208072174322
20
0.211297188266911
30
0
41
1
10
109.669931768402
20
-0.0403249952496196
30
0
0
SPLINE
5
DB
100
AcDbEntity
8
1
62
256
6
ByLayer
370
18
48
1
60
0
100
AcDbSpline
70
4
71
3
72
14
73
10
40
0
40
0
40
0
40
0
40
0.266749800091793
40
0.266749800091793
40
0.500165118510478
40
0.500165118510478
40
0.77827434141917
40
0.77827434141917
40
1
40
1
40
1
40
1
41
1
10
109.784055820108
20
-0.0975636446220847
30
0
41
1
10
109.784793116019
20
-0.0979137103199719
30
0
41
1
10
109.78551425206
20
-0.0986348880397259
30
0
41
1
10
109.786719582404
20
-0.100410420951306
30
0
41
1
10
109.787238595478
20
-0.101435656182758
30
0
41
1
10
109.788216633329
20
-0.103942889824282
30
0
41
1
10
109.78866083681
20
-0.105513089303514
30
0
41
1
10
109.789219429648
20
-0.10850552260257
30
0
41
1
10
109.789387856274
20
-0.109928170482703
30
0
41
1
10
109.789444047154
20
-0.111347317257781
30
0
0
SPLINE
5
DC
100
AcDbEntity
8
1
62
256
6
ByLayer
370
18
48
1
60
0
100
AcDbSpline
70
4
71
3
72
14
73
10
40
0
40
0
40
0
40
0
40
0.25
40
0.25
40
0.5
40
0.5
40
0.75
40
0.75
40
1
40
1
40
1
40
1
41
1
10
110.595593865761
20
0.890092607766917
30
-1E-16
41
1
10
110.516715531745
20
0.899587054275656
30
-1E-16
41
1
10
110.436713556707
20
0.898340218095541
30
-1E-16
41
1
10
110.276576929565
20
0.885686474863888
30
-1E-16
41
1
10
110.195860073278
20
0.870640033998399
30
-1E-16
41
1
10
110.036988364536
20
0.82428927619253
30
-1E-16
41
1
10
109.958956552352
20
0.793446778722029
30
0
41
1
10
109.806475576436
20
0.719385800105016
30
0
41
1
10
109.732183487558
20
0.674764138193041
30
0
41
1
10
109.660517300924
20
0.622088560090759
30
0
0
SPLINE
5
DD
100
AcDbEntity
8
1
62
256
6
ByLayer
370
18
48
1
60
0
100
AcDbSpline
70
4
71
3
72
8
73
4
40
0
40
0
40
0
40
0
40
1
40
1
40
1
40
1
41
1
10
110.058662317349
20
-4.63748150547929
30
0
41
1
10
110.139232439833
20
-4.59175039954496
30
-1E-16
41
1
10
110.220010811702
20
-4.54504670777197
30
-1E-16
41
1
10
110.301035261561
20
-4.49739891790287
30
1E-16
0
SPLINE
5
DE
100
AcDbEntity
8
1
62
256
6
ByLayer
370
18
48
1
60
0
100
AcDbSpline
70
4
71
3
72
34
73
30
40
0
40
0
40
0
40
0
40
0.0780640113874636
40
0.0780640113874636
40
0.156128022774927
40
0.156128022774927
40
0.234192034162391
40
0.234192034162391
40
0.312256045549854
40
0.312256045549854
40
0.390320056937318
40
0.390320056937318
40
0.468384068324782
40
0.468384068324782
40
0.546448079712245
40
0.546448079712245
40
0.585480085405976
40
0.585480085405976
40
0.624512091099707
40
0.624512091099707
40
0.702576102487169
40
0.702576102487169
40
0.7416081081809
40
0.7416081081809
40
0.780640113874632
40
0.780640113874632
40
0.936768136649557
40
0.936768136649557
40
1
40
1
40
1
40
1
41
1
10
65
20
2.29677882185644
30
-1E-16
41
1
10
65.472393252997
20
2.07505777281187
30
-1E-16
41
1
10
65.9446479205754
20
1.84299885864959
30
-1E-16
41
1
10
66.8858365073237
20
1.36603359298701
30
-1E-16
41
1
10
67.3555413204001
20
1.12079184171111
30
-1E-16
41
1
10
68.2961045339107
20
0.622089810887388
30
0
41
1
10
68.7674732178098
20
0.368375010234672
30
0
41
1
10
69.711982817277
20
-0.141045573805627
30
0
41
1
10
70.1828139187668
20
-0.395575152376182
30
0
41
1
10
71.1243758299927
20
-0.899189901362291
30
1E-16
41
1
10
71.5951159480266
20
-1.14825656631353
30
1E-16
41
1
10
72.5394649002483
20
-1.63547231134575
30
1E-16
41
1
10
73.0108014747794
20
-1.87240358775327
30
1E-16
41
1
10
73.9523506321567
20
-2.32713507726135
30
1E-16
41
1
10
74.4229083286961
20
-2.54514486614966
30
2E-16
41
1
10
75.1305984595007
20
-2.85456355483521
30
2E-16
41
1
10
75.3669266016028
20
-2.9548157039271
30
2E-16
41
1
10
75.8385507016667
20
-3.14811476822118
30
2E-16
41
1
10
76.0740805189586
20
-3.2412669548383
30
2E-16
41
1
10
76.7803511067794
20
-3.50956292106667
30
2E-16
41
1
10
77.2507743960566
20
-3.67354038207793
30
-2E-16
41
1
10
77.9579133390614
20
-3.89452225607059
30
-2E-16
41
1
10
78.1942457187973
20
-3.964118220773
30
-2E-16
41
1
10
78.6657559427535
20
-4.09402622082951
30
-2E-16
41
1
10
78.9007942745262
20
-4.15431634147262
30
-2E-16
41
1
10
80.073289015462
20
-4.43201792457288
30
0
41
1
10
81.002781128286
20
-4.57799457880554
30
1E-16
41
1
10
82.3122022342165
20
-4.66986238565957
30
0
41
1
10
82.6900221866088
20
-4.68314676176655
30
0
41
1
10
83.0689462750187
20
-4.68297657503047
30
0
0
SPLINE
5
DF
100
AcDbEntity
8
1
62
256
6
ByLayer
370
18
48
1
60
0
100
AcDbSpline
70
4
71
3
72
8
73
4
40
0
40
0
40
0
40
0
40
1
40
1
40
1
40
1
41
1
10
109.091669812314
20
4.65694062607548
30
0
41
1
10
109.419081644485
20
4.68094336491856
30
0
41
1
10
109.746918574789
20
4.69499032263357
30
0
41
1
10
110.075673166295
20
4.69886938895729
30
0
0
SPLINE
5
E0
100
AcDbEntity
8
1
62
256
6
ByLayer
370
18
48
1
60
0
100
AcDbSpline
70
4
71
3
72
32
73
28
40
0
40
0
40
0
40
0
40
0.0182281711275422
40
0.0182281711275422
40
0.0736329007581482
40
0.0736329007581482
40
0.18444236001936
40
0.18444236001936
40
0.239847089649966
40
0.239847089649966
40
0.295251819280572
40
0.295251819280572
40
0.406061278541787
40
0.406061278541787
40
0.461466008172394
40
0.461466008172394
40
0.516870737803001
40
0.516870737803001
40
0.627680197064216
40
0.627680197064216
40
0.683084926694823
40
0.683084926694823
40
0.738489656325431
40
0.738489656325431
40
0.96010857484786
40
0.96010857484786
40
1
40
1
40
1
40
1
41
1
10
69.805580585233
20
4.41990416773899
30
0
41
1
10
69.881747049476
20
4.41535188429245
30
0
41
1
10
69.9579175142063
20
4.41030626198275
30
0
41
1
10
70.2656213660036
20
4.38798738799389
30
0
41
1
10
70.4971653573905
20
4.3668027245904
30
0
41
1
10
71.1931943105586
20
4.28831741318152
30
0
41
1
10
71.6591563543317
20
4.21586730382487
30
0
41
1
10
72.3617660629982
20
4.07983395200461
30
0
41
1
10
72.5968929022102
20
4.02985019285026
30
0
41
1
10
73.0649030307351
20
3.92202824474254
30
2E-16
41
1
10
73.2981461953883
20
3.8641704457238
30
2E-16
41
1
10
73.9967573346567
20
3.67797181720283
30
2E-16
41
1
10
74.4610881503383
20
3.53679323111137
30
-2E-16
41
1
10
75.1562289222368
20
3.3041991498547
30
-2E-16
41
1
10
75.3877178755592
20
3.22321034866394
30
-2E-16
41
1
10
75.8503034783313
20
3.05467564272072
30
-2E-16
41
1
10
76.081357157907
20
2.96715036353564
30
-2E-16
41
1
10
76.7755522393653
20
2.69481216304834
30
-2E-16
41
1
10
77.2399170244752
20
2.50015410753696
30
-2E-16
41
1
10
77.9386381607845
20
2.19250261712307
30
-1E-16
41
1
10
78.1719391922359
20
2.08730819813238
30
-1E-16
41
1
10
78.6391461310442
20
1.87189314188345
30
-1E-16
41
1
10
78.8735268944866
20
1.76142432357815
30
-1E-16
41
1
10
80.0443748772767
20
1.20144726638489
30
-1E-16
41
1
10
80.9707655270453
20
0.731060139832636
30
0
41
1
10
82.0620603898153
20
0.170239542161767
30
0
41
1
10
82.2285006881262
20
0.0845732505563603
30
0
41
1
10
82.3949069012032
20
-0.0012176180264589
30
0
0
SPLINE
5
E1
100
AcDbEntity
8
1
62
256
6
ByLayer
370
18
48
1
60
0
100
AcDbSpline
70
4
71
3
72
30
73
26
40
0
40
0
40
0
40
0
40
0.124999999999998
40
0.124999999999998
40
0.187499999999998
40
0.187499999999998
40
0.249999999999998
40
0.249999999999998
40
0.312499999999998
40
0.312499999999998
40
0.374999999999998
40
0.374999999999998
40
0.437499999999998
40
0.437499999999998
40
0.499999999999998
40
0.499999999999998
40
0.562499999999998
40
0.562499999999998
40
0.624999999999998
40
0.624999999999998
40
0.749999999999999
40
0.749999999999999
40
0.874999999999999
40
0.874999999999999
40
1
40
1
40
1
40
1
41
1
10
109.789444047154
20
-0.111347317258577
30
0
41
1
10
109.799921614087
20
-0.375966867302509
30
0
41
1
10
109.820992294252
20
-0.635148120418876
30
0
41
1
10
109.860928552364
20
-1.01684389625686
30
1E-16
41
1
10
109.875658038259
20
-1.1428862505943
30
1E-16
41
1
10
109.906959310331
20
-1.39266199750594
30
1E-16
41
1
10
109.923588654686
20
-1.51679574736869
30
1E-16
41
1
10
109.957533254178
20
-1.76074055994698
30
1E-16
41
1
10
109.974796426593
20
-1.88023586173634
30
1E-16
41
1
10
110.009123170842
20
-2.11438819845617
30
1E-16
41
1
10
110.026225989831
20
-2.22930396603502
30
1E-16
41
1
10
110.059351893087
20
-2.45257731043583
30
2E-16
41
1
10
110.075385171041
20
-2.56100790251034
30
2E-16
41
1
10
110.105953897719
20
-2.77148431803232
30
2E-16
41
1
10
110.120509939601
20
-2.87368986392218
30
2E-16
41
1
10
110.147601017134
20
-3.06978971670205
30
2E-16
41
1
10
110.160168492398
20
-3.16389872981253
30
2E-16
41
1
10
110.183302859202
20
-3.34418708385962
30
2E-16
41
1
10
110.193865127977
20
-3.43035551957723
30
2E-16
41
1
10
110.222484979868
20
-3.67430542117336
30
-2E-16
41
1
10
110.237558563746
20
-3.81907474636873
30
-2E-16
41
1
10
110.262908523148
20
-4.06651647067898
30
0
41
1
10
110.273306338074
20
-4.16994208039512
30
0
41
1
10
110.295650368814
20
-4.33080994152334
30
0
41
1
10
110.307645393798
20
-4.3889987335705
30
0
41
1
10
110.324836674835
20
-4.42451758107723
30
0
0
SPLINE
5
E2
100
AcDbEntity
8
1
62
256
6
ByLayer
370
18
48
1
60
0
100
AcDbSpline
70
2053
71
3
72
60
73
56
40
0
40
0
40
0
40
0
40
0.0625000000000001
40
0.0625000000000001
40
0.125
40
0.125
40
0.1875
40
0.1875
40
0.25
40
0.25
40
0.28125
40
0.28125
40
0.312500000000001
40
0.312500000000001
40
0.343750000000001
40
0.343750000000001
40
0.375000000000001
40
0.375000000000001
40
0.406250000000001
40
0.406250000000001
40
0.437500000000001
40
0.437500000000001
40
0.468750000000001
40
0.468750000000001
40
0.500000000000001
40
0.500000000000001
40
0.531250000000001
40
0.531250000000001
40
0.562500000000001
40
0.562500000000001
40
0.59375
40
0.59375
40
0.625
40
0.625
40
0.65625
40
0.65625
40
0.6875
40
0.6875
40
0.71875
40
0.71875
40
0.75
40
0.75
40
0.78125
40
0.78125
40
0.8125
40
0.8125
40
0.84375
40
0.84375
40
0.875
40
0.875
40
0.9375
40
0.9375
40
0.96875
40
0.96875
40
1
40
1
40
1
40
1
41
1
10
110.777171639804
20
-1.88274375590652
30
-1E-16
41
1
10
110.743873586832
20
-1.92190246436871
30
-1E-16
41
1
10
110.712777812991
20
-1.94662599467912
30
-1E-16
41
1
10
110.653493852019
20
-1.96819689142814
30
-1E-16
41
1
10
110.626907736783
20
-1.96442232244354
30
1E-16
41
1
10
110.578226328497
20
-1.92703486246529
30
1E-16
41
1
10
110.557463914815
20
-1.89448923246968
30
1E-16
41
1
10
110.522269821755
20
-1.79978994870092
30
1E-16
41
1
10
110.508830817803
20
-1.74038749773823
30
1E-16
41
1
10
110.495887822821
20
-1.63173187703833
30
1E-16
41
1
10
110.492977551349
20
-1.5935003909251
30
1E-16
41
1
10
110.490181228172
20
-1.51294605108825
30
1E-16
41
1
10
110.490320649713
20
-1.47003292254598
30
1E-16
41
1
10
110.494251336815
20
-1.38242167265435
30
1E-16
41
1
10
110.497971056719
20
-1.3382870072171
30
1E-16
41
1
10
110.509366042178
20
-1.24937361894493
30
1E-16
41
1
10
110.517136830528
20
-1.20451962505118
30
1E-16
41
1
10
110.536183547628
20
-1.1194969323308
30
1E-16
41
1
10
110.547698473774
20
-1.07816126679435
30
1E-16
41
1
10
110.573863706961
20
-1.00135300221237
30
1E-16
41
1
10
110.588357689105
20
-0.966125693725303
30
1E-16
41
1
10
110.620065801854
20
-0.901559400084892
30
1E-16
41
1
10
110.637008127471
20
-0.872846525591228
30
1E-16
41
1
10
110.672136897398
20
-0.822842212885831
30
1E-16
41
1
10
110.690590401951
20
-0.801221554544924
30
0
41
1
10
110.72770359259
20
-0.765632764241019
30
0
41
1
10
110.746427935085
20
-0.751503395325557
30
0
41
1
10
110.784059291727
20
-0.729975661905996
30
0
41
1
10
110.802913555017
20
-0.722670440953777
30
0
41
1
10
110.839533681895
20
-0.714861256453133
30
0
41
1
10
110.857445315715
20
-0.71426750182016
30
0
41
1
10
110.89229906542
20
-0.719653767809973
30
0
41
1
10
110.909177980672
20
-0.725689091229185
30
0
41
1
10
110.940702121857
20
-0.74406971831516
30
0
41
1
10
110.955489418753
20
-0.756423035315578
30
0
41
1
10
110.98282636891
20
-0.787871501238499
30
0
41
1
10
110.995450803271
20
-0.807187458120637
30
0
41
1
10
111.017158407408
20
-0.851992810610398
30
1E-16
41
1
10
111.026356549942
20
-0.877528815933943
30
1E-16
41
1
10
111.040959663612
20
-0.935683930831431
30
1E-16
41
1
10
111.046281110761
20
-0.968298325279051
30
1E-16
41
1
10
111.052146202603
20
-1.03849579465015
30
1E-16
41
1
10
111.052753133609
20
-1.07692957853493
30
1E-16
41
1
10
111.04891537697
20
-1.15760551125467
30
1E-16
41
1
10
111.044563623761
20
-1.19937096695529
30
1E-16
41
1
10
111.031079691969
20
-1.28591044682958
30
1E-16
41
1
10
111.021919763066
20
-1.3304110460719
30
1E-16
41
1
10
111.000132817262
20
-1.41737069843052
30
1E-16
41
1
10
110.987220650525
20
-1.46098482542936
30
1E-16
41
1
10
110.945157908792
20
-1.585533083836
30
1E-16
41
1
10
110.912227655351
20
-1.66197582960663
30
1E-16
41
1
10
110.861808489463
20
-1.75850286554811
30
1E-16
41
1
10
110.84457481578
20
-1.78812615519743
30
1E-16
41
1
10
110.810669832148
20
-1.84028821679632
30
-1E-16
41
1
10
110.79382066629
20
-1.86316440167542
30
-1E-16
41
1
10
110.777171639804
20
-1.88274375590652
30
-1E-16
0
SPLINE
5
E3
100
AcDbEntity
8
1
62
256
6
ByLayer
370
18
48
1
60
0
100
AcDbSpline
70
4
71
3
72
10
73
6
40
0
40
0
40
0
40
0
40
0.5
40
0.5
40
1
40
1
40
1
40
1
41
1
10
110.058662317346
20
-4.63748150548258
30
0
41
1
10
110.061634020489
20
-4.65549792546386
30
0
41
1
10
110.064472400509
20
-4.66967160747356
30
0
41
1
10
110.070086455181
20
-4.69020070961625
30
0
41
1
10
110.072872907676
20
-4.69655949840489
30
0
41
1
10
110.075673166271
20
-4.69886938895738
30
0
0
SPLINE
5
E4
100
AcDbEntity
8
1
62
256
6
ByLayer
370
18
48
1
60
0
100
AcDbSpline
70
4
71
3
72
18
73
14
40
0
40
0
40
0
40
0
40
0.219562739327066
40
0.219562739327066
40
0.439125478654131
40
0.439125478654131
40
0.658688217981197
40
0.658688217981197
40
0.76846958764473
40
0.76846958764473
40
0.878250957308263
40
0.878250957308263
40
1
40
1
40
1
40
1
41
1
10
110.35931439812
20
4.51104894710497
30
0
41
1
10
109.886012625525
20
4.5147789845702
30
0
41
1
10
109.413301934854
20
4.49831252901257
30
0
41
1
10
108.466248158597
20
4.42485417092817
30
0
41
1
10
107.991074331358
20
4.36823388410212
30
0
41
1
10
107.04366001045
20
4.21682689348094
30
0
41
1
10
106.570812266686
20
4.12175641152299
30
0
41
1
10
105.860898572111
20
3.95204634746042
30
2E-16
41
1
10
105.62413792895
20
3.8910033055067
30
2E-16
41
1
10
105.150019038781
20
3.76007892633936
30
2E-16
41
1
10
104.912489629385
20
3.6900872341983
30
2E-16
41
1
10
104.412559658788
20
3.53421458972673
30
-1E-16
41
1
10
104.15003012557
20
3.44745709418785
30
-2E-16
41
1
10
103.887613610067
20
3.35612748982274
30
-2E-16
0
SPLINE
5
E5
100
AcDbEntity
8
1
62
256
6
ByLayer
370
18
48
1
60
0
100
AcDbSpline
70
4
71
3
72
14
73
10
40
0
40
0
40
0
40
0
40
0.179765038161125
40
0.179765038161125
40
0.453176692107417
40
0.453176692107417
40
0.726588346053709
40
0.726588346053709
40
1
40
1
40
1
40
1
41
1
10
70.1703145500475
20
-0.38830229208267
30
0
41
1
10
69.8583505806165
20
-0.226453292474616
30
0
41
1
10
69.5465890434489
20
-0.0640088012968647
30
0
41
1
10
68.7638945887024
20
0.343591381919765
30
0
41
1
10
68.2936016601763
20
0.588324771382531
30
0
41
1
10
67.3539139544246
20
1.06962906478532
30
-1E-16
41
1
10
66.8845618581787
20
1.30629708285608
30
-1E-16
41
1
10
65.9441976309998
20
1.76699121685877
30
-1E-16
41
1
10
65.4731527998811
20
1.99091437201403
30
-1E-16
41
1
10
65
20
2.20597082495303
30
-1E-16
0
SPLINE
5
E6
100
AcDbEntity
8
1
62
256
6
ByLayer
370
18
48
1
60
0
100
AcDbSpline
70
4
71
3
72
34
73
30
40
0
40
0
40
0
40
0
40
0.0236536456037459
40
0.0236536456037459
40
0.0731339966205057
40
0.0731339966205057
40
0.122614347637266
40
0.122614347637266
40
0.22157504967079
40
0.22157504967079
40
0.320535751704314
40
0.320535751704314
40
0.419496453737838
40
0.419496453737838
40
0.518457155771362
40
0.518457155771362
40
0.567937506788124
40
0.567937506788124
40
0.617417857804886
40
0.617417857804886
40
0.716378559838411
40
0.716378559838411
40
0.765858910855173
40
0.765858910855173
40
0.815339261871934
40
0.815339261871934
40
0.914299963905463
40
0.914299963905463
40
1
40
1
40
1
40
1
41
1
10
95.526980307508
20
4.45898743223489
30
0
41
1
10
95.638040962646
20
4.46239290415738
30
0
41
1
10
95.7492635434049
20
4.46455679495941
30
0
41
1
10
96.0937571977403
20
4.46726670371393
30
0
41
1
10
96.3275882695077
20
4.4637979619466
30
0
41
1
10
96.7966843555478
20
4.44704207413295
30
0
41
1
10
97.0311834004862
20
4.43375049534734
30
0
41
1
10
97.7314638740886
20
4.38075883213213
30
0
41
1
10
98.1950957621447
20
4.32894491930864
30
0
41
1
10
99.1206658404708
20
4.18456196119098
30
0
41
1
10
99.5822517733642
20
4.09388305452646
30
0
41
1
10
100.504738642475
20
3.87943509470225
30
2E-16
41
1
10
100.96507692968
20
3.75643820217678
30
2E-16
41
1
10
101.889150917065
20
3.47679086288952
30
-2E-16
41
1
10
102.352551281479
20
3.32095269011489
30
-2E-16
41
1
10
103.050357754659
20
3.06591420194445
30
-2E-16
41
1
10
103.283344386628
20
2.97737940357891
30
-2E-16
41
1
10
103.750761278574
20
2.79343166570689
30
-2E-16
41
1
10
103.985690864023
20
2.6977674330719
30
-2E-16
41
1
10
104.687347001145
20
2.40344960181835
30
-1E-16
41
1
10
105.152673978324
20
2.19711841859015
30
-1E-16
41
1
10
105.848042868372
20
1.87551067956829
30
-1E-16
41
1
10
106.079319260908
20
1.76623325911308
30
-1E-16
41
1
10
106.541586105963
20
1.54434049651837
30
-1E-16
41
1
10
106.772638973476
20
1.43175910249414
30
-1E-16
41
1
10
107.465886859331
20
1.09004211289519
30
-1E-16
41
1
10
107.928169892066
20
0.856965979516445
30
-1E-16
41
1
10
108.792374395608
20
0.415651814213902
30
0
41
1
10
109.194035073736
20
0.208212920265396
30
0
41
1
10
109.596936985463
20
-0.0005600824908925
30
0
0
SPLINE
5
E7
100
AcDbEntity
8
1
62
256
6
ByLayer
370
18
48
1
60
0
100
AcDbSpline
70
4
71
3
72
14
73
10
40
0
40
0
40
0
40
0
40
0.110297600915919
40
0.110297600915919
40
0.406865067277279
40
0.406865067277279
40
0.70343253363864
40
0.70343253363864
40
1
40
1
40
1
40
1
41
1
10
110.17861869235
20
1.0359837465333
30
0
41
1
10
110.195790768544
20
1.04719423089324
30
0
41
1
10
110.213857722441
20
1.05864000513961
30
0
41
1
10
110.283939723254
20
1.10149810580396
30
0
41
1
10
110.340543028161
20
1.13313938682867
30
0
41
1
10
110.463248646066
20
1.19198851568055
30
0
41
1
10
110.530527490436
20
1.21948888433076
30
0
41
1
10
110.669116080114
20
1.26347644396372
30
0
41
1
10
110.74162526878
20
1.28050017165256
30
0
41
1
10
110.815721880516
20
1.29147092320514
30
0
0
SPLINE
5
E8
100
AcDbEntity
8
1
62
256
6
ByLayer
370
18
48
1
60
0
100
AcDbSpline
70
4
71
3
72
72
73
68
40
0
40
0
40
0
40
0
40
0.0104037471210715
40
0.0104037471210715
40
0.0571622121714829
40
0.0571622121714829
40
0.103920677221894
40
0.103920677221894
40
0.1272999097471
40
0.1272999097471
40
0.150679142272306
40
0.150679142272306
40
0.197437607322718
40
0.197437607322718
40
0.220816839847925
40
0.220816839847925
40
0.244196072373132
40
0.244196072373132
40
0.290954537423545
40
0.290954537423545
40
0.314333769948751
40
0.314333769948751
40
0.337713002473958
40
0.337713002473958
40
0.38447146752437
40
0.38447146752437
40
0.407850700049576
40
0.407850700049576
40
0.431229932574782
40
0.431229932574782
40
0.454609165099989
40
0.454609165099989
40
0.477988397625195
40
0.477988397625195
40
0.524746862675607
40
0.524746862675607
40
0.548126095200813
40
0.548126095200813
40
0.571505327726019
40
0.571505327726019
40
0.61826379277643
40
0.61826379277643
40
0.641643025301636
40
0.641643025301636
40
0.665022257826841
40
0.665022257826841
40
0.711780722877255
40
0.711780722877255
40
0.735159955402463
40
0.735159955402463
40
0.75853918792767
40
0.75853918792767
40
0.805297652978084
40
0.805297652978084
40
0.828676885503291
40
0.828676885503291
40
0.852056118028498
40
0.852056118028498
40
0.898814583078911
40
0.898814583078911
40
0.945573048129325
40
0.945573048129325
40
0.968952280654533
40
0.968952280654533
40
0.99233151317974
40
0.99233151317974
40
1
40
1
40
1
40
1
41
1
10
66.2323405979856
20
4.47033852626558
30
0
41
1
10
66.3356836048673
20
4.48660570690816
30
0
41
1
10
66.4390493009851
20
4.50191236277036
30
0
41
1
10
67.007143428631
20
4.580742660455
30
1E-16
41
1
10
67.4725026477026
20
4.62594095252319
30
0
41
1
10
68.4002961046358
20
4.67579849002968
30
0
41
1
10
68.8636129390165
20
4.6806250393272
30
0
41
1
10
69.5594494306168
20
4.65778570580602
30
0
41
1
10
69.791565556059
20
4.64516742308447
30
0
41
1
10
70.2561328761976
20
4.60980021768191
30
1E-16
41
1
10
70.4885363162204
20
4.58701553293025
30
1E-16
41
1
10
71.184666895143
20
4.50413683553779
30
-1E-16
41
1
10
71.6483154114839
20
4.42958934975212
30
0
41
1
10
72.3440186133382
20
4.28967317691513
30
0
41
1
10
72.5759720468358
20
4.23835138524706
30
0
41
1
10
73.0400463698007
20
4.12626060752669
30
2E-16
41
1
10
73.2723823581484
20
4.06536843745951
30
2E-16
41
1
10
73.9689660154559
20
3.8703733170473
30
2E-16
41
1
10
74.4329283748907
20
3.7242667321409
30
2E-16
41
1
10
75.1284455782588
20
3.48156505410989
30
-2E-16
41
1
10
75.3602274818645
20
3.39673897756504
30
-2E-16
41
1
10
75.8238142182471
20
3.21929441776803
30
-2E-16
41
1
10
76.0555728212117
20
3.12659313882051
30
-2E-16
41
1
10
76.7526223948666
20
2.83905412108652
30
-2E-16
41
1
10
77.2169719420473
20
2.6363166833728
30
-2E-16
41
1
10
77.912642183979
20
2.31593799810372
30
-1E-16
41
1
10
78.1444425188811
20
2.2064797375819
30
-1E-16
41
1
10
78.6078432767352
20
1.98212647076997
30
-1E-16
41
1
10
78.8394092302503
20
1.86715563312151
30
-1E-16
41
1
10
79.3036986556591
20
1.63403002511086
30
-1E-16
41
1
10
79.5363296774476
20
1.51561318414335
30
-1E-16
41
1
10
80.0005881392149
20
1.27628025687582
30
-1E-16
41
1
10
80.2324396243327
20
1.15520763830284
30
-1E-16
41
1
10
80.9278619059181
20
0.789051129289106
30
0
41
1
10
81.3912705454837
20
0.540984635038001
30
0
41
1
10
82.0873520238894
20
0.165254819702426
30
0
41
1
10
82.3198760035121
20
0.0394556269365012
30
0
41
1
10
82.7841588758612
20
-0.212284810174424
30
0
41
1
10
83.0157215875999
20
-0.338369193472886
30
0
41
1
10
83.7110695605401
20
-0.712821333930748
30
0
41
1
10
84.1747332477049
20
-0.95887650259499
30
1E-16
41
1
10
84.8706966710324
20
-1.32203066859307
30
1E-16
41
1
10
85.1027625015067
20
-1.44209036285184
30
1E-16
41
1
10
85.5671490553304
20
-1.68001145314002
30
1E-16
41
1
10
85.7990258360363
20
-1.79744087901983
30
1E-16
41
1
10
86.4945620475854
20
-2.14163110406284
30
1E-16
41
1
10
86.9582392532692
20
-2.36109932479408
30
1E-16
41
1
10
87.6537354043842
20
-2.67544777997179
30
2E-16
41
1
10
87.8855721411329
20
-2.77772907036908
30
2E-16
41
1
10
88.3493909195118
20
-2.97697715899719
30
2E-16
41
1
10
88.5816071680869
20
-3.07378814946677
30
2E-16
41
1
10
89.2776317258745
20
-3.35210181390428
30
2E-16
41
1
10
89.7413379736104
20
-3.52258709787532
30
2E-16
41
1
10
90.4367484554535
20
-3.7556483341871
30
-2E-16
41
1
10
90.6684420883509
20
-3.82963077764003
30
-2E-16
41
1
10
91.132158552517
20
-3.96946927531329
30
-2E-16
41
1
10
91.364480470864
20
-4.03530867665188
30
-2E-16
41
1
10
92.0609624566201
20
-4.21938926626112
30
-2E-16
41
1
10
92.5237381523062
20
-4.32417085675098
30
0
41
1
10
93.4505701374905
20
-4.49510131372173
30
1E-16
41
1
10
93.9144236829409
20
-4.56154377053323
30
1E-16
41
1
10
94.6114633832663
20
-4.63201819248661
30
0
41
1
10
94.8436090547905
20
-4.65057248293058
30
0
41
1
10
95.3066635842141
20
-4.67760984198597
30
0
41
1
10
95.5379863276678
20
-4.68602899457417
30
0
41
1
10
95.8455818880693
20
-4.6904867310771
30
0
41
1
10
95.9215692090449
20
-4.69104914696715
30
0
41
1
10
95.9975708330769
20
-4.69107264495898
30
0
0
SPLINE
5
E9
100
AcDbEntity
8
1
62
256
6
ByLayer
370
18
48
1
60
0
100
AcDbSpline
70
4
71
3
72
8
73
4
40
0
40
0
40
0
40
0
40
1
40
1
40
1
40
1
41
1
10
111.995665819823
20
0.259483968215818
30
0
41
1
10
112.001451870631
20
0.0862808057191842
30
0
41
1
10
112.001437600416
20
-0.0867079789975094
30
0
41
1
10
111.995665819823
20
-0.259483968200357
30
0
0
SPLINE
5
EA
100
AcDbEntity
8
1
62
256
6
ByLayer
370
18
48
1
60
0
100
AcDbSpline
70
4
71
3
72
20
73
16
40
0
40
0
40
0
40
0
40
0.249999999999991
40
0.249999999999991
40
0.499999999999982
40
0.499999999999982
40
0.562499999999984
40
0.562499999999984
40
0.624999999999986
40
0.624999999999986
40
0.749999999999991
40
0.749999999999991
40
0.874999999999995
40
0.874999999999995
40
1
40
1
40
1
40
1
41
1
10
110.367500308682
20
-4.5055380857045
30
0
41
1
10
110.4604103759
20
-4.24376454607872
30
0
41
1
10
110.552449165691
20
-3.98028698406677
30
0
41
1
10
110.738208174846
20
-3.45159389348316
30
0
41
1
10
110.831930317068
20
-3.18649362285902
30
0
41
1
10
110.951023005596
20
-2.85616936025764
30
0
41
1
10
110.974938970654
20
-2.7901398406168
30
0
41
1
10
111.023005112943
20
-2.65816567146606
30
0
41
1
10
111.047335565267
20
-2.59212309624999
30
0
41
1
10
111.122050784873
20
-2.39664782149171
30
0
41
1
10
111.173788627925
20
-2.26927701285013
30
0
41
1
10
111.28267602297
20
-2.02107347940333
30
0
41
1
10
111.339825245502
20
-1.90023740167382
30
0
41
1
10
111.460768219989
20
-1.66549569952869
30
0
41
1
10
111.523357507502
20
-1.55394095701277
30
0
41
1
10
111.587947139378
20
-1.44847261501062
30
0
0
SPLINE
5
EB
100
AcDbEntity
8
1
62
256
6
ByLayer
370
18
48
1
60
0
100
AcDbSpline
70
4
71
3
72
62
73
58
40
0
40
0
40
0
40
0
40
0.0103249954521276
40
0.0103249954521276
40
0.0329575491257427
40
0.0329575491257427
40
0.078222656472971
40
0.078222656472971
40
0.123487763820199
40
0.123487763820199
40
0.168752871167428
40
0.168752871167428
40
0.191385424841042
40
0.191385424841042
40
0.214017978514656
40
0.214017978514656
40
0.304548193209111
40
0.304548193209111
40
0.349813300556338
40
0.349813300556338
40
0.372445854229953
40
0.372445854229953
40
0.395078407903567
40
0.395078407903567
40
0.440343515250798
40
0.440343515250798
40
0.485608622598029
40
0.485608622598029
40
0.53087372994526
40
0.53087372994526
40
0.553506283618875
40
0.553506283618875
40
0.57613883729249
40
0.57613883729249
40
0.598771390966103
40
0.598771390966103
40
0.621403944639717
40
0.621403944639717
40
0.666669051986945
40
0.666669051986945
40
0.711934159334174
40
0.711934159334174
40
0.734566713007788
40
0.734566713007788
40
0.757199266681402
40
0.757199266681402
40
0.802464374028631
40
0.802464374028631
40
0.84772948137586
40
0.84772948137586
40
0.89299458872309
40
0.89299458872309
40
0.915627142396704
40
0.915627142396704
40
0.938259696070319
40
0.938259696070319
40
1
40
1
40
1
40
1
41
1
10
104.559116548886
20
-3.10572870671498
30
2E-16
41
1
10
104.439443846379
20
-3.15443033785815
30
2E-16
41
1
10
104.319729787664
20
-3.20225641939439
30
2E-16
41
1
10
103.93814552468
20
-3.35171009440782
30
2E-16
41
1
10
103.676968294172
20
-3.44952490520277
30
2E-16
41
1
10
102.895249359971
20
-3.72777380527592
30
-2E-16
41
1
10
102.376455770561
20
-3.89295087175589
30
-2E-16
41
1
10
101.340191446119
20
-4.17969712319504
30
-2E-16
41
1
10
100.822406959756
20
-4.30098111713474
30
0
41
1
10
99.784541874732
20
-4.49680945278951
30
1E-16
41
1
10
99.2646723116044
20
-4.57136103159385
30
1E-16
41
1
10
98.4792205583697
20
-4.64521805129155
30
0
41
1
10
98.2160210040796
20
-4.66358616276278
30
0
41
1
10
97.692415079262
20
-4.68732497722451
30
0
41
1
10
97.4314364439851
20
-4.69271404492434
30
0
41
1
10
96.1293774863358
20
-4.68773660434181
30
0
41
1
10
95.0969324944654
20
-4.58155390569138
30
1E-16
41
1
10
93.539754280761
20
-4.27874171353344
30
0
41
1
10
93.0194354513132
20
-4.15373586348611
30
-2E-16
41
1
10
92.2335198591815
20
-3.93223615356567
30
-2E-16
41
1
10
91.9703240674767
20
-3.85251107189689
30
-2E-16
41
1
10
91.4469140090067
20
-3.68315928757826
30
-2E-16
41
1
10
91.1860138302418
20
-3.59357751881296
30
2E-16
41
1
10
90.4047984588822
20
-3.31148973278547
30
2E-16
41
1
10
89.8859954870872
20
-3.1056563589645
30
2E-16
41
1
10
88.8499207153233
20
-2.66229748240559
30
2E-16
41
1
10
88.3321870874698
20
-2.4254223665923
30
1E-16
41
1
10
87.2937732687856
20
-1.9268016629488
30
1E-16
41
1
10
86.7731086755222
20
-1.66501640434109
30
1E-16
41
1
10
85.9868884077892
20
-1.25846010239371
30
1E-16
41
1
10
85.7237365941888
20
-1.1204560065153
30
1E-16
41
1
10
85.2002843419793
20
-0.843161361703409
30
1E-16
41
1
10
84.9393850749697
20
-0.703545671323639
30
0
41
1
10
84.4186081625721
20
-0.423574564734992
30
0
41
1
10
84.158668549318
20
-0.283336771289896
30
0
41
1
10
83.639492263189
20
-0.0027126640392794
30
0
41
1
10
83.380460667333
20
0.138060931474001
30
0
41
1
10
82.6033301998878
20
0.558536642848196
30
0
41
1
10
82.0850184731059
20
0.836077542470576
30
-1E-16
41
1
10
81.0463276314111
20
1.38255791653
30
-1E-16
41
1
10
80.5254861790374
20
1.65062771222858
30
-1E-16
41
1
10
79.7388757848645
20
2.03917694875435
30
-1E-16
41
1
10
79.4757961797498
20
2.16645570934426
30
-1E-16
41
1
10
78.9524675612281
20
2.41333298271644
30
-1E-16
41
1
10
78.6915884223747
20
2.53325231570881
30
-2E-16
41
1
10
77.9105063767196
20
2.8813561897307
30
-2E-16
41
1
10
77.3918640819904
20
3.09791025574822
30
-2E-16
41
1
10
76.3553225041871
20
3.49549192977301
30
-2E-16
41
1
10
75.836920307384
20
3.67590757953468
30
2E-16
41
1
10
74.7979848998019
20
3.99735663521494
30
2E-16
41
1
10
74.2768678512983
20
4.13764751416477
30
2E-16
41
1
10
73.4894135993766
20
4.3136479978665
30
0
41
1
10
73.226433288069
20
4.36665910629995
30
0
41
1
10
72.7032997409598
20
4.46001951199634
30
-1E-16
41
1
10
72.4424838020123
20
4.50048121349593
30
-1E-16
41
1
10
71.4720524919999
20
4.62802552393805
30
0
41
1
10
70.7657403378983
20
4.67486205613199
30
0
41
1
10
70.0585551674843
20
4.67484145865919
30
0
0
SPLINE
5
EC
100
AcDbEntity
8
1
62
256
6
ByLayer
370
18
48
1
60
0
100
AcDbSpline
70
4
71
3
72
54
73
50
40
0
40
0
40
0
40
0
40
0.0168109910905621
40
0.0168109910905621
40
0.0400938467782846
40
0.0400938467782846
40
0.0633767024660072
40
0.0633767024660072
40
0.156508125216901
40
0.156508125216901
40
0.203073836592348
40
0.203073836592348
40
0.249639547967794
40
0.249639547967794
40
0.342770970718688
40
0.342770970718688
40
0.389336682094135
40
0.389336682094135
40
0.435902393469582
40
0.435902393469582
40
0.482468104845029
40
0.482468104845029
40
0.529033816220477
40
0.529033816220477
40
0.575599527595924
40
0.575599527595924
40
0.622165238971371
40
0.622165238971371
40
0.668730950346818
40
0.668730950346818
40
0.692013806034542
40
0.692013806034542
40
0.715296661722266
40
0.715296661722266
40
0.73857951740999
40
0.73857951740999
40
0.761862373097714
40
0.761862373097714
40
0.808428084473162
40
0.808428084473162
40
0.901559507224056
40
0.901559507224056
40
0.924842362911779
40
0.924842362911779
40
0.948125218599503
40
0.948125218599503
40
0.994690929974951
40
0.994690929974951
40
1
40
1
40
1
40
1
41
1
10
49.3127262234679
20
-3.42945755242209
30
1E-16
41
1
10
49.1237162599795
20
-3.49831738515775
30
1E-16
41
1
10
48.9342915229998
20
-3.56483508451592
30
0
41
1
10
48.4813317670006
20
-3.71758807897601
30
-2E-16
41
1
10
48.2190288407754
20
-3.80136052871015
30
-2E-16
41
1
10
47.6961105481344
20
-3.95743452761368
30
-2E-16
41
1
10
47.4353428551995
20
-4.0298978457912
30
-2E-16
41
1
10
46.1338022523042
20
-4.36366163085339
30
0
41
1
10
45.0999833698713
20
-4.53930225922531
30
1E-16
41
1
10
43.5384103955035
20
-4.65301459256355
30
0
41
1
10
43.0159155563554
20
-4.66594282587926
30
0
41
1
10
41.9634454960333
20
-4.64005459936365
30
0
41
1
10
41.4412093873459
20
-4.60120681059632
30
-1E-16
41
1
10
39.8786911757123
20
-4.41196614342499
30
0
41
1
10
38.8451383986
20
-4.18768425906831
30
-2E-16
41
1
10
37.2830904364339
20
-3.72157278980214
30
-2E-16
41
1
10
36.7603575663526
20
-3.54459734614554
30
2E-16
41
1
10
35.7077906637057
20
-3.15082186013075
30
2E-16
41
1
10
35.1854231236727
20
-2.93654931527436
30
2E-16
41
1
10
34.1436909294219
20
-2.48124262319311
30
2E-16
41
1
10
33.6250572415663
20
-2.23905323740294
30
1E-16
41
1
10
32.587235305053
20
-1.73400819965244
30
1E-16
41
1
10
32.067950817744
20
-1.47138721636327
30
1E-16
41
1
10
31.0264305599897
20
-0.929622465677369
30
1E-16
41
1
10
30.5032759435558
20
-0.651227152554696
30
0
41
1
10
29.4508768999392
20
-0.0871116752296075
30
0
41
1
10
28.9284110328579
20
0.194962741912121
30
0
41
1
10
27.8868567695122
20
0.751565474356852
30
0
41
1
10
27.3679598498192
20
1.02646039536361
30
-1E-16
41
1
10
26.5894045436529
20
1.42811396514674
30
-1E-16
41
1
10
26.3297651281658
20
1.56006334313059
30
-1E-16
41
1
10
25.8100088869177
20
1.81967007698597
30
-1E-16
41
1
10
25.5501303114343
20
1.9477445447055
30
-1E-16
41
1
10
25.0292346070362
20
2.19838499439649
30
-1E-16
41
1
10
24.7682598366801
20
2.32102864217026
30
-1E-16
41
1
10
24.2446630913044
20
2.55992196003095
30
-2E-16
41
1
10
23.9817079174751
20
2.67622520170738
30
-2E-16
41
1
10
23.1925317892765
20
3.0151496100342
30
-2E-16
41
1
10
22.6701638206949
20
3.22403848314232
30
-2E-16
41
1
10
21.1079353414661
20
3.79238525605925
30
2E-16
41
1
10
20.0733143794539
20
4.09405454886058
30
2E-16
41
1
10
18.7704096980425
20
4.35588013657309
30
0
41
1
10
18.509347850486
20
4.40247952576516
30
0
41
1
10
17.9855691524784
20
4.483583077774
30
-1E-16
41
1
10
17.7224799059779
20
4.51814512968326
30
-1E-16
41
1
10
16.9334554616491
20
4.60323026924422
30
1E-16
41
1
10
16.4110515613531
20
4.6341854339546
30
0
41
1
10
15.8305964771093
20
4.64056103472839
30
0
41
1
10
15.7712195370035
20
4.64088537782689
30
0
41
1
10
15.7118678553177
20
4.64088220880046
30
0
0
SPLINE
5
ED
100
AcDbEntity
8
1
62
256
6
ByLayer
370
18
48
1
60
0
100
AcDbSpline
70
4
71
3
72
26
73
22
40
0
40
0
40
0
40
0
40
0.187503326765677
40
0.187503326765677
40
0.389065392974215
40
0.389065392974215
40
0.439455909526349
40
0.439455909526349
40
0.489846426078484
40
0.489846426078484
40
0.590627459182754
40
0.590627459182754
40
0.792189525391292
40
0.792189525391292
40
0.842580041943424
40
0.842580041943424
40
0.892970558495557
40
0.892970558495557
40
0.993751591599822
40
0.993751591599822
40
1
40
1
40
1
40
1
41
1
10
84.6834299060977
20
-4.45393260862119
30
0
41
1
10
83.8044553486949
20
-4.47486185688106
30
0
41
1
10
82.9330373637453
20
-4.42696005761209
30
0
41
1
10
81.1238753417031
20
-4.19069113554681
30
0
41
1
10
80.1858415788323
20
-3.99237355399717
30
-2E-16
41
1
10
78.9994498856337
20
-3.65635349800814
30
-2E-16
41
1
10
78.7616515677857
20
-3.58479845655722
30
2E-16
41
1
10
78.2882827759992
20
-3.43452068834841
30
2E-16
41
1
10
78.0522136585128
20
-3.35561052164368
30
2E-16
41
1
10
77.3453541148516
20
-3.10852821439801
30
2E-16
41
1
10
76.8759105517973
20
-2.9300263778463
30
2E-16
41
1
10
75.4691748244757
20
-2.35906122822971
30
1E-16
41
1
10
74.5336837316982
20
-1.93072778154593
30
1E-16
41
1
10
73.3538056857526
20
-1.35821854150652
30
1E-16
41
1
10
73.1172992358902
20
-1.24186300959605
30
1E-16
41
1
10
72.643044758322
20
-1.00581703405058
30
1E-16
41
1
10
72.4050783787361
20
-0.886011161607286
30
1E-16
41
1
10
71.6944393835488
20
-0.525809589124719
30
0
41
1
10
71.2231833725814
20
-0.283732337082427
30
0
41
1
10
70.7240007294671
20
-0.0273007534104863
30
0
41
1
10
70.694863279311
20
-0.0123319438930025
30
0
41
1
10
70.6657304928187
20
0.0026345254740647
30
0
0
SPLINE
5
EE
100
AcDbEntity
8
1
62
256
6
ByLayer
370
18
48
1
60
0
100
AcDbSpline
70
4
71
3
72
30
73
26
40
0
40
0
40
0
40
0
40
0.125000000000015
40
0.125000000000015
40
0.187500000000014
40
0.187500000000014
40
0.250000000000013
40
0.250000000000013
40
0.312500000000012
40
0.312500000000012
40
0.37500000000001
40
0.37500000000001
40
0.437500000000009
40
0.437500000000009
40
0.500000000000008
40
0.500000000000008
40
0.562500000000007
40
0.562500000000007
40
0.625000000000006
40
0.625000000000006
40
0.750000000000004
40
0.750000000000004
40
0.875000000000002
40
0.875000000000002
40
1
40
1
40
1
40
1
41
1
10
111.934458189541
20
0.0565801597268205
30
0
41
1
10
111.911707192104
20
-0.018433059397239
30
0
41
1
10
111.885550265497
20
-0.0917313102542039
30
0
41
1
10
111.841013640085
20
-0.198921327525625
30
0
41
1
10
111.825135765281
20
-0.234464746202775
30
0
41
1
10
111.792323295936
20
-0.302712609209436
30
0
41
1
10
111.775380659971
20
-0.335489005730864
30
0
41
1
10
111.740447388399
20
-0.39826301266524
30
0
41
1
10
111.722457472276
20
-0.428262447450066
30
0
41
1
10
111.685375868576
20
-0.4852364815182
30
0
41
1
10
111.66632782635
20
-0.512081894451228
30
0
41
1
10
111.628664806671
20
-0.560389763216449
30
0
41
1
10
111.609859281442
20
-0.582157381525093
30
0
41
1
10
111.572275172345
20
-0.620820974426806
30
0
41
1
10
111.553325307839
20
-0.637822865909158
30
0
41
1
10
111.516643985594
20
-0.66570169569755
30
0
41
1
10
111.498824350395
20
-0.676717624222789
30
0
41
1
10
111.464090453901
20
-0.693131459810758
30
0
41
1
10
111.447049751495
20
-0.698530907663979
30
0
41
1
10
111.398331132775
20
-0.706107858265597
30
0
41
1
10
111.368657823041
20
-0.699910401224798
30
0
41
1
10
111.31471389741
20
-0.668432209262761
30
0
41
1
10
111.290962353061
20
-0.643658267502133
30
0
41
1
10
111.247964347206
20
-0.579249188030985
30
0
41
1
10
111.228782828552
20
-0.539457345908204
30
0
41
1
10
111.211821746216
20
-0.494181672351402
30
0
0
SPLINE
5
EF
100
AcDbEntity
8
1
62
256
6
ByLayer
370
18
48
1
60
0
100
AcDbSpline
70
4
71
3
72
8
73
4
40
0
40
0
40
0
40
0
40
1
40
1
40
1
40
1
41
1
10
111.211821746216
20
-0.494181672351175
30
0
41
1
10
111.049583980335
20
-0.0611064722650099
30
0
41
1
10
110.843856596028
20
0.400527169306315
30
0
41
1
10
110.595593865761
20
0.890092607766917
30
-1E-16
0
SPLINE
5
F0
100
AcDbEntity
8
1
62
256
6
ByLayer
370
18
48
1
60
0
100
AcDbSpline
70
4
71
3
72
10
73
6
40
0
40
0
40
0
40
0
40
0.5
40
0.5
40
1
40
1
40
1
40
1
41
1
10
109.669931768402
20
-0.0403249952496196
30
0
41
1
10
109.664080810797
20
0.0707543950469187
30
0
41
1
10
109.66012380738
20
0.182654718836005
30
0
41
1
10
109.656798708382
20
0.403642311480496
30
0
41
1
10
109.657394370566
20
0.513288899958269
30
0
41
1
10
109.660517300912
20
0.622088560095762
30
0
0
SPLINE
5
F1
100
AcDbEntity
8
1
62
256
6
ByLayer
370
18
48
1
60
0
100
AcDbSpline
70
4
71
3
72
26
73
22
40
0
40
0
40
0
40
0
40
0.12550200445574
40
0.12550200445574
40
0.251004008911481
40
0.251004008911481
40
0.376506013367221
40
0.376506013367221
40
0.439257015595091
40
0.439257015595091
40
0.502008017822961
40
0.502008017822961
40
0.627510022278702
40
0.627510022278702
40
0.753012026734442
40
0.753012026734442
40
0.878514031190182
40
0.878514031190182
40
0.94126503341805
40
0.94126503341805
40
1
40
1
40
1
40
1
41
1
10
109.660517300911
20
0.622088560080925
30
0
41
1
10
109.13913771936
20
0.902894497799821
30
-1E-16
41
1
10
108.620047330908
20
1.17830073746816
30
-1E-16
41
1
10
107.584092849147
20
1.71426677115244
30
-1E-16
41
1
10
107.066466921227
20
1.97344610962585
30
-1E-16
41
1
10
106.028948990251
20
2.46912427259045
30
-2E-16
41
1
10
105.509432007735
20
2.70620223395372
30
-2E-16
41
1
10
104.725088519582
20
3.03898345528134
30
-2E-16
41
1
10
104.462227353704
20
3.14644493293878
30
-2E-16
41
1
10
103.93814552468
20
3.35171009440785
30
-2E-16
41
1
10
103.676968294172
20
3.44952490520282
30
-2E-16
41
1
10
102.895249359971
20
3.72777380527592
30
2E-16
41
1
10
102.376455770561
20
3.89295087175589
30
2E-16
41
1
10
101.340191446119
20
4.17969712319507
30
2E-16
41
1
10
100.822406959756
20
4.30098111713474
30
0
41
1
10
99.784541874732
20
4.49680945278953
30
-1E-16
41
1
10
99.2646723116043
20
4.57136103159385
30
-1E-16
41
1
10
98.4792205583696
20
4.64521805129155
30
0
41
1
10
98.2160210040795
20
4.66358616276281
30
0
41
1
10
97.7091703499655
20
4.68656534055194
30
0
41
1
10
97.4648448486636
20
4.69199770605934
30
0
41
1
10
97.2210303944254
20
4.69183121175288
30
0
0
SPLINE
5
F2
100
AcDbEntity
8
1
62
256
6
ByLayer
370
18
48
1
60
0
100
AcDbSpline
70
4
71
3
72
62
73
58
40
0
40
0
40
0
40
0
40
0.0137867802834458
40
0.0137867802834458
40
0.0591383380583464
40
0.0591383380583464
40
0.104489895833247
40
0.104489895833247
40
0.127165674720697
40
0.127165674720697
40
0.149841453608148
40
0.149841453608148
40
0.240544569157951
40
0.240544569157951
40
0.285896126932854
40
0.285896126932854
40
0.308571905820305
40
0.308571905820305
40
0.331247684707756
40
0.331247684707756
40
0.353923463595206
40
0.353923463595206
40
0.376599242482657
40
0.376599242482657
40
0.421950800257558
40
0.421950800257558
40
0.467302358032458
40
0.467302358032458
40
0.489978136919909
40
0.489978136919909
40
0.51265391580736
40
0.51265391580736
40
0.53532969469481
40
0.53532969469481
40
0.558005473582261
40
0.558005473582261
40
0.603357031357163
40
0.603357031357163
40
0.648708589132064
40
0.648708589132064
40
0.671384368019515
40
0.671384368019515
40
0.694060146906965
40
0.694060146906965
40
0.739411704681867
40
0.739411704681867
40
0.784763262456768
40
0.784763262456768
40
0.830114820231669
40
0.830114820231669
40
0.852790599119121
40
0.852790599119121
40
0.875466378006572
40
0.875466378006572
40
0.966169493556376
40
0.966169493556376
40
1
40
1
40
1
40
1
41
1
10
77.3464040245467
20
-3.11054347932026
30
2E-16
41
1
10
77.1887341333764
20
-3.1741954972542
30
2E-16
41
1
10
77.0311465469235
20
-3.23626908718643
30
2E-16
41
1
10
76.355322504187
20
-3.49549192977304
30
2E-16
41
1
10
75.836920307384
20
-3.67590757953465
30
-2E-16
41
1
10
74.7979848998019
20
-3.99735663521503
30
-2E-16
41
1
10
74.2768678512982
20
-4.13764751416477
30
-2E-16
41
1
10
73.4894135993764
20
-4.31364799786653
30
0
41
1
10
73.2264332880688
20
-4.36665910629998
30
0
41
1
10
72.7032997409597
20
-4.46001951199636
30
1E-16
41
1
10
72.4424838020122
20
-4.50048121349596
30
1E-16
41
1
10
71.1409195706762
20
-4.67154650237222
30
0
41
1
10
70.1078519607801
20
-4.70843252612488
30
0
41
1
10
68.5483978644265
20
-4.61209843222798
30
-1E-16
41
1
10
68.0270064401379
20
-4.55466366615175
30
1E-16
41
1
10
67.2391500981178
20
-4.43086550467729
30
0
41
1
10
66.9763470247613
20
-4.38323805353116
30
0
41
1
10
66.4533311831347
20
-4.27655193274285
30
0
41
1
10
66.1925482130612
20
-4.21743204459995
30
-2E-16
41
1
10
65.6718131596186
20
-4.08834571918831
30
-2E-16
41
1
10
65.4118001358159
20
-4.01845120544075
30
-2E-16
41
1
10
64.8926712306278
20
-3.8678651454822
30
-2E-16
41
1
10
64.633530450896
20
-3.78717382582806
30
-2E-16
41
1
10
63.8559870396455
20
-3.53043568647502
30
2E-16
41
1
10
63.3376976285624
20
-3.3395008858125
30
2E-16
41
1
10
62.2977522049838
20
-2.92232830759281
30
2E-16
41
1
10
61.7760632432057
20
-2.69612389505295
30
2E-16
41
1
10
60.9880121663451
20
-2.33409842504585
30
1E-16
41
1
10
60.7252433415293
20
-2.20995932174824
30
1E-16
41
1
10
60.2021500101805
20
-1.95707119250889
30
1E-16
41
1
10
59.9413678249498
20
-1.82809140746511
30
1E-16
41
1
10
59.4206248537643
20
-1.56636049396948
30
1E-16
41
1
10
59.1606031607975
20
-1.43372392573795
30
1E-16
41
1
10
58.6415415354023
20
-1.16440985809808
30
1E-16
41
1
10
58.3823794260763
20
-1.02794984633414
30
1E-16
41
1
10
57.6046876979401
20
-0.61559009140197
30
0
41
1
10
57.0858323470324
20
-0.33696292434422
30
0
41
1
10
56.0457186374499
20
0.224768258520498
30
0
41
1
10
55.5238340054754
20
0.506690726315696
30
0
41
1
10
54.7354428977704
20
0.925850229181663
30
-1E-16
41
1
10
54.4728407692015
20
1.06435878712773
30
-1E-16
41
1
10
53.9497956003981
20
1.33692358561788
30
-1E-16
41
1
10
53.6889994881306
20
1.47116719612271
30
-1E-16
41
1
10
52.9079774555159
20
1.86642523838736
30
-1E-16
41
1
10
52.3892386271993
20
2.12018982880881
30
-1E-16
41
1
10
51.3520076330938
20
2.60225149459018
30
-2E-16
41
1
10
50.8331013520195
20
2.82991945768575
30
-2E-16
41
1
10
49.792705579853
20
3.25511348332762
30
-2E-16
41
1
10
49.2704451206975
20
3.45147298563896
30
-2E-16
41
1
10
48.4813317670006
20
3.71758807897606
30
2E-16
41
1
10
48.2190288407753
20
3.80136052871018
30
2E-16
41
1
10
47.6961105481344
20
3.95743452761368
30
2E-16
41
1
10
47.4353428551994
20
4.02989784579123
30
2E-16
41
1
10
46.1338022523042
20
4.36366163085341
30
0
41
1
10
45.0999833698714
20
4.53930225922534
30
-1E-16
41
1
10
43.6706437246173
20
4.64338548099119
30
0
41
1
10
43.2812562199841
20
4.65776244745604
30
0
41
1
10
42.8900376201483
20
4.6578692599665
30
0
0
SPLINE
5
F3
100
AcDbEntity
8
1
62
256
6
ByLayer
370
18
48
1
60
0
100
AcDbSpline
70
4
71
3
72
24
73
20
40
0
40
0
40
0
40
0
40
0.248402829699115
40
0.248402829699115
40
0.311035927224189
40
0.311035927224189
40
0.373669024749263
40
0.373669024749263
40
0.498935219799411
40
0.498935219799411
40
0.624201414849558
40
0.624201414849558
40
0.749467609899706
40
0.749467609899706
40
0.81210070742478
40
0.81210070742478
40
0.874733804949853
40
0.874733804949853
40
1
40
1
40
1
40
1
41
1
10
22.1228641516039
20
-3.42313271273235
30
1E-16
41
1
10
21.0903459387844
20
-3.79750705622325
30
-2E-16
41
1
10
20.0644544816501
20
-4.09583499219053
30
-2E-16
41
1
10
18.7704096980425
20
-4.35588013657309
30
0
41
1
10
18.5093478504861
20
-4.40247952576516
30
0
41
1
10
17.9855691524784
20
-4.48358307777403
30
1E-16
41
1
10
17.7224799059778
20
-4.51814512968326
30
1E-16
41
1
10
16.9334554616491
20
-4.60323026924422
30
-1E-16
41
1
10
16.4110515613531
20
-4.6341854339546
30
0
41
1
10
15.3689535249054
20
-4.64563162717076
30
0
41
1
10
14.8501451624493
20
-4.62610930192636
30
0
41
1
10
13.8117905601905
20
-4.53744955628957
30
1E-16
41
1
10
13.2924785034566
20
-4.46831888978414
30
1E-16
41
1
10
12.5104025671188
20
-4.32841825618425
30
0
41
1
10
12.2491284831639
20
-4.27580394348459
30
0
41
1
10
11.7252232584521
20
-4.15859009299072
30
-2E-16
41
1
10
11.4623292730536
20
-4.09389688305268
30
-2E-16
41
1
10
10.6727108128964
20
-3.88253996861283
30
-2E-16
41
1
10
10.1472218717018
20
-3.71938343749989
30
-2E-16
41
1
10
9.61991524556638
20
-3.53721703547009
30
2E-16
0
SPLINE
5
F4
100
AcDbEntity
8
1
62
256
6
ByLayer
370
18
48
1
60
0
100
AcDbSpline
70
4
71
3
72
8
73
4
40
0
40
0
40
0
40
0
40
1
40
1
40
1
40
1
41
1
10
110.322250361727
20
-4.43574594292659
30
0
41
1
10
110.315147251727
20
-4.45629759064866
30
1E-16
41
1
10
110.308075341682
20
-4.4768485192472
30
1E-16
41
1
10
110.301035261561
20
-4.4973989179029
30
1E-16
0
SPLINE
5
F5
100
AcDbEntity
8
1
62
256
6
ByLayer
370
18
48
1
60
0
100
AcDbSpline
70
4
71
3
72
66
73
62
40
0
40
0
40
0
40
0
40
0.0004118565505391
40
0.0004118565505391
40
0.0185229658260307
40
0.0185229658260307
40
0.0366340751015221
40
0.0366340751015221
40
0.0547451843770136
40
0.0547451843770136
40
0.0728562936525052
40
0.0728562936525052
40
0.0773840709713781
40
0.0796479596308146
40
0.0807799039605327
40
0.0810628900429623
40
0.0810628900429623
40
0.0813458761253919
40
0.0813458761253919
40
0.0816288622078215
40
0.0816288622078215
40
0.081911848290251
40
0.081911848290251
40
0.0841757369496878
40
0.0841757369496878
40
0.0864396256091243
40
0.0864396256091243
40
0.0909674029279975
40
0.0909674029279975
40
0.10907851220349
40
0.10907851220349
40
0.145300730754476
40
0.145300730754476
40
0.217745167856448
40
0.217745167856448
40
0.362634042060392
40
0.362634042060392
40
0.435078479162363
40
0.435078479162363
40
0.471300697713349
40
0.471300697713349
40
0.489411806988842
40
0.489411806988842
40
0.498467361626588
40
0.498467361626588
40
0.500731250286025
40
0.500731250286025
40
0.501297222450884
40
0.501297222450884
40
0.501438715492099
40
0.501438715492099
40
0.501580208533314
40
0.501580208533314
40
0.501863194615743
40
0.502995138945462
40
0.507522916264336
40
0.652411790468312
40
0.652411790468312
40
0.797300664672288
40
0.797300664672288
40
1
40
1
40
1
40
1
41
1
10
12.5737187810384
20
1.25113863159237
30
-1E-16
41
1
10
12.5728071804323
20
1.251397899072
30
-1E-16
41
1
10
12.5718949241001
20
1.25165525070486
30
-1E-16
41
1
10
12.5308375549816
20
1.26314314943119
30
-1E-16
41
1
10
12.4900005724272
20
1.2704341072577
30
-1E-16
41
1
10
12.4056923787667
20
1.27777496584426
30
-1E-16
41
1
10
12.3613671802819
20
1.27823718457236
30
-1E-16
41
1
10
12.2693461845966
20
1.2723003513014
30
-1E-16
41
1
10
12.2218433445192
20
1.26576219481097
30
-1E-16
41
1
10
12.1232806020751
20
1.24617584028525
30
-1E-16
41
1
10
12.0721082464665
20
1.23314285513612
30
-1E-16
41
1
10
12.0064395295353
20
1.21261487500993
30
-1E-16
41
1
10
11.9866124038919
20
1.20613953648015
30
-1E-16
41
1
10
11.963274175128
20
1.19802332408358
30
-1E-16
41
1
10
11.9523929046946
20
1.19412408358414
30
-1E-16
41
1
10
11.9482008429463
20
1.19260340129546
30
-1E-16
41
1
10
11.9465234623775
20
1.19199344850665
30
-1E-16
41
1
10
11.9448748649735
20
1.19189322039679
30
-1E-16
41
1
10
11.9463085690616
20
1.19033598888146
30
-1E-16
41
1
10
11.9478069233077
20
1.18952460092746
30
-1E-16
41
1
10
11.9505012895244
20
1.18796644515308
30
-1E-16
41
1
10
11.9518985776908
20
1.18719907779001
30
-1E-16
41
1
10
11.9646151131306
20
1.18032546250552
30
-1E-16
41
1
10
11.9766235547062
20
1.17438887281378
30
-1E-16
41
1
10
12.0004530301632
20
1.16249435833657
30
-1E-16
41
1
10
12.0124428227371
20
1.15656854056962
30
-1E-16
41
1
10
12.0484800452134
20
1.13880886341852
30
-1E-16
41
1
10
12.0726031613937
20
1.12699498480561
30
-1E-16
41
1
10
12.1933703014631
20
1.06792856751977
30
-1E-16
41
1
10
12.2904536197933
20
1.02067911982968
30
-1E-16
41
1
10
12.581806859091
20
0.878474419341757
30
-1E-16
41
1
10
12.7763444728602
20
0.783096999077486
30
0
41
1
10
13.3599203659147
20
0.494730869887263
30
0
41
1
10
13.7490278828514
20
0.299668306526712
30
0
41
1
10
14.9155668529659
20
-0.294358308500875
30
0
41
1
10
15.6920973637315
20
-0.702712007515601
30
0
41
1
10
16.8569445552417
20
-1.33173071142332
30
0
41
1
10
17.245119174353
20
-1.54401869720615
30
0
41
1
10
17.8266411110268
20
-1.86701727921852
30
0
41
1
10
18.020403029138
20
-1.9753866730839
30
0
41
1
10
18.3105721669434
20
-2.13963947456495
30
0
41
1
10
18.407250292353
20
-2.19461280093651
30
0
41
1
10
18.5516645264852
20
-2.2783378351119
30
0
41
1
10
18.5998603630433
20
-2.30620194645724
30
0
41
1
10
18.659092175975
20
-2.34279411364892
30
0
41
1
10
18.6709828382209
20
-2.35004118457607
30
0
41
1
10
18.6851153064104
20
-2.36030604528602
30
0
41
1
10
18.6881842140149
20
-2.36220623284501
30
0
41
1
10
18.6907751010571
20
-2.36577217636233
30
0
41
1
10
18.6908075859548
20
-2.36691835558523
30
0
41
1
10
18.6891404256103
20
-2.36751036026271
30
0
41
1
10
18.6882427212326
20
-2.36755971984547
30
0
41
1
10
18.6856196691304
20
-2.3679328964754
30
0
41
1
10
18.676876242886
20
-2.36917676035048
30
0
41
1
10
18.6401555587638
20
-2.37439976384476
30
0
41
1
10
17.7100718927157
20
-2.50659146691447
30
0
41
1
10
16.7915098330679
20
-2.63449891917398
30
0
41
1
10
15.0203191003177
20
-2.874475365584
30
0
41
1
10
14.1396498785363
20
-2.99044038744884
30
0
41
1
10
12.0381396178516
20
-3.25691231270525
30
2E-16
41
1
10
10.8236874888547
20
-3.40254696615094
30
2E-16
41
1
10
9.61992070785163
20
-3.53721642438586
30
2E-16
0
SPLINE
5
F6
100
AcDbEntity
8
1
62
256
6
ByLayer
370
18
48
1
60
0
100
AcDbSpline
70
4
71
3
72
8
73
4
40
0
40
0
40
0
40
0
40
1
40
1
40
1
40
1
41
1
10
111.995665819823
20
0.259483968215818
30
0
41
1
10
111.97536442645
20
0.19181785169846
30
0
41
1
10
111.954961757029
20
0.124183288122452
30
0
41
1
10
111.934458189541
20
0.0565801597268489
30
0
0
SPLINE
5
F7
100
AcDbEntity
8
1
62
256
6
ByLayer
370
18
48
1
60
0
100
AcDbSpline
70
4
71
3
72
10
73
6
40
0
40
0
40
0
40
0
40
0.5
40
0.5
40
1
40
1
40
1
40
1
41
1
10
65.001730078032
20
-4.29959743464391
30
0
41
1
10
65.0017300780319
20
-4.28598444054828
30
0
41
1
10
65.0208150689576
20
-4.27249386399959
30
0
41
1
10
65.0804410698736
20
-4.25806641042337
30
0
41
1
10
65.1189358688288
20
-4.2577569622317
30
0
41
1
10
65.1495126930408
20
-4.26456574261556
30
0
0
SPLINE
5
F8
100
AcDbEntity
8
1
62
256
6
ByLayer
370
18
48
1
60
0
100
AcDbSpline
70
4
71
3
72
44
73
40
40
0
40
0
40
0
40
0
40
0.0768735445006111
40
0.0768735445006111
40
0.123029867275578
40
0.123029867275578
40
0.146108028663062
40
0.146108028663062
40
0.169186190050545
40
0.169186190050545
40
0.215342512825514
40
0.215342512825514
40
0.261498835600482
40
0.261498835600482
40
0.35381148115042
40
0.35381148115042
40
0.39996780392539
40
0.39996780392539
40
0.446124126700359
40
0.446124126700359
40
0.538436772250297
40
0.538436772250297
40
0.584593095025266
40
0.584593095025266
40
0.630749417800236
40
0.630749417800236
40
0.653827579187721
40
0.653827579187721
40
0.676905740575207
40
0.676905740575207
40
0.723062063350178
40
0.723062063350178
40
0.815374708900119
40
0.815374708900119
40
0.861531031675089
40
0.861531031675089
40
0.907687354450059
40
0.907687354450059
40
1
40
1
40
1
40
1
41
1
10
79.6052646461357
20
4.31491101860584
30
1E-16
41
1
10
80.3842696970689
20
4.47859225535979
30
-1E-16
41
1
10
81.1586515810387
20
4.58893030955161
30
-1E-16
41
1
10
82.4007395143406
20
4.67607408158611
30
0
41
1
10
82.8672912636108
20
4.68865280067595
30
0
41
1
10
83.5700363110797
20
4.6766225018678
30
0
41
1
10
83.8047729893382
20
4.66746348906057
30
0
41
1
10
84.2755851571742
20
4.63874209470535
30
0
41
1
10
84.5119424045067
20
4.61913779894158
30
1E-16
41
1
10
85.2192681114972
20
4.54510373198968
30
-1E-16
41
1
10
85.6896513091979
20
4.47543307079044
30
-1E-16
41
1
10
86.6308144626684
20
4.29706023995939
30
0
41
1
10
87.1020588695679
20
4.18822409561594
30
2E-16
41
1
10
88.5177884814449
20
3.80669649857791
30
2E-16
41
1
10
89.4560842699082
20
3.48143538724756
30
-2E-16
41
1
10
90.8720090312638
20
2.90681900035034
30
-2E-16
41
1
10
91.3418884303246
20
2.70227827399302
30
-2E-16
41
1
10
92.277301716598
20
2.27340980851696
30
-1E-16
41
1
10
92.7433222322224
20
2.04888383562786
30
-1E-16
41
1
10
94.1402048046304
20
1.35183501435242
30
-1E-16
41
1
10
95.0698524437342
20
0.855721822474919
30
-1E-16
41
1
10
96.4788614465326
20
0.0945708359092521
30
0
41
1
10
96.9517653326242
20
-0.162464637773809
30
0
41
1
10
97.8933429387467
20
-0.670669659560815
30
0
41
1
10
98.3633876182284
20
-0.922555604909832
30
1E-16
41
1
10
99.0694738752525
20
-1.29315809189427
30
1E-16
41
1
10
99.3050049761181
20
-1.4154896600343
30
1E-16
41
1
10
99.7767441279415
20
-1.65712890792466
30
1E-16
41
1
10
100.012618424262
20
-1.77626080486695
30
1E-16
41
1
10
100.71737002603
20
-2.12603005654921
30
1E-16
41
1
10
101.184695268064
20
-2.34971018678556
30
1E-16
41
1
10
102.583436772508
20
-2.98586949014256
30
2E-16
41
1
10
103.511652724461
20
-3.36340366774707
30
2E-16
41
1
10
104.913678562241
20
-3.83678940319325
30
-2E-16
41
1
10
105.38281905854
20
-3.97912501050391
30
-2E-16
41
1
10
106.326582206065
20
-4.22865336351012
30
-2E-16
41
1
10
106.79614107802
20
-4.3345069383189
30
0
41
1
10
108.201885388424
20
-4.59342919943484
30
1E-16
41
1
10
109.135022935989
20
-4.68777039680606
30
0
41
1
10
110.075673166294
20
-4.69886938895726
30
0
0
SPLINE
5
F9
100
AcDbEntity
8
1
62
256
6
ByLayer
370
18
48
1
60
0
100
AcDbSpline
70
4
71
3
72
8
73
4
40
0
40
0
40
0
40
0
40
1
40
1
40
1
40
1
41
1
10
111.587947139378
20
1.44847261501059
30
0
41
1
10
111.727584897539
20
1.05347848827074
30
0
41
1
10
111.863509600699
20
0.657155551563307
30
0
41
1
10
111.995665819823
20
0.259483968215818
30
0
0
SPLINE
5
FA
100
AcDbEntity
8
1
62
256
6
ByLayer
370
18
48
1
60
0
100
AcDbSpline
70
4
71
3
72
56
73
52
40
0
40
0
40
0
40
0
40
0.0142682630198318
40
0.0142682630198318
40
0.0627991829033409
40
0.0627991829033409
40
0.0870646428450954
40
0.0870646428450954
40
0.11133010278685
40
0.11133010278685
40
0.159861022670359
40
0.159861022670359
40
0.208391942553868
40
0.208391942553868
40
0.256922862437377
40
0.256922862437377
40
0.281188322379132
40
0.281188322379132
40
0.305453782320887
40
0.305453782320887
40
0.402515622087909
40
0.402515622087909
40
0.45104654197142
40
0.45104654197142
40
0.475312001913176
40
0.475312001913176
40
0.499577461854932
40
0.499577461854932
40
0.548108381738444
40
0.548108381738444
40
0.596639301621956
40
0.596639301621956
40
0.620904761563712
40
0.620904761563712
40
0.645170221505468
40
0.645170221505468
40
0.693701141388979
40
0.693701141388979
40
0.790762981156001
40
0.790762981156001
40
0.815028441097757
40
0.815028441097757
40
0.839293901039514
40
0.839293901039514
40
0.887824820923025
40
0.887824820923025
40
0.936355740806537
40
0.936355740806537
40
0.984886660690048
40
0.984886660690048
40
1
40
1
40
1
40
1
41
1
10
22.0882460372787
20
3.41378027811714
30
0
41
1
10
22.246985961963
20
3.47162639327496
30
0
41
1
10
22.4057232935064
20
3.52775342227452
30
0
41
1
10
23.1045986746194
20
3.7669122691257
30
2E-16
41
1
10
23.6452457765555
20
3.93107247530674
30
2E-16
41
1
10
24.4603279101171
20
4.14222724538882
30
2E-16
41
1
10
24.7326842189994
20
4.20678862956368
30
0
41
1
10
25.279285497327
20
4.32357236082851
30
0
41
1
10
25.5531560277919
20
4.37568615051626
30
0
41
1
10
26.3725516850019
20
4.51173383547783
30
-1E-16
41
1
10
26.9175716007868
20
4.57585048195776
30
1E-16
41
1
10
28.0094593639311
20
4.64913371727801
30
0
41
1
10
28.5574849263847
20
4.65814815227492
30
0
41
1
10
29.6493108102619
20
4.62050426941067
30
1E-16
41
1
10
30.1943299960218
20
4.57401102086232
30
1E-16
41
1
10
31.0137219675348
20
4.46364770884449
30
-1E-16
41
1
10
31.2876470470063
20
4.41998127479067
30
0
41
1
10
31.8338682140138
20
4.31981716402427
30
0
41
1
10
32.1060660527806
20
4.26338749230032
30
0
41
1
10
33.4637467711927
20
3.95096807535515
30
2E-16
41
1
10
34.5393678618085
20
3.6041337080097
30
-2E-16
41
1
10
36.1618747230829
20
2.96762701769697
30
-2E-16
41
1
10
36.7043719606285
20
2.73632220299012
30
-2E-16
41
1
10
37.5235767025053
20
2.36431100327769
30
-1E-16
41
1
10
37.7974244937214
20
2.2360912052672
30
-1E-16
41
1
10
38.3435575965097
20
1.97426306198642
30
-1E-16
41
1
10
38.616326259829
20
1.8403932955091
30
-1E-16
41
1
10
39.4344231543621
20
1.43111697570046
30
-1E-16
41
1
10
39.9795334697222
20
1.1480153705491
30
-1E-16
41
1
10
41.0738725170768
20
0.56956653618397
30
0
41
1
10
41.619316765259
20
0.275917747893345
30
0
41
1
10
42.4373462395416
20
-0.164273996656874
30
0
41
1
10
42.7100623148374
20
-0.310969273005384
30
0
41
1
10
43.2560458322651
20
-0.603407188658082
30
0
41
1
10
43.5297903181322
20
-0.749353373935691
30
0
41
1
10
44.3491641305848
20
-1.18251150457209
30
1E-16
41
1
10
44.8917126378092
20
-1.4637473692444
30
1E-16
41
1
10
46.5143134071326
20
-2.2748272472673
30
1E-16
41
1
10
47.5892749322549
20
-2.77199613443563
30
2E-16
41
1
10
48.9458495947386
20
-3.30413470978451
30
2E-16
41
1
10
49.2178038569709
20
-3.40610918896425
30
2E-16
41
1
10
49.7635011920627
20
-3.60032413768252
30
2E-16
41
1
10
50.0373425166451
20
-3.692560115313
30
-2E-16
41
1
10
50.8563564075719
20
-3.95144615370919
30
-2E-16
41
1
10
51.4010898311435
20
-4.10099345683611
30
-2E-16
41
1
10
52.4919237258758
20
-4.35037217240895
30
0
41
1
10
53.0394457153272
20
-4.45011004071034
30
1E-16
41
1
10
54.1308194146056
20
-4.59482821905402
30
-1E-16
41
1
10
54.6753558040153
20
-4.6401072534681
30
0
41
1
10
55.391043995025
20
-4.66307584508056
30
0
41
1
10
55.5612496111458
20
-4.66583764703796
30
0
41
1
10
55.7314604689898
20
-4.66589579125281
30
0
0
SPLINE
5
FB
100
AcDbEntity
8
1
62
256
6
ByLayer
370
18
48
1
60
0
100
AcDbSpline
70
4
71
3
72
34
73
30
40
0
40
0
40
0
40
0
40
0.498011580265865
40
0.498011580265865
40
0.665800736049293
40
0.665800736049293
40
0.777726198122174
40
0.777726198122174
40
0.852406371673342
40
0.852406371673342
40
0.902248509172593
40
0.902248509172593
40
0.935523071138853
40
0.935523071138853
40
0.957768372190447
40
0.957768372190447
40
0.972606801996068
40
0.972606801996068
40
0.982463229633143
40
0.982463229633143
40
0.989005621538999
40
0.989005621538999
40
0.993351341721964
40
0.993351341721964
40
0.996286212111781
40
0.996286212111781
40
0.9984103078236
40
0.9984103078236
40
1
40
1
40
1
40
1
41
1
10
110.075673166288
20
4.69886938894558
30
0
41
1
10
110.122607233293
20
4.66829297843802
30
0
41
1
10
110.169620813976
20
4.63740700528066
30
0
41
1
10
110.232575579939
20
4.59571782542932
30
0
41
1
10
110.24845014568
20
4.58517753711905
30
0
41
1
10
110.274928491783
20
4.56755059630163
30
0
41
1
10
110.285527509125
20
4.5604824298278
30
0
41
1
10
110.30320497044
20
4.54867359335415
30
0
41
1
10
110.310281287067
20
4.54394108662908
30
0
41
1
10
110.322083264027
20
4.5360391868906
30
0
41
1
10
110.32680912262
20
4.53287261966324
30
0
41
1
10
110.334686746107
20
4.52759031572342
30
0
41
1
10
110.3378382066
20
4.52547610812476
30
0
41
1
10
110.343079727206
20
4.52195817497764
30
0
41
1
10
110.345173458375
20
4.52055252168108
30
0
41
1
10
110.348679866444
20
4.51819743683444
30
0
41
1
10
110.350087429302
20
4.51725177695485
30
0
41
1
10
110.352443283362
20
4.51566854387377
30
0
41
1
10
110.353387137567
20
4.51503411069544
30
0
41
1
10
110.3549641883
20
4.51397386115528
30
0
41
1
10
110.355595406253
20
4.51354943945012
30
0
41
1
10
110.356648039053
20
4.51284158958129
30
0
41
1
10
110.357068350956
20
4.51255893228731
30
0
41
1
10
110.357768262861
20
4.51208825510332
30
0
41
1
10
110.358049902569
20
4.51189885617558
30
0
41
1
10
110.358527192313
20
4.51157793068322
30
0
41
1
10
110.358725652765
20
4.51144450094958
30
0
41
1
10
110.359056401321
20
4.51122221278425
30
0
41
1
10
110.359194570412
20
4.5111293772396
30
0
41
1
10
110.359314398118
20
4.5110489471175
30
0
0
SPLINE
5
FC
100
AcDbEntity
8
1
62
256
6
ByLayer
370
18
48
1
60
0
100
AcDbSpline
70
4
71
3
72
26
73
22
40
0
40
0
40
0
40
0
40
0.0155295781168847
40
0.0155295781168847
40
0.124915180548345
40
0.124915180548345
40
0.343686385411262
40
0.343686385411262
40
0.45307198784272
40
0.45307198784272
40
0.507764789058446
40
0.507764789058446
40
0.562457590274173
40
0.562457590274173
40
0.781228795137084
40
0.781228795137084
40
0.890614397568539
40
0.890614397568539
40
0.94530719878427
40
0.94530719878427
40
1
40
1
40
1
40
1
41
1
10
97.4393205233545
20
0.233174988974071
30
0
41
1
10
97.5065189325209
20
0.19861661664666
30
0
41
1
10
97.5736598943342
20
0.164066022585388
30
0
41
1
10
98.1131500548472
20
-0.113647639352138
30
0
41
1
10
98.5830531082547
20
-0.355971936774296
30
0
41
1
10
99.9889102605171
20
-1.07341010107649
30
1E-16
41
1
10
100.921057973823
20
-1.53879508919428
30
1E-16
41
1
10
102.326709704569
20
-2.18870130868791
30
1E-16
41
1
10
102.796507746185
20
-2.3972963615648
30
1E-16
41
1
10
103.505038314076
20
-2.69439378770159
30
2E-16
41
1
10
103.742075147411
20
-2.79088963327448
30
2E-16
41
1
10
104.216787733604
20
-2.97770208895156
30
2E-16
41
1
10
104.453400386303
20
-3.06759534025062
30
2E-16
41
1
10
105.633575645363
20
-3.49844383221915
30
2E-16
41
1
10
106.568387702252
20
-3.78313911126941
30
-2E-16
41
1
10
107.972227340388
20
-4.1058069688691
30
0
41
1
10
108.440434380715
20
-4.19595836147423
30
0
41
1
10
109.14495631573
20
-4.30313602365266
30
0
41
1
10
109.380165635669
20
-4.33418807874003
30
0
41
1
10
109.851635437786
20
-4.38664823573478
30
0
41
1
10
110.087932718618
20
-4.40762295167923
30
0
41
1
10
110.324836674835
20
-4.42451758107723
30
0
0
SPLINE
5
FD
100
AcDbEntity
8
1
62
256
6
ByLayer
370
18
48
1
60
0
100
AcDbSpline
70
4
71
3
72
8
73
4
40
0
40
0
40
0
40
0
40
1
40
1
40
1
40
1
41
1
10
65.0542435732744
20
2.82225570626525
30
-2E-16
41
1
10
65.0223922518234
20
2.83593952348923
30
-2E-16
41
1
10
65.0017300780319
20
2.86344227481828
30
-2E-16
41
1
10
65.0017300780319
20
2.89186680556162
30
-2E-16
0
SPLINE
5
FE
100
AcDbEntity
8
1
62
256
6
ByLayer
370
18
48
1
60
0
100
AcDbSpline
70
4
71
3
72
20
73
16
40
0
40
0
40
0
40
0
40
0.249999999999996
40
0.249999999999996
40
0.499999999999991
40
0.499999999999991
40
0.562499999999992
40
0.562499999999992
40
0.624999999999993
40
0.624999999999993
40
0.749999999999996
40
0.749999999999996
40
0.874999999999998
40
0.874999999999998
40
1
40
1
40
1
40
1
41
1
10
110.367500308682
20
4.50553808570442
30
0
41
1
10
110.4604103759
20
4.24376454607866
30
0
41
1
10
110.552449165691
20
3.98028698406674
30
0
41
1
10
110.738208174846
20
3.45159389348313
30
0
41
1
10
110.831930317068
20
3.18649362285902
30
0
41
1
10
110.951023005596
20
2.85616936025764
30
0
41
1
10
110.974938970654
20
2.79013984061686
30
0
41
1
10
111.023005112943
20
2.65816567146609
30
0
41
1
10
111.047335565267
20
2.59212309625005
30
0
41
1
10
111.122050784873
20
2.39664782149174
30
0
41
1
10
111.173788627925
20
2.2692770128501
30
0
41
1
10
111.28267602297
20
2.0210734794033
30
0
41
1
10
111.339825245502
20
1.90023740167388
30
0
41
1
10
111.460768219989
20
1.66549569952875
30
0
41
1
10
111.523357507502
20
1.55394095701277
30
0
41
1
10
111.587947139378
20
1.44847261501062
30
0
0
SPLINE
5
FF
100
AcDbEntity
8
1
62
256
6
ByLayer
370
18
48
1
60
0
100
AcDbSpline
70
4
71
2
72
6
73
3
40
0
40
0
40
0
40
1
40
1
40
1
41
1
10
70.6648163387341
20
0.0031022649741033
30
0
41
1
10
70.6648005183478
20
0.0031105798786371
30
0
41
1
10
70.6647846980708
20
0.0031194032800101
30
0
0
SPLINE
5
100
100
AcDbEntity
8
1
62
256
6
ByLayer
370
18
48
1
60
0
100
AcDbSpline
70
4
71
3
72
14
73
10
40
0
40
0
40
0
40
0
40
0.211250672561597
40
0.351933193678984
40
0.437934208168526
40
0.51433262027283
40
0.619414592864567
40
0.787710931298612
40
1
40
1
40
1
40
1
41
1
10
68.7883467545327
20
4.44039715621761
30
0
41
1
10
68.5287751907666
20
4.44043276123836
30
0
41
1
10
68.0963402688189
20
4.44029791232509
30
0
41
1
10
67.5582280992164
20
4.43944961290308
30
0
41
1
10
67.1858156396983
20
4.43899309063414
30
0
41
1
10
66.8571472161091
20
4.43901279914638
30
0
41
1
10
66.4273583604815
20
4.43926022697116
30
0
41
1
10
65.8305926854512
20
4.43919608058548
30
0
41
1
10
65.3629509724298
20
4.43794894865601
30
0
41
1
10
65.1021030195778
20
4.43695266375639
30
0
0
SPLINE
5
101
100
AcDbEntity
8
1
62
256
6
ByLayer
370
18
48
1
60
0
100
AcDbSpline
70
4
71
3
72
14
73
10
40
0
40
0
40
0
40
0
40
0.0705267297443694
40
0.19816472531779
40
0.249935778042348
40
0.334282518899071
40
0.501323423151229
40
0.730645490576121
40
1
40
1
40
1
40
1
41
1
10
110.428250417517
20
0.961187328821723
30
-1E-16
41
1
10
110.290738154221
20
1.00443462027354
30
-1E-16
41
1
10
109.904824994908
20
1.12738733967797
30
-1E-16
41
1
10
109.420127192604
20
1.28884960638675
30
-1E-16
41
1
10
108.909638097068
20
1.46218615372143
30
-1E-16
41
1
10
108.324015039771
20
1.66485133031159
30
-1E-16
41
1
10
107.398713629407
20
1.99572889241853
30
-1E-16
41
1
10
106.124555154805
20
2.47416351690543
30
-2E-16
41
1
10
105.177922548614
20
2.852396805285
30
-2E-16
41
1
10
104.668800257741
20
3.06241238265446
30
-2E-16
0
SPLINE
5
102
100
AcDbEntity
8
1
62
256
6
ByLayer
370
18
48
1
60
0
100
AcDbSpline
70
4
71
3
72
32
73
28
40
0
40
0
40
0
40
0
40
7.252816134E-06
40
3.81794687316E-05
40
5.12190910765E-05
40
6.30649347277E-05
40
7.44553843567E-05
40
0.0001306697112039
40
0.0005895082223061
40
0.0009528262836362
40
0.0016085442575221
40
0.0028015900721739
40
0.0050025885075743
40
0.0091567549543799
40
0.0172878502461761
40
0.0785091100221678
40
0.164624556735746
40
0.255688268117272
40
0.34803264493878
40
0.441673021521237
40
0.514493900348914
40
0.57509612309004
40
0.625654209404161
40
0.683695753561885
40
0.769718617429428
40
0.883714101217958
40
1
40
1
40
1
40
1
41
1
10
58.663374596314
20
0.172678281147654
30
0
41
1
10
58.6633800115427
20
0.172677543058882
30
0
41
1
10
58.663406277764
20
0.17267429669991
30
0
41
1
10
58.6634242317208
20
0.17267486400246
30
0
41
1
10
58.6633963161618
20
0.172688350824416
30
0
41
1
10
58.6633535554254
20
0.172703624889039
30
0
41
1
10
58.6631909633738
20
0.172754157475566
30
0
41
1
10
58.6617487492811
20
0.173168984423256
30
0
41
1
10
58.6592962912737
20
0.173856465807319
30
0
41
1
10
58.6552067022213
20
0.175016594001448
30
0
41
1
10
58.6490702290427
20
0.176751929887672
30
0
41
1
10
58.6378380852877
20
0.179929896993087
30
0
41
1
10
58.6168805153405
20
0.185853574567915
30
0
41
1
10
58.5765877393464
20
0.197230184797149
30
0
41
1
10
58.3714851927022
20
0.255059794612777
30
0
41
1
10
57.9340490825873
20
0.379205674782185
30
0
41
1
10
57.2623795541731
20
0.576579125962496
30
0
41
1
10
56.5057450606542
20
0.807681462753692
30
0
41
1
10
55.730630216708
20
1.05383664409453
30
-1E-16
41
1
10
55.0092279295724
20
1.2917918959194
30
-1E-16
41
1
10
54.3784334436418
20
1.50679305117839
30
-1E-16
41
1
10
53.8687170666044
20
1.68501429265916
30
-1E-16
41
1
10
53.4010247483527
20
1.85197577823556
30
-1E-16
41
1
10
52.8642918315842
20
2.04741349746209
30
-1E-16
41
1
10
52.1548578216034
20
2.31257739029377
30
-1E-16
41
1
10
51.2889416666135
20
2.64712808818388
30
-2E-16
41
1
10
50.6623744873836
20
2.90015164438506
30
-2E-16
41
1
10
50.3468894497802
20
3.0302100306487
30
-2E-16
0
SPLINE
5
103
100
AcDbEntity
8
1
62
256
6
ByLayer
370
18
48
1
60
0
100
AcDbSpline
70
4
71
3
72
25
73
21
40
0
40
0
40
0
40
0
40
2.41732584136E-05
40
4.22908055223E-05
40
4.88900328989E-05
40
7.38185457206E-05
40
0.0001530859129427
40
0.0002166256851919
40
0.0003340390909768
40
0.0005565046337876
40
0.0070070565133934
40
0.0418278187031579
40
0.0924211031922229
40
0.211588568523804
40
0.332566329614275
40
0.444541196542485
40
0.546560496056377
40
0.664883064319375
40
0.827440884396369
40
1
40
1
40
1
40
1
41
1
10
31.5077909120714
20
0.160211360990701
30
0
41
1
10
31.5078231741258
20
0.160204477536638
30
0
41
1
10
31.5078731246573
20
0.16019432984973
30
0
41
1
10
31.5079121046278
20
0.160188064033434
30
0
41
1
10
31.5078907459024
20
0.160198454119467
30
0
41
1
10
31.5077134765658
20
0.160255987912308
30
0
41
1
10
31.5072768538353
20
0.160383343423376
30
0
41
1
10
31.5066904283223
20
0.160558881287073
30
0
41
1
10
31.505731792765
20
0.160842484110333
30
0
41
1
10
31.4893741493724
20
0.165655555360956
30
0
41
1
10
31.3730237671822
20
0.198225902700699
30
0
41
1
10
31.1168046218929
20
0.270099041262824
30
0
41
1
10
30.5403291462987
20
0.434947664706044
30
0
41
1
10
29.7264336258447
20
0.676789598527307
30
0
41
1
10
28.7431335544798
20
0.984429041111099
30
-1E-16
41
1
10
27.8123606617549
20
1.28992648330865
30
-1E-16
41
1
10
26.8928031146155
20
1.60463048949936
30
-1E-16
41
1
10
25.8381613194079
20
1.98101551728797
30
-1E-16
41
1
10
24.5962351063333
20
2.4462018804613
30
-1E-16
41
1
10
23.6862620140952
20
2.80977222080591
30
-2E-16
41
1
10
23.2196386306504
20
3.0019988724965
30
-2E-16
0
SPLINE
5
104
100
AcDbEntity
8
1
62
256
6
ByLayer
370
18
48
1
60
0
100
AcDbSpline
70
4
71
3
72
27
73
23
40
0
40
0
40
0
40
0
40
1.39922372222E-05
40
2.01656622985E-05
40
3.66520316622E-05
40
5.62343096701E-05
40
0.0001710045694525
40
0.0002618431533023
40
0.0004260124832996
40
0.0007254429431793
40
0.0012802895068379
40
0.0023361129152699
40
0.0433634529361098
40
0.10703527201965
40
0.189587718821198
40
0.266825819511412
40
0.337419192404549
40
0.401893199029919
40
0.502777217465969
40
0.639976083480185
40
0.813405549613605
40
1
40
1
40
1
40
1
41
1
10
85.9508333482518
20
0.148786716294325
30
0
41
1
10
85.9508407968795
20
0.148786251469232
30
0
41
1
10
85.9508468598658
20
0.14878728175529
30
0
41
1
10
85.9507965870218
20
0.148801506429152
30
0
41
1
10
85.9507136733152
20
0.14882644958621
30
0
41
1
10
85.9503781463913
20
0.148924932703864
30
0
41
1
10
85.949738923516
20
0.149103979233473
30
0
41
1
10
85.9487924196952
20
0.149374053481466
30
0
41
1
10
85.9473315745174
20
0.149788479934585
30
0
41
1
10
85.9446574214557
20
0.150547104916427
30
0
41
1
10
85.9395858417382
20
0.151981514212395
30
0
41
1
10
85.824754168728
20
0.18431479050767
30
0
41
1
10
85.5159970715944
20
0.270038625843171
30
0
41
1
10
84.9863480119454
20
0.422147089167879
30
0
41
1
10
84.3482778590922
20
0.611020069502388
30
0
41
1
10
83.694716291019
20
0.811657472645351
30
0
41
1
10
83.0935828378898
20
1.00208194036179
30
-1E-16
41
1
10
82.4274301718165
20
1.21913470707912
30
-1E-16
41
1
10
81.5759671593185
20
1.50594953304108
30
-1E-16
41
1
10
80.4235743221892
20
1.912595828398
30
-1E-16
41
1
10
79.0400311854745
20
2.42876480374051
30
-1E-16
41
1
10
78.0471180049772
20
2.82492891795471
30
-2E-16
41
1
10
77.5347654352094
20
3.03613847637755
30
-2E-16
0
SPLINE
5
105
100
AcDbEntity
8
1
62
256
6
ByLayer
370
18
48
1
60
0
100
AcDbSpline
70
4
71
3
72
18
73
14
40
0
40
0
40
0
40
0
40
0.0931087568390085
40
0.154667188392642
40
0.194099418394337
40
0.231932678496594
40
0.269644221298733
40
0.309037200436973
40
0.350664559427009
40
0.39575389525484
40
0.651677976003259
40
0.999121609394078
40
1
40
1
40
1
40
1
41
1
10
84.2718725266737
20
-4.44877986065248
30
0
41
1
10
84.5523989485956
20
-4.44884068425213
30
0
41
1
10
85.0183959876419
20
-4.4490602404191
30
0
41
1
10
85.6032024534973
20
-4.44944854972437
30
0
41
1
10
86.0214697762917
20
-4.44999923687675
30
0
41
1
10
86.3678882135507
20
-4.45028689691435
30
0
41
1
10
86.7141883446673
20
-4.4503375689726
30
0
41
1
10
87.071919946244
20
-4.45025543617771
30
0
41
1
10
87.4518804499353
20
-4.45009780351921
30
0
41
1
10
88.4842344574343
20
-4.4503849464981
30
0
41
1
10
90.4379938411289
20
-4.45044190660531
30
0
41
1
10
92.258551789263
20
-4.45467973130476
30
0
41
1
10
93.3080204367434
20
-4.45351149145327
30
0
41
1
10
93.3106669630282
20
-4.45350852298623
30
0
0
SPLINE
5
106
100
AcDbEntity
8
1
62
256
6
ByLayer
370
18
48
1
60
0
100
AcDbSpline
70
4
71
3
72
18
73
14
40
0
40
0
40
0
40
0
40
0.106772388847939
40
0.179381679428317
40
0.256402627631724
40
0.333774225741091
40
0.411132946121385
40
0.488477356489772
40
0.565809870876583
40
0.643132760822976
40
0.797803321822212
40
0.950480792023014
40
1
40
1
40
1
40
1
41
1
10
95.99122074041
20
4.45591240919345
30
0
41
1
10
95.6686510346296
20
4.45482069886279
30
0
41
1
10
95.1267228873766
20
4.45349412185269
30
0
41
1
10
94.3521531791781
20
4.45182241202596
30
0
41
1
10
93.6663250566768
20
4.4530566026032
30
0
41
1
10
92.9661688465911
20
4.45411497891112
30
0
41
1
10
92.2650290561832
20
4.45337674385055
30
0
41
1
10
91.5640106020435
20
4.45216384961529
30
0
41
1
10
90.8630991433321
20
4.45122957209801
30
0
41
1
10
89.9285710398057
20
4.45098822322583
30
0
41
1
10
88.7664119951269
20
4.45273421439316
30
0
41
1
10
87.6882568671462
20
4.45002832459488
30
0
41
1
10
87.0773854547114
20
4.45009234212543
30
0
41
1
10
86.9277792432633
20
4.45012827933806
30
0
0
SPLINE
5
107
100
AcDbEntity
8
1
62
256
6
ByLayer
370
18
48
1
60
0
100
AcDbSpline
70
4
71
3
72
9
73
5
40
0
40
0
40
0
40
0
40
0.685521357703794
40
1
40
1
40
1
40
1
41
1
10
65.1021027660157
20
-4.43695399547954
30
0
41
1
10
65.3602768207392
20
-4.43794467563413
30
0
41
1
10
65.7368874461032
20
-4.4389492519303
30
0
41
1
10
66.1135001698204
20
-4.43918098920972
30
0
41
1
10
66.2319368554854
20
-4.43920403656153
30
0
0
SPLINE
5
108
100
AcDbEntity
8
1
62
256
6
ByLayer
370
18
48
1
60
0
100
AcDbSpline
70
4
71
2
72
6
73
3
40
0
40
0
40
0
40
1
40
1
40
1
41
1
10
97.8741914163281
20
-0.0018925650233541
30
0
41
1
10
97.8741788819131
20
-0.001890844906228
30
0
41
1
10
97.8741663474769
20
-0.0018887429784797
30
0
0
LINE
5
84
100
AcDbEntity
8
SK1
62
256
6
ByLayer
370
18
48
1
60
0
100
AcDbLine
10
0
20
5
30
0
11
0
21
-5
31
0
39
0
210
0
220
0
230
1
0
LINE
5
86
100
AcDbEntity
8
SK1
62
256
6
ByLayer
370
18
48
1
60
0
100
AcDbLine
10
-40
20
2.020691
30
0
11
-40
21
3.640038
31
0
39
0
210
0
220
0
230
1
0
LINE
5
87
100
AcDbEntity
8
SK1
62
256
6
ByLayer
370
18
48
1
60
0
100
AcDbLine
10
-39.25
20
3.224603
30
0
11
-39.25
21
4.158045
31
0
39
0
210
0
220
0
230
1
0
LINE
5
88
100
AcDbEntity
8
SK1
62
256
6
ByLayer
370
18
48
1
60
0
100
AcDbLine
10
-38.66
20
-5
30
0
11
-38.66
21
5
31
0
39
0
210
0
220
0
230
1
0
LINE
5
89
100
AcDbEntity
8
SK1
62
256
6
ByLayer
370
18
48
1
60
0
100
AcDbLine
10
-39.35
20
3.066008
30
0
11
-39.35
21
4.103194
31
0
39
0
210
0
220
0
230
1
0
LINE
5
8A
100
AcDbEntity
8
SK1
62
256
6
ByLayer
370
18
48
1
60
0
100
AcDbLine
10
-40
20
3.640038
30
0
11
-40
21
3.66
31
0
39
0
210
0
220
0
230
1
0
LINE
5
8B
100
AcDbEntity
8
SK1
62
256
6
ByLayer
370
18
48
1
60
0
100
AcDbLine
10
-39.517949
20
2.918227
30
0
11
-39.517949
21
3.955393
31
0
39
0
210
0
220
0
230
1
0
LINE
5
8C
100
AcDbEntity
8
SK1
62
256
6
ByLayer
370
18
48
1
60
0
100
AcDbLine
10
-40
20
-3.66
30
0
11
-40
21
2.020777
31
0
39
0
210
0
220
0
230
1
0
LINE
5
8D
100
AcDbEntity
8
1
62
256
6
ByLayer
370
18
48
1
60
0
100
AcDbLine
10
111.934458
20
0.05658
30
0
11
110.815722
21
1.291471
31
0
39
0
210
0
220
0
230
1
0
LINE
5
8E
100
AcDbEntity
8
1
62
256
6
ByLayer
370
18
48
1
60
0
100
AcDbLine
10
65.00173
20
4.671694
30
0
11
65.00173
21
2.891867
31
0
39
0
210
0
220
0
230
1
0
LINE
5
8F
100
AcDbEntity
8
1
62
256
6
ByLayer
370
18
48
1
60
0
100
AcDbLine
10
65.00173
20
-4.299597
30
0
11
65.00173
21
-4.671694
31
0
39
0
210
0
220
0
230
1
0
LINE
5
90
100
AcDbEntity
8
1
62
256
6
ByLayer
370
18
48
1
60
0
100
AcDbLine
10
0
20
5
30
0
11
0
21
0
31
0
39
0
210
0
220
0
230
1
0
LINE
5
91
100
AcDbEntity
8
1
62
256
6
ByLayer
370
18
48
1
60
0
100
AcDbLine
10
0
20
0
30
0
11
0
21
-5
31
0
39
0
210
0
220
0
230
1
0
LINE
5
92
100
AcDbEntity
8
1
62
256
6
ByLayer
370
18
48
1
60
0
100
AcDbLine
10
65
20
2.296779
30
0
11
65
21
2.236845
31
0
39
0
210
0
220
0
230
1
0
LINE
5
93
100
AcDbEntity
8
1
62
256
6
ByLayer
370
18
48
1
60
0
100
AcDbLine
10
0.510612
20
4.815853
30
0
11
0.510612
21
0
31
0
39
0
210
0
220
0
230
1
0
LINE
5
94
100
AcDbEntity
8
1
62
256
6
ByLayer
370
18
48
1
60
0
100
AcDbLine
10
0.510612
20
0
30
0
11
0.510612
21
-4.815853
31
0
39
0
210
0
220
0
230
1
0
LINE
5
95
100
AcDbEntity
8
SK1
62
256
6
ByLayer
370
18
48
1
60
0
100
AcDbLine
10
-38.66
20
-5
30
0
11
0
21
-5
31
0
39
0
210
0
220
0
230
1
0
LINE
5
96
100
AcDbEntity
8
SK1
62
256
6
ByLayer
370
18
48
1
60
0
100
AcDbLine
10
0
20
5
30
0
11
-38.66
21
5
31
0
39
0
210
0
220
0
230
1
0
LINE
5
97
100
AcDbEntity
8
SK1
62
256
6
ByLayer
370
18
48
1
60
0
100
AcDbLine
10
-40
20
-3.66
30
0
11
-38.66
21
-5
31
0
39
0
210
0
220
0
230
1
0
LINE
5
98
100
AcDbEntity
8
SK1
62
256
6
ByLayer
370
18
48
1
60
0
100
AcDbLine
10
-38.66
20
5
30
0
11
-40
21
3.66
31
0
39
0
210
0
220
0
230
1
0
LINE
5
99
100
AcDbEntity
8
1
62
256
6
ByLayer
370
18
48
1
60
0
100
AcDbLine
10
0.995008
20
-4.63169
30
0
11
15.703077
21
-4.640883
31
0
39
0
210
0
220
0
230
1
0
LINE
5
9A
100
AcDbEntity
8
1
62
256
6
ByLayer
370
18
48
1
60
0
100
AcDbLine
10
28.537061
20
-4.648904
30
0
11
42.874921
21
-4.657865
31
0
39
0
210
0
220
0
230
1
0
LINE
5
9B
100
AcDbEntity
8
1
62
256
6
ByLayer
370
18
48
1
60
0
100
AcDbLine
10
55.727005
20
-4.665897
30
0
11
65.00173
21
-4.671694
31
0
39
0
210
0
220
0
230
1
0
LINE
5
9C
100
AcDbEntity
8
1
62
256
6
ByLayer
370
18
48
1
60
0
100
AcDbLine
10
68.789472
20
-4.674062
30
0
11
70.049628
21
-4.674849
31
0
39
0
210
0
220
0
230
1
0
LINE
5
9D
100
AcDbEntity
8
1
62
256
6
ByLayer
370
18
48
1
60
0
100
AcDbLine
10
83.051287
20
-4.682975
30
0
11
84.27085
21
-4.683737
31
0
39
0
210
0
220
0
230
1
0
LINE
5
9E
100
AcDbEntity
8
1
62
256
6
ByLayer
370
18
48
1
60
0
100
AcDbLine
10
95.991644
20
-4.691063
30
0
11
97.221475
21
-4.691832
31
0
39
0
210
0
220
0
230
1
0
LINE
5
9F
100
AcDbEntity
8
1
62
256
6
ByLayer
370
18
48
1
60
0
100
AcDbLine
10
97.221475
20
4.691832
30
0
11
95.991644
21
4.691063
31
0
39
0
210
0
220
0
230
1
0
LINE
5
A0
100
AcDbEntity
8
1
62
256
6
ByLayer
370
18
48
1
60
0
100
AcDbLine
10
84.27085
20
4.683737
30
0
11
83.051287
21
4.682975
31
0
39
0
210
0
220
0
230
1
0
LINE
5
A1
100
AcDbEntity
8
1
62
256
6
ByLayer
370
18
48
1
60
0
100
AcDbLine
10
70.049628
20
4.674849
30
0
11
68.789472
21
4.674062
31
0
39
0
210
0
220
0
230
1
0
LINE
5
A2
100
AcDbEntity
8
1
62
256
6
ByLayer
370
18
48
1
60
0
100
AcDbLine
10
65.00173
20
4.671694
30
0
11
55.727005
21
4.665897
31
0
39
0
210
0
220
0
230
1
0
LINE
5
A3
100
AcDbEntity
8
1
62
256
6
ByLayer
370
18
48
1
60
0
100
AcDbLine
10
42.874921
20
4.657865
30
0
11
28.537061
21
4.648904
31
0
39
0
210
0
220
0
230
1
0
LINE
5
A4
100
AcDbEntity
8
1
62
256
6
ByLayer
370
18
48
1
60
0
100
AcDbLine
10
15.703077
20
4.640883
30
0
11
0.995008
21
4.63169
31
0
39
0
210
0
220
0
230
1
0
LINE
5
A5
100
AcDbEntity
8
SK4
62
256
6
ByLayer
370
18
48
0.05
60
0
100
AcDbLine
10
117
20
0
30
0
11
-45
21
0
31
0
39
0
210
0
220
0
230
1
0
LINE
5
A7
100
AcDbEntity
8
4
62
256
6
ByLayer
370
18
48
0.05
60
0
100
AcDbLine
10
-40
20
0
30
0
11
117
21
0
31
0
39
0
210
0
220
0
230
1
0
LINE
5
A9
100
AcDbEntity
8
80
62
256
6
ByLayer
370
18
48
1
60
0
100
AcDbLine
10
0
20
0
30
0
11
-6
21
0
31
0
39
0
210
0
220
0
230
1
0
LINE
5
AA
100
AcDbEntity
8
81
62
256
6
ByLayer
370
18
48
1
60
0
100
AcDbLine
10
112
20
0
30
0
11
118
21
0
31
0
39
0
210
0
220
0
230
1
0
LINE
5
AB
100
AcDbEntity
8
SK2
62
256
6
ByLayer
370
13
48
1
60
0
100
AcDbLine
10
112.542968
20
1.491758
30
0
11
120.017687
21
22.027901
31
0
39
0
210
0
220
0
230
1
0
LINE
5
AD
100
AcDbEntity
8
SK2
62
256
6
ByLayer
370
13
48
1
60
0
100
AcDbLine
10
112.542968
20
-1.491758
30
0
11
120.017687
21
-22.027901
31
0
39
0
210
0
220
0
230
1
0
LINE
5
AE
100
AcDbEntity
8
1
62
256
6
ByLayer
370
13
48
1
60
0
100
AcDbLine
10
118.931751
20
19.044385
30
0
11
122.028759
21
18.229597
31
0
39
0
210
0
220
0
230
1
0
LINE
5
AF
100
AcDbEntity
8
1
62
256
6
ByLayer
370
13
48
1
60
0
100
AcDbLine
10
118.931751
20
19.044385
30
0
11
121.712351
21
17.455794
31
0
39
0
210
0
220
0
230
1
0
LINE
5
B0
100
AcDbEntity
8
1
62
256
6
ByLayer
370
13
48
1
60
0
100
AcDbLine
10
122.028759
20
18.229597
30
0
11
121.712351
21
17.455794
31
0
39
0
210
0
220
0
230
1
0
LINE
5
B1
100
AcDbEntity
8
1
62
256
6
ByLayer
370
13
48
1
60
0
100
AcDbLine
10
118.931751
20
-19.044385
30
0
11
121.712348
21
-17.455795
31
0
39
0
210
0
220
0
230
1
0
LINE
5
B2
100
AcDbEntity
8
1
62
256
6
ByLayer
370
13
48
1
60
0
100
AcDbLine
10
118.931751
20
-19.044385
30
0
11
122.028762
21
-18.229596
31
0
39
0
210
0
220
0
230
1
0
LINE
5
B3
100
AcDbEntity
8
1
62
256
6
ByLayer
370
13
48
1
60
0
100
AcDbLine
10
121.712348
20
-17.455795
30
0
11
122.028762
21
-18.229596
31
0
39
0
210
0
220
0
230
1
0
MTEXT
5
109
100
AcDbEntity
8
SK2
62
256
6
ByLayer
370
18
48
1
60
0
100
AcDbMText
10
125.984055
20
-2.467451
30
0
210
0
220
0
230
1
1
\W0.7237;140.00
40
3.50012
41
0
44
1.084337
50
0
71
7
72
5
7
iso_b_vert
0
MTEXT
5
10C
100
AcDbEntity
8
SK6
62
256
6
ByLayer
370
18
48
1
60
0
100
AcDbMText
10
-2.575221
20
-67.182027
30
0
210
0
220
0
230
1
1
\W0.7494;860.1-0940-076A1-GM X1BM
40
3.175
41
0
44
1.084337
50
0
71
7
72
5
7
iso_b_vert
0
DIMENSION
5
10F
100
AcDbEntity
8
SK2
62
256
6
ByLayer
370
18
48
1
60
0
100
AcDbDimension
2
_U0
10
112
20
-28.766787
30
0
11
56
21
-28.766787
31
0
70
32
71
2
72
1
41
1
210
0
220
0
230
1
3
Standard
100
AcDbAlignedDimension
13
0
23
-5
33
0
14
112
24
0
34
0
50
0
100
AcDbRotatedDimension
1001
ACAD
1000
DSTYLE
1002
{
1070
   371
1070
    13
1070
   372
1070
    13
1070
     3
1000

1070
   170
1070
     0
1070
   144
1040
1.0
1070
   277
1070
     2
1070
   284
1070
     8
1070
   278
1070
    46
1070
   146
1040
0.999966
1070
   345
1005
16
1070
   347
1005
16
1070
   346
1005
16
1070
   344
1005
110
1070
   343
1005
110
1070
   172
1070
     1
1070
    76
1070
     0
1070
    75
1070
     0
1070
   282
1070
     0
1070
   281
1070
     0
1070
    71
1070
     0
1070
    74
1070
     0
1070
   279
1070
     0
1070
   173
1070
     1
1070
   340
1005
10A
1070
   271
1070
     1
1070
   272
1070
     2
1070
    77
1070
     1
1070
    73
1070
     1
1070
   171
1070
     3
1070
   274
1070
     4
1070
   177
1070
   150
1070
   176
1070
     9
1070
   178
1070
    43
1070
    78
1070
     8
1070
    48
1040
-0.1
1070
    41
1040
3.175
1070
   147
1040
1.75006
1070
    42
1040
1.5875
1070
    44
1040
3.175
1070
   140
1040
3.50012
1002
}
1001
ACAD_DSTYLE_DIM_LINETYPE
1070
   380
1005
16
1001
ACAD_DSTYLE_DIM_EXT1_LINETYPE
1070
   381
1005
16
1001
ACAD_DSTYLE_DIM_EXT2_LINETYPE
1070
   382
1005
16
0
DIMENSION
5
135
100
AcDbEntity
8
2
62
256
6
ByLayer
370
18
48
1
60
0
100
AcDbDimension
2
_U1
10
118.75006
20
4.7
30
0
11
118.75006
21
20.356569
31
0
70
32
71
1
72
1
41
1
210
0
220
0
230
1
3
Standard
100
AcDbAlignedDimension
13
110.2893
23
-4.7
33
0
14
110.2893
24
4.7
34
0
50
90
100
AcDbRotatedDimension
1001
ACAD
1000
DSTYLE
1002
{
1070
   371
1070
    13
1070
   372
1070
    13
1070
     3
1000

1070
   170
1070
     0
1070
   144
1040
1.0
1070
   277
1070
     2
1070
   284
1070
     8
1070
   278
1070
    46
1070
   146
1040
0.999966
1070
   345
1005
16
1070
   347
1005
16
1070
   346
1005
16
1070
   344
1005
110
1070
   343
1005
110
1070
   172
1070
     1
1070
    76
1070
     0
1070
    75
1070
     0
1070
   282
1070
     0
1070
   281
1070
     0
1070
    71
1070
     0
1070
    74
1070
     0
1070
   279
1070
     0
1070
   173
1070
     1
1070
   340
1005
10A
1070
   271
1070
     1
1070
   272
1070
     2
1070
    77
1070
     1
1070
    73
1070
     0
1070
   171
1070
     3
1070
   274
1070
     4
1070
   177
1070
   150
1070
   176
1070
     9
1070
   178
1070
    43
1070
    78
1070
     8
1070
    48
1040
-0.1
1070
    41
1040
3.175
1070
   147
1040
1.75006
1070
    42
1040
1.5875
1070
    44
1040
3.175
1070
   140
1040
3.50012
1002
}
1001
ACAD_DSTYLE_DIM_LINETYPE
1070
   380
1005
16
1001
ACAD_DSTYLE_DIM_EXT1_LINETYPE
1070
   381
1005
16
1001
ACAD_DSTYLE_DIM_EXT2_LINETYPE
1070
   382
1005
16
0
DIMENSION
5
154
100
AcDbEntity
8
SK2
62
256
6
ByLayer
370
18
48
1
60
0
100
AcDbDimension
2
_U2
10
-43.316607
20
-5
30
0
11
-43.316607
21
20.111003
31
0
70
32
71
1
72
1
41
1
210
0
220
0
230
1
3
Standard
100
AcDbAlignedDimension
13
-40
23
5
33
0
14
-40
24
-5
34
0
50
90
100
AcDbRotatedDimension
1001
ACAD
1000
DSTYLE
1002
{
1070
   371
1070
    13
1070
   372
1070
    13
1070
     3
1000

1070
   170
1070
     0
1070
   144
1040
1.0
1070
   277
1070
     2
1070
   284
1070
     8
1070
   278
1070
    46
1070
   146
1040
0.999966
1070
   345
1005
16
1070
   347
1005
16
1070
   346
1005
16
1070
   344
1005
110
1070
   343
1005
110
1070
   172
1070
     1
1070
    76
1070
     0
1070
    75
1070
     0
1070
   282
1070
     0
1070
   281
1070
     0
1070
    71
1070
     0
1070
    74
1070
     0
1070
   279
1070
     0
1070
   173
1070
     1
1070
   340
1005
10A
1070
   271
1070
     1
1070
   272
1070
     2
1070
    77
1070
     1
1070
    73
1070
     0
1070
   171
1070
     3
1070
   274
1070
     4
1070
   177
1070
   150
1070
   176
1070
     9
1070
   178
1070
    43
1070
    78
1070
     8
1070
    48
1040
-0.1
1070
    41
1040
3.175
1070
   147
1040
1.75006
1070
    42
1040
1.5875
1070
    44
1040
3.175
1070
   140
1040
3.50012
1002
}
1001
ACAD_DSTYLE_DIM_LINETYPE
1070
   380
1005
16
1001
ACAD_DSTYLE_DIM_EXT1_LINETYPE
1070
   381
1005
16
1001
ACAD_DSTYLE_DIM_EXT2_LINETYPE
1070
   382
1005
16
0
DIMENSION
5
172
100
AcDbEntity
8
SK2
62
256
6
ByLayer
370
18
48
1
60
0
100
AcDbDimension
2
_U3
10
0
20
-28.766787
30
0
11
-20
21
-28.766787
31
0
70
32
71
1
72
1
41
1
210
0
220
0
230
1
3
Standard
100
AcDbAlignedDimension
13
-40
23
-5
33
0
14
0
24
-5
34
0
50
0
100
AcDbRotatedDimension
1001
ACAD
1000
DSTYLE
1002
{
1070
   371
1070
    13
1070
   372
1070
    13
1070
     3
1000

1070
   170
1070
     0
1070
   144
1040
1.0
1070
   277
1070
     2
1070
   284
1070
     8
1070
   278
1070
    46
1070
   146
1040
0.999966
1070
   345
1005
16
1070
   347
1005
16
1070
   346
1005
16
1070
   344
1005
110
1070
   343
1005
110
1070
   172
1070
     1
1070
    76
1070
     0
1070
    75
1070
     0
1070
   282
1070
     0
1070
   281
1070
     0
1070
    71
1070
     0
1070
    74
1070
     0
1070
   279
1070
     0
1070
   173
1070
     1
1070
   340
1005
10A
1070
   271
1070
     1
1070
   272
1070
     2
1070
    77
1070
     1
1070
    73
1070
     1
1070
   171
1070
     3
1070
   274
1070
     4
1070
   177
1070
   150
1070
   176
1070
     9
1070
   178
1070
    43
1070
    78
1070
     8
1070
    48
1040
-0.1
1070
    41
1040
3.175
1070
   147
1040
1.75006
1070
    42
1040
1.5875
1070
    44
1040
3.175
1070
   140
1040
3.50012
1002
}
1001
ACAD_DSTYLE_DIM_LINETYPE
1070
   380
1005
16
1001
ACAD_DSTYLE_DIM_EXT1_LINETYPE
1070
   381
1005
16
1001
ACAD_DSTYLE_DIM_EXT2_LINETYPE
1070
   382
1005
16
0
DIMENSION
5
18E
100
AcDbEntity
8
SK2
62
256
6
ByLayer
370
18
48
1
60
0
100
AcDbDimension
2
_U4
10
112
20
-20.016487
30
0
11
59
21
-20.016487
31
0
70
32
71
1
72
1
41
1
210
0
220
0
230
1
3
Standard
100
AcDbAlignedDimension
13
6
23
5.2
33
0
14
112
24
0
34
0
50
0
100
AcDbRotatedDimension
1001
ACAD
1000
DSTYLE
1002
{
1070
   371
1070
    13
1070
   372
1070
    13
1070
     3
1000

1070
   170
1070
     0
1070
   144
1040
1.0
1070
   277
1070
     2
1070
   284
1070
     8
1070
   278
1070
    46
1070
   146
1040
0.999966
1070
   345
1005
16
1070
   347
1005
16
1070
   346
1005
16
1070
   344
1005
110
1070
   343
1005
110
1070
   172
1070
     1
1070
    76
1070
     0
1070
    75
1070
     0
1070
   282
1070
     0
1070
   281
1070
     0
1070
    71
1070
     0
1070
    74
1070
     0
1070
   279
1070
     0
1070
   173
1070
     1
1070
   340
1005
10A
1070
   271
1070
     1
1070
   272
1070
     2
1070
    77
1070
     1
1070
    73
1070
     1
1070
   171
1070
     3
1070
   274
1070
     4
1070
   177
1070
   150
1070
   176
1070
     9
1070
   178
1070
    43
1070
    78
1070
     8
1070
    48
1040
-0.1
1070
    41
1040
3.175
1070
   147
1040
1.75006
1070
    42
1040
1.5875
1070
    44
1040
3.175
1070
   140
1040
3.50012
1002
}
1001
ACAD_DSTYLE_DIM_LINETYPE
1070
   380
1005
16
1001
ACAD_DSTYLE_DIM_EXT1_LINETYPE
1070
   381
1005
16
1001
ACAD_DSTYLE_DIM_EXT2_LINETYPE
1070
   382
1005
16
0
DIMENSION
5
1AA
100
AcDbEntity
8
SK2
62
256
6
ByLayer
370
18
48
1
60
0
100
AcDbDimension
2
_U5
10
112
20
-11.886667
30
0
11
73.55
21
-11.886667
31
0
70
32
71
1
72
1
41
1
210
0
220
0
230
1
3
Standard
100
AcDbAlignedDimension
13
35.1
23
-4.7
33
0
14
112
24
0
34
0
50
0
100
AcDbRotatedDimension
1001
ACAD
1000
DSTYLE
1002
{
1070
   371
1070
    13
1070
   372
1070
    13
1070
     3
1000

1070
   170
1070
     0
1070
   144
1040
1.0
1070
   277
1070
     2
1070
   284
1070
     8
1070
   278
1070
    46
1070
   146
1040
1.25
1070
   345
1005
16
1070
   347
1005
16
1070
   346
1005
16
1070
   344
1005
110
1070
   343
1005
110
1070
   172
1070
     1
1070
    76
1070
     0
1070
    75
1070
     0
1070
   282
1070
     0
1070
   281
1070
     0
1070
    71
1070
     0
1070
    74
1070
     0
1070
   279
1070
     0
1070
   173
1070
     1
1070
   340
1005
10A
1070
   271
1070
     1
1070
   272
1070
     2
1070
    77
1070
     1
1070
    73
1070
     1
1070
   171
1070
     3
1070
   274
1070
     4
1070
   177
1070
   150
1070
   176
1070
     9
1070
   178
1070
    43
1070
    78
1070
     8
1070
    48
1040
-0.1
1070
    41
1040
3.175
1070
   147
1040
0.42
1070
    42
1040
1.5875
1070
    44
1040
0.5
1070
   140
1040
2.8
1002
}
1001
ACAD_DSTYLE_DIM_LINETYPE
1070
   380
1005
16
1001
ACAD_DSTYLE_DIM_EXT1_LINETYPE
1070
   381
1005
16
1001
ACAD_DSTYLE_DIM_EXT2_LINETYPE
1070
   382
1005
16
0
DIMENSION
5
1C6
100
AcDbEntity
8
SK2
62
256
6
ByLayer
370
18
48
1
60
0
100
AcDbDimension
2
_U6
10
112
20
-38.90012
30
0
11
36
21
-38.90012
31
0
70
32
71
1
72
1
41
1
210
0
220
0
230
1
3
Standard
100
AcDbAlignedDimension
13
-40
23
0
33
0
14
112
24
0
34
0
50
0
100
AcDbRotatedDimension
1001
ACAD
1000
DSTYLE
1002
{
1070
   371
1070
    13
1070
   372
1070
    13
1070
     3
1000

1070
   170
1070
     0
1070
   144
1040
1.0
1070
   277
1070
     2
1070
   284
1070
     8
1070
   278
1070
    46
1070
   146
1040
0.999966
1070
   345
1005
16
1070
   347
1005
16
1070
   346
1005
16
1070
   344
1005
110
1070
   343
1005
110
1070
   172
1070
     1
1070
    76
1070
     0
1070
    75
1070
     0
1070
   282
1070
     0
1070
   281
1070
     0
1070
    71
1070
     0
1070
    74
1070
     0
1070
   279
1070
     0
1070
   173
1070
     1
1070
   340
1005
10A
1070
   271
1070
     1
1070
   272
1070
     2
1070
    77
1070
     1
1070
    73
1070
     1
1070
   171
1070
     3
1070
   274
1070
     4
1070
   177
1070
   150
1070
   176
1070
     9
1070
   178
1070
    43
1070
    78
1070
     8
1070
    48
1040
-0.1
1070
    41
1040
3.175
1070
   147
1040
1.75006
1070
    42
1040
1.5875
1070
    44
1040
3.175
1070
   140
1040
3.50012
1002
}
1001
ACAD_DSTYLE_DIM_LINETYPE
1070
   380
1005
16
1001
ACAD_DSTYLE_DIM_EXT1_LINETYPE
1070
   381
1005
16
1001
ACAD_DSTYLE_DIM_EXT2_LINETYPE
1070
   382
1005
16
0
ENDSEC
0
SECTION
2
OBJECTS
0
DICTIONARY
5
252
330
0
100
AcDbDictionary
280
0
281
1
3
ACAD_GROUP
350
253
3
ACAD_MLINESTYLE
350
254
0
DICTIONARY
5
253
330
0
100
AcDbDictionary
280
0
281
1
0
DICTIONARY
5
254
330
0
100
AcDbDictionary
280
0
281
1
3
Standard
350
18
0
MLINESTYLE
5
18
330
254
100
AcDbMlineStyle
2
Standard
70
0
3

62
256
51
90
52
90
71
2
49
-0.5
62
256
6
ByLayer
49
0.5
62
256
6
ByLayer
0
RASTERVARIABLES
5
240
330

100
AcDbRasterVariables
90
0
70
1
71
1
72
1
0
ENDSEC
0
EOF
