0
SECTION
2
HEADER
9
$ACADVER
1
AC1015
9
$DWGCODEPAGE
3
ANSI_1252
9
$HANDSEED
5
263
9
$ANGBASE
50
0
9
$ANGDIR
70
0
9
$ATTMODE
70
1
9
$AUNITS
70
0
9
$AUPREC
70
0
9
$CECOLOR
62
256
9
$CELTSCALE
40
1
9
$CELTYPE
6
ByLayer
9
$CELWEIGHT
370
18
9
$CLAYER
8
0
9
$CMLJUST
70
0
9
$CMLSCALE
40
1
9
$CMLSTYLE
2
Standard
9
$DIMSTYLE
2
Standard
9
$TEXTSIZE
40
0.2
9
$TEXTSTYLE
7
Standard
9
$LUNITS
70
2
9
$LUPREC
70
4
9
$EXTNAMES
290
1
9
$INSUNITS
70
4
9
$LTSCALE
40
1
9
$LWDISPLAY
290
1
9
$PDMODE
70
0
9
$PDSIZE
40
0
9
$PLINEGEN
70
0
0
ENDSEC
0
SECTION
2
CLASSES
0
CLASS
1
RASTERVARIABLES
2
AcDbRasterVariables
3
ISM
90
0
280
0
281
0
0
ENDSEC
0
SECTION
2
TABLES
0
TABLE
2
VPORT
5
259
100
AcDbSymbolTable
0
VPORT
5
1
100
AcDbSymbolTableRecord
100
AcDbViewportTableRecord
2
*Active
70
0
10
0
20
0
11
1
21
1
12
-1
22
1
13
0
23
0
14
0.5
24
0.5
15
10
25
10
16
0
26
0
36
1
17
0
27
0
37
0
0
ENDTAB
0
TABLE
2
LTYPE
5
25a
100
AcDbSymbolTable
0
LTYPE
5
14
100
AcDbSymbolTableRecord
100
AcDbLinetypeTableRecord
70
0
2
ByBlock
3

72
65
73
0
40
0
0
LTYPE
5
15
100
AcDbSymbolTableRecord
100
AcDbLinetypeTableRecord
70
0
2
ByLayer
3

72
65
73
0
40
0
0
LTYPE
5
16
100
AcDbSymbolTableRecord
100
AcDbLinetypeTableRecord
70
0
2
Continuous
3
Solid line
72
65
73
0
40
0
0
LTYPE
5
6E
100
AcDbSymbolTableRecord
100
AcDbLinetypeTableRecord
70
0
2
CENTER
3
____ _ ____ _ ____ _ ____
72
65
73
4
40
47.5
49
22
74
0
49
-8.5
74
0
49
8.5
74
0
49
-8.5
74
0
0
LTYPE
5
6F
100
AcDbSymbolTableRecord
100
AcDbLinetypeTableRecord
70
0
2
DASHED
3
__ __ __ __ __ __ __ __ __
72
65
73
2
40
25.72
49
12.86
74
0
49
-12.86
74
0
0
ENDTAB
0
TABLE
2
LAYER
5
25b
100
AcDbSymbolTable
0
LAYER
5
10
100
AcDbSymbolTableRecord
100
AcDbLayerTableRecord
2
0
70
0
62
7
6
Continuous
290
1
370
-3
390
0
0
LAYER
5
71
100
AcDbSymbolTableRecord
100
AcDbLayerTableRecord
2
80
70
0
62
-6
6
Continuous
290
1
370
-3
390
0
0
LAYER
5
73
100
AcDbSymbolTableRecord
100
AcDbLayerTableRecord
2
81
70
0
62
-3
6
Continuous
290
1
370
-3
390
0
0
LAYER
5
75
100
AcDbSymbolTableRecord
100
AcDbLayerTableRecord
2
1
70
0
62
4
6
Continuous
290
1
370
-3
390
0
0
LAYER
5
AA
100
AcDbSymbolTableRecord
100
AcDbLayerTableRecord
2
4
70
0
62
-2
6
CENTER
290
1
370
-3
390
0
0
LAYER
5
11D
100
AcDbSymbolTableRecord
100
AcDbLayerTableRecord
2
Defpoints
70
0
62
7
6
Continuous
290
0
370
-3
390
0
0
LAYER
5
14A
100
AcDbSymbolTableRecord
100
AcDbLayerTableRecord
2
2
70
0
62
7
6
Continuous
290
1
370
-3
390
0
0
LAYER
5
245
100
AcDbSymbolTableRecord
100
AcDbLayerTableRecord
2
SK1
70
0
62
4
6
Continuous
290
1
370
-3
390
0
0
LAYER
5
246
100
AcDbSymbolTableRecord
100
AcDbLayerTableRecord
2
SK4
70
0
62
2
6
CENTER
290
1
370
-3
390
0
0
LAYER
5
247
100
AcDbSymbolTableRecord
100
AcDbLayerTableRecord
2
SK2
70
0
62
7
6
Continuous
290
1
370
-3
390
0
0
LAYER
5
248
100
AcDbSymbolTableRecord
100
AcDbLayerTableRecord
2
SK6
70
0
62
5
6
Continuous
290
1
370
-3
390
0
0
ENDTAB
0
TABLE
2
STYLE
5
25c
100
AcDbSymbolTable
0
STYLE
5
11
100
AcDbSymbolTableRecord
100
AcDbTextStyleTableRecord
2
Standard
3
txt
70
0
71
0
40
0
41
1
42
0
50
0
0
STYLE
5
10E
100
AcDbSymbolTableRecord
100
AcDbTextStyleTableRecord
2
iso_b_vert
3
simplex.shx
70
0
71
0
40
0
41
1
42
0
50
0
0
STYLE
5
10F
100
AcDbSymbolTableRecord
100
AcDbTextStyleTableRecord
2
DWGDirectTextStyle
3
simplex
70
0
71
0
40
0
41
1
42
0
50
0
0
ENDTAB
0
TABLE
2
DIMSTYLE
5
25d
100
AcDbSymbolTable
100
AcDbDimStyleTable
0
DIMSTYLE
105
27
100
AcDbSymbolTableRecord
100
AcDbDimStyleTableRecord
2
Standard
70
0
3
<>
41
0.18
42
0.0625
44
0.18
140
0.18
147
0.09
73
0
74
0
77
1
271
2
275
0
278
52
280
0
340
11
0
ENDTAB
0
TABLE
2
VIEW
5
25e
100
AcDbSymbolTable
0
ENDTAB
0
TABLE
2
UCS
5
25f
100
AcDbSymbolTable
0
ENDTAB
0
TABLE
2
APPID
5
260
100
AcDbSymbolTable
0
APPID
5
12
100
AcDbSymbolTableRecord
100
AcDbRegAppTableRecord
2
ACAD
70
0
0
APPID
5
112
100
AcDbSymbolTableRecord
100
AcDbRegAppTableRecord
2
ACAD_DSTYLE_DIMBREAK
70
0
0
APPID
5
204
100
AcDbSymbolTableRecord
100
AcDbRegAppTableRecord
2
ACAD_DSTYLE_DIM_LINETYPE
70
0
0
APPID
5
205
100
AcDbSymbolTableRecord
100
AcDbRegAppTableRecord
2
ACAD_DSTYLE_DIM_EXT1_LINETYPE
70
0
0
APPID
5
206
100
AcDbSymbolTableRecord
100
AcDbRegAppTableRecord
2
ACAD_DSTYLE_DIM_EXT2_LINETYPE
70
0
0
APPID
5
241
100
AcDbSymbolTableRecord
100
AcDbRegAppTableRecord
2
ACAD_MLEADERVER
70
0
0
ENDTAB
0
TABLE
2
BLOCK_RECORD
5
261
100
AcDbSymbolTable
0
BLOCK_RECORD
5
1F
100
AcDbSymbolTableRecord
100
AcDbBlockTableRecord
2
*Model_Space
340
0
70
0
0
BLOCK_RECORD
5
1B
100
AcDbSymbolTableRecord
100
AcDbBlockTableRecord
2
*Paper_Space
340
0
70
0
0
BLOCK_RECORD
5
23
100
AcDbSymbolTableRecord
100
AcDbBlockTableRecord
2
*Paper_Space0
340
0
70
0
0
BLOCK_RECORD
5
114
100
AcDbSymbolTableRecord
100
AcDbBlockTableRecord
2
_Closed
340
0
70
0
0
BLOCK_RECORD
5
11E
100
AcDbSymbolTableRecord
100
AcDbBlockTableRecord
2
*D2
340
0
70
0
0
BLOCK_RECORD
5
12A
100
AcDbSymbolTableRecord
100
AcDbBlockTableRecord
2
_U0
340
0
70
0
0
BLOCK_RECORD
5
13C
100
AcDbSymbolTableRecord
100
AcDbBlockTableRecord
2
*D4
340
0
70
0
0
BLOCK_RECORD
5
14B
100
AcDbSymbolTableRecord
100
AcDbBlockTableRecord
2
_U1
340
0
70
0
0
BLOCK_RECORD
5
15B
100
AcDbSymbolTableRecord
100
AcDbBlockTableRecord
2
*D6
340
0
70
0
0
BLOCK_RECORD
5
169
100
AcDbSymbolTableRecord
100
AcDbBlockTableRecord
2
_U2
340
0
70
0
0
BLOCK_RECORD
5
179
100
AcDbSymbolTableRecord
100
AcDbBlockTableRecord
2
*D8
340
0
70
0
0
BLOCK_RECORD
5
185
100
AcDbSymbolTableRecord
100
AcDbBlockTableRecord
2
_U3
340
0
70
0
0
BLOCK_RECORD
5
195
100
AcDbSymbolTableRecord
100
AcDbBlockTableRecord
2
*D10
340
0
70
0
0
BLOCK_RECORD
5
1A1
100
AcDbSymbolTableRecord
100
AcDbBlockTableRecord
2
_U4
340
0
70
0
0
BLOCK_RECORD
5
1B1
100
AcDbSymbolTableRecord
100
AcDbBlockTableRecord
2
*D12
340
0
70
0
0
BLOCK_RECORD
5
1BD
100
AcDbSymbolTableRecord
100
AcDbBlockTableRecord
2
_U5
340
0
70
0
0
BLOCK_RECORD
5
1CD
100
AcDbSymbolTableRecord
100
AcDbBlockTableRecord
2
*D14
340
0
70
0
0
BLOCK_RECORD
5
1D9
100
AcDbSymbolTableRecord
100
AcDbBlockTableRecord
2
_U6
340
0
70
0
0
ENDTAB
0
ENDSEC
0
SECTION
2
BLOCKS
0
BLOCK
5
20
100
AcDbEntity
8
0
100
AcDbBlockBegin
2
*Model_Space
70
0
10
0
20
0
30
0
3
*Model_Space
0
ENDBLK
5
21
100
AcDbEntity
8
0
100
AcDbBlockEnd
0
BLOCK
5
1C
100
AcDbEntity
8
0
100
AcDbBlockBegin
2
*Paper_Space
70
0
10
0
20
0
30
0
3
*Paper_Space
0
ENDBLK
5
1D
100
AcDbEntity
8
0
100
AcDbBlockEnd
0
BLOCK
5
24
100
AcDbEntity
8
0
100
AcDbBlockBegin
2
*Paper_Space0
70
0
10
0
20
0
30
0
3
*Paper_Space0
0
ENDBLK
5
25
100
AcDbEntity
8
0
100
AcDbBlockEnd
0
BLOCK
5
115
100
AcDbEntity
8
0
100
AcDbBlockBegin
2
_Closed
70
0
10
0
20
0
30
0
3
_Closed
0
LINE
5
117
100
AcDbEntity
8
0
62
256
6
ByLayer
370
-2
48
1
60
0
100
AcDbLine
10
-1
20
0.166667
30
0
11
0
21
0
31
0
39
0
210
0
220
0
230
1
0
LINE
5
118
100
AcDbEntity
8
0
62
256
6
ByLayer
370
-2
48
1
60
0
100
AcDbLine
10
0
20
0
30
0
11
-1
21
-0.166667
31
0
39
0
210
0
220
0
230
1
0
LINE
5
119
100
AcDbEntity
8
0
62
256
6
ByLayer
370
-2
48
1
60
0
100
AcDbLine
10
-1
20
0.166667
30
0
11
-1
21
-0.166667
31
0
39
0
210
0
220
0
230
1
0
LINE
5
11A
100
AcDbEntity
8
0
62
256
6
ByLayer
370
-2
48
1
60
0
100
AcDbLine
10
0
20
0
30
0
11
-1
21
0
31
0
39
0
210
0
220
0
230
1
0
ENDBLK
5
116
100
AcDbEntity
8
0
100
AcDbBlockEnd
0
BLOCK
5
11F
100
AcDbEntity
8
0
100
AcDbBlockBegin
2
*D2
70
1
10
0
20
0
30
0
3
*D2
0
LINE
5
121
100
AcDbEntity
8
0
62
256
6
ByLayer
370
-2
48
1
60
0
100
AcDbLine
10
0
20
-5.5875
30
0
11
0
21
-30.67512
31
0
39
0
210
0
220
0
230
1
0
LINE
5
122
100
AcDbEntity
8
0
62
256
6
ByLayer
370
-2
48
1
60
0
100
AcDbLine
10
90
20
-1.5875
30
0
11
90
21
-30.67512
31
0
39
0
210
0
220
0
230
1
0
LINE
5
123
100
AcDbEntity
8
0
62
256
6
ByLayer
370
-2
48
1
60
0
100
AcDbLine
10
3.175
20
-27.50012
30
0
11
86.825
21
-27.50012
31
0
39
0
210
0
220
0
230
1
0
SOLID
5
124
100
AcDbEntity
8
0
62
256
6
ByLayer
370
-1
48
1
60
0
100
AcDbTrace
10
3.175
20
-26.970953
30
0
11
3.175
21
-28.029287
31
0
12
0
22
-27.50012
32
0
13
0
23
-27.50012
33
0
39
0
210
0
220
0
230
1
0
SOLID
5
125
100
AcDbEntity
8
0
62
256
6
ByLayer
370
-1
48
1
60
0
100
AcDbTrace
10
86.825
20
-28.029287
30
0
11
86.825
21
-26.970953
31
0
12
90
22
-27.50012
32
0
13
90
23
-27.50012
33
0
39
0
210
0
220
0
230
1
0
MTEXT
5
126
100
AcDbEntity
8
0
62
256
6
ByLayer
370
18
48
1
60
0
100
AcDbMText
10
45
20
-20.193619
30
0
210
0
220
0
230
1
1
\A1;90
40
3.50012
41
0
44
1
50
0
71
5
72
5
7
iso_b_vert
0
POINT
5
127
100
AcDbEntity
8
Defpoints
62
0
6
ByLayer
370
-1
48
1
60
0
100
AcDbPoint
10
0
20
-4
30
0
39
0
210
0
220
0
230
1
50
360
0
POINT
5
128
100
AcDbEntity
8
Defpoints
62
0
6
ByLayer
370
-1
48
1
60
0
100
AcDbPoint
10
90
20
0
30
0
39
0
210
0
220
0
230
1
50
360
0
POINT
5
129
100
AcDbEntity
8
Defpoints
62
0
6
ByLayer
370
-1
48
1
60
0
100
AcDbPoint
10
90
20
-27.50012
30
0
39
0
210
0
220
0
230
1
50
360
0
ENDBLK
5
120
100
AcDbEntity
8
0
100
AcDbBlockEnd
0
BLOCK
5
137
100
AcDbEntity
8
0
100
AcDbBlockBegin
2
_U0
70
0
10
0
20
0
30
0
3
_U0
0
MTEXT
5
12B
100
AcDbEntity
8
SK2
62
256
6
ByLayer
370
18
48
1
60
0
100
AcDbMText
10
39.770389
20
-26.467451
30
0
210
0
220
0
230
1
1
\W0.7468;90.00
40
3.50012
41
0
44
1.084337
50
0
71
7
72
5
7
iso_b_vert
0
MTEXT
5
12C
100
AcDbEntity
8
SK2
62
256
6
ByLayer
370
18
48
1
60
0
100
AcDbMText
10
36.244329
20
-26.400814
30
0
210
0
220
0
230
1
1
\W0.1790;(
40
3.175
41
0
44
1.084337
50
0
71
7
72
5
7
iso_b_vert
0
MTEXT
5
12D
100
AcDbEntity
8
SK2
62
256
6
ByLayer
370
18
48
1
60
0
100
AcDbMText
10
53.758393
20
-26.400814
30
0
210
0
220
0
230
1
1
\W0.1969;)
40
3.175
41
0
44
1.084337
50
0
71
7
72
5
7
iso_b_vert
0
LINE
5
12E
100
AcDbEntity
8
SK2
62
256
6
ByLayer
370
13
48
1
60
0
100
AcDbLine
10
0
20
-5.5875
30
0
11
0
21
-30.67512
31
0
39
0
210
0
220
0
230
1
0
LINE
5
12F
100
AcDbEntity
8
SK2
62
256
6
ByLayer
370
13
48
1
60
0
100
AcDbLine
10
90
20
-1.5875
30
0
11
90
21
-30.67512
31
0
39
0
210
0
220
0
230
1
0
LINE
5
130
100
AcDbEntity
8
SK2
62
256
6
ByLayer
370
13
48
1
60
0
100
AcDbLine
10
0
20
-27.50012
30
0
11
90
21
-27.50012
31
0
39
0
210
0
220
0
230
1
0
LINE
5
131
100
AcDbEntity
8
SK2
62
256
6
ByLayer
370
13
48
1
60
0
100
AcDbLine
10
0
20
-27.50012
30
0
11
3.174998
21
-27.082123
31
0
39
0
210
0
220
0
230
1
0
LINE
5
132
100
AcDbEntity
8
SK2
62
256
6
ByLayer
370
13
48
1
60
0
100
AcDbLine
10
0
20
-27.50012
30
0
11
3.175002
21
-27.918117
31
0
39
0
210
0
220
0
230
1
0
LINE
5
133
100
AcDbEntity
8
SK2
62
256
6
ByLayer
370
13
48
1
60
0
100
AcDbLine
10
3.174998
20
-27.082123
30
0
11
3.175002
21
-27.918117
31
0
39
0
210
0
220
0
230
1
0
LINE
5
134
100
AcDbEntity
8
SK2
62
256
6
ByLayer
370
13
48
1
60
0
100
AcDbLine
10
90
20
-27.50012
30
0
11
86.825002
21
-27.918117
31
0
39
0
210
0
220
0
230
1
0
LINE
5
135
100
AcDbEntity
8
SK2
62
256
6
ByLayer
370
13
48
1
60
0
100
AcDbLine
10
90
20
-27.50012
30
0
11
86.824998
21
-27.082123
31
0
39
0
210
0
220
0
230
1
0
LINE
5
136
100
AcDbEntity
8
SK2
62
256
6
ByLayer
370
13
48
1
60
0
100
AcDbLine
10
86.825002
20
-27.918117
30
0
11
86.824998
21
-27.082123
31
0
39
0
210
0
220
0
230
1
0
ENDBLK
5
138
100
AcDbEntity
8
0
100
AcDbBlockEnd
0
BLOCK
5
13D
100
AcDbEntity
8
0
100
AcDbBlockBegin
2
*D4
70
1
10
0
20
0
30
0
3
*D4
0
LINE
5
13F
100
AcDbEntity
8
0
62
256
6
ByLayer
370
-2
48
1
60
0
100
AcDbLine
10
90.168
20
-3.9
30
0
11
99.92506
21
-3.9
31
0
39
0
210
0
220
0
230
1
0
LINE
5
140
100
AcDbEntity
8
0
62
256
6
ByLayer
370
-2
48
1
60
0
100
AcDbLine
10
90.168
20
3.9
30
0
11
99.92506
21
3.9
31
0
39
0
210
0
220
0
230
1
0
LINE
5
141
100
AcDbEntity
8
0
62
256
6
ByLayer
370
-2
48
1
60
0
100
AcDbLine
10
96.75006
20
3.9
30
0
11
96.75006
21
28.696466
31
0
39
0
210
0
220
0
230
1
0
LINE
5
142
100
AcDbEntity
8
0
62
256
6
ByLayer
370
-2
48
1
60
0
100
AcDbLine
10
96.75006
20
-7.075
30
0
11
96.75006
21
-10.25
31
0
39
0
210
0
220
0
230
1
0
LINE
5
143
100
AcDbEntity
8
0
62
256
6
ByLayer
370
-2
48
1
60
0
100
AcDbLine
10
96.75006
20
7.075
30
0
11
96.75006
21
10.25
31
0
39
0
210
0
220
0
230
1
0
SOLID
5
144
100
AcDbEntity
8
0
62
256
6
ByLayer
370
-1
48
1
60
0
100
AcDbTrace
10
97.279227
20
-7.075
30
0
11
96.220893
21
-7.075
31
0
12
96.75006
22
-3.9
32
0
13
96.75006
23
-3.9
33
0
39
0
210
0
220
0
230
1
0
SOLID
5
145
100
AcDbEntity
8
0
62
256
6
ByLayer
370
-1
48
1
60
0
100
AcDbTrace
10
96.220893
20
7.075
30
0
11
97.279227
21
7.075
31
0
12
96.75006
22
3.9
32
0
13
96.75006
23
3.9
33
0
39
0
210
0
220
0
230
1
0
MTEXT
5
146
100
AcDbEntity
8
0
62
256
6
ByLayer
370
18
48
1
60
0
100
AcDbMText
10
89.44356
20
19.473233
30
0
210
0
220
0
230
1
1
\A1;7.8
40
3.50012
41
0
44
1
50
90
71
5
72
5
7
iso_b_vert
0
POINT
5
147
100
AcDbEntity
8
Defpoints
62
0
6
ByLayer
370
-1
48
1
60
0
100
AcDbPoint
10
88.5805
20
-3.9
30
0
39
0
210
0
220
0
230
1
50
360
0
POINT
5
148
100
AcDbEntity
8
Defpoints
62
0
6
ByLayer
370
-1
48
1
60
0
100
AcDbPoint
10
88.5805
20
3.9
30
0
39
0
210
0
220
0
230
1
50
360
0
POINT
5
149
100
AcDbEntity
8
Defpoints
62
0
6
ByLayer
370
-1
48
1
60
0
100
AcDbPoint
10
96.75006
20
3.9
30
0
39
0
210
0
220
0
230
1
50
360
0
ENDBLK
5
13E
100
AcDbEntity
8
0
100
AcDbBlockEnd
0
BLOCK
5
156
100
AcDbEntity
8
0
100
AcDbBlockBegin
2
_U1
70
0
10
0
20
0
30
0
3
_U1
0
MTEXT
5
14C
100
AcDbEntity
8
2
62
256
6
ByLayer
370
18
48
1
60
0
100
AcDbMText
10
96.060403
20
8.057505
30
0
210
0
220
0
230
1
1
\W0.7346;7.80
40
3.50012
41
0
44
1.084337
50
90
71
7
72
5
7
iso_b_vert
0
LINE
5
14D
100
AcDbEntity
8
2
62
256
6
ByLayer
370
13
48
1
60
0
100
AcDbLine
10
90.168
20
-3.9
30
0
11
99.92506
21
-3.9
31
0
39
0
210
0
220
0
230
1
0
LINE
5
14E
100
AcDbEntity
8
2
62
256
6
ByLayer
370
13
48
1
60
0
100
AcDbLine
10
90.168
20
3.9
30
0
11
99.92506
21
3.9
31
0
39
0
210
0
220
0
230
1
0
LINE
5
14F
100
AcDbEntity
8
2
62
256
6
ByLayer
370
13
48
1
60
0
100
AcDbLine
10
96.75006
20
-3.9
30
0
11
96.75006
21
16.11468
31
0
39
0
210
0
220
0
230
1
0
LINE
5
150
100
AcDbEntity
8
2
62
256
6
ByLayer
370
13
48
1
60
0
100
AcDbLine
10
96.75006
20
-3.9
30
0
11
96.332063
21
-0.725002
31
0
39
0
210
0
220
0
230
1
0
LINE
5
151
100
AcDbEntity
8
2
62
256
6
ByLayer
370
13
48
1
60
0
100
AcDbLine
10
96.75006
20
-3.9
30
0
11
97.168057
21
-0.724998
31
0
39
0
210
0
220
0
230
1
0
LINE
5
152
100
AcDbEntity
8
2
62
256
6
ByLayer
370
13
48
1
60
0
100
AcDbLine
10
96.332063
20
-0.725002
30
0
11
97.168057
21
-0.724998
31
0
39
0
210
0
220
0
230
1
0
LINE
5
153
100
AcDbEntity
8
2
62
256
6
ByLayer
370
13
48
1
60
0
100
AcDbLine
10
96.75006
20
3.9
30
0
11
97.168057
21
0.725002
31
0
39
0
210
0
220
0
230
1
0
LINE
5
154
100
AcDbEntity
8
2
62
256
6
ByLayer
370
13
48
1
60
0
100
AcDbLine
10
96.75006
20
3.9
30
0
11
96.332063
21
0.724998
31
0
39
0
210
0
220
0
230
1
0
LINE
5
155
100
AcDbEntity
8
2
62
256
6
ByLayer
370
13
48
1
60
0
100
AcDbLine
10
97.168057
20
0.725002
30
0
11
96.332063
21
0.724998
31
0
39
0
210
0
220
0
230
1
0
ENDBLK
5
157
100
AcDbEntity
8
0
100
AcDbBlockEnd
0
BLOCK
5
15C
100
AcDbEntity
8
0
100
AcDbBlockBegin
2
*D6
70
1
10
0
20
0
30
0
3
*D6
0
LINE
5
15E
100
AcDbEntity
8
0
62
256
6
ByLayer
370
-2
48
1
60
0
100
AcDbLine
10
-37.5875
20
4
30
0
11
-42.42494
21
4
31
0
39
0
210
0
220
0
230
1
0
LINE
5
15F
100
AcDbEntity
8
0
62
256
6
ByLayer
370
-2
48
1
60
0
100
AcDbLine
10
-37.5875
20
-4
30
0
11
-42.42494
21
-4
31
0
39
0
210
0
220
0
230
1
0
LINE
5
160
100
AcDbEntity
8
0
62
256
6
ByLayer
370
-2
48
1
60
0
100
AcDbLine
10
-39.24994
20
4
30
0
11
-39.24994
21
24.830487
31
0
39
0
210
0
220
0
230
1
0
LINE
5
161
100
AcDbEntity
8
0
62
256
6
ByLayer
370
-2
48
1
60
0
100
AcDbLine
10
-39.24994
20
7.175
30
0
11
-39.24994
21
10.35
31
0
39
0
210
0
220
0
230
1
0
LINE
5
162
100
AcDbEntity
8
0
62
256
6
ByLayer
370
-2
48
1
60
0
100
AcDbLine
10
-39.24994
20
-7.175
30
0
11
-39.24994
21
-10.35
31
0
39
0
210
0
220
0
230
1
0
SOLID
5
163
100
AcDbEntity
8
0
62
256
6
ByLayer
370
-1
48
1
60
0
100
AcDbTrace
10
-39.779107
20
7.175
30
0
11
-38.720773
21
7.175
31
0
12
-39.24994
22
4
32
0
13
-39.24994
23
4
33
0
39
0
210
0
220
0
230
1
0
SOLID
5
164
100
AcDbEntity
8
0
62
256
6
ByLayer
370
-1
48
1
60
0
100
AcDbTrace
10
-38.720773
20
-7.175
30
0
11
-39.779107
21
-7.175
31
0
12
-39.24994
22
-4
32
0
13
-39.24994
23
-4
33
0
39
0
210
0
220
0
230
1
0
MTEXT
5
165
100
AcDbEntity
8
0
62
256
6
ByLayer
370
18
48
1
60
0
100
AcDbMText
10
-46.556441
20
18.10734
30
0
210
0
220
0
230
1
1
\A1;8
40
3.50012
41
0
44
1
50
90
71
5
72
5
7
iso_b_vert
0
POINT
5
166
100
AcDbEntity
8
Defpoints
62
0
6
ByLayer
370
-1
48
1
60
0
100
AcDbPoint
10
-36
20
4
30
0
39
0
210
0
220
0
230
1
50
360
0
POINT
5
167
100
AcDbEntity
8
Defpoints
62
0
6
ByLayer
370
-1
48
1
60
0
100
AcDbPoint
10
-36
20
-4
30
0
39
0
210
0
220
0
230
1
50
360
0
POINT
5
168
100
AcDbEntity
8
Defpoints
62
0
6
ByLayer
370
-1
48
1
60
0
100
AcDbPoint
10
-39.24994
20
-4
30
0
39
0
210
0
220
0
230
1
50
360
0
ENDBLK
5
15D
100
AcDbEntity
8
0
100
AcDbBlockEnd
0
BLOCK
5
174
100
AcDbEntity
8
0
100
AcDbBlockBegin
2
_U2
70
0
10
0
20
0
30
0
3
_U2
0
MTEXT
5
16A
100
AcDbEntity
8
SK2
62
256
6
ByLayer
370
18
48
1
60
0
100
AcDbMText
10
-39.939597
20
14.157505
30
0
210
0
220
0
230
1
1
\W0.7346;8.00
40
3.50012
41
0
44
1.084337
50
90
71
7
72
5
7
iso_b_vert
0
LINE
5
16B
100
AcDbEntity
8
SK2
62
256
6
ByLayer
370
13
48
1
60
0
100
AcDbLine
10
-37.5875
20
4
30
0
11
-42.42494
21
4
31
0
39
0
210
0
220
0
230
1
0
LINE
5
16C
100
AcDbEntity
8
SK2
62
256
6
ByLayer
370
13
48
1
60
0
100
AcDbLine
10
-37.5875
20
-4
30
0
11
-42.42494
21
-4
31
0
39
0
210
0
220
0
230
1
0
LINE
5
16D
100
AcDbEntity
8
SK2
62
256
6
ByLayer
370
13
48
1
60
0
100
AcDbLine
10
-39.24994
20
-4
30
0
11
-39.24994
21
22.21468
31
0
39
0
210
0
220
0
230
1
0
LINE
5
16E
100
AcDbEntity
8
SK2
62
256
6
ByLayer
370
13
48
1
60
0
100
AcDbLine
10
-39.24994
20
4
30
0
11
-38.831943
21
0.825002
31
0
39
0
210
0
220
0
230
1
0
LINE
5
16F
100
AcDbEntity
8
SK2
62
256
6
ByLayer
370
13
48
1
60
0
100
AcDbLine
10
-39.24994
20
4
30
0
11
-39.667937
21
0.824998
31
0
39
0
210
0
220
0
230
1
0
LINE
5
170
100
AcDbEntity
8
SK2
62
256
6
ByLayer
370
13
48
1
60
0
100
AcDbLine
10
-38.831943
20
0.825002
30
0
11
-39.667937
21
0.824998
31
0
39
0
210
0
220
0
230
1
0
LINE
5
171
100
AcDbEntity
8
SK2
62
256
6
ByLayer
370
13
48
1
60
0
100
AcDbLine
10
-39.24994
20
-4
30
0
11
-39.667937
21
-0.825002
31
0
39
0
210
0
220
0
230
1
0
LINE
5
172
100
AcDbEntity
8
SK2
62
256
6
ByLayer
370
13
48
1
60
0
100
AcDbLine
10
-39.24994
20
-4
30
0
11
-38.831943
21
-0.824998
31
0
39
0
210
0
220
0
230
1
0
LINE
5
173
100
AcDbEntity
8
SK2
62
256
6
ByLayer
370
13
48
1
60
0
100
AcDbLine
10
-39.667937
20
-0.825002
30
0
11
-38.831943
21
-0.824998
31
0
39
0
210
0
220
0
230
1
0
ENDBLK
5
175
100
AcDbEntity
8
0
100
AcDbBlockEnd
0
BLOCK
5
17A
100
AcDbEntity
8
0
100
AcDbBlockBegin
2
*D8
70
1
10
0
20
0
30
0
3
*D8
0
LINE
5
17C
100
AcDbEntity
8
0
62
256
6
ByLayer
370
-2
48
1
60
0
100
AcDbLine
10
-36
20
-5.5875
30
0
11
-36
21
-30.67512
31
0
39
0
210
0
220
0
230
1
0
LINE
5
17D
100
AcDbEntity
8
0
62
256
6
ByLayer
370
-2
48
1
60
0
100
AcDbLine
10
0
20
-5.5875
30
0
11
0
21
-30.67512
31
0
39
0
210
0
220
0
230
1
0
LINE
5
17E
100
AcDbEntity
8
0
62
256
6
ByLayer
370
-2
48
1
60
0
100
AcDbLine
10
-32.825
20
-27.50012
30
0
11
-3.175
21
-27.50012
31
0
39
0
210
0
220
0
230
1
0
SOLID
5
17F
100
AcDbEntity
8
0
62
256
6
ByLayer
370
-1
48
1
60
0
100
AcDbTrace
10
-32.825
20
-26.970953
30
0
11
-32.825
21
-28.029287
31
0
12
-36
22
-27.50012
32
0
13
-36
23
-27.50012
33
0
39
0
210
0
220
0
230
1
0
SOLID
5
180
100
AcDbEntity
8
0
62
256
6
ByLayer
370
-1
48
1
60
0
100
AcDbTrace
10
-3.175
20
-28.029287
30
0
11
-3.175
21
-26.970953
31
0
12
0
22
-27.50012
32
0
13
0
23
-27.50012
33
0
39
0
210
0
220
0
230
1
0
MTEXT
5
181
100
AcDbEntity
8
0
62
256
6
ByLayer
370
18
48
1
60
0
100
AcDbMText
10
-18
20
-20.193619
30
0
210
0
220
0
230
1
1
\A1;36
40
3.50012
41
0
44
1
50
0
71
5
72
5
7
iso_b_vert
0
POINT
5
182
100
AcDbEntity
8
Defpoints
62
0
6
ByLayer
370
-1
48
1
60
0
100
AcDbPoint
10
-36
20
-4
30
0
39
0
210
0
220
0
230
1
50
360
0
POINT
5
183
100
AcDbEntity
8
Defpoints
62
0
6
ByLayer
370
-1
48
1
60
0
100
AcDbPoint
10
0
20
-4
30
0
39
0
210
0
220
0
230
1
50
360
0
POINT
5
184
100
AcDbEntity
8
Defpoints
62
0
6
ByLayer
370
-1
48
1
60
0
100
AcDbPoint
10
0
20
-27.50012
30
0
39
0
210
0
220
0
230
1
50
360
0
ENDBLK
5
17B
100
AcDbEntity
8
0
100
AcDbBlockEnd
0
BLOCK
5
190
100
AcDbEntity
8
0
100
AcDbBlockBegin
2
_U3
70
0
10
0
20
0
30
0
3
_U3
0
MTEXT
5
186
100
AcDbEntity
8
SK2
62
256
6
ByLayer
370
18
48
1
60
0
100
AcDbMText
10
-23.229611
20
-26.467451
30
0
210
0
220
0
230
1
1
\W0.7468;36.00
40
3.50012
41
0
44
1.084337
50
0
71
7
72
5
7
iso_b_vert
0
LINE
5
187
100
AcDbEntity
8
SK2
62
256
6
ByLayer
370
13
48
1
60
0
100
AcDbLine
10
-36
20
-5.5875
30
0
11
-36
21
-30.67512
31
0
39
0
210
0
220
0
230
1
0
LINE
5
188
100
AcDbEntity
8
SK2
62
256
6
ByLayer
370
13
48
1
60
0
100
AcDbLine
10
0
20
-5.5875
30
0
11
0
21
-30.67512
31
0
39
0
210
0
220
0
230
1
0
LINE
5
189
100
AcDbEntity
8
SK2
62
256
6
ByLayer
370
13
48
1
60
0
100
AcDbLine
10
-36
20
-27.50012
30
0
11
0
21
-27.50012
31
0
39
0
210
0
220
0
230
1
0
LINE
5
18A
100
AcDbEntity
8
SK2
62
256
6
ByLayer
370
13
48
1
60
0
100
AcDbLine
10
-36
20
-27.50012
30
0
11
-32.825002
21
-27.082123
31
0
39
0
210
0
220
0
230
1
0
LINE
5
18B
100
AcDbEntity
8
SK2
62
256
6
ByLayer
370
13
48
1
60
0
100
AcDbLine
10
-36
20
-27.50012
30
0
11
-32.824998
21
-27.918117
31
0
39
0
210
0
220
0
230
1
0
LINE
5
18C
100
AcDbEntity
8
SK2
62
256
6
ByLayer
370
13
48
1
60
0
100
AcDbLine
10
-32.825002
20
-27.082123
30
0
11
-32.824998
21
-27.918117
31
0
39
0
210
0
220
0
230
1
0
LINE
5
18D
100
AcDbEntity
8
SK2
62
256
6
ByLayer
370
13
48
1
60
0
100
AcDbLine
10
0
20
-27.50012
30
0
11
-3.174998
21
-27.918117
31
0
39
0
210
0
220
0
230
1
0
LINE
5
18E
100
AcDbEntity
8
SK2
62
256
6
ByLayer
370
13
48
1
60
0
100
AcDbLine
10
0
20
-27.50012
30
0
11
-3.175002
21
-27.082123
31
0
39
0
210
0
220
0
230
1
0
LINE
5
18F
100
AcDbEntity
8
SK2
62
256
6
ByLayer
370
13
48
1
60
0
100
AcDbLine
10
-3.174998
20
-27.918117
30
0
11
-3.175002
21
-27.082123
31
0
39
0
210
0
220
0
230
1
0
ENDBLK
5
191
100
AcDbEntity
8
0
100
AcDbBlockEnd
0
BLOCK
5
196
100
AcDbEntity
8
0
100
AcDbBlockBegin
2
*D10
70
1
10
0
20
0
30
0
3
*D10
0
LINE
5
198
100
AcDbEntity
8
0
62
256
6
ByLayer
370
-2
48
1
60
0
100
AcDbLine
10
6
20
2.8125
30
0
11
6
21
-21.92482
31
0
39
0
210
0
220
0
230
1
0
LINE
5
199
100
AcDbEntity
8
0
62
256
6
ByLayer
370
-2
48
1
60
0
100
AcDbLine
10
90
20
-1.5875
30
0
11
90
21
-21.92482
31
0
39
0
210
0
220
0
230
1
0
LINE
5
19A
100
AcDbEntity
8
0
62
256
6
ByLayer
370
-2
48
1
60
0
100
AcDbLine
10
9.175
20
-18.74982
30
0
11
86.825
21
-18.74982
31
0
39
0
210
0
220
0
230
1
0
SOLID
5
19B
100
AcDbEntity
8
0
62
256
6
ByLayer
370
-1
48
1
60
0
100
AcDbTrace
10
9.175
20
-18.220653
30
0
11
9.175
21
-19.278987
31
0
12
6
22
-18.74982
32
0
13
6
23
-18.74982
33
0
39
0
210
0
220
0
230
1
0
SOLID
5
19C
100
AcDbEntity
8
0
62
256
6
ByLayer
370
-1
48
1
60
0
100
AcDbTrace
10
86.825
20
-19.278987
30
0
11
86.825
21
-18.220653
31
0
12
90
22
-18.74982
32
0
13
90
23
-18.74982
33
0
39
0
210
0
220
0
230
1
0
MTEXT
5
19D
100
AcDbEntity
8
0
62
256
6
ByLayer
370
18
48
1
60
0
100
AcDbMText
10
48
20
-11.443319
30
0
210
0
220
0
230
1
1
\A1;84
40
3.50012
41
0
44
1
50
0
71
5
72
5
7
iso_b_vert
0
POINT
5
19E
100
AcDbEntity
8
Defpoints
62
0
6
ByLayer
370
-1
48
1
60
0
100
AcDbPoint
10
6
20
4.4
30
0
39
0
210
0
220
0
230
1
50
360
0
POINT
5
19F
100
AcDbEntity
8
Defpoints
62
0
6
ByLayer
370
-1
48
1
60
0
100
AcDbPoint
10
90
20
0
30
0
39
0
210
0
220
0
230
1
50
360
0
POINT
5
1A0
100
AcDbEntity
8
Defpoints
62
0
6
ByLayer
370
-1
48
1
60
0
100
AcDbPoint
10
90
20
-18.74982
30
0
39
0
210
0
220
0
230
1
50
360
0
ENDBLK
5
197
100
AcDbEntity
8
0
100
AcDbBlockEnd
0
BLOCK
5
1AC
100
AcDbEntity
8
0
100
AcDbBlockBegin
2
_U4
70
0
10
0
20
0
30
0
3
_U4
0
MTEXT
5
1A2
100
AcDbEntity
8
SK2
62
256
6
ByLayer
370
18
48
1
60
0
100
AcDbMText
10
42.586116
20
-17.717151
30
0
210
0
220
0
230
1
1
\W0.7694;84.00
40
3.50012
41
0
44
1.084337
50
0
71
7
72
5
7
iso_b_vert
0
LINE
5
1A3
100
AcDbEntity
8
SK2
62
256
6
ByLayer
370
13
48
1
60
0
100
AcDbLine
10
6
20
2.8125
30
0
11
6
21
-21.92482
31
0
39
0
210
0
220
0
230
1
0
LINE
5
1A4
100
AcDbEntity
8
SK2
62
256
6
ByLayer
370
13
48
1
60
0
100
AcDbLine
10
90
20
-1.5875
30
0
11
90
21
-21.92482
31
0
39
0
210
0
220
0
230
1
0
LINE
5
1A5
100
AcDbEntity
8
SK2
62
256
6
ByLayer
370
13
48
1
60
0
100
AcDbLine
10
6
20
-18.74982
30
0
11
90
21
-18.74982
31
0
39
0
210
0
220
0
230
1
0
LINE
5
1A6
100
AcDbEntity
8
SK2
62
256
6
ByLayer
370
13
48
1
60
0
100
AcDbLine
10
6
20
-18.74982
30
0
11
9.174998
21
-18.331823
31
0
39
0
210
0
220
0
230
1
0
LINE
5
1A7
100
AcDbEntity
8
SK2
62
256
6
ByLayer
370
13
48
1
60
0
100
AcDbLine
10
6
20
-18.74982
30
0
11
9.175002
21
-19.167817
31
0
39
0
210
0
220
0
230
1
0
LINE
5
1A8
100
AcDbEntity
8
SK2
62
256
6
ByLayer
370
13
48
1
60
0
100
AcDbLine
10
9.174998
20
-18.331823
30
0
11
9.175002
21
-19.167817
31
0
39
0
210
0
220
0
230
1
0
LINE
5
1A9
100
AcDbEntity
8
SK2
62
256
6
ByLayer
370
13
48
1
60
0
100
AcDbLine
10
90
20
-18.74982
30
0
11
86.825002
21
-19.167817
31
0
39
0
210
0
220
0
230
1
0
LINE
5
1AA
100
AcDbEntity
8
SK2
62
256
6
ByLayer
370
13
48
1
60
0
100
AcDbLine
10
90
20
-18.74982
30
0
11
86.824998
21
-18.331823
31
0
39
0
210
0
220
0
230
1
0
LINE
5
1AB
100
AcDbEntity
8
SK2
62
256
6
ByLayer
370
13
48
1
60
0
100
AcDbLine
10
86.825002
20
-19.167817
30
0
11
86.824998
21
-18.331823
31
0
39
0
210
0
220
0
230
1
0
ENDBLK
5
1AD
100
AcDbEntity
8
0
100
AcDbBlockEnd
0
BLOCK
5
1B2
100
AcDbEntity
8
0
100
AcDbBlockBegin
2
*D12
70
1
10
0
20
0
30
0
3
*D12
0
LINE
5
1B4
100
AcDbEntity
8
0
62
256
6
ByLayer
370
-2
48
1
60
0
100
AcDbLine
10
26.2
20
-5.4875
30
0
11
26.2
21
-11.32
31
0
39
0
210
0
220
0
230
1
0
LINE
5
1B5
100
AcDbEntity
8
0
62
256
6
ByLayer
370
-2
48
1
60
0
100
AcDbLine
10
90
20
-1.5875
30
0
11
90
21
-11.32
31
0
39
0
210
0
220
0
230
1
0
LINE
5
1B6
100
AcDbEntity
8
0
62
256
6
ByLayer
370
-2
48
1
60
0
100
AcDbLine
10
29.375
20
-10.82
30
0
11
86.825
21
-10.82
31
0
39
0
210
0
220
0
230
1
0
SOLID
5
1B7
100
AcDbEntity
8
0
62
256
6
ByLayer
370
-1
48
1
60
0
100
AcDbTrace
10
29.375
20
-10.290833
30
0
11
29.375
21
-11.349167
31
0
12
26.2
22
-10.82
32
0
13
26.2
23
-10.82
33
0
39
0
210
0
220
0
230
1
0
SOLID
5
1B8
100
AcDbEntity
8
0
62
256
6
ByLayer
370
-1
48
1
60
0
100
AcDbTrace
10
86.825
20
-11.349167
30
0
11
86.825
21
-10.290833
31
0
12
90
22
-10.82
32
0
13
90
23
-10.82
33
0
39
0
210
0
220
0
230
1
0
MTEXT
5
1B9
100
AcDbEntity
8
0
62
256
6
ByLayer
370
18
48
1
60
0
100
AcDbMText
10
58.1
20
-4.975
30
0
210
0
220
0
230
1
1
\A1;63.8
40
2.8
41
0
44
1
50
0
71
5
72
5
7
iso_b_vert
0
POINT
5
1BA
100
AcDbEntity
8
Defpoints
62
0
6
ByLayer
370
-1
48
1
60
0
100
AcDbPoint
10
26.2
20
-3.9
30
0
39
0
210
0
220
0
230
1
50
360
0
POINT
5
1BB
100
AcDbEntity
8
Defpoints
62
0
6
ByLayer
370
-1
48
1
60
0
100
AcDbPoint
10
90
20
0
30
0
39
0
210
0
220
0
230
1
50
360
0
POINT
5
1BC
100
AcDbEntity
8
Defpoints
62
0
6
ByLayer
370
-1
48
1
60
0
100
AcDbPoint
10
90
20
-10.82
30
0
39
0
210
0
220
0
230
1
50
360
0
ENDBLK
5
1B3
100
AcDbEntity
8
0
100
AcDbBlockEnd
0
BLOCK
5
1C8
100
AcDbEntity
8
0
100
AcDbBlockBegin
2
_U5
70
0
10
0
20
0
30
0
3
_U5
0
MTEXT
5
1BE
100
AcDbEntity
8
SK2
62
256
6
ByLayer
370
18
48
1
60
0
100
AcDbMText
10
53.916454
20
-10.973893
30
0
210
0
220
0
230
1
1
\W0.7468;63.80
40
2.8
41
0
44
1.084337
50
0
71
7
72
5
7
iso_b_vert
0
LINE
5
1BF
100
AcDbEntity
8
SK2
62
256
6
ByLayer
370
13
48
1
60
0
100
AcDbLine
10
26.2
20
-5.4875
30
0
11
26.2
21
-11.32
31
0
39
0
210
0
220
0
230
1
0
LINE
5
1C0
100
AcDbEntity
8
SK2
62
256
6
ByLayer
370
13
48
1
60
0
100
AcDbLine
10
90
20
-1.5875
30
0
11
90
21
-11.32
31
0
39
0
210
0
220
0
230
1
0
LINE
5
1C1
100
AcDbEntity
8
SK2
62
256
6
ByLayer
370
13
48
1
60
0
100
AcDbLine
10
26.2
20
-10.82
30
0
11
90
21
-10.82
31
0
39
0
210
0
220
0
230
1
0
LINE
5
1C2
100
AcDbEntity
8
SK2
62
256
6
ByLayer
370
13
48
1
60
0
100
AcDbLine
10
26.2
20
-10.82
30
0
11
29.374998
21
-10.402003
31
0
39
0
210
0
220
0
230
1
0
LINE
5
1C3
100
AcDbEntity
8
SK2
62
256
6
ByLayer
370
13
48
1
60
0
100
AcDbLine
10
26.2
20
-10.82
30
0
11
29.375002
21
-11.237997
31
0
39
0
210
0
220
0
230
1
0
LINE
5
1C4
100
AcDbEntity
8
SK2
62
256
6
ByLayer
370
13
48
1
60
0
100
AcDbLine
10
29.374998
20
-10.402003
30
0
11
29.375002
21
-11.237997
31
0
39
0
210
0
220
0
230
1
0
LINE
5
1C5
100
AcDbEntity
8
SK2
62
256
6
ByLayer
370
13
48
1
60
0
100
AcDbLine
10
90
20
-10.82
30
0
11
86.825002
21
-11.237997
31
0
39
0
210
0
220
0
230
1
0
LINE
5
1C6
100
AcDbEntity
8
SK2
62
256
6
ByLayer
370
13
48
1
60
0
100
AcDbLine
10
90
20
-10.82
30
0
11
86.824998
21
-10.402003
31
0
39
0
210
0
220
0
230
1
0
LINE
5
1C7
100
AcDbEntity
8
SK2
62
256
6
ByLayer
370
13
48
1
60
0
100
AcDbLine
10
86.825002
20
-11.237997
30
0
11
86.824998
21
-10.402003
31
0
39
0
210
0
220
0
230
1
0
ENDBLK
5
1C9
100
AcDbEntity
8
0
100
AcDbBlockEnd
0
BLOCK
5
1CE
100
AcDbEntity
8
0
100
AcDbBlockBegin
2
*D14
70
1
10
0
20
0
30
0
3
*D14
0
LINE
5
1D0
100
AcDbEntity
8
0
62
256
6
ByLayer
370
-2
48
1
60
0
100
AcDbLine
10
-36
20
-1.5875
30
0
11
-36
21
-40.67512
31
0
39
0
210
0
220
0
230
1
0
LINE
5
1D1
100
AcDbEntity
8
0
62
256
6
ByLayer
370
-2
48
1
60
0
100
AcDbLine
10
90
20
-1.5875
30
0
11
90
21
-40.67512
31
0
39
0
210
0
220
0
230
1
0
LINE
5
1D2
100
AcDbEntity
8
0
62
256
6
ByLayer
370
-2
48
1
60
0
100
AcDbLine
10
-32.825
20
-37.50012
30
0
11
86.825
21
-37.50012
31
0
39
0
210
0
220
0
230
1
0
SOLID
5
1D3
100
AcDbEntity
8
0
62
256
6
ByLayer
370
-1
48
1
60
0
100
AcDbTrace
10
-32.825
20
-36.970953
30
0
11
-32.825
21
-38.029287
31
0
12
-36
22
-37.50012
32
0
13
-36
23
-37.50012
33
0
39
0
210
0
220
0
230
1
0
SOLID
5
1D4
100
AcDbEntity
8
0
62
256
6
ByLayer
370
-1
48
1
60
0
100
AcDbTrace
10
86.825
20
-38.029287
30
0
11
86.825
21
-36.970953
31
0
12
90
22
-37.50012
32
0
13
90
23
-37.50012
33
0
39
0
210
0
220
0
230
1
0
MTEXT
5
1D5
100
AcDbEntity
8
0
62
256
6
ByLayer
370
18
48
1
60
0
100
AcDbMText
10
27
20
-30.193619
30
0
210
0
220
0
230
1
1
\A1;126
40
3.50012
41
0
44
1
50
0
71
5
72
5
7
iso_b_vert
0
POINT
5
1D6
100
AcDbEntity
8
Defpoints
62
0
6
ByLayer
370
-1
48
1
60
0
100
AcDbPoint
10
-36
20
0
30
0
39
0
210
0
220
0
230
1
50
360
0
POINT
5
1D7
100
AcDbEntity
8
Defpoints
62
0
6
ByLayer
370
-1
48
1
60
0
100
AcDbPoint
10
90
20
0
30
0
39
0
210
0
220
0
230
1
50
360
0
POINT
5
1D8
100
AcDbEntity
8
Defpoints
62
0
6
ByLayer
370
-1
48
1
60
0
100
AcDbPoint
10
90
20
-37.50012
30
0
39
0
210
0
220
0
230
1
50
360
0
ENDBLK
5
1CF
100
AcDbEntity
8
0
100
AcDbBlockEnd
0
BLOCK
5
1E4
100
AcDbEntity
8
0
100
AcDbBlockBegin
2
_U6
70
0
10
0
20
0
30
0
3
_U6
0
MTEXT
5
1DA
100
AcDbEntity
8
SK2
62
256
6
ByLayer
370
18
48
1
60
0
100
AcDbMText
10
20.900059
20
-36.467451
30
0
210
0
220
0
230
1
1
\W0.7022;126.00
40
3.50012
41
0
44
1.084337
50
0
71
7
72
5
7
iso_b_vert
0
LINE
5
1DB
100
AcDbEntity
8
SK2
62
256
6
ByLayer
370
13
48
1
60
0
100
AcDbLine
10
-36
20
-1.5875
30
0
11
-36
21
-40.67512
31
0
39
0
210
0
220
0
230
1
0
LINE
5
1DC
100
AcDbEntity
8
SK2
62
256
6
ByLayer
370
13
48
1
60
0
100
AcDbLine
10
90
20
-1.5875
30
0
11
90
21
-40.67512
31
0
39
0
210
0
220
0
230
1
0
LINE
5
1DD
100
AcDbEntity
8
SK2
62
256
6
ByLayer
370
13
48
1
60
0
100
AcDbLine
10
-36
20
-37.50012
30
0
11
90
21
-37.50012
31
0
39
0
210
0
220
0
230
1
0
LINE
5
1DE
100
AcDbEntity
8
SK2
62
256
6
ByLayer
370
13
48
1
60
0
100
AcDbLine
10
-36
20
-37.50012
30
0
11
-32.825002
21
-37.082123
31
0
39
0
210
0
220
0
230
1
0
LINE
5
1DF
100
AcDbEntity
8
SK2
62
256
6
ByLayer
370
13
48
1
60
0
100
AcDbLine
10
-36
20
-37.50012
30
0
11
-32.824998
21
-37.918117
31
0
39
0
210
0
220
0
230
1
0
LINE
5
1E0
100
AcDbEntity
8
SK2
62
256
6
ByLayer
370
13
48
1
60
0
100
AcDbLine
10
-32.825002
20
-37.082123
30
0
11
-32.824998
21
-37.918117
31
0
39
0
210
0
220
0
230
1
0
LINE
5
1E1
100
AcDbEntity
8
SK2
62
256
6
ByLayer
370
13
48
1
60
0
100
AcDbLine
10
90
20
-37.50012
30
0
11
86.825002
21
-37.918117
31
0
39
0
210
0
220
0
230
1
0
LINE
5
1E2
100
AcDbEntity
8
SK2
62
256
6
ByLayer
370
13
48
1
60
0
100
AcDbLine
10
90
20
-37.50012
30
0
11
86.824998
21
-37.082123
31
0
39
0
210
0
220
0
230
1
0
LINE
5
1E3
100
AcDbEntity
8
SK2
62
256
6
ByLayer
370
13
48
1
60
0
100
AcDbLine
10
86.825002
20
-37.918117
30
0
11
86.824998
21
-37.082123
31
0
39
0
210
0
220
0
230
1
0
ENDBLK
5
1E5
100
AcDbEntity
8
0
100
AcDbBlockEnd
0
ENDSEC
0
SECTION
2
ENTITIES
0
ARC
5
B6
100
AcDbEntity
8
1
62
256
6
ByLayer
370
18
48
1
60
0
100
AcDbCircle
39
0
10
0.316317
20
4.044834
30
0
40
0.199999999999996
210
0
220
0
230
1
100
AcDbArc
50
217.740389
51
270.03581
0
ARC
5
B7
100
AcDbEntity
8
1
62
256
6
ByLayer
370
18
48
1
60
0
100
AcDbCircle
39
0
10
0.316317
20
-4.044834
30
0
40
0.199999999999996
210
0
220
0
230
1
100
AcDbArc
50
89.96419
51
142.259611
0
ARC
5
B8
100
AcDbEntity
8
1
62
256
6
ByLayer
370
18
48
1
60
0
100
AcDbCircle
39
0
10
0
20
3.8
30
0
40
0.200000000000001
210
0
220
0
230
1
100
AcDbArc
50
37.740389
51
90
0
ARC
5
B9
100
AcDbEntity
8
1
62
256
6
ByLayer
370
18
48
1
60
0
100
AcDbCircle
39
0
10
0
20
-3.8
30
0
40
0.200000000000001
210
0
220
0
230
1
100
AcDbArc
50
270
51
322.259611
0
ARC
5
BA
100
AcDbEntity
8
SK2
62
256
6
ByLayer
370
13
48
1
60
0
100
AcDbCircle
39
0
10
90
20
0
30
0
40
20
210
0
220
0
230
1
100
AcDbArc
50
9.606349
51
69.999791
0
ARC
5
BB
100
AcDbEntity
8
SK2
62
256
6
ByLayer
370
13
48
1
60
0
100
AcDbCircle
39
0
10
90
20
0
30
0
40
20
210
0
220
0
230
1
100
AcDbArc
50
290.000209
51
350.393651
0
ELLIPSE
5
BC
100
AcDbEntity
8
1
62
256
6
ByLayer
370
18
48
1
60
0
100
AcDbEllipse
10
51.10171
20
-3.781859
30
0
11
0.1
21
0
31
0
210
0
220
0
230
1
40
1
41
1.58488978428662
42
3.14144999609116
0
ELLIPSE
5
BD
100
AcDbEntity
8
1
62
256
6
ByLayer
370
18
48
1
60
0
100
AcDbEllipse
10
51.10171
20
3.781859
30
0
11
0.1
21
0
31
0
210
0
220
0
230
1
40
1
41
-3.14144999609022
42
-1.55019333069587
0
POINT
5
70
100
AcDbEntity
8
80
62
256
6
ByLayer
370
18
48
1
60
0
100
AcDbPoint
10
0
20
0
30
0
39
0
210
0
220
0
230
1
50
360
0
POINT
5
72
100
AcDbEntity
8
81
62
256
6
ByLayer
370
18
48
1
60
0
100
AcDbPoint
10
90
20
0
30
0
39
0
210
0
220
0
230
1
50
360
0
POINT
5
74
100
AcDbEntity
8
1
62
256
6
ByLayer
370
18
48
1
60
0
100
AcDbPoint
10
-36
20
0
30
0
39
0
210
0
220
0
230
1
50
360
0
POINT
5
76
100
AcDbEntity
8
1
62
256
6
ByLayer
370
18
48
1
60
1
100
AcDbPoint
10
0
20
-4
30
0
39
0
210
0
220
0
230
1
50
360
0
POINT
5
77
100
AcDbEntity
8
1
62
256
6
ByLayer
370
18
48
1
60
1
100
AcDbPoint
10
90
20
0
30
0
39
0
210
0
220
0
230
1
50
360
0
POINT
5
78
100
AcDbEntity
8
1
62
256
6
ByLayer
370
18
48
1
60
1
100
AcDbPoint
10
88.5805
20
-3.9
30
0
39
0
210
0
220
0
230
1
50
360
0
POINT
5
79
100
AcDbEntity
8
1
62
256
6
ByLayer
370
18
48
1
60
1
100
AcDbPoint
10
88.5805
20
3.9
30
0
39
0
210
0
220
0
230
1
50
360
0
POINT
5
7A
100
AcDbEntity
8
1
62
256
6
ByLayer
370
18
48
1
60
1
100
AcDbPoint
10
-36
20
4
30
0
39
0
210
0
220
0
230
1
50
360
0
POINT
5
7B
100
AcDbEntity
8
1
62
256
6
ByLayer
370
18
48
1
60
1
100
AcDbPoint
10
-36
20
-4
30
0
39
0
210
0
220
0
230
1
50
360
0
POINT
5
7C
100
AcDbEntity
8
1
62
256
6
ByLayer
370
18
48
1
60
1
100
AcDbPoint
10
-36
20
-4
30
0
39
0
210
0
220
0
230
1
50
360
0
POINT
5
7D
100
AcDbEntity
8
1
62
256
6
ByLayer
370
18
48
1
60
1
100
AcDbPoint
10
0
20
-4
30
0
39
0
210
0
220
0
230
1
50
360
0
POINT
5
7E
100
AcDbEntity
8
1
62
256
6
ByLayer
370
18
48
1
60
1
100
AcDbPoint
10
6
20
4.4
30
0
39
0
210
0
220
0
230
1
50
360
0
POINT
5
7F
100
AcDbEntity
8
1
62
256
6
ByLayer
370
18
48
1
60
1
100
AcDbPoint
10
90
20
0
30
0
39
0
210
0
220
0
230
1
50
360
0
POINT
5
80
100
AcDbEntity
8
1
62
256
6
ByLayer
370
18
48
1
60
1
100
AcDbPoint
10
26.2
20
-3.9
30
0
39
0
210
0
220
0
230
1
50
360
0
POINT
5
81
100
AcDbEntity
8
1
62
256
6
ByLayer
370
18
48
1
60
1
100
AcDbPoint
10
90
20
0
30
0
39
0
210
0
220
0
230
1
50
360
0
POINT
5
82
100
AcDbEntity
8
1
62
256
6
ByLayer
370
18
48
1
60
1
100
AcDbPoint
10
-36
20
0
30
0
39
0
210
0
220
0
230
1
50
360
0
POINT
5
83
100
AcDbEntity
8
1
62
256
6
ByLayer
370
18
48
1
60
1
100
AcDbPoint
10
90
20
0
30
0
39
0
210
0
220
0
230
1
50
360
0
SPLINE
5
BE
100
AcDbEntity
8
1
62
256
6
ByLayer
370
18
48
1
60
0
100
AcDbSpline
70
4
71
3
72
20
73
16
40
0
40
0
40
0
40
0
40
0.250000000000008
40
0.250000000000008
40
0.500000000000017
40
0.500000000000017
40
0.562500000000019
40
0.562500000000019
40
0.625000000000021
40
0.625000000000021
40
0.750000000000014
40
0.750000000000014
40
0.875000000000007
40
0.875000000000007
40
1
40
1
40
1
40
1
41
1
10
88.6458975714839
20
3.73839145361848
30
0
41
1
10
88.7226665304279
20
3.52250028632551
30
0
41
1
10
88.7988677703102
20
3.3051813635328
30
0
41
1
10
88.9530750405661
20
2.8691873909323
30
0
41
1
10
89.03104185236
20
2.65070009216555
30
0
41
1
10
89.1303480943979
20
2.37861296772243
30
0
41
1
10
89.150299159199
20
2.3242446272196
30
0
41
1
10
89.1903949409177
20
2.21560751631802
30
0
41
1
10
89.2104115156203
20
2.16126968405033
30
0
41
1
10
89.2718502684201
20
1.99899087692268
30
0
41
1
10
89.3149586405398
20
1.89183403139316
30
0
41
1
10
89.4046363660284
20
1.68535623547075
30
0
41
1
10
89.4514247275273
20
1.58533179769415
30
0
41
1
10
89.5498331630528
20
1.391927354763
30
0
41
1
10
89.601872902215
20
1.29790405482302
30
0
41
1
10
89.6553239927518
20
1.20972890169634
30
0
0
SPLINE
5
BF
100
AcDbEntity
8
1
62
256
6
ByLayer
370
18
48
1
60
0
100
AcDbSpline
70
4
71
3
72
18
73
14
40
0
40
0
40
0
40
0
40
0.169139226084297
40
0.169139226084297
40
0.324251554552996
40
0.324251554552996
40
0.479363883021695
40
0.479363883021695
40
0.634476211490395
40
0.634476211490395
40
0.789588539959094
40
0.789588539959094
40
1
40
1
40
1
40
1
41
1
10
51.1021846599539
20
-3.13867971584793
30
0
41
1
10
51.1021772330506
20
-3.19815908467558
30
0
41
1
10
51.1021694346266
20
-3.25310687776045
30
0
41
1
10
51.1021540519261
20
-3.34929534347313
30
0
41
1
10
51.1021465069747
20
-3.39127894255236
30
0
41
1
10
51.1021311752352
20
-3.46717260046364
30
0
41
1
10
51.1021233809034
20
-3.5010878577946
30
0
41
1
10
51.1021078021586
20
-3.56015868956354
30
0
41
1
10
51.1020999994713
20
-3.58541498617325
30
0
41
1
10
51.1020844329523
20
-3.62736647261585
30
0
41
1
10
51.1020766506285
20
-3.64407856702914
30
0
41
1
10
51.1020585624835
20
-3.67294067134554
30
0
41
1
10
51.1020483168506
20
-3.68146327920729
30
0
41
1
10
51.1020382427014
20
-3.68185066451949
30
0
0
SPLINE
5
C0
100
AcDbEntity
8
1
62
256
6
ByLayer
370
18
48
1
60
0
100
AcDbSpline
70
4
71
3
72
8
73
4
40
0
40
0
40
0
40
0
40
1
40
1
40
1
40
1
41
1
10
88.6383428687021
20
3.74348111217901
30
0
41
1
10
88.6408610662456
20
3.74178482313681
30
0
41
1
10
88.6433793005016
20
3.74008827018793
30
0
41
1
10
88.6458975714839
20
3.73839145361822
30
0
0
SPLINE
5
C1
100
AcDbEntity
8
1
62
256
6
ByLayer
370
18
48
1
60
0
100
AcDbSpline
70
4
71
3
72
30
73
26
40
0
40
0
40
0
40
0
40
0.083736559413828
40
0.083736559413828
40
0.185543608367847
40
0.185543608367847
40
0.287350657321867
40
0.287350657321867
40
0.389157706275886
40
0.389157706275886
40
0.440061230752895
40
0.440061230752895
40
0.490964755229903
40
0.490964755229903
40
0.592771804183922
40
0.592771804183922
40
0.694578853137942
40
0.694578853137942
40
0.796385902091961
40
0.796385902091961
40
0.847289426568971
40
0.847289426568971
40
0.898192951045981
40
0.898192951045981
40
1
40
1
40
1
40
1
41
1
10
76.8216252547251
20
3.70074541686324
30
0
41
1
10
77.1393925226174
20
3.71058438370773
30
0
41
1
10
77.4559194483742
20
3.7079797202135
30
0
41
1
10
78.1550474323691
20
3.67909549448487
30
0
41
1
10
78.5367437936025
20
3.64888290927775
30
0
41
1
10
79.3017552062703
20
3.55075371919645
30
0
41
1
10
79.6845415138161
20
3.4847275484278
30
0
41
1
10
80.4521681511339
20
3.32150676257274
30
0
41
1
10
80.8363544847295
20
3.22516477718585
30
0
41
1
10
81.4173372941378
20
3.05607376671244
30
-2E-16
41
1
10
81.6118514316267
20
2.99572579852031
30
-2E-16
41
1
10
81.9988604683286
20
2.86882686792345
30
-2E-16
41
1
10
82.1917884547704
20
2.80214317463302
30
-2E-16
41
1
10
82.7691365442844
20
2.59320609065085
30
-2E-16
41
1
10
83.1520117986185
20
2.44215977021216
30
-1E-16
41
1
10
83.9176874181935
20
2.11876870636024
30
-1E-16
41
1
10
84.3002188947976
20
1.94688367434841
30
-1E-16
41
1
10
85.0657783408193
20
1.58625614362484
30
-1E-16
41
1
10
85.4485321202062
20
1.39740060072063
30
-1E-16
41
1
10
86.026585203391
20
1.10449063298731
30
-1E-16
41
1
10
86.2198277840742
20
1.00525387117622
30
-1E-16
41
1
10
86.6075091786153
20
0.804069733551188
30
0
41
1
10
86.8020196403506
20
0.702078427541636
30
0
41
1
10
87.3839786734382
20
0.394589502470325
30
0
41
1
10
87.771042471948
20
0.186876034040466
30
0
41
1
10
88.1582925284195
20
-0.0215150301435187
30
0
0
SPLINE
5
C2
100
AcDbEntity
8
1
62
256
6
ByLayer
370
18
48
1
60
0
100
AcDbSpline
70
4
71
3
72
26
73
22
40
0
40
0
40
0
40
0
40
0.125580813278162
40
0.125580813278162
40
0.251161626556324
40
0.251161626556324
40
0.376742439834486
40
0.376742439834486
40
0.439532846473569
40
0.439532846473569
40
0.502323253112651
40
0.502323253112651
40
0.627904066390816
40
0.627904066390816
40
0.753484879668982
40
0.753484879668982
40
0.879065692947147
40
0.879065692947147
40
0.941856099586231
40
0.941856099586231
40
1
40
1
40
1
40
1
41
1
10
88.0607980065519
20
0.577044532680588
30
0
41
1
10
87.6485637472022
20
0.806875229900413
30
0
41
1
10
87.2381555587444
20
1.03224660933117
30
-1E-16
41
1
10
86.4185791114379
20
1.47002913680251
30
-1E-16
41
1
10
86.0088878460126
20
1.68155186485114
30
-1E-16
41
1
10
85.1877938781208
20
2.08664267775149
30
-1E-16
41
1
10
84.7761983042265
20
2.27986566544328
30
-1E-16
41
1
10
84.1543641495947
20
2.55103485362827
30
-2E-16
41
1
10
83.9462392298603
20
2.63851697157401
30
-2E-16
41
1
10
83.5323868208315
20
2.80537805756964
30
-2E-16
41
1
10
83.3260951377331
20
2.88486571314402
30
-2E-16
41
1
10
82.7084109262368
20
3.11085100214569
30
-2E-16
41
1
10
82.2982743347933
20
3.24498451169444
30
-2E-16
41
1
10
81.4788173651394
20
3.47804043729943
30
0
41
1
10
81.068975116716
20
3.57651702777875
30
0
41
1
10
80.2472822293218
20
3.73572480798177
30
0
41
1
10
79.8351523272224
20
3.79619094210625
30
0
41
1
10
79.2122531085108
20
3.85611098122575
30
0
41
1
10
79.0045150279463
20
3.87091806989298
30
0
41
1
10
78.6064408140973
20
3.88928629708568
30
0
41
1
10
78.4155541904571
20
3.89362370729373
30
0
41
1
10
78.2249828965137
20
3.89352662329281
30
0
0
SPLINE
5
C3
100
AcDbEntity
8
1
62
256
6
ByLayer
370
18
48
1
60
0
100
AcDbSpline
70
4
71
3
72
66
73
62
40
0
40
0
40
0
40
0
40
0.0063824412194825
40
0.0063824412194825
40
0.051330331273492
40
0.051330331273492
40
0.0738042763004962
40
0.0738042763004962
40
0.0962782213275003
40
0.0962782213275003
40
0.141226111381509
40
0.141226111381509
40
0.186174001435517
40
0.186174001435517
40
0.231121891489525
40
0.231121891489525
40
0.25359583651653
40
0.25359583651653
40
0.276069781543535
40
0.276069781543535
40
0.321017671597543
40
0.321017671597543
40
0.365965561651551
40
0.365965561651551
40
0.410913451705559
40
0.410913451705559
40
0.433387396732564
40
0.433387396732564
40
0.455861341759568
40
0.455861341759568
40
0.500809231813577
40
0.500809231813577
40
0.545757121867587
40
0.545757121867587
40
0.590705011921597
40
0.590705011921597
40
0.613178956948601
40
0.613178956948601
40
0.635652901975605
40
0.635652901975605
40
0.680600792029612
40
0.680600792029612
40
0.72554868208362
40
0.72554868208362
40
0.770496572137627
40
0.770496572137627
40
0.792970517164631
40
0.792970517164631
40
0.815444462191634
40
0.815444462191634
40
0.86039235224564
40
0.86039235224564
40
0.905340242299646
40
0.905340242299646
40
0.950288132353652
40
0.950288132353652
40
0.972762077380655
40
0.972762077380655
40
0.995236022407657
40
0.995236022407657
40
1
40
1
40
1
40
1
41
1
10
62.295678092669
20
-2.59577028266199
30
2E-16
41
1
10
62.2374499635126
20
-2.62007392508662
30
2E-16
41
1
10
62.1792189929184
20
-2.6441049574039
30
2E-16
41
1
10
61.7108443839082
20
-2.83513367169874
30
2E-16
41
1
10
61.2999368280827
20
-2.98808371374187
30
2E-16
41
1
10
60.6811491151059
20
-3.1941056069528
30
2E-16
41
1
10
60.4743818675055
20
-3.25875390174844
30
2E-16
41
1
10
60.0593635918773
20
-3.37939611477918
30
0
41
1
10
59.8511084550572
20
-3.43534216967768
30
0
41
1
10
59.2297172948358
20
-3.58818353477523
30
0
41
1
10
58.8183597377599
20
-3.67098119751663
30
0
41
1
10
57.9968194296185
20
-3.7962956603892
30
0
41
1
10
57.5870258360471
20
-3.83909129193128
30
0
41
1
10
56.7663732503966
20
-3.88394138390183
30
0
41
1
10
56.3551367801269
20
-3.88599827039846
30
0
41
1
10
55.7355908425666
20
-3.85786978515364
30
0
41
1
10
55.5285276933344
20
-3.84328531312886
30
0
41
1
10
55.1128274960437
20
-3.8036430732927
30
0
41
1
10
54.9050182404783
20
-3.77866251430118
30
0
41
1
10
54.2842639661475
20
-3.68901685451439
30
0
41
1
10
53.8731761139934
20
-3.60924416694294
30
0
41
1
10
53.0518144732789
20
-3.41342909797447
30
0
41
1
10
52.6419908123298
20
-3.29710702217597
30
2E-16
41
1
10
51.8208910283126
20
-3.03045763000324
30
2E-16
41
1
10
51.4092896521094
20
-2.88054027330702
30
2E-16
41
1
10
50.7889388242914
20
-2.63179273616171
30
2E-16
41
1
10
50.5813469174073
20
-2.54491744584206
30
2E-16
41
1
10
50.1654367279501
20
-2.36437275370736
30
1E-16
41
1
10
49.958157207594
20
-2.27121248475166
30
1E-16
41
1
10
49.3379987113418
20
-1.98371558979235
30
1E-16
41
1
10
48.9271359693705
20
-1.78080190211603
30
1E-16
41
1
10
48.1058777055091
20
-1.36032133359336
30
1E-16
41
1
10
47.6959886909317
20
-1.14193335982682
30
1E-16
41
1
10
46.8743838286796
20
-0.694501832206754
30
0
41
1
10
46.4623982129893
20
-0.465965467718547
30
0
41
1
10
45.8412021954529
20
-0.118306967712698
30
0
41
1
10
45.6330052686671
20
-0.0015093570040392
30
0
41
1
10
45.2175927002435
20
0.230955671574719
30
0
41
1
10
45.010512002712
20
0.346478797012139
30
0
41
1
10
44.3908983489364
20
0.690560293883209
30
0
41
1
10
43.9802160027283
20
0.917004218884443
30
-1E-16
41
1
10
43.1590055228303
20
1.3559176724402
30
-1E-16
41
1
10
42.7490259383934
20
1.56936639190255
30
-1E-16
41
1
10
41.9268518043561
20
1.97829493393777
30
-1E-16
41
1
10
41.5144487479445
20
2.17346409548452
30
-1E-16
41
1
10
40.8923646226656
20
2.44959731121997
30
-1E-16
41
1
10
40.6839216128414
20
2.53887593624887
30
-2E-16
41
1
10
40.2689696068087
20
2.70929735865201
30
-2E-16
41
1
10
40.062070626525
20
2.79057417370424
30
-2E-16
41
1
10
39.4429662899715
20
3.02266269440074
30
-2E-16
41
1
10
39.0324179983424
20
3.16171192757514
30
-2E-16
41
1
10
38.2111847571184
20
3.40406990950442
30
0
41
1
10
37.8010820705094
20
3.50798283291829
30
0
41
1
10
36.9782861868152
20
3.67796545102959
30
0
41
1
10
36.5654490068338
20
3.74401406052149
30
0
41
1
10
35.9424394595773
20
3.81297913880192
30
0
41
1
10
35.734095591101
20
3.83086032532162
30
0
41
1
10
35.3195605520552
20
3.85604277416837
30
0
41
1
10
35.1128214641054
20
3.86341369513229
30
0
41
1
10
34.8628955894183
20
3.86611571581912
30
0
41
1
10
34.8192050482381
20
3.86635593941378
30
0
41
1
10
34.7755340256254
20
3.86636450617232
30
0
0
SPLINE
5
C4
100
AcDbEntity
8
1
62
256
6
ByLayer
370
18
48
1
60
0
100
AcDbSpline
70
4
71
3
72
26
73
22
40
0
40
0
40
0
40
0
40
0.0597711535731159
40
0.0597711535731159
40
0.126930356889323
40
0.126930356889323
40
0.19408956020553
40
0.19408956020553
40
0.328407966837942
40
0.328407966837942
40
0.462726373470355
40
0.462726373470355
40
0.597044780102768
40
0.597044780102768
40
0.664203983418973
40
0.664203983418973
40
0.731363186735177
40
0.731363186735177
40
0.865681593367588
40
0.865681593367588
40
1
40
1
40
1
40
1
41
1
10
18.1367574434342
20
-2.8542509469751
30
2E-16
41
1
10
17.9536398258096
20
-2.92286612340604
30
2E-16
41
1
10
17.7703035723071
20
-2.98856271387922
30
2E-16
41
1
10
17.3801047818888
20
-3.12133309537708
30
2E-16
41
1
10
17.1731148058682
20
-3.18756563186059
30
2E-16
41
1
10
16.7579166317215
20
-3.31174017903982
30
0
41
1
10
16.5493737877967
20
-3.36989309562099
30
0
41
1
10
15.9263862163183
20
-3.52936312118251
30
0
41
1
10
15.5133548400721
20
-3.61616527691837
30
0
41
1
10
14.6903039225591
20
-3.75077024350182
30
0
41
1
10
14.2798502142912
20
-3.79823145609623
30
0
41
1
10
13.4576899194619
20
-3.85263503135573
30
0
41
1
10
13.0465876831669
20
-3.85965532348592
30
0
41
1
10
12.4265623634705
20
-3.83913702235046
30
0
41
1
10
12.2193071218384
20
-3.82715372941828
30
0
41
1
10
11.8035712573484
20
-3.79274270900913
30
0
41
1
10
11.5950853281515
20
-3.77023074180244
30
0
41
1
10
10.9715571631096
20
-3.68775466916048
30
0
41
1
10
10.5568621131139
20
-3.61286298246941
30
0
41
1
10
9.72776415092463
20
-3.42450610268213
30
0
41
1
10
9.31283814137234
20
-3.31132176244478
30
0
41
1
10
8.89566849504976
20
-3.18074240379528
30
2E-16
0
SPLINE
5
C5
100
AcDbEntity
8
1
62
256
6
ByLayer
370
18
48
1
60
0
100
AcDbSpline
70
4
71
3
72
10
73
6
40
0
40
0
40
0
40
0
40
0.5
40
0.5
40
1
40
1
40
1
40
1
41
1
10
51.0017097679594
20
-3.19000770496209
30
2E-16
41
1
10
51.0017097679594
20
-3.1700813580519
30
2E-16
41
1
10
51.0211401288367
20
-3.15048212352511
30
2E-16
41
1
10
51.0814270247238
20
-3.12987021237399
30
2E-16
41
1
10
51.1203309820421
20
-3.12967287611443
30
2E-16
41
1
10
51.1508710748696
20
-3.13980064819376
30
2E-16
0
SPLINE
5
C6
100
AcDbEntity
8
1
62
256
6
ByLayer
370
18
48
1
60
0
100
AcDbSpline
70
4
71
3
72
36
73
32
40
0
40
0
40
0
40
0
40
0.0087967209833807
40
0.0087967209833807
40
0.0707469259219199
40
0.0707469259219199
40
0.10172202839119
40
0.10172202839119
40
0.132697130860459
40
0.132697130860459
40
0.194647335798998
40
0.194647335798998
40
0.225622438268268
40
0.225622438268268
40
0.256597540737537
40
0.256597540737537
40
0.380497950614614
40
0.380497950614614
40
0.442448155553151
40
0.442448155553151
40
0.504398360491689
40
0.504398360491689
40
0.628298770368765
40
0.628298770368765
40
0.690248975307303
40
0.690248975307303
40
0.721224077776571
40
0.721224077776571
40
0.75219918024584
40
0.75219918024584
40
1
40
1
40
1
40
1
41
1
10
69.8907663551001
20
-3.70721267700006
30
0
41
1
10
69.8357872126834
20
-3.71649366902622
30
0
41
1
10
69.7807937443431
20
-3.72542692327036
30
0
41
1
10
69.3383696667644
20
-3.79445529394295
30
0
41
1
10
68.9499790999178
20
-3.83747151486003
30
0
41
1
10
68.364004318434
20
-3.87456114565194
30
0
41
1
10
68.1678092083129
20
-3.88235773780968
30
0
41
1
10
67.7759069007318
20
-3.88855240337298
30
0
41
1
10
67.5802575816458
20
-3.88697105779644
30
0
41
1
10
66.9936165246139
20
-3.86829379759399
30
0
41
1
10
66.6029007361747
20
-3.8372747455519
30
0
41
1
10
66.015419077297
20
-3.76342323335015
30
0
41
1
10
65.8191315474565
20
-3.73414892295463
30
0
41
1
10
65.4275218813232
20
-3.66682867220848
30
0
41
1
10
65.2323408171984
20
-3.62883539491057
30
0
41
1
10
64.2586728535819
20
-3.4181224269411
30
0
41
1
10
63.4868198865563
20
-3.18325943052636
30
2E-16
41
1
10
62.3246507320522
20
-2.74775696442848
30
2E-16
41
1
10
61.9365878332191
20
-2.58862949187326
30
2E-16
41
1
10
61.1561534311527
20
-2.2458050411411
30
1E-16
41
1
10
60.7626783293417
20
-2.06138545099921
30
1E-16
41
1
10
59.5929242828524
20
-1.48601081550515
30
1E-16
41
1
10
58.8210791701158
20
-1.0707956338621
30
1E-16
41
1
10
57.6592746894153
20
-0.428825983432063
30
0
41
1
10
57.2715352448883
20
-0.211284705860748
30
0
41
1
10
56.6870284210881
20
0.116472410579007
30
0
41
1
10
56.4916944749895
20
0.225935659995997
30
0
41
1
10
56.0997062481351
20
0.444705552700128
30
0
41
1
10
55.9034829875599
20
0.553765938018131
30
0
41
1
10
54.1463242318052
20
1.52315328025401
30
-1E-16
41
1
10
52.6222800152786
20
2.31302306421674
30
-1E-16
41
1
10
51.05286267155
20
2.8962568562423
30
-2E-16
0
SPLINE
5
C7
100
AcDbEntity
8
1
62
256
6
ByLayer
370
18
48
1
60
0
100
AcDbSpline
70
4
71
3
72
16
73
12
40
0
40
0
40
0
40
0
40
0.22977335011187
40
0.22977335011187
40
0.459546700223739
40
0.459546700223739
40
0.689320050335609
40
0.689320050335609
40
0.919093400447479
40
0.919093400447479
40
1
40
1
40
1
40
1
41
1
10
88.6383428687178
20
3.74348111213701
30
0
41
1
10
88.2455338527019
20
3.74701180366469
30
0
41
1
10
87.8537269477212
20
3.73279333498127
30
0
41
1
10
87.0700399591832
20
3.66831313009297
30
0
41
1
10
86.6778043847586
20
3.61805247366576
30
0
41
1
10
85.8913190166242
20
3.48363680036769
30
0
41
1
10
85.4979625185918
20
3.39938999802572
30
0
41
1
10
84.7126537238128
20
3.1974914096601
30
0
41
1
10
84.3204600179226
20
3.08037689025696
30
-2E-16
41
1
10
83.7890249356593
20
2.90314388287615
30
-2E-16
41
1
10
83.6507729436053
20
2.85528863064735
30
-2E-16
41
1
10
83.512615101719
20
2.80580622266441
30
-2E-16
0
SPLINE
5
C8
100
AcDbEntity
8
1
62
256
6
ByLayer
370
18
48
1
60
0
100
AcDbSpline
70
4
71
3
72
16
73
12
40
0
40
0
40
0
40
0
40
0.144124555719684
40
0.144124555719684
40
0.358093416789763
40
0.358093416789763
40
0.572062277859841
40
0.572062277859841
40
0.786031138929921
40
0.786031138929921
40
1
40
1
40
1
40
1
41
1
10
56.5101294009813
20
-0.330932917877874
30
0
41
1
10
56.2457388949183
20
-0.188486713842849
30
0
41
1
10
55.9810346786814
20
-0.0451369867225537
30
0
41
1
10
55.3228233794599
20
0.310601657556248
30
0
41
1
10
54.9296230483071
20
0.522523765408806
30
0
41
1
10
54.1444634794196
20
0.939077520002996
30
-1E-16
41
1
10
53.7518530490289
20
1.14378728617251
30
-1E-16
41
1
10
52.9652885647052
20
1.54094916320253
30
-1E-16
41
1
10
52.5721279414148
20
1.73315087518262
30
-1E-16
41
1
10
51.7860609720435
20
2.09803181748333
30
-1E-16
41
1
10
51.3929865743534
20
2.27127577709652
30
-1E-16
41
1
10
51
20
2.4329052037053
30
-1E-16
0
SPLINE
5
C9
100
AcDbEntity
8
1
62
256
6
ByLayer
370
18
48
1
60
0
100
AcDbSpline
70
4
71
3
72
10
73
6
40
0
40
0
40
0
40
0
40
0.5
40
0.5
40
1
40
1
40
1
40
1
41
1
10
88.6458975714839
20
-3.73839145361816
30
0
41
1
10
88.6332779568101
20
-3.74689668148392
30
0
41
1
10
88.6225628024341
20
-3.75056174857116
30
0
41
1
10
88.6043081032047
20
-3.74832099721209
30
0
41
1
10
88.5968254541941
20
-3.74246123411152
30
0
41
1
10
88.5904457669251
20
-3.73227016725582
30
0
0
SPLINE
5
CA
100
AcDbEntity
8
1
62
256
6
ByLayer
370
18
48
1
60
0
100
AcDbSpline
70
4
71
3
72
8
73
4
40
0
40
0
40
0
40
0
40
1
40
1
40
1
40
1
41
1
10
89.3459797468676
20
-0.41006564302316
30
0
41
1
10
89.2075894363628
20
-0.0406485033885815
30
0
41
1
10
89.0310074007701
20
0.353942996061278
30
0
41
1
10
88.8170467265906
20
0.773172903308335
30
0
0
SPLINE
5
CB
100
AcDbEntity
8
1
62
256
6
ByLayer
370
18
48
1
60
0
100
AcDbSpline
70
4
71
3
72
14
73
10
40
0
40
0
40
0
40
0
40
0.265000978573451
40
0.265000978573451
40
0.499235723228479
40
0.499235723228479
40
0.779497039258433
40
0.779497039258433
40
1
40
1
40
1
40
1
41
1
10
88.1582925284195
20
-0.0215150301435187
30
0
41
1
10
88.159034075033
20
-0.0219055867475504
30
0
41
1
10
88.1597551480888
20
-0.0226625347819152
30
0
41
1
10
88.1609623824097
20
-0.0245004778307987
30
0
41
1
10
88.1614825198544
20
-0.0255581902849542
30
0
41
1
10
88.1624604131443
20
-0.0281359283504798
30
0
41
1
10
88.1629016234337
20
-0.0297455114177581
30
0
41
1
10
88.1634438713133
20
-0.0327829256965799
30
0
41
1
10
88.1636024764101
20
-0.0342111445503122
30
0
41
1
10
88.1636484044221
20
-0.0356318332360388
30
0
0
SPLINE
5
CC
100
AcDbEntity
8
1
62
256
6
ByLayer
370
18
48
1
60
0
100
AcDbSpline
70
4
71
3
72
8
73
4
40
0
40
0
40
0
40
0
40
1
40
1
40
1
40
1
41
1
10
89.9964035526266
20
0.215316484248177
30
0
41
1
10
90.001197356319
20
0.071815850151836
30
0
41
1
10
90.0012002761528
20
-0.071728446070523
30
0
41
1
10
89.9964035526266
20
-0.215316484249399
30
0
0
SPLINE
5
CD
100
AcDbEntity
8
1
62
256
6
ByLayer
370
18
48
1
60
0
100
AcDbSpline
70
4
71
3
72
18
73
14
40
0
40
0
40
0
40
0
40
0.0798131817334161
40
0.0798131817334161
40
0.333069739294248
40
0.333069739294248
40
0.586326296855081
40
0.586326296855081
40
0.712954575635497
40
0.712954575635497
40
0.839582854415913
40
0.839582854415913
40
1
40
1
40
1
40
1
41
1
10
51.1020379487784
20
3.68185965959495
30
0
41
1
10
51.1020332694302
20
3.68196611878093
30
0
41
1
10
51.1020286271144
20
3.6803161362499
30
0
41
1
10
51.1020094107343
20
3.66608250173948
30
0
41
1
10
51.1019952783649
20
3.63759670554873
30
0
41
1
10
51.1019674446956
20
3.54581964377672
30
0
41
1
10
51.1019538094271
20
3.48274366559778
30
0
41
1
10
51.101933047748
20
3.36331500076707
30
0
41
1
10
51.1019260970782
20
3.31951716731072
30
0
41
1
10
51.1019119463942
20
3.22397979289849
30
0
41
1
10
51.1019047272203
20
3.17209109153714
30
0
41
1
10
51.1018879668695
20
3.04628280921199
30
-1E-16
41
1
10
51.1018783275904
20
2.97027183997935
30
-2E-16
41
1
10
51.1018681932455
20
2.88853347328762
30
-2E-16
0
SPLINE
5
CE
100
AcDbEntity
8
1
62
256
6
ByLayer
370
18
48
1
60
0
100
AcDbSpline
70
4
71
3
72
40
73
36
40
0
40
0
40
0
40
0
40
0.0138876011768942
40
0.0138876011768942
40
0.0851101937033857
40
0.0851101937033857
40
0.156332786229877
40
0.156332786229877
40
0.191944082493123
40
0.191944082493123
40
0.227555378756369
40
0.227555378756369
40
0.298777971282858
40
0.298777971282858
40
0.334389267546103
40
0.334389267546103
40
0.370000563809348
40
0.370000563809348
40
0.441223156335837
40
0.441223156335837
40
0.512445748862327
40
0.512445748862327
40
0.583668341388816
40
0.583668341388816
40
0.654890933915306
40
0.654890933915306
40
0.726113526441795
40
0.726113526441795
40
0.797336118968284
40
0.797336118968284
40
0.868558711494774
40
0.868558711494774
40
0.939781304021263
40
0.939781304021263
40
1
40
1
40
1
40
1
41
1
10
78.271355369354
20
-0.33714591531421
30
0
41
1
10
78.1946858847982
20
-0.295866861700262
30
0
41
1
10
78.1180211795557
20
-0.254529651726983
30
0
41
1
10
77.6482581421526
20
-0.0009996724785708
30
0
41
1
10
77.2566067360501
20
0.211599459732184
30
0
41
1
10
76.4734938850552
20
0.632458426876809
30
0
41
1
10
76.082028540538
20
0.840769208406044
30
-1E-16
41
1
10
75.4931354619237
20
1.14674304142181
30
-1E-16
41
1
10
75.2964383405389
20
1.24758069828016
30
-1E-16
41
1
10
74.9039709196828
20
1.44556947970963
30
-1E-16
41
1
10
74.7079661679357
20
1.54280240740854
30
-1E-16
41
1
10
74.1201931395223
20
1.82861012535565
30
-1E-16
41
1
10
73.7286466665698
20
2.01124808187848
30
-1E-16
41
1
10
73.1397999980078
20
2.26986783881415
30
-1E-16
41
1
10
72.9430880861279
20
2.35361617570385
30
-1E-16
41
1
10
72.5504769272901
20
2.51505978555164
30
-2E-16
41
1
10
72.3544356734229
20
2.59285889588486
30
-2E-16
41
1
10
71.7665956057076
20
2.81589338893056
30
-2E-16
41
1
10
71.3750700697108
20
2.95140174432041
30
-2E-16
41
1
10
70.5902817204764
20
3.19408157196992
30
0
41
1
10
70.1969703979485
20
3.3007654386968
30
0
41
1
10
69.4129844362811
20
3.48092407973584
30
0
41
1
10
69.0215369967277
20
3.55471160651743
30
0
41
1
10
68.2368975895705
20
3.66690596831808
30
0
41
1
10
67.8435201271261
20
3.70552933300851
30
0
41
1
10
67.0595317751662
20
3.74706398312611
30
0
41
1
10
66.6679864983467
20
3.74945043707896
30
0
41
1
10
65.8834450224022
20
3.71906131281131
30
0
41
1
10
65.4899922022744
20
3.68590844287783
30
0
41
1
10
64.7057567212695
20
3.58467947563344
30
0
41
1
10
64.3143041778267
20
3.51678861734587
30
0
41
1
10
63.5299516521451
20
3.34675980651159
30
0
41
1
10
63.1361852081271
20
3.24442546479722
30
0
41
1
10
62.4149405416238
20
3.02996417785212
30
-2E-16
41
1
10
62.08585753577
20
2.92142167149007
30
-2E-16
41
1
10
61.7573730746926
20
2.8038506033177
30
-2E-16
0
SPLINE
5
CF
100
AcDbEntity
8
1
62
256
6
ByLayer
370
18
48
1
60
0
100
AcDbSpline
70
4
71
3
72
8
73
4
40
0
40
0
40
0
40
0
40
1
40
1
40
1
40
1
41
1
10
88.3889407788451
20
-3.84798321508319
30
0
41
1
10
88.4559143148028
20
-3.81026494611976
30
0
41
1
10
88.5230722299428
20
-3.77168732072334
30
0
41
1
10
88.590445766925
20
-3.73227016725588
30
0
0
SPLINE
5
D0
100
AcDbEntity
8
1
62
256
6
ByLayer
370
18
48
1
60
0
100
AcDbSpline
70
4
71
3
72
8
73
4
40
0
40
0
40
0
40
0
40
1
40
1
40
1
40
1
41
1
10
89.6553239927518
20
1.20972890169631
30
0
41
1
10
89.7721626802181
20
0.879383734659484
30
0
41
1
10
89.885871563892
20
0.547918546136344
30
0
41
1
10
89.996403552632
20
0.215316484243004
30
0
0
SPLINE
5
D1
100
AcDbEntity
8
1
62
256
6
ByLayer
370
18
48
1
60
0
100
AcDbSpline
70
4
71
3
72
54
73
50
40
0
40
0
40
0
40
0
40
0.0242445003845796
40
0.0242445003845796
40
0.075600052995918
40
0.075600052995918
40
0.126955605607256
40
0.126955605607256
40
0.178311158218595
40
0.178311158218595
40
0.229666710829933
40
0.229666710829933
40
0.281022263441272
40
0.281022263441272
40
0.30670003974694
40
0.30670003974694
40
0.332377816052609
40
0.332377816052609
40
0.383733368663945
40
0.383733368663945
40
0.486444473886619
40
0.486444473886619
40
0.512122250192288
40
0.512122250192288
40
0.537800026497956
40
0.537800026497956
40
0.589155579109292
40
0.589155579109292
40
0.61483335541496
40
0.61483335541496
40
0.640511131720628
40
0.640511131720628
40
0.691866684331966
40
0.691866684331966
40
0.717544460637635
40
0.717544460637635
40
0.743222236943305
40
0.743222236943305
40
0.794577789554644
40
0.794577789554644
40
0.820255565860313
40
0.820255565860313
40
0.845933342165983
40
0.845933342165983
40
0.897288894777322
40
0.897288894777322
40
0.948644447388661
40
0.948644447388661
40
1
40
1
40
1
40
1
41
1
10
65.6398554740695
20
3.83171548306015
30
0
41
1
10
65.8244250099085
20
3.84902644253998
30
0
41
1
10
66.0089937074962
20
3.86227112620946
30
0
41
1
10
66.583664127362
20
3.89061186621424
30
0
41
1
10
66.9732558981271
20
3.89135956851533
30
0
41
1
10
67.7535447360547
20
3.85587877927776
30
0
41
1
10
68.1450827344952
20
3.8194864616699
30
0
41
1
10
68.9258636522191
20
3.71088204049715
30
0
41
1
10
69.3155021057267
20
3.63875415263956
30
0
41
1
10
70.0958022023144
20
3.46041026088639
30
0
41
1
10
70.4873036706054
20
3.35386673725068
30
0
41
1
10
71.2679681648366
20
3.11033825522719
30
-2E-16
41
1
10
71.6574705560901
20
2.97336547693882
30
-2E-16
41
1
10
72.2425675521672
20
2.74747852646803
30
-2E-16
41
1
10
72.4377415097768
20
2.66878131903681
30
-2E-16
41
1
10
72.8286916699618
20
2.50495302822
30
-2E-16
41
1
10
73.02420391456
20
2.41991976797888
30
-1E-16
41
1
10
73.6082119145488
20
2.15759476908497
30
-1E-16
41
1
10
73.9953764163213
20
1.97258648755832
30
-1E-16
41
1
10
75.154279545018
20
1.39379826690708
30
-1E-16
41
1
10
75.9233404980378
20
0.976095533945085
30
-1E-16
41
1
10
76.8931825346047
20
0.436096437057245
30
0
41
1
10
77.0875845058889
20
0.327218314344378
30
0
41
1
10
77.4775989662919
20
0.108296950395442
30
0
41
1
10
77.6733991903104
20
-0.0018469923231237
30
0
41
1
10
78.259169622822
20
-0.330965394677889
30
0
41
1
10
78.6486912831722
20
-0.549335097271921
30
0
41
1
10
79.2334406744094
20
-0.871866837762127
30
1E-16
41
1
10
79.4284371942916
20
-0.978536264179382
30
1E-16
41
1
10
79.8189346489911
20
-1.1895846433157
30
1E-16
41
1
10
80.0146038551538
20
-1.29404856113433
30
1E-16
41
1
10
80.6003500283627
20
-1.60176631033426
30
1E-16
41
1
10
80.9898490934565
20
-1.79972095219387
30
1E-16
41
1
10
81.5745731031919
20
-2.08276141432253
30
1E-16
41
1
10
81.7695608781245
20
-2.17479211386234
30
1E-16
41
1
10
82.1600305790616
20
-2.353695854309
30
1E-16
41
1
10
82.3556940276123
20
-2.44064177298918
30
1E-16
41
1
10
82.941443347598
20
-2.69192046772164
30
2E-16
41
1
10
83.3308944748831
20
-2.84701067463192
30
2E-16
41
1
10
83.9154676822838
20
-3.05859924259784
30
2E-16
41
1
10
84.1103936015163
20
-3.12561816816043
30
2E-16
41
1
10
84.5007308422181
20
-3.25221559316679
30
2E-16
41
1
10
84.696324380477
20
-3.31183996871607
30
2E-16
41
1
10
85.282055161617
20
-3.47829987893869
30
0
41
1
10
85.6716778134084
20
-3.57291372431482
30
0
41
1
10
86.4519266349573
20
-3.72752496167078
30
0
41
1
10
86.8432993726163
20
-3.78757135974803
30
0
41
1
10
87.6238214626494
20
-3.87085310021666
30
0
41
1
10
88.0133288109485
20
-3.89424270214096
30
0
41
1
10
88.4034625244665
20
-3.89904862171642
30
0
0
SPLINE
5
D2
100
AcDbEntity
8
1
62
256
6
ByLayer
370
18
48
1
60
0
100
AcDbSpline
70
4
71
3
72
66
73
62
40
0
40
0
40
0
40
0
40
0.0624999999999988
40
0.0624999999999988
40
0.124999999999998
40
0.124999999999998
40
0.187499999999997
40
0.187499999999997
40
0.249999999999995
40
0.249999999999995
40
0.281249999999995
40
0.281249999999995
40
0.312499999999994
40
0.312499999999994
40
0.328124999999994
40
0.328124999999994
40
0.343749999999994
40
0.343749999999994
40
0.374999999999993
40
0.374999999999993
40
0.390624999999993
40
0.390624999999993
40
0.406249999999993
40
0.406249999999993
40
0.437499999999994
40
0.437499999999994
40
0.453124999999994
40
0.453124999999994
40
0.468749999999994
40
0.468749999999994
40
0.499999999999993
40
0.499999999999993
40
0.531249999999992
40
0.531249999999992
40
0.562499999999992
40
0.562499999999992
40
0.62499999999999
40
0.62499999999999
40
0.640624999999989
40
0.640624999999989
40
0.648437499999989
40
0.652343749999989
40
0.652343749999989
40
0.656249999999988
40
0.656249999999988
40
0.660156249999987
40
0.660156249999987
40
0.664062499999987
40
0.664062499999987
40
0.667968749999986
40
0.667968749999986
40
0.671874999999986
40
0.687499999999986
40
0.687499999999986
40
0.749999999999989
40
0.749999999999989
40
0.874999999999996
40
0.874999999999996
40
0.937499999999998
40
0.937499999999998
40
1
40
1
40
1
40
1
41
1
10
8.89558560473418
20
-3.18071968514713
30
2E-16
41
1
10
8.67885882898582
20
-3.11268903874017
30
2E-16
41
1
10
8.46555819632314
20
-3.03765483890845
30
2E-16
41
1
10
8.04723843586933
20
-2.87019162364109
30
2E-16
41
1
10
7.84219318865291
20
-2.77782011911103
30
2E-16
41
1
10
7.44281196413914
20
-2.57009276980654
30
2E-16
41
1
10
7.24830759025559
20
-2.45484754319452
30
2E-16
41
1
10
6.8751849691437
20
-2.1907809879672
30
1E-16
41
1
10
6.69968242761635
20
-2.04452312217686
30
1E-16
41
1
10
6.46267954541983
20
-1.79117468819331
30
1E-16
41
1
10
6.38921542435008
20
-1.70205582504514
30
1E-16
41
1
10
6.2565715601024
20
-1.51261030089654
30
1E-16
41
1
10
6.19728261199378
20
-1.41225475322255
30
1E-16
41
1
10
6.12249738101553
20
-1.25040725001361
30
1E-16
41
1
10
6.10010015111069
20
-1.19478489116614
30
1E-16
41
1
10
6.06167807956766
20
-1.08184997475402
30
1E-16
41
1
10
6.04552653119373
20
-1.02427671583783
30
1E-16
41
1
10
6.00708901963469
20
-0.847944445370729
30
1E-16
41
1
10
5.9951287351021
20
-0.724079615568996
30
0
41
1
10
6.00050291409201
20
-0.540672154199541
30
0
41
1
10
6.00603504561437
20
-0.479608498070547
30
0
41
1
10
6.02447425671633
20
-0.357628372109275
30
0
41
1
10
6.03748486663102
20
-0.296357317413452
30
0
41
1
10
6.08675534972863
20
-0.115405658798863
30
0
41
1
10
6.13260753302094
20
0.0001417004473581
30
0
41
1
10
6.2171513760824
20
0.167293096313614
30
0
41
1
10
6.24804117562454
20
0.222021809451149
30
0
41
1
10
6.31338461725909
20
0.327690968880631
30
0
41
1
10
6.3479685556099
20
0.378909383231019
30
0
41
1
10
6.45666799323951
20
0.528389388008094
30
0
41
1
10
6.53569308657009
20
0.622508135099878
30
0
41
1
10
6.70401186622962
20
0.802109371189033
30
0
41
1
10
6.79345627989321
20
0.887623296215168
30
-1E-16
41
1
10
6.97792995533931
20
1.04926173999075
30
-1E-16
41
1
10
7.07331593507718
20
1.1257689957701
30
-1E-16
41
1
10
7.36710715504947
20
1.34490608717644
30
-1E-16
41
1
10
7.57260442810551
20
1.47689097044653
30
-1E-16
41
1
10
7.83604745207396
20
1.62852921105303
30
-1E-16
41
1
10
7.88908960138727
20
1.65818976766721
30
-1E-16
41
1
10
7.96909539491551
20
1.7017310335163
30
-1E-16
41
1
10
8.009212846525
20
1.72326627365206
30
-1E-16
41
1
10
8.04949605945308
20
1.74446199558324
30
-1E-16
41
1
10
8.07638603547903
20
1.75851757486063
30
-1E-16
41
1
10
8.08950726999345
20
1.76621513777781
30
-1E-16
41
1
10
8.11891373752144
20
1.77543346792632
30
-1E-16
41
1
10
8.13437723219849
20
1.77708210409972
30
-1E-16
41
1
10
8.16526408413372
20
1.77710832829439
30
-1E-16
41
1
10
8.18042822621959
20
1.77513773164648
30
-1E-16
41
1
10
8.21040409919593
20
1.76868663062422
30
-1E-16
41
1
10
8.22522153329996
20
1.76460591285459
30
-1E-16
41
1
10
8.25494332559589
20
1.75698820800511
30
-1E-16
41
1
10
8.32921002430194
20
1.73781394645866
30
-1E-16
41
1
10
8.40329342642994
20
1.71798794184764
30
-1E-16
41
1
10
8.69897233841667
20
1.63660693285854
30
-1E-16
41
1
10
8.9336448930008
20
1.56476348383438
30
-1E-16
41
1
10
9.62979840257501
20
1.32983496275895
30
-1E-16
41
1
10
10.0835867733186
20
1.14705268998298
30
-1E-16
41
1
10
10.7532046878031
20
0.839188226384294
30
-1E-16
41
1
10
10.974751716244
20
0.730965186974061
30
0
41
1
10
11.4135747283106
20
0.505968771942037
30
0
41
1
10
11.6310509429215
20
0.389144874627476
30
0
41
1
10
11.8472219117875
20
0.269059366382635
30
0
0
SPLINE
5
D3
100
AcDbEntity
8
1
62
256
6
ByLayer
370
18
48
1
60
0
100
AcDbSpline
70
4
71
3
72
20
73
16
40
0
40
0
40
0
40
0
40
0.25
40
0.25
40
0.500000000000001
40
0.500000000000001
40
0.562500000000001
40
0.562500000000001
40
0.625000000000001
40
0.625000000000001
40
0.75
40
0.75
40
0.875
40
0.875
40
1
40
1
40
1
40
1
41
1
10
88.6458975714839
20
-3.73839145361845
30
0
41
1
10
88.7226665304279
20
-3.52250028632551
30
0
41
1
10
88.7988677703102
20
-3.30518136353277
30
0
41
1
10
88.9530750405661
20
-2.8691873909323
30
0
41
1
10
89.03104185236
20
-2.65070009216555
30
0
41
1
10
89.1303480943979
20
-2.37861296772246
30
0
41
1
10
89.150299159199
20
-2.32424462721963
30
0
41
1
10
89.1903949409177
20
-2.21560751631805
30
0
41
1
10
89.2104115156203
20
-2.16126968405035
30
0
41
1
10
89.2718502684201
20
-1.99899087692273
30
0
41
1
10
89.3149586405398
20
-1.89183403139319
30
0
41
1
10
89.4046363660285
20
-1.68535623547072
30
0
41
1
10
89.4514247275273
20
-1.58533179769415
30
0
41
1
10
89.5498331630528
20
-1.39192735476303
30
0
41
1
10
89.601872902215
20
-1.29790405482302
30
0
41
1
10
89.6553239927519
20
-1.20972890169637
30
0
0
SPLINE
5
D4
100
AcDbEntity
8
1
62
256
6
ByLayer
370
18
48
1
60
0
100
AcDbSpline
70
2053
71
3
72
54
73
50
40
0
40
0
40
0
40
0
40
0.0624999999999997
40
0.0624999999999997
40
0.124999999999999
40
0.124999999999999
40
0.187499999999999
40
0.187499999999999
40
0.249999999999999
40
0.249999999999999
40
0.281249999999999
40
0.281249999999999
40
0.312499999999999
40
0.312499999999999
40
0.343749999999999
40
0.343749999999999
40
0.374999999999999
40
0.374999999999999
40
0.406249999999999
40
0.406249999999999
40
0.437499999999998
40
0.437499999999998
40
0.500000000000008
40
0.500000000000008
40
0.562500000000017
40
0.562500000000017
40
0.593750000000016
40
0.593750000000016
40
0.625000000000015
40
0.625000000000015
40
0.656250000000014
40
0.656250000000014
40
0.687500000000014
40
0.687500000000014
40
0.718750000000013
40
0.718750000000013
40
0.750000000000012
40
0.750000000000012
40
0.812500000000009
40
0.812500000000009
40
0.843750000000007
40
0.843750000000007
40
0.875000000000006
40
0.875000000000006
40
0.906250000000004
40
0.906250000000004
40
0.937500000000003
40
0.937500000000003
40
1
40
1
40
1
40
1
41
1
10
89.1090015100844
20
-1.38295794111627
30
1E-16
41
1
10
89.0816871562993
20
-1.41400136246966
30
1E-16
41
1
10
89.0560948917788
20
-1.43418928847748
30
1E-16
41
1
10
89.007359869577
20
-1.45345015035213
30
1E-16
41
1
10
88.9854847429871
20
-1.45197703539466
30
1E-16
41
1
10
88.9458003349254
20
-1.4260344719367
30
1E-16
41
1
10
88.9289925199762
20
-1.40222526680736
30
1E-16
41
1
10
88.9012265140594
20
-1.331462438285
30
1E-16
41
1
10
88.8909813268249
20
-1.28639547138579
30
1E-16
41
1
10
88.8820525513445
20
-1.20331629684338
30
1E-16
41
1
10
88.8802912035328
20
-1.17398699069449
30
1E-16
41
1
10
88.8793566786708
20
-1.11210802613601
30
1E-16
41
1
10
88.8802176505935
20
-1.07905660553598
30
1E-16
41
1
10
88.8849368417143
20
-1.01174434076475
30
1E-16
41
1
10
88.8887301077673
20
-0.97780205832575
30
1E-16
41
1
10
88.8994932507966
20
-0.909361356840662
30
1E-16
41
1
10
88.9064971286288
20
-0.875023976628853
30
1E-16
41
1
10
88.9231567513757
20
-0.80974882276783
30
0
41
1
10
88.9330352760254
20
-0.777929724009141
30
0
41
1
10
88.9549728771121
20
-0.718955879773063
30
0
41
1
10
88.9669806930216
20
-0.691768825362459
30
0
41
1
10
89.0060232756498
20
-0.616643032354801
30
0
41
1
10
89.0350814499782
20
-0.577267773214288
30
0
41
1
10
89.0945373875151
20
-0.520216466950757
30
0
41
1
10
89.1250894796064
20
-0.502378584853545
30
0
41
1
10
89.1687796652667
20
-0.491131076889388
30
0
41
1
10
89.1830034218879
20
-0.48992632071807
30
0
41
1
10
89.2106469507431
20
-0.492598849273378
30
0
41
1
10
89.2240577556578
20
-0.496532754196721
30
0
41
1
10
89.2490380733917
20
-0.509370061172802
30
0
41
1
10
89.2607285584561
20
-0.518269228360197
30
0
41
1
10
89.2822851833679
20
-0.541360084483017
30
0
41
1
10
89.292225957556
20
-0.555737813813096
30
0
41
1
10
89.3092493868081
20
-0.58945966219872
30
0
41
1
10
89.3164078166325
20
-0.608802339395965
30
0
41
1
10
89.3276323997891
20
-0.653079972927316
30
0
41
1
10
89.3316250042611
20
-0.67802486808327
30
0
41
1
10
89.3378070553522
20
-0.758320827683065
30
0
41
1
10
89.334122954833
20
-0.822049428399822
30
1E-16
41
1
10
89.3171072538726
20
-0.921307230667395
30
-1E-16
41
1
10
89.3094524532375
20
-0.955653365881915
30
-1E-16
41
1
10
89.2914350825124
20
-1.02253576605611
30
0
41
1
10
89.2809259956304
20
-1.05576478365859
30
0
41
1
10
89.2578741451761
20
-1.11988588450893
30
0
41
1
10
89.2455213162487
20
-1.15033810586576
30
0
41
1
10
89.219450192755
20
-1.20834417646554
30
0
41
1
10
89.2058288766011
20
-1.23561960722088
30
0
41
1
10
89.1647180002552
20
-1.31032876688352
30
1E-16
41
1
10
89.1363158638695
20
-1.35191451976289
30
1E-16
41
1
10
89.1090015100844
20
-1.38295794111627
30
1E-16
0
SPLINE
5
D5
100
AcDbEntity
8
1
62
256
6
ByLayer
370
18
48
1
60
0
100
AcDbSpline
70
4
71
3
72
32
73
28
40
0
40
0
40
0
40
0
40
0.0740302111655643
40
0.0740302111655643
40
0.148060422331129
40
0.148060422331129
40
0.222090633496693
40
0.222090633496693
40
0.296120844662257
40
0.296120844662257
40
0.370151055827821
40
0.370151055827821
40
0.444181266993386
40
0.444181266993386
40
0.51821147815895
40
0.51821147815895
40
0.592241689324514
40
0.592241689324514
40
0.740302111655641
40
0.740302111655641
40
0.814332322821203
40
0.814332322821203
40
0.888362533986765
40
0.888362533986765
40
0.962392745152327
40
0.962392745152327
40
1
40
1
40
1
40
1
41
1
10
51
20
2.52816299124413
30
-2E-16
41
1
10
51.3913628653334
20
2.3621907897288
30
-1E-16
41
1
10
51.7826679446147
20
2.18387967317443
30
-1E-16
41
1
10
52.5619294616563
20
1.80971535502007
30
-1E-16
41
1
10
52.9506501347421
20
1.6135786165658
30
-1E-16
41
1
10
53.7290197435483
20
1.20773709124705
30
-1E-16
41
1
10
54.1186606803598
20
0.99802599521837
30
-1E-16
41
1
10
54.9012843510084
20
0.569021554106399
30
0
41
1
10
55.292218405134
20
0.35084883355475
30
0
41
1
10
56.0741122820677
20
-0.08695403350373
30
0
41
1
10
56.4657014580996
20
-0.306901889540001
30
0
41
1
10
57.2463608326154
20
-0.740396325658679
30
0
41
1
10
57.6361285217224
20
-0.954367069624766
30
1E-16
41
1
10
58.4170843457192
20
-1.37227929309654
30
1E-16
41
1
10
58.8089387630457
20
-1.57648637414027
30
1E-16
41
1
10
59.586379967812
20
-1.96479977421566
30
1E-16
41
1
10
59.9732155646405
20
-2.14957830963536
30
1E-16
41
1
10
61.1320732389243
20
-2.67031488312904
30
2E-16
41
1
10
61.9021438677685
20
-2.97313675052658
30
2E-16
41
1
10
63.0685056780571
20
-3.34024668196318
30
0
41
1
10
63.4603903328598
20
-3.44823003165001
30
0
41
1
10
64.2411382000047
20
-3.62933702408063
30
0
41
1
10
64.6308206670832
20
-3.70281916112447
30
0
41
1
10
65.4112984641542
20
-3.81420826672047
30
0
41
1
10
65.8029102571707
20
-3.85210780949254
30
0
41
1
10
66.3915981879211
20
-3.88113984422512
30
0
41
1
10
66.5897065619242
20
-3.88614457366825
30
0
41
1
10
66.7877876955387
20
-3.88637615375075
30
0
0
SPLINE
5
D6
100
AcDbEntity
8
1
62
256
6
ByLayer
370
18
48
1
60
0
100
AcDbSpline
70
4
71
3
72
8
73
4
40
0
40
0
40
0
40
0
40
1
40
1
40
1
40
1
41
1
10
87.3272098743557
20
3.8388555008882
30
0
41
1
10
87.6861470267404
20
3.87447652230199
30
0
41
1
10
88.0445396981231
20
3.89462717804864
30
0
41
1
10
88.4034625244655
20
3.89904862171642
30
0
0
SPLINE
5
D7
100
AcDbEntity
8
1
62
256
6
ByLayer
370
18
48
1
60
0
100
AcDbSpline
70
4
71
3
72
14
73
10
40
0
40
0
40
0
40
0
40
0.255714937245619
40
0.255714937245619
40
0.55022146060959
40
0.55022146060959
40
0.84472798397356
40
0.84472798397356
40
1
40
1
40
1
40
1
41
1
10
16.1402233288476
20
-2.00814334784059
30
0
41
1
10
15.5111580855861
20
-2.1214282893271
30
0
41
1
10
14.8847330738005
20
-2.23231000410428
30
0
41
1
10
13.5435759668525
20
-2.46389374936507
30
0
41
1
10
12.829667376806
20
-2.5835472900371
30
0
41
1
10
11.4089952285662
20
-2.81209299474602
30
0
41
1
10
10.7028001287704
20
-2.92095163736875
30
0
41
1
10
9.63157871252312
20
-3.07771229190476
30
0
41
1
10
9.26301229731223
20
-3.13011314642372
30
2E-16
41
1
10
8.89562914974545
20
-3.18074782657845
30
2E-16
0
SPLINE
5
D8
100
AcDbEntity
8
1
62
256
6
ByLayer
370
18
48
1
60
0
100
AcDbSpline
70
4
71
3
72
8
73
4
40
0
40
0
40
0
40
0
40
1
40
1
40
1
40
1
41
1
10
51
20
2.4843221738171
30
-2E-16
41
1
10
51
20
2.46792932338778
30
-2E-16
41
1
10
51
20
2.45078651441165
30
-2E-16
41
1
10
51
20
2.43290520370539
30
-1E-16
0
SPLINE
5
D9
100
AcDbEntity
8
1
62
256
6
ByLayer
370
18
48
1
60
0
100
AcDbSpline
70
4
71
3
72
58
73
54
40
0
40
0
40
0
40
0
40
0.0400677007651123
40
0.0400677007651123
40
0.0856778661102331
40
0.0856778661102331
40
0.108482948782794
40
0.108482948782794
40
0.131288031455354
40
0.131288031455354
40
0.176898196800476
40
0.176898196800476
40
0.199703279473037
40
0.199703279473037
40
0.222508362145598
40
0.222508362145598
40
0.26811852749072
40
0.26811852749072
40
0.290923610163281
40
0.290923610163281
40
0.313728692835842
40
0.313728692835842
40
0.404949023526085
40
0.404949023526085
40
0.450559188871206
40
0.450559188871206
40
0.473364271543766
40
0.473364271543766
40
0.496169354216326
40
0.496169354216326
40
0.541779519561448
40
0.541779519561448
40
0.56458460223401
40
0.56458460223401
40
0.587389684906571
40
0.587389684906571
40
0.632999850251693
40
0.632999850251693
40
0.655804932924255
40
0.655804932924255
40
0.678610015596816
40
0.678610015596816
40
0.769830346287065
40
0.769830346287065
40
0.81544051163219
40
0.81544051163219
40
0.861050676977315
40
0.861050676977315
40
0.90666084232244
40
0.90666084232244
40
0.952271007667565
40
0.952271007667565
40
1
40
1
40
1
40
1
41
1
10
18.1040325514223
20
2.85634682941469
30
-1E-16
41
1
10
18.4606336408315
20
2.98997998302878
30
-1E-16
41
1
10
18.8163130449176
20
3.11191277438587
30
-1E-16
41
1
10
19.5770414095919
20
3.34539205079506
30
0
41
1
10
19.9820451148393
20
3.45323779528835
30
0
41
1
10
20.5919133494145
20
3.58799230879134
30
0
41
1
10
20.7956058328313
20
3.62840437457584
30
0
41
1
10
21.2041305869463
20
3.69987414410446
30
0
41
1
10
21.4092433502163
20
3.73095914156843
30
0
41
1
10
22.0249298986611
20
3.8094038844348
30
0
41
1
10
22.4340868473993
20
3.84167059721176
30
0
41
1
10
23.0480320683615
20
3.85977310880636
30
0
41
1
10
23.2526948111138
20
3.86075637360881
30
0
41
1
10
23.6624857285244
20
3.85256274447275
30
0
41
1
10
23.867870828772
20
3.84337033896995
30
0
41
1
10
24.4833643983805
20
3.80065635244998
30
0
41
1
10
24.8923734545402
20
3.75205818970056
30
0
41
1
10
25.5063096939264
20
3.6500890036005
30
0
41
1
10
25.7110355079886
20
3.61126299475637
30
0
41
1
10
26.1209831366328
20
3.52410148251343
30
0
41
1
10
26.326560548025
20
3.47567792245724
30
0
41
1
10
27.3501678612019
20
3.21185504134775
30
-2E-16
41
1
10
28.1587133211553
20
2.93163236952009
30
-2E-16
41
1
10
29.3736934224573
20
2.43030715954791
30
-1E-16
41
1
10
29.7789875250405
20
2.24962126316171
30
-1E-16
41
1
10
30.3896750890283
20
1.96123288456044
30
-1E-16
41
1
10
30.5937102300349
20
1.86223599572324
30
-1E-16
41
1
10
31.003061129785
20
1.65894274718031
30
-1E-16
41
1
10
31.2086052525227
20
1.55455285042672
30
-1E-16
41
1
10
31.8233544021236
20
1.23634334345073
30
-1E-16
41
1
10
32.2321734159609
20
1.01719362745834
30
-1E-16
41
1
10
32.8460757109029
20
0.681774607637152
30
0
41
1
10
33.0508063131944
20
0.568824223035563
30
0
41
1
10
33.4608663587995
20
0.341339812889288
30
0
41
1
10
33.6662206582588
20
0.226854050258055
30
0
41
1
10
34.280825384874
20
-0.116243237917814
30
0
41
1
10
34.6895532910232
20
-0.345138046372028
30
0
41
1
10
35.3035004756928
20
-0.684476447541641
30
0
41
1
10
35.5083077765106
20
-0.796894243137757
30
0
41
1
10
35.9185736533512
20
-1.01973964318248
30
1E-16
41
1
10
36.1236368600386
20
-1.12991368280544
30
1E-16
41
1
10
37.1444183846515
20
-1.6707200436901
30
1E-16
41
1
10
37.9518891882218
20
-2.07248214499154
30
1E-16
41
1
10
39.1670215229617
20
-2.60207798994512
30
2E-16
41
1
10
39.5726697671643
20
-2.76651066506787
30
2E-16
41
1
10
40.3882108005015
20
-3.06663042491533
30
2E-16
41
1
10
40.7993899276703
20
-3.20249998788648
30
2E-16
41
1
10
41.6180327863944
20
-3.43825424847981
30
0
41
1
10
42.0266260515038
20
-3.53847081980095
30
0
41
1
10
42.8453644320184
20
-3.70124293289564
30
0
41
1
10
43.2563523195355
20
-3.76380423989795
30
0
41
1
10
44.0906354639782
20
-3.85008999625606
30
0
41
1
10
44.5149312893197
20
-3.87228368010932
30
0
41
1
10
44.9385943171129
20
-3.87271407347166
30
0
0
SPLINE
5
DA
100
AcDbEntity
8
1
62
256
6
ByLayer
370
18
48
1
60
0
100
AcDbSpline
70
4
71
3
72
24
73
20
40
0
40
0
40
0
40
0
40
0.0268072926296882
40
0.0268072926296882
40
0.241640118786097
40
0.241640118786097
40
0.349056531864302
40
0.349056531864302
40
0.456472944942506
40
0.456472944942506
40
0.671305771098912
40
0.671305771098912
40
0.778722184177113
40
0.778722184177113
40
0.832430390716214
40
0.832430390716214
40
0.886138597255315
40
0.886138597255315
40
1
40
1
40
1
40
1
41
1
10
67.8060667684724
20
-3.70204683992768
30
0
41
1
10
67.7078449406011
20
-3.70226956985124
30
0
41
1
10
67.6096229345641
20
-3.70137126323706
30
0
41
1
10
66.7252435410703
20
-3.68318990596956
30
0
41
1
10
65.9469442605362
20
-3.59561716097028
30
0
41
1
10
64.7775801245536
20
-3.36543388612355
30
0
41
1
10
64.387348138323
20
-3.27226199051219
30
0
41
1
10
63.6036383416757
20
-3.05467809001118
30
2E-16
41
1
10
63.2088788158759
20
-2.9297887493527
30
2E-16
41
1
10
62.0338281035585
20
-2.51743788567276
30
2E-16
41
1
10
61.2585766826047
20
-2.1918627133108
30
1E-16
41
1
10
60.0930413286491
20
-1.65081858416437
30
1E-16
41
1
10
59.7041454261173
20
-1.46157074248191
30
1E-16
41
1
10
59.1183731920787
20
-1.16741851403424
30
1E-16
41
1
10
58.9227013561476
20
-1.06767222259594
30
1E-16
41
1
10
58.5302010541193
20
-0.865331801579657
30
1E-16
41
1
10
58.3329576562521
20
-0.762517782849642
30
0
41
1
10
57.7199432688586
20
-0.440645286151266
30
0
41
1
10
57.3061375829981
20
-0.219629629767383
30
0
41
1
10
56.8935031370942
20
0.0007101906609535
30
0
0
SPLINE
5
DB
100
AcDbEntity
8
1
62
256
6
ByLayer
370
18
48
1
60
0
100
AcDbSpline
70
4
71
3
72
40
73
36
40
0
40
0
40
0
40
0
40
0.0441935149144859
40
0.0441935149144859
40
0.0957611693406826
40
0.0957611693406826
40
0.147328823766879
40
0.147328823766879
40
0.250464132619271
40
0.250464132619271
40
0.302031787045467
40
0.302031787045467
40
0.353599441471661
40
0.353599441471661
40
0.405167095897856
40
0.405167095897856
40
0.456734750324051
40
0.456734750324051
40
0.559870059176441
40
0.559870059176441
40
0.611437713602636
40
0.611437713602636
40
0.663005368028831
40
0.663005368028831
40
0.714573022455026
40
0.714573022455026
40
0.766140676881221
40
0.766140676881221
40
0.817708331307416
40
0.817708331307416
40
0.869275985733611
40
0.869275985733611
40
0.972411294586003
40
0.972411294586003
40
1
40
1
40
1
40
1
41
1
10
66.6785956660687
20
-0.178508053751415
30
0
41
1
10
66.5131137095527
20
-0.0907379630754974
30
0
41
1
10
66.3478858860827
20
-0.0028670328525777
30
0
41
1
10
65.9904074637359
20
0.187695814739925
30
0
41
1
10
65.7984072580463
20
0.290655287486544
30
0
41
1
10
65.4140160845922
20
0.49494864132825
30
0
41
1
10
65.2216920262676
20
0.596389427107624
30
0
41
1
10
64.6443602504257
20
0.898494694554927
30
-1E-16
41
1
10
64.258744369332
20
1.09659406105572
30
-1E-16
41
1
10
63.6779842400992
20
1.38624356722877
30
-1E-16
41
1
10
63.4837416564944
20
1.48168308324381
30
-1E-16
41
1
10
63.0953368249077
20
1.668748907154
30
-1E-16
41
1
10
62.9017602735523
20
1.76011467022118
30
-1E-16
41
1
10
62.5158039264467
20
1.93804650840642
30
-1E-16
41
1
10
62.3235784013997
20
2.02455619345605
30
-1E-16
41
1
10
61.9392103433981
20
2.19247172874145
30
-1E-16
41
1
10
61.7470889679597
20
2.2738893788586
30
-1E-16
41
1
10
61.1711081727584
20
2.50999797223358
30
-2E-16
41
1
10
60.7875395630465
20
2.65674689542962
30
-2E-16
41
1
10
60.2127171762047
20
2.85648733892825
30
-2E-16
41
1
10
60.0211659561253
20
2.91968313188391
30
-2E-16
41
1
10
59.6372032549631
20
3.03970695362196
30
-2E-16
41
1
10
59.4448204138772
20
3.09650630406921
30
-2E-16
41
1
10
59.0591604155168
20
3.20330874856089
30
0
41
1
10
58.8658821005691
20
3.25330119067729
30
0
41
1
10
58.4782586381428
20
3.34562777112399
30
0
41
1
10
58.2835049653043
20
3.38802545892906
30
0
41
1
10
57.8961270756995
20
3.46368483609658
30
0
41
1
10
57.703199312989
20
3.49709396849531
30
0
41
1
10
57.3177363742943
20
3.55625311349934
30
0
41
1
10
57.1252365835818
20
3.58194914998495
30
0
41
1
10
56.5484705576962
20
3.64675835968814
30
0
41
1
10
56.1649196217392
20
3.67359626138057
30
0
41
1
10
55.6792777077293
20
3.6845417191706
30
0
41
1
10
55.5768117331672
20
3.68555597142085
30
0
41
1
10
55.4743150183274
20
3.68537077716221
30
0
0
SPLINE
5
DC
100
AcDbEntity
8
1
62
256
6
ByLayer
370
18
48
1
60
0
100
AcDbSpline
70
4
71
3
72
66
73
62
40
0
40
0
40
0
40
0
40
0.0016222034563266
40
0.0016222034563266
40
0.0500506846282252
40
0.0500506846282252
40
0.0984791658001237
40
0.0984791658001237
40
0.146907646972022
40
0.146907646972022
40
0.171121887557971
40
0.171121887557971
40
0.19533612814392
40
0.19533612814392
40
0.243764609315817
40
0.243764609315817
40
0.267978849901765
40
0.267978849901765
40
0.292193090487714
40
0.292193090487714
40
0.340621571659611
40
0.340621571659611
40
0.36483581224556
40
0.36483581224556
40
0.389050052831508
40
0.389050052831508
40
0.437478534003406
40
0.437478534003406
40
0.485907015175303
40
0.485907015175303
40
0.510121255761251
40
0.510121255761251
40
0.5343354963472
40
0.5343354963472
40
0.558549736933149
40
0.558549736933149
40
0.582763977519097
40
0.582763977519097
40
0.631192458690995
40
0.631192458690995
40
0.679620939862892
40
0.679620939862892
40
0.728049421034789
40
0.728049421034789
40
0.752263661620737
40
0.752263661620737
40
0.776477902206685
40
0.776477902206685
40
0.824906383378581
40
0.824906383378581
40
0.849120623964529
40
0.849120623964529
40
0.873334864550476
40
0.873334864550476
40
0.921763345722371
40
0.921763345722371
40
0.945977586308318
40
0.945977586308318
40
0.970191826894265
40
0.970191826894265
40
1
40
1
40
1
40
1
41
1
10
53.4309691395322
20
3.70803380741648
30
0
41
1
10
53.4439007003116
20
3.71016430271266
30
0
41
1
10
53.456829462958
20
3.71227458666661
30
0
41
1
10
53.8556328739485
20
3.77675692275571
30
0
41
1
10
54.2397265590314
20
3.82145872897758
30
0
41
1
10
55.0065943127716
20
3.87547496013497
30
0
41
1
10
55.3890059173851
20
3.88480883057986
30
0
41
1
10
56.155218863255
20
3.86764743637829
30
0
41
1
10
56.539429777346
20
3.84130174000489
30
0
41
1
10
57.1182267721683
20
3.77502865800707
30
0
41
1
10
57.3119827911143
20
3.74840456209159
30
0
41
1
10
57.6983381584889
20
3.68636780400061
30
0
41
1
10
57.8907211448015
20
3.65097533470546
30
0
41
1
10
58.4670185714139
20
3.53281700883241
30
0
41
1
10
58.8501460381792
20
3.43827391571449
30
0
41
1
10
59.4234105785115
20
3.27356026175255
30
-2E-16
41
1
10
59.6142735589596
20
3.21483107036298
30
-2E-16
41
1
10
59.9956891977249
20
3.08978594351305
30
-2E-16
41
1
10
60.1862032944901
20
3.0234083397759
30
-2E-16
41
1
10
60.7588877076363
20
2.81462195771272
30
-2E-16
41
1
10
61.1423081263546
20
2.66286711041718
30
-2E-16
41
1
10
61.7197252645302
20
2.41606783482391
30
-1E-16
41
1
10
61.9126195608498
20
2.33064477105882
30
-1E-16
41
1
10
62.2992690824205
20
2.15326745577116
30
-1E-16
41
1
10
62.4923861398504
20
2.06152310653732
30
-1E-16
41
1
10
63.0714356431737
20
1.78109560842634
30
-1E-16
41
1
10
63.4570419351244
20
1.58578163573301
30
-1E-16
41
1
10
64.2293104320766
20
1.18165051850616
30
-1E-16
41
1
10
64.6169832592047
20
0.972625913093623
30
-1E-16
41
1
10
65.196370176602
20
0.653783024611329
30
0
41
1
10
65.389308439555
20
0.546739090574761
30
0
41
1
10
65.7748039480086
20
0.331123233939621
30
0
41
1
10
65.9672781576694
20
0.222400018610358
30
0
41
1
10
66.3532047628906
20
0.0058517773491928
30
0
41
1
10
66.5464773837965
20
-0.102291932200586
30
0
41
1
10
66.9335969051379
20
-0.318395535503242
30
0
41
1
10
67.1273441164141
20
-0.426283962899618
30
0
41
1
10
67.7057168493891
20
-0.747228563388461
30
0
41
1
10
68.0881595438617
20
-0.95931456289324
30
1E-16
41
1
10
68.8525812727057
20
-1.36944496254637
30
1E-16
41
1
10
69.2346410370376
20
-1.56746850236371
30
1E-16
41
1
10
69.9985093124434
20
-1.94950932350531
30
1E-16
41
1
10
70.3797259094644
20
-2.13436187164749
30
1E-16
41
1
10
70.9550900794789
20
-2.39494063469849
30
1E-16
41
1
10
71.1474680875259
20
-2.4790396573008
30
2E-16
41
1
10
71.5333915880923
20
-2.64172198110361
30
2E-16
41
1
10
71.7272571643395
20
-2.72042468521622
30
2E-16
41
1
10
72.3074540660285
20
-2.94665923340997
30
2E-16
41
1
10
72.6925184091832
20
-3.08481528999269
30
2E-16
41
1
10
73.2708066215643
20
-3.26924191429086
30
2E-16
41
1
10
73.46356213742
20
-3.32705516114547
30
2E-16
41
1
10
73.8495538930601
20
-3.43484160643178
30
0
41
1
10
74.043084335476
20
-3.48479672755153
30
0
41
1
10
74.6233475226127
20
-3.62190652358757
30
0
41
1
10
75.0094231567765
20
-3.69640731372368
30
0
41
1
10
75.5879589732113
20
-3.78252647778044
30
0
41
1
10
75.7807228887897
20
-3.80693885256619
30
0
41
1
10
76.1661607547823
20
-3.84695451394029
30
0
41
1
10
76.3593463363882
20
-3.8624449018244
30
0
41
1
10
76.7907779024753
20
-3.88672453581373
30
0
41
1
10
77.0286370407848
20
-3.89324373949188
30
0
41
1
10
77.2663077896673
20
-3.89292527476385
30
0
0
SPLINE
5
DD
100
AcDbEntity
8
1
62
256
6
ByLayer
370
18
48
1
60
0
100
AcDbSpline
70
4
71
3
72
8
73
4
40
0
40
0
40
0
40
0
40
1
40
1
40
1
40
1
41
1
10
88.6074969204766
20
-3.68286001619532
30
0
41
1
10
88.6017883332119
20
-3.69933080520266
30
0
41
1
10
88.5961044541429
20
-3.71580080459663
30
0
41
1
10
88.5904457669251
20
-3.73227016725593
30
0
0
SPLINE
5
DE
100
AcDbEntity
8
1
62
256
6
ByLayer
370
18
48
1
60
0
100
AcDbSpline
70
4
71
3
72
26
73
22
40
0
40
0
40
0
40
0
40
0.215621671881053
40
0.215621671881053
40
0.32343250782158
40
0.32343250782158
40
0.377337925791844
40
0.377337925791844
40
0.431243343762108
40
0.431243343762108
40
0.646865015643163
40
0.646865015643163
40
0.75467585158369
40
0.75467585158369
40
0.808581269553954
40
0.808581269553954
40
0.862486687524217
40
0.862486687524217
40
0.970297523464742
40
0.970297523464742
40
1
40
1
40
1
40
1
41
1
10
11.8472276132007
20
0.26905622075023
30
0
41
1
10
12.6688981340035
20
-0.187329747394756
30
0
41
1
10
13.4789431682722
20
-0.6425791290701
30
0
41
1
10
14.6942333423485
20
-1.29250862384868
30
1E-16
41
1
10
15.0993076946461
20
-1.50376459575358
30
1E-16
41
1
10
15.7092117401517
20
-1.80847901913859
30
1E-16
41
1
10
15.9128995751269
20
-1.90801597386064
30
1E-16
41
1
10
16.3213844227545
20
-2.10242846819216
30
1E-16
41
1
10
16.5264413903917
20
-2.19740704854712
30
1E-16
41
1
10
17.5526029262587
20
-2.65787537448492
30
2E-16
41
1
10
18.3621320728836
20
-2.97251762411469
30
2E-16
41
1
10
19.5770414095919
20
-3.34539205079506
30
0
41
1
10
19.9820451148393
20
-3.45323779528832
30
0
41
1
10
20.5919133494144
20
-3.58799230879134
30
0
41
1
10
20.7956058328313
20
-3.62840437457584
30
0
41
1
10
21.2041305869462
20
-3.69987414410446
30
0
41
1
10
21.4092433502162
20
-3.73095914156846
30
0
41
1
10
22.0249298986612
20
-3.8094038844348
30
0
41
1
10
22.4340868473993
20
-3.84167059721176
30
0
41
1
10
22.9561471782041
20
-3.85706383242038
30
0
41
1
10
23.06891504756
20
-3.85885520548621
30
0
41
1
10
23.1817238031677
20
-3.85910817689305
30
0
0
SPLINE
5
DF
100
AcDbEntity
8
1
62
256
6
ByLayer
370
18
48
1
60
0
100
AcDbSpline
70
4
71
3
72
28
73
24
40
0
40
0
40
0
40
0
40
0.0122913366563676
40
0.0122913366563676
40
0.122036743694549
40
0.122036743694549
40
0.231782150732731
40
0.231782150732731
40
0.341527557770912
40
0.341527557770912
40
0.561018371847276
40
0.561018371847276
40
0.670763778885457
40
0.670763778885457
40
0.725636482404548
40
0.725636482404548
40
0.78050918592364
40
0.78050918592364
40
0.89025459296182
40
0.89025459296182
40
0.94512729648091
40
0.94512729648091
40
1
40
1
40
1
40
1
41
1
10
39.8435087809708
20
2.86561336635813
30
-2E-16
41
1
10
39.8891274159839
20
2.88277725119747
30
-2E-16
41
1
10
39.9347705393381
20
2.8997640420815
30
-2E-16
41
1
10
40.3882108005015
20
3.06663042491533
30
-2E-16
41
1
10
40.7993899276703
20
3.20249998788648
30
-2E-16
41
1
10
41.6180327863943
20
3.43825424847978
30
0
41
1
10
42.0266260515037
20
3.53847081980095
30
0
41
1
10
42.8453644320184
20
3.70124293289561
30
0
41
1
10
43.2563523195355
20
3.76380423989795
30
0
41
1
10
44.4793693182788
20
3.89029480545514
30
0
41
1
10
45.2862579415987
20
3.89452255632281
30
0
41
1
10
46.5015222767156
20
3.78244580695872
30
0
41
1
10
46.9074427855089
20
3.72536028252179
30
0
41
1
10
47.5198460073429
20
3.61050163859625
30
0
41
1
10
47.7248860544091
20
3.56726209040704
30
0
41
1
10
48.1348550480766
20
3.47144887382674
30
0
41
1
10
48.3395248510485
20
3.41899397704915
30
0
41
1
10
48.9531470240628
20
3.24854707023752
30
-2E-16
41
1
10
49.3616507287897
20
3.11741506589382
30
-2E-16
41
1
10
49.9758315029983
20
2.89670668558304
30
-2E-16
41
1
10
50.1810688613073
20
2.81906576227294
30
-2E-16
41
1
10
50.5909003073706
20
2.65679230889143
30
-2E-16
41
1
10
50.7955170530743
20
2.57217812377115
30
-2E-16
41
1
10
51
20
2.48432217381656
30
-2E-16
0
SPLINE
5
E0
100
AcDbEntity
8
1
62
256
6
ByLayer
370
18
48
1
60
0
100
AcDbSpline
70
4
71
3
72
20
73
16
40
0
40
0
40
0
40
0
40
0.0588062404143447
40
0.0588062404143447
40
0.11761248082869
40
0.11761248082869
40
0.235224961657377
40
0.235224961657377
40
0.470449923314752
40
0.470449923314752
40
0.705674884972126
40
0.705674884972126
40
0.940899846629501
40
0.940899846629501
40
1
40
1
40
1
40
1
41
1
10
88.6074969204765
20
-3.68286001619532
30
0
41
1
10
88.411060534356
20
-3.66857520657487
30
0
41
1
10
88.2147721857072
20
-3.65067839857059
30
0
41
1
10
87.8223048524543
20
-3.60524456845832
30
0
41
1
10
87.6261081479868
20
-3.57812931189409
30
0
41
1
10
87.0371620332607
20
-3.48384287818047
30
0
41
1
10
86.6428713445395
20
-3.40337919402015
30
0
41
1
10
85.4684477528974
20
-3.11609016621057
30
2E-16
41
1
10
84.6941875148915
20
-2.8636022364507
30
2E-16
41
1
10
83.1432992203983
20
-2.26105029394674
30
1E-16
41
1
10
82.3665874989445
20
-1.91109848478527
30
1E-16
41
1
10
80.7924930899156
20
-1.14163368423183
30
1E-16
41
1
10
80.0160967410228
20
-0.732896308535572
30
0
41
1
10
79.0456340762121
20
-0.214903518850747
30
0
41
1
10
78.8508347629422
20
-0.110525501772571
30
0
41
1
10
78.6559436210065
20
-0.0060882261226141
30
0
0
SPLINE
5
E1
100
AcDbEntity
8
1
62
256
6
ByLayer
370
18
48
1
60
0
100
AcDbSpline
70
4
71
3
72
20
73
16
40
0
40
0
40
0
40
0
40
0.0954316693822596
40
0.0954316693822596
40
0.321573752036695
40
0.321573752036695
40
0.54771583469113
40
0.54771583469113
40
0.773857917345565
40
0.773857917345565
40
0.886928958672783
40
0.886928958672783
40
0.943464479336391
40
0.943464479336391
40
1
40
1
40
1
40
1
41
1
10
78.2615301096006
20
0.215901880559869
30
0
41
1
10
78.58919563367
20
0.0410949236646161
30
0
41
1
10
78.9162959727236
20
-0.134164126021318
30
0
41
1
10
80.0191589675923
20
-0.721375780177851
30
0
41
1
10
80.7955262262317
20
-1.12926486036008
30
1E-16
41
1
10
82.3694462694385
20
-1.89749014069605
30
1E-16
41
1
10
83.1461784007865
20
-2.24712585951687
30
1E-16
41
1
10
84.697025846572
20
-2.84955969380786
30
2E-16
41
1
10
85.471271507382
20
-3.1022439984979
30
2E-16
41
1
10
86.6455909482569
20
-3.39022569911177
30
0
41
1
10
87.0398411604451
20
-3.4709874221914
30
0
41
1
10
87.6287474422656
20
-3.56581693552258
30
0
41
1
10
87.8249319688541
20
-3.59312881980489
30
0
41
1
10
88.2173754812337
20
-3.63898691773011
30
0
41
1
10
88.4136222145239
20
-3.65714677594448
30
0
41
1
10
88.6100814646028
20
-3.6716332710418
30
0
0
SPLINE
5
E2
100
AcDbEntity
8
1
62
256
6
ByLayer
370
18
48
1
60
0
100
AcDbSpline
70
4
71
3
72
10
73
6
40
0
40
0
40
0
40
0
40
0.5
40
0.5
40
1
40
1
40
1
40
1
41
1
10
89.0164079805047
20
1.07263197268236
30
0
41
1
10
89.1241302447779
20
1.08947668566987
30
0
41
1
10
89.2314840367101
20
1.10835225210818
30
0
41
1
10
89.4449262638522
20
1.1530774608604
30
0
41
1
10
89.5510564303793
20
1.17874374430431
30
0
41
1
10
89.6553239927518
20
1.20972890169631
30
0
0
SPLINE
5
E3
100
AcDbEntity
8
1
62
256
6
ByLayer
370
18
48
1
60
0
100
AcDbSpline
70
4
71
3
72
30
73
26
40
0
40
0
40
0
40
0
40
0.105652374109556
40
0.105652374109556
40
0.158478561164335
40
0.158478561164335
40
0.211304748219112
40
0.211304748219112
40
0.316957122328666
40
0.316957122328666
40
0.422609496438219
40
0.422609496438219
40
0.528261870547772
40
0.528261870547772
40
0.581088057602549
40
0.581088057602549
40
0.633914244657325
40
0.633914244657325
40
0.739566618766881
40
0.739566618766881
40
0.845218992876437
40
0.845218992876437
40
0.950871366985994
40
0.950871366985994
40
1
40
1
40
1
40
1
41
1
10
88.163648404423
20
-0.0356318332365504
30
0
41
1
10
87.7762977316525
20
0.172249452132945
30
0
41
1
10
87.3891412704481
20
0.379513669675589
30
0
41
1
10
86.8070624220444
20
0.686425236594289
30
0
41
1
10
86.6125136421856
20
0.788240739492494
30
0
41
1
10
86.2246977085937
20
0.989140203191852
30
-1E-16
41
1
10
86.0313873923892
20
1.08825230715439
30
-1E-16
41
1
10
85.453130241706
20
1.38085675145746
30
-1E-16
41
1
10
85.0702417665979
20
1.56957993301259
30
-1E-16
41
1
10
84.3044389361882
20
1.93005746895403
30
-1E-16
41
1
10
83.9217915678555
20
2.10193344035955
30
-1E-16
41
1
10
83.1559033913115
20
2.42546574277199
30
-1E-16
41
1
10
82.7729299911301
20
2.57665389029546
30
-2E-16
41
1
10
82.1954605954395
20
2.7858764671561
30
-2E-16
41
1
10
82.0024963756283
20
2.85267330979155
30
-2E-16
41
1
10
81.6154231939234
20
2.97983407586733
30
-2E-16
41
1
10
81.4208754273308
20
3.04033241786158
30
-2E-16
41
1
10
80.8396946409731
20
3.20996238448953
30
0
41
1
10
80.455374671618
20
3.30671816772616
30
0
41
1
10
79.6875016953299
20
3.4708461485499
30
0
41
1
10
79.3045923325308
20
3.53739217940338
30
0
41
1
10
78.5393502026831
20
3.63668015095681
30
0
41
1
10
78.1575395119208
20
3.6675135336788
30
0
41
1
10
77.5954095498022
20
3.69166604181399
30
0
41
1
10
77.4166666257194
20
3.69601100689923
30
0
41
1
10
77.2375627564412
20
3.69667152497013
30
0
0
SPLINE
5
E4
100
AcDbEntity
8
1
62
256
6
ByLayer
370
18
48
1
60
0
100
AcDbSpline
70
4
71
3
72
8
73
4
40
0
40
0
40
0
40
0
40
1
40
1
40
1
40
1
41
1
10
51.05286267155
20
2.8962568562423
30
-2E-16
41
1
10
51.0217333594141
20
2.90782526845126
30
-2E-16
41
1
10
51.0017097679594
20
2.9303916743402
30
-2E-16
41
1
10
51.0017097679594
20
2.95349834636647
30
-2E-16
0
SPLINE
5
E5
100
AcDbEntity
8
1
62
256
6
ByLayer
370
18
48
1
60
0
100
AcDbSpline
70
4
71
3
72
8
73
4
40
0
40
0
40
0
40
0
40
1
40
1
40
1
40
1
41
1
10
89.9964035526219
20
0.215316484246188
30
0
41
1
10
89.9795576247702
20
0.159167701947922
30
0
41
1
10
89.9626277493568
20
0.103045405177909
30
0
41
1
10
89.9456142423909
20
0.0469494942348376
30
0
0
SPLINE
5
E6
100
AcDbEntity
8
1
62
256
6
ByLayer
370
18
48
1
60
0
100
AcDbSpline
70
4
71
3
72
16
73
12
40
0
40
0
40
0
40
0
40
0.250000000000001
40
0.250000000000001
40
0.375
40
0.375
40
0.5
40
0.5
40
0.75
40
0.75
40
1
40
1
40
1
40
1
41
1
10
88.8170467265899
20
0.773172903307341
30
0
41
1
10
88.7534937941262
20
0.782119010753036
30
0
41
1
10
88.6887989674542
20
0.781886038163719
30
0
41
1
10
88.5915009140421
20
0.774937163618887
30
0
41
1
10
88.5589427696829
20
0.771565568599357
30
0
41
1
10
88.4941373879573
20
0.761165236538488
30
0
41
1
10
88.4619232476566
20
0.754295155305527
30
0
41
1
10
88.3660011454282
20
0.729097240173815
30
0
41
1
10
88.3030290146439
20
0.706104231428696
30
0
41
1
10
88.1796332001071
20
0.650370104048108
30
0
41
1
10
88.1192632325206
20
0.616960014286832
30
0
41
1
10
88.0607980065618
20
0.577044532687353
30
0
0
SPLINE
5
E7
100
AcDbEntity
8
1
62
256
6
ByLayer
370
18
48
1
60
0
100
AcDbSpline
70
4
71
3
72
42
73
38
40
0
40
0
40
0
40
0
40
0.0565706803636546
40
0.0565706803636546
40
0.0848560205454819
40
0.0848560205454819
40
0.113141360727309
40
0.113141360727309
40
0.226282721454615
40
0.226282721454615
40
0.282853401818268
40
0.282853401818268
40
0.339424082181921
40
0.339424082181921
40
0.452565442909228
40
0.452565442909228
40
0.509136123272881
40
0.509136123272881
40
0.537421463454707
40
0.537421463454707
40
0.565706803636534
40
0.565706803636534
40
0.678848164363841
40
0.678848164363841
40
0.735418844727495
40
0.735418844727495
40
0.763704184909323
40
0.763704184909323
40
0.79198952509115
40
0.79198952509115
40
0.905130885818459
40
0.905130885818459
40
0.961701566182113
40
0.961701566182113
40
0.989986906363941
40
0.989986906363941
40
1
40
1
40
1
40
1
41
1
10
88.3889407788463
20
-3.84798321508509
30
0
41
1
10
87.997949241234
20
-3.81185256650872
30
0
41
1
10
87.6073590387147
20
-3.75734937889618
30
0
41
1
10
87.0201864571189
20
-3.64900124052525
30
0
41
1
10
86.8239497322398
20
-3.60837640928568
30
0
41
1
10
86.4326302709601
20
-3.51882157900994
30
0
41
1
10
86.2375212449916
20
-3.4699026625386
30
0
41
1
10
85.2639514835259
20
-3.20547522474132
30
2E-16
41
1
10
84.4910695701603
20
-2.93073816647157
30
2E-16
41
1
10
83.3249429086768
20
-2.44209107196585
30
1E-16
41
1
10
82.934797648097
20
-2.26621388192555
30
1E-16
41
1
10
82.1509548339057
20
-1.89291134336446
30
1E-16
41
1
10
81.7616615756082
20
-1.69761753742333
30
1E-16
41
1
10
80.5977599920483
20
-1.09270423306228
30
1E-16
41
1
10
79.8270679491196
20
-0.664146491750415
30
0
41
1
10
78.6633606767878
20
-0.0108943620915909
30
0
41
1
10
78.274254212369
20
0.208727397666905
30
0
41
1
10
77.6867041175735
20
0.537264598215785
30
0
41
1
10
77.4907557462423
20
0.646269955379182
30
0
41
1
10
77.1005809899124
20
0.861440965319304
30
-1E-16
41
1
10
76.9060139883942
20
0.967795093387963
30
-1E-16
41
1
10
75.9349782379684
20
1.49211835775279
30
-1E-16
41
1
10
75.1644178296899
20
1.88856309457205
30
-1E-16
41
1
10
74.0013401916665
20
2.42179919311934
30
-1E-16
41
1
10
73.6126192188569
20
2.58958928633493
30
-2E-16
41
1
10
73.0258485098587
20
2.82292091669203
30
-2E-16
41
1
10
72.8294389334124
20
2.89771891765381
30
-2E-16
41
1
10
72.4386491873552
20
3.03947171844061
30
-2E-16
41
1
10
72.2438604751947
20
3.10661227055334
30
-2E-16
41
1
10
71.271893759222
20
3.42275109683422
30
0
41
1
10
70.5006079655419
20
3.61311928588265
30
0
41
1
10
69.3383696667644
20
3.79445529394295
30
0
41
1
10
68.9499790999176
20
3.83747151486003
30
0
41
1
10
68.3640043184339
20
3.87456114565194
30
0
41
1
10
68.1678092083128
20
3.88235773780968
30
0
41
1
10
67.9024907696183
20
3.88655153550798
30
0
41
1
10
67.8331613100609
20
3.88706167742248
30
0
41
1
10
67.7638608239012
20
3.88698701667755
30
0
0
SPLINE
5
E8
100
AcDbEntity
8
1
62
256
6
ByLayer
370
18
48
1
60
0
100
AcDbSpline
70
4
71
3
72
24
73
20
40
0
40
0
40
0
40
0
40
0.14425182021385
40
0.14425182021385
40
0.196215713599212
40
0.196215713599212
40
0.248179606984573
40
0.248179606984573
40
0.352107393755292
40
0.352107393755292
40
0.559962967296731
40
0.559962967296731
40
0.66389075406745
40
0.66389075406745
40
0.76781854083817
40
0.76781854083817
40
0.975674114379605
40
0.975674114379605
40
1
40
1
40
1
40
1
41
1
10
56.51510234819
20
0.213393325955451
30
0
41
1
10
57.0546478274983
20
-0.0733788685939487
30
0
41
1
10
57.5953689305007
20
-0.362964063749445
30
0
41
1
10
58.3372107987099
20
-0.751599764692173
30
0
41
1
10
58.5344352839839
20
-0.854184136908742
30
1E-16
41
1
10
58.9269069510509
20
-1.05609957836961
30
1E-16
41
1
10
59.122566815129
20
-1.1556488341204
30
1E-16
41
1
10
59.7083095256495
20
-1.44925450659264
30
1E-16
41
1
10
60.0971961293681
20
-1.63819672594948
30
1E-16
41
1
10
61.2626977004276
20
-2.1785217055328
30
1E-16
41
1
10
62.0379318718847
20
-2.50385740773504
30
2E-16
41
1
10
63.2128952043814
20
-2.9162476253322
30
2E-16
41
1
10
63.6076156143018
20
-3.04121112188395
30
2E-16
41
1
10
64.3912755973217
20
-3.25908392786192
30
0
41
1
10
64.7814882310824
20
-3.3524678373438
30
0
41
1
10
65.9508013586858
20
-3.58347206827261
30
0
41
1
10
66.7290676634298
20
-3.67183669078941
30
0
41
1
10
67.607273970232
20
-3.69102113986415
30
0
41
1
10
67.6993814775809
20
-3.69205046754743
30
0
41
1
10
67.7914952404447
20
-3.69209682307778
30
0
0
SPLINE
5
E9
100
AcDbEntity
8
1
62
256
6
ByLayer
370
18
48
1
60
0
100
AcDbSpline
70
4
71
3
72
16
73
12
40
0
40
0
40
0
40
0
40
0.266202126205188
40
0.266202126205188
40
0.399303189307786
40
0.399303189307786
40
0.532404252410384
40
0.532404252410384
40
0.798606378615587
40
0.798606378615587
40
1
40
1
40
1
40
1
41
1
10
51.1508710748695
20
-3.13980064819373
30
2E-16
41
1
10
51.5371417504013
20
-3.26789657065288
30
2E-16
41
1
10
51.9232199218491
20
-3.37995294153387
30
0
41
1
10
52.5029880979
20
-3.52381312902918
30
0
41
1
10
52.6963320728058
20
-3.56773803852531
30
0
41
1
10
53.0831956865779
20
-3.64744176031212
30
0
41
1
10
53.2768163115808
20
-3.68316834482496
30
0
41
1
10
53.8556328739484
20
-3.77675692275568
30
0
41
1
10
54.2397265590314
20
-3.82145872897758
30
0
41
1
10
54.9132450348682
20
-3.86889967235032
30
0
41
1
10
55.2027445272884
20
-3.87921648998395
30
0
41
1
10
55.4924024601611
20
-3.87931323433591
30
0
0
SPLINE
5
EA
100
AcDbEntity
8
1
62
256
6
ByLayer
370
18
48
1
60
0
100
AcDbSpline
70
4
71
3
72
36
73
32
40
0
40
0
40
0
40
0
40
0.0239140106440759
40
0.0239140106440759
40
0.0682815556148018
40
0.0682815556148018
40
0.112649100585528
40
0.112649100585528
40
0.201384190526978
40
0.201384190526978
40
0.245751735497703
40
0.245751735497703
40
0.290119280468428
40
0.290119280468428
40
0.378854370409875
40
0.378854370409875
40
0.467589460351322
40
0.467589460351322
40
0.55632455029277
40
0.55632455029277
40
0.645059640234217
40
0.645059640234217
40
0.689427185204941
40
0.689427185204941
40
0.733794730175665
40
0.733794730175665
40
0.82252982011711
40
0.82252982011711
40
0.911264910058555
40
0.911264910058555
40
1
40
1
40
1
40
1
41
1
10
75.0831927768134
20
3.70368232432708
30
0
41
1
10
75.1871993641077
20
3.7216336310652
30
0
41
1
10
75.2911705170615
20
3.73834740879417
30
0
41
1
10
75.5879589732113
20
3.78252647778044
30
0
41
1
10
75.7807228887897
20
3.80693885256619
30
0
41
1
10
76.1661607547823
20
3.84695451394029
30
0
41
1
10
76.3593463363881
20
3.8624449018244
30
0
41
1
10
76.9394826366965
20
3.89509317826636
30
0
41
1
10
77.3257289910439
20
3.89870469273183
30
0
41
1
10
77.904365663843
20
3.87714828426826
30
0
41
1
10
78.0971278165328
20
3.86543967507677
30
0
41
1
10
78.4826342735111
20
3.83283207283699
30
0
41
1
10
78.6758634551643
20
3.81195876111704
30
0
41
1
10
79.2557277315979
20
3.73637277149058
30
0
41
1
10
79.6400222365129
20
3.66876968265919
30
0
41
1
10
80.4058156572752
20
3.50115543468013
30
0
41
1
10
80.786749256249
20
3.40058792692972
30
0
41
1
10
81.5498279029047
20
3.17049552906619
30
-2E-16
41
1
10
81.9316490035404
20
3.04082127712417
30
-2E-16
41
1
10
82.6970552522083
20
2.75319904446724
30
-2E-16
41
1
10
83.0804764649547
20
2.59489282080645
30
-2E-16
41
1
10
83.6603257769058
20
2.34003108159442
30
-1E-16
41
1
10
83.8537196902884
20
2.25231787730218
30
-1E-16
41
1
10
84.2387583408668
20
2.07255707840329
30
-1E-16
41
1
10
84.43072498417
20
1.98037642458041
30
-1E-16
41
1
10
85.0052642432518
20
1.69744025661373
30
-1E-16
41
1
10
85.3862404527623
20
1.49986602580518
30
-1E-16
41
1
10
86.1491047031895
20
1.09532008977143
30
-1E-16
41
1
10
86.5306155888981
20
0.887758580221998
30
-1E-16
41
1
10
87.2951958541878
20
0.464464015817299
30
0
41
1
10
87.6782451917643
20
0.248676892119619
30
0
41
1
10
88.0634044805495
20
0.0310365927947487
30
0
0
SPLINE
5
EB
100
AcDbEntity
8
1
62
256
6
ByLayer
370
18
48
1
60
0
100
AcDbSpline
70
4
71
3
72
28
73
24
40
0
40
0
40
0
40
0
40
0.125
40
0.125
40
0.1875
40
0.1875
40
0.250000000000001
40
0.250000000000001
40
0.312500000000001
40
0.312500000000001
40
0.375000000000001
40
0.375000000000001
40
0.437500000000001
40
0.437500000000001
40
0.500000000000001
40
0.500000000000001
40
0.625
40
0.625
40
0.75
40
0.75
40
0.875
40
0.875
40
1
40
1
40
1
40
1
41
1
10
88.1636484044222
20
-0.0356318332366072
30
0
41
1
10
88.170831017733
20
-0.257811218205944
30
0
41
1
10
88.1874059525523
20
-0.475700869228746
30
0
41
1
10
88.2198037689388
20
-0.796973802184851
30
0
41
1
10
88.2318840108704
20
-0.903129703743616
30
1E-16
41
1
10
88.2577442883409
20
-1.11362911023909
30
1E-16
41
1
10
88.271577764329
20
-1.21834543599252
30
1E-16
41
1
10
88.2998960042189
20
-1.42390864424283
30
1E-16
41
1
10
88.314359402225
20
-1.5246589639664
30
1E-16
41
1
10
88.3432081985603
20
-1.7221925504991
30
1E-16
41
1
10
88.3576224302855
20
-1.81916470893708
30
1E-16
41
1
10
88.3855775643103
20
-2.00750595604865
30
1E-16
41
1
10
88.3991406543726
20
-2.09902857417728
30
1E-16
41
1
10
88.4250433023405
20
-2.2767920278514
30
1E-16
41
1
10
88.4373851186934
20
-2.36306302815129
30
1E-16
41
1
10
88.4718665379074
20
-2.61138960038986
30
2E-16
41
1
10
88.4915849345723
20
-2.76453628563672
30
2E-16
41
1
10
88.5239916336173
20
-3.03924244043941
30
2E-16
41
1
10
88.5367790682568
20
-3.16156439726888
30
0
41
1
10
88.5581901813412
20
-3.37047344106242
30
0
41
1
10
88.5669184918519
20
-3.45767815535959
30
0
41
1
10
88.5856128372232
20
-3.59301585006179
30
0
41
1
10
88.5956339659907
20
-3.64192807504054
30
0
41
1
10
88.6100814646026
20
-3.6716332710418
30
0
0
SPLINE
5
EC
100
AcDbEntity
8
1
62
256
6
ByLayer
370
18
48
1
60
0
100
AcDbSpline
70
4
71
3
72
34
73
30
40
0
40
0
40
0
40
0
40
0.497506026128297
40
0.497506026128297
40
0.664626036290795
40
0.664626036290795
40
0.776395416062092
40
0.776395416062092
40
0.851144080425247
40
0.851144080425247
40
0.901145648804247
40
0.901145648804247
40
0.934598357691352
40
0.934598357691352
40
0.956980787802825
40
0.956980787802825
40
0.9719513053691
40
0.9719513053691
40
0.981951928526597
40
0.981951928526597
40
0.988627801092022
40
0.988627801092022
40
0.993082381630259
40
0.993082381630259
40
0.996079553007148
40
0.996079553007148
40
0.998313193582476
40
0.998313193582476
40
1
40
1
40
1
40
1
41
1
10
88.4034625244617
20
3.89904862170928
30
0
41
1
10
88.4422965997713
20
3.87377360736608
30
0
41
1
10
88.4811841237856
20
3.84823633132157
30
0
41
1
10
88.5332192579955
20
3.81377115435319
30
0
41
1
10
88.5463139467685
20
3.80507300856462
30
0
41
1
10
88.5681926756256
20
3.79049898519051
30
0
41
1
10
88.5769688931116
20
3.78464189195816
30
0
41
1
10
88.591625903056
20
3.77484213704676
30
0
41
1
10
88.5975016604583
20
3.77090882033369
30
0
41
1
10
88.607300974776
20
3.76434127806326
30
0
41
1
10
88.6112268216773
20
3.761708078922
30
0
41
1
10
88.6177728869822
20
3.75731392481879
30
0
41
1
10
88.6203951920079
20
3.75555272316336
30
0
41
1
10
88.6247681428531
20
3.75261416426298
30
0
41
1
10
88.6265190664654
20
3.75143715030492
30
0
41
1
10
88.6294454320293
20
3.74946921648842
30
0
41
1
10
88.6306197141348
20
3.74867932636417
30
0
41
1
10
88.6325837506995
20
3.74735785944327
30
0
41
1
10
88.6333717496287
20
3.74682757737745
30
0
41
1
10
88.6346888213867
20
3.74594110945736
30
0
41
1
10
88.6352168865278
20
3.74558565080733
30
0
41
1
10
88.6360988287397
20
3.74499192201145
30
0
41
1
10
88.6364531580858
20
3.74475336597175
30
0
41
1
10
88.6370408665931
20
3.7443576727749
30
0
41
1
10
88.637275940188
20
3.74419939912755
30
0
41
1
10
88.6376765706494
20
3.74392966304242
30
0
41
1
10
88.6378451641914
20
3.7438161542494
30
0
41
1
10
88.6381251432798
20
3.74362766700816
30
0
41
1
10
88.6382416862402
20
3.7435492124639
30
0
41
1
10
88.6383428687003
20
3.74348111218018
30
0
0
SPLINE
5
ED
100
AcDbEntity
8
1
62
256
6
ByLayer
370
18
48
1
60
0
100
AcDbSpline
70
4
71
3
72
8
73
4
40
0
40
0
40
0
40
0
40
1
40
1
40
1
40
1
41
1
10
89.6553239927518
20
-1.20972890169631
30
0
41
1
10
89.7721626802179
20
-0.879383734659996
30
0
41
1
10
89.8858715638916
20
-0.547918546137396
30
0
41
1
10
89.9964035526315
20
-0.215316484244568
30
0
0
SPLINE
5
EE
100
AcDbEntity
8
1
62
256
6
ByLayer
370
18
48
1
60
0
100
AcDbSpline
70
4
71
3
72
34
73
30
40
0
40
0
40
0
40
0
40
0.49750602598923
40
0.49750602598923
40
0.664626036111694
40
0.664626036111694
40
0.776395415856941
40
0.776395415856941
40
0.851144080202138
40
0.851144080202138
40
0.901145648569299
40
0.901145648569299
40
0.934598357448333
40
0.934598357448333
40
0.956980787554424
40
0.956980787554424
40
0.971951305117001
40
0.971951305117001
40
0.981951928272196
40
0.981951928272196
40
0.98862780083587
40
0.98862780083587
40
0.993082381373242
40
0.993082381373242
40
0.996079552749462
40
0.996079552749462
40
0.998313193324552
40
0.998313193324552
40
1
40
1
40
1
40
1
41
1
10
88.4034625244665
20
-3.8990486217061
30
0
41
1
10
88.4422965997746
20
-3.87377360736394
30
0
41
1
10
88.4811841237872
20
-3.84823633132049
30
0
41
1
10
88.5332192579955
20
-3.81377115435322
30
0
41
1
10
88.5463139467685
20
-3.80507300856465
30
0
41
1
10
88.5681926756256
20
-3.79049898519051
30
0
41
1
10
88.5769688931117
20
-3.78464189195816
30
0
41
1
10
88.5916259030561
20
-3.77484213704676
30
0
41
1
10
88.5975016604583
20
-3.77090882033363
30
0
41
1
10
88.607300974776
20
-3.76434127806323
30
0
41
1
10
88.6112268216773
20
-3.76170807892197
30
0
41
1
10
88.6177728869822
20
-3.75731392481876
30
0
41
1
10
88.6203951920079
20
-3.75555272316336
30
0
41
1
10
88.6247681428531
20
-3.75261416426298
30
0
41
1
10
88.6265190664654
20
-3.75143715030495
30
0
41
1
10
88.6294454320292
20
-3.74946921648842
30
0
41
1
10
88.6306197141347
20
-3.74867932636417
30
0
41
1
10
88.6325837506995
20
-3.74735785944327
30
0
41
1
10
88.6333717496287
20
-3.74682757737747
30
0
41
1
10
88.6346888213866
20
-3.74594110945739
30
0
41
1
10
88.6352168865277
20
-3.74558565080733
30
0
41
1
10
88.6360988287396
20
-3.74499192201145
30
0
41
1
10
88.6364531580858
20
-3.74475336597177
30
0
41
1
10
88.6370408665931
20
-3.74435767277493
30
0
41
1
10
88.637275940188
20
-3.74419939912755
30
0
41
1
10
88.6376765706495
20
-3.74392966304242
30
0
41
1
10
88.6378451641915
20
-3.74381615424937
30
0
41
1
10
88.6381251432981
20
-3.74362766699579
30
0
41
1
10
88.6382416862764
20
-3.74354921243952
30
0
41
1
10
88.6383428687469
20
-3.74348111214883
30
0
0
SPLINE
5
EF
100
AcDbEntity
8
1
62
256
6
ByLayer
370
18
48
1
60
0
100
AcDbSpline
70
4
71
3
72
8
73
4
40
0
40
0
40
0
40
0
40
1
40
1
40
1
40
1
41
1
10
88.6383428687724
20
-3.74348111213169
30
0
41
1
10
88.6408610662924
20
-3.74178482310524
30
0
41
1
10
88.6433793005251
20
-3.74008827017212
30
0
41
1
10
88.6458975714839
20
-3.73839145361822
30
0
0
SPLINE
5
F0
100
AcDbEntity
8
1
62
256
6
ByLayer
370
18
48
1
60
0
100
AcDbSpline
70
4
71
3
72
8
73
4
40
0
40
0
40
0
40
0
40
1
40
1
40
1
40
1
41
1
10
88.0634044805495
20
0.0310365927947203
30
0
41
1
10
88.0552279377656
20
0.214884480579144
30
0
41
1
10
88.0536950550189
20
0.396891801434833
30
0
41
1
10
88.0607980065523
20
0.57704453268974
30
0
0
SPLINE
5
F1
100
AcDbEntity
8
1
62
256
6
ByLayer
370
18
48
1
60
0
100
AcDbSpline
70
4
71
3
72
14
73
10
40
0
40
0
40
0
40
0
40
0.0167539752408884
40
0.0167539752408884
40
0.344502650160592
40
0.344502650160592
40
0.672251325080296
40
0.672251325080296
40
1
40
1
40
1
40
1
41
1
10
88.5273133942538
20
0.88328458094162
30
0
41
1
10
88.5294592885348
20
0.88458278624617
30
0
41
1
10
88.5316191905725
20
0.885884289123794
30
0
41
1
10
88.5763212020028
20
0.912712040109824
30
0
41
1
10
88.6234132022949
20
0.9387739574818
30
0
41
1
10
88.7251446532566
20
0.987437718102257
30
0
41
1
10
88.7806981853723
20
1.01069150962184
30
0
41
1
10
88.8952158728451
20
1.04830011164822
30
0
41
1
10
88.9550416768485
20
1.06303601980139
30
0
41
1
10
89.0164079805046
20
1.0726319726823
30
0
0
SPLINE
5
F2
100
AcDbEntity
8
1
62
256
6
ByLayer
370
18
48
1
60
0
100
AcDbSpline
70
4
71
3
72
62
73
58
40
0
40
0
40
0
40
0
40
0.0122309738591764
40
0.0122309738591764
40
0.0346375097813474
40
0.0346375097813474
40
0.0794505816256894
40
0.0794505816256894
40
0.124263653470031
40
0.124263653470031
40
0.169076725314373
40
0.169076725314373
40
0.191483261236544
40
0.191483261236544
40
0.213889797158714
40
0.213889797158714
40
0.258702869003054
40
0.258702869003054
40
0.303515940847394
40
0.303515940847394
40
0.348329012691733
40
0.348329012691733
40
0.393142084536073
40
0.393142084536073
40
0.437955156380413
40
0.437955156380413
40
0.482768228224753
40
0.482768228224753
40
0.505174764146923
40
0.505174764146923
40
0.527581300069093
40
0.527581300069093
40
0.572394371913433
40
0.572394371913433
40
0.617207443757773
40
0.617207443757773
40
0.662020515602113
40
0.662020515602113
40
0.684427051524282
40
0.684427051524282
40
0.706833587446451
40
0.706833587446451
40
0.751646659290791
40
0.751646659290791
40
0.796459731135131
40
0.796459731135131
40
0.84127280297947
40
0.84127280297947
40
0.86367933890164
40
0.86367933890164
40
0.886085874823809
40
0.886085874823809
40
0.930898946668147
40
0.930898946668147
40
0.975712018512486
40
0.975712018512486
40
1
40
1
40
1
40
1
41
1
10
84.0789140038054
20
-2.58188606155844
30
2E-16
41
1
10
83.9655783083234
20
-2.62965641544662
30
2E-16
41
1
10
83.8522670762079
20
-2.67640558903688
30
2E-16
41
1
10
83.5323868208316
20
-2.80537805756964
30
2E-16
41
1
10
83.3260951377332
20
-2.884865713144
30
2E-16
41
1
10
82.7084109262368
20
-3.11085100214569
30
2E-16
41
1
10
82.2982743347934
20
-3.24498451169447
30
2E-16
41
1
10
81.4788173651395
20
-3.47804043729937
30
0
41
1
10
81.0689751167161
20
-3.57651702777872
30
0
41
1
10
80.2472822293218
20
-3.73572480798177
30
0
41
1
10
79.8351523272224
20
-3.79619094210625
30
0
41
1
10
79.2122531085109
20
-3.85611098122575
30
0
41
1
10
79.0045150279464
20
-3.87091806989298
30
0
41
1
10
78.591146111065
20
-3.889992036293
30
0
41
1
10
78.3850484119593
20
-3.89428824741478
30
0
41
1
10
77.7678060327945
20
-3.89167876324677
30
0
41
1
10
77.3578132925058
20
-3.86930844258058
30
0
41
1
10
76.5382715366491
20
-3.78416578860905
30
0
41
1
10
76.1282097865885
20
-3.72160827571525
30
0
41
1
10
75.305790809991
20
-3.55694693649426
30
0
41
1
10
74.8928578607237
20
-3.45491175519533
30
0
41
1
10
74.0613060550447
20
-3.21359031253769
30
2E-16
41
1
10
73.6488812413043
20
-3.07543109667273
30
2E-16
41
1
10
72.8263818519709
20
-2.76975703702101
30
2E-16
41
1
10
72.4164945287953
20
-2.60207072795833
30
2E-16
41
1
10
71.5967808743004
20
-2.24071104497381
30
1E-16
41
1
10
71.1864607055745
20
-2.04777356319772
30
1E-16
41
1
10
70.5690418492059
20
-1.74161871438736
30
1E-16
41
1
10
70.3628256168392
20
-1.63690291878362
30
1E-16
41
1
10
69.949079770157
20
-1.42288381829462
30
1E-16
41
1
10
69.7410593594208
20
-1.31334543642544
30
1E-16
41
1
10
69.1182210583659
20
-0.980683641136409
30
1E-16
41
1
10
68.7061939899747
20
-0.753343316844138
30
0
41
1
10
67.884089633126
20
-0.295615131279561
30
0
41
1
10
67.4742646930619
20
-0.0647671844612319
30
0
41
1
10
66.6543070664963
20
0.395879802445506
30
0
41
1
10
66.2437092498534
20
0.624835296703509
30
0
41
1
10
65.6256343633218
20
0.963944838869935
30
-1E-16
41
1
10
65.4191488783712
20
1.07608389060829
30
-1E-16
41
1
10
65.004780190438
20
1.29770242777303
30
-1E-16
41
1
10
64.7964479055122
20
1.40737179513351
30
-1E-16
41
1
10
64.1743607734355
20
1.72857993235249
30
-1E-16
41
1
10
63.7626887643432
20
1.93376863099576
30
-1E-16
41
1
10
62.9409080635874
20
2.31949698420271
30
-1E-16
41
1
10
62.5311176962977
20
2.50058147091377
30
-2E-16
41
1
10
61.7108443839082
20
2.83513367169871
30
-2E-16
41
1
10
61.2999368280827
20
2.98808371374184
30
-2E-16
41
1
10
60.681149115106
20
3.19410560695278
30
-2E-16
41
1
10
60.4743818675055
20
3.25875390174841
30
-2E-16
41
1
10
60.0593635918773
20
3.37939611477915
30
0
41
1
10
59.8511084550573
20
3.43534216967768
30
0
41
1
10
59.2297172948358
20
3.5881835347752
30
0
41
1
10
58.8183597377599
20
3.67098119751663
30
0
41
1
10
57.9968194296185
20
3.79629566038918
30
0
41
1
10
57.5870258360471
20
3.83909129193128
30
0
41
1
10
56.9543091335977
20
3.87367036082395
30
0
41
1
10
56.7316513620942
20
3.87984129830818
30
0
41
1
10
56.5085854939923
20
3.87995893237053
30
0
0
SPLINE
5
F3
100
AcDbEntity
8
1
62
256
6
ByLayer
370
18
48
1
60
0
100
AcDbSpline
70
4
71
3
72
62
73
58
40
0
40
0
40
0
40
0
40
0.0003692513854064
40
0.0003692513854064
40
0.0465266638660201
40
0.0465266638660201
40
0.0926840763466338
40
0.0926840763466338
40
0.138841488827248
40
0.138841488827248
40
0.161920195067555
40
0.161920195067555
40
0.184998901307862
40
0.184998901307862
40
0.231156313788476
40
0.231156313788476
40
0.277313726269089
40
0.277313726269089
40
0.323471138749703
40
0.323471138749703
40
0.34654984499001
40
0.34654984499001
40
0.369628551230317
40
0.369628551230317
40
0.415785963710932
40
0.415785963710932
40
0.461943376191547
40
0.461943376191547
40
0.485022082431855
40
0.485022082431855
40
0.508100788672162
40
0.508100788672162
40
0.554258201152777
40
0.554258201152777
40
0.600415613633393
40
0.600415613633393
40
0.646573026114008
40
0.646573026114008
40
0.669651732354315
40
0.669651732354315
40
0.692730438594622
40
0.692730438594622
40
0.738887851075237
40
0.738887851075237
40
0.785045263555851
40
0.785045263555851
40
0.831202676036466
40
0.831202676036466
40
0.854281382276773
40
0.854281382276773
40
0.87736008851708
40
0.87736008851708
40
0.923517500997695
40
0.923517500997695
40
0.969674913478309
40
0.969674913478309
40
1
40
1
40
1
40
1
41
1
10
39.8656083792926
20
-2.86422067131056
30
2E-16
41
1
10
39.8623062882861
20
-2.86546045417484
30
2E-16
41
1
10
39.8590043333651
20
-2.86669923502291
30
2E-16
41
1
10
39.4429662899715
20
-3.02266269440076
30
2E-16
41
1
10
39.0324179983424
20
-3.16171192757514
30
2E-16
41
1
10
38.2111847571184
20
-3.40406990950442
30
0
41
1
10
37.8010820705093
20
-3.50798283291829
30
0
41
1
10
36.9782861868151
20
-3.67796545102959
30
0
41
1
10
36.5654490068338
20
-3.74401406052149
30
0
41
1
10
35.9424394595773
20
-3.81297913880192
30
0
41
1
10
35.734095591101
20
-3.83086032532162
30
0
41
1
10
35.3195605520551
20
-3.85604277416837
30
0
41
1
10
35.1128214641054
20
-3.86341369513229
30
0
41
1
10
34.4941817337151
20
-3.87010198761615
30
0
41
1
10
34.0837216644515
20
-3.85387600406111
30
0
41
1
10
33.2624148837916
20
-3.7812460196119
30
0
41
1
10
32.8521649687951
20
-3.724698875515
30
0
41
1
10
32.0286865783388
20
-3.57238053164838
30
0
41
1
10
31.6153851274753
20
-3.4767456017764
30
0
41
1
10
30.9914115611608
20
-3.30435230882142
30
2E-16
41
1
10
30.7835008860984
20
-3.24235298132197
30
2E-16
41
1
10
30.3693483643466
20
-3.11049927751927
30
2E-16
41
1
10
30.1627562288841
20
-3.04061474311592
30
2E-16
41
1
10
29.5445457830383
20
-2.81908677863041
30
2E-16
41
1
10
29.1341286565441
20
-2.65593303642629
30
2E-16
41
1
10
28.312682623286
20
-2.3043481175043
30
1E-16
41
1
10
27.90225566022
20
-2.11507755940875
30
1E-16
41
1
10
27.2840997618949
20
-1.81514546355814
30
1E-16
41
1
10
27.0776016821151
20
-1.71255062167614
30
1E-16
41
1
10
26.6634471817389
20
-1.50250010227612
30
1E-16
41
1
10
26.4557569907952
20
-1.3946722070576
30
1E-16
41
1
10
25.8314107209139
20
-1.06555094303724
30
1E-16
41
1
10
25.4178171562597
20
-0.841417731894779
30
1E-16
41
1
10
24.5940238495568
20
-0.387150558459183
30
0
41
1
10
24.1836208019452
20
-0.157389361578765
30
0
41
1
10
23.3619901331811
20
0.300416460281326
30
0
41
1
10
22.9513632466048
20
0.529559714467467
30
0
41
1
10
22.3326177817611
20
0.867987842023069
30
-1E-16
41
1
10
22.1258788548016
20
0.97987432054029
30
-1E-16
41
1
10
21.7112055840562
20
1.20140891486176
30
-1E-16
41
1
10
21.5029332389796
20
1.31157207177611
30
-1E-16
41
1
10
20.8792953348283
20
1.63519083718566
30
-1E-16
41
1
10
20.4659967786952
20
1.84109099824391
30
-1E-16
41
1
10
19.6426176503405
20
2.23116719427623
30
-1E-16
41
1
10
19.2321999895851
20
2.41474117412622
30
-1E-16
41
1
10
18.4103243556927
20
2.75405164873419
30
-2E-16
41
1
10
17.9994705634478
20
2.91058556585205
30
-2E-16
41
1
10
17.3801047818888
20
3.12133309537708
30
-2E-16
41
1
10
17.1731148058682
20
3.18756563186059
30
-2E-16
41
1
10
16.7579166317215
20
3.31174017903979
30
0
41
1
10
16.5493737877967
20
3.36989309562099
30
0
41
1
10
15.9263862163183
20
3.52936312118251
30
0
41
1
10
15.5133548400721
20
3.61616527691837
30
0
41
1
10
14.6903039225591
20
3.75077024350185
30
0
41
1
10
14.2798502142913
20
3.79823145609623
30
0
41
1
10
13.598693379997
20
3.84330462167125
30
0
41
1
10
13.328607158684
20
3.85246486885535
30
0
41
1
10
13.0578801766444
20
3.8527671840157
30
0
0
SPLINE
5
F4
100
AcDbEntity
8
1
62
256
6
ByLayer
370
18
48
1
60
0
100
AcDbSpline
70
4
71
3
72
30
73
26
40
0
40
0
40
0
40
0
40
0.125000000000018
40
0.125000000000018
40
0.187500000000016
40
0.187500000000016
40
0.250000000000015
40
0.250000000000015
40
0.312500000000014
40
0.312500000000014
40
0.375000000000012
40
0.375000000000012
40
0.437500000000011
40
0.437500000000011
40
0.50000000000001
40
0.50000000000001
40
0.562500000000008
40
0.562500000000008
40
0.625000000000007
40
0.625000000000007
40
0.750000000000005
40
0.750000000000005
40
0.875000000000002
40
0.875000000000002
40
1
40
1
40
1
40
1
41
1
10
89.9456142423909
20
0.0469494942348661
30
0
41
1
10
89.9267357551559
20
-0.015295517378604
30
0
41
1
10
89.9050310713755
20
-0.0761174702172696
30
0
41
1
10
89.8680751481611
20
-0.165062378165715
30
0
41
1
10
89.8548998903454
20
-0.194555853238199
30
0
41
1
10
89.8276725221653
20
-0.251187058711707
30
0
41
1
10
89.8136137391301
20
-0.278384494123031
30
0
41
1
10
89.7846265563361
20
-0.330473563706789
30
0
41
1
10
89.7696987535959
20
-0.355366711719711
30
0
41
1
10
89.7389289122277
20
-0.402643037861282
30
0
41
1
10
89.723123089955
20
-0.424919018805696
30
0
41
1
10
89.6918707970299
20
-0.465004271610866
30
0
41
1
10
89.676266212266
20
-0.483066763398881
30
0
41
1
10
89.645079398334
20
-0.515149319211019
30
0
41
1
10
89.6293550426804
20
-0.529257271717711
30
0
41
1
10
89.5989173497537
20
-0.552390768776291
30
0
41
1
10
89.5841308439508
20
-0.561531645637729
30
0
41
1
10
89.5553091000513
20
-0.57515163687043
30
0
41
1
10
89.5411689427362
20
-0.579632029770039
30
0
41
1
10
89.5007428548621
20
-0.585919286652569
30
0
41
1
10
89.4761203212529
20
-0.580776715916926
30
0
41
1
10
89.4313583404103
20
-0.554656514076555
30
0
41
1
10
89.4116496121214
20
-0.534099413466834
30
0
41
1
10
89.3759704157742
20
-0.480653581565719
30
0
41
1
10
89.3600538364657
20
-0.447634818953418
30
0
41
1
10
89.3459797468674
20
-0.410065643023472
30
0
0
SPLINE
5
F5
100
AcDbEntity
8
1
62
256
6
ByLayer
370
18
48
1
60
0
100
AcDbSpline
70
4
71
3
72
10
73
6
40
0
40
0
40
0
40
0
40
0.626936431513789
40
0.626936431513789
40
1
40
1
40
1
40
1
41
1
10
88.8170467265963
20
0.773172903304584
30
0
41
1
10
88.7817724659305
20
0.790809802436286
30
0
41
1
10
88.7481418152354
20
0.805469687428058
30
0
41
1
10
88.695730756494
20
0.82662197194918
30
-1E-16
41
1
10
88.6764551611864
20
0.834097316047149
30
-1E-16
41
1
10
88.657996447976
20
0.840432213425913
30
-1E-16
0
SPLINE
5
F6
100
AcDbEntity
8
1
62
256
6
ByLayer
370
18
48
1
60
0
100
AcDbSpline
70
4
71
3
72
8
73
4
40
0
40
0
40
0
40
0
40
1
40
1
40
1
40
1
41
1
10
88.3889407788426
20
-3.84798321508617
30
0
41
1
10
88.3941295535695
20
-3.87798670483227
30
0
41
1
10
88.3989429037839
20
-3.89521635982624
30
0
41
1
10
88.4034625244512
20
-3.89904862171647
30
0
0
SPLINE
5
F7
100
AcDbEntity
8
1
62
256
6
ByLayer
370
18
48
1
60
0
100
AcDbSpline
70
4
71
3
72
8
73
4
40
0
40
0
40
0
40
0
40
1
40
1
40
1
40
1
41
1
10
88.0634044805495
20
0.0310365927947487
30
0
41
1
10
88.0952381710207
20
0.0125516628218634
30
0
41
1
10
88.1268546348515
20
-0.0049573698063625
30
0
41
1
10
88.1582925284195
20
-0.0215150301434903
30
0
0
SPLINE
5
F8
100
AcDbEntity
8
1
62
256
6
ByLayer
370
18
48
1
60
0
100
AcDbSpline
70
4
71
3
72
42
73
38
40
0
40
0
40
0
40
0
40
0.0069272133548289
40
0.0069272133548289
40
0.058622825747438
40
0.058622825747438
40
0.162014050532652
40
0.162014050532652
40
0.213709662925261
40
0.213709662925261
40
0.26540527531787
40
0.26540527531787
40
0.317100887710479
40
0.317100887710479
40
0.368796500103088
40
0.368796500103088
40
0.420492112495697
40
0.420492112495697
40
0.472187724888306
40
0.472187724888306
40
0.57557894967352
40
0.57557894967352
40
0.627274562066128
40
0.627274562066128
40
0.678970174458735
40
0.678970174458735
40
0.730665786851342
40
0.730665786851342
40
0.78236139924395
40
0.78236139924395
40
0.885752624029162
40
0.885752624029162
40
0.937448236421766
40
0.937448236421766
40
0.98914384881437
40
0.98914384881437
40
1
40
1
40
1
40
1
41
1
10
55.1335006979887
20
3.68987686111578
30
0
41
1
10
55.1591993554507
20
3.69060465887333
30
0
41
1
10
55.1848929115411
20
3.69126124374611
30
0
41
1
10
55.4022863222598
20
3.69622325451547
30
0
41
1
10
55.5937099350801
20
3.69669283407575
30
0
41
1
10
56.1682669808871
20
3.68449689603477
30
0
41
1
10
56.5517069895096
20
3.65812433173446
30
0
41
1
10
57.1283037393794
20
3.59394308775074
30
0
41
1
10
57.3207468794053
20
3.56844476574864
30
0
41
1
10
57.7060954522916
20
3.50965443416371
30
0
41
1
10
57.898966918323
20
3.47641969401147
30
0
41
1
10
58.2862424430059
20
3.40109416149483
30
0
41
1
10
58.480955013633
20
3.35884924962207
30
0
41
1
10
58.8684928111383
20
3.2667936883397
30
0
41
1
10
59.0617249371359
20
3.21692133457017
30
0
41
1
10
59.4472848831147
20
3.11032737085785
30
0
41
1
10
59.6396146776553
20
3.0536177905536
30
-2E-16
41
1
10
60.0234649338029
20
2.93374358433439
30
-2E-16
41
1
10
60.2149582191601
20
2.87061191080014
30
-2E-16
41
1
10
60.7896194422598
20
2.67104869931629
30
-2E-16
41
1
10
61.1730792645675
20
2.52435145295158
30
-2E-16
41
1
10
61.74888749612
20
2.28821653769199
30
-1E-16
41
1
10
61.940950291072
20
2.20677317021435
30
-1E-16
41
1
10
62.3251977691239
20
2.03877005293805
30
-1E-16
41
1
10
62.5173651240435
20
1.95221467664521
30
-1E-16
41
1
10
62.9032087970845
20
1.77415563131075
30
-1E-16
41
1
10
63.0967301875198
20
1.68270794982629
30
-1E-16
41
1
10
63.4850277425349
20
1.49544358603481
30
-1E-16
41
1
10
63.6792375921896
20
1.39987876068858
30
-1E-16
41
1
10
64.2598675164465
20
1.10982835316662
30
-1E-16
41
1
10
64.6453841686323
20
0.911400523368371
30
-1E-16
41
1
10
65.2225596396086
20
0.608731439347252
30
0
41
1
10
65.4148300801672
20
0.507089170751755
30
0
41
1
10
65.7991087227377
20
0.302362548340767
30
0
41
1
10
65.9910529476161
20
0.199179563712335
30
0
41
1
10
66.2239150820335
20
0.0747224476480426
30
0
41
1
10
66.2643445770427
20
0.0531261356374557
30
0
41
1
10
66.3047892748715
20
0.0315340323034832
30
0
0
SPLINE
5
F9
100
AcDbEntity
8
1
62
256
6
ByLayer
370
18
48
1
60
0
100
AcDbSpline
70
4
71
3
72
18
73
14
40
0
40
0
40
0
40
0
40
0.23593114953865
40
0.23593114953865
40
0.431874878859914
40
0.431874878859914
40
0.629586680471318
40
0.629586680471318
40
0.801483074405786
40
0.801483074405786
40
0.966921163882989
40
0.966921163882989
40
1
40
1
40
1
40
1
41
1
10
88.6100814646026
20
-3.6716332710418
30
0
41
1
10
88.6101656718682
20
-3.67180640781765
30
0
41
1
10
88.6101918209756
20
-3.67216535107531
30
0
41
1
10
88.610105391133
20
-3.67318219780387
30
0
41
1
10
88.6100137765415
20
-3.6737926509071
30
0
41
1
10
88.609720409808
20
-3.67526667170858
30
0
41
1
10
88.6095121351022
20
-3.67615762317521
30
0
41
1
10
88.6090400162611
20
-3.67795067327282
30
0
41
1
10
88.6087806080542
20
-3.67886017084828
30
0
41
1
10
88.6082407781448
20
-3.68063195580047
30
0
41
1
10
88.6079551159518
20
-3.68151625547529
30
0
41
1
10
88.6076124587955
20
-3.6825249947658
30
0
41
1
10
88.6075546909278
20
-3.68269333311434
30
0
41
1
10
88.6074969204766
20
-3.68286001619532
30
0
0
SPLINE
5
FA
100
AcDbEntity
8
SK1
62
256
6
ByLayer
370
18
48
1
60
0
100
AcDbSpline
70
4
71
3
72
12
73
8
40
0
40
0
40
0
40
0
40
0.500000000000002
40
0.500000000000002
40
0.750000000000001
40
0.750000000000001
40
1
40
1
40
1
40
1
41
1
10
-35.5
20
3.22984698836632
30
0
41
1
10
-35.4764535706457
20
3.25393096720651
30
0
41
1
10
-35.453758325367
20
3.27826506447849
30
0
41
1
10
-35.4256589034923
20
3.30997316918041
30
0
41
1
10
-35.4170915256394
20
3.31997209754385
30
0
41
1
10
-35.4042768359918
20
3.33594477963325
30
0
41
1
10
-35.4
20
3.34199092945474
30
0
41
1
10
-35.4
20
3.34366235752583
30
0
0
SPLINE
5
FB
100
AcDbEntity
8
SK1
62
256
6
ByLayer
370
18
48
1
60
0
100
AcDbSpline
70
4
71
3
72
12
73
8
40
0
40
0
40
0
40
0
40
0.250000000000001
40
0.250000000000001
40
0.500000000000001
40
0.500000000000001
40
1
40
1
40
1
40
1
41
1
10
-35.4
20
-3.21902103032761
30
0
41
1
10
-35.4
20
-3.21415055216176
30
0
41
1
10
-35.4042405317345
20
-3.20518518925161
30
0
41
1
10
-35.4170629445097
20
-3.18430649225172
30
0
41
1
10
-35.4255309618335
20
-3.17246046380743
30
0
41
1
10
-35.4538111153162
20
-3.13589996441345
30
0
41
1
10
-35.4764597265186
20
-3.11010775480105
30
0
41
1
10
-35.5
20
-3.08603007236835
30
0
0
SPLINE
5
FC
100
AcDbEntity
8
SK1
62
256
6
ByLayer
370
18
48
1
60
0
100
AcDbSpline
70
4
71
3
72
8
73
4
40
0
40
0
40
0
40
0
40
1
40
1
40
1
40
1
41
1
10
-35.6009618943233
20
3.12648781135036
30
0
41
1
10
-35.5673240101147
20
3.16095623118662
30
0
41
1
10
-35.5336695336589
20
3.19540880141244
30
0
41
1
10
-35.5
20
3.22984698836629
30
0
0
SPLINE
5
FD
100
AcDbEntity
8
SK1
62
256
6
ByLayer
370
18
48
1
60
0
100
AcDbSpline
70
4
71
3
72
10
73
6
40
0
40
0
40
0
40
0
40
0.5
40
0.5
40
1
40
1
40
1
40
1
41
1
10
-36.0000000000001
20
-2.35897393610597
30
-1E-16
41
1
10
-35.9272396278271
20
-2.4708559904505
30
-1E-16
41
1
10
-35.8568055726535
20
-2.57960655564656
30
-1E-16
41
1
10
-35.7224295033876
20
-2.78915414580413
30
-1E-16
41
1
10
-35.6578574543336
20
-2.89094830075584
30
0
41
1
10
-35.6009618943233
20
-2.98267089535241
30
0
0
SPLINE
5
FE
100
AcDbEntity
8
SK1
62
256
6
ByLayer
370
18
48
1
60
0
100
AcDbSpline
70
4
71
3
72
12
73
8
40
0
40
0
40
0
40
0
40
0.500000000000002
40
0.500000000000002
40
0.750000000000001
40
0.750000000000001
40
1
40
1
40
1
40
1
41
1
10
-35.5
20
-3.22984698836632
30
0
41
1
10
-35.4764535706457
20
-3.25393096720651
30
0
41
1
10
-35.453758325367
20
-3.27826506447849
30
0
41
1
10
-35.4256589034923
20
-3.30997316918041
30
0
41
1
10
-35.4170915256394
20
-3.31997209754385
30
0
41
1
10
-35.4042768359918
20
-3.33594477963325
30
0
41
1
10
-35.4
20
-3.34199092945474
30
0
41
1
10
-35.4
20
-3.34366235752583
30
0
0
SPLINE
5
FF
100
AcDbEntity
8
SK1
62
256
6
ByLayer
370
18
48
1
60
0
100
AcDbSpline
70
4
71
3
72
8
73
4
40
0
40
0
40
0
40
0
40
1
40
1
40
1
40
1
41
1
10
-35.6009618943233
20
-3.12648781135036
30
0
41
1
10
-35.5673240101147
20
-3.16095623118662
30
0
41
1
10
-35.5336695336589
20
-3.19540880141244
30
0
41
1
10
-35.5
20
-3.22984698836629
30
0
0
SPLINE
5
100
100
AcDbEntity
8
SK1
62
256
6
ByLayer
370
18
48
1
60
0
100
AcDbSpline
70
4
71
3
72
10
73
6
40
0
40
0
40
0
40
0
40
0.5
40
0.5
40
1
40
1
40
1
40
1
41
1
10
-35.6009618943233
20
3.12648781135036
30
0
41
1
10
-35.657625994603
20
3.05395825904839
30
0
41
1
10
-35.7212304684705
20
2.96995574818382
30
0
41
1
10
-35.8564778377541
20
2.78763086375358
30
1E-16
41
1
10
-35.9271669955654
20
2.69060012302825
30
-1E-16
41
1
10
-36.0000000000001
20
2.58908100170271
30
0
0
SPLINE
5
101
100
AcDbEntity
8
SK1
62
256
6
ByLayer
370
18
48
1
60
0
100
AcDbSpline
70
4
71
3
72
8
73
4
40
0
40
0
40
0
40
0
40
1
40
1
40
1
40
1
41
1
10
-35.5
20
-3.08603007236835
30
0
41
1
10
-35.5336695811325
20
-3.05159183685703
30
0
41
1
10
-35.5673240591024
20
-3.01713926499147
30
0
41
1
10
-35.6009618943233
20
-2.98267089535244
30
0
0
SPLINE
5
102
100
AcDbEntity
8
SK1
62
256
6
ByLayer
370
18
48
1
60
0
100
AcDbSpline
70
4
71
3
72
10
73
6
40
0
40
0
40
0
40
0
40
0.5
40
0.5
40
1
40
1
40
1
40
1
41
1
10
-35.6009618943233
20
-3.12648781135036
30
0
41
1
10
-35.657625994603
20
-3.05395825904839
30
0
41
1
10
-35.7212304684705
20
-2.96995574818382
30
0
41
1
10
-35.8564778377541
20
-2.78763086375358
30
-1E-16
41
1
10
-35.9271669955654
20
-2.69060012302825
30
1E-16
41
1
10
-36.0000000000001
20
-2.58908100170271
30
0
0
SPLINE
5
103
100
AcDbEntity
8
1
62
256
6
ByLayer
370
18
48
1
60
0
100
AcDbSpline
70
4
71
2
72
6
73
3
40
0
40
0
40
0
40
1
40
1
40
1
41
1
10
56.8911027882049
20
0.0020427413599862
30
0
41
1
10
56.8910874827531
20
0.002049389946535
30
0
41
1
10
56.8910721770886
20
0.0020565757255326
30
0
0
SPLINE
5
104
100
AcDbEntity
8
1
62
256
6
ByLayer
370
18
48
1
60
0
100
AcDbSpline
70
4
71
3
72
15
73
11
40
0
40
0
40
0
40
0
40
0.166430094716806
40
0.276703459198789
40
0.390143604694883
40
0.532553110349165
40
0.631823298703548
40
0.708014059495557
40
0.836332048318361
40
1
40
1
40
1
40
1
41
1
10
55.4865641651876
20
3.68540332256754
30
0
41
1
10
55.2433224280428
20
3.68499970560933
30
0
41
1
10
54.8389133292313
20
3.68452545520032
30
0
41
1
10
54.2687121467902
20
3.68457921422686
30
0
41
1
10
53.7336101285146
20
3.68448257010667
30
0
41
1
10
53.2145933845751
20
3.68382746459793
30
0
41
1
10
52.7500143387526
20
3.68311316309447
30
0
41
1
10
52.3060524534047
20
3.68340040037845
30
0
41
1
10
51.7679431968655
20
3.68351243910638
30
0
41
1
10
51.3412096857743
20
3.68253624447516
30
0
41
1
10
51.1020118171564
20
3.68173093979584
30
0
0
SPLINE
5
105
100
AcDbEntity
8
1
62
256
6
ByLayer
370
18
48
1
60
0
100
AcDbSpline
70
4
71
3
72
13
73
9
40
0
40
0
40
0
40
0
40
0.056715360049543
40
0.196926682648108
40
0.329862730390795
40
0.496654486956109
40
0.720078557177175
40
1
40
1
40
1
40
1
41
1
10
88.6632055560982
20
0.839924666616298
30
-1E-16
41
1
10
88.5740904872132
20
0.869302529885886
30
-1E-16
41
1
10
88.2649898554226
20
0.972285203780189
30
-1E-16
41
1
10
87.7496512618037
20
1.15213175581835
30
-1E-16
41
1
10
87.0644353646941
20
1.39818704055082
30
-1E-16
41
1
10
86.2531152122004
20
1.70121815209413
30
-1E-16
41
1
10
85.2197000427496
20
2.10546765368977
30
-1E-16
41
1
10
84.4494491746966
20
2.42395763994818
30
-1E-16
41
1
10
84.0229107858459
20
2.60573981768374
30
-2E-16
0
SPLINE
5
106
100
AcDbEntity
8
1
62
256
6
ByLayer
370
18
48
1
60
0
100
AcDbSpline
70
4
71
3
72
25
73
21
40
0
40
0
40
0
40
0
40
3.39365623379E-05
40
4.58915216816E-05
40
5.51109863893E-05
40
6.29613738801E-05
40
7.04363131774E-05
40
0.0001248634089562
40
0.0001597606613637
40
0.0002222204253066
40
0.0023412080283038
40
0.003795535934418
40
0.006040790465852
40
0.0513310340966215
40
0.189275245616693
40
0.309976612363301
40
0.402116913301441
40
0.550348326193347
40
0.756342966551736
40
1
40
1
40
1
40
1
41
1
10
69.2700207544043
20
0.103152763886925
30
0
41
1
10
69.2700690270438
20
0.103141430858983
30
0
41
1
10
69.2701289643572
20
0.10312773633143
30
0
41
1
10
69.2701705628629
20
0.103118818385184
30
0
41
1
10
69.2701583238334
20
0.103127923765385
30
0
41
1
10
69.2701367595493
20
0.103135992235025
30
0
41
1
10
69.2700185419394
20
0.103175185017534
30
0
41
1
10
69.2698261984641
20
0.103238595974119
30
0
41
1
10
69.2696198695506
20
0.103314748024303
30
0
41
1
10
69.2663227453269
20
0.104494389943824
30
0
41
1
10
69.2615313139983
20
0.106224577362923
30
0
41
1
10
69.2500657386222
20
0.109782346906854
30
0
41
1
10
69.1409298432809
20
0.142077785724922
30
0
41
1
10
68.6991205514654
20
0.270083647556049
30
0
41
1
10
67.9981873831661
20
0.484962119166028
30
0
41
1
10
67.1836065530418
20
0.747697493836938
30
0
41
1
10
66.3512503879706
20
1.0286975478609
30
-1E-16
41
1
10
65.3267791236918
20
1.39125787851043
30
-1E-16
41
1
10
63.9648831106178
20
1.90534220739218
30
-1E-16
41
1
10
62.9515127049709
20
2.31933446897921
30
-1E-16
41
1
10
62.4054874713571
20
2.55168490215152
30
-2E-16
0
SPLINE
5
107
100
AcDbEntity
8
1
62
256
6
ByLayer
370
18
48
1
60
0
100
AcDbSpline
70
4
71
3
72
25
73
21
40
0
40
0
40
0
40
0
40
1.53337339355E-05
40
2.69061190544E-05
40
3.67421332735E-05
40
4.60840316206E-05
40
0.0001012758153947
40
0.0001318659688374
40
0.0001863093247479
40
0.0002846592110648
40
0.0109788999571998
40
0.0294941123469428
40
0.0972350216168944
40
0.252851109190536
40
0.402166558283108
40
0.548483582680322
40
0.640239252839106
40
0.736485455714451
40
0.860008122750099
40
1
40
1
40
1
40
1
41
1
10
47.6940553406389
20
0.0526982835715444
30
0
41
1
10
47.6940696126752
20
0.052694657185441
30
0
41
1
10
47.6940899936774
20
0.0526898045937969
30
0
41
1
10
47.6941013151908
20
0.0526886615196815
30
0
41
1
10
47.6940685114968
20
0.0526978755600283
30
0
41
1
10
47.6939544060742
20
0.0527326683910303
30
0
41
1
10
47.6937030407876
20
0.0528056775175116
30
0
41
1
10
47.6934084858271
20
0.0528944703773959
30
0
41
1
10
47.6930059631012
20
0.0530148674879172
30
0
41
1
10
47.669456146448
20
0.0600672457132987
30
0
41
1
10
47.6003221213095
20
0.0800242497108741
30
0
41
1
10
47.3721640572632
20
0.146018495738645
30
0
41
1
10
46.7973548722631
20
0.315035207338099
30
0
41
1
10
45.9160672792828
20
0.588371087417073
30
0
41
1
10
44.854646893849
20
0.940106945119794
30
-1E-16
41
1
10
43.9491569687573
20
1.25871796445034
30
-1E-16
41
1
10
43.1715928500915
20
1.5449048070424
30
-1E-16
41
1
10
42.4500293564101
20
1.81974552411728
30
-1E-16
41
1
10
41.6206843943287
20
2.1474407834566
30
-1E-16
41
1
10
41.0173139428602
20
2.39765481143843
30
-1E-16
41
1
10
40.6978740344815
20
2.53335286781282
30
-2E-16
0
SPLINE
5
108
100
AcDbEntity
8
1
62
256
6
ByLayer
370
18
48
1
60
0
100
AcDbSpline
70
4
71
3
72
19
73
15
40
0
40
0
40
0
40
0
40
0.146320026339789
40
0.254616787108346
40
0.365669595731661
40
0.437592364466648
40
0.525639846638684
40
0.65288848598391
40
0.719986991308151
40
0.762382401862549
40
0.804251884421929
40
0.852346527927561
40
0.936724338081627
40
1
40
1
40
1
40
1
41
1
10
67.7729930899034
20
-3.69209963645989
30
0
41
1
10
68.128877900545
20
-3.69246215775516
30
0
41
1
10
68.7481661960872
20
-3.69297099995259
30
0
41
1
10
69.637560478794
20
-3.69265367187879
30
0
41
1
10
70.3460056298319
20
-3.69339079068737
30
0
41
1
10
71.005192242832
20
-3.69452545084817
30
0
41
1
10
71.7037782214375
20
-3.69361090552346
30
0
41
1
10
72.3906288873089
20
-3.69338506086706
30
0
41
1
10
72.9664419941328
20
-3.69468496512658
30
0
41
1
10
73.3345928029003
20
-3.69488232505913
30
0
41
1
10
73.6565217884466
20
-3.6956010438264
30
0
41
1
10
74.0805624239527
20
-3.69616912632364
30
0
41
1
10
74.5566658449194
20
-3.69540421585657
30
0
41
1
10
74.9157927135565
20
-3.694795128614
30
0
41
1
10
75.0696941188892
20
-3.69461050629241
30
0
0
SPLINE
5
109
100
AcDbEntity
8
1
62
256
6
ByLayer
370
18
48
1
60
0
100
AcDbSpline
70
4
71
3
72
16
73
12
40
0
40
0
40
0
40
0
40
0.0158852975997651
40
0.0744826459637105
40
0.140969813624335
40
0.266859216214454
40
0.393094953426375
40
0.509883146114636
40
0.630677423293959
40
0.803000886870236
40
1
40
1
40
1
40
1
41
1
10
25.8773098435206
20
0.0711966200636596
30
0
41
1
10
25.8403106888596
20
0.0817436312477184
30
0
41
1
10
25.667643441374
20
0.131290034883079
30
0
41
1
10
25.337024745802
20
0.228241863908892
30
0
41
1
10
24.7524179309291
20
0.404625614082534
30
0
41
1
10
24.0119245453203
20
0.638022111826615
30
0
41
1
10
23.1590982890276
20
0.921678237797067
30
-1E-16
41
1
10
22.3219762116229
20
1.21395745810645
30
-1E-16
41
1
10
21.3835408096265
20
1.55675912879337
30
-1E-16
41
1
10
20.2679841589939
20
1.98537929606266
30
-1E-16
41
1
10
19.4348098691121
20
2.32767036663043
30
-1E-16
41
1
10
18.9923927112598
20
2.51560710138341
30
-2E-16
0
SPLINE
5
10A
100
AcDbEntity
8
1
62
256
6
ByLayer
370
18
48
1
60
0
100
AcDbSpline
70
4
71
3
72
11
73
7
40
0
40
0
40
0
40
0
40
0.435318158280287
40
0.744078807465602
40
0.962726676785589
40
1
40
1
40
1
40
1
41
1
10
51.0017097679594
20
-3.68151218644832
30
0
41
1
10
51.3530469042161
20
-3.68186044883424
30
0
41
1
10
51.9536117909081
20
-3.68250480919195
30
0
41
1
10
52.7278124711748
20
-3.68305403685702
30
0
41
1
10
53.1848641901437
20
-3.68381509089218
30
0
41
1
10
53.3918600390541
20
-3.68410153515816
30
0
41
1
10
53.4220062796207
20
-3.68414026516081
30
0
0
SPLINE
5
10B
100
AcDbEntity
8
1
62
256
6
ByLayer
370
18
48
1
60
0
100
AcDbSpline
70
4
71
3
72
20
73
16
40
0
40
0
40
0
40
0
40
0.118957244804992
40
0.20132887467832
40
0.261889327037386
40
0.332690255913149
40
0.392827033310442
40
0.471996391278349
40
0.577991720022654
40
0.654501389867422
40
0.707108101424147
40
0.763875039189633
40
0.850758072569082
40
0.943168688843392
40
1
40
1
40
1
40
1
41
1
10
77.2405525994974
20
3.69665876082431
30
0
41
1
10
76.949201708809
20
3.69779698043476
30
0
41
1
10
76.4561067348155
20
3.69872389355905
30
0
41
1
10
75.81469538601
20
3.69434447441157
30
0
41
1
10
75.2912198646388
20
3.69428879189084
30
0
41
1
10
74.8222059291352
20
3.69493010988649
30
0
41
1
10
74.3076108536544
20
3.6958850547984
30
0
41
1
10
73.7068165979154
20
3.69589365050848
30
0
41
1
10
73.0659231090542
20
3.69477031188993
30
0
41
1
10
72.4900884434381
20
3.69364594386536
30
0
41
1
10
72.0348216839545
20
3.69341056964254
30
0
41
1
10
71.5541486739848
20
3.69385294490047
30
0
41
1
10
70.9759884769063
20
3.6945734753991
30
0
41
1
10
70.3976693813312
20
3.69340437402263
30
0
41
1
10
70.0321467782291
20
3.69296308754039
30
0
41
1
10
69.8929549108082
20
3.69288264800636
30
0
0
SPLINE
5
10C
100
AcDbEntity
8
1
62
256
6
ByLayer
370
18
48
1
60
0
100
AcDbSpline
70
4
71
2
72
6
73
3
40
0
40
0
40
0
40
1
40
1
40
1
41
1
10
78.6470560957515
20
-0.0014265719975128
30
0
41
1
10
78.6470320723772
20
-0.0014384718198812
30
0
41
1
10
78.647008049303
20
-0.0014495016593798
30
0
0
LINE
5
84
100
AcDbEntity
8
1
62
256
6
ByLayer
370
18
48
1
60
0
100
AcDbLine
10
51.00171
20
3.876512
30
0
11
51.00171
21
2.953498
31
0
39
0
210
0
220
0
230
1
0
LINE
5
85
100
AcDbEntity
8
1
62
256
6
ByLayer
370
18
48
1
60
0
100
AcDbLine
10
0
20
4
30
0
11
0
21
0
31
0
39
0
210
0
220
0
230
1
0
LINE
5
86
100
AcDbEntity
8
1
62
256
6
ByLayer
370
18
48
1
60
0
100
AcDbLine
10
0
20
0
30
0
11
0
21
-4
31
0
39
0
210
0
220
0
230
1
0
LINE
5
87
100
AcDbEntity
8
1
62
256
6
ByLayer
370
18
48
1
60
0
100
AcDbLine
10
51.00171
20
-3.190008
30
0
11
51.00171
21
-3.876512
31
0
39
0
210
0
220
0
230
1
0
LINE
5
88
100
AcDbEntity
8
1
62
256
6
ByLayer
370
18
48
1
60
0
100
AcDbLine
10
0.158158
20
3.922417
30
0
11
0.158158
21
0
31
0
39
0
210
0
220
0
230
1
0
LINE
5
89
100
AcDbEntity
8
1
62
256
6
ByLayer
370
18
48
1
60
0
100
AcDbLine
10
0.158158
20
0
30
0
11
0.158158
21
-3.922417
31
0
39
0
210
0
220
0
230
1
0
LINE
5
8A
100
AcDbEntity
8
1
62
256
6
ByLayer
370
18
48
1
60
0
100
AcDbLine
10
0.316442
20
3.844834
30
0
11
0.316442
21
0
31
0
39
0
210
0
220
0
230
1
0
LINE
5
8B
100
AcDbEntity
8
1
62
256
6
ByLayer
370
18
48
1
60
0
100
AcDbLine
10
0.316442
20
0
30
0
11
0.316442
21
-3.844834
31
0
39
0
210
0
220
0
230
1
0
LINE
5
8C
100
AcDbEntity
8
1
62
256
6
ByLayer
370
18
48
1
60
0
100
AcDbLine
10
89.945614
20
0.046949
30
0
11
89.016408
21
1.072632
31
0
39
0
210
0
220
0
230
1
0
LINE
5
8D
100
AcDbEntity
8
1
62
256
6
ByLayer
370
18
48
1
60
0
100
AcDbLine
10
51
20
2.528163
30
0
11
51
21
2.484322
31
0
39
0
210
0
220
0
230
1
0
LINE
5
8E
100
AcDbEntity
8
SK1
62
256
6
ByLayer
370
18
48
1
60
0
100
AcDbLine
10
-35.4
20
3.36
30
0
11
-35.4
21
3.343662
31
0
39
0
210
0
220
0
230
1
0
LINE
5
90
100
AcDbEntity
8
SK1
62
256
6
ByLayer
370
18
48
1
60
0
100
AcDbLine
10
-35.5
20
-3.229847
30
0
11
-35.5
21
-3.085963
31
0
39
0
210
0
220
0
230
1
0
LINE
5
91
100
AcDbEntity
8
SK1
62
256
6
ByLayer
370
18
48
1
60
0
100
AcDbLine
10
-34.76
20
-4
30
0
11
-34.76
21
4
31
0
39
0
210
0
220
0
230
1
0
LINE
5
92
100
AcDbEntity
8
SK1
62
256
6
ByLayer
370
18
48
1
60
0
100
AcDbLine
10
0
20
4
30
0
11
0
21
-4
31
0
39
0
210
0
220
0
230
1
0
LINE
5
93
100
AcDbEntity
8
SK1
62
256
6
ByLayer
370
18
48
1
60
0
100
AcDbLine
10
-35.4
20
-3.36
30
0
11
-35.4
21
-3.219021
31
0
39
0
210
0
220
0
230
1
0
LINE
5
94
100
AcDbEntity
8
SK1
62
256
6
ByLayer
370
18
48
1
60
0
100
AcDbLine
10
-35.600962
20
-3.126488
30
0
11
-35.600962
21
-2.982636
31
0
39
0
210
0
220
0
230
1
0
LINE
5
95
100
AcDbEntity
8
SK1
62
256
6
ByLayer
370
18
48
1
60
0
100
AcDbLine
10
-36
20
2.589081
30
0
11
-36
21
-2.358974
31
0
39
0
210
0
220
0
230
1
0
LINE
5
96
100
AcDbEntity
8
SK1
62
256
6
ByLayer
370
18
48
1
60
0
100
AcDbLine
10
-36
20
-2.589081
30
0
11
-36
21
-2.358919
31
0
39
0
210
0
220
0
230
1
0
LINE
5
97
100
AcDbEntity
8
SK1
62
256
6
ByLayer
370
18
48
1
60
0
100
AcDbLine
10
-35.4
20
-3.36
30
0
11
-34.76
21
-4
31
0
39
0
210
0
220
0
230
1
0
LINE
5
98
100
AcDbEntity
8
SK1
62
256
6
ByLayer
370
18
48
1
60
0
100
AcDbLine
10
-34.76
20
4
30
0
11
-35.4
21
3.36
31
0
39
0
210
0
220
0
230
1
0
LINE
5
99
100
AcDbEntity
8
SK1
62
256
6
ByLayer
370
18
48
1
60
0
100
AcDbLine
10
-34.76
20
-4
30
0
11
0
21
-4
31
0
39
0
210
0
220
0
230
1
0
LINE
5
9A
100
AcDbEntity
8
SK1
62
256
6
ByLayer
370
18
48
1
60
0
100
AcDbLine
10
0
20
4
30
0
11
-34.76
21
4
31
0
39
0
210
0
220
0
230
1
0
LINE
5
9B
100
AcDbEntity
8
1
62
256
6
ByLayer
370
18
48
1
60
0
100
AcDbLine
10
0.316442
20
-3.844834
30
0
11
13.036616
21
-3.852784
31
0
39
0
210
0
220
0
230
1
0
LINE
5
9C
100
AcDbEntity
8
1
62
256
6
ByLayer
370
18
48
1
60
0
100
AcDbLine
10
23.20156
20
-3.859137
30
0
11
34.765131
21
-3.866364
31
0
39
0
210
0
220
0
230
1
0
LINE
5
9D
100
AcDbEntity
8
1
62
256
6
ByLayer
370
18
48
1
60
0
100
AcDbLine
10
44.943408
20
-3.872726
30
0
11
51.00171
21
-3.876512
31
0
39
0
210
0
220
0
230
1
0
LINE
5
9E
100
AcDbEntity
8
1
62
256
6
ByLayer
370
18
48
1
60
0
100
AcDbLine
10
55.488032
20
-3.879316
30
0
11
56.494253
21
-3.879945
31
0
39
0
210
0
220
0
230
1
0
LINE
5
9F
100
AcDbEntity
8
1
62
256
6
ByLayer
370
18
48
1
60
0
100
AcDbLine
10
66.794616
20
-3.886383
30
0
11
67.769556
21
-3.886992
31
0
39
0
210
0
220
0
230
1
0
LINE
5
A0
100
AcDbEntity
8
1
62
256
6
ByLayer
370
18
48
1
60
0
100
AcDbLine
10
77.242732
20
-3.892913
30
0
11
78.223326
21
-3.893526
31
0
39
0
210
0
220
0
230
1
0
LINE
5
A1
100
AcDbEntity
8
1
62
256
6
ByLayer
370
18
48
1
60
0
100
AcDbLine
10
78.223326
20
3.893526
30
0
11
77.242732
21
3.892913
31
0
39
0
210
0
220
0
230
1
0
LINE
5
A2
100
AcDbEntity
8
1
62
256
6
ByLayer
370
18
48
1
60
0
100
AcDbLine
10
67.769556
20
3.886992
30
0
11
66.794616
21
3.886383
31
0
39
0
210
0
220
0
230
1
0
LINE
5
A3
100
AcDbEntity
8
1
62
256
6
ByLayer
370
18
48
1
60
0
100
AcDbLine
10
56.494253
20
3.879945
30
0
11
55.488032
21
3.879316
31
0
39
0
210
0
220
0
230
1
0
LINE
5
A4
100
AcDbEntity
8
1
62
256
6
ByLayer
370
18
48
1
60
0
100
AcDbLine
10
51.00171
20
3.876512
30
0
11
44.943408
21
3.872726
31
0
39
0
210
0
220
0
230
1
0
LINE
5
A5
100
AcDbEntity
8
1
62
256
6
ByLayer
370
18
48
1
60
0
100
AcDbLine
10
34.765131
20
3.866364
30
0
11
23.20156
21
3.859137
31
0
39
0
210
0
220
0
230
1
0
LINE
5
A6
100
AcDbEntity
8
1
62
256
6
ByLayer
370
18
48
1
60
0
100
AcDbLine
10
13.036616
20
3.852784
30
0
11
0.316442
21
3.844834
31
0
39
0
210
0
220
0
230
1
0
LINE
5
A7
100
AcDbEntity
8
SK4
62
256
6
ByLayer
370
18
48
0.05
60
0
100
AcDbLine
10
95
20
0
30
0
11
-41
21
0
31
0
39
0
210
0
220
0
230
1
0
LINE
5
A9
100
AcDbEntity
8
4
62
256
6
ByLayer
370
18
48
0.05
60
0
100
AcDbLine
10
-36
20
0
30
0
11
95
21
0
31
0
39
0
210
0
220
0
230
1
0
LINE
5
AB
100
AcDbEntity
8
80
62
256
6
ByLayer
370
18
48
1
60
0
100
AcDbLine
10
0
20
0
30
0
11
-6
21
0
31
0
39
0
210
0
220
0
230
1
0
LINE
5
AC
100
AcDbEntity
8
81
62
256
6
ByLayer
370
18
48
1
60
0
100
AcDbLine
10
90
20
0
30
0
11
96
21
0
31
0
39
0
210
0
220
0
230
1
0
LINE
5
AD
100
AcDbEntity
8
SK2
62
256
6
ByLayer
370
13
48
1
60
0
100
AcDbLine
10
90.542962
20
1.49176
30
0
11
97.926396
21
21.777348
31
0
39
0
210
0
220
0
230
1
0
LINE
5
AF
100
AcDbEntity
8
SK2
62
256
6
ByLayer
370
13
48
1
60
0
100
AcDbLine
10
90.542962
20
-1.49176
30
0
11
97.926396
21
-21.777348
31
0
39
0
210
0
220
0
230
1
0
LINE
5
B0
100
AcDbEntity
8
1
62
256
6
ByLayer
370
13
48
1
60
0
100
AcDbLine
10
96.840471
20
18.793828
30
0
11
99.937059
21
17.977444
31
0
39
0
210
0
220
0
230
1
0
LINE
5
B1
100
AcDbEntity
8
1
62
256
6
ByLayer
370
13
48
1
60
0
100
AcDbLine
10
96.840471
20
18.793828
30
0
11
99.620252
21
17.203804
31
0
39
0
210
0
220
0
230
1
0
LINE
5
B2
100
AcDbEntity
8
1
62
256
6
ByLayer
370
13
48
1
60
0
100
AcDbLine
10
99.937059
20
17.977444
30
0
11
99.620252
21
17.203804
31
0
39
0
210
0
220
0
230
1
0
LINE
5
B3
100
AcDbEntity
8
1
62
256
6
ByLayer
370
13
48
1
60
0
100
AcDbLine
10
96.840471
20
-18.793828
30
0
11
99.62025
21
-17.203806
31
0
39
0
210
0
220
0
230
1
0
LINE
5
B4
100
AcDbEntity
8
1
62
256
6
ByLayer
370
13
48
1
60
0
100
AcDbLine
10
96.840471
20
-18.793828
30
0
11
99.937062
21
-17.977443
31
0
39
0
210
0
220
0
230
1
0
LINE
5
B5
100
AcDbEntity
8
1
62
256
6
ByLayer
370
13
48
1
60
0
100
AcDbLine
10
99.62025
20
-17.203806
30
0
11
99.937062
21
-17.977443
31
0
39
0
210
0
220
0
230
1
0
MTEXT
5
10D
100
AcDbEntity
8
SK2
62
256
6
ByLayer
370
18
48
1
60
0
100
AcDbMText
10
103.717388
20
-2.467451
30
0
210
0
220
0
230
1
1
\W0.7237;140.00
40
3.50012
41
0
44
1.084337
50
0
71
7
72
5
7
iso_b_vert
0
MTEXT
5
110
100
AcDbEntity
8
SK6
62
256
6
ByLayer
370
18
48
1
60
0
100
AcDbMText
10
-12.166202
20
-63.383974
30
0
210
0
220
0
230
1
1
\W0.7454;860.1-0780-063A1-GM X1BM
40
3.175
41
0
44
1.084337
50
0
71
7
72
5
7
iso_b_vert
0
DIMENSION
5
113
100
AcDbEntity
8
SK2
62
256
6
ByLayer
370
18
48
1
60
0
100
AcDbDimension
2
_U0
10
90
20
-27.50012
30
0
11
45
21
-27.50012
31
0
70
32
71
2
72
1
41
1
210
0
220
0
230
1
3
Standard
100
AcDbAlignedDimension
13
0
23
-4
33
0
14
90
24
0
34
0
50
0
100
AcDbRotatedDimension
1001
ACAD
1000
DSTYLE
1002
{
1070
   371
1070
    13
1070
   372
1070
    13
1070
     3
1000

1070
   170
1070
     0
1070
   144
1040
1.0
1070
   277
1070
     2
1070
   284
1070
     8
1070
   278
1070
    46
1070
   146
1040
0.999966
1070
   345
1005
16
1070
   347
1005
16
1070
   346
1005
16
1070
   344
1005
114
1070
   343
1005
114
1070
   172
1070
     1
1070
    76
1070
     0
1070
    75
1070
     0
1070
   282
1070
     0
1070
   281
1070
     0
1070
    71
1070
     0
1070
    74
1070
     0
1070
   279
1070
     0
1070
   173
1070
     1
1070
   340
1005
10E
1070
   271
1070
     1
1070
   272
1070
     2
1070
    77
1070
     1
1070
    73
1070
     1
1070
   171
1070
     3
1070
   274
1070
     4
1070
   177
1070
   150
1070
   176
1070
     9
1070
   178
1070
    43
1070
    78
1070
     8
1070
    48
1040
-0.1
1070
    41
1040
3.175
1070
   147
1040
1.75006
1070
    42
1040
1.5875
1070
    44
1040
3.175
1070
   140
1040
3.50012
1002
}
1001
ACAD_DSTYLE_DIM_LINETYPE
1070
   380
1005
16
1001
ACAD_DSTYLE_DIM_EXT1_LINETYPE
1070
   381
1005
16
1001
ACAD_DSTYLE_DIM_EXT2_LINETYPE
1070
   382
1005
16
0
DIMENSION
5
139
100
AcDbEntity
8
2
62
256
6
ByLayer
370
18
48
1
60
0
100
AcDbDimension
2
_U1
10
96.75006
20
3.9
30
0
11
96.75006
21
19.473233
31
0
70
32
71
1
72
1
41
1
210
0
220
0
230
1
3
Standard
100
AcDbAlignedDimension
13
88.5805
23
-3.9
33
0
14
88.5805
24
3.9
34
0
50
90
100
AcDbRotatedDimension
1001
ACAD
1000
DSTYLE
1002
{
1070
   371
1070
    13
1070
   372
1070
    13
1070
     3
1000

1070
   170
1070
     0
1070
   144
1040
1.0
1070
   277
1070
     2
1070
   284
1070
     8
1070
   278
1070
    46
1070
   146
1040
0.999966
1070
   345
1005
16
1070
   347
1005
16
1070
   346
1005
16
1070
   344
1005
114
1070
   343
1005
114
1070
   172
1070
     1
1070
    76
1070
     0
1070
    75
1070
     0
1070
   282
1070
     0
1070
   281
1070
     0
1070
    71
1070
     0
1070
    74
1070
     0
1070
   279
1070
     0
1070
   173
1070
     1
1070
   340
1005
10E
1070
   271
1070
     1
1070
   272
1070
     2
1070
    77
1070
     1
1070
    73
1070
     0
1070
   171
1070
     3
1070
   274
1070
     4
1070
   177
1070
   150
1070
   176
1070
     9
1070
   178
1070
    43
1070
    78
1070
     8
1070
    48
1040
-0.1
1070
    41
1040
3.175
1070
   147
1040
1.75006
1070
    42
1040
1.5875
1070
    44
1040
3.175
1070
   140
1040
3.50012
1002
}
1001
ACAD_DSTYLE_DIM_LINETYPE
1070
   380
1005
16
1001
ACAD_DSTYLE_DIM_EXT1_LINETYPE
1070
   381
1005
16
1001
ACAD_DSTYLE_DIM_EXT2_LINETYPE
1070
   382
1005
16
0
DIMENSION
5
158
100
AcDbEntity
8
SK2
62
256
6
ByLayer
370
18
48
1
60
0
100
AcDbDimension
2
_U2
10
-39.24994
20
-4
30
0
11
-39.24994
21
18.10734
31
0
70
32
71
1
72
1
41
1
210
0
220
0
230
1
3
Standard
100
AcDbAlignedDimension
13
-36
23
4
33
0
14
-36
24
-4
34
0
50
90
100
AcDbRotatedDimension
1001
ACAD
1000
DSTYLE
1002
{
1070
   371
1070
    13
1070
   372
1070
    13
1070
     3
1000

1070
   170
1070
     0
1070
   144
1040
1.0
1070
   277
1070
     2
1070
   284
1070
     8
1070
   278
1070
    46
1070
   146
1040
0.999966
1070
   345
1005
16
1070
   347
1005
16
1070
   346
1005
16
1070
   344
1005
114
1070
   343
1005
114
1070
   172
1070
     1
1070
    76
1070
     0
1070
    75
1070
     0
1070
   282
1070
     0
1070
   281
1070
     0
1070
    71
1070
     0
1070
    74
1070
     0
1070
   279
1070
     0
1070
   173
1070
     1
1070
   340
1005
10E
1070
   271
1070
     1
1070
   272
1070
     2
1070
    77
1070
     1
1070
    73
1070
     0
1070
   171
1070
     3
1070
   274
1070
     4
1070
   177
1070
   150
1070
   176
1070
     9
1070
   178
1070
    43
1070
    78
1070
     8
1070
    48
1040
-0.1
1070
    41
1040
3.175
1070
   147
1040
1.75006
1070
    42
1040
1.5875
1070
    44
1040
3.175
1070
   140
1040
3.50012
1002
}
1001
ACAD_DSTYLE_DIM_LINETYPE
1070
   380
1005
16
1001
ACAD_DSTYLE_DIM_EXT1_LINETYPE
1070
   381
1005
16
1001
ACAD_DSTYLE_DIM_EXT2_LINETYPE
1070
   382
1005
16
0
DIMENSION
5
176
100
AcDbEntity
8
SK2
62
256
6
ByLayer
370
18
48
1
60
0
100
AcDbDimension
2
_U3
10
0
20
-27.50012
30
0
11
-18
21
-27.50012
31
0
70
32
71
1
72
1
41
1
210
0
220
0
230
1
3
Standard
100
AcDbAlignedDimension
13
-36
23
-4
33
0
14
0
24
-4
34
0
50
0
100
AcDbRotatedDimension
1001
ACAD
1000
DSTYLE
1002
{
1070
   371
1070
    13
1070
   372
1070
    13
1070
     3
1000

1070
   170
1070
     0
1070
   144
1040
1.0
1070
   277
1070
     2
1070
   284
1070
     8
1070
   278
1070
    46
1070
   146
1040
0.999966
1070
   345
1005
16
1070
   347
1005
16
1070
   346
1005
16
1070
   344
1005
114
1070
   343
1005
114
1070
   172
1070
     1
1070
    76
1070
     0
1070
    75
1070
     0
1070
   282
1070
     0
1070
   281
1070
     0
1070
    71
1070
     0
1070
    74
1070
     0
1070
   279
1070
     0
1070
   173
1070
     1
1070
   340
1005
10E
1070
   271
1070
     1
1070
   272
1070
     2
1070
    77
1070
     1
1070
    73
1070
     1
1070
   171
1070
     3
1070
   274
1070
     4
1070
   177
1070
   150
1070
   176
1070
     9
1070
   178
1070
    43
1070
    78
1070
     8
1070
    48
1040
-0.1
1070
    41
1040
3.175
1070
   147
1040
1.75006
1070
    42
1040
1.5875
1070
    44
1040
3.175
1070
   140
1040
3.50012
1002
}
1001
ACAD_DSTYLE_DIM_LINETYPE
1070
   380
1005
16
1001
ACAD_DSTYLE_DIM_EXT1_LINETYPE
1070
   381
1005
16
1001
ACAD_DSTYLE_DIM_EXT2_LINETYPE
1070
   382
1005
16
0
DIMENSION
5
192
100
AcDbEntity
8
SK2
62
256
6
ByLayer
370
18
48
1
60
0
100
AcDbDimension
2
_U4
10
90
20
-18.74982
30
0
11
48
21
-18.74982
31
0
70
32
71
1
72
1
41
1
210
0
220
0
230
1
3
Standard
100
AcDbAlignedDimension
13
6
23
4.4
33
0
14
90
24
0
34
0
50
0
100
AcDbRotatedDimension
1001
ACAD
1000
DSTYLE
1002
{
1070
   371
1070
    13
1070
   372
1070
    13
1070
     3
1000

1070
   170
1070
     0
1070
   144
1040
1.0
1070
   277
1070
     2
1070
   284
1070
     8
1070
   278
1070
    46
1070
   146
1040
0.999966
1070
   345
1005
16
1070
   347
1005
16
1070
   346
1005
16
1070
   344
1005
114
1070
   343
1005
114
1070
   172
1070
     1
1070
    76
1070
     0
1070
    75
1070
     0
1070
   282
1070
     0
1070
   281
1070
     0
1070
    71
1070
     0
1070
    74
1070
     0
1070
   279
1070
     0
1070
   173
1070
     1
1070
   340
1005
10E
1070
   271
1070
     1
1070
   272
1070
     2
1070
    77
1070
     1
1070
    73
1070
     1
1070
   171
1070
     3
1070
   274
1070
     4
1070
   177
1070
   150
1070
   176
1070
     9
1070
   178
1070
    43
1070
    78
1070
     8
1070
    48
1040
-0.1
1070
    41
1040
3.175
1070
   147
1040
1.75006
1070
    42
1040
1.5875
1070
    44
1040
3.175
1070
   140
1040
3.50012
1002
}
1001
ACAD_DSTYLE_DIM_LINETYPE
1070
   380
1005
16
1001
ACAD_DSTYLE_DIM_EXT1_LINETYPE
1070
   381
1005
16
1001
ACAD_DSTYLE_DIM_EXT2_LINETYPE
1070
   382
1005
16
0
DIMENSION
5
1AE
100
AcDbEntity
8
SK2
62
256
6
ByLayer
370
18
48
1
60
0
100
AcDbDimension
2
_U5
10
90
20
-10.82
30
0
11
58.1
21
-10.82
31
0
70
32
71
1
72
1
41
1
210
0
220
0
230
1
3
Standard
100
AcDbAlignedDimension
13
26.2
23
-3.9
33
0
14
90
24
0
34
0
50
0
100
AcDbRotatedDimension
1001
ACAD
1000
DSTYLE
1002
{
1070
   371
1070
    13
1070
   372
1070
    13
1070
     3
1000

1070
   170
1070
     0
1070
   144
1040
1.0
1070
   277
1070
     2
1070
   284
1070
     8
1070
   278
1070
    46
1070
   146
1040
1.25
1070
   345
1005
16
1070
   347
1005
16
1070
   346
1005
16
1070
   344
1005
114
1070
   343
1005
114
1070
   172
1070
     1
1070
    76
1070
     0
1070
    75
1070
     0
1070
   282
1070
     0
1070
   281
1070
     0
1070
    71
1070
     0
1070
    74
1070
     0
1070
   279
1070
     0
1070
   173
1070
     1
1070
   340
1005
10E
1070
   271
1070
     1
1070
   272
1070
     2
1070
    77
1070
     1
1070
    73
1070
     1
1070
   171
1070
     3
1070
   274
1070
     4
1070
   177
1070
   150
1070
   176
1070
     9
1070
   178
1070
    43
1070
    78
1070
     8
1070
    48
1040
-0.1
1070
    41
1040
3.175
1070
   147
1040
0.42
1070
    42
1040
1.5875
1070
    44
1040
0.5
1070
   140
1040
2.8
1002
}
1001
ACAD_DSTYLE_DIM_LINETYPE
1070
   380
1005
16
1001
ACAD_DSTYLE_DIM_EXT1_LINETYPE
1070
   381
1005
16
1001
ACAD_DSTYLE_DIM_EXT2_LINETYPE
1070
   382
1005
16
0
DIMENSION
5
1CA
100
AcDbEntity
8
SK2
62
256
6
ByLayer
370
18
48
1
60
0
100
AcDbDimension
2
_U6
10
90
20
-37.50012
30
0
11
27
21
-37.50012
31
0
70
32
71
1
72
1
41
1
210
0
220
0
230
1
3
Standard
100
AcDbAlignedDimension
13
-36
23
0
33
0
14
90
24
0
34
0
50
0
100
AcDbRotatedDimension
1001
ACAD
1000
DSTYLE
1002
{
1070
   371
1070
    13
1070
   372
1070
    13
1070
     3
1000

1070
   170
1070
     0
1070
   144
1040
1.0
1070
   277
1070
     2
1070
   284
1070
     8
1070
   278
1070
    46
1070
   146
1040
0.999966
1070
   345
1005
16
1070
   347
1005
16
1070
   346
1005
16
1070
   344
1005
114
1070
   343
1005
114
1070
   172
1070
     1
1070
    76
1070
     0
1070
    75
1070
     0
1070
   282
1070
     0
1070
   281
1070
     0
1070
    71
1070
     0
1070
    74
1070
     0
1070
   279
1070
     0
1070
   173
1070
     1
1070
   340
1005
10E
1070
   271
1070
     1
1070
   272
1070
     2
1070
    77
1070
     1
1070
    73
1070
     1
1070
   171
1070
     3
1070
   274
1070
     4
1070
   177
1070
   150
1070
   176
1070
     9
1070
   178
1070
    43
1070
    78
1070
     8
1070
    48
1040
-0.1
1070
    41
1040
3.175
1070
   147
1040
1.75006
1070
    42
1040
1.5875
1070
    44
1040
3.175
1070
   140
1040
3.50012
1002
}
1001
ACAD_DSTYLE_DIM_LINETYPE
1070
   380
1005
16
1001
ACAD_DSTYLE_DIM_EXT1_LINETYPE
1070
   381
1005
16
1001
ACAD_DSTYLE_DIM_EXT2_LINETYPE
1070
   382
1005
16
0
ENDSEC
0
SECTION
2
OBJECTS
0
DICTIONARY
5
256
330
0
100
AcDbDictionary
280
0
281
1
3
ACAD_GROUP
350
257
3
ACAD_MLINESTYLE
350
258
0
DICTIONARY
5
257
330
0
100
AcDbDictionary
280
0
281
1
0
DICTIONARY
5
258
330
0
100
AcDbDictionary
280
0
281
1
3
Standard
350
18
0
MLINESTYLE
5
18
330
258
100
AcDbMlineStyle
2
Standard
70
0
3

62
256
51
90
52
90
71
2
49
-0.5
62
256
6
ByLayer
49
0.5
62
256
6
ByLayer
0
RASTERVARIABLES
5
244
330

100
AcDbRasterVariables
90
0
70
1
71
1
72
1
0
ENDSEC
0
EOF
