0
SECTION
2
HEADER
9
$ACADVER
1
AC1015
9
$DWGCODEPAGE
3
ANSI_1252
9
$HANDSEED
5
265
9
$ANGBASE
50
0
9
$ANGDIR
70
0
9
$ATTMODE
70
1
9
$AUNITS
70
0
9
$AUPREC
70
0
9
$CECOLOR
62
256
9
$CELTSCALE
40
1
9
$CELTYPE
6
ByLayer
9
$CELWEIGHT
370
18
9
$CLAYER
8
0
9
$CMLJUST
70
0
9
$CMLSCALE
40
1
9
$CMLSTYLE
2
Standard
9
$DIMSTYLE
2
Standard
9
$TEXTSIZE
40
0.2
9
$TEXTSTYLE
7
Standard
9
$LUNITS
70
2
9
$LUPREC
70
4
9
$EXTNAMES
290
1
9
$INSUNITS
70
4
9
$LTSCALE
40
1
9
$LWDISPLAY
290
1
9
$PDMODE
70
0
9
$PDSIZE
40
0
9
$PLINEGEN
70
0
0
ENDSEC
0
SECTION
2
CLASSES
0
CLASS
1
RASTERVARIABLES
2
AcDbRasterVariables
3
ISM
90
0
280
0
281
0
0
ENDSEC
0
SECTION
2
TABLES
0
TABLE
2
VPORT
5
25b
100
AcDbSymbolTable
0
VPORT
5
1
100
AcDbSymbolTableRecord
100
AcDbViewportTableRecord
2
*Active
70
0
10
0
20
0
11
1
21
1
12
-1
22
1
13
0
23
0
14
0.5
24
0.5
15
10
25
10
16
0
26
0
36
1
17
0
27
0
37
0
0
ENDTAB
0
TABLE
2
LTYPE
5
25c
100
AcDbSymbolTable
0
LTYPE
5
14
100
AcDbSymbolTableRecord
100
AcDbLinetypeTableRecord
70
0
2
ByBlock
3

72
65
73
0
40
0
0
LTYPE
5
15
100
AcDbSymbolTableRecord
100
AcDbLinetypeTableRecord
70
0
2
ByLayer
3

72
65
73
0
40
0
0
LTYPE
5
16
100
AcDbSymbolTableRecord
100
AcDbLinetypeTableRecord
70
0
2
Continuous
3
Solid line
72
65
73
0
40
0
0
LTYPE
5
6E
100
AcDbSymbolTableRecord
100
AcDbLinetypeTableRecord
70
0
2
CENTER
3
____ _ ____ _ ____ _ ____
72
65
73
4
40
47.5
49
22
74
0
49
-8.5
74
0
49
8.5
74
0
49
-8.5
74
0
0
LTYPE
5
6F
100
AcDbSymbolTableRecord
100
AcDbLinetypeTableRecord
70
0
2
DASHED
3
__ __ __ __ __ __ __ __ __
72
65
73
2
40
25.72
49
12.86
74
0
49
-12.86
74
0
0
ENDTAB
0
TABLE
2
LAYER
5
25d
100
AcDbSymbolTable
0
LAYER
5
10
100
AcDbSymbolTableRecord
100
AcDbLayerTableRecord
2
0
70
0
62
7
6
Continuous
290
1
370
-3
390
0
0
LAYER
5
71
100
AcDbSymbolTableRecord
100
AcDbLayerTableRecord
2
80
70
0
62
-6
6
Continuous
290
1
370
-3
390
0
0
LAYER
5
73
100
AcDbSymbolTableRecord
100
AcDbLayerTableRecord
2
81
70
0
62
-3
6
Continuous
290
1
370
-3
390
0
0
LAYER
5
75
100
AcDbSymbolTableRecord
100
AcDbLayerTableRecord
2
1
70
0
62
4
6
Continuous
290
1
370
-3
390
0
0
LAYER
5
AA
100
AcDbSymbolTableRecord
100
AcDbLayerTableRecord
2
4
70
0
62
-2
6
CENTER
290
1
370
-3
390
0
0
LAYER
5
11F
100
AcDbSymbolTableRecord
100
AcDbLayerTableRecord
2
Defpoints
70
0
62
7
6
Continuous
290
0
370
-3
390
0
0
LAYER
5
14C
100
AcDbSymbolTableRecord
100
AcDbLayerTableRecord
2
2
70
0
62
7
6
Continuous
290
1
370
-3
390
0
0
LAYER
5
247
100
AcDbSymbolTableRecord
100
AcDbLayerTableRecord
2
SK1
70
0
62
4
6
Continuous
290
1
370
-3
390
0
0
LAYER
5
248
100
AcDbSymbolTableRecord
100
AcDbLayerTableRecord
2
SK4
70
0
62
2
6
CENTER
290
1
370
-3
390
0
0
LAYER
5
249
100
AcDbSymbolTableRecord
100
AcDbLayerTableRecord
2
SK2
70
0
62
7
6
Continuous
290
1
370
-3
390
0
0
LAYER
5
24a
100
AcDbSymbolTableRecord
100
AcDbLayerTableRecord
2
SK6
70
0
62
5
6
Continuous
290
1
370
-3
390
0
0
ENDTAB
0
TABLE
2
STYLE
5
25e
100
AcDbSymbolTable
0
STYLE
5
11
100
AcDbSymbolTableRecord
100
AcDbTextStyleTableRecord
2
Standard
3
txt
70
0
71
0
40
0
41
1
42
0
50
0
0
STYLE
5
110
100
AcDbSymbolTableRecord
100
AcDbTextStyleTableRecord
2
iso_b_vert
3
simplex.shx
70
0
71
0
40
0
41
1
42
0
50
0
0
STYLE
5
111
100
AcDbSymbolTableRecord
100
AcDbTextStyleTableRecord
2
DWGDirectTextStyle
3
simplex
70
0
71
0
40
0
41
1
42
0
50
0
0
ENDTAB
0
TABLE
2
DIMSTYLE
5
25f
100
AcDbSymbolTable
100
AcDbDimStyleTable
0
DIMSTYLE
105
27
100
AcDbSymbolTableRecord
100
AcDbDimStyleTableRecord
2
Standard
70
0
3
<>
41
0.18
42
0.0625
44
0.18
140
0.18
147
0.09
73
0
74
0
77
1
271
2
275
0
278
52
280
0
340
11
0
ENDTAB
0
TABLE
2
VIEW
5
260
100
AcDbSymbolTable
0
ENDTAB
0
TABLE
2
UCS
5
261
100
AcDbSymbolTable
0
ENDTAB
0
TABLE
2
APPID
5
262
100
AcDbSymbolTable
0
APPID
5
12
100
AcDbSymbolTableRecord
100
AcDbRegAppTableRecord
2
ACAD
70
0
0
APPID
5
114
100
AcDbSymbolTableRecord
100
AcDbRegAppTableRecord
2
ACAD_DSTYLE_DIMBREAK
70
0
0
APPID
5
206
100
AcDbSymbolTableRecord
100
AcDbRegAppTableRecord
2
ACAD_DSTYLE_DIM_LINETYPE
70
0
0
APPID
5
207
100
AcDbSymbolTableRecord
100
AcDbRegAppTableRecord
2
ACAD_DSTYLE_DIM_EXT1_LINETYPE
70
0
0
APPID
5
208
100
AcDbSymbolTableRecord
100
AcDbRegAppTableRecord
2
ACAD_DSTYLE_DIM_EXT2_LINETYPE
70
0
0
APPID
5
243
100
AcDbSymbolTableRecord
100
AcDbRegAppTableRecord
2
ACAD_MLEADERVER
70
0
0
ENDTAB
0
TABLE
2
BLOCK_RECORD
5
263
100
AcDbSymbolTable
0
BLOCK_RECORD
5
1F
100
AcDbSymbolTableRecord
100
AcDbBlockTableRecord
2
*Model_Space
340
0
70
0
0
BLOCK_RECORD
5
1B
100
AcDbSymbolTableRecord
100
AcDbBlockTableRecord
2
*Paper_Space
340
0
70
0
0
BLOCK_RECORD
5
23
100
AcDbSymbolTableRecord
100
AcDbBlockTableRecord
2
*Paper_Space0
340
0
70
0
0
BLOCK_RECORD
5
116
100
AcDbSymbolTableRecord
100
AcDbBlockTableRecord
2
_Closed
340
0
70
0
0
BLOCK_RECORD
5
120
100
AcDbSymbolTableRecord
100
AcDbBlockTableRecord
2
*D2
340
0
70
0
0
BLOCK_RECORD
5
12C
100
AcDbSymbolTableRecord
100
AcDbBlockTableRecord
2
_U0
340
0
70
0
0
BLOCK_RECORD
5
13E
100
AcDbSymbolTableRecord
100
AcDbBlockTableRecord
2
*D4
340
0
70
0
0
BLOCK_RECORD
5
14D
100
AcDbSymbolTableRecord
100
AcDbBlockTableRecord
2
_U1
340
0
70
0
0
BLOCK_RECORD
5
15D
100
AcDbSymbolTableRecord
100
AcDbBlockTableRecord
2
*D6
340
0
70
0
0
BLOCK_RECORD
5
16B
100
AcDbSymbolTableRecord
100
AcDbBlockTableRecord
2
_U2
340
0
70
0
0
BLOCK_RECORD
5
17B
100
AcDbSymbolTableRecord
100
AcDbBlockTableRecord
2
*D8
340
0
70
0
0
BLOCK_RECORD
5
187
100
AcDbSymbolTableRecord
100
AcDbBlockTableRecord
2
_U3
340
0
70
0
0
BLOCK_RECORD
5
197
100
AcDbSymbolTableRecord
100
AcDbBlockTableRecord
2
*D10
340
0
70
0
0
BLOCK_RECORD
5
1A3
100
AcDbSymbolTableRecord
100
AcDbBlockTableRecord
2
_U4
340
0
70
0
0
BLOCK_RECORD
5
1B3
100
AcDbSymbolTableRecord
100
AcDbBlockTableRecord
2
*D12
340
0
70
0
0
BLOCK_RECORD
5
1BF
100
AcDbSymbolTableRecord
100
AcDbBlockTableRecord
2
_U5
340
0
70
0
0
BLOCK_RECORD
5
1CF
100
AcDbSymbolTableRecord
100
AcDbBlockTableRecord
2
*D14
340
0
70
0
0
BLOCK_RECORD
5
1DB
100
AcDbSymbolTableRecord
100
AcDbBlockTableRecord
2
_U6
340
0
70
0
0
ENDTAB
0
ENDSEC
0
SECTION
2
BLOCKS
0
BLOCK
5
20
100
AcDbEntity
8
0
100
AcDbBlockBegin
2
*Model_Space
70
0
10
0
20
0
30
0
3
*Model_Space
0
ENDBLK
5
21
100
AcDbEntity
8
0
100
AcDbBlockEnd
0
BLOCK
5
1C
100
AcDbEntity
8
0
100
AcDbBlockBegin
2
*Paper_Space
70
0
10
0
20
0
30
0
3
*Paper_Space
0
ENDBLK
5
1D
100
AcDbEntity
8
0
100
AcDbBlockEnd
0
BLOCK
5
24
100
AcDbEntity
8
0
100
AcDbBlockBegin
2
*Paper_Space0
70
0
10
0
20
0
30
0
3
*Paper_Space0
0
ENDBLK
5
25
100
AcDbEntity
8
0
100
AcDbBlockEnd
0
BLOCK
5
117
100
AcDbEntity
8
0
100
AcDbBlockBegin
2
_Closed
70
0
10
0
20
0
30
0
3
_Closed
0
LINE
5
119
100
AcDbEntity
8
0
62
256
6
ByLayer
370
-2
48
1
60
0
100
AcDbLine
10
-1
20
0.166667
30
0
11
0
21
0
31
0
39
0
210
0
220
0
230
1
0
LINE
5
11A
100
AcDbEntity
8
0
62
256
6
ByLayer
370
-2
48
1
60
0
100
AcDbLine
10
0
20
0
30
0
11
-1
21
-0.166667
31
0
39
0
210
0
220
0
230
1
0
LINE
5
11B
100
AcDbEntity
8
0
62
256
6
ByLayer
370
-2
48
1
60
0
100
AcDbLine
10
-1
20
0.166667
30
0
11
-1
21
-0.166667
31
0
39
0
210
0
220
0
230
1
0
LINE
5
11C
100
AcDbEntity
8
0
62
256
6
ByLayer
370
-2
48
1
60
0
100
AcDbLine
10
0
20
0
30
0
11
-1
21
0
31
0
39
0
210
0
220
0
230
1
0
ENDBLK
5
118
100
AcDbEntity
8
0
100
AcDbBlockEnd
0
BLOCK
5
121
100
AcDbEntity
8
0
100
AcDbBlockBegin
2
*D2
70
1
10
0
20
0
30
0
3
*D2
0
LINE
5
123
100
AcDbEntity
8
0
62
256
6
ByLayer
370
-2
48
1
60
0
100
AcDbLine
10
0
20
-4.5875
30
0
11
0
21
-29.67512
31
0
39
0
210
0
220
0
230
1
0
LINE
5
124
100
AcDbEntity
8
0
62
256
6
ByLayer
370
-2
48
1
60
0
100
AcDbLine
10
68
20
-1.5875
30
0
11
68
21
-29.67512
31
0
39
0
210
0
220
0
230
1
0
LINE
5
125
100
AcDbEntity
8
0
62
256
6
ByLayer
370
-2
48
1
60
0
100
AcDbLine
10
3.175
20
-26.50012
30
0
11
64.825
21
-26.50012
31
0
39
0
210
0
220
0
230
1
0
SOLID
5
126
100
AcDbEntity
8
0
62
256
6
ByLayer
370
-1
48
1
60
0
100
AcDbTrace
10
3.175
20
-25.970953
30
0
11
3.175
21
-27.029287
31
0
12
0
22
-26.50012
32
0
13
0
23
-26.50012
33
0
39
0
210
0
220
0
230
1
0
SOLID
5
127
100
AcDbEntity
8
0
62
256
6
ByLayer
370
-1
48
1
60
0
100
AcDbTrace
10
64.825
20
-27.029287
30
0
11
64.825
21
-25.970953
31
0
12
68
22
-26.50012
32
0
13
68
23
-26.50012
33
0
39
0
210
0
220
0
230
1
0
MTEXT
5
128
100
AcDbEntity
8
0
62
256
6
ByLayer
370
18
48
1
60
0
100
AcDbMText
10
34
20
-19.193619
30
0
210
0
220
0
230
1
1
\A1;68
40
3.50012
41
0
44
1
50
0
71
5
72
5
7
iso_b_vert
0
POINT
5
129
100
AcDbEntity
8
Defpoints
62
0
6
ByLayer
370
-1
48
1
60
0
100
AcDbPoint
10
0
20
-3
30
0
39
0
210
0
220
0
230
1
50
360
0
POINT
5
12A
100
AcDbEntity
8
Defpoints
62
0
6
ByLayer
370
-1
48
1
60
0
100
AcDbPoint
10
68
20
0
30
0
39
0
210
0
220
0
230
1
50
360
0
POINT
5
12B
100
AcDbEntity
8
Defpoints
62
0
6
ByLayer
370
-1
48
1
60
0
100
AcDbPoint
10
68
20
-26.50012
30
0
39
0
210
0
220
0
230
1
50
360
0
ENDBLK
5
122
100
AcDbEntity
8
0
100
AcDbBlockEnd
0
BLOCK
5
139
100
AcDbEntity
8
0
100
AcDbBlockBegin
2
_U0
70
0
10
0
20
0
30
0
3
_U0
0
MTEXT
5
12D
100
AcDbEntity
8
SK2
62
256
6
ByLayer
370
18
48
1
60
0
100
AcDbMText
10
28.770389
20
-25.467451
30
0
210
0
220
0
230
1
1
\W0.7468;68.00
40
3.50012
41
0
44
1.084337
50
0
71
7
72
5
7
iso_b_vert
0
MTEXT
5
12E
100
AcDbEntity
8
SK2
62
256
6
ByLayer
370
18
48
1
60
0
100
AcDbMText
10
25.244329
20
-25.400814
30
0
210
0
220
0
230
1
1
\W0.1790;(
40
3.175
41
0
44
1.084337
50
0
71
7
72
5
7
iso_b_vert
0
MTEXT
5
12F
100
AcDbEntity
8
SK2
62
256
6
ByLayer
370
18
48
1
60
0
100
AcDbMText
10
42.758393
20
-25.400814
30
0
210
0
220
0
230
1
1
\W0.1969;)
40
3.175
41
0
44
1.084337
50
0
71
7
72
5
7
iso_b_vert
0
LINE
5
130
100
AcDbEntity
8
SK2
62
256
6
ByLayer
370
13
48
1
60
0
100
AcDbLine
10
0
20
-4.5875
30
0
11
0
21
-29.67512
31
0
39
0
210
0
220
0
230
1
0
LINE
5
131
100
AcDbEntity
8
SK2
62
256
6
ByLayer
370
13
48
1
60
0
100
AcDbLine
10
68
20
-1.5875
30
0
11
68
21
-29.67512
31
0
39
0
210
0
220
0
230
1
0
LINE
5
132
100
AcDbEntity
8
SK2
62
256
6
ByLayer
370
13
48
1
60
0
100
AcDbLine
10
0
20
-26.50012
30
0
11
68
21
-26.50012
31
0
39
0
210
0
220
0
230
1
0
LINE
5
133
100
AcDbEntity
8
SK2
62
256
6
ByLayer
370
13
48
1
60
0
100
AcDbLine
10
0
20
-26.50012
30
0
11
3.174998
21
-26.082123
31
0
39
0
210
0
220
0
230
1
0
LINE
5
134
100
AcDbEntity
8
SK2
62
256
6
ByLayer
370
13
48
1
60
0
100
AcDbLine
10
0
20
-26.50012
30
0
11
3.175002
21
-26.918117
31
0
39
0
210
0
220
0
230
1
0
LINE
5
135
100
AcDbEntity
8
SK2
62
256
6
ByLayer
370
13
48
1
60
0
100
AcDbLine
10
3.174998
20
-26.082123
30
0
11
3.175002
21
-26.918117
31
0
39
0
210
0
220
0
230
1
0
LINE
5
136
100
AcDbEntity
8
SK2
62
256
6
ByLayer
370
13
48
1
60
0
100
AcDbLine
10
68
20
-26.50012
30
0
11
64.825002
21
-26.918117
31
0
39
0
210
0
220
0
230
1
0
LINE
5
137
100
AcDbEntity
8
SK2
62
256
6
ByLayer
370
13
48
1
60
0
100
AcDbLine
10
68
20
-26.50012
30
0
11
64.824998
21
-26.082123
31
0
39
0
210
0
220
0
230
1
0
LINE
5
138
100
AcDbEntity
8
SK2
62
256
6
ByLayer
370
13
48
1
60
0
100
AcDbLine
10
64.825002
20
-26.918117
30
0
11
64.824998
21
-26.082123
31
0
39
0
210
0
220
0
230
1
0
ENDBLK
5
13A
100
AcDbEntity
8
0
100
AcDbBlockEnd
0
BLOCK
5
13F
100
AcDbEntity
8
0
100
AcDbBlockBegin
2
*D4
70
1
10
0
20
0
30
0
3
*D4
0
LINE
5
141
100
AcDbEntity
8
0
62
256
6
ByLayer
370
-2
48
1
60
0
100
AcDbLine
10
68.5757
20
-2.78
30
0
11
77.92506
21
-2.78
31
0
39
0
210
0
220
0
230
1
0
LINE
5
142
100
AcDbEntity
8
0
62
256
6
ByLayer
370
-2
48
1
60
0
100
AcDbLine
10
68.5757
20
2.78
30
0
11
77.92506
21
2.78
31
0
39
0
210
0
220
0
230
1
0
LINE
5
143
100
AcDbEntity
8
0
62
256
6
ByLayer
370
-2
48
1
60
0
100
AcDbLine
10
74.75006
20
2.78
30
0
11
74.75006
21
27.576466
31
0
39
0
210
0
220
0
230
1
0
LINE
5
144
100
AcDbEntity
8
0
62
256
6
ByLayer
370
-2
48
1
60
0
100
AcDbLine
10
74.75006
20
-5.955
30
0
11
74.75006
21
-9.13
31
0
39
0
210
0
220
0
230
1
0
LINE
5
145
100
AcDbEntity
8
0
62
256
6
ByLayer
370
-2
48
1
60
0
100
AcDbLine
10
74.75006
20
5.955
30
0
11
74.75006
21
9.13
31
0
39
0
210
0
220
0
230
1
0
SOLID
5
146
100
AcDbEntity
8
0
62
256
6
ByLayer
370
-1
48
1
60
0
100
AcDbTrace
10
75.279227
20
-5.955
30
0
11
74.220893
21
-5.955
31
0
12
74.75006
22
-2.78
32
0
13
74.75006
23
-2.78
33
0
39
0
210
0
220
0
230
1
0
SOLID
5
147
100
AcDbEntity
8
0
62
256
6
ByLayer
370
-1
48
1
60
0
100
AcDbTrace
10
74.220893
20
5.955
30
0
11
75.279227
21
5.955
31
0
12
74.75006
22
2.78
32
0
13
74.75006
23
2.78
33
0
39
0
210
0
220
0
230
1
0
MTEXT
5
148
100
AcDbEntity
8
0
62
256
6
ByLayer
370
18
48
1
60
0
100
AcDbMText
10
67.44356
20
18.353233
30
0
210
0
220
0
230
1
1
\A1;5.6
40
3.50012
41
0
44
1
50
90
71
5
72
5
7
iso_b_vert
0
POINT
5
149
100
AcDbEntity
8
Defpoints
62
0
6
ByLayer
370
-1
48
1
60
0
100
AcDbPoint
10
66.9882
20
-2.78
30
0
39
0
210
0
220
0
230
1
50
360
0
POINT
5
14A
100
AcDbEntity
8
Defpoints
62
0
6
ByLayer
370
-1
48
1
60
0
100
AcDbPoint
10
66.9882
20
2.78
30
0
39
0
210
0
220
0
230
1
50
360
0
POINT
5
14B
100
AcDbEntity
8
Defpoints
62
0
6
ByLayer
370
-1
48
1
60
0
100
AcDbPoint
10
74.75006
20
2.78
30
0
39
0
210
0
220
0
230
1
50
360
0
ENDBLK
5
140
100
AcDbEntity
8
0
100
AcDbBlockEnd
0
BLOCK
5
158
100
AcDbEntity
8
0
100
AcDbBlockBegin
2
_U1
70
0
10
0
20
0
30
0
3
_U1
0
MTEXT
5
14E
100
AcDbEntity
8
2
62
256
6
ByLayer
370
18
48
1
60
0
100
AcDbMText
10
74.060403
20
6.937505
30
0
210
0
220
0
230
1
1
\W0.7346;5.56
40
3.50012
41
0
44
1.084337
50
90
71
7
72
5
7
iso_b_vert
0
LINE
5
14F
100
AcDbEntity
8
2
62
256
6
ByLayer
370
13
48
1
60
0
100
AcDbLine
10
68.5757
20
-2.78
30
0
11
77.92506
21
-2.78
31
0
39
0
210
0
220
0
230
1
0
LINE
5
150
100
AcDbEntity
8
2
62
256
6
ByLayer
370
13
48
1
60
0
100
AcDbLine
10
68.5757
20
2.78
30
0
11
77.92506
21
2.78
31
0
39
0
210
0
220
0
230
1
0
LINE
5
151
100
AcDbEntity
8
2
62
256
6
ByLayer
370
13
48
1
60
0
100
AcDbLine
10
74.75006
20
14.99468
30
0
11
74.75006
21
-11.5303
31
0
39
0
210
0
220
0
230
1
0
LINE
5
152
100
AcDbEntity
8
2
62
256
6
ByLayer
370
13
48
1
60
0
100
AcDbLine
10
74.75006
20
-2.78
30
0
11
75.168057
21
-5.954998
31
0
39
0
210
0
220
0
230
1
0
LINE
5
153
100
AcDbEntity
8
2
62
256
6
ByLayer
370
13
48
1
60
0
100
AcDbLine
10
74.75006
20
-2.78
30
0
11
74.332063
21
-5.955002
31
0
39
0
210
0
220
0
230
1
0
LINE
5
154
100
AcDbEntity
8
2
62
256
6
ByLayer
370
13
48
1
60
0
100
AcDbLine
10
75.168057
20
-5.954998
30
0
11
74.332063
21
-5.955002
31
0
39
0
210
0
220
0
230
1
0
LINE
5
155
100
AcDbEntity
8
2
62
256
6
ByLayer
370
13
48
1
60
0
100
AcDbLine
10
74.75006
20
2.78
30
0
11
74.332063
21
5.954998
31
0
39
0
210
0
220
0
230
1
0
LINE
5
156
100
AcDbEntity
8
2
62
256
6
ByLayer
370
13
48
1
60
0
100
AcDbLine
10
74.75006
20
2.78
30
0
11
75.168057
21
5.955002
31
0
39
0
210
0
220
0
230
1
0
LINE
5
157
100
AcDbEntity
8
2
62
256
6
ByLayer
370
13
48
1
60
0
100
AcDbLine
10
74.332063
20
5.954998
30
0
11
75.168057
21
5.955002
31
0
39
0
210
0
220
0
230
1
0
ENDBLK
5
159
100
AcDbEntity
8
0
100
AcDbBlockEnd
0
BLOCK
5
15E
100
AcDbEntity
8
0
100
AcDbBlockBegin
2
*D6
70
1
10
0
20
0
30
0
3
*D6
0
LINE
5
160
100
AcDbEntity
8
0
62
256
6
ByLayer
370
-2
48
1
60
0
100
AcDbLine
10
-37.5875
20
3
30
0
11
-42.42494
21
3
31
0
39
0
210
0
220
0
230
1
0
LINE
5
161
100
AcDbEntity
8
0
62
256
6
ByLayer
370
-2
48
1
60
0
100
AcDbLine
10
-37.5875
20
-3
30
0
11
-42.42494
21
-3
31
0
39
0
210
0
220
0
230
1
0
LINE
5
162
100
AcDbEntity
8
0
62
256
6
ByLayer
370
-2
48
1
60
0
100
AcDbLine
10
-39.24994
20
3
30
0
11
-39.24994
21
23.747151
31
0
39
0
210
0
220
0
230
1
0
LINE
5
163
100
AcDbEntity
8
0
62
256
6
ByLayer
370
-2
48
1
60
0
100
AcDbLine
10
-39.24994
20
6.175
30
0
11
-39.24994
21
9.35
31
0
39
0
210
0
220
0
230
1
0
LINE
5
164
100
AcDbEntity
8
0
62
256
6
ByLayer
370
-2
48
1
60
0
100
AcDbLine
10
-39.24994
20
-6.175
30
0
11
-39.24994
21
-9.35
31
0
39
0
210
0
220
0
230
1
0
SOLID
5
165
100
AcDbEntity
8
0
62
256
6
ByLayer
370
-1
48
1
60
0
100
AcDbTrace
10
-39.779107
20
6.175
30
0
11
-38.720773
21
6.175
31
0
12
-39.24994
22
3
32
0
13
-39.24994
23
3
33
0
39
0
210
0
220
0
230
1
0
SOLID
5
166
100
AcDbEntity
8
0
62
256
6
ByLayer
370
-1
48
1
60
0
100
AcDbTrace
10
-38.720773
20
-6.175
30
0
11
-39.779107
21
-6.175
31
0
12
-39.24994
22
-3
32
0
13
-39.24994
23
-3
33
0
39
0
210
0
220
0
230
1
0
MTEXT
5
167
100
AcDbEntity
8
0
62
256
6
ByLayer
370
18
48
1
60
0
100
AcDbMText
10
-46.556441
20
17.10734
30
0
210
0
220
0
230
1
1
\A1;6
40
3.50012
41
0
44
1
50
90
71
5
72
5
7
iso_b_vert
0
POINT
5
168
100
AcDbEntity
8
Defpoints
62
0
6
ByLayer
370
-1
48
1
60
0
100
AcDbPoint
10
-36
20
3
30
0
39
0
210
0
220
0
230
1
50
360
0
POINT
5
169
100
AcDbEntity
8
Defpoints
62
0
6
ByLayer
370
-1
48
1
60
0
100
AcDbPoint
10
-36
20
-3
30
0
39
0
210
0
220
0
230
1
50
360
0
POINT
5
16A
100
AcDbEntity
8
Defpoints
62
0
6
ByLayer
370
-1
48
1
60
0
100
AcDbPoint
10
-39.24994
20
-3
30
0
39
0
210
0
220
0
230
1
50
360
0
ENDBLK
5
15F
100
AcDbEntity
8
0
100
AcDbBlockEnd
0
BLOCK
5
176
100
AcDbEntity
8
0
100
AcDbBlockBegin
2
_U2
70
0
10
0
20
0
30
0
3
_U2
0
MTEXT
5
16C
100
AcDbEntity
8
SK2
62
256
6
ByLayer
370
18
48
1
60
0
100
AcDbMText
10
-39.939597
20
13.157505
30
0
210
0
220
0
230
1
1
\W0.7346;6.00
40
3.50012
41
0
44
1.084337
50
90
71
7
72
5
7
iso_b_vert
0
LINE
5
16D
100
AcDbEntity
8
SK2
62
256
6
ByLayer
370
13
48
1
60
0
100
AcDbLine
10
-37.5875
20
3
30
0
11
-42.42494
21
3
31
0
39
0
210
0
220
0
230
1
0
LINE
5
16E
100
AcDbEntity
8
SK2
62
256
6
ByLayer
370
13
48
1
60
0
100
AcDbLine
10
-37.5875
20
-3
30
0
11
-42.42494
21
-3
31
0
39
0
210
0
220
0
230
1
0
LINE
5
16F
100
AcDbEntity
8
SK2
62
256
6
ByLayer
370
13
48
1
60
0
100
AcDbLine
10
-39.24994
20
-11.7503
30
0
11
-39.24994
21
21.21468
31
0
39
0
210
0
220
0
230
1
0
LINE
5
170
100
AcDbEntity
8
SK2
62
256
6
ByLayer
370
13
48
1
60
0
100
AcDbLine
10
-39.24994
20
3
30
0
11
-39.667937
21
6.174998
31
0
39
0
210
0
220
0
230
1
0
LINE
5
171
100
AcDbEntity
8
SK2
62
256
6
ByLayer
370
13
48
1
60
0
100
AcDbLine
10
-39.24994
20
3
30
0
11
-38.831943
21
6.175002
31
0
39
0
210
0
220
0
230
1
0
LINE
5
172
100
AcDbEntity
8
SK2
62
256
6
ByLayer
370
13
48
1
60
0
100
AcDbLine
10
-39.667937
20
6.174998
30
0
11
-38.831943
21
6.175002
31
0
39
0
210
0
220
0
230
1
0
LINE
5
173
100
AcDbEntity
8
SK2
62
256
6
ByLayer
370
13
48
1
60
0
100
AcDbLine
10
-39.24994
20
-3
30
0
11
-38.831943
21
-6.174998
31
0
39
0
210
0
220
0
230
1
0
LINE
5
174
100
AcDbEntity
8
SK2
62
256
6
ByLayer
370
13
48
1
60
0
100
AcDbLine
10
-39.24994
20
-3
30
0
11
-39.667937
21
-6.175002
31
0
39
0
210
0
220
0
230
1
0
LINE
5
175
100
AcDbEntity
8
SK2
62
256
6
ByLayer
370
13
48
1
60
0
100
AcDbLine
10
-38.831943
20
-6.174998
30
0
11
-39.667937
21
-6.175002
31
0
39
0
210
0
220
0
230
1
0
ENDBLK
5
177
100
AcDbEntity
8
0
100
AcDbBlockEnd
0
BLOCK
5
17C
100
AcDbEntity
8
0
100
AcDbBlockBegin
2
*D8
70
1
10
0
20
0
30
0
3
*D8
0
LINE
5
17E
100
AcDbEntity
8
0
62
256
6
ByLayer
370
-2
48
1
60
0
100
AcDbLine
10
-36
20
-4.5875
30
0
11
-36
21
-29.67512
31
0
39
0
210
0
220
0
230
1
0
LINE
5
17F
100
AcDbEntity
8
0
62
256
6
ByLayer
370
-2
48
1
60
0
100
AcDbLine
10
0
20
-4.5875
30
0
11
0
21
-29.67512
31
0
39
0
210
0
220
0
230
1
0
LINE
5
180
100
AcDbEntity
8
0
62
256
6
ByLayer
370
-2
48
1
60
0
100
AcDbLine
10
-32.825
20
-26.50012
30
0
11
-3.175
21
-26.50012
31
0
39
0
210
0
220
0
230
1
0
SOLID
5
181
100
AcDbEntity
8
0
62
256
6
ByLayer
370
-1
48
1
60
0
100
AcDbTrace
10
-32.825
20
-25.970953
30
0
11
-32.825
21
-27.029287
31
0
12
-36
22
-26.50012
32
0
13
-36
23
-26.50012
33
0
39
0
210
0
220
0
230
1
0
SOLID
5
182
100
AcDbEntity
8
0
62
256
6
ByLayer
370
-1
48
1
60
0
100
AcDbTrace
10
-3.175
20
-27.029287
30
0
11
-3.175
21
-25.970953
31
0
12
0
22
-26.50012
32
0
13
0
23
-26.50012
33
0
39
0
210
0
220
0
230
1
0
MTEXT
5
183
100
AcDbEntity
8
0
62
256
6
ByLayer
370
18
48
1
60
0
100
AcDbMText
10
-18
20
-19.193619
30
0
210
0
220
0
230
1
1
\A1;36
40
3.50012
41
0
44
1
50
0
71
5
72
5
7
iso_b_vert
0
POINT
5
184
100
AcDbEntity
8
Defpoints
62
0
6
ByLayer
370
-1
48
1
60
0
100
AcDbPoint
10
-36
20
-3
30
0
39
0
210
0
220
0
230
1
50
360
0
POINT
5
185
100
AcDbEntity
8
Defpoints
62
0
6
ByLayer
370
-1
48
1
60
0
100
AcDbPoint
10
0
20
-3
30
0
39
0
210
0
220
0
230
1
50
360
0
POINT
5
186
100
AcDbEntity
8
Defpoints
62
0
6
ByLayer
370
-1
48
1
60
0
100
AcDbPoint
10
0
20
-26.50012
30
0
39
0
210
0
220
0
230
1
50
360
0
ENDBLK
5
17D
100
AcDbEntity
8
0
100
AcDbBlockEnd
0
BLOCK
5
192
100
AcDbEntity
8
0
100
AcDbBlockBegin
2
_U3
70
0
10
0
20
0
30
0
3
_U3
0
MTEXT
5
188
100
AcDbEntity
8
SK2
62
256
6
ByLayer
370
18
48
1
60
0
100
AcDbMText
10
-23.229611
20
-25.467451
30
0
210
0
220
0
230
1
1
\W0.7468;36.00
40
3.50012
41
0
44
1.084337
50
0
71
7
72
5
7
iso_b_vert
0
LINE
5
189
100
AcDbEntity
8
SK2
62
256
6
ByLayer
370
13
48
1
60
0
100
AcDbLine
10
-36
20
-4.5875
30
0
11
-36
21
-29.67512
31
0
39
0
210
0
220
0
230
1
0
LINE
5
18A
100
AcDbEntity
8
SK2
62
256
6
ByLayer
370
13
48
1
60
0
100
AcDbLine
10
0
20
-4.5875
30
0
11
0
21
-29.67512
31
0
39
0
210
0
220
0
230
1
0
LINE
5
18B
100
AcDbEntity
8
SK2
62
256
6
ByLayer
370
13
48
1
60
0
100
AcDbLine
10
-36
20
-26.50012
30
0
11
0
21
-26.50012
31
0
39
0
210
0
220
0
230
1
0
LINE
5
18C
100
AcDbEntity
8
SK2
62
256
6
ByLayer
370
13
48
1
60
0
100
AcDbLine
10
-36
20
-26.50012
30
0
11
-32.825002
21
-26.082123
31
0
39
0
210
0
220
0
230
1
0
LINE
5
18D
100
AcDbEntity
8
SK2
62
256
6
ByLayer
370
13
48
1
60
0
100
AcDbLine
10
-36
20
-26.50012
30
0
11
-32.824998
21
-26.918117
31
0
39
0
210
0
220
0
230
1
0
LINE
5
18E
100
AcDbEntity
8
SK2
62
256
6
ByLayer
370
13
48
1
60
0
100
AcDbLine
10
-32.825002
20
-26.082123
30
0
11
-32.824998
21
-26.918117
31
0
39
0
210
0
220
0
230
1
0
LINE
5
18F
100
AcDbEntity
8
SK2
62
256
6
ByLayer
370
13
48
1
60
0
100
AcDbLine
10
0
20
-26.50012
30
0
11
-3.174998
21
-26.918117
31
0
39
0
210
0
220
0
230
1
0
LINE
5
190
100
AcDbEntity
8
SK2
62
256
6
ByLayer
370
13
48
1
60
0
100
AcDbLine
10
0
20
-26.50012
30
0
11
-3.175002
21
-26.082123
31
0
39
0
210
0
220
0
230
1
0
LINE
5
191
100
AcDbEntity
8
SK2
62
256
6
ByLayer
370
13
48
1
60
0
100
AcDbLine
10
-3.174998
20
-26.918117
30
0
11
-3.175002
21
-26.082123
31
0
39
0
210
0
220
0
230
1
0
ENDBLK
5
193
100
AcDbEntity
8
0
100
AcDbBlockEnd
0
BLOCK
5
198
100
AcDbEntity
8
0
100
AcDbBlockBegin
2
*D10
70
1
10
0
20
0
30
0
3
*D10
0
LINE
5
19A
100
AcDbEntity
8
0
62
256
6
ByLayer
370
-2
48
1
60
0
100
AcDbLine
10
6
20
1.6925
30
0
11
6
21
-20.92482
31
0
39
0
210
0
220
0
230
1
0
LINE
5
19B
100
AcDbEntity
8
0
62
256
6
ByLayer
370
-2
48
1
60
0
100
AcDbLine
10
68
20
-1.5875
30
0
11
68
21
-20.92482
31
0
39
0
210
0
220
0
230
1
0
LINE
5
19C
100
AcDbEntity
8
0
62
256
6
ByLayer
370
-2
48
1
60
0
100
AcDbLine
10
9.175
20
-17.74982
30
0
11
64.825
21
-17.74982
31
0
39
0
210
0
220
0
230
1
0
SOLID
5
19D
100
AcDbEntity
8
0
62
256
6
ByLayer
370
-1
48
1
60
0
100
AcDbTrace
10
9.175
20
-17.220653
30
0
11
9.175
21
-18.278987
31
0
12
6
22
-17.74982
32
0
13
6
23
-17.74982
33
0
39
0
210
0
220
0
230
1
0
SOLID
5
19E
100
AcDbEntity
8
0
62
256
6
ByLayer
370
-1
48
1
60
0
100
AcDbTrace
10
64.825
20
-18.278987
30
0
11
64.825
21
-17.220653
31
0
12
68
22
-17.74982
32
0
13
68
23
-17.74982
33
0
39
0
210
0
220
0
230
1
0
MTEXT
5
19F
100
AcDbEntity
8
0
62
256
6
ByLayer
370
18
48
1
60
0
100
AcDbMText
10
37
20
-10.44332
30
0
210
0
220
0
230
1
1
\A1;62
40
3.50012
41
0
44
1
50
0
71
5
72
5
7
iso_b_vert
0
POINT
5
1A0
100
AcDbEntity
8
Defpoints
62
0
6
ByLayer
370
-1
48
1
60
0
100
AcDbPoint
10
6
20
3.28
30
0
39
0
210
0
220
0
230
1
50
360
0
POINT
5
1A1
100
AcDbEntity
8
Defpoints
62
0
6
ByLayer
370
-1
48
1
60
0
100
AcDbPoint
10
68
20
0
30
0
39
0
210
0
220
0
230
1
50
360
0
POINT
5
1A2
100
AcDbEntity
8
Defpoints
62
0
6
ByLayer
370
-1
48
1
60
0
100
AcDbPoint
10
68
20
-17.74982
30
0
39
0
210
0
220
0
230
1
50
360
0
ENDBLK
5
199
100
AcDbEntity
8
0
100
AcDbBlockEnd
0
BLOCK
5
1AE
100
AcDbEntity
8
0
100
AcDbBlockBegin
2
_U4
70
0
10
0
20
0
30
0
3
_U4
0
MTEXT
5
1A4
100
AcDbEntity
8
SK2
62
256
6
ByLayer
370
18
48
1
60
0
100
AcDbMText
10
31.770389
20
-16.717151
30
0
210
0
220
0
230
1
1
\W0.7468;62.00
40
3.50012
41
0
44
1.084337
50
0
71
7
72
5
7
iso_b_vert
0
LINE
5
1A5
100
AcDbEntity
8
SK2
62
256
6
ByLayer
370
13
48
1
60
0
100
AcDbLine
10
6
20
1.6925
30
0
11
6
21
-20.92482
31
0
39
0
210
0
220
0
230
1
0
LINE
5
1A6
100
AcDbEntity
8
SK2
62
256
6
ByLayer
370
13
48
1
60
0
100
AcDbLine
10
68
20
-1.5875
30
0
11
68
21
-20.92482
31
0
39
0
210
0
220
0
230
1
0
LINE
5
1A7
100
AcDbEntity
8
SK2
62
256
6
ByLayer
370
13
48
1
60
0
100
AcDbLine
10
6
20
-17.74982
30
0
11
68
21
-17.74982
31
0
39
0
210
0
220
0
230
1
0
LINE
5
1A8
100
AcDbEntity
8
SK2
62
256
6
ByLayer
370
13
48
1
60
0
100
AcDbLine
10
6
20
-17.74982
30
0
11
9.174998
21
-17.331823
31
0
39
0
210
0
220
0
230
1
0
LINE
5
1A9
100
AcDbEntity
8
SK2
62
256
6
ByLayer
370
13
48
1
60
0
100
AcDbLine
10
6
20
-17.74982
30
0
11
9.175002
21
-18.167817
31
0
39
0
210
0
220
0
230
1
0
LINE
5
1AA
100
AcDbEntity
8
SK2
62
256
6
ByLayer
370
13
48
1
60
0
100
AcDbLine
10
9.174998
20
-17.331823
30
0
11
9.175002
21
-18.167817
31
0
39
0
210
0
220
0
230
1
0
LINE
5
1AB
100
AcDbEntity
8
SK2
62
256
6
ByLayer
370
13
48
1
60
0
100
AcDbLine
10
68
20
-17.74982
30
0
11
64.825002
21
-18.167817
31
0
39
0
210
0
220
0
230
1
0
LINE
5
1AC
100
AcDbEntity
8
SK2
62
256
6
ByLayer
370
13
48
1
60
0
100
AcDbLine
10
68
20
-17.74982
30
0
11
64.824998
21
-17.331823
31
0
39
0
210
0
220
0
230
1
0
LINE
5
1AD
100
AcDbEntity
8
SK2
62
256
6
ByLayer
370
13
48
1
60
0
100
AcDbLine
10
64.825002
20
-18.167817
30
0
11
64.824998
21
-17.331823
31
0
39
0
210
0
220
0
230
1
0
ENDBLK
5
1AF
100
AcDbEntity
8
0
100
AcDbBlockEnd
0
BLOCK
5
1B4
100
AcDbEntity
8
0
100
AcDbBlockBegin
2
*D12
70
1
10
0
20
0
30
0
3
*D12
0
LINE
5
1B6
100
AcDbEntity
8
0
62
256
6
ByLayer
370
-2
48
1
60
0
100
AcDbLine
10
22.6
20
-4.3675
30
0
11
22.6
21
-10.32
31
0
39
0
210
0
220
0
230
1
0
LINE
5
1B7
100
AcDbEntity
8
0
62
256
6
ByLayer
370
-2
48
1
60
0
100
AcDbLine
10
68
20
-1.5875
30
0
11
68
21
-10.32
31
0
39
0
210
0
220
0
230
1
0
LINE
5
1B8
100
AcDbEntity
8
0
62
256
6
ByLayer
370
-2
48
1
60
0
100
AcDbLine
10
25.775
20
-9.82
30
0
11
64.825
21
-9.82
31
0
39
0
210
0
220
0
230
1
0
SOLID
5
1B9
100
AcDbEntity
8
0
62
256
6
ByLayer
370
-1
48
1
60
0
100
AcDbTrace
10
25.775
20
-9.290833
30
0
11
25.775
21
-10.349167
31
0
12
22.6
22
-9.82
32
0
13
22.6
23
-9.82
33
0
39
0
210
0
220
0
230
1
0
SOLID
5
1BA
100
AcDbEntity
8
0
62
256
6
ByLayer
370
-1
48
1
60
0
100
AcDbTrace
10
64.825
20
-10.349167
30
0
11
64.825
21
-9.290833
31
0
12
68
22
-9.82
32
0
13
68
23
-9.82
33
0
39
0
210
0
220
0
230
1
0
MTEXT
5
1BB
100
AcDbEntity
8
0
62
256
6
ByLayer
370
18
48
1
60
0
100
AcDbMText
10
45.3
20
-3.975
30
0
210
0
220
0
230
1
1
\A1;45.4
40
2.8
41
0
44
1
50
0
71
5
72
5
7
iso_b_vert
0
POINT
5
1BC
100
AcDbEntity
8
Defpoints
62
0
6
ByLayer
370
-1
48
1
60
0
100
AcDbPoint
10
22.6
20
-2.78
30
0
39
0
210
0
220
0
230
1
50
360
0
POINT
5
1BD
100
AcDbEntity
8
Defpoints
62
0
6
ByLayer
370
-1
48
1
60
0
100
AcDbPoint
10
68
20
0
30
0
39
0
210
0
220
0
230
1
50
360
0
POINT
5
1BE
100
AcDbEntity
8
Defpoints
62
0
6
ByLayer
370
-1
48
1
60
0
100
AcDbPoint
10
68
20
-9.82
30
0
39
0
210
0
220
0
230
1
50
360
0
ENDBLK
5
1B5
100
AcDbEntity
8
0
100
AcDbBlockEnd
0
BLOCK
5
1CA
100
AcDbEntity
8
0
100
AcDbBlockBegin
2
_U5
70
0
10
0
20
0
30
0
3
_U5
0
MTEXT
5
1C0
100
AcDbEntity
8
SK2
62
256
6
ByLayer
370
18
48
1
60
0
100
AcDbMText
10
40.821628
20
-9.973893
30
0
210
0
220
0
230
1
1
\W0.7958;45.40
40
2.8
41
0
44
1.084337
50
0
71
7
72
5
7
iso_b_vert
0
LINE
5
1C1
100
AcDbEntity
8
SK2
62
256
6
ByLayer
370
13
48
1
60
0
100
AcDbLine
10
22.6
20
-4.3675
30
0
11
22.6
21
-10.32
31
0
39
0
210
0
220
0
230
1
0
LINE
5
1C2
100
AcDbEntity
8
SK2
62
256
6
ByLayer
370
13
48
1
60
0
100
AcDbLine
10
68
20
-1.5875
30
0
11
68
21
-10.32
31
0
39
0
210
0
220
0
230
1
0
LINE
5
1C3
100
AcDbEntity
8
SK2
62
256
6
ByLayer
370
13
48
1
60
0
100
AcDbLine
10
22.6
20
-9.82
30
0
11
68
21
-9.82
31
0
39
0
210
0
220
0
230
1
0
LINE
5
1C4
100
AcDbEntity
8
SK2
62
256
6
ByLayer
370
13
48
1
60
0
100
AcDbLine
10
22.6
20
-9.82
30
0
11
25.774998
21
-9.402003
31
0
39
0
210
0
220
0
230
1
0
LINE
5
1C5
100
AcDbEntity
8
SK2
62
256
6
ByLayer
370
13
48
1
60
0
100
AcDbLine
10
22.6
20
-9.82
30
0
11
25.775002
21
-10.237997
31
0
39
0
210
0
220
0
230
1
0
LINE
5
1C6
100
AcDbEntity
8
SK2
62
256
6
ByLayer
370
13
48
1
60
0
100
AcDbLine
10
25.774998
20
-9.402003
30
0
11
25.775002
21
-10.237997
31
0
39
0
210
0
220
0
230
1
0
LINE
5
1C7
100
AcDbEntity
8
SK2
62
256
6
ByLayer
370
13
48
1
60
0
100
AcDbLine
10
68
20
-9.82
30
0
11
64.825002
21
-10.237997
31
0
39
0
210
0
220
0
230
1
0
LINE
5
1C8
100
AcDbEntity
8
SK2
62
256
6
ByLayer
370
13
48
1
60
0
100
AcDbLine
10
68
20
-9.82
30
0
11
64.824998
21
-9.402003
31
0
39
0
210
0
220
0
230
1
0
LINE
5
1C9
100
AcDbEntity
8
SK2
62
256
6
ByLayer
370
13
48
1
60
0
100
AcDbLine
10
64.825002
20
-10.237997
30
0
11
64.824998
21
-9.402003
31
0
39
0
210
0
220
0
230
1
0
ENDBLK
5
1CB
100
AcDbEntity
8
0
100
AcDbBlockEnd
0
BLOCK
5
1D0
100
AcDbEntity
8
0
100
AcDbBlockBegin
2
*D14
70
1
10
0
20
0
30
0
3
*D14
0
LINE
5
1D2
100
AcDbEntity
8
0
62
256
6
ByLayer
370
-2
48
1
60
0
100
AcDbLine
10
-36
20
-1.5875
30
0
11
-36
21
-39.67512
31
0
39
0
210
0
220
0
230
1
0
LINE
5
1D3
100
AcDbEntity
8
0
62
256
6
ByLayer
370
-2
48
1
60
0
100
AcDbLine
10
68
20
-1.5875
30
0
11
68
21
-39.67512
31
0
39
0
210
0
220
0
230
1
0
LINE
5
1D4
100
AcDbEntity
8
0
62
256
6
ByLayer
370
-2
48
1
60
0
100
AcDbLine
10
-32.825
20
-36.50012
30
0
11
64.825
21
-36.50012
31
0
39
0
210
0
220
0
230
1
0
SOLID
5
1D5
100
AcDbEntity
8
0
62
256
6
ByLayer
370
-1
48
1
60
0
100
AcDbTrace
10
-32.825
20
-35.970953
30
0
11
-32.825
21
-37.029287
31
0
12
-36
22
-36.50012
32
0
13
-36
23
-36.50012
33
0
39
0
210
0
220
0
230
1
0
SOLID
5
1D6
100
AcDbEntity
8
0
62
256
6
ByLayer
370
-1
48
1
60
0
100
AcDbTrace
10
64.825
20
-37.029287
30
0
11
64.825
21
-35.970953
31
0
12
68
22
-36.50012
32
0
13
68
23
-36.50012
33
0
39
0
210
0
220
0
230
1
0
MTEXT
5
1D7
100
AcDbEntity
8
0
62
256
6
ByLayer
370
18
48
1
60
0
100
AcDbMText
10
16
20
-29.193619
30
0
210
0
220
0
230
1
1
\A1;104
40
3.50012
41
0
44
1
50
0
71
5
72
5
7
iso_b_vert
0
POINT
5
1D8
100
AcDbEntity
8
Defpoints
62
0
6
ByLayer
370
-1
48
1
60
0
100
AcDbPoint
10
-36
20
0
30
0
39
0
210
0
220
0
230
1
50
360
0
POINT
5
1D9
100
AcDbEntity
8
Defpoints
62
0
6
ByLayer
370
-1
48
1
60
0
100
AcDbPoint
10
68
20
0
30
0
39
0
210
0
220
0
230
1
50
360
0
POINT
5
1DA
100
AcDbEntity
8
Defpoints
62
0
6
ByLayer
370
-1
48
1
60
0
100
AcDbPoint
10
68
20
-36.50012
30
0
39
0
210
0
220
0
230
1
50
360
0
ENDBLK
5
1D1
100
AcDbEntity
8
0
100
AcDbBlockEnd
0
BLOCK
5
1E6
100
AcDbEntity
8
0
100
AcDbBlockBegin
2
_U6
70
0
10
0
20
0
30
0
3
_U6
0
MTEXT
5
1DC
100
AcDbEntity
8
SK2
62
256
6
ByLayer
370
18
48
1
60
0
100
AcDbMText
10
9.715786
20
-35.467451
30
0
210
0
220
0
230
1
1
\W0.7237;104.00
40
3.50012
41
0
44
1.084337
50
0
71
7
72
5
7
iso_b_vert
0
LINE
5
1DD
100
AcDbEntity
8
SK2
62
256
6
ByLayer
370
13
48
1
60
0
100
AcDbLine
10
-36
20
-1.5875
30
0
11
-36
21
-39.67512
31
0
39
0
210
0
220
0
230
1
0
LINE
5
1DE
100
AcDbEntity
8
SK2
62
256
6
ByLayer
370
13
48
1
60
0
100
AcDbLine
10
68
20
-1.5875
30
0
11
68
21
-39.67512
31
0
39
0
210
0
220
0
230
1
0
LINE
5
1DF
100
AcDbEntity
8
SK2
62
256
6
ByLayer
370
13
48
1
60
0
100
AcDbLine
10
-36
20
-36.50012
30
0
11
68
21
-36.50012
31
0
39
0
210
0
220
0
230
1
0
LINE
5
1E0
100
AcDbEntity
8
SK2
62
256
6
ByLayer
370
13
48
1
60
0
100
AcDbLine
10
-36
20
-36.50012
30
0
11
-32.825002
21
-36.082123
31
0
39
0
210
0
220
0
230
1
0
LINE
5
1E1
100
AcDbEntity
8
SK2
62
256
6
ByLayer
370
13
48
1
60
0
100
AcDbLine
10
-36
20
-36.50012
30
0
11
-32.824998
21
-36.918117
31
0
39
0
210
0
220
0
230
1
0
LINE
5
1E2
100
AcDbEntity
8
SK2
62
256
6
ByLayer
370
13
48
1
60
0
100
AcDbLine
10
-32.825002
20
-36.082123
30
0
11
-32.824998
21
-36.918117
31
0
39
0
210
0
220
0
230
1
0
LINE
5
1E3
100
AcDbEntity
8
SK2
62
256
6
ByLayer
370
13
48
1
60
0
100
AcDbLine
10
68
20
-36.50012
30
0
11
64.825002
21
-36.918117
31
0
39
0
210
0
220
0
230
1
0
LINE
5
1E4
100
AcDbEntity
8
SK2
62
256
6
ByLayer
370
13
48
1
60
0
100
AcDbLine
10
68
20
-36.50012
30
0
11
64.824998
21
-36.082123
31
0
39
0
210
0
220
0
230
1
0
LINE
5
1E5
100
AcDbEntity
8
SK2
62
256
6
ByLayer
370
13
48
1
60
0
100
AcDbLine
10
64.825002
20
-36.918117
30
0
11
64.824998
21
-36.082123
31
0
39
0
210
0
220
0
230
1
0
ENDBLK
5
1E7
100
AcDbEntity
8
0
100
AcDbBlockEnd
0
ENDSEC
0
SECTION
2
ENTITIES
0
ARC
5
B6
100
AcDbEntity
8
1
62
256
6
ByLayer
370
18
48
1
60
0
100
AcDbCircle
39
0
10
0.876321
20
3.538679
30
0
40
0.800000000000002
210
0
220
0
230
1
100
AcDbArc
50
236.790587
51
270.03581
0
ARC
5
B7
100
AcDbEntity
8
1
62
256
6
ByLayer
370
18
48
1
60
0
100
AcDbCircle
39
0
10
0.876321
20
-3.538679
30
0
40
0.800000000000002
210
0
220
0
230
1
100
AcDbArc
50
89.96419
51
123.209413
0
ARC
5
B8
100
AcDbEntity
8
1
62
256
6
ByLayer
370
18
48
1
60
0
100
AcDbCircle
39
0
10
0
20
2.2
30
0
40
0.800000000000002
210
0
220
0
230
1
100
AcDbArc
50
56.790587
51
90
0
ARC
5
B9
100
AcDbEntity
8
1
62
256
6
ByLayer
370
18
48
1
60
0
100
AcDbCircle
39
0
10
0
20
-2.2
30
0
40
0.800000000000002
210
0
220
0
230
1
100
AcDbArc
50
270
51
303.209413
0
ARC
5
BA
100
AcDbEntity
8
SK2
62
256
6
ByLayer
370
13
48
1
60
0
100
AcDbCircle
39
0
10
68
20
0
30
0
40
20
210
0
220
0
230
1
100
AcDbArc
50
9.606349
51
70.000678
0
ARC
5
BB
100
AcDbEntity
8
SK2
62
256
6
ByLayer
370
13
48
1
60
0
100
AcDbCircle
39
0
10
68
20
0
30
0
40
20
210
0
220
0
230
1
100
AcDbArc
50
289.999322
51
350.393651
0
ELLIPSE
5
BC
100
AcDbEntity
8
1
62
256
6
ByLayer
370
18
48
1
60
0
100
AcDbEllipse
10
40.302043
20
2.725039
30
0
11
-0.1
21
1.22460635382238E-17
31
0
210
0
220
0
230
1
40
1
41
0.000119216722980612
42
1.59149790786542
0
ELLIPSE
5
BD
100
AcDbEntity
8
1
62
256
6
ByLayer
370
18
48
1
60
0
100
AcDbEllipse
10
40.302043
20
-2.725039
30
0
11
-0.1
21
1.22460635382238E-17
31
0
210
0
220
0
230
1
40
1
41
-1.43495922011786
42
-0.000119216722998376
0
POINT
5
70
100
AcDbEntity
8
80
62
256
6
ByLayer
370
18
48
1
60
0
100
AcDbPoint
10
0
20
0
30
0
39
0
210
0
220
0
230
1
50
360
0
POINT
5
72
100
AcDbEntity
8
81
62
256
6
ByLayer
370
18
48
1
60
0
100
AcDbPoint
10
68
20
0
30
0
39
0
210
0
220
0
230
1
50
360
0
POINT
5
74
100
AcDbEntity
8
1
62
256
6
ByLayer
370
18
48
1
60
0
100
AcDbPoint
10
-36
20
0
30
0
39
0
210
0
220
0
230
1
50
360
0
POINT
5
76
100
AcDbEntity
8
1
62
256
6
ByLayer
370
18
48
1
60
1
100
AcDbPoint
10
0
20
-3
30
0
39
0
210
0
220
0
230
1
50
360
0
POINT
5
77
100
AcDbEntity
8
1
62
256
6
ByLayer
370
18
48
1
60
1
100
AcDbPoint
10
68
20
0
30
0
39
0
210
0
220
0
230
1
50
360
0
POINT
5
78
100
AcDbEntity
8
1
62
256
6
ByLayer
370
18
48
1
60
1
100
AcDbPoint
10
66.9882
20
-2.78
30
0
39
0
210
0
220
0
230
1
50
360
0
POINT
5
79
100
AcDbEntity
8
1
62
256
6
ByLayer
370
18
48
1
60
1
100
AcDbPoint
10
66.9882
20
2.78
30
0
39
0
210
0
220
0
230
1
50
360
0
POINT
5
7A
100
AcDbEntity
8
1
62
256
6
ByLayer
370
18
48
1
60
1
100
AcDbPoint
10
-36
20
3
30
0
39
0
210
0
220
0
230
1
50
360
0
POINT
5
7B
100
AcDbEntity
8
1
62
256
6
ByLayer
370
18
48
1
60
1
100
AcDbPoint
10
-36
20
-3
30
0
39
0
210
0
220
0
230
1
50
360
0
POINT
5
7C
100
AcDbEntity
8
1
62
256
6
ByLayer
370
18
48
1
60
1
100
AcDbPoint
10
-36
20
-3
30
0
39
0
210
0
220
0
230
1
50
360
0
POINT
5
7D
100
AcDbEntity
8
1
62
256
6
ByLayer
370
18
48
1
60
1
100
AcDbPoint
10
0
20
-3
30
0
39
0
210
0
220
0
230
1
50
360
0
POINT
5
7E
100
AcDbEntity
8
1
62
256
6
ByLayer
370
18
48
1
60
1
100
AcDbPoint
10
6
20
3.28
30
0
39
0
210
0
220
0
230
1
50
360
0
POINT
5
7F
100
AcDbEntity
8
1
62
256
6
ByLayer
370
18
48
1
60
1
100
AcDbPoint
10
68
20
0
30
0
39
0
210
0
220
0
230
1
50
360
0
POINT
5
80
100
AcDbEntity
8
1
62
256
6
ByLayer
370
18
48
1
60
1
100
AcDbPoint
10
22.6
20
-2.78
30
0
39
0
210
0
220
0
230
1
50
360
0
POINT
5
81
100
AcDbEntity
8
1
62
256
6
ByLayer
370
18
48
1
60
1
100
AcDbPoint
10
68
20
0
30
0
39
0
210
0
220
0
230
1
50
360
0
POINT
5
82
100
AcDbEntity
8
1
62
256
6
ByLayer
370
18
48
1
60
1
100
AcDbPoint
10
-36
20
0
30
0
39
0
210
0
220
0
230
1
50
360
0
POINT
5
83
100
AcDbEntity
8
1
62
256
6
ByLayer
370
18
48
1
60
1
100
AcDbPoint
10
68
20
0
30
0
39
0
210
0
220
0
230
1
50
360
0
SPLINE
5
BE
100
AcDbEntity
8
1
62
256
6
ByLayer
370
18
48
1
60
0
100
AcDbSpline
70
4
71
3
72
62
73
58
40
0
40
0
40
0
40
0
40
0.0010114052551951
40
0.0010114052551951
40
0.0229971980448422
40
0.0229971980448422
40
0.0669687836241381
40
0.0669687836241381
40
0.110940369203434
40
0.110940369203434
40
0.15491195478273
40
0.15491195478273
40
0.198883540362025
40
0.198883540362025
40
0.242855125941321
40
0.242855125941321
40
0.286826711520617
40
0.286826711520617
40
0.330798297099913
40
0.330798297099913
40
0.352784089889561
40
0.352784089889561
40
0.374769882679209
40
0.374769882679209
40
0.418741468258506
40
0.418741468258506
40
0.462713053837803
40
0.462713053837803
40
0.506684639417101
40
0.506684639417101
40
0.52867043220675
40
0.52867043220675
40
0.5506562249964
40
0.5506562249964
40
0.5946278105757
40
0.5946278105757
40
0.638599396155001
40
0.638599396155001
40
0.682570981734301
40
0.682570981734301
40
0.704556774523952
40
0.704556774523952
40
0.726542567313602
40
0.726542567313602
40
0.770514152892902
40
0.770514152892902
40
0.814485738472203
40
0.814485738472203
40
0.858457324051504
40
0.858457324051504
40
0.902428909630804
40
0.902428909630804
40
0.946400495210104
40
0.946400495210104
40
0.990372080789405
40
0.990372080789405
40
1
40
1
40
1
40
1
41
1
10
63.4568656437038
20
-1.84276542455885
30
1E-16
41
1
10
63.4498294418345
20
-1.84557938132434
30
1E-16
41
1
10
63.4427941444556
20
-1.84838855183574
30
1E-16
41
1
10
63.2828499497947
20
-1.91215346840716
30
1E-16
41
1
10
63.1304747327513
20
-1.97055677099837
30
-1E-16
41
1
10
62.6741420631635
20
-2.1371406821329
30
-1E-16
41
1
10
62.3710699167804
20
-2.23691960763946
30
-1E-16
41
1
10
61.7666342041148
20
-2.41355142863844
30
-1E-16
41
1
10
61.4644442441804
20
-2.48952045742055
30
-1E-16
41
1
10
60.8592251383436
20
-2.61612610076813
30
0
41
1
10
60.5563960099275
20
-2.66677904500824
30
1E-16
41
1
10
59.9466427497761
20
-2.74010515228562
30
0
41
1
10
59.6395247750335
20
-2.76306281727091
30
0
41
1
10
59.030368252268
20
-2.77973339101976
30
0
41
1
10
58.727088969462
20
-2.77379900348794
30
0
41
1
10
58.1224149801039
20
-2.73387997682727
30
0
41
1
10
57.8202005412488
20
-2.70008412134362
30
1E-16
41
1
10
57.2152828039454
20
-2.60533297693817
30
0
41
1
10
56.9126807708669
20
-2.54416761070718
30
-1E-16
41
1
10
56.4559051324844
20
-2.43336128271272
30
-1E-16
41
1
10
56.3032507951832
20
-2.39320879941701
30
-1E-16
41
1
10
55.9972647785319
20
-2.30615803538419
30
-1E-16
41
1
10
55.8440792809134
20
-2.25948209163079
30
-1E-16
41
1
10
55.3864644759512
20
-2.11187450314352
30
-1E-16
41
1
10
55.0828623925899
20
-2.00292606923358
30
-1E-16
41
1
10
54.477734165206
20
-1.76540027727341
30
1E-16
41
1
10
54.1754019013849
20
-1.63797232077275
30
1E-16
41
1
10
53.5706247537079
20
-1.3668168914266
30
1E-16
41
1
10
53.2681732072544
20
-1.22300759760191
30
1E-16
41
1
10
52.8118577831513
20
-0.999167164899376
30
1E-16
41
1
10
52.6594122426435
20
-0.92303701899192
30
1E-16
41
1
10
52.3538941478521
20
-0.767526970553803
30
0
41
1
10
52.2004243083559
20
-0.688317619874084
30
0
41
1
10
51.7420157343661
20
-0.44997201708685
30
0
41
1
10
51.4380572477174
20
-0.289265682253472
30
0
41
1
10
50.8324033725532
20
0.0338099050027267
30
0
41
1
10
50.5299270081706
20
0.194669957722368
30
0
41
1
10
49.9252416977201
20
0.514230359355963
30
0
41
1
10
49.6229098651496
20
0.672681790079736
30
0
41
1
10
49.1670075769475
20
0.903781894800858
30
-1E-16
41
1
10
49.0147561824265
20
0.97994013757301
30
-1E-16
41
1
10
48.709669491628
20
1.13045852235274
30
-1E-16
41
1
10
48.5563403761561
20
1.20467879573673
30
-1E-16
41
1
10
48.0970712999856
20
1.42146068082209
30
-1E-16
41
1
10
47.7927229840012
20
1.55815681195773
30
-1E-16
41
1
10
47.1864782225952
20
1.81438238387992
30
-1E-16
41
1
10
46.8838281949625
20
1.93278270703854
30
1E-16
41
1
10
46.2791648261098
20
2.14997037208408
30
1E-16
41
1
10
45.9769183950215
20
2.24834314322905
30
1E-16
41
1
10
45.3695585033868
20
2.42102106919941
30
1E-16
41
1
10
45.0652555168631
20
2.49615426481978
30
1E-16
41
1
10
44.4517975656551
20
2.61993274922679
30
0
41
1
10
44.1469234492142
20
2.66801818088382
30
-1E-16
41
1
10
43.5399874897226
20
2.73645296639125
30
0
41
1
10
43.2371279815083
20
2.75658154517183
30
0
41
1
10
42.8685691780085
20
2.76414346152148
30
0
41
1
10
42.8023738091799
20
2.7648257934741
30
0
41
1
10
42.7361712581861
20
2.76483365927979
30
0
0
SPLINE
5
BF
100
AcDbEntity
8
1
62
256
6
ByLayer
370
18
48
1
60
0
100
AcDbSpline
70
4
71
3
72
66
73
62
40
0
40
0
40
0
40
0
40
0.0060498130029109
40
0.0060498130029109
40
0.028623172628973
40
0.028623172628973
40
0.0511965322550352
40
0.0511965322550352
40
0.0963432515071611
40
0.0963432515071611
40
0.141489970759287
40
0.141489970759287
40
0.186636690011413
40
0.186636690011413
40
0.209210049637475
40
0.209210049637475
40
0.231783409263538
40
0.231783409263538
40
0.276930128515663
40
0.276930128515663
40
0.322076847767788
40
0.322076847767788
40
0.367223567019912
40
0.367223567019912
40
0.389796926645975
40
0.389796926645975
40
0.412370286272038
40
0.412370286272038
40
0.457517005524164
40
0.457517005524164
40
0.502663724776291
40
0.502663724776291
40
0.547810444028417
40
0.547810444028417
40
0.570383803654481
40
0.570383803654481
40
0.592957163280544
40
0.592957163280544
40
0.638103882532672
40
0.638103882532672
40
0.683250601784799
40
0.683250601784799
40
0.728397321036926
40
0.728397321036926
40
0.773544040289054
40
0.773544040289054
40
0.796117399915118
40
0.796117399915118
40
0.818690759541181
40
0.818690759541181
40
0.86383747879331
40
0.86383747879331
40
0.908984198045437
40
0.908984198045437
40
0.954130917297566
40
0.954130917297566
40
0.976704276923629
40
0.976704276923629
40
0.999277636549693
40
0.999277636549693
40
1
40
1
40
1
40
1
41
1
10
30.2946635016143
20
-2.01755539017054
30
-1E-16
41
1
10
30.2538769191297
20
-2.03228616731505
30
-1E-16
41
1
10
30.2130605751603
20
-2.04683117407393
30
-1E-16
41
1
10
30.0197850531342
20
-2.11473443910279
30
-1E-16
41
1
10
29.8668861293292
20
-2.16563156594773
30
-1E-16
41
1
10
29.560339209427
20
-2.26229405863128
30
-1E-16
41
1
10
29.4070285235582
20
-2.30796787992534
30
-1E-16
41
1
10
28.9489403082013
20
-2.4347674907259
30
-1E-16
41
1
10
28.6447924333041
20
-2.50625492874326
30
-1E-16
41
1
10
28.0389021471651
20
-2.62364593107344
30
0
41
1
10
27.7364583308471
20
-2.66894530088638
30
1E-16
41
1
10
27.1306369579588
20
-2.7321110347311
30
0
41
1
10
26.8279269134462
20
-2.75012324934113
30
0
41
1
10
26.3711893705604
20
-2.75576014148984
30
0
41
1
10
26.2185081111333
20
-2.75411925769637
30
0
41
1
10
25.9125257010177
20
-2.74365324871755
30
0
41
1
10
25.7589316459535
20
-2.73476428068903
30
0
41
1
10
25.299933320929
20
-2.69763151581094
30
1E-16
41
1
10
24.9953520645898
20
-2.65909210664336
30
1E-16
41
1
10
24.3888995428007
20
-2.55509932598503
30
-1E-16
41
1
10
24.0862639433496
20
-2.49004238859376
30
-1E-16
41
1
10
23.4804891154998
20
-2.33557522174127
30
-1E-16
41
1
10
23.1779438808406
20
-2.24549770718426
30
-1E-16
41
1
10
22.7216550156278
20
-2.09407203528753
30
-1E-16
41
1
10
22.5691642117247
20
-2.04089780325222
30
-1E-16
41
1
10
22.2636799503681
20
-1.92865164615063
30
-1E-16
41
1
10
22.1103439343715
20
-1.8695137352685
30
1E-16
41
1
10
21.6503828146773
20
-1.68566126504814
30
1E-16
41
1
10
21.3453453580165
20
-1.55513865063588
30
1E-16
41
1
10
20.7382648414586
20
-1.27879327829905
30
1E-16
41
1
10
20.4354046190675
20
-1.13431724252797
30
1E-16
41
1
10
19.829610077448
20
-0.835470465987726
30
1E-16
41
1
10
19.5271813450134
20
-0.68013642082667
30
0
41
1
10
19.0712852642894
20
-0.443704362556929
30
0
41
1
10
18.9189727732485
20
-0.364283431582692
30
0
41
1
10
18.613949383529
20
-0.203591695375735
30
0
41
1
10
18.4611451334361
20
-0.122496174257606
30
0
41
1
10
18.0008469151493
20
0.121062881076739
30
0
41
1
10
17.6948758938915
20
0.282205200789036
30
0
41
1
10
17.0870578458275
20
0.600258177051728
30
0
41
1
10
16.7839296455512
20
0.755719368011512
30
0
41
1
10
16.1780556467146
20
1.05751597556318
30
-1E-16
41
1
10
15.875705204912
20
1.20451929818941
30
-1E-16
41
1
10
15.2682979362882
20
1.48382299089741
30
-1E-16
41
1
10
14.9639846227482
20
1.61741513874301
30
-1E-16
41
1
10
14.5045037939796
20
1.80502185469456
30
-1E-16
41
1
10
14.3506412120714
20
1.86541906980818
30
-1E-16
41
1
10
14.0444132368131
20
1.98052781786075
30
1E-16
41
1
10
13.8918555344693
20
2.0355719495328
30
1E-16
41
1
10
13.4353479707112
20
2.19250776598807
30
1E-16
41
1
10
13.1318997933663
20
2.28540924793384
30
1E-16
41
1
10
12.5258526606073
20
2.4473433627621
30
1E-16
41
1
10
12.2235219094297
20
2.51649613582319
30
1E-16
41
1
10
11.6164904282157
20
2.62800944067249
30
0
41
1
10
11.3125782796422
20
2.67094861283272
30
-1E-16
41
1
10
10.8538680647725
20
2.71439604552063
30
0
41
1
10
10.7001924480442
20
2.72540166052735
30
0
41
1
10
10.3930972025235
20
2.74024756671213
30
0
41
1
10
10.239907533299
20
2.74410895786519
30
0
41
1
10
10.0820498778959
20
2.74441286434364
30
0
41
1
10
10.0771550882631
20
2.74441864705887
30
0
41
1
10
10.0722604224116
20
2.74442078931716
30
0
0
SPLINE
5
C0
100
AcDbEntity
8
1
62
256
6
ByLayer
370
18
48
1
60
0
100
AcDbSpline
70
4
71
3
72
10
73
6
40
0
40
0
40
0
40
0
40
0.5
40
0.5
40
1
40
1
40
1
40
1
41
1
10
66.8579575027582
20
0.461879590618167
30
0
41
1
10
66.816966167199
20
0.446658093910315
30
0
41
1
10
66.7765401046298
20
0.427167810999293
30
0
41
1
10
66.6972013707558
20
0.38179534618061
30
0
41
1
10
66.6583762284009
20
0.355003157414984
30
0
41
1
10
66.621214742883
20
0.324084448616702
30
0
0
SPLINE
5
C1
100
AcDbEntity
8
1
62
256
6
ByLayer
370
18
48
1
60
0
100
AcDbSpline
70
4
71
3
72
10
73
6
40
0
40
0
40
0
40
0
40
0.5
40
0.5
40
1
40
1
40
1
40
1
41
1
10
40.2020426608223
20
-2.65611253815274
30
1E-16
41
1
10
40.2020426608223
20
-2.64653095878609
30
1E-16
41
1
10
40.2210409314685
20
-2.63658867755376
30
1E-16
41
1
10
40.2805068626133
20
-2.62577601323312
30
0
41
1
10
40.3189056392022
20
-2.62551063907625
30
0
41
1
10
40.3494909684022
20
-2.63057766296697
30
1E-16
0
SPLINE
5
C2
100
AcDbEntity
8
1
62
256
6
ByLayer
370
18
48
1
60
0
100
AcDbSpline
70
4
71
3
72
10
73
6
40
0
40
0
40
0
40
0
40
0.5
40
0.5
40
1
40
1
40
1
40
1
41
1
10
67.0360771905255
20
2.66498370512355
30
0
41
1
10
67.0252945455753
20
2.6723717776066
30
0
41
1
10
67.0159045110702
20
2.6761765923265
30
0
41
1
10
66.9996845909895
20
2.67663866317201
30
0
41
1
10
66.9928104531251
20
2.67334193110705
30
0
41
1
10
66.9868030941621
20
2.66674331010347
30
0
0
SPLINE
5
C3
100
AcDbEntity
8
1
62
256
6
ByLayer
370
18
48
1
60
0
100
AcDbSpline
70
4
71
3
72
30
73
26
40
0
40
0
40
0
40
0
40
0.200741824777214
40
0.200741824777214
40
0.267346672712447
40
0.267346672712447
40
0.33395152064768
40
0.33395152064768
40
0.467161216518146
40
0.467161216518146
40
0.500463640485763
40
0.500463640485763
40
0.533766064453381
40
0.533766064453381
40
0.600370912388612
40
0.600370912388612
40
0.733580608259076
40
0.733580608259076
40
0.800185456194309
40
0.800185456194309
40
0.833487880161925
40
0.833487880161925
40
0.866790304129542
40
0.866790304129542
40
1
40
1
40
1
40
1
41
1
10
52.7376163753875
20
-2.67093205230074
30
-1E-16
41
1
10
51.905705910401
20
-2.78831783257229
30
0
41
1
10
51.0793623584657
20
-2.80247963579944
30
0
41
1
10
49.9587661278966
20
-2.67706193593565
30
1E-16
41
1
10
49.6802310146839
20
-2.63418302588937
30
1E-16
41
1
10
49.1262975421367
20
-2.52702673585355
30
-1E-16
41
1
10
48.8503408825129
20
-2.46271498795363
30
-1E-16
41
1
10
48.0233898061814
20
-2.23976319334326
30
-1E-16
41
1
10
47.4730590883878
20
-2.0513351747816
30
-1E-16
41
1
10
46.7790162524182
20
-1.77410045658576
30
1E-16
41
1
10
46.6399049362218
20
-1.71656241449946
30
1E-16
41
1
10
46.3608569204146
20
-1.59756254572471
30
1E-16
41
1
10
46.2210399326398
20
-1.53614413503303
30
1E-16
41
1
10
45.8034977927055
20
-1.34807270264216
30
1E-16
41
1
10
45.5265533085377
20
-1.21712278914438
30
1E-16
41
1
10
44.6978397111825
20
-0.811515899515655
30
0
41
1
10
44.1481436202392
20
-0.524160208462206
30
0
41
1
10
43.3184679369119
20
-0.0850536035743517
30
0
41
1
10
43.0410866746859
20
0.0627183501057686
30
0
41
1
10
42.6226725637498
20
0.284408185945864
30
0
41
1
10
42.4827466215003
20
0.358326375984518
30
0
41
1
10
42.2038086501191
20
0.504736346865968
30
0
41
1
10
42.0645612353451
20
0.577357489710209
30
0
41
1
10
41.3689194637869
20
0.936617072666991
30
-1E-16
41
1
10
40.8140858697772
20
1.2113157778758
30
-1E-16
41
1
10
40.2551383757615
20
1.46296467182376
30
-1E-16
0
SPLINE
5
C4
100
AcDbEntity
8
1
62
256
6
ByLayer
370
18
48
1
60
0
100
AcDbSpline
70
4
71
3
72
8
73
4
40
0
40
0
40
0
40
0
40
1
40
1
40
1
40
1
41
1
10
40.3494909684022
20
-2.63057766296697
30
1E-16
41
1
10
40.892236269961
20
-2.72049343243884
30
-1E-16
41
1
10
41.4346874909674
20
-2.76465243677381
30
0
41
1
10
41.9792909191324
20
-2.76436221067124
30
0
0
SPLINE
5
C5
100
AcDbEntity
8
1
62
256
6
ByLayer
370
18
48
1
60
0
100
AcDbSpline
70
4
71
3
72
32
73
28
40
0
40
0
40
0
40
0
40
0.0314567985777851
40
0.0314567985777851
40
0.0735673725526654
40
0.0735673725526654
40
0.157788520502423
40
0.157788520502423
40
0.24200966845218
40
0.24200966845218
40
0.326230816401938
40
0.326230816401938
40
0.410451964351695
40
0.410451964351695
40
0.452562538326574
40
0.452562538326574
40
0.494673112301453
40
0.494673112301453
40
0.57889426025121
40
0.57889426025121
40
0.663115408200967
40
0.663115408200967
40
0.747336556150725
40
0.747336556150725
40
0.831557704100482
40
0.831557704100482
40
1
40
1
40
1
40
1
41
1
10
56.8739216659284
20
2.66721615850093
30
0
41
1
10
56.9764364888834
20
2.68222205041854
30
0
41
1
10
57.0791564868716
20
2.69569642247521
30
0
41
1
10
57.3198780711347
20
2.72359567720423
30
1E-16
41
1
10
57.4581572196909
20
2.73679928203922
30
0
41
1
10
57.8707446531848
20
2.76768589444916
30
0
41
1
10
58.1437397157192
20
2.77668455594008
30
0
41
1
10
58.6894824998539
20
2.77164939222229
30
0
41
1
10
58.9620335743197
20
2.7578124583635
30
0
41
1
10
59.5063166289449
20
2.70766215843685
30
-1E-16
41
1
10
59.777885199698
20
2.67110708157105
30
-1E-16
41
1
10
60.3234910014328
20
2.57655979527996
30
1E-16
41
1
10
60.5971600620727
20
2.51846514572935
30
1E-16
41
1
10
61.0097420636226
20
2.41533246172403
30
1E-16
41
1
10
61.1478319242365
20
2.37812992987512
30
1E-16
41
1
10
61.4230170608185
20
2.29891054170111
30
1E-16
41
1
10
61.560238476039
20
2.25697235695745
30
1E-16
41
1
10
61.9712541419157
20
2.12483929514863
30
1E-16
41
1
10
62.2442503606526
20
2.02817934585505
30
1E-16
41
1
10
62.7888999040244
20
1.81883710442938
30
-1E-16
41
1
10
63.0604244375519
20
1.70590373255098
30
-1E-16
41
1
10
63.6048488506007
20
1.46798452045678
30
-1E-16
41
1
10
63.8774822063849
20
1.34265040486977
30
-1E-16
41
1
10
64.4242873621157
20
1.08013842858432
30
-1E-16
41
1
10
64.6987082181166
20
0.942445412314697
30
-1E-16
41
1
10
65.5260663660249
20
0.519936821692397
30
0
41
1
10
66.0740779310074
20
0.227872879588972
30
0
41
1
10
66.622941713095
20
-0.0663179431082312
30
0
0
SPLINE
5
C6
100
AcDbEntity
8
1
62
256
6
ByLayer
370
18
48
1
60
0
100
AcDbSpline
70
4
71
3
72
22
73
18
40
0
40
0
40
0
40
0
40
0.518401951856367
40
0.518401951856367
40
0.694914306145104
40
0.694914306145104
40
0.812079904043799
40
0.812079904043799
40
0.889887734503299
40
0.889887734503299
40
0.941582907362705
40
0.941582907362705
40
0.975939988001153
40
0.975939988001153
40
0.998777845557956
40
0.998777845557956
40
1
40
1
40
1
40
1
41
1
10
66.8637923318101
20
-2.77951434623805
30
0
41
1
10
66.8916017697532
20
-2.76132701011559
30
0
41
1
10
66.9194557153389
20
-2.74295988400527
30
0
41
1
10
66.9568506404773
20
-2.71810829854377
30
0
41
1
10
66.9663544776992
20
-2.71177565188279
30
0
41
1
10
66.982175060817
20
-2.70120670017519
30
0
41
1
10
66.988489060155
20
-2.69698140320415
30
0
41
1
10
66.9989997380832
20
-2.6899358152545
30
0
41
1
10
67.0031952008709
20
-2.68712033343564
30
0
41
1
10
67.0101797216782
20
-2.68242796985132
30
0
41
1
10
67.0129682420785
20
-2.68055319633149
30
0
41
1
10
67.0176107527158
20
-2.67742966398416
30
0
41
1
10
67.0194644003742
20
-2.67618190287635
30
0
41
1
10
67.0225509766294
20
-2.67410320241933
30
0
41
1
10
67.0237837213487
20
-2.67327272452556
30
0
41
1
10
67.0250830751285
20
-2.67239709375198
30
0
41
1
10
67.0251490789668
20
-2.6723526131961
30
0
41
1
10
67.0252150845949
20
-2.6723081306755
30
0
0
SPLINE
5
C7
100
AcDbEntity
8
1
62
256
6
ByLayer
370
18
48
1
60
0
100
AcDbSpline
70
4
71
3
72
8
73
4
40
0
40
0
40
0
40
0
40
1
40
1
40
1
40
1
41
1
10
66.8524578126239
20
-2.74449030341265
30
0
41
1
10
66.8971306479669
20
-2.71906385069798
30
0
41
1
10
66.9419071302267
20
-2.69314462347822
30
0
41
1
10
66.9868030941618
20
-2.66674331010367
30
0
0
SPLINE
5
C8
100
AcDbEntity
8
1
62
256
6
ByLayer
370
18
48
1
60
0
100
AcDbSpline
70
4
71
3
72
8
73
4
40
0
40
0
40
0
40
0
40
1
40
1
40
1
40
1
41
1
10
66.622941713095
20
-0.0663179431082312
30
0
41
1
10
66.6175517225185
20
0.0643287240761197
30
0
41
1
10
66.6164771141017
20
0.194464261382109
30
0
41
1
10
66.621214742874
20
0.32408444861764
30
0
0
SPLINE
5
C9
100
AcDbEntity
8
1
62
256
6
ByLayer
370
18
48
1
60
0
100
AcDbSpline
70
4
71
3
72
34
73
30
40
0
40
0
40
0
40
0
40
0.0801572472582553
40
0.0801572472582553
40
0.160314494516511
40
0.160314494516511
40
0.200393118145638
40
0.200393118145638
40
0.240471741774766
40
0.240471741774766
40
0.320628989033021
40
0.320628989033021
40
0.480943483549532
40
0.480943483549532
40
0.561100730807787
40
0.561100730807787
40
0.601179354436917
40
0.601179354436917
40
0.641257978066046
40
0.641257978066046
40
0.801572472582566
40
0.801572472582566
40
0.881729719840824
40
0.881729719840824
40
0.921808343469952
40
0.921808343469952
40
0.96188696709908
40
0.96188696709908
40
1
40
1
40
1
40
1
41
1
10
40.2
20
1.14577497274325
30
-1E-16
41
1
10
40.4802129876341
20
1.01043462460433
30
-1E-16
41
1
10
40.760300329353
20
0.870152727059349
30
-1E-16
41
1
10
41.3189149939471
20
0.584069270413039
30
0
41
1
10
41.5978196126788
20
0.438052116770905
30
0
41
1
10
42.0167577740953
20
0.216767455454971
30
0
41
1
10
42.1565019183387
20
0.14263178635332
30
0
41
1
10
42.4363933254876
20
-0.0060007256744825
30
0
41
1
10
42.5766486938375
20
-0.0805530139531641
30
0
41
1
10
42.9956515068466
20
-0.302763221484327
30
0
41
1
10
43.2734796595023
20
-0.449413748449785
30
0
41
1
10
44.1047761515414
20
-0.880656017084988
30
1E-16
41
1
10
44.6559685545714
20
-1.15669903866524
30
1E-16
41
1
10
45.4872046476458
20
-1.53741922063961
30
1E-16
41
1
10
45.765055977405
20
-1.65871469039089
30
1E-16
41
1
10
46.1842610847056
20
-1.83002643363767
30
1E-16
41
1
10
46.3245609110044
20
-1.88541133752275
30
1E-16
41
1
10
46.6038911258541
20
-1.99144942699709
30
-1E-16
41
1
10
46.7431853831546
20
-2.04221375815769
30
-1E-16
41
1
10
47.4382293897647
20
-2.28439099908638
30
-1E-16
41
1
10
47.9895965701169
20
-2.44095054735823
30
-1E-16
41
1
10
48.8187804302515
20
-2.61146691209092
30
0
41
1
10
49.0955494660591
20
-2.65757827742547
30
1E-16
41
1
10
49.5124500197017
20
-2.70967486416379
30
1E-16
41
1
10
49.6517073727023
20
-2.72419680991805
30
-1E-16
41
1
10
49.9309909537082
20
-2.74739946708465
30
0
41
1
10
50.0712624720222
20
-2.75608152621416
30
0
41
1
10
50.3437735957201
20
-2.76711368746351
30
0
41
1
10
50.4762522311815
20
-2.76976797367377
30
0
41
1
10
50.6084610300337
20
-2.76973768140462
30
0
0
SPLINE
5
CA
100
AcDbEntity
8
1
62
256
6
ByLayer
370
18
48
1
60
0
100
AcDbSpline
70
4
71
3
72
30
73
26
40
0
40
0
40
0
40
0
40
0.0980535337045699
40
0.0980535337045699
40
0.196107067409139
40
0.196107067409139
40
0.294160601113709
40
0.294160601113709
40
0.392214134818279
40
0.392214134818279
40
0.490267668522849
40
0.490267668522849
40
0.588321202227419
40
0.588321202227419
40
0.637347969079701
40
0.637347969079701
40
0.686374735931984
40
0.686374735931984
40
0.784428269636546
40
0.784428269636546
40
0.882481803341108
40
0.882481803341108
40
0.980535337045669
40
0.980535337045669
40
1
40
1
40
1
40
1
41
1
10
66.6924366498722
20
-0.109503894002756
30
0
41
1
10
66.4169840336639
20
0.030697150906434
30
0
41
1
10
66.1416532332911
20
0.170660409037083
30
0
41
1
10
65.5901276352942
20
0.44790763147796
30
0
41
1
10
65.3131027014437
20
0.585633471738078
30
0
41
1
10
64.7621586462157
20
0.85408146766963
30
-1E-16
41
1
10
64.4886181914792
20
0.984776404355046
30
-1E-16
41
1
10
63.9420335071108
20
1.23595058146085
30
-1E-16
41
1
10
63.6691763358282
20
1.35655414698729
30
-1E-16
41
1
10
63.1237698293196
20
1.58575794523207
30
-1E-16
41
1
10
62.8514215437063
20
1.6941264855657
30
-1E-16
41
1
10
62.3049150751324
20
1.89673386700241
30
1E-16
41
1
10
62.0308490864751
20
1.99097511348117
30
1E-16
41
1
10
61.617891756504
20
2.11978708331756
30
1E-16
41
1
10
61.4796703126718
20
2.16064265863022
30
1E-16
41
1
10
61.2037791926315
20
2.23740806238555
30
1E-16
41
1
10
61.0661928439614
20
2.27339307127855
30
1E-16
41
1
10
60.6539337098031
20
2.37438663722091
30
1E-16
41
1
10
60.3801578559499
20
2.43199159036908
30
1E-16
41
1
10
59.8339335105309
20
2.52602232611292
30
0
41
1
10
59.5617912946419
20
2.56148324579951
30
0
41
1
10
59.0162338221797
20
2.61365775229717
30
0
41
1
10
58.7429386673374
20
2.63008321423675
30
0
41
1
10
58.4147450063725
20
2.63554379030208
30
0
41
1
10
58.3603661122258
20
2.63594116807542
30
0
41
1
10
58.3059569255765
20
2.63585802259885
30
0
0
SPLINE
5
CB
100
AcDbEntity
8
1
62
256
6
ByLayer
370
18
48
1
60
0
100
AcDbSpline
70
4
71
3
72
34
73
30
40
0
40
0
40
0
40
0
40
0.0116323147479435
40
0.0116323147479435
40
0.111477515558569
40
0.111477515558569
40
0.211322716369194
40
0.211322716369194
40
0.261245316774506
40
0.261245316774506
40
0.311167917179818
40
0.311167917179818
40
0.361090517585131
40
0.361090517585131
40
0.411013117990443
40
0.411013117990443
40
0.510858318801068
40
0.510858318801068
40
0.560780919206383
40
0.560780919206383
40
0.610703519611697
40
0.610703519611697
40
0.710548720422326
40
0.710548720422326
40
0.810393921232955
40
0.810393921232955
40
0.910239122043584
40
0.910239122043584
40
1
40
1
40
1
40
1
41
1
10
41.8954483173644
20
2.63708259012034
30
0
41
1
10
41.9272811734145
20
2.63724263225834
30
0
41
1
10
41.9591133064208
20
2.63725804473495
30
0
41
1
10
42.2641747907125
20
2.63603636991502
30
0
41
1
10
42.5369428205409
20
2.62532386650031
30
0
41
1
10
43.0840194255036
20
2.5817592431427
30
0
41
1
10
43.3583546254033
20
2.54874691711623
30
0
41
1
10
43.772235012062
20
2.48273245760714
30
0
41
1
10
43.9104599636885
20
2.45794195537471
30
0
41
1
10
44.1857079966505
20
2.40346950719862
30
1E-16
41
1
10
44.3229902849116
20
2.37374828213353
30
1E-16
41
1
10
44.5970028225304
20
2.30971171583101
30
1E-16
41
1
10
44.7337298526375
20
2.27539433788073
30
1E-16
41
1
10
45.0066386594008
20
2.20250331885805
30
1E-16
41
1
10
45.1428308007505
20
2.16392820868896
30
1E-16
41
1
10
45.5515011194753
20
2.04125560515601
30
1E-16
41
1
10
45.8240499020109
20
1.95019541188466
30
1E-16
41
1
10
46.2330047675941
20
1.80243979309108
30
-1E-16
41
1
10
46.3693450133999
20
1.75133014484311
30
-1E-16
41
1
10
46.6420578589567
20
1.64554089243364
30
-1E-16
41
1
10
46.7784187447783
20
1.59087222523297
30
-1E-16
41
1
10
47.1887621128566
20
1.42162130247689
30
-1E-16
41
1
10
47.4644634780536
20
1.30159917757081
30
-1E-16
41
1
10
48.0170987014885
20
1.05113411729621
30
-1E-16
41
1
10
48.2917043006798
20
0.921481371312126
30
-1E-16
41
1
10
48.8390274075617
20
0.656211780543998
30
0
41
1
10
49.1117217890166
20
0.520517177555774
30
0
41
1
10
49.6295093687854
20
0.260522322087354
30
0
41
1
10
49.8748780804325
20
0.136899865415614
30
0
41
1
10
50.1203975203928
20
0.0127348292722615
30
0
0
SPLINE
5
CC
100
AcDbEntity
8
1
62
256
6
ByLayer
370
18
48
1
60
0
100
AcDbSpline
70
4
71
3
72
8
73
4
40
0
40
0
40
0
40
0
40
1
40
1
40
1
40
1
41
1
10
66.852457812624
20
2.74449030341262
30
0
41
1
10
66.897130647967
20
2.71906385069795
30
0
41
1
10
66.9419071302267
20
2.69314462347819
30
0
41
1
10
66.9868030941618
20
2.6667433101037
30
0
0
SPLINE
5
CD
100
AcDbEntity
8
1
62
256
6
ByLayer
370
18
48
1
60
0
100
AcDbSpline
70
4
71
3
72
8
73
4
40
0
40
0
40
0
40
0
40
1
40
1
40
1
40
1
41
1
10
67.9959536182543
20
0.197354657681842
30
0
41
1
10
68.0013518490783
20
0.0657103809111561
30
0
41
1
10
68.0013457422029
20
-0.0658593065912214
30
0
41
1
10
67.9959536182543
20
-0.19735465768187
30
0
0
SPLINE
5
CE
100
AcDbEntity
8
1
62
256
6
ByLayer
370
18
48
1
60
0
100
AcDbSpline
70
4
71
3
72
16
73
12
40
0
40
0
40
0
40
0
40
0.500000000000003
40
0.500000000000003
40
0.625000000000002
40
0.625000000000002
40
0.750000000000002
40
0.750000000000002
40
0.875000000000001
40
0.875000000000001
40
1
40
1
40
1
40
1
41
1
10
67.0360771905254
20
2.66498370512369
30
0
41
1
10
67.1465928078413
20
2.35088095199328
30
0
41
1
10
67.2562096242089
20
2.0316352692669
30
0
41
1
10
67.3979362457405
20
1.63540334697899
30
0
41
1
10
67.4270402316353
20
1.55710668928953
30
0
41
1
10
67.4880656819682
20
1.40326574463876
30
0
41
1
10
67.5199327427092
20
1.32765426593053
30
0
41
1
10
67.5872783815074
20
1.17944970881098
30
0
41
1
10
67.6230720462858
20
1.10629802059066
30
0
41
1
10
67.6967496418812
20
0.967664412177356
30
0
41
1
10
67.734752814652
20
0.901776560828154
30
0
41
1
10
67.7740285160639
20
0.83904226070473
30
0
0
SPLINE
5
CF
100
AcDbEntity
8
1
62
256
6
ByLayer
370
18
48
1
60
0
100
AcDbSpline
70
4
71
3
72
22
73
18
40
0
40
0
40
0
40
0
40
0.125
40
0.125
40
0.25
40
0.25
40
0.375
40
0.375
40
0.5
40
0.5
40
0.625
40
0.625
40
0.75
40
0.75
40
0.875
40
0.875
40
1
40
1
40
1
40
1
41
1
10
66.692436649869
20
-0.109503894003012
30
0
41
1
10
66.696988238622
20
-0.264006189962146
30
0
41
1
10
66.7074565997225
20
-0.415266572271122
30
0
41
1
10
66.7347771860132
20
-0.712035871542582
30
0
41
1
10
66.7517275483737
20
-0.858083851357378
30
1E-16
41
1
10
66.7877740190242
20
-1.14212705529843
30
1E-16
41
1
10
66.8066642981235
20
-1.27871875486596
30
1E-16
41
1
10
66.8427742286144
20
-1.53819417770237
30
1E-16
41
1
10
66.8599526294188
20
-1.66084642127691
30
1E-16
41
1
10
66.8906517516651
20
-1.88834284655096
30
-1E-16
41
1
10
66.9041825922927
20
-1.99329830821824
30
-1E-16
41
1
10
66.9275045002816
20
-2.18177291796073
30
-1E-16
41
1
10
66.9373388253495
20
-2.2655915305825
30
-1E-16
41
1
10
66.9551185428773
20
-2.40897507847526
30
-1E-16
41
1
10
66.9631370046087
20
-2.4689224237755
30
0
41
1
10
66.980661609394
20
-2.56236483688039
30
0
41
1
10
66.9901902913565
20
-2.59619104481055
30
0
41
1
10
67.0028516245909
20
-2.6169487063639
30
0
0
SPLINE
5
D0
100
AcDbEntity
8
1
62
256
6
ByLayer
370
18
48
1
60
0
100
AcDbSpline
70
4
71
3
72
55
73
51
40
0
40
0
40
0
40
0
40
0.125
40
0.125
40
0.1875
40
0.1875
40
0.25
40
0.25
40
0.28125
40
0.28125
40
0.312499999999999
40
0.312499999999999
40
0.343749999999998
40
0.343749999999998
40
0.359374999999998
40
0.359374999999998
40
0.374999999999997
40
0.374999999999997
40
0.406249999999997
40
0.406249999999997
40
0.421874999999996
40
0.421874999999996
40
0.437499999999995
40
0.437499999999995
40
0.468749999999994
40
0.468749999999994
40
0.499999999999993
40
0.499999999999993
40
0.531249999999992
40
0.531249999999992
40
0.562499999999991
40
0.562499999999991
40
0.624999999999987
40
0.624999999999987
40
0.687499999999983
40
0.687499999999983
40
0.691406249999982
40
0.691406249999982
40
0.69531249999998
40
0.69531249999998
40
0.70312499999998
40
0.70312499999998
40
0.71093749999998
40
0.71093749999998
40
0.71874999999998
40
0.749999999999984
40
0.749999999999984
40
0.874999999999992
40
0.874999999999992
40
1
40
1
40
1
40
1
41
1
10
8.25110783350004
20
-2.57879681444055
30
0
41
1
10
7.93381180669385
20
-2.5220269834843
30
-1E-16
41
1
10
7.62459639233163
20
-2.44809229352651
30
-1E-16
41
1
10
7.17972292326755
20
-2.29463810004415
30
-1E-16
41
1
10
7.03460834039703
20
-2.23629909452561
30
-1E-16
41
1
10
6.7536726374322
20
-2.09857880553491
30
-1E-16
41
1
10
6.61982182679816
20
-2.02035356666701
30
-1E-16
41
1
10
6.43453309420681
20
-1.88092671019714
30
-1E-16
41
1
10
6.37568752834969
20
-1.83086008744368
30
1E-16
41
1
10
6.26710725221693
20
-1.72305501386972
30
1E-16
41
1
10
6.21711882141096
20
-1.66517732340714
30
1E-16
41
1
10
6.12865638761926
20
-1.53879394969499
30
1E-16
41
1
10
6.09011902382991
20
-1.4697211745918
30
1E-16
41
1
10
6.04653861695169
20
-1.3603498599395
30
1E-16
41
1
10
6.03426694013555
20
-1.32278818659867
30
1E-16
41
1
10
6.01477964701985
20
-1.24519564693463
30
1E-16
41
1
10
6.00756299696369
20
-1.20487990408364
30
1E-16
41
1
10
5.99476294462838
20
-1.08336130437317
30
1E-16
41
1
10
5.99766846318062
20
-1.00086364870606
30
1E-16
41
1
10
6.0193330343885
20
-0.874924677575905
30
1E-16
41
1
10
6.02945638520919
20
-0.832770889376548
30
1E-16
41
1
10
6.05456259521594
20
-0.750177622615979
30
0
41
1
10
6.06959063847913
20
-0.709433321518191
30
0
41
1
10
6.12137698621461
20
-0.588706381453704
30
0
41
1
10
6.16498365235958
20
-0.510278409517355
30
0
41
1
10
6.26267623673505
20
-0.362468459601757
30
0
41
1
10
6.31715567933975
20
-0.292144672263987
30
0
41
1
10
6.43472946640605
20
-0.156993991724818
30
0
41
1
10
6.49783939701732
20
-0.0922724869503213
30
0
41
1
10
6.62801979571137
20
0.0301556060993846
30
0
41
1
10
6.69547694628241
20
0.0882967084853306
30
0
41
1
10
6.90339691610018
20
0.255524947239451
30
0
41
1
10
7.04933129263117
20
0.357517325372101
30
0
41
1
10
7.35130106802413
20
0.548436772096409
30
0
41
1
10
7.50619683749676
20
0.63653962962357
30
0
41
1
10
7.67362022493199
20
0.724338133705999
30
0
41
1
10
7.68334237510896
20
0.72974066638713
30
0
41
1
10
7.70347329339791
20
0.73923863148724
30
0
41
1
10
7.71418729606836
20
0.742726307192299
30
0
41
1
10
7.74699543482012
20
0.74808309243187
30
0
41
1
10
7.76954927728451
20
0.746884944950153
30
0
41
1
10
7.81256417780889
20
0.737878683874811
30
0
41
1
10
7.83341205707421
20
0.730625420347735
30
0
41
1
10
7.87551574838344
20
0.717842344854091
30
0
41
1
10
7.98067194113224
20
0.685540663106309
30
0
41
1
10
8.08531714749176
20
0.65152009120726
30
0
41
1
10
8.5020423159846
20
0.510116780741271
30
0
41
1
10
8.82977743221775
20
0.379513041590712
30
0
41
1
10
9.47204856305672
20
0.0916429188140739
30
0
41
1
10
9.78718051760535
20
-0.0656733401212364
30
0
41
1
10
10.0990628543042
20
-0.230687664465165
30
0
0
SPLINE
5
D1
100
AcDbEntity
8
1
62
256
6
ByLayer
370
18
48
1
60
0
100
AcDbSpline
70
4
71
3
72
16
73
12
40
0
40
0
40
0
40
0
40
0.214041344840408
40
0.214041344840408
40
0.428082689680817
40
0.428082689680817
40
0.642124034521225
40
0.642124034521225
40
0.856165379361633
40
0.856165379361633
40
1
40
1
40
1
40
1
41
1
10
67.0313636286269
20
2.66816230136922
30
0
41
1
10
66.7523180293911
20
2.6708592699606
30
0
41
1
10
66.4720109794251
20
2.6620497247836
30
0
41
1
10
65.9089695708062
20
2.62113105476743
30
0
41
1
10
65.6273493851726
20
2.58900490974077
30
0
41
1
10
65.0646836963207
20
2.50232588059399
30
0
41
1
10
64.7837195397393
20
2.44795450385288
30
1E-16
41
1
10
64.2209817726551
20
2.31807258519666
30
1E-16
41
1
10
63.9402118083922
20
2.24279339038827
30
1E-16
41
1
10
63.4735056664138
20
2.10187054709789
30
1E-16
41
1
10
63.2864228514679
20
2.04109059833215
30
1E-16
41
1
10
63.0996001971152
20
1.97655412447406
30
0
0
SPLINE
5
D2
100
AcDbEntity
8
1
62
256
6
ByLayer
370
18
48
1
60
0
100
AcDbSpline
70
4
71
3
72
12
73
8
40
0
40
0
40
0
40
0
40
0.172869527686745
40
0.172869527686745
40
0.448579685124497
40
0.448579685124497
40
1
40
1
40
1
40
1
41
1
10
43.2481437980441
20
-0.428198435188051
30
0
41
1
10
43.0731238930833
20
-0.33964045905276
30
0
41
1
10
42.8978606399644
20
-0.250233868180601
30
0
41
1
10
42.4419578285912
20
-0.016884058927559
30
0
41
1
10
42.160230347229
20
0.128050641023293
30
0
41
1
10
41.31931194726
20
0.557093321489418
30
0
41
1
10
40.7613397332916
20
0.83701915238521
30
-1E-16
41
1
10
40.2000000000185
20
1.0992666177722
30
-1E-16
0
SPLINE
5
D3
100
AcDbEntity
8
1
62
256
6
ByLayer
370
18
48
1
60
0
100
AcDbSpline
70
4
71
3
72
8
73
4
40
0
40
0
40
0
40
0
40
1
40
1
40
1
40
1
41
1
10
67.03136362862
20
2.66816230142084
30
0
41
1
10
67.0329347926909
20
2.66710289452894
30
0
41
1
10
67.0345059799241
20
2.66604336241588
30
0
41
1
10
67.0360771905255
20
2.66498370512366
30
0
0
SPLINE
5
D4
100
AcDbEntity
8
1
62
256
6
ByLayer
370
18
48
1
60
0
100
AcDbSpline
70
4
71
3
72
8
73
4
40
0
40
0
40
0
40
0
40
1
40
1
40
1
40
1
41
1
10
67.774028516064
20
0.839042260704616
30
0
41
1
10
67.8497564302908
20
0.625776937328936
30
0
41
1
10
67.9237390645625
20
0.411883803594009
30
0
41
1
10
67.9959536182543
20
0.197354657681842
30
0
0
SPLINE
5
D5
100
AcDbEntity
8
1
62
256
6
ByLayer
370
18
48
1
60
0
100
AcDbSpline
70
4
71
3
72
8
73
4
40
0
40
0
40
0
40
0
40
1
40
1
40
1
40
1
41
1
10
66.6229417130951
20
-0.0663179431082597
30
0
41
1
10
66.6444887903882
20
-0.0768362338648103
30
0
41
1
10
66.6659183643083
20
-0.0867487947125198
30
0
41
1
10
66.6872544671517
20
-0.0960700467130948
30
0
0
SPLINE
5
D6
100
AcDbEntity
8
1
62
256
6
ByLayer
370
18
48
1
60
0
100
AcDbSpline
70
4
71
3
72
30
73
26
40
0
40
0
40
0
40
0
40
0.499438908914368
40
0.499438908914368
40
0.669494475487799
40
0.669494475487799
40
0.782374178520429
40
0.782374178520429
40
0.857335813619435
40
0.857335813619435
40
0.907139987073466
40
0.907139987073466
40
0.940240292360138
40
0.940240292360138
40
0.962242745512996
40
0.962242745512996
40
0.976866048563737
40
0.976866048563737
40
0.986585378349679
40
0.986585378349679
40
0.993046129836092
40
0.993046129836092
40
0.997341352435399
40
0.997341352435399
40
1
40
1
40
1
40
1
41
1
10
66.8637923318101
20
2.77951434623805
30
0
41
1
10
66.8916017697532
20
2.76132701011559
30
0
41
1
10
66.9194557153389
20
2.74295988400527
30
0
41
1
10
66.9568506404772
20
2.7181082985438
30
0
41
1
10
66.9663544776991
20
2.71177565188279
30
0
41
1
10
66.982175060817
20
2.70120670017519
30
0
41
1
10
66.9884890601549
20
2.69698140320415
30
0
41
1
10
66.9989997380832
20
2.6899358152545
30
0
41
1
10
67.0031952008709
20
2.68712033343567
30
0
41
1
10
67.0101797216782
20
2.68242796985135
30
0
41
1
10
67.0129682420785
20
2.68055319633152
30
0
41
1
10
67.0176107527158
20
2.67742966398419
30
0
41
1
10
67.0194644003742
20
2.67618190287635
30
0
41
1
10
67.0225509766295
20
2.67410320241936
30
0
41
1
10
67.0237837213488
20
2.67327272452553
30
0
41
1
10
67.0258367851887
20
2.67188917071104
30
0
41
1
10
67.0266567659862
20
2.67133647090867
30
0
41
1
10
67.0280223452986
20
2.67041582330322
30
0
41
1
10
67.0285677425866
20
2.67004807574244
30
0
41
1
10
67.0294759923313
20
2.6694355818255
30
0
41
1
10
67.0298387412233
20
2.66919093351632
30
0
41
1
10
67.0304428012506
20
2.6687835011582
30
0
41
1
10
67.0306846290532
20
2.66862038309893
30
0
41
1
10
67.0310737853767
20
2.66835786493962
30
0
41
1
10
67.031222017745
20
2.66825786362881
30
0
41
1
10
67.0313636286172
20
2.66816230142334
30
0
0
SPLINE
5
D7
100
AcDbEntity
8
1
62
256
6
ByLayer
370
18
48
1
60
0
100
AcDbSpline
70
4
71
3
72
14
73
10
40
0
40
0
40
0
40
0
40
0.269718598517847
40
0.269718598517847
40
0.503917565542274
40
0.503917565542274
40
0.780070005298529
40
0.780070005298529
40
1
40
1
40
1
40
1
41
1
10
66.6872544671448
20
-0.0960700467060747
30
0
41
1
10
66.6879834078594
20
-0.0963885041176127
30
0
41
1
10
66.6886944308915
20
-0.0970805784135962
30
0
41
1
10
66.6898725600357
20
-0.0988080283865997
30
0
41
1
10
66.6903756618354
20
-0.0998094548047845
30
0
41
1
10
66.6913113358566
20
-0.102257914691279
30
0
41
1
10
66.6917301181842
20
-0.103790212354738
30
0
41
1
10
66.6922456880737
20
-0.106717482274462
30
0
41
1
10
66.6923956215336
20
-0.108111199652882
30
0
41
1
10
66.6924366498686
20
-0.109503893990762
30
0
0
SPLINE
5
D8
100
AcDbEntity
8
1
62
256
6
ByLayer
370
18
48
1
60
0
100
AcDbSpline
70
4
71
3
72
26
73
22
40
0
40
0
40
0
40
0
40
0.0937786402744575
40
0.0937786402744575
40
0.191823342888865
40
0.191823342888865
40
0.289868045503273
40
0.289868045503273
40
0.485957450732084
40
0.485957450732084
40
0.534979802039288
40
0.534979802039288
40
0.584002153346492
40
0.584002153346492
40
0.682046855960896
40
0.682046855960896
40
0.878136261189703
40
0.878136261189703
40
0.976180963804107
40
0.976180963804107
40
1
40
1
40
1
40
1
41
1
10
42.8414442361116
20
0.171403109895948
30
0
41
1
10
43.1074941438195
20
0.0374283992483697
30
0
41
1
10
43.374240838819
20
-0.0975528654128084
30
0
41
1
10
43.9226085501884
20
-0.37311644056922
30
0
41
1
10
44.2022705133051
20
-0.512728574301434
30
0
41
1
10
44.7584933066295
20
-0.785002717344213
30
0
41
1
10
45.0355658222988
20
-0.917812393124336
30
1E-16
41
1
10
45.865806059971
20
-1.30241037482972
30
1E-16
41
1
10
46.4179091137208
20
-1.5408285869984
30
1E-16
41
1
10
47.1135721098943
20
-1.80314265366539
30
1E-16
41
1
10
47.2529779164119
20
-1.85383046979658
30
-1E-16
41
1
10
47.5325087850844
20
-1.95136590788718
30
-1E-16
41
1
10
47.6729065293683
20
-1.99829873067242
30
-1E-16
41
1
10
48.092786647094
20
-2.13208277837066
30
-1E-16
41
1
10
48.3711247704902
20
-2.21186472925532
30
-1E-16
41
1
10
49.2037811659857
20
-2.42170537935897
30
-1E-16
41
1
10
49.7556526608367
20
-2.52123522372281
30
0
41
1
10
50.5868220582828
20
-2.60597915523849
30
0
41
1
10
50.8644645097046
20
-2.62314640035967
30
0
41
1
10
51.211267427589
20
-2.63050497777223
30
0
41
1
10
51.2791640581218
20
-2.63127007115742
30
0
41
1
10
51.347128148684
20
-2.63136369478031
30
0
0
SPLINE
5
D9
100
AcDbEntity
8
1
62
256
6
ByLayer
370
18
48
1
60
0
100
AcDbSpline
70
4
71
3
72
8
73
4
40
0
40
0
40
0
40
0
40
1
40
1
40
1
40
1
41
1
10
67.0003919807983
20
-2.6281701464703
30
0
41
1
10
66.9958429148444
20
-2.64102893706277
30
0
41
1
10
66.9913131374922
20
-2.653886608058
30
0
41
1
10
66.986803094162
20
-2.66674331010378
30
0
0
SPLINE
5
DA
100
AcDbEntity
8
1
62
256
6
ByLayer
370
18
48
1
60
0
100
AcDbSpline
70
4
71
3
72
30
73
26
40
0
40
0
40
0
40
0
40
0.0553898412373768
40
0.0553898412373768
40
0.152223275196268
40
0.152223275196268
40
0.249056709155159
40
0.249056709155159
40
0.34589014311405
40
0.34589014311405
40
0.394306860093498
40
0.394306860093498
40
0.442723577072946
40
0.442723577072946
40
0.539557011031837
40
0.539557011031837
40
0.636390444990728
40
0.636390444990728
40
0.733223878949619
40
0.733223878949619
40
0.83005731290851
40
0.83005731290851
40
0.926890746867402
40
0.926890746867402
40
1
40
1
40
1
40
1
41
1
10
57.9965151655484
20
2.63968105349102
30
0
41
1
10
58.1536858734111
20
2.64524678860175
30
0
41
1
10
58.3104380685049
20
2.64723200277041
30
0
41
1
10
58.7407693902051
20
2.64108064387301
30
0
41
1
10
59.0139686274053
20
2.62524659630824
30
0
41
1
10
59.5593150614256
20
2.57413641434272
30
0
41
1
10
59.8313382264762
20
2.53919641318186
30
0
41
1
10
60.3773292762663
20
2.44611048887717
30
1E-16
41
1
10
60.6509848058539
20
2.38892461775239
30
1E-16
41
1
10
61.0630684163996
20
2.28846381273195
30
1E-16
41
1
10
61.2005969566665
20
2.25263728396877
30
1E-16
41
1
10
61.4763667748942
20
2.17618577943591
30
1E-16
41
1
10
61.6145658473839
20
2.13547100401738
30
1E-16
41
1
10
62.0274199410159
20
2.0070184284092
30
1E-16
41
1
10
62.3014034194172
20
1.91294848150673
30
1E-16
41
1
10
62.8477256898903
20
1.71056852072519
30
-1E-16
41
1
10
63.1199691846281
20
1.60226995019889
30
-1E-16
41
1
10
63.6651538070312
20
1.37307110622996
30
-1E-16
41
1
10
63.9378950656936
20
1.25239980614484
30
-1E-16
41
1
10
64.4842427109899
20
1.0009743129244
30
-1E-16
41
1
10
64.7576547181108
20
0.870098627749854
30
-1E-16
41
1
10
65.3083433021057
20
0.601161033805397
30
0
41
1
10
65.5853012842975
20
0.463087325654215
30
0
41
1
10
66.0691199264635
20
0.219108245910121
30
0
41
1
10
66.2770067981311
20
0.113353459966646
30
0
41
1
10
66.484881783928
20
0.0072790749701142
30
0
0
SPLINE
5
DB
100
AcDbEntity
8
1
62
256
6
ByLayer
370
18
48
1
60
0
100
AcDbSpline
70
4
71
3
72
8
73
4
40
0
40
0
40
0
40
0
40
1
40
1
40
1
40
1
41
1
10
40.2551383757614
20
1.46296467182381
30
-1E-16
41
1
10
40.2229768148816
20
1.477444424054
30
-1E-16
41
1
10
40.2020426608221
20
1.50686304810586
30
-1E-16
41
1
10
40.2020426608221
20
1.53712454313873
30
-1E-16
0
SPLINE
5
DC
100
AcDbEntity
8
1
62
256
6
ByLayer
370
18
48
1
60
0
100
AcDbSpline
70
4
71
3
72
26
73
22
40
0
40
0
40
0
40
0
40
0.0359508355654767
40
0.0359508355654767
40
0.138248105296998
40
0.138248105296998
40
0.342842644760045
40
0.342842644760045
40
0.44513991449157
40
0.44513991449157
40
0.496288549357333
40
0.496288549357333
40
0.547437184223096
40
0.547437184223096
40
0.752031723686146
40
0.752031723686146
40
0.854328993417672
40
0.854328993417672
40
0.956626263149197
40
0.956626263149197
40
1
40
1
40
1
40
1
41
1
10
51.4346125222618
20
-2.64090097464131
30
0
41
1
10
51.3362100819116
20
-2.64181256080843
30
0
41
1
10
51.2379078448012
20
-2.64131511375987
30
0
41
1
10
50.8607944760837
20
-2.63396311977166
30
0
41
1
10
50.5831347053443
20
-2.61723036950281
30
0
41
1
10
49.7519169865089
20
-2.53362455026587
30
0
41
1
10
49.2000288457736
20
-2.43464968053303
30
-1E-16
41
1
10
48.3673287382319
20
-2.22529758369709
30
-1E-16
41
1
10
48.0889713486021
20
-2.14561987835265
30
-1E-16
41
1
10
47.6690457372466
20
-2.01189682756103
30
-1E-16
41
1
10
47.5286278700908
20
-1.96496664249631
30
-1E-16
41
1
10
47.2490640290883
20
-1.8674100148026
30
-1E-16
41
1
10
47.1096440612586
20
-1.81669769814062
30
-1E-16
41
1
10
46.4139226076109
20
-1.55418991392477
30
1E-16
41
1
10
45.861799001012
20
-1.31539565811209
30
1E-16
41
1
10
45.0315263073703
20
-0.929897836637508
30
1E-16
41
1
10
44.7544397102717
20
-0.796739238920935
30
0
41
1
10
44.1981754074792
20
-0.523658319054817
30
0
41
1
10
43.9184863059949
20
-0.383585996965621
30
0
41
1
10
43.5193137172914
20
-0.18229851409842
30
0
41
1
10
43.4007240397488
20
-0.12230653345307
30
0
41
1
10
43.2823425499595
20
-0.0623671213372745
30
0
0
SPLINE
5
DD
100
AcDbEntity
8
1
62
256
6
ByLayer
370
18
48
1
60
0
100
AcDbSpline
70
4
71
3
72
22
73
18
40
0
40
0
40
0
40
0
40
0.158514766290531
40
0.158514766290531
40
0.263700420504211
40
0.263700420504211
40
0.316293247611051
40
0.316293247611051
40
0.36888607471789
40
0.36888607471789
40
0.579257383145262
40
0.579257383145262
40
0.789628691572633
40
0.789628691572633
40
0.894814345786316
40
0.894814345786316
40
1
40
1
40
1
40
1
41
1
10
59.0728637478745
20
0.232053806807556
30
0
41
1
10
59.4897073232718
20
0.021713694826218
30
0
41
1
10
59.9056523572119
20
-0.190590505543696
30
0
41
1
10
60.6003100915311
20
-0.538553968139524
30
0
41
1
10
60.878088125606
20
-0.676018573546429
30
0
41
1
10
61.2968451913052
20
-0.878090273225467
30
1E-16
41
1
10
61.4370408789431
20
-0.944870671492396
30
1E-16
41
1
10
61.7170035087028
20
-1.07595526977946
30
1E-16
41
1
10
61.8566253149952
20
-1.14021161826022
30
1E-16
41
1
10
62.553073049461
20
-1.45446658644539
30
1E-16
41
1
10
63.104997241443
20
-1.68306407436398
30
1E-16
41
1
10
64.2112160621199
20
-2.07722080493295
30
-1E-16
41
1
10
64.7649013870391
20
-2.2426854434776
30
-1E-16
41
1
10
65.6055445523
20
-2.43160342903877
30
-1E-16
41
1
10
65.88519666357
20
-2.4841854618422
30
0
41
1
10
66.4439030161162
20
-2.5672806300428
30
0
41
1
10
66.7230583441292
20
-2.59751088220921
30
0
41
1
10
67.0028516245908
20
-2.6169487063639
30
0
0
SPLINE
5
DE
100
AcDbEntity
8
1
62
256
6
ByLayer
370
18
48
1
60
0
100
AcDbSpline
70
4
71
3
72
16
73
12
40
0
40
0
40
0
40
0
40
0.500000000000006
40
0.500000000000006
40
0.625000000000005
40
0.625000000000005
40
0.750000000000003
40
0.750000000000003
40
0.875000000000002
40
0.875000000000002
40
1
40
1
40
1
40
1
41
1
10
67.0360771905255
20
-2.66498370512366
30
0
41
1
10
67.1465928078416
20
-2.35088095199259
30
0
41
1
10
67.2562096242089
20
-2.03163526926622
30
0
41
1
10
67.3979362457413
20
-1.63540334697629
30
0
41
1
10
67.4270402316364
20
-1.55710668928654
30
0
41
1
10
67.4880656819696
20
-1.40326574463538
30
0
41
1
10
67.5199327427107
20
-1.32765426592709
30
0
41
1
10
67.5872783815091
20
-1.17944970880757
30
0
41
1
10
67.6230720462871
20
-1.1062980205879
30
0
41
1
10
67.6967496418816
20
-0.967664412176561
30
0
41
1
10
67.7347528146521
20
-0.901776560827898
30
0
41
1
10
67.7740285160639
20
-0.839042260704701
30
0
0
SPLINE
5
DF
100
AcDbEntity
8
1
62
256
6
ByLayer
370
18
48
1
60
0
100
AcDbSpline
70
4
71
3
72
26
73
22
40
0
40
0
40
0
40
0
40
0.12048182325536
40
0.12048182325536
40
0.240963646510721
40
0.240963646510721
40
0.361445469766081
40
0.361445469766081
40
0.42168638139376
40
0.42168638139376
40
0.481927293021438
40
0.481927293021438
40
0.602409116276794
40
0.602409116276794
40
0.72289093953215
40
0.72289093953215
40
0.843372762787506
40
0.843372762787506
40
0.963854586042863
40
0.963854586042863
40
1
40
1
40
1
40
1
41
1
10
66.6212147428737
20
0.324084448608915
30
0
41
1
10
66.3173436678308
20
0.485483122847171
30
0
41
1
10
66.0144853824672
20
0.643886011412917
30
0
41
1
10
65.410319520605
20
0.953915088173744
30
-1E-16
41
1
10
65.1081920925199
20
1.10402581303731
30
-1E-16
41
1
10
64.5027895067242
20
1.39261115118174
30
-1E-16
41
1
10
64.1997998003519
20
1.53152537363564
30
-1E-16
41
1
10
63.7420672902194
20
1.72699348265851
30
-1E-16
41
1
10
63.5886698079239
20
1.79023233347118
30
-1E-16
41
1
10
63.2828499497947
20
1.91215346840718
30
-1E-16
41
1
10
63.1304747327513
20
1.9705567709984
30
1E-16
41
1
10
62.6741420631635
20
2.13714068213292
30
1E-16
41
1
10
62.3710699167803
20
2.23691960763946
30
1E-16
41
1
10
61.7666342041148
20
2.41355142863844
30
1E-16
41
1
10
61.4644442441805
20
2.48952045742055
30
1E-16
41
1
10
60.8592251383436
20
2.61612610076813
30
0
41
1
10
60.5563960099275
20
2.66677904500824
30
-1E-16
41
1
10
59.9466427497761
20
2.74010515228562
30
0
41
1
10
59.6395247750335
20
2.76306281727091
30
0
41
1
10
59.2435708435076
20
2.77389875018793
30
0
41
1
10
59.1523120870449
20
2.77511506392295
30
0
41
1
10
59.0611606129273
20
2.77505364863796
30
0
0
SPLINE
5
E0
100
AcDbEntity
8
1
62
256
6
ByLayer
370
18
48
1
60
0
100
AcDbSpline
70
4
71
3
72
62
73
58
40
0
40
0
40
0
40
0
40
0.0298175299022621
40
0.0298175299022621
40
0.0736656134759471
40
0.0736656134759471
40
0.117513697049632
40
0.117513697049632
40
0.161361780623317
40
0.161361780623317
40
0.205209864197002
40
0.205209864197002
40
0.249057947770687
40
0.249057947770687
40
0.292906031344372
40
0.292906031344372
40
0.314830073131214
40
0.314830073131214
40
0.336754114918055
40
0.336754114918055
40
0.380602198491739
40
0.380602198491739
40
0.424450282065422
40
0.424450282065422
40
0.468298365639105
40
0.468298365639105
40
0.490222407425948
40
0.490222407425948
40
0.51214644921279
40
0.51214644921279
40
0.555994532786474
40
0.555994532786474
40
0.599842616360157
40
0.599842616360157
40
0.643690699933841
40
0.643690699933841
40
0.665614741720682
40
0.665614741720682
40
0.687538783507523
40
0.687538783507523
40
0.731386867081203
40
0.731386867081203
40
0.775234950654883
40
0.775234950654883
40
0.819083034228564
40
0.819083034228564
40
0.841007076015403
40
0.841007076015403
40
0.862931117802242
40
0.862931117802242
40
0.906779201375921
40
0.906779201375921
40
0.9506272849496
40
0.9506272849496
40
0.994475368523279
40
0.994475368523279
40
1
40
1
40
1
40
1
41
1
10
47.1987604388765
20
-1.80626417553015
30
1E-16
41
1
10
46.992826299513
20
-1.88915002630924
30
0
41
1
10
46.7870877999624
20
-1.9675306702656
30
-1E-16
41
1
10
46.2791648261098
20
-2.14997037208408
30
-1E-16
41
1
10
45.9769183950215
20
-2.24834314322905
30
-1E-16
41
1
10
45.3695585033868
20
-2.42102106919941
30
-1E-16
41
1
10
45.065255516863
20
-2.49615426481978
30
-1E-16
41
1
10
44.4517975656551
20
-2.61993274922676
30
0
41
1
10
44.1469234492142
20
-2.66801818088382
30
1E-16
41
1
10
43.5399874897227
20
-2.73645296639125
30
0
41
1
10
43.2371279815083
20
-2.75658154517183
30
0
41
1
10
42.6324166121543
20
-2.76898872890291
30
0
41
1
10
42.3302225793572
20
-2.76109225055092
30
0
41
1
10
41.7233128868818
20
-2.71738996587723
30
1E-16
41
1
10
41.4194040873554
20
-2.68132661065795
30
1E-16
41
1
10
40.9600839880526
20
-2.60641811234868
30
0
41
1
10
40.8064594768306
20
-2.57800853008598
30
0
41
1
10
40.5009100018158
20
-2.51481871036896
30
-1E-16
41
1
10
40.3487601232757
20
-2.47986680210428
30
-1E-16
41
1
10
39.8929680161539
20
-2.36604157180787
30
-1E-16
41
1
10
39.5898564755721
20
-2.27844750985025
30
-1E-16
41
1
10
38.9850021002682
20
-2.08030437458228
30
-1E-16
41
1
10
38.6828168931917
20
-1.97017035574817
30
-1E-16
41
1
10
38.0763014409315
20
-1.73132789918341
30
1E-16
41
1
10
37.7727612522365
20
-1.60143154110716
30
1E-16
41
1
10
37.3141747885245
20
-1.39488172084407
30
1E-16
41
1
10
37.1604271161239
20
-1.32394764994652
30
1E-16
41
1
10
36.8543043262669
20
-1.17909942729776
30
1E-16
41
1
10
36.7019035327359
20
-1.10494374841866
30
1E-16
41
1
10
36.2454335889556
20
-0.879581349470669
30
1E-16
41
1
10
35.9420274069211
20
-0.725632387969938
30
0
41
1
10
35.3369428133115
20
-0.410548023616798
30
0
41
1
10
35.0347255824087
20
-0.250411750775783
30
0
41
1
10
34.4285303504125
20
0.0704043193334201
30
0
41
1
10
34.1253162206683
20
0.232574496378788
30
0
41
1
10
33.6674167173882
20
0.472858417904575
30
0
41
1
10
33.5140978437492
20
0.552547487603334
30
0
41
1
10
33.2073439990102
20
0.710851052692846
30
0
41
1
10
33.054659562284
20
0.789250272693607
30
0
41
1
10
32.5974264476063
20
1.01982041312783
30
-1E-16
41
1
10
32.2936737030212
20
1.16742046773385
30
-1E-16
41
1
10
31.6882418767441
20
1.45057669979153
30
-1E-16
41
1
10
31.3859394097573
20
1.58500260906072
30
-1E-16
41
1
10
30.7799871615038
20
1.8362346223085
30
-1E-16
41
1
10
30.4770590865368
20
1.95408088320778
30
1E-16
41
1
10
30.0197850531343
20
2.11473443910279
30
1E-16
41
1
10
29.8668861293293
20
2.16563156594773
30
1E-16
41
1
10
29.560339209427
20
2.26229405863128
30
1E-16
41
1
10
29.4070285235582
20
2.30796787992531
30
1E-16
41
1
10
28.9489403082013
20
2.4347674907259
30
1E-16
41
1
10
28.6447924333041
20
2.50625492874323
30
1E-16
41
1
10
28.0389021471651
20
2.62364593107344
30
0
41
1
10
27.7364583308471
20
2.66894530088638
30
-1E-16
41
1
10
27.1306369579588
20
2.7321110347311
30
0
41
1
10
26.8279269134462
20
2.75012324934113
30
0
41
1
10
26.4850708413015
20
2.75435465692152
30
0
41
1
10
26.4466788162957
20
2.75460463035722
30
0
41
1
10
26.4082611507603
20
2.75462994130686
30
0
0
SPLINE
5
E1
100
AcDbEntity
8
1
62
256
6
ByLayer
370
18
48
1
60
0
100
AcDbSpline
70
4
71
3
72
22
73
18
40
0
40
0
40
0
40
0
40
0.0321004410757632
40
0.0321004410757632
40
0.193417034229801
40
0.193417034229801
40
0.354733627383838
40
0.354733627383838
40
0.516050220537875
40
0.516050220537875
40
0.596708517114895
40
0.596708517114895
40
0.677366813691915
40
0.677366813691915
40
0.838683406845959
40
0.838683406845959
40
1
40
1
40
1
40
1
41
1
10
13.9215627065357
20
-2.02414221676088
30
-1E-16
41
1
10
13.8608686665956
20
-2.04581286162522
30
-1E-16
41
1
10
13.8002467384458
20
-2.06706474908265
30
-1E-16
41
1
10
13.4353479707112
20
-2.19250776598804
30
-1E-16
41
1
10
13.1318997933664
20
-2.28540924793381
30
-1E-16
41
1
10
12.5258526606074
20
-2.4473433627621
30
-1E-16
41
1
10
12.2235219094297
20
-2.51649613582319
30
-1E-16
41
1
10
11.6164904282158
20
-2.62800944067249
30
0
41
1
10
11.3125782796422
20
-2.67094861283272
30
1E-16
41
1
10
10.8538680647725
20
-2.71439604552063
30
0
41
1
10
10.7001924480442
20
-2.72540166052735
30
0
41
1
10
10.3930972025235
20
-2.74024756671213
30
0
41
1
10
10.239907533299
20
-2.74410895786519
30
0
41
1
10
9.78101931418797
20
-2.74499240632588
30
0
41
1
10
9.47558626068485
20
-2.7313595661777
30
0
41
1
10
8.86458916490966
20
-2.67588759330664
30
1E-16
41
1
10
8.55886108312745
20
-2.63396248577359
30
1E-16
41
1
10
8.25111806367417
20
-2.57879270936564
30
0
0
SPLINE
5
E2
100
AcDbEntity
8
1
62
256
6
ByLayer
370
18
48
1
60
0
100
AcDbSpline
70
4
71
3
72
42
73
38
40
0
40
0
40
0
40
0
40
0.0905142279892095
40
0.0905142279892095
40
0.183349694875516
40
0.183349694875516
40
0.276185161761822
40
0.276185161761822
40
0.369020628648128
40
0.369020628648128
40
0.415438362091281
40
0.415438362091281
40
0.461856095534434
40
0.461856095534434
40
0.55469156242074
40
0.55469156242074
40
0.577900429142317
40
0.577900429142317
40
0.601109295863895
40
0.601109295863895
40
0.64752702930705
40
0.64752702930705
40
0.74036249619336
40
0.74036249619336
40
0.763571362914937
40
0.763571362914937
40
0.786780229636515
40
0.786780229636515
40
0.833197963079672
40
0.833197963079672
40
0.926033429965985
40
0.926033429965985
40
0.949242296687565
40
0.949242296687565
40
0.972451163409144
40
0.972451163409144
40
1
40
1
40
1
40
1
41
1
10
13.9122222263066
20
2.00293204324961
30
0
41
1
10
14.5293581351596
20
2.2261984561323
30
1E-16
41
1
10
15.1384439095466
20
2.40420218340949
30
1E-16
41
1
10
16.3719778133408
20
2.65918610111467
30
-1E-16
41
1
10
16.9964330096382
20
2.73357585770958
30
0
41
1
10
18.2628663487852
20
2.76052294706517
30
0
41
1
10
18.8875443558939
20
2.71265977280177
30
-1E-16
41
1
10
20.1361589862386
20
2.50404072956994
30
1E-16
41
1
10
20.7602734088344
20
2.34326094852824
30
1E-16
41
1
10
21.7094062732821
20
2.02636495610784
30
1E-16
41
1
10
22.0243759876286
20
1.9093420690823
30
1E-16
41
1
10
22.6510956260275
20
1.65705543978643
30
-1E-16
41
1
10
22.9632817400595
20
1.52165947450465
30
-1E-16
41
1
10
23.8995920171734
20
1.09316260550057
30
-1E-16
41
1
10
24.523412745175
20
0.777619133698153
30
0
41
1
10
25.3138155980672
20
0.364860278431962
30
0
41
1
10
25.4720052933336
20
0.281628292797819
30
0
41
1
10
25.7868976162712
20
0.115365020953277
30
0
41
1
10
25.9439010915146
20
0.0321933191671633
30
0
41
1
10
26.4139842418988
20
-0.216679760756136
30
0
41
1
10
26.7261593005925
20
-0.381693387302221
30
0
41
1
10
27.6623232690978
20
-0.867817178433739
30
1E-16
41
1
10
28.2858801921406
20
-1.18012550451729
30
1E-16
41
1
10
29.0757657977499
20
-1.53493991606095
30
1E-16
41
1
10
29.2340522971411
20
-1.60402312962199
30
1E-16
41
1
10
29.5490178101507
20
-1.73689232902609
30
1E-16
41
1
10
29.7060425594871
20
-1.80084833948658
30
1E-16
41
1
10
30.1761729375801
20
-1.98475864469248
30
-1E-16
41
1
10
30.488345574615
20
-2.09673876513116
30
-1E-16
41
1
10
31.424355059219
20
-2.39704453392582
30
-1E-16
41
1
10
32.0476759834633
20
-2.54967341499426
30
-1E-16
41
1
10
32.8370620154614
20
-2.6689527575933
30
1E-16
41
1
10
32.9954159024346
20
-2.68920785312659
30
1E-16
41
1
10
33.3104460820507
20
-2.7220571151845
30
0
41
1
10
33.4674914707063
20
-2.73471507736775
30
0
41
1
10
33.8102478010311
20
-2.75418735944203
30
0
41
1
10
33.9958250217703
20
-2.75946674312124
30
0
41
1
10
34.1811751112659
20
-2.75949246790054
30
0
0
SPLINE
5
E3
100
AcDbEntity
8
1
62
256
6
ByLayer
370
18
48
1
60
0
100
AcDbSpline
70
4
71
3
72
8
73
4
40
0
40
0
40
0
40
0
40
1
40
1
40
1
40
1
41
1
10
67.7740285160639
20
-0.839042260704588
30
0
41
1
10
67.8497564302907
20
-0.625776937328936
30
0
41
1
10
67.9237390645625
20
-0.411883803594009
30
0
41
1
10
67.9959536182543
20
-0.19735465768187
30
0
0
SPLINE
5
E4
100
AcDbEntity
8
1
62
256
6
ByLayer
370
18
48
1
60
0
100
AcDbSpline
70
4
71
3
72
38
73
34
40
0
40
0
40
0
40
0
40
0.180517701660138
40
0.180517701660138
40
0.206126523483258
40
0.206126523483258
40
0.231735345306379
40
0.231735345306379
40
0.282952988952619
40
0.282952988952619
40
0.385388276245101
40
0.385388276245101
40
0.410997098068222
40
0.410997098068222
40
0.436605919891343
40
0.436605919891343
40
0.487823563537585
40
0.487823563537585
40
0.590258850830067
40
0.590258850830067
40
0.641476494476307
40
0.641476494476307
40
0.667085316299428
40
0.667085316299428
40
0.692694138122548
40
0.692694138122548
40
0.795129425415032
40
0.795129425415032
40
0.846347069061274
40
0.846347069061274
40
0.897564712707516
40
0.897564712707516
40
1
40
1
40
1
40
1
41
1
10
50.6084609323203
20
2.76973768142705
30
0
41
1
10
51.5884694399833
20
2.76951314731571
30
0
41
1
10
52.553651405547
20
2.62178078197672
30
0
41
1
10
53.6769085443228
20
2.30258644884449
30
1E-16
41
1
10
53.8171209366426
20
2.26018910272543
30
1E-16
41
1
10
54.0965624997551
20
2.17085449664378
30
1E-16
41
1
10
54.2358713992209
20
2.12390700556261
30
1E-16
41
1
10
54.6528740819456
20
1.97669349339102
30
1E-16
41
1
10
54.9296461008902
20
1.87005578057608
30
-1E-16
41
1
10
55.758752398302
20
1.52851359142258
30
-1E-16
41
1
10
56.3098600504661
20
1.27196784397168
30
-1E-16
41
1
10
57.0040803566598
20
0.927070475366179
30
-1E-16
41
1
10
57.1431948514899
20
0.856887033376722
30
-1E-16
41
1
10
57.4221599038377
20
0.7144309118477
30
0
41
1
10
57.5623025403848
20
0.642005458972278
30
0
41
1
10
57.9816589438979
20
0.423366707612217
30
0
41
1
10
58.259541779282
20
0.275911341073424
30
0
41
1
10
59.0904852776891
20
-0.16701602717751
30
0
41
1
10
59.6409805666027
20
-0.462765515004349
30
0
41
1
10
60.4711039500097
20
-0.888902604252877
30
1E-16
41
1
10
60.7484864445003
20
-1.02814071586269
30
1E-16
41
1
10
61.166691321775
20
-1.23066579782838
30
1E-16
41
1
10
61.306711895603
20
-1.29723641477193
30
1E-16
41
1
10
61.5863615916306
20
-1.42727110940459
30
1E-16
41
1
10
61.7257602848919
20
-1.49063288421198
30
1E-16
41
1
10
62.4211225571018
20
-1.79848699737531
30
1E-16
41
1
10
62.9721649628485
20
-2.01609438260527
30
-1E-16
41
1
10
63.8004104921043
20
-2.28714793855482
30
-1E-16
41
1
10
64.0767755669992
20
-2.36828759602204
30
-1E-16
41
1
10
64.6315625958645
20
-2.51033414820898
30
-1E-16
41
1
10
64.9103399018569
20
-2.57131294968485
30
-1E-16
41
1
10
65.7497950830309
20
-2.72067059968046
30
-1E-16
41
1
10
66.3055794050705
20
-2.77406696389818
30
0
41
1
10
66.8637923318101
20
-2.77951434623802
30
0
0
SPLINE
5
E5
100
AcDbEntity
8
1
62
256
6
ByLayer
370
18
48
1
60
0
100
AcDbSpline
70
4
71
3
72
18
73
14
40
0
40
0
40
0
40
0
40
0.234507190495487
40
0.234507190495487
40
0.429962281160617
40
0.429962281160617
40
0.627139146206785
40
0.627139146206785
40
0.799079425786119
40
0.799079425786119
40
0.96519893721205
40
0.96519893721205
40
1
40
1
40
1
40
1
41
1
10
67.0028516245908
20
-2.6169487063639
30
0
41
1
10
67.0029567971175
20
-2.61712113178493
30
0
41
1
10
67.003004119899
20
-2.61747766890167
30
0
41
1
10
67.0029535517356
20
-2.61848809760303
30
0
41
1
10
67.0028771100782
20
-2.61909604562388
30
0
41
1
10
67.0026092777582
20
-2.62056334829563
30
0
41
1
10
67.0024117415805
20
-2.62144973675575
30
0
41
1
10
67.0019527846717
20
-2.62323550190462
30
0
41
1
10
67.0016966141313
20
-2.62414254170142
30
0
41
1
10
67.0011566302625
20
-2.62591351799244
30
0
41
1
10
67.0008676846432
20
-2.62679936046615
30
0
41
1
10
67.0005156459743
20
-2.62781851559225
30
0
41
1
10
67.0004538581078
20
-2.62799523861608
30
0
41
1
10
67.0003919807983
20
-2.62817014647033
30
0
0
SPLINE
5
E6
100
AcDbEntity
8
1
62
256
6
ByLayer
370
18
48
1
60
0
100
AcDbSpline
70
4
71
3
72
8
73
4
40
0
40
0
40
0
40
0
40
1
40
1
40
1
40
1
41
1
10
66.8524578126211
20
2.74449030341614
30
0
41
1
10
66.8567273725219
20
2.76540467566986
30
0
41
1
10
66.8604594907244
20
2.77724062356546
30
0
41
1
10
66.8637923318101
20
2.77951434623802
30
0
0
SPLINE
5
E7
100
AcDbEntity
8
1
62
256
6
ByLayer
370
18
48
1
60
0
100
AcDbSpline
70
4
71
3
72
16
73
12
40
0
40
0
40
0
40
0
40
0.0965397644248147
40
0.0965397644248147
40
0.322404823318611
40
0.322404823318611
40
0.548269882212407
40
0.548269882212407
40
0.774134941106204
40
0.774134941106204
40
1
40
1
40
1
40
1
41
1
10
66.7484817323697
20
0.544787410694511
30
0
41
1
10
66.7609257880915
20
0.550784769697373
30
0
41
1
10
66.7739986945616
20
0.557207209282609
30
0
41
1
10
66.8198104848047
20
0.579908020242073
30
0
41
1
10
66.8558743810244
20
0.59809964835685
30
0
41
1
10
66.9330407267228
20
0.635065320309621
30
0
41
1
10
66.9743751717457
20
0.653947883671663
30
0
41
1
10
67.0635864701757
20
0.689910753305895
30
0
41
1
10
67.1103339515019
20
0.706375970015728
30
0
41
1
10
67.2069146543269
20
0.733483889544971
30
0
41
1
10
67.2573432887795
20
0.74431110212916
30
0
41
1
10
67.3084330901924
20
0.751379564986678
30
0
0
SPLINE
5
E8
100
AcDbEntity
8
1
62
256
6
ByLayer
370
18
48
1
60
0
100
AcDbSpline
70
4
71
3
72
10
73
6
40
0
40
0
40
0
40
0
40
0.5
40
0.5
40
1
40
1
40
1
40
1
41
1
10
67.0360771905255
20
-2.66498370512355
30
0
41
1
10
67.0252945455752
20
-2.6723717776066
30
0
41
1
10
67.0159045110702
20
-2.67617659232656
30
0
41
1
10
66.9996845909895
20
-2.67663866317207
30
0
41
1
10
66.9928104531251
20
-2.67334193110708
30
0
41
1
10
66.9868030941621
20
-2.66674331010353
30
0
0
SPLINE
5
E9
100
AcDbEntity
8
1
62
256
6
ByLayer
370
18
48
1
60
0
100
AcDbSpline
70
4
71
3
72
8
73
4
40
0
40
0
40
0
40
0
40
1
40
1
40
1
40
1
41
1
10
66.852457812621
20
-2.74449030341611
30
0
41
1
10
66.8567273725218
20
-2.76540467566986
30
0
41
1
10
66.8604594907244
20
-2.77724062356546
30
0
41
1
10
66.8637923318101
20
-2.77951434623802
30
0
0
SPLINE
5
EA
100
AcDbEntity
8
1
62
256
6
ByLayer
370
18
48
1
60
0
100
AcDbSpline
70
4
71
3
72
8
73
4
40
0
40
0
40
0
40
0
40
1
40
1
40
1
40
1
41
1
10
67.3084330901923
20
0.751379564987019
30
0
41
1
10
67.464806500002
20
0.773014404202939
30
0
41
1
10
67.6208226088291
20
0.800415992320751
30
0
41
1
10
67.7740285160634
20
0.839042260704105
30
0
0
SPLINE
5
EB
100
AcDbEntity
8
1
62
256
6
ByLayer
370
18
48
1
60
0
100
AcDbSpline
70
4
71
3
72
8
73
4
40
0
40
0
40
0
40
0
40
1
40
1
40
1
40
1
41
1
10
67.9959536182543
20
0.19735465768187
30
0
41
1
10
67.9807448338802
20
0.145923548504584
30
0
41
1
10
67.9654416426038
20
0.0945226817983666
30
0
41
1
10
67.9500444853501
20
0.0431519163165319
30
0
0
SPLINE
5
EC
100
AcDbEntity
8
1
62
256
6
ByLayer
370
18
48
1
60
0
100
AcDbSpline
70
4
71
3
72
22
73
18
40
0
40
0
40
0
40
0
40
0.111370973435683
40
0.111370973435683
40
0.222741946871367
40
0.222741946871367
40
0.445483893742734
40
0.445483893742734
40
0.668225840614101
40
0.668225840614101
40
0.723911327331942
40
0.723911327331942
40
0.779596814049782
40
0.779596814049782
40
0.890967787485459
40
0.890967787485459
40
1
40
1
40
1
40
1
41
1
10
67.0003919807983
20
-2.62817014647033
30
0
41
1
10
66.7206339795738
20
-2.60912136417107
30
0
41
1
10
66.441401671893
20
-2.57936461676479
30
0
41
1
10
65.8826471107322
20
-2.49696848784132
30
0
41
1
10
65.6029776883221
20
-2.44468289136594
30
-1E-16
41
1
10
64.7622077357838
20
-2.2564610496303
30
-1E-16
41
1
10
64.2084957079775
20
-2.09121456625783
30
-1E-16
41
1
10
63.1022219414301
20
-1.69705528298263
30
1E-16
41
1
10
62.5502939523396
20
-1.4682000623545
30
1E-16
41
1
10
61.8537969455563
20
-1.15334474171127
30
1E-16
41
1
10
61.7141637120608
20
-1.0889534684149
30
1E-16
41
1
10
61.4341768316465
20
-0.957561269086796
30
1E-16
41
1
10
61.293961353668
20
-0.890605190440084
30
1E-16
41
1
10
60.8751570800349
20
-0.687986486897444
30
0
41
1
10
60.5973552941313
20
-0.550114232191078
30
0
41
1
10
60.0489669184234
20
-0.274537151721006
30
0
41
1
10
59.7783744583548
20
-0.136843449386902
30
0
41
1
10
59.5077769959956
20
0.0008136655102362
30
0
0
SPLINE
5
ED
100
AcDbEntity
8
1
62
256
6
ByLayer
370
18
48
1
60
0
100
AcDbSpline
70
4
71
3
72
8
73
4
40
0
40
0
40
0
40
0
40
1
40
1
40
1
40
1
41
1
10
67.4563444356751
20
-0.44920843716605
30
0
41
1
10
67.2952662412385
20
-0.180383897980676
30
0
41
1
10
67.0973797855383
20
0.121880467284996
30
0
41
1
10
66.8579575027582
20
0.461879590618196
30
0
0
SPLINE
5
EE
100
AcDbEntity
8
1
62
256
6
ByLayer
370
18
48
1
60
0
100
AcDbSpline
70
2053
71
3
72
50
73
46
40
0
40
0
40
0
40
0
40
0.062500000000001
40
0.062500000000001
40
0.125000000000002
40
0.125000000000002
40
0.187500000000003
40
0.187500000000003
40
0.250000000000004
40
0.250000000000004
40
0.281250000000004
40
0.281250000000004
40
0.312500000000004
40
0.312500000000004
40
0.343750000000004
40
0.343750000000004
40
0.375000000000004
40
0.375000000000004
40
0.406250000000003
40
0.406250000000003
40
0.437500000000003
40
0.437500000000003
40
0.500000000000003
40
0.500000000000003
40
0.562500000000003
40
0.562500000000003
40
0.625000000000003
40
0.625000000000003
40
0.656250000000003
40
0.656250000000003
40
0.687500000000002
40
0.687500000000002
40
0.718750000000002
40
0.718750000000002
40
0.750000000000002
40
0.750000000000002
40
0.781250000000002
40
0.781250000000002
40
0.812500000000001
40
0.812500000000001
40
0.875000000000001
40
0.875000000000001
40
0.937500000000001
40
0.937500000000001
40
1
40
1
40
1
40
1
41
1
10
67.3025928186385
20
-1.11171258328183
30
0
41
1
10
67.2812737921745
20
-1.13705385631349
30
0
41
1
10
67.2613415016833
20
-1.15369241752424
30
0
41
1
10
67.2233991441869
20
-1.17007684502499
30
1E-16
41
1
10
67.206392412053
20
-1.16935739123196
30
1E-16
41
1
10
67.175421664493
20
-1.14952207309281
30
1E-16
41
1
10
67.1622669669129
20
-1.13093709586357
30
1E-16
41
1
10
67.1402321866539
20
-1.0752556795762
30
1E-16
41
1
10
67.1319414463962
20
-1.03971102611888
30
1E-16
41
1
10
67.124238190893
20
-0.973947163601423
30
1E-16
41
1
10
67.12258097963
20
-0.950714010769019
30
1E-16
41
1
10
67.1212100109202
20
-0.901592943790888
30
1E-16
41
1
10
67.1215167126812
20
-0.87533014037237
30
1E-16
41
1
10
67.1244367695766
20
-0.821644049204195
30
1E-16
41
1
10
67.1270028321348
20
-0.794523662458545
30
0
41
1
10
67.1346144076866
20
-0.739735579795877
30
0
41
1
10
67.1397064967605
20
-0.712095261832218
30
0
41
1
10
67.1520428657908
20
-0.659511105735362
30
0
41
1
10
67.1594491532089
20
-0.633842668655006
30
0
41
1
10
67.1761318824555
20
-0.586078894811408
30
0
41
1
10
67.1853362231788
20
-0.564054768067109
30
0
41
1
10
67.2154612441036
20
-0.503168290855086
30
0
41
1
10
67.2381904408905
20
-0.471141348278167
30
0
41
1
10
67.2849149077763
20
-0.424745017227821
30
0
41
1
10
67.3090469057142
20
-0.410188705454175
30
0
41
1
10
67.3552018417243
20
-0.397605779338079
30
0
41
1
10
67.3776486213247
20
-0.399485593493864
30
0
41
1
10
67.4075511377297
20
-0.41429877724687
30
0
41
1
10
67.4169092490225
20
-0.421203508680065
30
0
41
1
10
67.4342245594877
20
-0.439207455640087
30
0
41
1
10
67.4422347413183
20
-0.450443881251829
30
0
41
1
10
67.456024486963
20
-0.476835252902731
30
0
41
1
10
67.4618724958116
20
-0.492004808187943
30
0
41
1
10
67.4711624817266
20
-0.526806345755915
30
0
41
1
10
67.4745511816174
20
-0.546440660730951
30
0
41
1
10
67.4782822741017
20
-0.588907224459518
30
0
41
1
10
67.4786642440426
20
-0.612267268405049
30
0
41
1
10
67.4762034420738
20
-0.661416466226399
30
0
41
1
10
67.4734204760142
20
-0.686943468570576
30
0
41
1
10
67.4604802512538
20
-0.766529023922971
30
0
41
1
10
67.4457321435825
20
-0.822046928237853
30
1E-16
41
1
10
67.4099616278407
20
-0.92460833248947
30
-1E-16
41
1
10
67.3889493225971
20
-0.97211981288396
30
-1E-16
41
1
10
67.3459877635293
20
-1.05281986307506
30
0
41
1
10
67.3239118451024
20
-1.08637131025017
30
0
41
1
10
67.3025928186385
20
-1.11171258328183
30
0
0
SPLINE
5
EF
100
AcDbEntity
8
1
62
256
6
ByLayer
370
18
48
1
60
0
100
AcDbSpline
70
4
71
3
72
8
73
4
40
0
40
0
40
0
40
0
40
1
40
1
40
1
40
1
41
1
10
40.2914141055565
20
2.6271110209052
30
0
41
1
10
40.3112542053003
20
2.62648648235719
30
0
41
1
10
40.3316951656186
20
2.62762946001422
30
0
41
1
10
40.3494909684022
20
2.63057766296697
30
-1E-16
0
SPLINE
5
F0
100
AcDbEntity
8
1
62
256
6
ByLayer
370
18
48
1
60
0
100
AcDbSpline
70
4
71
3
72
8
73
4
40
0
40
0
40
0
40
0
40
1
40
1
40
1
40
1
41
1
10
40.2
20
1.10883917737223
30
-1E-16
41
1
10
40.2
20
1.10616377324288
30
-1E-16
41
1
10
40.2
20
1.10297150099851
30
-1E-16
41
1
10
40.2
20
1.09926661785562
30
-1E-16
0
SPLINE
5
F1
100
AcDbEntity
8
1
62
256
6
ByLayer
370
18
48
1
60
0
100
AcDbSpline
70
4
71
3
72
18
73
14
40
0
40
0
40
0
40
0
40
0.0199417877521232
40
0.0199417877521232
40
0.183284823126769
40
0.183284823126769
40
0.346627858501416
40
0.346627858501416
40
0.673313929250708
40
0.673313929250708
40
0.836656964625354
40
0.836656964625354
40
1
40
1
40
1
40
1
41
1
10
40.3027775713175
20
2.62503864723382
30
0
41
1
10
40.3027748621471
20
2.62503122281277
30
0
41
1
10
40.3027721272165
20
2.6248432887208
30
0
41
1
10
40.3027467653544
20
2.621453844131
30
0
41
1
10
40.3027223565715
20
2.60625351675978
30
0
41
1
10
40.3026711821647
20
2.55233336410376
30
0
41
1
10
40.3026442717377
20
2.51354989122848
30
0
41
1
10
40.3025598719623
20
2.36258856415176
30
1E-16
41
1
10
40.3024993556287
20
2.21645828986445
30
1E-16
41
1
10
40.3024012158912
20
1.94000152008363
30
1E-16
41
1
10
40.3023673415737
20
1.83866737236045
30
1E-16
41
1
10
40.302296639998
20
1.61965524585605
30
-1E-16
41
1
10
40.3022600949107
20
1.50288597444666
30
-1E-16
41
1
10
40.3022216599504
20
1.37881394572798
30
-1E-16
0
SPLINE
5
F2
100
AcDbEntity
8
1
62
256
6
ByLayer
370
18
48
1
60
0
100
AcDbSpline
70
4
71
3
72
22
73
18
40
0
40
0
40
0
40
0
40
0.151357596899361
40
0.151357596899361
40
0.302715193798723
40
0.302715193798723
40
0.454072790698084
40
0.454072790698084
40
0.605430387597445
40
0.605430387597445
40
0.681109186047126
40
0.681109186047126
40
0.756787984496806
40
0.756787984496806
40
0.90814558139615
40
0.90814558139615
40
1
40
1
40
1
40
1
41
1
10
67.9500444853501
20
0.0431519163165603
30
0
41
1
10
67.9351056018494
20
-0.0066898738420491
30
0
41
1
10
67.9181220437433
20
-0.0555106996597488
30
0
41
1
10
67.8800571264114
20
-0.151032862265424
30
0
41
1
10
67.8587012398077
20
-0.198175459384544
30
0
41
1
10
67.8140162105289
20
-0.28498298600644
30
0
41
1
10
67.7904525132836
20
-0.325335928423044
30
0
41
1
10
67.7410937237485
20
-0.398446420350496
30
0
41
1
10
67.7165444694157
20
-0.429382433057754
30
0
41
1
10
67.6798605363659
20
-0.46725979780939
30
0
41
1
10
67.6675606888268
20
-0.47850557168519
30
0
41
1
10
67.6437248765625
20
-0.497347257864846
30
0
41
1
10
67.6321219447304
20
-0.505034664880611
30
0
41
1
10
67.5981349718149
20
-0.523066498960304
30
0
41
1
10
67.5764550509419
20
-0.528248315854881
30
0
41
1
10
67.5446604631065
20
-0.525995676623324
30
0
41
1
10
67.5331646793414
20
-0.522732779290124
30
0
41
1
10
67.5222623216117
20
-0.517323637839468
30
0
0
SPLINE
5
F3
100
AcDbEntity
8
1
62
256
6
ByLayer
370
18
48
1
60
0
100
AcDbSpline
70
4
71
3
72
8
73
4
40
0
40
0
40
0
40
0
40
1
40
1
40
1
40
1
41
1
10
67.4833130998074
20
-0.486506425647093
30
0
41
1
10
67.4738110606558
20
-0.475902037266991
30
0
41
1
10
67.4648575809096
20
-0.46341608552413
30
0
41
1
10
67.456344435675
20
-0.44920843716605
30
0
0
SPLINE
5
F4
100
AcDbEntity
8
1
62
256
6
ByLayer
370
18
48
1
60
0
100
AcDbSpline
70
4
71
3
72
32
73
28
40
0
40
0
40
0
40
0
40
0.053551539709903
40
0.053551539709903
40
0.107103079419806
40
0.107103079419806
40
0.214206158839614
40
0.214206158839614
40
0.321309238259422
40
0.321309238259422
40
0.374860777969327
40
0.374860777969327
40
0.428412317679233
40
0.428412317679233
40
0.535515397099041
40
0.535515397099041
40
0.589066936808945
40
0.589066936808945
40
0.642618476518849
40
0.642618476518849
40
0.749721555938657
40
0.749721555938657
40
0.803273095648562
40
0.803273095648562
40
0.856824635358467
40
0.856824635358467
40
1
40
1
40
1
40
1
41
1
10
66.8524578126252
20
-2.74449030341486
30
0
41
1
10
66.5740870710875
20
-2.72060219908499
30
-1E-16
41
1
10
66.2961804820274
20
-2.68497015250529
30
1E-16
41
1
10
65.7398120503842
20
-2.59112197627795
30
-1E-16
41
1
10
65.4610785050873
20
-2.53282826877555
30
-1E-16
41
1
10
64.6237409646332
20
-2.32565596715312
30
-1E-16
41
1
10
64.0724631830504
20
-2.14653061333948
30
-1E-16
41
1
10
62.9703965510945
20
-1.72459116453575
30
1E-16
41
1
10
62.4203402584532
20
-1.48073353661869
30
1E-16
41
1
10
61.586365748195
20
-1.08074544009921
30
1E-16
41
1
10
61.3064099599536
20
-0.94103153229122
30
1E-16
41
1
10
60.7511271842389
20
-0.657224724507131
30
0
41
1
10
60.4747659110375
20
-0.512671238815869
30
0
41
1
10
59.647356671257
20
-0.0752099095242045
30
0
41
1
10
59.0980350044965
20
0.221599798299792
30
0
41
1
10
58.267925934821
20
0.65625467547116
30
0
41
1
10
57.9902701167658
20
0.799633289005556
30
0
41
1
10
57.431596675561
20
1.07984796812227
30
-1E-16
41
1
10
57.1539557850504
20
1.21488428383051
30
-1E-16
41
1
10
56.3238279662658
20
1.60139091988006
30
-1E-16
41
1
10
55.774371670584
20
1.83460866176514
30
-1E-16
41
1
10
54.946796986811
20
2.13395624137556
30
1E-16
41
1
10
54.6703189409586
20
2.22526899834924
30
1E-16
41
1
10
54.1146917811085
20
2.38895111815603
30
1E-16
41
1
10
53.8346304895881
20
2.46156876930047
30
1E-16
41
1
10
52.8135009797826
20
2.68630924045635
30
1E-16
41
1
10
52.080030993532
20
2.76995945861361
30
0
41
1
10
51.3418467109839
20
2.7701296238412
30
0
0
SPLINE
5
F5
100
AcDbEntity
8
1
62
256
6
ByLayer
370
18
48
1
60
0
100
AcDbSpline
70
4
71
3
72
36
73
32
40
0
40
0
40
0
40
0
40
0.0417862655109184
40
0.0417862655109184
40
0.137078760321221
40
0.137078760321221
40
0.232371255131525
40
0.232371255131525
40
0.327663749941828
40
0.327663749941828
40
0.42295624475213
40
0.42295624475213
40
0.470602492157284
40
0.470602492157284
40
0.518248739562437
40
0.518248739562437
40
0.613541234372748
40
0.613541234372748
40
0.661187481777903
40
0.661187481777903
40
0.708833729183058
40
0.708833729183058
40
0.756479976588214
40
0.756479976588214
40
0.804126223993369
40
0.804126223993369
40
0.899418718803684
40
0.899418718803684
40
0.994711213613998
40
0.994711213613998
40
1
40
1
40
1
40
1
41
1
10
50.5619398060285
20
-0.221535299702509
30
0
41
1
10
50.4420456209924
20
-0.16089716462983
30
0
41
1
10
50.3222554823002
20
-0.100244165065391
30
0
41
1
10
49.929181934113
20
0.0979405258084967
30
0
41
1
10
49.6561122953075
20
0.235096472556279
30
0
41
1
10
49.1105753399477
20
0.508164753527552
30
0
41
1
10
48.8377721989463
20
0.64351377355041
30
0
41
1
10
48.2902557305011
20
0.908206814831345
30
-1E-16
41
1
10
48.0155545190141
20
1.03760321701796
30
-1E-16
41
1
10
47.4627634501689
20
1.2876709453231
30
-1E-16
41
1
10
47.1869476052057
20
1.40757746335697
30
-1E-16
41
1
10
46.7764439689599
20
1.5767438752201
30
-1E-16
41
1
10
46.6400247795436
20
1.63138907850666
30
-1E-16
41
1
10
46.3671950949886
20
1.73714948371688
30
-1E-16
41
1
10
46.2307977938322
20
1.78825967094906
30
-1E-16
41
1
10
45.8216741586393
20
1.93605753664832
30
1E-16
41
1
10
45.5490198581967
20
2.02720838351109
30
1E-16
41
1
10
45.1401946440669
20
2.15010627141368
30
1E-16
41
1
10
45.0039478556582
20
2.1887637473192
30
1E-16
41
1
10
44.7309289112807
20
2.26183173117096
30
1E-16
41
1
10
44.5941491784524
20
2.29624910268251
30
1E-16
41
1
10
44.3200374072311
20
2.3605133954764
30
1E-16
41
1
10
44.1827084719829
20
2.39036207819603
30
1E-16
41
1
10
43.9073726565541
20
2.44511519472678
30
0
41
1
10
43.769109482294
20
2.47005881359294
30
0
41
1
10
43.3550895004719
20
2.53657211826317
30
0
41
1
10
43.0806481640259
20
2.56995661283011
30
0
41
1
10
42.5333560358984
20
2.6143528199652
30
0
41
1
10
42.2604648390875
20
2.62551308105904
30
0
41
1
10
41.971949999331
20
2.62717404254067
30
0
41
1
10
41.9567792673117
20
2.62722905095163
30
0
41
1
10
41.9416084697268
20
2.62725154220297
30
0
0
SPLINE
5
F6
100
AcDbEntity
8
1
62
256
6
ByLayer
370
18
48
1
60
0
100
AcDbSpline
70
4
71
3
72
30
73
26
40
0
40
0
40
0
40
0
40
0.0292145425667478
40
0.0292145425667478
40
0.166050581064006
40
0.166050581064006
40
0.20025959068832
40
0.20025959068832
40
0.234468600312634
40
0.234468600312634
40
0.302886619561264
40
0.302886619561264
40
0.439722658058526
40
0.439722658058526
40
0.508140677307157
40
0.508140677307157
40
0.576558696555789
40
0.576558696555789
40
0.644976715804421
40
0.644976715804421
40
0.713394735053053
40
0.713394735053053
40
0.987066812047583
40
0.987066812047583
40
1
40
1
40
1
40
1
41
1
10
59.000485426571
20
-0.123664901027098
30
0
41
1
10
58.8819489931059
20
-0.0628835791281688
30
0
41
1
10
58.7634735502696
20
-0.0020456612385544
30
0
41
1
10
58.0900571479896
20
0.343342311016499
30
0
41
1
10
57.5352146200818
20
0.626720771489602
30
0
41
1
10
56.8345652978835
20
0.96504603766067
30
-1E-16
41
1
10
56.693799482328
20
1.03203446968433
30
-1E-16
41
1
10
56.4128887218627
20
1.16336839968841
30
-1E-16
41
1
10
56.27283994377
20
1.22766676051637
30
-1E-16
41
1
10
55.853645371755
20
1.41593601135531
30
-1E-16
41
1
10
55.575441329755
20
1.53532274304286
30
-1E-16
41
1
10
54.7424803490408
20
1.87152635465782
30
1E-16
41
1
10
54.1892116233281
20
2.06630018441931
30
1E-16
41
1
10
53.353445105717
20
2.30304166045667
30
1E-16
41
1
10
53.0738967565837
20
2.37255903515239
30
1E-16
41
1
10
52.5113821915288
20
2.49124387054039
30
0
41
1
10
52.22999876676
20
2.54004588698504
30
0
41
1
10
51.667331821531
20
2.61499894515532
30
0
41
1
10
51.3861621432365
20
2.64128899378477
30
0
41
1
10
50.8240213453431
20
2.67008123746922
30
0
41
1
10
50.5425159358888
20
2.67260991669991
30
0
41
1
10
49.1444836698018
20
2.62818469038274
30
0
41
1
10
48.0461963020985
20
2.40659746933571
30
1E-16
41
1
10
46.8681980471486
20
2.01714873061823
30
1E-16
41
1
10
46.8150310524718
20
1.99925081223418
30
1E-16
41
1
10
46.7618590796135
20
1.98103713449024
30
1E-16
0
SPLINE
5
F7
100
AcDbEntity
8
1
62
256
6
ByLayer
370
18
48
1
60
0
100
AcDbSpline
70
4
71
3
72
52
73
48
40
0
40
0
40
0
40
0
40
0.0913847473477754
40
0.0913847473477754
40
0.114230934184718
40
0.114230934184718
40
0.137077121021661
40
0.137077121021661
40
0.182769494695545
40
0.182769494695545
40
0.22846186836943
40
0.22846186836943
40
0.274154242043314
40
0.274154242043314
40
0.297000428880255
40
0.297000428880255
40
0.319846615717196
40
0.319846615717196
40
0.365538989391078
40
0.365538989391078
40
0.411231363064961
40
0.411231363064961
40
0.456923736738843
40
0.456923736738843
40
0.502616110412726
40
0.502616110412726
40
0.548308484086608
40
0.548308484086608
40
0.59400085776049
40
0.59400085776049
40
0.639693231434373
40
0.639693231434373
40
0.685385605108255
40
0.685385605108255
40
0.731077978782137
40
0.731077978782137
40
0.77677035245602
40
0.77677035245602
40
0.822462726129902
40
0.822462726129902
40
0.913847473477667
40
0.913847473477667
40
0.936693660314609
40
0.936693660314609
40
0.959539847151552
40
0.959539847151552
40
1
40
1
40
1
40
1
41
1
10
40.3494909684022
20
2.63057766296697
30
-1E-16
41
1
10
40.8995242524554
20
2.72170082115693
30
1E-16
41
1
10
41.4492555051045
20
2.76583012031071
30
0
41
1
10
42.139224735595
20
2.76395056779762
30
0
41
1
10
42.2775316763973
20
2.76067120929596
30
0
41
1
10
42.5528609402003
20
2.74827333581967
30
0
41
1
10
42.6900522080156
20
2.73915867335108
30
0
41
1
10
43.101036063268
20
2.70340124817011
30
-1E-16
41
1
10
43.373968250077
20
2.66828749339922
30
-1E-16
41
1
10
43.919297226162
20
2.57681970982455
30
1E-16
41
1
10
44.191732556645
20
2.52052429816737
30
1E-16
41
1
10
44.7369190682661
20
2.38743473932823
30
1E-16
41
1
10
45.0092733811967
20
2.31017440540211
30
1E-16
41
1
10
45.4198764294828
20
2.18033317667531
30
1E-16
41
1
10
45.5571507643903
20
2.1348273170112
30
1E-16
41
1
10
45.8324431901247
20
2.0392755588673
30
1E-16
41
1
10
45.9707403645793
20
1.98911914316474
30
1E-16
41
1
10
46.3844560799627
20
1.83258861763142
30
-1E-16
41
1
10
46.6580289418915
20
1.71973468105702
30
-1E-16
41
1
10
47.2041716789327
20
1.48248069911287
30
-1E-16
41
1
10
47.476970369052
20
1.35852482482687
30
-1E-16
41
1
10
48.0219133541654
20
1.10001649980839
30
-1E-16
41
1
10
48.293918552856
20
0.965177818512473
30
-1E-16
41
1
10
48.83906876536
20
0.687834377231411
30
0
41
1
10
49.1121996229612
20
0.54530575924349
30
0
41
1
10
49.6615327727874
20
0.256128532803928
30
0
41
1
10
49.9388071203
20
0.109762768494505
30
0
41
1
10
50.4880905150017
20
-0.181834334130485
30
0
41
1
10
50.7608068854589
20
-0.328001756231117
30
0
41
1
10
51.3057551833907
20
-0.614562665473102
30
0
41
1
10
51.5782444052576
20
-0.754520676750758
30
0
41
1
10
52.1228675335483
20
-1.02860343780742
30
1E-16
41
1
10
52.394944233546
20
-1.16278842829053
30
1E-16
41
1
10
52.941290793298
20
-1.42058794809879
30
1E-16
41
1
10
53.2158003831093
20
-1.5438290382954
30
1E-16
41
1
10
53.7674107667133
20
-1.77896850361853
30
1E-16
41
1
10
54.0421380426509
20
-1.88991830181831
30
1E-16
41
1
10
54.5891414684372
20
-2.09301538108849
30
-1E-16
41
1
10
54.8620762548462
20
-2.18536372460073
30
-1E-16
41
1
10
55.6791838238337
20
-2.43543316698646
30
-1E-16
41
1
10
56.2216359052559
20
-2.56554405295824
30
-1E-16
41
1
10
56.9068823084461
20
-2.67291785709153
30
1E-16
41
1
10
57.0442960099647
20
-2.6916561477812
30
1E-16
41
1
10
57.3198780711346
20
-2.72359567720423
30
-1E-16
41
1
10
57.4581572196909
20
-2.73679928203922
30
0
41
1
10
57.8392478060705
20
-2.76532801626388
30
0
41
1
10
58.0811914864449
20
-2.7744716823226
30
0
41
1
10
58.3228640521632
20
-2.77457870310056
30
0
0
SPLINE
5
F8
100
AcDbEntity
8
1
62
256
6
ByLayer
370
18
48
1
60
0
100
AcDbSpline
70
4
71
3
72
10
73
6
40
0
40
0
40
0
40
0
40
0.568256630673968
40
0.568256630673968
40
1
40
1
40
1
40
1
41
1
10
12.940124647575
20
-1.57023065175588
30
0
41
1
10
12.0404371722371
20
-1.76556175553873
30
0
41
1
10
11.1470888106377
20
-1.96016855050462
30
0
41
1
10
9.58719532247886
20
-2.29596727471648
30
0
41
1
10
8.91723852055907
20
-2.43885416389619
30
0
41
1
10
8.25111806363307
20
-2.57879270937423
30
0
0
SPLINE
5
F9
100
AcDbEntity
8
1
62
256
6
ByLayer
370
18
48
1
60
0
100
AcDbSpline
70
4
71
3
72
18
73
14
40
0
40
0
40
0
40
0
40
0.259784977956308
40
0.259784977956308
40
0.389677466934462
40
0.389677466934462
40
0.519569955912616
40
0.519569955912616
40
0.779354933868924
40
0.779354933868924
40
0.909247422847069
40
0.909247422847069
40
1
40
1
40
1
40
1
41
1
10
66.857957502758
20
0.461879590618054
30
0
41
1
10
66.8203337987162
20
0.495231163374797
30
0
41
1
10
66.7837913886834
20
0.526829770350048
30
0
41
1
10
66.7325957338311
20
0.569533075937102
30
0
41
1
10
66.7160918795916
20
0.583019989822475
30
0
41
1
10
66.683795757116
20
0.609046258327851
30
0
41
1
10
66.6679697565912
20
0.621630531401223
30
0
41
1
10
66.6225305719836
20
0.656668429448104
30
0
41
1
10
66.5949224190726
20
0.676314989714314
30
0
41
1
10
66.5617429938693
20
0.696088228934372
30
0
41
1
10
66.5518139684522
20
0.701323597017506
30
0
41
1
10
66.5358267662165
20
0.709162961330009
30
0
41
1
10
66.5298030149317
20
0.71174121097593
30
0
41
1
10
66.5247415230624
20
0.713261439427953
30
0
0
SPLINE
5
FA
100
AcDbEntity
8
1
62
256
6
ByLayer
370
18
48
1
60
0
100
AcDbSpline
70
4
71
3
72
16
73
12
40
0
40
0
40
0
40
0
40
0.24342574568481
40
0.24342574568481
40
0.48685149136962
40
0.48685149136962
40
0.73027723705443
40
0.73027723705443
40
0.973702982739241
40
0.973702982739241
40
1
40
1
40
1
40
1
41
1
10
10.0990619963328
20
-0.230687345785839
30
0
41
1
10
10.7326392705249
20
-0.563753875046302
30
0
41
1
10
11.3572866323339
20
-0.8870734305535
30
1E-16
41
1
10
12.6067498526507
20
-1.48214064179874
30
1E-16
41
1
10
13.2313356333522
20
-1.75429732839504
30
1E-16
41
1
10
14.4981180216759
20
-2.21703435754264
30
-1E-16
41
1
10
15.1228271566508
20
-2.40097404284288
30
-1E-16
41
1
10
16.3719778133408
20
-2.65918610111464
30
1E-16
41
1
10
16.9964330096382
20
-2.73357585770958
30
0
41
1
10
17.6980553839688
20
-2.74850493469339
30
0
41
1
10
17.7663614404449
20
-2.74924465247631
30
0
41
1
10
17.8345781461948
20
-2.74927472114396
30
0
0
SPLINE
5
FB
100
AcDbEntity
8
1
62
256
6
ByLayer
370
18
48
1
60
0
100
AcDbSpline
70
4
71
3
72
26
73
22
40
0
40
0
40
0
40
0
40
0.0521325927295228
40
0.0521325927295228
40
0.24170607418361
40
0.24170607418361
40
0.289099444547133
40
0.289099444547133
40
0.336492814910657
40
0.336492814910657
40
0.431279555637707
40
0.431279555637707
40
0.620853037091807
40
0.620853037091807
40
0.668246407455329
40
0.668246407455329
40
0.715639777818852
40
0.715639777818852
40
0.8104265185459
40
0.8104265185459
40
1
40
1
40
1
40
1
41
1
10
30.2852114793557
20
2.02110166996533
30
1E-16
41
1
10
30.4570947472537
20
2.0831356761
30
1E-16
41
1
10
30.6287473747583
20
2.14178475155089
30
1E-16
41
1
10
31.424355059219
20
2.39704453392582
30
1E-16
41
1
10
32.0476759834631
20
2.54967341499429
30
1E-16
41
1
10
32.8370620154614
20
2.6689527575933
30
-1E-16
41
1
10
32.9954159024346
20
2.68920785312659
30
-1E-16
41
1
10
33.3104460820507
20
2.7220571151845
30
0
41
1
10
33.4674914707064
20
2.73471507736775
30
0
41
1
10
33.9376655804087
20
2.76142607313395
30
0
41
1
10
34.2498249392988
20
2.76421741106995
30
0
41
1
10
35.1856943563128
20
2.72805395084205
30
1E-16
41
1
10
35.8087996524891
20
2.64449085915865
30
-1E-16
41
1
10
36.5977017397375
20
2.46845393932674
30
1E-16
41
1
10
36.7560912531074
20
2.42963296724025
30
1E-16
41
1
10
37.0711793817127
20
2.345809759529
30
1E-16
41
1
10
37.2282471362664
20
2.30073339315609
30
1E-16
41
1
10
37.6984677649975
20
2.1566126887281
30
1E-16
41
1
10
38.0106105433953
20
2.04864368810277
30
1E-16
41
1
10
38.9463449873458
20
1.69368178837908
30
-1E-16
41
1
10
39.5692266371317
20
1.41556797137969
30
-1E-16
41
1
10
40.2000000000137
20
1.10883917736621
30
-1E-16
0
SPLINE
5
FC
100
AcDbEntity
8
SK1
62
256
6
ByLayer
370
18
48
1
60
0
100
AcDbSpline
70
4
71
3
72
8
73
4
40
0
40
0
40
0
40
0
40
1
40
1
40
1
40
1
41
1
10
-35.75
20
1.38323734592007
30
-1E-16
41
1
10
-35.7837021652593
20
1.37235428579382
30
-1E-16
41
1
10
-35.8173584574932
20
1.36145823449178
30
-1E-16
41
1
10
-35.8509618943233
20
1.35054721461429
30
-1E-16
0
SPLINE
5
FD
100
AcDbEntity
8
SK1
62
256
6
ByLayer
370
18
48
1
60
0
100
AcDbSpline
70
4
71
3
72
8
73
4
40
0
40
0
40
0
40
0
40
1
40
1
40
1
40
1
41
1
10
-35.8509618943233
20
0.0777397401577389
30
0
41
1
10
-35.8173582120792
20
0.066828640594423
30
0
41
1
10
-35.7837019304652
20
0.0559325931588148
30
0
41
1
10
-35.7499999999999
20
0.0450496088519401
30
0
0
SPLINE
5
FE
100
AcDbEntity
8
SK1
62
256
6
ByLayer
370
18
48
1
60
0
100
AcDbSpline
70
4
71
3
72
8
73
4
40
0
40
0
40
0
40
0
40
1
40
1
40
1
40
1
41
1
10
-36.0000000000001
20
1.47507721676115
30
-1E-16
41
1
10
-35.9478735570755
20
1.44383690944039
30
-1E-16
41
1
10
-35.897619057052
20
1.4034580187745
30
-1E-16
41
1
10
-35.8509618943233
20
1.35054721461429
30
-1E-16
0
SPLINE
5
FF
100
AcDbEntity
8
SK1
62
256
6
ByLayer
370
18
48
1
60
0
100
AcDbSpline
70
4
71
3
72
8
73
4
40
0
40
0
40
0
40
0
40
1
40
1
40
1
40
1
41
1
10
-35.8509618943233
20
-0.0777397401577389
30
0
41
1
10
-35.8173582120791
20
-0.066828640594423
30
0
41
1
10
-35.7837019304652
20
-0.0559325931588148
30
0
41
1
10
-35.7499999999999
20
-0.0450496088519401
30
0
0
SPLINE
5
100
100
AcDbEntity
8
SK1
62
256
6
ByLayer
370
18
48
1
60
0
100
AcDbSpline
70
4
71
3
72
8
73
4
40
0
40
0
40
0
40
0
40
1
40
1
40
1
40
1
41
1
10
-35.75
20
0.0450496088520538
30
0
41
1
10
-35.7274969154824
20
0.0377829415638473
30
0
41
1
10
-35.7061892893376
20
0.0232803106111987
30
0
41
1
10
-35.6883036415026
20
0.0027507791504036
30
0
0
SPLINE
5
101
100
AcDbEntity
8
SK1
62
256
6
ByLayer
370
18
48
1
60
0
100
AcDbSpline
70
4
71
3
72
10
73
6
40
0
40
0
40
0
40
0
40
0.5
40
0.5
40
1
40
1
40
1
40
1
41
1
10
-35.8509618943233
20
0.0777397401577389
30
0
41
1
10
-35.8741904300927
20
0.128016826455905
30
0
41
1
10
-35.8986222732874
20
0.176866322467305
30
0
41
1
10
-35.9485161922248
20
0.270529615616169
30
0
41
1
10
-35.974056478015
20
0.31552497633146
30
0
41
1
10
-35.9999999999999
20
0.35897275825107
30
0
0
SPLINE
5
102
100
AcDbEntity
8
SK1
62
256
6
ByLayer
370
18
48
1
60
0
100
AcDbSpline
70
4
71
3
72
12
73
8
40
0
40
0
40
0
40
0
40
0.5
40
0.5
40
0.75
40
0.75
40
1
40
1
40
1
40
1
41
1
10
-35.75
20
-0.0450496088520538
30
0
41
1
10
-35.7259913046562
20
-0.0372967516403833
30
0
41
1
10
-35.7033433879313
20
-0.0213072674860371
30
0
41
1
10
-35.6754686754417
20
0.0128293795974628
30
0
41
1
10
-35.667025596347
20
0.0262415688185627
30
0
41
1
10
-35.6543350076412
20
0.0566195955588285
30
0
41
1
10
-35.65
20
0.0740989656808608
30
0
41
1
10
-35.65
20
0.091638071432584
30
0
0
SPLINE
5
103
100
AcDbEntity
8
SK1
62
256
6
ByLayer
370
18
48
1
60
0
100
AcDbSpline
70
4
71
3
72
10
73
6
40
0
40
0
40
0
40
0
40
0.5
40
0.5
40
1
40
1
40
1
40
1
41
1
10
-35.8509618943233
20
-0.0777397401577389
30
0
41
1
10
-35.8741904300927
20
-0.128016826455905
30
0
41
1
10
-35.8986222732874
20
-0.176866322467276
30
0
41
1
10
-35.9485161922248
20
-0.270529615616169
30
0
41
1
10
-35.974056478015
20
-0.31552497633146
30
0
41
1
10
-35.9999999999999
20
-0.35897275825107
30
0
0
SPLINE
5
104
100
AcDbEntity
8
SK1
62
256
6
ByLayer
370
18
48
1
60
0
100
AcDbSpline
70
4
71
3
72
12
73
8
40
0
40
0
40
0
40
0
40
0.25
40
0.25
40
0.5
40
0.5
40
1
40
1
40
1
40
1
41
1
10
-35.65
20
1.32948676556836
30
-1E-16
41
1
10
-35.65
20
1.34416126557625
30
-1E-16
41
1
10
-35.6543403470551
20
1.35610127420247
30
-1E-16
41
1
10
-35.6670034572333
20
1.37370100698294
30
-1E-16
41
1
10
-35.6754069618006
20
1.37974354122002
30
-1E-16
41
1
10
-35.7033744297257
20
1.39135844982377
30
-1E-16
41
1
10
-35.7260009806423
20
1.3909870785748
30
-1E-16
41
1
10
-35.7500000000001
20
1.38323734592018
30
-1E-16
0
SPLINE
5
105
100
AcDbEntity
8
1
62
256
6
ByLayer
370
18
48
1
60
0
100
AcDbSpline
70
4
71
2
72
6
73
3
40
0
40
0
40
0
40
1
40
1
40
1
41
1
10
41.9658093617462
20
2.6272120065712
30
0
41
1
10
41.1343298636216
20
2.63032038436066
30
0
41
1
10
40.3027517068394
20
2.624660013218
30
0
0
SPLINE
5
106
100
AcDbEntity
8
1
62
256
6
ByLayer
370
18
48
1
60
0
100
AcDbSpline
70
4
71
1
72
4
73
2
40
0
40
0
40
1
40
1
41
1
10
59.5096709766569
20
-0.0001520586870072
30
0
41
1
10
59.5096561325123
20
-0.0001391100091155
30
0
0
SPLINE
5
107
100
AcDbEntity
8
1
62
256
6
ByLayer
370
18
48
1
60
0
100
AcDbSpline
70
4
71
1
72
4
73
2
40
0
40
0
40
1
40
1
41
1
10
67.0252159514514
20
-2.67230759527328
30
0
41
1
10
67.0369181764126
20
-2.66442118494348
30
0
0
SPLINE
5
108
100
AcDbEntity
8
1
62
256
6
ByLayer
370
18
48
1
60
0
100
AcDbSpline
70
4
71
3
72
11
73
7
40
0
40
0
40
0
40
0
40
0.0185414080919617
40
0.24721973594591
40
0.574331123144748
40
1
40
1
40
1
40
1
41
1
10
66.5318679911727
20
0.711215670708697
30
0
41
1
10
66.5121019655869
20
0.717766302209412
30
0
41
1
10
66.2486228316421
20
0.805310270082202
30
0
41
1
10
65.6395458144282
20
1.01761951249529
30
-1E-16
41
1
10
64.6032006580959
20
1.39333262774829
30
-1E-16
41
1
10
63.8150097468322
20
1.69898271145016
30
-1E-16
41
1
10
63.3712598107809
20
1.877010279329
30
-1E-16
0
SPLINE
5
109
100
AcDbEntity
8
1
62
256
6
ByLayer
370
18
48
1
60
0
100
AcDbSpline
70
4
71
3
72
26
73
22
40
0
40
0
40
0
40
0
40
3.31201345781E-05
40
7.08277577661E-05
40
0.0001360804869284
40
0.0001944563152592
40
0.0002990950167878
40
0.0008370170155855
40
0.0012637595163222
40
0.002047368534705
40
0.0035154944621425
40
0.0063568353115618
40
0.0121321603619934
40
0.0246857247925058
40
0.0542567070591987
40
0.217025494386074
40
0.422103225781392
40
0.523196882340272
40
0.63336184208323
40
0.803918235917488
40
1
40
1
40
1
40
1
41
1
10
36.0044152473283
20
0.0274655049008175
30
0
41
1
10
36.0044229092821
20
0.0274646116724568
30
0
41
1
10
36.0044314693443
20
0.0274650022262506
30
0
41
1
10
36.0044003421633
20
0.02747964198457
30
0
41
1
10
36.0042371785544
20
0.0275327014413165
30
0
41
1
10
36.003987002119
20
0.0276128286635355
30
0
41
1
10
36.0029472062677
20
0.0279325377210853
30
0
41
1
10
36.0009932149921
20
0.0285047132664147
30
0
41
1
10
35.9980799840696
20
0.0293757434478721
30
0
41
1
10
35.9935100641477
20
0.0307333517859263
30
0
41
1
10
35.9848739887216
20
0.0332994487792746
30
0
41
1
10
35.9676874725401
20
0.0383909615399887
30
0
41
1
10
35.9315268891671
20
0.049076084319438
30
0
41
1
10
35.8493868096641
20
0.0733057407036313
30
0
41
1
10
35.4968690005116
20
0.177685613569935
30
0
41
1
10
34.8130077230455
20
0.386941790024849
30
0
41
1
10
34.0095934766586
20
0.649009897553782
30
0
41
1
10
33.299754744106
20
0.891819191544755
30
-1E-16
41
1
10
32.6509169504796
20
1.1210391052993
30
-1E-16
41
1
10
31.844116737514
20
1.41730481726208
30
-1E-16
41
1
10
31.2280218041241
20
1.65677817437734
30
-1E-16
41
1
10
30.8996816062826
20
1.78804087258385
30
-1E-16
0
SPLINE
5
10A
100
AcDbEntity
8
1
62
256
6
ByLayer
370
18
48
1
60
0
100
AcDbSpline
70
4
71
3
72
26
73
22
40
0
40
0
40
0
40
0
40
2.6156894434E-05
40
0.0001363022907115
40
0.0001734004873897
40
0.0002048454941565
40
0.0004181409641313
40
0.0005873679883874
40
0.0008928598114611
40
0.0014489133026719
40
0.0024754880304499
40
0.0044641294917486
40
0.0097604252052583
40
0.0332357787923553
40
0.12521347279891
40
0.229684462034078
40
0.322288801716836
40
0.404773630104561
40
0.552378939520865
40
0.761701314722974
40
1
40
1
40
1
40
1
41
1
10
52.3463196334088
20
0.0283942229603156
30
0
41
1
10
52.3463204804537
20
0.0283949435913087
30
0
41
1
10
52.3463060502538
20
0.028404173189216
30
0
41
1
10
52.3462471207863
20
0.0284274925778618
30
0
41
1
10
52.3460750539955
20
0.0284823016066582
30
0
41
1
10
52.3456762142714
20
0.0286026234398378
30
0
41
1
10
52.3449594946559
20
0.0288118570231575
30
0
41
1
10
52.3439569845156
20
0.0291132277489226
30
0
41
1
10
52.3423830475189
20
0.0295833719958694
30
0
41
1
10
52.3395279649765
20
0.0304403276092273
30
0
41
1
10
52.3340548542135
20
0.0320882961993618
30
0
41
1
10
52.3211676607302
20
0.0360103814676336
30
0
41
1
10
52.269178249979
20
0.0516163631899076
30
0
41
1
10
52.0609427029492
20
0.113351129241522
30
0
41
1
10
51.6780527243039
20
0.228392205083509
30
0
41
1
10
51.17698552468
20
0.384562211195259
30
0
41
1
10
50.6935258844093
20
0.540263047457785
30
0
41
1
10
50.1370615658184
20
0.724665308013812
30
0
41
1
10
49.3820883011339
20
0.984095213801652
30
-1E-16
41
1
10
48.3648986653922
20
1.3521405490815
30
-1E-16
41
1
10
47.6060557962781
20
1.64564723602732
30
-1E-16
41
1
10
47.2037191984567
20
1.80654691708381
30
-1E-16
0
SPLINE
5
10B
100
AcDbEntity
8
1
62
256
6
ByLayer
370
18
48
1
60
0
100
AcDbSpline
70
4
71
3
72
26
73
22
40
0
40
0
40
0
40
0
40
8.0663328976E-06
40
4.4536294365E-05
40
0.0001035574804253
40
0.0001928424206922
40
0.00026134053671
40
0.0003871392757863
40
0.0011632800544859
40
0.001779540249866
40
0.0028938788965095
40
0.0049279660845098
40
0.0097636052673383
40
0.0296761666017402
40
0.107157125196897
40
0.214763558999878
40
0.340336100815377
40
0.459739415801665
40
0.607738167158874
40
0.798960975577062
40
1
40
1
40
1
40
1
41
1
10
19.3544701294906
20
0.113570738398351
30
0
41
1
10
19.3544723010464
20
0.113571154552147
30
0
41
1
10
19.3544825273935
20
0.113573980851214
30
0
41
1
10
19.3544804539896
20
0.113588272217015
30
0
41
1
10
19.3543897626643
20
0.113637403572085
30
0
41
1
10
19.3542405364316
20
0.113706215133874
30
0
41
1
10
19.3538626750168
20
0.113837642896044
30
0
41
1
10
19.3522308534946
20
0.114319963225597
30
0
41
1
10
19.3500554460438
20
0.115040816891906
30
0
41
1
10
19.3462051290024
20
0.116248043700409
30
0
41
1
10
19.3405049147018
20
0.118047572286059
30
0
41
1
10
19.3284393831208
20
0.121818666628684
30
0
41
1
10
19.2860305249557
20
0.134726204629231
30
0
41
1
10
19.1189389680859
20
0.184998169314156
30
0
41
1
10
18.7827598861705
20
0.288021096653523
30
0
41
1
10
18.2731827310737
20
0.44865456788952
30
0
41
1
10
17.6971533233971
20
0.637099401605269
30
0
41
1
10
17.0568914289222
20
0.854194570711201
30
-1E-16
41
1
10
16.312724819838
20
1.11647832338772
30
-1E-16
41
1
10
15.4404941364392
20
1.4379416045434
30
-1E-16
41
1
10
14.8116511490659
20
1.68288147452492
30
-1E-16
41
1
10
14.4904649201411
20
1.81135654465305
30
-1E-16
0
SPLINE
5
10C
100
AcDbEntity
8
1
62
256
6
ByLayer
370
18
48
1
60
0
100
AcDbSpline
70
4
71
3
72
20
73
16
40
0
40
0
40
0
40
0
40
0.088564001146762
40
0.152514562394926
40
0.205669032737548
40
0.311403230454819
40
0.381046806889182
40
0.427156994331746
40
0.473381875772774
40
0.542703499518561
40
0.646984015871331
40
0.739883667828007
40
0.809192065547926
40
0.897050542475385
40
1
40
1
40
1
40
1
41
1
10
51.331523880039
20
-2.63136887739728
30
0
41
1
10
51.4952943256009
20
-2.63147924850452
30
0
41
1
10
51.7773234634473
20
-2.63168189816338
30
0
41
1
10
52.157655943562
20
-2.63188338368235
30
0
41
1
10
52.5697382878197
20
-2.6323264048967
30
0
41
1
10
52.9923495409543
20
-2.63273178084691
30
0
41
1
10
53.4019317743286
20
-2.63254405193874
30
0
41
1
10
53.7014694188604
20
-2.63265187063308
30
0
41
1
10
54.0004104847929
20
-2.63309278593655
30
0
41
1
10
54.4069229334458
20
-2.63386984825391
30
0
41
1
10
54.8997481351214
20
-2.63332576929679
30
0
41
1
10
55.3925495049031
20
-2.63313045347886
30
0
41
1
10
55.8549813652635
20
-2.63389979970094
30
0
41
1
10
56.3359976092015
20
-2.63468610568395
30
0
41
1
10
56.688847240874
20
-2.63502360684106
30
0
41
1
10
56.8792254233176
20
-2.63485648255795
30
0
0
SPLINE
5
10D
100
AcDbEntity
8
1
62
256
6
ByLayer
370
18
48
1
60
0
100
AcDbSpline
70
4
71
3
72
19
73
15
40
0
40
0
40
0
40
0
40
0.118717043625847
40
0.192071047815434
40
0.306767139939773
40
0.422598488630273
40
0.503844222430746
40
0.608972776280357
40
0.712600589825652
40
0.781488322179052
40
0.827423877186467
40
0.873245456077298
40
0.94245312598328
40
1
40
1
40
1
40
1
41
1
10
58.3204714578249
20
2.6359666721402
30
0
41
1
10
58.0995556742205
20
2.63479781657386
30
0
41
1
10
57.7421369827478
20
2.63365598455749
30
0
41
1
10
57.1712797143893
20
2.63431145325597
30
0
41
1
10
56.6057909862947
20
2.63545931612748
30
0
41
1
10
56.0256169543931
20
2.63402057072338
30
0
41
1
10
55.4632482545927
20
2.6332652231458
30
0
41
1
10
54.9235867358024
20
2.63325365322561
30
0
41
1
10
54.4069229386344
20
2.6338777231488
30
0
41
1
10
54.0004104840686
20
2.63309168667973
30
0
41
1
10
53.7014694190179
20
2.63265210976704
30
0
41
1
10
53.4019317742625
20
2.63254395164182
30
0
41
1
10
53.0807887232668
20
2.63269126322697
30
0
41
1
10
52.8449130020452
20
2.63255618791186
30
0
41
1
10
52.7378248100758
20
2.632469709813
30
0
0
SPLINE
5
10E
100
AcDbEntity
8
1
62
256
6
ByLayer
370
18
48
1
60
0
100
AcDbSpline
70
4
71
3
72
8
73
4
40
0
40
0
40
0
40
0
40
1
40
1
40
1
40
1
41
1
10
51.4426888542145
20
2.63144462495373
30
0
41
1
10
51.405633771238
20
2.63141919680331
30
0
41
1
10
51.3685787835039
20
2.63139385010047
30
0
41
1
10
51.331523880039
20
2.63136887739728
30
0
0
LINE
5
84
100
AcDbEntity
8
1
62
256
6
ByLayer
370
18
48
1
60
0
100
AcDbLine
10
0.438161
20
2.869339
30
0
11
0.438161
21
0
31
0
39
0
210
0
220
0
230
1
0
LINE
5
85
100
AcDbEntity
8
1
62
256
6
ByLayer
370
18
48
1
60
0
100
AcDbLine
10
0.438161
20
0
30
0
11
0.438161
21
-2.869339
31
0
39
0
210
0
220
0
230
1
0
LINE
5
86
100
AcDbEntity
8
1
62
256
6
ByLayer
370
18
48
1
60
0
100
AcDbLine
10
0
20
3
30
0
11
0
21
0
31
0
39
0
210
0
220
0
230
1
0
LINE
5
87
100
AcDbEntity
8
1
62
256
6
ByLayer
370
18
48
1
60
0
100
AcDbLine
10
0
20
0
30
0
11
0
21
-3
31
0
39
0
210
0
220
0
230
1
0
LINE
5
88
100
AcDbEntity
8
1
62
256
6
ByLayer
370
18
48
1
60
0
100
AcDbLine
10
40.202043
20
-2.656113
30
0
11
40.202043
21
-2.763257
31
0
39
0
210
0
220
0
230
1
0
LINE
5
89
100
AcDbEntity
8
1
62
256
6
ByLayer
370
18
48
1
60
0
100
AcDbLine
10
67.950044
20
0.043152
30
0
11
67.308433
21
0.75138
31
0
39
0
210
0
220
0
230
1
0
LINE
5
8A
100
AcDbEntity
8
1
62
256
6
ByLayer
370
18
48
1
60
0
100
AcDbLine
10
40.2
20
1.145775
30
0
11
40.2
21
1.108839
31
0
39
0
210
0
220
0
230
1
0
LINE
5
8B
100
AcDbEntity
8
1
62
256
6
ByLayer
370
18
48
1
60
0
100
AcDbLine
10
40.202043
20
2.763257
30
0
11
40.202043
21
1.537125
31
0
39
0
210
0
220
0
230
1
0
LINE
5
8C
100
AcDbEntity
8
1
62
256
6
ByLayer
370
18
48
1
60
0
100
AcDbLine
10
0.876821
20
2.738679
30
0
11
0.876821
21
0
31
0
39
0
210
0
220
0
230
1
0
LINE
5
8D
100
AcDbEntity
8
1
62
256
6
ByLayer
370
18
48
1
60
0
100
AcDbLine
10
0.876821
20
0
30
0
11
0.876821
21
-2.738679
31
0
39
0
210
0
220
0
230
1
0
LINE
5
8E
100
AcDbEntity
8
SK1
62
256
6
ByLayer
370
18
48
1
60
0
100
AcDbLine
10
-36
20
1.475077
30
0
11
-36
21
2.065
31
0
39
0
210
0
220
0
230
1
0
LINE
5
90
100
AcDbEntity
8
SK1
62
256
6
ByLayer
370
18
48
1
60
0
100
AcDbLine
10
-35.65
20
0.091638
30
0
11
-35.65
21
1.329487
31
0
39
0
210
0
220
0
230
1
0
LINE
5
91
100
AcDbEntity
8
SK1
62
256
6
ByLayer
370
18
48
1
60
0
100
AcDbLine
10
-35.065
20
-3
30
0
11
-35.065
21
3
31
0
39
0
210
0
220
0
230
1
0
LINE
5
92
100
AcDbEntity
8
SK1
62
256
6
ByLayer
370
18
48
1
60
0
100
AcDbLine
10
-35.850962
20
0.07774
30
0
11
-35.850962
21
1.350547
31
0
39
0
210
0
220
0
230
1
0
LINE
5
93
100
AcDbEntity
8
SK1
62
256
6
ByLayer
370
18
48
1
60
0
100
AcDbLine
10
-36
20
-2.065
30
0
11
-36
21
-0.358973
31
0
39
0
210
0
220
0
230
1
0
LINE
5
94
100
AcDbEntity
8
SK1
62
256
6
ByLayer
370
18
48
1
60
0
100
AcDbLine
10
-36
20
0.358973
30
0
11
-36
21
1.475077
31
0
39
0
210
0
220
0
230
1
0
LINE
5
95
100
AcDbEntity
8
SK1
62
256
6
ByLayer
370
18
48
1
60
0
100
AcDbLine
10
-35.75
20
0.04505
30
0
11
-35.75
21
1.383237
31
0
39
0
210
0
220
0
230
1
0
LINE
5
96
100
AcDbEntity
8
SK1
62
256
6
ByLayer
370
18
48
1
60
0
100
AcDbLine
10
0
20
3
30
0
11
0
21
-3
31
0
39
0
210
0
220
0
230
1
0
LINE
5
97
100
AcDbEntity
8
SK1
62
256
6
ByLayer
370
18
48
1
60
0
100
AcDbLine
10
-36
20
-2.065
30
0
11
-35.065
21
-3
31
0
39
0
210
0
220
0
230
1
0
LINE
5
98
100
AcDbEntity
8
SK1
62
256
6
ByLayer
370
18
48
1
60
0
100
AcDbLine
10
-35.065
20
3
30
0
11
-36
21
2.065
31
0
39
0
210
0
220
0
230
1
0
LINE
5
99
100
AcDbEntity
8
SK1
62
256
6
ByLayer
370
18
48
1
60
0
100
AcDbLine
10
-35.065
20
-3
30
0
11
0
21
-3
31
0
39
0
210
0
220
0
230
1
0
LINE
5
9A
100
AcDbEntity
8
SK1
62
256
6
ByLayer
370
18
48
1
60
0
100
AcDbLine
10
0
20
3
30
0
11
-35.065
21
3
31
0
39
0
210
0
220
0
230
1
0
LINE
5
9B
100
AcDbEntity
8
1
62
256
6
ByLayer
370
18
48
1
60
0
100
AcDbLine
10
0.876821
20
-2.738679
30
0
11
10.062074
21
-2.74442
31
0
39
0
210
0
220
0
230
1
0
LINE
5
9C
100
AcDbEntity
8
1
62
256
6
ByLayer
370
18
48
1
60
0
100
AcDbLine
10
17.831448
20
-2.749276
30
0
11
26.393715
21
-2.754627
31
0
39
0
210
0
220
0
230
1
0
LINE
5
9D
100
AcDbEntity
8
1
62
256
6
ByLayer
370
18
48
1
60
0
100
AcDbLine
10
34.177999
20
-2.759492
30
0
11
40.202043
21
-2.763257
31
0
39
0
210
0
220
0
230
1
0
LINE
5
9E
100
AcDbEntity
8
1
62
256
6
ByLayer
370
18
48
1
60
0
100
AcDbLine
10
41.97063
20
-2.764363
30
0
11
42.729741
21
-2.764837
31
0
39
0
210
0
220
0
230
1
0
LINE
5
9F
100
AcDbEntity
8
1
62
256
6
ByLayer
370
18
48
1
60
0
100
AcDbLine
10
50.599334
20
-2.769756
30
0
11
51.335057
21
-2.770216
31
0
39
0
210
0
220
0
230
1
0
LINE
5
A0
100
AcDbEntity
8
1
62
256
6
ByLayer
370
18
48
1
60
0
100
AcDbLine
10
58.32274
20
-2.774583
30
0
11
59.062375
21
-2.775045
31
0
39
0
210
0
220
0
230
1
0
LINE
5
A1
100
AcDbEntity
8
1
62
256
6
ByLayer
370
18
48
1
60
0
100
AcDbLine
10
59.062375
20
2.775045
30
0
11
58.32274
21
2.774583
31
0
39
0
210
0
220
0
230
1
0
LINE
5
A2
100
AcDbEntity
8
1
62
256
6
ByLayer
370
18
48
1
60
0
100
AcDbLine
10
51.335057
20
2.770216
30
0
11
50.599334
21
2.769756
31
0
39
0
210
0
220
0
230
1
0
LINE
5
A3
100
AcDbEntity
8
1
62
256
6
ByLayer
370
18
48
1
60
0
100
AcDbLine
10
42.729741
20
2.764837
30
0
11
41.97063
21
2.764363
31
0
39
0
210
0
220
0
230
1
0
LINE
5
A4
100
AcDbEntity
8
1
62
256
6
ByLayer
370
18
48
1
60
0
100
AcDbLine
10
40.202043
20
2.763257
30
0
11
34.177999
21
2.759492
31
0
39
0
210
0
220
0
230
1
0
LINE
5
A5
100
AcDbEntity
8
1
62
256
6
ByLayer
370
18
48
1
60
0
100
AcDbLine
10
26.393715
20
2.754627
30
0
11
17.831448
21
2.749276
31
0
39
0
210
0
220
0
230
1
0
LINE
5
A6
100
AcDbEntity
8
1
62
256
6
ByLayer
370
18
48
1
60
0
100
AcDbLine
10
10.062074
20
2.74442
30
0
11
0.876821
21
2.738679
31
0
39
0
210
0
220
0
230
1
0
LINE
5
A7
100
AcDbEntity
8
SK4
62
256
6
ByLayer
370
18
48
0.05
60
0
100
AcDbLine
10
73
20
0
30
0
11
-41
21
0
31
0
39
0
210
0
220
0
230
1
0
LINE
5
A9
100
AcDbEntity
8
4
62
256
6
ByLayer
370
18
48
0.05
60
0
100
AcDbLine
10
-36
20
0
30
0
11
73
21
0
31
0
39
0
210
0
220
0
230
1
0
LINE
5
AB
100
AcDbEntity
8
80
62
256
6
ByLayer
370
18
48
1
60
0
100
AcDbLine
10
0
20
0
30
0
11
-6
21
0
31
0
39
0
210
0
220
0
230
1
0
LINE
5
AC
100
AcDbEntity
8
81
62
256
6
ByLayer
370
18
48
1
60
0
100
AcDbLine
10
68
20
0
30
0
11
74
21
0
31
0
39
0
210
0
220
0
230
1
0
LINE
5
AD
100
AcDbEntity
8
SK2
62
256
6
ByLayer
370
13
48
1
60
0
100
AcDbLine
10
68.542939
20
1.491768
30
0
11
75.926059
21
21.77747
31
0
39
0
210
0
220
0
230
1
0
LINE
5
AF
100
AcDbEntity
8
SK2
62
256
6
ByLayer
370
13
48
1
60
0
100
AcDbLine
10
68.542939
20
-1.491768
30
0
11
75.926059
21
-21.77747
31
0
39
0
210
0
220
0
230
1
0
LINE
5
B0
100
AcDbEntity
8
1
62
256
6
ByLayer
370
13
48
1
60
0
100
AcDbLine
10
74.84018
20
18.793933
30
0
11
77.936781
21
17.977598
31
0
39
0
210
0
220
0
230
1
0
LINE
5
B1
100
AcDbEntity
8
1
62
256
6
ByLayer
370
13
48
1
60
0
100
AcDbLine
10
74.84018
20
18.793933
30
0
11
77.619986
21
17.203953
31
0
39
0
210
0
220
0
230
1
0
LINE
5
B2
100
AcDbEntity
8
1
62
256
6
ByLayer
370
13
48
1
60
0
100
AcDbLine
10
77.936781
20
17.977598
30
0
11
77.619986
21
17.203953
31
0
39
0
210
0
220
0
230
1
0
LINE
5
B3
100
AcDbEntity
8
1
62
256
6
ByLayer
370
13
48
1
60
0
100
AcDbLine
10
74.84018
20
-18.793933
30
0
11
77.619983
21
-17.203955
31
0
39
0
210
0
220
0
230
1
0
LINE
5
B4
100
AcDbEntity
8
1
62
256
6
ByLayer
370
13
48
1
60
0
100
AcDbLine
10
74.84018
20
-18.793933
30
0
11
77.936784
21
-17.977597
31
0
39
0
210
0
220
0
230
1
0
LINE
5
B5
100
AcDbEntity
8
1
62
256
6
ByLayer
370
13
48
1
60
0
100
AcDbLine
10
77.619983
20
-17.203955
30
0
11
77.936784
21
-17.977597
31
0
39
0
210
0
220
0
230
1
0
MTEXT
5
10F
100
AcDbEntity
8
SK2
62
256
6
ByLayer
370
18
48
1
60
0
100
AcDbMText
10
81.717388
20
-2.467451
30
0
210
0
220
0
230
1
1
\W0.7237;140.00
40
3.50012
41
0
44
1.084337
50
0
71
7
72
5
7
iso_b_vert
0
MTEXT
5
112
100
AcDbEntity
8
SK6
62
256
6
ByLayer
370
18
48
1
60
0
100
AcDbMText
10
-23.331725
20
-57.774587
30
0
210
0
220
0
230
1
1
\W0.7494;860.1-0556-045A1-GM X1BM
40
3.175
41
0
44
1.084337
50
0
71
7
72
5
7
iso_b_vert
0
DIMENSION
5
115
100
AcDbEntity
8
SK2
62
256
6
ByLayer
370
18
48
1
60
0
100
AcDbDimension
2
_U0
10
68
20
-26.50012
30
0
11
34
21
-26.50012
31
0
70
32
71
2
72
1
41
1
210
0
220
0
230
1
3
Standard
100
AcDbAlignedDimension
13
0
23
-3
33
0
14
68
24
0
34
0
50
0
100
AcDbRotatedDimension
1001
ACAD
1000
DSTYLE
1002
{
1070
   371
1070
    13
1070
   372
1070
    13
1070
     3
1000

1070
   170
1070
     0
1070
   144
1040
1.0
1070
   277
1070
     2
1070
   284
1070
     8
1070
   278
1070
    46
1070
   146
1040
0.999966
1070
   345
1005
16
1070
   347
1005
16
1070
   346
1005
16
1070
   344
1005
116
1070
   343
1005
116
1070
   172
1070
     1
1070
    76
1070
     0
1070
    75
1070
     0
1070
   282
1070
     0
1070
   281
1070
     0
1070
    71
1070
     0
1070
    74
1070
     0
1070
   279
1070
     0
1070
   173
1070
     1
1070
   340
1005
110
1070
   271
1070
     1
1070
   272
1070
     2
1070
    77
1070
     1
1070
    73
1070
     1
1070
   171
1070
     3
1070
   274
1070
     4
1070
   177
1070
   150
1070
   176
1070
     9
1070
   178
1070
    43
1070
    78
1070
     8
1070
    48
1040
-0.1
1070
    41
1040
3.175
1070
   147
1040
1.75006
1070
    42
1040
1.5875
1070
    44
1040
3.175
1070
   140
1040
3.50012
1002
}
1001
ACAD_DSTYLE_DIM_LINETYPE
1070
   380
1005
16
1001
ACAD_DSTYLE_DIM_EXT1_LINETYPE
1070
   381
1005
16
1001
ACAD_DSTYLE_DIM_EXT2_LINETYPE
1070
   382
1005
16
0
DIMENSION
5
13B
100
AcDbEntity
8
2
62
256
6
ByLayer
370
18
48
1
60
0
100
AcDbDimension
2
_U1
10
74.75006
20
2.78
30
0
11
74.75006
21
18.353233
31
0
70
32
71
1
72
1
41
1
210
0
220
0
230
1
3
Standard
100
AcDbAlignedDimension
13
66.9882
23
-2.78
33
0
14
66.9882
24
2.78
34
0
50
90
100
AcDbRotatedDimension
1001
ACAD
1000
DSTYLE
1002
{
1070
   371
1070
    13
1070
   372
1070
    13
1070
     3
1000

1070
   170
1070
     0
1070
   144
1040
1.0
1070
   277
1070
     2
1070
   284
1070
     8
1070
   278
1070
    46
1070
   146
1040
0.999966
1070
   345
1005
16
1070
   347
1005
16
1070
   346
1005
16
1070
   344
1005
116
1070
   343
1005
116
1070
   172
1070
     1
1070
    76
1070
     0
1070
    75
1070
     0
1070
   282
1070
     0
1070
   281
1070
     0
1070
    71
1070
     0
1070
    74
1070
     0
1070
   279
1070
     0
1070
   173
1070
     1
1070
   340
1005
110
1070
   271
1070
     1
1070
   272
1070
     2
1070
    77
1070
     1
1070
    73
1070
     0
1070
   171
1070
     3
1070
   274
1070
     4
1070
   177
1070
   150
1070
   176
1070
     9
1070
   178
1070
    43
1070
    78
1070
     8
1070
    48
1040
-0.1
1070
    41
1040
3.175
1070
   147
1040
1.75006
1070
    42
1040
1.5875
1070
    44
1040
3.175
1070
   140
1040
3.50012
1002
}
1001
ACAD_DSTYLE_DIM_LINETYPE
1070
   380
1005
16
1001
ACAD_DSTYLE_DIM_EXT1_LINETYPE
1070
   381
1005
16
1001
ACAD_DSTYLE_DIM_EXT2_LINETYPE
1070
   382
1005
16
0
DIMENSION
5
15A
100
AcDbEntity
8
SK2
62
256
6
ByLayer
370
18
48
1
60
0
100
AcDbDimension
2
_U2
10
-39.24994
20
-3
30
0
11
-39.24994
21
17.10734
31
0
70
32
71
1
72
1
41
1
210
0
220
0
230
1
3
Standard
100
AcDbAlignedDimension
13
-36
23
3
33
0
14
-36
24
-3
34
0
50
90
100
AcDbRotatedDimension
1001
ACAD
1000
DSTYLE
1002
{
1070
   371
1070
    13
1070
   372
1070
    13
1070
     3
1000

1070
   170
1070
     0
1070
   144
1040
1.0
1070
   277
1070
     2
1070
   284
1070
     8
1070
   278
1070
    46
1070
   146
1040
0.999966
1070
   345
1005
16
1070
   347
1005
16
1070
   346
1005
16
1070
   344
1005
116
1070
   343
1005
116
1070
   172
1070
     1
1070
    76
1070
     0
1070
    75
1070
     0
1070
   282
1070
     0
1070
   281
1070
     0
1070
    71
1070
     0
1070
    74
1070
     0
1070
   279
1070
     0
1070
   173
1070
     1
1070
   340
1005
110
1070
   271
1070
     1
1070
   272
1070
     2
1070
    77
1070
     1
1070
    73
1070
     0
1070
   171
1070
     3
1070
   274
1070
     4
1070
   177
1070
   150
1070
   176
1070
     9
1070
   178
1070
    43
1070
    78
1070
     8
1070
    48
1040
-0.1
1070
    41
1040
3.175
1070
   147
1040
1.75006
1070
    42
1040
1.5875
1070
    44
1040
3.175
1070
   140
1040
3.50012
1002
}
1001
ACAD_DSTYLE_DIM_LINETYPE
1070
   380
1005
16
1001
ACAD_DSTYLE_DIM_EXT1_LINETYPE
1070
   381
1005
16
1001
ACAD_DSTYLE_DIM_EXT2_LINETYPE
1070
   382
1005
16
0
DIMENSION
5
178
100
AcDbEntity
8
SK2
62
256
6
ByLayer
370
18
48
1
60
0
100
AcDbDimension
2
_U3
10
0
20
-26.50012
30
0
11
-18
21
-26.50012
31
0
70
32
71
1
72
1
41
1
210
0
220
0
230
1
3
Standard
100
AcDbAlignedDimension
13
-36
23
-3
33
0
14
0
24
-3
34
0
50
0
100
AcDbRotatedDimension
1001
ACAD
1000
DSTYLE
1002
{
1070
   371
1070
    13
1070
   372
1070
    13
1070
     3
1000

1070
   170
1070
     0
1070
   144
1040
1.0
1070
   277
1070
     2
1070
   284
1070
     8
1070
   278
1070
    46
1070
   146
1040
0.999966
1070
   345
1005
16
1070
   347
1005
16
1070
   346
1005
16
1070
   344
1005
116
1070
   343
1005
116
1070
   172
1070
     1
1070
    76
1070
     0
1070
    75
1070
     0
1070
   282
1070
     0
1070
   281
1070
     0
1070
    71
1070
     0
1070
    74
1070
     0
1070
   279
1070
     0
1070
   173
1070
     1
1070
   340
1005
110
1070
   271
1070
     1
1070
   272
1070
     2
1070
    77
1070
     1
1070
    73
1070
     1
1070
   171
1070
     3
1070
   274
1070
     4
1070
   177
1070
   150
1070
   176
1070
     9
1070
   178
1070
    43
1070
    78
1070
     8
1070
    48
1040
-0.1
1070
    41
1040
3.175
1070
   147
1040
1.75006
1070
    42
1040
1.5875
1070
    44
1040
3.175
1070
   140
1040
3.50012
1002
}
1001
ACAD_DSTYLE_DIM_LINETYPE
1070
   380
1005
16
1001
ACAD_DSTYLE_DIM_EXT1_LINETYPE
1070
   381
1005
16
1001
ACAD_DSTYLE_DIM_EXT2_LINETYPE
1070
   382
1005
16
0
DIMENSION
5
194
100
AcDbEntity
8
SK2
62
256
6
ByLayer
370
18
48
1
60
0
100
AcDbDimension
2
_U4
10
68
20
-17.74982
30
0
11
37
21
-17.74982
31
0
70
32
71
1
72
1
41
1
210
0
220
0
230
1
3
Standard
100
AcDbAlignedDimension
13
6
23
3.28
33
0
14
68
24
0
34
0
50
0
100
AcDbRotatedDimension
1001
ACAD
1000
DSTYLE
1002
{
1070
   371
1070
    13
1070
   372
1070
    13
1070
     3
1000

1070
   170
1070
     0
1070
   144
1040
1.0
1070
   277
1070
     2
1070
   284
1070
     8
1070
   278
1070
    46
1070
   146
1040
0.999966
1070
   345
1005
16
1070
   347
1005
16
1070
   346
1005
16
1070
   344
1005
116
1070
   343
1005
116
1070
   172
1070
     1
1070
    76
1070
     0
1070
    75
1070
     0
1070
   282
1070
     0
1070
   281
1070
     0
1070
    71
1070
     0
1070
    74
1070
     0
1070
   279
1070
     0
1070
   173
1070
     1
1070
   340
1005
110
1070
   271
1070
     1
1070
   272
1070
     2
1070
    77
1070
     1
1070
    73
1070
     1
1070
   171
1070
     3
1070
   274
1070
     4
1070
   177
1070
   150
1070
   176
1070
     9
1070
   178
1070
    43
1070
    78
1070
     8
1070
    48
1040
-0.1
1070
    41
1040
3.175
1070
   147
1040
1.75006
1070
    42
1040
1.5875
1070
    44
1040
3.175
1070
   140
1040
3.50012
1002
}
1001
ACAD_DSTYLE_DIM_LINETYPE
1070
   380
1005
16
1001
ACAD_DSTYLE_DIM_EXT1_LINETYPE
1070
   381
1005
16
1001
ACAD_DSTYLE_DIM_EXT2_LINETYPE
1070
   382
1005
16
0
DIMENSION
5
1B0
100
AcDbEntity
8
SK2
62
256
6
ByLayer
370
18
48
1
60
0
100
AcDbDimension
2
_U5
10
68
20
-9.82
30
0
11
45.3
21
-9.82
31
0
70
32
71
1
72
1
41
1
210
0
220
0
230
1
3
Standard
100
AcDbAlignedDimension
13
22.6
23
-2.78
33
0
14
68
24
0
34
0
50
0
100
AcDbRotatedDimension
1001
ACAD
1000
DSTYLE
1002
{
1070
   371
1070
    13
1070
   372
1070
    13
1070
     3
1000

1070
   170
1070
     0
1070
   144
1040
1.0
1070
   277
1070
     2
1070
   284
1070
     8
1070
   278
1070
    46
1070
   146
1040
1.25
1070
   345
1005
16
1070
   347
1005
16
1070
   346
1005
16
1070
   344
1005
116
1070
   343
1005
116
1070
   172
1070
     1
1070
    76
1070
     0
1070
    75
1070
     0
1070
   282
1070
     0
1070
   281
1070
     0
1070
    71
1070
     0
1070
    74
1070
     0
1070
   279
1070
     0
1070
   173
1070
     1
1070
   340
1005
110
1070
   271
1070
     1
1070
   272
1070
     2
1070
    77
1070
     1
1070
    73
1070
     1
1070
   171
1070
     3
1070
   274
1070
     4
1070
   177
1070
   150
1070
   176
1070
     9
1070
   178
1070
    43
1070
    78
1070
     8
1070
    48
1040
-0.1
1070
    41
1040
3.175
1070
   147
1040
0.42
1070
    42
1040
1.5875
1070
    44
1040
0.5
1070
   140
1040
2.8
1002
}
1001
ACAD_DSTYLE_DIM_LINETYPE
1070
   380
1005
16
1001
ACAD_DSTYLE_DIM_EXT1_LINETYPE
1070
   381
1005
16
1001
ACAD_DSTYLE_DIM_EXT2_LINETYPE
1070
   382
1005
16
0
DIMENSION
5
1CC
100
AcDbEntity
8
SK2
62
256
6
ByLayer
370
18
48
1
60
0
100
AcDbDimension
2
_U6
10
68
20
-36.50012
30
0
11
16
21
-36.50012
31
0
70
32
71
1
72
1
41
1
210
0
220
0
230
1
3
Standard
100
AcDbAlignedDimension
13
-36
23
0
33
0
14
68
24
0
34
0
50
0
100
AcDbRotatedDimension
1001
ACAD
1000
DSTYLE
1002
{
1070
   371
1070
    13
1070
   372
1070
    13
1070
     3
1000

1070
   170
1070
     0
1070
   144
1040
1.0
1070
   277
1070
     2
1070
   284
1070
     8
1070
   278
1070
    46
1070
   146
1040
0.999966
1070
   345
1005
16
1070
   347
1005
16
1070
   346
1005
16
1070
   344
1005
116
1070
   343
1005
116
1070
   172
1070
     1
1070
    76
1070
     0
1070
    75
1070
     0
1070
   282
1070
     0
1070
   281
1070
     0
1070
    71
1070
     0
1070
    74
1070
     0
1070
   279
1070
     0
1070
   173
1070
     1
1070
   340
1005
110
1070
   271
1070
     1
1070
   272
1070
     2
1070
    77
1070
     1
1070
    73
1070
     1
1070
   171
1070
     3
1070
   274
1070
     4
1070
   177
1070
   150
1070
   176
1070
     9
1070
   178
1070
    43
1070
    78
1070
     8
1070
    48
1040
-0.1
1070
    41
1040
3.175
1070
   147
1040
1.75006
1070
    42
1040
1.5875
1070
    44
1040
3.175
1070
   140
1040
3.50012
1002
}
1001
ACAD_DSTYLE_DIM_LINETYPE
1070
   380
1005
16
1001
ACAD_DSTYLE_DIM_EXT1_LINETYPE
1070
   381
1005
16
1001
ACAD_DSTYLE_DIM_EXT2_LINETYPE
1070
   382
1005
16
0
ENDSEC
0
SECTION
2
OBJECTS
0
DICTIONARY
5
258
330
0
100
AcDbDictionary
280
0
281
1
3
ACAD_GROUP
350
259
3
ACAD_MLINESTYLE
350
25a
0
DICTIONARY
5
259
330
0
100
AcDbDictionary
280
0
281
1
0
DICTIONARY
5
25a
330
0
100
AcDbDictionary
280
0
281
1
3
Standard
350
18
0
MLINESTYLE
5
18
330
25a
100
AcDbMlineStyle
2
Standard
70
0
3

62
256
51
90
52
90
71
2
49
-0.5
62
256
6
ByLayer
49
0.5
62
256
6
ByLayer
0
RASTERVARIABLES
5
246
330

100
AcDbRasterVariables
90
0
70
1
71
1
72
1
0
ENDSEC
0
EOF
