0
SECTION
2
HEADER
9
$ACADVER
1
AC1015
9
$DWGCODEPAGE
3
ANSI_1252
9
$HANDSEED
5
269
9
$ANGBASE
50
0
9
$ANGDIR
70
0
9
$ATTMODE
70
1
9
$AUNITS
70
0
9
$AUPREC
70
0
9
$CECOLOR
62
256
9
$CELTSCALE
40
1
9
$CELTYPE
6
ByLayer
9
$CELWEIGHT
370
18
9
$CLAYER
8
0
9
$CMLJUST
70
0
9
$CMLSCALE
40
1
9
$CMLSTYLE
2
Standard
9
$DIMSTYLE
2
Standard
9
$TEXTSIZE
40
0.2
9
$TEXTSTYLE
7
Standard
9
$LUNITS
70
2
9
$LUPREC
70
4
9
$EXTNAMES
290
1
9
$INSUNITS
70
4
9
$LTSCALE
40
1
9
$LWDISPLAY
290
1
9
$PDMODE
70
0
9
$PDSIZE
40
0
9
$PLINEGEN
70
0
0
ENDSEC
0
SECTION
2
CLASSES
0
CLASS
1
RASTERVARIABLES
2
AcDbRasterVariables
3
ISM
90
0
280
0
281
0
0
ENDSEC
0
SECTION
2
TABLES
0
TABLE
2
VPORT
5
25f
100
AcDbSymbolTable
0
VPORT
5
1
100
AcDbSymbolTableRecord
100
AcDbViewportTableRecord
2
*Active
70
0
10
0
20
0
11
1
21
1
12
-1
22
1
13
0
23
0
14
0.5
24
0.5
15
10
25
10
16
0
26
0
36
1
17
0
27
0
37
0
0
ENDTAB
0
TABLE
2
LTYPE
5
260
100
AcDbSymbolTable
0
LTYPE
5
14
100
AcDbSymbolTableRecord
100
AcDbLinetypeTableRecord
70
0
2
ByBlock
3

72
65
73
0
40
0
0
LTYPE
5
15
100
AcDbSymbolTableRecord
100
AcDbLinetypeTableRecord
70
0
2
ByLayer
3

72
65
73
0
40
0
0
LTYPE
5
16
100
AcDbSymbolTableRecord
100
AcDbLinetypeTableRecord
70
0
2
Continuous
3
Solid line
72
65
73
0
40
0
0
LTYPE
5
6E
100
AcDbSymbolTableRecord
100
AcDbLinetypeTableRecord
70
0
2
CENTER
3
____ _ ____ _ ____ _ ____
72
65
73
4
40
47.5
49
22
74
0
49
-8.5
74
0
49
8.5
74
0
49
-8.5
74
0
0
LTYPE
5
6F
100
AcDbSymbolTableRecord
100
AcDbLinetypeTableRecord
70
0
2
DASHED
3
__ __ __ __ __ __ __ __ __
72
65
73
2
40
25.72
49
12.86
74
0
49
-12.86
74
0
0
ENDTAB
0
TABLE
2
LAYER
5
261
100
AcDbSymbolTable
0
LAYER
5
10
100
AcDbSymbolTableRecord
100
AcDbLayerTableRecord
2
0
70
0
62
7
6
Continuous
290
1
370
-3
390
0
0
LAYER
5
71
100
AcDbSymbolTableRecord
100
AcDbLayerTableRecord
2
80
70
0
62
-6
6
Continuous
290
1
370
-3
390
0
0
LAYER
5
73
100
AcDbSymbolTableRecord
100
AcDbLayerTableRecord
2
81
70
0
62
-3
6
Continuous
290
1
370
-3
390
0
0
LAYER
5
75
100
AcDbSymbolTableRecord
100
AcDbLayerTableRecord
2
1
70
0
62
4
6
Continuous
290
1
370
-3
390
0
0
LAYER
5
AE
100
AcDbSymbolTableRecord
100
AcDbLayerTableRecord
2
4
70
0
62
-2
6
CENTER
290
1
370
-3
390
0
0
LAYER
5
123
100
AcDbSymbolTableRecord
100
AcDbLayerTableRecord
2
Defpoints
70
0
62
7
6
Continuous
290
0
370
-3
390
0
0
LAYER
5
150
100
AcDbSymbolTableRecord
100
AcDbLayerTableRecord
2
2
70
0
62
7
6
Continuous
290
1
370
-3
390
0
0
LAYER
5
24b
100
AcDbSymbolTableRecord
100
AcDbLayerTableRecord
2
SK1
70
0
62
4
6
Continuous
290
1
370
-3
390
0
0
LAYER
5
24c
100
AcDbSymbolTableRecord
100
AcDbLayerTableRecord
2
SK4
70
0
62
2
6
CENTER
290
1
370
-3
390
0
0
LAYER
5
24d
100
AcDbSymbolTableRecord
100
AcDbLayerTableRecord
2
SK2
70
0
62
7
6
Continuous
290
1
370
-3
390
0
0
LAYER
5
24e
100
AcDbSymbolTableRecord
100
AcDbLayerTableRecord
2
SK6
70
0
62
5
6
Continuous
290
1
370
-3
390
0
0
ENDTAB
0
TABLE
2
STYLE
5
262
100
AcDbSymbolTable
0
STYLE
5
11
100
AcDbSymbolTableRecord
100
AcDbTextStyleTableRecord
2
Standard
3
txt
70
0
71
0
40
0
41
1
42
0
50
0
0
STYLE
5
114
100
AcDbSymbolTableRecord
100
AcDbTextStyleTableRecord
2
iso_b_vert
3
simplex.shx
70
0
71
0
40
0
41
1
42
0
50
0
0
STYLE
5
115
100
AcDbSymbolTableRecord
100
AcDbTextStyleTableRecord
2
DWGDirectTextStyle
3
simplex
70
0
71
0
40
0
41
1
42
0
50
0
0
ENDTAB
0
TABLE
2
DIMSTYLE
5
263
100
AcDbSymbolTable
100
AcDbDimStyleTable
0
DIMSTYLE
105
27
100
AcDbSymbolTableRecord
100
AcDbDimStyleTableRecord
2
Standard
70
0
3
<>
41
0.18
42
0.0625
44
0.18
140
0.18
147
0.09
73
0
74
0
77
1
271
2
275
0
278
52
280
0
340
11
0
ENDTAB
0
TABLE
2
VIEW
5
264
100
AcDbSymbolTable
0
ENDTAB
0
TABLE
2
UCS
5
265
100
AcDbSymbolTable
0
ENDTAB
0
TABLE
2
APPID
5
266
100
AcDbSymbolTable
0
APPID
5
12
100
AcDbSymbolTableRecord
100
AcDbRegAppTableRecord
2
ACAD
70
0
0
APPID
5
118
100
AcDbSymbolTableRecord
100
AcDbRegAppTableRecord
2
ACAD_DSTYLE_DIMBREAK
70
0
0
APPID
5
20A
100
AcDbSymbolTableRecord
100
AcDbRegAppTableRecord
2
ACAD_DSTYLE_DIM_LINETYPE
70
0
0
APPID
5
20B
100
AcDbSymbolTableRecord
100
AcDbRegAppTableRecord
2
ACAD_DSTYLE_DIM_EXT1_LINETYPE
70
0
0
APPID
5
20C
100
AcDbSymbolTableRecord
100
AcDbRegAppTableRecord
2
ACAD_DSTYLE_DIM_EXT2_LINETYPE
70
0
0
APPID
5
247
100
AcDbSymbolTableRecord
100
AcDbRegAppTableRecord
2
ACAD_MLEADERVER
70
0
0
ENDTAB
0
TABLE
2
BLOCK_RECORD
5
267
100
AcDbSymbolTable
0
BLOCK_RECORD
5
1F
100
AcDbSymbolTableRecord
100
AcDbBlockTableRecord
2
*Model_Space
340
0
70
0
0
BLOCK_RECORD
5
1B
100
AcDbSymbolTableRecord
100
AcDbBlockTableRecord
2
*Paper_Space
340
0
70
0
0
BLOCK_RECORD
5
23
100
AcDbSymbolTableRecord
100
AcDbBlockTableRecord
2
*Paper_Space0
340
0
70
0
0
BLOCK_RECORD
5
11A
100
AcDbSymbolTableRecord
100
AcDbBlockTableRecord
2
_Closed
340
0
70
0
0
BLOCK_RECORD
5
124
100
AcDbSymbolTableRecord
100
AcDbBlockTableRecord
2
*D2
340
0
70
0
0
BLOCK_RECORD
5
130
100
AcDbSymbolTableRecord
100
AcDbBlockTableRecord
2
_U0
340
0
70
0
0
BLOCK_RECORD
5
142
100
AcDbSymbolTableRecord
100
AcDbBlockTableRecord
2
*D4
340
0
70
0
0
BLOCK_RECORD
5
151
100
AcDbSymbolTableRecord
100
AcDbBlockTableRecord
2
_U1
340
0
70
0
0
BLOCK_RECORD
5
161
100
AcDbSymbolTableRecord
100
AcDbBlockTableRecord
2
*D6
340
0
70
0
0
BLOCK_RECORD
5
16F
100
AcDbSymbolTableRecord
100
AcDbBlockTableRecord
2
_U2
340
0
70
0
0
BLOCK_RECORD
5
17F
100
AcDbSymbolTableRecord
100
AcDbBlockTableRecord
2
*D8
340
0
70
0
0
BLOCK_RECORD
5
18B
100
AcDbSymbolTableRecord
100
AcDbBlockTableRecord
2
_U3
340
0
70
0
0
BLOCK_RECORD
5
19B
100
AcDbSymbolTableRecord
100
AcDbBlockTableRecord
2
*D10
340
0
70
0
0
BLOCK_RECORD
5
1A7
100
AcDbSymbolTableRecord
100
AcDbBlockTableRecord
2
_U4
340
0
70
0
0
BLOCK_RECORD
5
1B7
100
AcDbSymbolTableRecord
100
AcDbBlockTableRecord
2
*D12
340
0
70
0
0
BLOCK_RECORD
5
1C3
100
AcDbSymbolTableRecord
100
AcDbBlockTableRecord
2
_U5
340
0
70
0
0
BLOCK_RECORD
5
1D3
100
AcDbSymbolTableRecord
100
AcDbBlockTableRecord
2
*D14
340
0
70
0
0
BLOCK_RECORD
5
1DF
100
AcDbSymbolTableRecord
100
AcDbBlockTableRecord
2
_U6
340
0
70
0
0
ENDTAB
0
ENDSEC
0
SECTION
2
BLOCKS
0
BLOCK
5
20
100
AcDbEntity
8
0
100
AcDbBlockBegin
2
*Model_Space
70
0
10
0
20
0
30
0
3
*Model_Space
0
ENDBLK
5
21
100
AcDbEntity
8
0
100
AcDbBlockEnd
0
BLOCK
5
1C
100
AcDbEntity
8
0
100
AcDbBlockBegin
2
*Paper_Space
70
0
10
0
20
0
30
0
3
*Paper_Space
0
ENDBLK
5
1D
100
AcDbEntity
8
0
100
AcDbBlockEnd
0
BLOCK
5
24
100
AcDbEntity
8
0
100
AcDbBlockBegin
2
*Paper_Space0
70
0
10
0
20
0
30
0
3
*Paper_Space0
0
ENDBLK
5
25
100
AcDbEntity
8
0
100
AcDbBlockEnd
0
BLOCK
5
11B
100
AcDbEntity
8
0
100
AcDbBlockBegin
2
_Closed
70
0
10
0
20
0
30
0
3
_Closed
0
LINE
5
11D
100
AcDbEntity
8
0
62
256
6
ByLayer
370
-2
48
1
60
0
100
AcDbLine
10
-1
20
0.166667
30
0
11
0
21
0
31
0
39
0
210
0
220
0
230
1
0
LINE
5
11E
100
AcDbEntity
8
0
62
256
6
ByLayer
370
-2
48
1
60
0
100
AcDbLine
10
0
20
0
30
0
11
-1
21
-0.166667
31
0
39
0
210
0
220
0
230
1
0
LINE
5
11F
100
AcDbEntity
8
0
62
256
6
ByLayer
370
-2
48
1
60
0
100
AcDbLine
10
-1
20
0.166667
30
0
11
-1
21
-0.166667
31
0
39
0
210
0
220
0
230
1
0
LINE
5
120
100
AcDbEntity
8
0
62
256
6
ByLayer
370
-2
48
1
60
0
100
AcDbLine
10
0
20
0
30
0
11
-1
21
0
31
0
39
0
210
0
220
0
230
1
0
ENDBLK
5
11C
100
AcDbEntity
8
0
100
AcDbBlockEnd
0
BLOCK
5
125
100
AcDbEntity
8
0
100
AcDbBlockBegin
2
*D2
70
1
10
0
20
0
30
0
3
*D2
0
LINE
5
127
100
AcDbEntity
8
0
62
256
6
ByLayer
370
-2
48
1
60
0
100
AcDbLine
10
0
20
-4.5875
30
0
11
0
21
-29.67512
31
0
39
0
210
0
220
0
230
1
0
LINE
5
128
100
AcDbEntity
8
0
62
256
6
ByLayer
370
-2
48
1
60
0
100
AcDbLine
10
68
20
-1.5875
30
0
11
68
21
-29.67512
31
0
39
0
210
0
220
0
230
1
0
LINE
5
129
100
AcDbEntity
8
0
62
256
6
ByLayer
370
-2
48
1
60
0
100
AcDbLine
10
3.175
20
-26.50012
30
0
11
64.825
21
-26.50012
31
0
39
0
210
0
220
0
230
1
0
SOLID
5
12A
100
AcDbEntity
8
0
62
256
6
ByLayer
370
-1
48
1
60
0
100
AcDbTrace
10
3.175
20
-25.970953
30
0
11
3.175
21
-27.029287
31
0
12
0
22
-26.50012
32
0
13
0
23
-26.50012
33
0
39
0
210
0
220
0
230
1
0
SOLID
5
12B
100
AcDbEntity
8
0
62
256
6
ByLayer
370
-1
48
1
60
0
100
AcDbTrace
10
64.825
20
-27.029287
30
0
11
64.825
21
-25.970953
31
0
12
68
22
-26.50012
32
0
13
68
23
-26.50012
33
0
39
0
210
0
220
0
230
1
0
MTEXT
5
12C
100
AcDbEntity
8
0
62
256
6
ByLayer
370
18
48
1
60
0
100
AcDbMText
10
34
20
-19.193619
30
0
210
0
220
0
230
1
1
\A1;68
40
3.50012
41
0
44
1
50
0
71
5
72
5
7
iso_b_vert
0
POINT
5
12D
100
AcDbEntity
8
Defpoints
62
0
6
ByLayer
370
-1
48
1
60
0
100
AcDbPoint
10
0
20
-3
30
0
39
0
210
0
220
0
230
1
50
360
0
POINT
5
12E
100
AcDbEntity
8
Defpoints
62
0
6
ByLayer
370
-1
48
1
60
0
100
AcDbPoint
10
68
20
0
30
0
39
0
210
0
220
0
230
1
50
360
0
POINT
5
12F
100
AcDbEntity
8
Defpoints
62
0
6
ByLayer
370
-1
48
1
60
0
100
AcDbPoint
10
68
20
-26.50012
30
0
39
0
210
0
220
0
230
1
50
360
0
ENDBLK
5
126
100
AcDbEntity
8
0
100
AcDbBlockEnd
0
BLOCK
5
13D
100
AcDbEntity
8
0
100
AcDbBlockBegin
2
_U0
70
0
10
0
20
0
30
0
3
_U0
0
MTEXT
5
131
100
AcDbEntity
8
SK2
62
256
6
ByLayer
370
18
48
1
60
0
100
AcDbMText
10
28.770389
20
-25.467451
30
0
210
0
220
0
230
1
1
\W0.7468;68.00
40
3.50012
41
0
44
1.084337
50
0
71
7
72
5
7
iso_b_vert
0
MTEXT
5
132
100
AcDbEntity
8
SK2
62
256
6
ByLayer
370
18
48
1
60
0
100
AcDbMText
10
25.244329
20
-25.400814
30
0
210
0
220
0
230
1
1
\W0.1790;(
40
3.175
41
0
44
1.084337
50
0
71
7
72
5
7
iso_b_vert
0
MTEXT
5
133
100
AcDbEntity
8
SK2
62
256
6
ByLayer
370
18
48
1
60
0
100
AcDbMText
10
42.758393
20
-25.400814
30
0
210
0
220
0
230
1
1
\W0.1969;)
40
3.175
41
0
44
1.084337
50
0
71
7
72
5
7
iso_b_vert
0
LINE
5
134
100
AcDbEntity
8
SK2
62
256
6
ByLayer
370
13
48
1
60
0
100
AcDbLine
10
0
20
-4.5875
30
0
11
0
21
-29.67512
31
0
39
0
210
0
220
0
230
1
0
LINE
5
135
100
AcDbEntity
8
SK2
62
256
6
ByLayer
370
13
48
1
60
0
100
AcDbLine
10
68
20
-1.5875
30
0
11
68
21
-29.67512
31
0
39
0
210
0
220
0
230
1
0
LINE
5
136
100
AcDbEntity
8
SK2
62
256
6
ByLayer
370
13
48
1
60
0
100
AcDbLine
10
0
20
-26.50012
30
0
11
68
21
-26.50012
31
0
39
0
210
0
220
0
230
1
0
LINE
5
137
100
AcDbEntity
8
SK2
62
256
6
ByLayer
370
13
48
1
60
0
100
AcDbLine
10
0
20
-26.50012
30
0
11
3.174998
21
-26.082123
31
0
39
0
210
0
220
0
230
1
0
LINE
5
138
100
AcDbEntity
8
SK2
62
256
6
ByLayer
370
13
48
1
60
0
100
AcDbLine
10
0
20
-26.50012
30
0
11
3.175002
21
-26.918117
31
0
39
0
210
0
220
0
230
1
0
LINE
5
139
100
AcDbEntity
8
SK2
62
256
6
ByLayer
370
13
48
1
60
0
100
AcDbLine
10
3.174998
20
-26.082123
30
0
11
3.175002
21
-26.918117
31
0
39
0
210
0
220
0
230
1
0
LINE
5
13A
100
AcDbEntity
8
SK2
62
256
6
ByLayer
370
13
48
1
60
0
100
AcDbLine
10
68
20
-26.50012
30
0
11
64.825002
21
-26.918117
31
0
39
0
210
0
220
0
230
1
0
LINE
5
13B
100
AcDbEntity
8
SK2
62
256
6
ByLayer
370
13
48
1
60
0
100
AcDbLine
10
68
20
-26.50012
30
0
11
64.824998
21
-26.082123
31
0
39
0
210
0
220
0
230
1
0
LINE
5
13C
100
AcDbEntity
8
SK2
62
256
6
ByLayer
370
13
48
1
60
0
100
AcDbLine
10
64.825002
20
-26.918117
30
0
11
64.824998
21
-26.082123
31
0
39
0
210
0
220
0
230
1
0
ENDBLK
5
13E
100
AcDbEntity
8
0
100
AcDbBlockEnd
0
BLOCK
5
143
100
AcDbEntity
8
0
100
AcDbBlockBegin
2
*D4
70
1
10
0
20
0
30
0
3
*D4
0
LINE
5
145
100
AcDbEntity
8
0
62
256
6
ByLayer
370
-2
48
1
60
0
100
AcDbLine
10
68.5684
20
-2.8
30
0
11
77.92506
21
-2.8
31
0
39
0
210
0
220
0
230
1
0
LINE
5
146
100
AcDbEntity
8
0
62
256
6
ByLayer
370
-2
48
1
60
0
100
AcDbLine
10
68.5684
20
2.8
30
0
11
77.92506
21
2.8
31
0
39
0
210
0
220
0
230
1
0
LINE
5
147
100
AcDbEntity
8
0
62
256
6
ByLayer
370
-2
48
1
60
0
100
AcDbLine
10
74.75006
20
2.8
30
0
11
74.75006
21
27.596466
31
0
39
0
210
0
220
0
230
1
0
LINE
5
148
100
AcDbEntity
8
0
62
256
6
ByLayer
370
-2
48
1
60
0
100
AcDbLine
10
74.75006
20
-5.975
30
0
11
74.75006
21
-9.15
31
0
39
0
210
0
220
0
230
1
0
LINE
5
149
100
AcDbEntity
8
0
62
256
6
ByLayer
370
-2
48
1
60
0
100
AcDbLine
10
74.75006
20
5.975
30
0
11
74.75006
21
9.15
31
0
39
0
210
0
220
0
230
1
0
SOLID
5
14A
100
AcDbEntity
8
0
62
256
6
ByLayer
370
-1
48
1
60
0
100
AcDbTrace
10
75.279227
20
-5.975
30
0
11
74.220893
21
-5.975
31
0
12
74.75006
22
-2.8
32
0
13
74.75006
23
-2.8
33
0
39
0
210
0
220
0
230
1
0
SOLID
5
14B
100
AcDbEntity
8
0
62
256
6
ByLayer
370
-1
48
1
60
0
100
AcDbTrace
10
74.220893
20
5.975
30
0
11
75.279227
21
5.975
31
0
12
74.75006
22
2.8
32
0
13
74.75006
23
2.8
33
0
39
0
210
0
220
0
230
1
0
MTEXT
5
14C
100
AcDbEntity
8
0
62
256
6
ByLayer
370
18
48
1
60
0
100
AcDbMText
10
67.44356
20
18.373233
30
0
210
0
220
0
230
1
1
\A1;5.6
40
3.50012
41
0
44
1
50
90
71
5
72
5
7
iso_b_vert
0
POINT
5
14D
100
AcDbEntity
8
Defpoints
62
0
6
ByLayer
370
-1
48
1
60
0
100
AcDbPoint
10
66.9809
20
-2.8
30
0
39
0
210
0
220
0
230
1
50
360
0
POINT
5
14E
100
AcDbEntity
8
Defpoints
62
0
6
ByLayer
370
-1
48
1
60
0
100
AcDbPoint
10
66.9809
20
2.8
30
0
39
0
210
0
220
0
230
1
50
360
0
POINT
5
14F
100
AcDbEntity
8
Defpoints
62
0
6
ByLayer
370
-1
48
1
60
0
100
AcDbPoint
10
74.75006
20
2.8
30
0
39
0
210
0
220
0
230
1
50
360
0
ENDBLK
5
144
100
AcDbEntity
8
0
100
AcDbBlockEnd
0
BLOCK
5
15C
100
AcDbEntity
8
0
100
AcDbBlockBegin
2
_U1
70
0
10
0
20
0
30
0
3
_U1
0
MTEXT
5
152
100
AcDbEntity
8
2
62
256
6
ByLayer
370
18
48
1
60
0
100
AcDbMText
10
74.060403
20
6.957505
30
0
210
0
220
0
230
1
1
\W0.7346;5.60
40
3.50012
41
0
44
1.084337
50
90
71
7
72
5
7
iso_b_vert
0
LINE
5
153
100
AcDbEntity
8
2
62
256
6
ByLayer
370
13
48
1
60
0
100
AcDbLine
10
68.5684
20
-2.8
30
0
11
77.92506
21
-2.8
31
0
39
0
210
0
220
0
230
1
0
LINE
5
154
100
AcDbEntity
8
2
62
256
6
ByLayer
370
13
48
1
60
0
100
AcDbLine
10
68.5684
20
2.8
30
0
11
77.92506
21
2.8
31
0
39
0
210
0
220
0
230
1
0
LINE
5
155
100
AcDbEntity
8
2
62
256
6
ByLayer
370
13
48
1
60
0
100
AcDbLine
10
74.75006
20
15.01468
30
0
11
74.75006
21
-11.5503
31
0
39
0
210
0
220
0
230
1
0
LINE
5
156
100
AcDbEntity
8
2
62
256
6
ByLayer
370
13
48
1
60
0
100
AcDbLine
10
74.75006
20
-2.8
30
0
11
75.168057
21
-5.974998
31
0
39
0
210
0
220
0
230
1
0
LINE
5
157
100
AcDbEntity
8
2
62
256
6
ByLayer
370
13
48
1
60
0
100
AcDbLine
10
74.75006
20
-2.8
30
0
11
74.332063
21
-5.975002
31
0
39
0
210
0
220
0
230
1
0
LINE
5
158
100
AcDbEntity
8
2
62
256
6
ByLayer
370
13
48
1
60
0
100
AcDbLine
10
75.168057
20
-5.974998
30
0
11
74.332063
21
-5.975002
31
0
39
0
210
0
220
0
230
1
0
LINE
5
159
100
AcDbEntity
8
2
62
256
6
ByLayer
370
13
48
1
60
0
100
AcDbLine
10
74.75006
20
2.8
30
0
11
74.332063
21
5.974998
31
0
39
0
210
0
220
0
230
1
0
LINE
5
15A
100
AcDbEntity
8
2
62
256
6
ByLayer
370
13
48
1
60
0
100
AcDbLine
10
74.75006
20
2.8
30
0
11
75.168057
21
5.975002
31
0
39
0
210
0
220
0
230
1
0
LINE
5
15B
100
AcDbEntity
8
2
62
256
6
ByLayer
370
13
48
1
60
0
100
AcDbLine
10
74.332063
20
5.974998
30
0
11
75.168057
21
5.975002
31
0
39
0
210
0
220
0
230
1
0
ENDBLK
5
15D
100
AcDbEntity
8
0
100
AcDbBlockEnd
0
BLOCK
5
162
100
AcDbEntity
8
0
100
AcDbBlockBegin
2
*D6
70
1
10
0
20
0
30
0
3
*D6
0
LINE
5
164
100
AcDbEntity
8
0
62
256
6
ByLayer
370
-2
48
1
60
0
100
AcDbLine
10
-37.5875
20
3
30
0
11
-42.42494
21
3
31
0
39
0
210
0
220
0
230
1
0
LINE
5
165
100
AcDbEntity
8
0
62
256
6
ByLayer
370
-2
48
1
60
0
100
AcDbLine
10
-37.5875
20
-3
30
0
11
-42.42494
21
-3
31
0
39
0
210
0
220
0
230
1
0
LINE
5
166
100
AcDbEntity
8
0
62
256
6
ByLayer
370
-2
48
1
60
0
100
AcDbLine
10
-39.24994
20
3
30
0
11
-39.24994
21
23.747151
31
0
39
0
210
0
220
0
230
1
0
LINE
5
167
100
AcDbEntity
8
0
62
256
6
ByLayer
370
-2
48
1
60
0
100
AcDbLine
10
-39.24994
20
6.175
30
0
11
-39.24994
21
9.35
31
0
39
0
210
0
220
0
230
1
0
LINE
5
168
100
AcDbEntity
8
0
62
256
6
ByLayer
370
-2
48
1
60
0
100
AcDbLine
10
-39.24994
20
-6.175
30
0
11
-39.24994
21
-9.35
31
0
39
0
210
0
220
0
230
1
0
SOLID
5
169
100
AcDbEntity
8
0
62
256
6
ByLayer
370
-1
48
1
60
0
100
AcDbTrace
10
-39.779107
20
6.175
30
0
11
-38.720773
21
6.175
31
0
12
-39.24994
22
3
32
0
13
-39.24994
23
3
33
0
39
0
210
0
220
0
230
1
0
SOLID
5
16A
100
AcDbEntity
8
0
62
256
6
ByLayer
370
-1
48
1
60
0
100
AcDbTrace
10
-38.720773
20
-6.175
30
0
11
-39.779107
21
-6.175
31
0
12
-39.24994
22
-3
32
0
13
-39.24994
23
-3
33
0
39
0
210
0
220
0
230
1
0
MTEXT
5
16B
100
AcDbEntity
8
0
62
256
6
ByLayer
370
18
48
1
60
0
100
AcDbMText
10
-46.556441
20
17.10734
30
0
210
0
220
0
230
1
1
\A1;6
40
3.50012
41
0
44
1
50
90
71
5
72
5
7
iso_b_vert
0
POINT
5
16C
100
AcDbEntity
8
Defpoints
62
0
6
ByLayer
370
-1
48
1
60
0
100
AcDbPoint
10
-36
20
3
30
0
39
0
210
0
220
0
230
1
50
360
0
POINT
5
16D
100
AcDbEntity
8
Defpoints
62
0
6
ByLayer
370
-1
48
1
60
0
100
AcDbPoint
10
-36
20
-3
30
0
39
0
210
0
220
0
230
1
50
360
0
POINT
5
16E
100
AcDbEntity
8
Defpoints
62
0
6
ByLayer
370
-1
48
1
60
0
100
AcDbPoint
10
-39.24994
20
-3
30
0
39
0
210
0
220
0
230
1
50
360
0
ENDBLK
5
163
100
AcDbEntity
8
0
100
AcDbBlockEnd
0
BLOCK
5
17A
100
AcDbEntity
8
0
100
AcDbBlockBegin
2
_U2
70
0
10
0
20
0
30
0
3
_U2
0
MTEXT
5
170
100
AcDbEntity
8
SK2
62
256
6
ByLayer
370
18
48
1
60
0
100
AcDbMText
10
-39.939597
20
13.157505
30
0
210
0
220
0
230
1
1
\W0.7346;6.00
40
3.50012
41
0
44
1.084337
50
90
71
7
72
5
7
iso_b_vert
0
LINE
5
171
100
AcDbEntity
8
SK2
62
256
6
ByLayer
370
13
48
1
60
0
100
AcDbLine
10
-37.5875
20
3
30
0
11
-42.42494
21
3
31
0
39
0
210
0
220
0
230
1
0
LINE
5
172
100
AcDbEntity
8
SK2
62
256
6
ByLayer
370
13
48
1
60
0
100
AcDbLine
10
-37.5875
20
-3
30
0
11
-42.42494
21
-3
31
0
39
0
210
0
220
0
230
1
0
LINE
5
173
100
AcDbEntity
8
SK2
62
256
6
ByLayer
370
13
48
1
60
0
100
AcDbLine
10
-39.24994
20
-11.7503
30
0
11
-39.24994
21
21.21468
31
0
39
0
210
0
220
0
230
1
0
LINE
5
174
100
AcDbEntity
8
SK2
62
256
6
ByLayer
370
13
48
1
60
0
100
AcDbLine
10
-39.24994
20
3
30
0
11
-39.667937
21
6.174998
31
0
39
0
210
0
220
0
230
1
0
LINE
5
175
100
AcDbEntity
8
SK2
62
256
6
ByLayer
370
13
48
1
60
0
100
AcDbLine
10
-39.24994
20
3
30
0
11
-38.831943
21
6.175002
31
0
39
0
210
0
220
0
230
1
0
LINE
5
176
100
AcDbEntity
8
SK2
62
256
6
ByLayer
370
13
48
1
60
0
100
AcDbLine
10
-39.667937
20
6.174998
30
0
11
-38.831943
21
6.175002
31
0
39
0
210
0
220
0
230
1
0
LINE
5
177
100
AcDbEntity
8
SK2
62
256
6
ByLayer
370
13
48
1
60
0
100
AcDbLine
10
-39.24994
20
-3
30
0
11
-38.831943
21
-6.174998
31
0
39
0
210
0
220
0
230
1
0
LINE
5
178
100
AcDbEntity
8
SK2
62
256
6
ByLayer
370
13
48
1
60
0
100
AcDbLine
10
-39.24994
20
-3
30
0
11
-39.667937
21
-6.175002
31
0
39
0
210
0
220
0
230
1
0
LINE
5
179
100
AcDbEntity
8
SK2
62
256
6
ByLayer
370
13
48
1
60
0
100
AcDbLine
10
-38.831943
20
-6.174998
30
0
11
-39.667937
21
-6.175002
31
0
39
0
210
0
220
0
230
1
0
ENDBLK
5
17B
100
AcDbEntity
8
0
100
AcDbBlockEnd
0
BLOCK
5
180
100
AcDbEntity
8
0
100
AcDbBlockBegin
2
*D8
70
1
10
0
20
0
30
0
3
*D8
0
LINE
5
182
100
AcDbEntity
8
0
62
256
6
ByLayer
370
-2
48
1
60
0
100
AcDbLine
10
-36
20
-4.5875
30
0
11
-36
21
-29.67512
31
0
39
0
210
0
220
0
230
1
0
LINE
5
183
100
AcDbEntity
8
0
62
256
6
ByLayer
370
-2
48
1
60
0
100
AcDbLine
10
0
20
-4.5875
30
0
11
0
21
-29.67512
31
0
39
0
210
0
220
0
230
1
0
LINE
5
184
100
AcDbEntity
8
0
62
256
6
ByLayer
370
-2
48
1
60
0
100
AcDbLine
10
-32.825
20
-26.50012
30
0
11
-3.175
21
-26.50012
31
0
39
0
210
0
220
0
230
1
0
SOLID
5
185
100
AcDbEntity
8
0
62
256
6
ByLayer
370
-1
48
1
60
0
100
AcDbTrace
10
-32.825
20
-25.970953
30
0
11
-32.825
21
-27.029287
31
0
12
-36
22
-26.50012
32
0
13
-36
23
-26.50012
33
0
39
0
210
0
220
0
230
1
0
SOLID
5
186
100
AcDbEntity
8
0
62
256
6
ByLayer
370
-1
48
1
60
0
100
AcDbTrace
10
-3.175
20
-27.029287
30
0
11
-3.175
21
-25.970953
31
0
12
0
22
-26.50012
32
0
13
0
23
-26.50012
33
0
39
0
210
0
220
0
230
1
0
MTEXT
5
187
100
AcDbEntity
8
0
62
256
6
ByLayer
370
18
48
1
60
0
100
AcDbMText
10
-18
20
-19.193619
30
0
210
0
220
0
230
1
1
\A1;36
40
3.50012
41
0
44
1
50
0
71
5
72
5
7
iso_b_vert
0
POINT
5
188
100
AcDbEntity
8
Defpoints
62
0
6
ByLayer
370
-1
48
1
60
0
100
AcDbPoint
10
-36
20
-3
30
0
39
0
210
0
220
0
230
1
50
360
0
POINT
5
189
100
AcDbEntity
8
Defpoints
62
0
6
ByLayer
370
-1
48
1
60
0
100
AcDbPoint
10
0
20
-3
30
0
39
0
210
0
220
0
230
1
50
360
0
POINT
5
18A
100
AcDbEntity
8
Defpoints
62
0
6
ByLayer
370
-1
48
1
60
0
100
AcDbPoint
10
0
20
-26.50012
30
0
39
0
210
0
220
0
230
1
50
360
0
ENDBLK
5
181
100
AcDbEntity
8
0
100
AcDbBlockEnd
0
BLOCK
5
196
100
AcDbEntity
8
0
100
AcDbBlockBegin
2
_U3
70
0
10
0
20
0
30
0
3
_U3
0
MTEXT
5
18C
100
AcDbEntity
8
SK2
62
256
6
ByLayer
370
18
48
1
60
0
100
AcDbMText
10
-23.229611
20
-25.467451
30
0
210
0
220
0
230
1
1
\W0.7468;36.00
40
3.50012
41
0
44
1.084337
50
0
71
7
72
5
7
iso_b_vert
0
LINE
5
18D
100
AcDbEntity
8
SK2
62
256
6
ByLayer
370
13
48
1
60
0
100
AcDbLine
10
-36
20
-4.5875
30
0
11
-36
21
-29.67512
31
0
39
0
210
0
220
0
230
1
0
LINE
5
18E
100
AcDbEntity
8
SK2
62
256
6
ByLayer
370
13
48
1
60
0
100
AcDbLine
10
0
20
-4.5875
30
0
11
0
21
-29.67512
31
0
39
0
210
0
220
0
230
1
0
LINE
5
18F
100
AcDbEntity
8
SK2
62
256
6
ByLayer
370
13
48
1
60
0
100
AcDbLine
10
-36
20
-26.50012
30
0
11
0
21
-26.50012
31
0
39
0
210
0
220
0
230
1
0
LINE
5
190
100
AcDbEntity
8
SK2
62
256
6
ByLayer
370
13
48
1
60
0
100
AcDbLine
10
-36
20
-26.50012
30
0
11
-32.825002
21
-26.082123
31
0
39
0
210
0
220
0
230
1
0
LINE
5
191
100
AcDbEntity
8
SK2
62
256
6
ByLayer
370
13
48
1
60
0
100
AcDbLine
10
-36
20
-26.50012
30
0
11
-32.824998
21
-26.918117
31
0
39
0
210
0
220
0
230
1
0
LINE
5
192
100
AcDbEntity
8
SK2
62
256
6
ByLayer
370
13
48
1
60
0
100
AcDbLine
10
-32.825002
20
-26.082123
30
0
11
-32.824998
21
-26.918117
31
0
39
0
210
0
220
0
230
1
0
LINE
5
193
100
AcDbEntity
8
SK2
62
256
6
ByLayer
370
13
48
1
60
0
100
AcDbLine
10
0
20
-26.50012
30
0
11
-3.174998
21
-26.918117
31
0
39
0
210
0
220
0
230
1
0
LINE
5
194
100
AcDbEntity
8
SK2
62
256
6
ByLayer
370
13
48
1
60
0
100
AcDbLine
10
0
20
-26.50012
30
0
11
-3.175002
21
-26.082123
31
0
39
0
210
0
220
0
230
1
0
LINE
5
195
100
AcDbEntity
8
SK2
62
256
6
ByLayer
370
13
48
1
60
0
100
AcDbLine
10
-3.174998
20
-26.918117
30
0
11
-3.175002
21
-26.082123
31
0
39
0
210
0
220
0
230
1
0
ENDBLK
5
197
100
AcDbEntity
8
0
100
AcDbBlockEnd
0
BLOCK
5
19C
100
AcDbEntity
8
0
100
AcDbBlockBegin
2
*D10
70
1
10
0
20
0
30
0
3
*D10
0
LINE
5
19E
100
AcDbEntity
8
0
62
256
6
ByLayer
370
-2
48
1
60
0
100
AcDbLine
10
6
20
1.7125
30
0
11
6
21
-20.92482
31
0
39
0
210
0
220
0
230
1
0
LINE
5
19F
100
AcDbEntity
8
0
62
256
6
ByLayer
370
-2
48
1
60
0
100
AcDbLine
10
68
20
-1.5875
30
0
11
68
21
-20.92482
31
0
39
0
210
0
220
0
230
1
0
LINE
5
1A0
100
AcDbEntity
8
0
62
256
6
ByLayer
370
-2
48
1
60
0
100
AcDbLine
10
9.175
20
-17.74982
30
0
11
64.825
21
-17.74982
31
0
39
0
210
0
220
0
230
1
0
SOLID
5
1A1
100
AcDbEntity
8
0
62
256
6
ByLayer
370
-1
48
1
60
0
100
AcDbTrace
10
9.175
20
-17.220653
30
0
11
9.175
21
-18.278987
31
0
12
6
22
-17.74982
32
0
13
6
23
-17.74982
33
0
39
0
210
0
220
0
230
1
0
SOLID
5
1A2
100
AcDbEntity
8
0
62
256
6
ByLayer
370
-1
48
1
60
0
100
AcDbTrace
10
64.825
20
-18.278987
30
0
11
64.825
21
-17.220653
31
0
12
68
22
-17.74982
32
0
13
68
23
-17.74982
33
0
39
0
210
0
220
0
230
1
0
MTEXT
5
1A3
100
AcDbEntity
8
0
62
256
6
ByLayer
370
18
48
1
60
0
100
AcDbMText
10
37
20
-10.44332
30
0
210
0
220
0
230
1
1
\A1;62
40
3.50012
41
0
44
1
50
0
71
5
72
5
7
iso_b_vert
0
POINT
5
1A4
100
AcDbEntity
8
Defpoints
62
0
6
ByLayer
370
-1
48
1
60
0
100
AcDbPoint
10
6
20
3.3
30
0
39
0
210
0
220
0
230
1
50
360
0
POINT
5
1A5
100
AcDbEntity
8
Defpoints
62
0
6
ByLayer
370
-1
48
1
60
0
100
AcDbPoint
10
68
20
0
30
0
39
0
210
0
220
0
230
1
50
360
0
POINT
5
1A6
100
AcDbEntity
8
Defpoints
62
0
6
ByLayer
370
-1
48
1
60
0
100
AcDbPoint
10
68
20
-17.74982
30
0
39
0
210
0
220
0
230
1
50
360
0
ENDBLK
5
19D
100
AcDbEntity
8
0
100
AcDbBlockEnd
0
BLOCK
5
1B2
100
AcDbEntity
8
0
100
AcDbBlockBegin
2
_U4
70
0
10
0
20
0
30
0
3
_U4
0
MTEXT
5
1A8
100
AcDbEntity
8
SK2
62
256
6
ByLayer
370
18
48
1
60
0
100
AcDbMText
10
31.770389
20
-16.717151
30
0
210
0
220
0
230
1
1
\W0.7468;62.00
40
3.50012
41
0
44
1.084337
50
0
71
7
72
5
7
iso_b_vert
0
LINE
5
1A9
100
AcDbEntity
8
SK2
62
256
6
ByLayer
370
13
48
1
60
0
100
AcDbLine
10
6
20
1.7125
30
0
11
6
21
-20.92482
31
0
39
0
210
0
220
0
230
1
0
LINE
5
1AA
100
AcDbEntity
8
SK2
62
256
6
ByLayer
370
13
48
1
60
0
100
AcDbLine
10
68
20
-1.5875
30
0
11
68
21
-20.92482
31
0
39
0
210
0
220
0
230
1
0
LINE
5
1AB
100
AcDbEntity
8
SK2
62
256
6
ByLayer
370
13
48
1
60
0
100
AcDbLine
10
6
20
-17.74982
30
0
11
68
21
-17.74982
31
0
39
0
210
0
220
0
230
1
0
LINE
5
1AC
100
AcDbEntity
8
SK2
62
256
6
ByLayer
370
13
48
1
60
0
100
AcDbLine
10
6
20
-17.74982
30
0
11
9.174998
21
-17.331823
31
0
39
0
210
0
220
0
230
1
0
LINE
5
1AD
100
AcDbEntity
8
SK2
62
256
6
ByLayer
370
13
48
1
60
0
100
AcDbLine
10
6
20
-17.74982
30
0
11
9.175002
21
-18.167817
31
0
39
0
210
0
220
0
230
1
0
LINE
5
1AE
100
AcDbEntity
8
SK2
62
256
6
ByLayer
370
13
48
1
60
0
100
AcDbLine
10
9.174998
20
-17.331823
30
0
11
9.175002
21
-18.167817
31
0
39
0
210
0
220
0
230
1
0
LINE
5
1AF
100
AcDbEntity
8
SK2
62
256
6
ByLayer
370
13
48
1
60
0
100
AcDbLine
10
68
20
-17.74982
30
0
11
64.825002
21
-18.167817
31
0
39
0
210
0
220
0
230
1
0
LINE
5
1B0
100
AcDbEntity
8
SK2
62
256
6
ByLayer
370
13
48
1
60
0
100
AcDbLine
10
68
20
-17.74982
30
0
11
64.824998
21
-17.331823
31
0
39
0
210
0
220
0
230
1
0
LINE
5
1B1
100
AcDbEntity
8
SK2
62
256
6
ByLayer
370
13
48
1
60
0
100
AcDbLine
10
64.825002
20
-18.167817
30
0
11
64.824998
21
-17.331823
31
0
39
0
210
0
220
0
230
1
0
ENDBLK
5
1B3
100
AcDbEntity
8
0
100
AcDbBlockEnd
0
BLOCK
5
1B8
100
AcDbEntity
8
0
100
AcDbBlockBegin
2
*D12
70
1
10
0
20
0
30
0
3
*D12
0
LINE
5
1BA
100
AcDbEntity
8
0
62
256
6
ByLayer
370
-2
48
1
60
0
100
AcDbLine
10
22.2
20
-4.3875
30
0
11
22.2
21
-10.32
31
0
39
0
210
0
220
0
230
1
0
LINE
5
1BB
100
AcDbEntity
8
0
62
256
6
ByLayer
370
-2
48
1
60
0
100
AcDbLine
10
68
20
-1.5875
30
0
11
68
21
-10.32
31
0
39
0
210
0
220
0
230
1
0
LINE
5
1BC
100
AcDbEntity
8
0
62
256
6
ByLayer
370
-2
48
1
60
0
100
AcDbLine
10
25.375
20
-9.82
30
0
11
64.825
21
-9.82
31
0
39
0
210
0
220
0
230
1
0
SOLID
5
1BD
100
AcDbEntity
8
0
62
256
6
ByLayer
370
-1
48
1
60
0
100
AcDbTrace
10
25.375
20
-9.290833
30
0
11
25.375
21
-10.349167
31
0
12
22.2
22
-9.82
32
0
13
22.2
23
-9.82
33
0
39
0
210
0
220
0
230
1
0
SOLID
5
1BE
100
AcDbEntity
8
0
62
256
6
ByLayer
370
-1
48
1
60
0
100
AcDbTrace
10
64.825
20
-10.349167
30
0
11
64.825
21
-9.290833
31
0
12
68
22
-9.82
32
0
13
68
23
-9.82
33
0
39
0
210
0
220
0
230
1
0
MTEXT
5
1BF
100
AcDbEntity
8
0
62
256
6
ByLayer
370
18
48
1
60
0
100
AcDbMText
10
45.1
20
-3.975
30
0
210
0
220
0
230
1
1
\A1;45.8
40
2.8
41
0
44
1
50
0
71
5
72
5
7
iso_b_vert
0
POINT
5
1C0
100
AcDbEntity
8
Defpoints
62
0
6
ByLayer
370
-1
48
1
60
0
100
AcDbPoint
10
22.2
20
-2.8
30
0
39
0
210
0
220
0
230
1
50
360
0
POINT
5
1C1
100
AcDbEntity
8
Defpoints
62
0
6
ByLayer
370
-1
48
1
60
0
100
AcDbPoint
10
68
20
0
30
0
39
0
210
0
220
0
230
1
50
360
0
POINT
5
1C2
100
AcDbEntity
8
Defpoints
62
0
6
ByLayer
370
-1
48
1
60
0
100
AcDbPoint
10
68
20
-9.82
30
0
39
0
210
0
220
0
230
1
50
360
0
ENDBLK
5
1B9
100
AcDbEntity
8
0
100
AcDbBlockEnd
0
BLOCK
5
1CE
100
AcDbEntity
8
0
100
AcDbBlockBegin
2
_U5
70
0
10
0
20
0
30
0
3
_U5
0
MTEXT
5
1C4
100
AcDbEntity
8
SK2
62
256
6
ByLayer
370
18
48
1
60
0
100
AcDbMText
10
40.769041
20
-9.973893
30
0
210
0
220
0
230
1
1
\W0.7694;45.80
40
2.8
41
0
44
1.084337
50
0
71
7
72
5
7
iso_b_vert
0
LINE
5
1C5
100
AcDbEntity
8
SK2
62
256
6
ByLayer
370
13
48
1
60
0
100
AcDbLine
10
22.2
20
-4.3875
30
0
11
22.2
21
-10.32
31
0
39
0
210
0
220
0
230
1
0
LINE
5
1C6
100
AcDbEntity
8
SK2
62
256
6
ByLayer
370
13
48
1
60
0
100
AcDbLine
10
68
20
-1.5875
30
0
11
68
21
-10.32
31
0
39
0
210
0
220
0
230
1
0
LINE
5
1C7
100
AcDbEntity
8
SK2
62
256
6
ByLayer
370
13
48
1
60
0
100
AcDbLine
10
22.2
20
-9.82
30
0
11
68
21
-9.82
31
0
39
0
210
0
220
0
230
1
0
LINE
5
1C8
100
AcDbEntity
8
SK2
62
256
6
ByLayer
370
13
48
1
60
0
100
AcDbLine
10
22.2
20
-9.82
30
0
11
25.374998
21
-9.402003
31
0
39
0
210
0
220
0
230
1
0
LINE
5
1C9
100
AcDbEntity
8
SK2
62
256
6
ByLayer
370
13
48
1
60
0
100
AcDbLine
10
22.2
20
-9.82
30
0
11
25.375002
21
-10.237997
31
0
39
0
210
0
220
0
230
1
0
LINE
5
1CA
100
AcDbEntity
8
SK2
62
256
6
ByLayer
370
13
48
1
60
0
100
AcDbLine
10
25.374998
20
-9.402003
30
0
11
25.375002
21
-10.237997
31
0
39
0
210
0
220
0
230
1
0
LINE
5
1CB
100
AcDbEntity
8
SK2
62
256
6
ByLayer
370
13
48
1
60
0
100
AcDbLine
10
68
20
-9.82
30
0
11
64.825002
21
-10.237997
31
0
39
0
210
0
220
0
230
1
0
LINE
5
1CC
100
AcDbEntity
8
SK2
62
256
6
ByLayer
370
13
48
1
60
0
100
AcDbLine
10
68
20
-9.82
30
0
11
64.824998
21
-9.402003
31
0
39
0
210
0
220
0
230
1
0
LINE
5
1CD
100
AcDbEntity
8
SK2
62
256
6
ByLayer
370
13
48
1
60
0
100
AcDbLine
10
64.825002
20
-10.237997
30
0
11
64.824998
21
-9.402003
31
0
39
0
210
0
220
0
230
1
0
ENDBLK
5
1CF
100
AcDbEntity
8
0
100
AcDbBlockEnd
0
BLOCK
5
1D4
100
AcDbEntity
8
0
100
AcDbBlockBegin
2
*D14
70
1
10
0
20
0
30
0
3
*D14
0
LINE
5
1D6
100
AcDbEntity
8
0
62
256
6
ByLayer
370
-2
48
1
60
0
100
AcDbLine
10
-36
20
-1.5875
30
0
11
-36
21
-39.67512
31
0
39
0
210
0
220
0
230
1
0
LINE
5
1D7
100
AcDbEntity
8
0
62
256
6
ByLayer
370
-2
48
1
60
0
100
AcDbLine
10
68
20
-1.5875
30
0
11
68
21
-39.67512
31
0
39
0
210
0
220
0
230
1
0
LINE
5
1D8
100
AcDbEntity
8
0
62
256
6
ByLayer
370
-2
48
1
60
0
100
AcDbLine
10
-32.825
20
-36.50012
30
0
11
64.825
21
-36.50012
31
0
39
0
210
0
220
0
230
1
0
SOLID
5
1D9
100
AcDbEntity
8
0
62
256
6
ByLayer
370
-1
48
1
60
0
100
AcDbTrace
10
-32.825
20
-35.970953
30
0
11
-32.825
21
-37.029287
31
0
12
-36
22
-36.50012
32
0
13
-36
23
-36.50012
33
0
39
0
210
0
220
0
230
1
0
SOLID
5
1DA
100
AcDbEntity
8
0
62
256
6
ByLayer
370
-1
48
1
60
0
100
AcDbTrace
10
64.825
20
-37.029287
30
0
11
64.825
21
-35.970953
31
0
12
68
22
-36.50012
32
0
13
68
23
-36.50012
33
0
39
0
210
0
220
0
230
1
0
MTEXT
5
1DB
100
AcDbEntity
8
0
62
256
6
ByLayer
370
18
48
1
60
0
100
AcDbMText
10
16
20
-29.193619
30
0
210
0
220
0
230
1
1
\A1;104
40
3.50012
41
0
44
1
50
0
71
5
72
5
7
iso_b_vert
0
POINT
5
1DC
100
AcDbEntity
8
Defpoints
62
0
6
ByLayer
370
-1
48
1
60
0
100
AcDbPoint
10
-36
20
0
30
0
39
0
210
0
220
0
230
1
50
360
0
POINT
5
1DD
100
AcDbEntity
8
Defpoints
62
0
6
ByLayer
370
-1
48
1
60
0
100
AcDbPoint
10
68
20
0
30
0
39
0
210
0
220
0
230
1
50
360
0
POINT
5
1DE
100
AcDbEntity
8
Defpoints
62
0
6
ByLayer
370
-1
48
1
60
0
100
AcDbPoint
10
68
20
-36.50012
30
0
39
0
210
0
220
0
230
1
50
360
0
ENDBLK
5
1D5
100
AcDbEntity
8
0
100
AcDbBlockEnd
0
BLOCK
5
1EA
100
AcDbEntity
8
0
100
AcDbBlockBegin
2
_U6
70
0
10
0
20
0
30
0
3
_U6
0
MTEXT
5
1E0
100
AcDbEntity
8
SK2
62
256
6
ByLayer
370
18
48
1
60
0
100
AcDbMText
10
9.715786
20
-35.467451
30
0
210
0
220
0
230
1
1
\W0.7237;104.00
40
3.50012
41
0
44
1.084337
50
0
71
7
72
5
7
iso_b_vert
0
LINE
5
1E1
100
AcDbEntity
8
SK2
62
256
6
ByLayer
370
13
48
1
60
0
100
AcDbLine
10
-36
20
-1.5875
30
0
11
-36
21
-39.67512
31
0
39
0
210
0
220
0
230
1
0
LINE
5
1E2
100
AcDbEntity
8
SK2
62
256
6
ByLayer
370
13
48
1
60
0
100
AcDbLine
10
68
20
-1.5875
30
0
11
68
21
-39.67512
31
0
39
0
210
0
220
0
230
1
0
LINE
5
1E3
100
AcDbEntity
8
SK2
62
256
6
ByLayer
370
13
48
1
60
0
100
AcDbLine
10
-36
20
-36.50012
30
0
11
68
21
-36.50012
31
0
39
0
210
0
220
0
230
1
0
LINE
5
1E4
100
AcDbEntity
8
SK2
62
256
6
ByLayer
370
13
48
1
60
0
100
AcDbLine
10
-36
20
-36.50012
30
0
11
-32.825002
21
-36.082123
31
0
39
0
210
0
220
0
230
1
0
LINE
5
1E5
100
AcDbEntity
8
SK2
62
256
6
ByLayer
370
13
48
1
60
0
100
AcDbLine
10
-36
20
-36.50012
30
0
11
-32.824998
21
-36.918117
31
0
39
0
210
0
220
0
230
1
0
LINE
5
1E6
100
AcDbEntity
8
SK2
62
256
6
ByLayer
370
13
48
1
60
0
100
AcDbLine
10
-32.825002
20
-36.082123
30
0
11
-32.824998
21
-36.918117
31
0
39
0
210
0
220
0
230
1
0
LINE
5
1E7
100
AcDbEntity
8
SK2
62
256
6
ByLayer
370
13
48
1
60
0
100
AcDbLine
10
68
20
-36.50012
30
0
11
64.825002
21
-36.918117
31
0
39
0
210
0
220
0
230
1
0
LINE
5
1E8
100
AcDbEntity
8
SK2
62
256
6
ByLayer
370
13
48
1
60
0
100
AcDbLine
10
68
20
-36.50012
30
0
11
64.824998
21
-36.082123
31
0
39
0
210
0
220
0
230
1
0
LINE
5
1E9
100
AcDbEntity
8
SK2
62
256
6
ByLayer
370
13
48
1
60
0
100
AcDbLine
10
64.825002
20
-36.918117
30
0
11
64.824998
21
-36.082123
31
0
39
0
210
0
220
0
230
1
0
ENDBLK
5
1EB
100
AcDbEntity
8
0
100
AcDbBlockEnd
0
ENDSEC
0
SECTION
2
ENTITIES
0
ARC
5
BA
100
AcDbEntity
8
1
62
256
6
ByLayer
370
18
48
1
60
0
100
AcDbCircle
39
0
10
0.845004
20
3.558664
30
0
40
0.799999999999999
210
0
220
0
230
1
100
AcDbArc
50
238.120961
51
270.03581
0
ARC
5
BB
100
AcDbEntity
8
1
62
256
6
ByLayer
370
18
48
1
60
0
100
AcDbCircle
39
0
10
0.845004
20
-3.558664
30
0
40
0.799999999999999
210
0
220
0
230
1
100
AcDbArc
50
89.96419
51
121.879039
0
ARC
5
BC
100
AcDbEntity
8
1
62
256
6
ByLayer
370
18
48
1
60
0
100
AcDbCircle
39
0
10
0
20
2.2
30
0
40
0.799999999999998
210
0
220
0
230
1
100
AcDbArc
50
58.120961
51
90
0
ARC
5
BD
100
AcDbEntity
8
1
62
256
6
ByLayer
370
18
48
1
60
0
100
AcDbCircle
39
0
10
0
20
-2.2
30
0
40
0.799999999999998
210
0
220
0
230
1
100
AcDbArc
50
270
51
301.879039
0
ARC
5
BE
100
AcDbEntity
8
SK2
62
256
6
ByLayer
370
13
48
1
60
0
100
AcDbCircle
39
0
10
68
20
0
30
0
40
20
210
0
220
0
230
1
100
AcDbArc
50
9.606349
51
70.000301
0
ARC
5
BF
100
AcDbEntity
8
SK2
62
256
6
ByLayer
370
13
48
1
60
0
100
AcDbCircle
39
0
10
68
20
0
30
0
40
20
210
0
220
0
230
1
100
AcDbArc
50
289.999699
51
350.393651
0
ELLIPSE
5
C0
100
AcDbEntity
8
1
62
256
6
ByLayer
370
18
48
1
60
0
100
AcDbEllipse
10
40.102063
20
-2.743905
30
0
11
0.1
21
0
31
0
210
0
220
0
230
1
40
1
41
1.57929457629256
42
3.14143060059729
0
ELLIPSE
5
C1
100
AcDbEntity
8
1
62
256
6
ByLayer
370
18
48
1
60
0
100
AcDbEllipse
10
40.102063
20
2.743905
30
0
11
0.1
21
0
31
0
210
0
220
0
230
1
40
1
41
-3.14143060058572
42
-1.54799302284398
0
POINT
5
70
100
AcDbEntity
8
80
62
256
6
ByLayer
370
18
48
1
60
0
100
AcDbPoint
10
0
20
0
30
0
39
0
210
0
220
0
230
1
50
360
0
POINT
5
72
100
AcDbEntity
8
81
62
256
6
ByLayer
370
18
48
1
60
0
100
AcDbPoint
10
68
20
0
30
0
39
0
210
0
220
0
230
1
50
360
0
POINT
5
74
100
AcDbEntity
8
1
62
256
6
ByLayer
370
18
48
1
60
0
100
AcDbPoint
10
-36
20
0
30
0
39
0
210
0
220
0
230
1
50
360
0
POINT
5
76
100
AcDbEntity
8
1
62
256
6
ByLayer
370
18
48
1
60
1
100
AcDbPoint
10
0
20
-3
30
0
39
0
210
0
220
0
230
1
50
360
0
POINT
5
77
100
AcDbEntity
8
1
62
256
6
ByLayer
370
18
48
1
60
1
100
AcDbPoint
10
68
20
0
30
0
39
0
210
0
220
0
230
1
50
360
0
POINT
5
78
100
AcDbEntity
8
1
62
256
6
ByLayer
370
18
48
1
60
1
100
AcDbPoint
10
66.9809
20
-2.8
30
0
39
0
210
0
220
0
230
1
50
360
0
POINT
5
79
100
AcDbEntity
8
1
62
256
6
ByLayer
370
18
48
1
60
1
100
AcDbPoint
10
66.9809
20
2.8
30
0
39
0
210
0
220
0
230
1
50
360
0
POINT
5
7A
100
AcDbEntity
8
1
62
256
6
ByLayer
370
18
48
1
60
1
100
AcDbPoint
10
-36
20
3
30
0
39
0
210
0
220
0
230
1
50
360
0
POINT
5
7B
100
AcDbEntity
8
1
62
256
6
ByLayer
370
18
48
1
60
1
100
AcDbPoint
10
-36
20
-3
30
0
39
0
210
0
220
0
230
1
50
360
0
POINT
5
7C
100
AcDbEntity
8
1
62
256
6
ByLayer
370
18
48
1
60
1
100
AcDbPoint
10
-36
20
-3
30
0
39
0
210
0
220
0
230
1
50
360
0
POINT
5
7D
100
AcDbEntity
8
1
62
256
6
ByLayer
370
18
48
1
60
1
100
AcDbPoint
10
0
20
-3
30
0
39
0
210
0
220
0
230
1
50
360
0
POINT
5
7E
100
AcDbEntity
8
1
62
256
6
ByLayer
370
18
48
1
60
1
100
AcDbPoint
10
6
20
3.3
30
0
39
0
210
0
220
0
230
1
50
360
0
POINT
5
7F
100
AcDbEntity
8
1
62
256
6
ByLayer
370
18
48
1
60
1
100
AcDbPoint
10
68
20
0
30
0
39
0
210
0
220
0
230
1
50
360
0
POINT
5
80
100
AcDbEntity
8
1
62
256
6
ByLayer
370
18
48
1
60
1
100
AcDbPoint
10
22.2
20
-2.8
30
0
39
0
210
0
220
0
230
1
50
360
0
POINT
5
81
100
AcDbEntity
8
1
62
256
6
ByLayer
370
18
48
1
60
1
100
AcDbPoint
10
68
20
0
30
0
39
0
210
0
220
0
230
1
50
360
0
POINT
5
82
100
AcDbEntity
8
1
62
256
6
ByLayer
370
18
48
1
60
1
100
AcDbPoint
10
-36
20
0
30
0
39
0
210
0
220
0
230
1
50
360
0
POINT
5
83
100
AcDbEntity
8
1
62
256
6
ByLayer
370
18
48
1
60
1
100
AcDbPoint
10
68
20
0
30
0
39
0
210
0
220
0
230
1
50
360
0
SPLINE
5
C2
100
AcDbEntity
8
1
62
256
6
ByLayer
370
18
48
1
60
0
100
AcDbSpline
70
4
71
3
72
60
73
56
40
0
40
0
40
0
40
0
40
0.125000000000002
40
0.125000000000002
40
0.187500000000004
40
0.187500000000004
40
0.250000000000006
40
0.250000000000006
40
0.281250000000008
40
0.281250000000008
40
0.31250000000001
40
0.31250000000001
40
0.343750000000011
40
0.343750000000011
40
0.359375000000012
40
0.359375000000012
40
0.375000000000013
40
0.375000000000013
40
0.406250000000015
40
0.406250000000015
40
0.437500000000017
40
0.437500000000017
40
0.453125000000018
40
0.453125000000018
40
0.46875000000002
40
0.46875000000002
40
0.500000000000024
40
0.500000000000024
40
0.531250000000028
40
0.531250000000028
40
0.562500000000032
40
0.562500000000032
40
0.625000000000042
40
0.625000000000042
40
0.656250000000047
40
0.656250000000047
40
0.671875000000049
40
0.671875000000049
40
0.679687500000051
40
0.679687500000051
40
0.683593750000051
40
0.683593750000051
40
0.687500000000052
40
0.687500000000052
40
0.695312500000051
40
0.695312500000051
40
0.70312500000005
40
0.70312500000005
40
0.718750000000048
40
0.718750000000048
40
0.750000000000043
40
0.750000000000043
40
0.875000000000021
40
0.875000000000021
40
1
40
1
40
1
40
1
41
1
10
8.2343746567069
20
-2.59678189832223
30
0
41
1
10
7.91543654060337
20
-2.53917269338126
30
-1E-16
41
1
10
7.60482055475964
20
-2.46409790243615
30
-1E-16
41
1
10
7.15855134423441
20
-2.30790756826386
30
-1E-16
41
1
10
7.01304394746163
20
-2.24846051560314
30
-1E-16
41
1
10
6.73192422731887
20
-2.10796219201083
30
-1E-16
41
1
10
6.5982526013255
20
-2.02809640136635
30
-1E-16
41
1
10
6.41401842021099
20
-1.88541360140621
30
1E-16
41
1
10
6.35582565047861
20
-1.83426892181382
30
1E-16
41
1
10
6.24884427075312
20
-1.72395755586291
30
1E-16
41
1
10
6.19985285448197
20
-1.66468813198279
30
1E-16
41
1
10
6.11400495341763
20
-1.53507038550364
30
1E-16
41
1
10
6.07736844086094
20
-1.46456975208952
30
1E-16
41
1
10
6.0371068677872
20
-1.35304009979114
30
1E-16
41
1
10
6.02602074033524
20
-1.3147307299202
30
1E-16
41
1
10
6.00909501037882
20
-1.23557406510565
30
1E-16
41
1
10
6.00332159471816
20
-1.19473709088325
30
1E-16
41
1
10
5.99488413874289
20
-1.07205046903891
30
1E-16
41
1
10
6.00076263356669
20
-0.988805960731241
30
1E-16
41
1
10
6.03573134491526
20
-0.81946093358863
30
1E-16
41
1
10
6.06404294187217
20
-0.736975135673532
30
0
41
1
10
6.11950932474275
20
-0.616379933521358
30
0
41
1
10
6.14028424321972
20
-0.576542985972367
30
0
41
1
10
6.18490638657067
20
-0.499289075929369
30
0
41
1
10
6.20882320109038
20
-0.461685367547119
30
0
41
1
10
6.28468507698955
20
-0.351498873999276
30
0
41
1
10
6.34070709014355
20
-0.281518949610415
30
0
41
1
10
6.46114431390188
20
-0.146937907124055
30
0
41
1
10
6.52532222944947
20
-0.082691706221425
30
0
41
1
10
6.65755826508561
20
0.0390664547840629
30
0
41
1
10
6.72597153433813
20
0.0969529988758495
30
0
41
1
10
6.93662425486966
20
0.263563276075331
30
0
41
1
10
7.08426300085239
20
0.365370881991964
30
0
41
1
10
7.31298436319028
20
0.508295358588697
30
0
41
1
10
7.39017056895236
20
0.554095869326801
30
0
41
1
10
7.5071575192726
20
0.62045670336579
30
0
41
1
10
7.54635515394969
20
0.6421855685156
30
0
41
1
10
7.60543357634188
20
0.674233696133768
30
0
41
1
10
7.62517450228853
20
0.68482605006858
30
0
41
1
10
7.65485009030795
20
0.700580770398858
30
0
41
1
10
7.6647523660645
20
0.705809889131729
30
0
41
1
10
7.68457739335526
20
0.716224004234334
30
0
41
1
10
7.69432634882466
20
0.721771580160947
30
0
41
1
10
7.72506704042615
20
0.735378281992354
30
0
41
1
10
7.74774541006087
20
0.737954158517567
30
0
41
1
10
7.79248669385936
20
0.735306173171438
30
0
41
1
10
7.81382400001877
20
0.729209803661291
30
0
41
1
10
7.87737926464615
20
0.710002202546264
30
0
41
1
10
7.91970611848637
20
0.697041038277717
30
0
41
1
10
8.04636887226263
20
0.657147516102015
30
0
41
1
10
8.13046144544217
20
0.629447796047401
30
0
41
1
10
8.54924077548628
20
0.485521384576856
30
0
41
1
10
8.8774909557219
20
0.353211876124618
30
0
41
1
10
9.52382042119851
20
0.0607022283933247
30
0
41
1
10
9.84120582675564
20
-0.0990668699373032
30
0
41
1
10
10.1544228066341
20
-0.265795019139233
30
0
0
SPLINE
5
C3
100
AcDbEntity
8
1
62
256
6
ByLayer
370
18
48
1
60
0
100
AcDbSpline
70
4
71
3
72
8
73
4
40
0
40
0
40
0
40
0
40
1
40
1
40
1
40
1
41
1
10
67.9959245075952
20
0.198774475363535
30
0
41
1
10
67.9806063130998
20
0.14697337712235
30
0
41
1
10
67.9651930269825
20
0.0952027199561485
30
0
41
1
10
67.949685093159
20
0.0434623617569514
30
0
0
SPLINE
5
C4
100
AcDbEntity
8
1
62
256
6
ByLayer
370
18
48
1
60
0
100
AcDbSpline
70
4
71
3
72
34
73
30
40
0
40
0
40
0
40
0
40
0.04616588163138
40
0.04616588163138
40
0.143056164139531
40
0.143056164139531
40
0.239946446647682
40
0.239946446647682
40
0.336836729155833
40
0.336836729155833
40
0.433727011663984
40
0.433727011663984
40
0.48217215291806
40
0.48217215291806
40
0.530617294172136
40
0.530617294172136
40
0.579062435426211
40
0.579062435426211
40
0.627507576680287
40
0.627507576680287
40
0.675952717934362
40
0.675952717934362
40
0.724397859188438
40
0.724397859188438
40
0.821288141696589
40
0.821288141696589
40
0.91817842420474
40
0.91817842420474
40
1
40
1
40
1
40
1
41
1
10
50.4947165816439
20
-0.195517250733673
30
0
41
1
10
50.3631224681659
20
-0.128387175630451
30
0
41
1
10
50.2312978543553
20
-0.0610519564596643
30
0
41
1
10
49.8216537194787
20
0.147068953252699
30
0
41
1
10
49.5416303036885
20
0.288541097923655
30
0
41
1
10
48.9865665483877
20
0.567433365573976
30
0
41
1
10
48.7106476882415
20
0.704621955602647
30
0
41
1
10
48.1599120321201
20
0.97084321495808
30
-1E-16
41
1
10
47.8851109193908
20
1.09999001766096
30
-1E-16
41
1
10
47.334833123332
20
1.34791132463906
30
-1E-16
41
1
10
47.0595457742569
20
1.46690141074294
30
-1E-16
41
1
10
46.6461562191667
20
1.63568455649164
30
-1E-16
41
1
10
46.5082863174974
20
1.69030311355141
30
-1E-16
41
1
10
46.2318173191541
20
1.79609989454525
30
-1E-16
41
1
10
46.0932130581226
20
1.84727613318282
30
1E-16
41
1
10
45.8152236269258
20
1.9459756122597
30
1E-16
41
1
10
45.6755638922075
20
1.99359119951285
30
1E-16
41
1
10
45.3972500835986
20
2.08403498751704
30
1E-16
41
1
10
45.2585164606956
20
2.12689959142142
30
1E-16
41
1
10
44.9819711215474
20
2.20747790443642
30
1E-16
41
1
10
44.8441673824967
20
2.2451829520511
30
1E-16
41
1
10
44.5686965000369
20
2.31599686826101
30
1E-16
41
1
10
44.431016367749
20
2.34911539609129
30
1E-16
41
1
10
44.0182040820046
20
2.44116615000291
30
1E-16
41
1
10
43.7433162351952
20
2.49280043889812
30
0
41
1
10
43.1934338234814
20
2.57413001641231
30
0
41
1
10
42.9183885079838
20
2.60399195921673
30
0
41
1
10
42.4093874305009
20
2.63811625142861
30
0
41
1
10
42.1756850218834
20
2.64565829571401
30
0
41
1
10
41.9407312052619
20
2.64592088135794
30
0
0
SPLINE
5
C5
100
AcDbEntity
8
1
62
256
6
ByLayer
370
18
48
1
60
0
100
AcDbSpline
70
4
71
3
72
18
73
14
40
0
40
0
40
0
40
0
40
0.25578987506404
40
0.25578987506404
40
0.38368481259606
40
0.38368481259606
40
0.51157975012808
40
0.51157975012808
40
0.76736962519212
40
0.76736962519212
40
0.895264562724139
40
0.895264562724139
40
1
40
1
40
1
40
1
41
1
10
66.8489863444371
20
0.466274593266661
30
0
41
1
10
66.8106537733654
20
0.50037877572214
30
0
41
1
10
66.7733652946688
20
0.532765917245882
30
0
41
1
10
66.7210133683788
20
0.576682297586473
30
0
41
1
10
66.7041256447336
20
0.590569044047697
30
0
41
1
10
66.6711041007738
20
0.617335338279503
30
0
41
1
10
66.654913352426
20
0.630290940682301
30
0
41
1
10
66.608287553028
20
0.666557338228102
30
0
41
1
10
66.5797746331575
20
0.687138839000625
30
0
41
1
10
66.5451577012053
20
0.708370064147601
30
0
41
1
10
66.5348526173509
20
0.713964469897746
30
0
41
1
10
66.5169971854738
20
0.723072393624108
30
0
41
1
10
66.5096004629669
20
0.726399922281246
30
0
41
1
10
66.5036072880344
20
0.728189501999594
30
0
0
SPLINE
5
C6
100
AcDbEntity
8
1
62
256
6
ByLayer
370
18
48
1
60
0
100
AcDbSpline
70
4
71
3
72
22
73
18
40
0
40
0
40
0
40
0
40
0.477395985478958
40
0.477395985478958
40
0.731799072981798
40
0.731799072981798
40
0.862556245014504
40
0.862556245014504
40
0.930723935975962
40
0.930723935975962
40
0.966322635612939
40
0.966322635612939
40
0.984443106368821
40
0.984443106368821
40
0.993725188594267
40
0.993725188594267
40
1
40
1
40
1
40
1
41
1
10
66.8555937820003
20
2.79950183381109
30
0
41
1
10
66.8823246946319
20
2.7820258652545
30
0
41
1
10
66.9090940125092
20
2.76438514308208
30
0
41
1
10
66.9501988915474
20
2.73709159997165
30
0
41
1
10
66.9645111139069
20
2.72754987031729
30
0
41
1
10
66.9862012457415
20
2.71303377543711
30
0
41
1
10
66.9935649992366
20
2.70809602614176
30
0
41
1
10
67.004748968803
20
2.700582125431
30
0
41
1
10
67.0085781370525
20
2.69800690930029
30
0
41
1
10
67.0143987381246
20
2.69408833202809
30
0
41
1
10
67.0163867028091
20
2.69274924462758
30
0
41
1
10
67.0194221990055
20
2.69070344555533
30
0
41
1
10
67.0204651037188
20
2.69000041218322
30
0
41
1
10
67.0220291714321
20
2.68894581246488
30
0
41
1
10
67.0225585471903
20
2.68858883173175
30
0
41
1
10
67.0233907652093
20
2.68802739139517
30
0
41
1
10
67.0237129759448
20
2.68780994158266
30
0
41
1
10
67.0239857593544
20
2.68762566669616
30
0
0
SPLINE
5
C7
100
AcDbEntity
8
1
62
256
6
ByLayer
370
18
48
1
60
0
100
AcDbSpline
70
4
71
3
72
32
73
28
40
0
40
0
40
0
40
0
40
0.0761815245436501
40
0.0761815245436501
40
0.142168558504816
40
0.142168558504816
40
0.175162075485399
40
0.175162075485399
40
0.208155592465981
40
0.208155592465981
40
0.472103728310646
40
0.472103728310646
40
0.505097245291231
40
0.505097245291231
40
0.538090762271816
40
0.538090762271816
40
0.604077796232983
40
0.604077796232983
40
0.736051864155319
40
0.736051864155319
40
0.769045381135905
40
0.769045381135905
40
0.802038898116491
40
0.802038898116491
40
0.868025932077661
40
0.868025932077661
40
1
40
1
40
1
40
1
41
1
10
52.7445864663548
20
-2.68825364344775
30
0
41
1
10
52.4236715025957
20
-2.7343334999359
30
0
41
1
10
52.1035151418655
20
-2.76496190177642
30
0
41
1
10
51.5053263459159
20
-2.79265266086617
30
0
41
1
10
51.2273172482085
20
-2.79364441351444
30
0
41
1
10
50.8086631600003
20
-2.77707448796221
30
0
41
1
10
50.6688611020128
20
-2.76853621345094
30
0
41
1
10
50.3885066416657
20
-2.74538363305999
30
-1E-16
41
1
10
50.2476498089564
20
-2.73072997249451
30
-1E-16
41
1
10
48.9833810493349
20
-2.57250193769423
30
-1E-16
41
1
10
47.885513958372
20
-2.24523193462329
30
-1E-16
41
1
10
46.6233971028725
20
-1.72503538709768
30
1E-16
41
1
10
46.4824929368306
20
-1.66498881561287
30
1E-16
41
1
10
46.2015363338937
20
-1.5417463417634
30
1E-16
41
1
10
46.0614705824291
20
-1.47855601346538
30
1E-16
41
1
10
45.6421642826747
20
-1.2849024297291
30
1E-16
41
1
10
45.3638199194492
20
-1.15034993347211
30
1E-16
41
1
10
44.5301884906954
20
-0.734331948409022
30
0
41
1
10
43.9762600009247
20
-0.440556548854914
30
0
41
1
10
43.2781355648992
20
-0.0675533796400032
30
0
41
1
10
43.1382280262769
20
0.0073410399170939
30
0
41
1
10
42.8576615618729
20
0.157373781565553
30
0
41
1
10
42.7167444504768
20
0.232649008907032
30
0
41
1
10
42.2949613008057
20
0.456932771538476
30
0
41
1
10
42.0149688404022
20
0.604528892917301
30
0
41
1
10
41.1760574061796
20
1.03698434678174
30
-1E-16
41
1
10
40.6178716081004
20
1.31093307734156
30
-1E-16
41
1
10
40.0548959777892
20
1.56011817735219
30
-1E-16
0
SPLINE
5
C8
100
AcDbEntity
8
1
62
256
6
ByLayer
370
18
48
1
60
0
100
AcDbSpline
70
4
71
3
72
30
73
26
40
0
40
0
40
0
40
0
40
0.0792392970206247
40
0.0792392970206247
40
0.158478594041249
40
0.158478594041249
40
0.198098242551562
40
0.198098242551562
40
0.237717891061874
40
0.237717891061874
40
0.316957188082499
40
0.316957188082499
40
0.475435782123751
40
0.475435782123751
40
0.554675079144377
40
0.554675079144377
40
0.633914376165003
40
0.633914376165003
40
0.71315367318563
40
0.71315367318563
40
0.792392970206256
40
0.792392970206256
40
0.950871564247508
40
0.950871564247508
40
1
40
1
40
1
40
1
41
1
10
40.0000000000001
20
1.24696769626965
30
-1E-16
41
1
10
40.2814313821534
20
1.11255722903184
30
-1E-16
41
1
10
40.5631525869443
20
0.972564509986682
30
-1E-16
41
1
10
41.1255446241291
20
0.685769902857402
30
0
41
1
10
41.4061240182032
20
0.538978180721074
30
0
41
1
10
41.8272670721498
20
0.315900295656718
30
0
41
1
10
41.967696408115
20
0.241064208437422
30
0
41
1
10
42.2488684142746
20
0.09083871383217
30
0
41
1
10
42.3897599882382
20
0.0153702801123075
30
0
41
1
10
42.8108505321033
20
-0.209982649069474
30
0
41
1
10
43.0901365412674
20
-0.359147267757777
30
0
41
1
10
43.9260351994809
20
-0.799115799572576
30
0
41
1
10
44.4806415040746
20
-1.08246424054738
30
1E-16
41
1
10
45.3181059002289
20
-1.47529124894223
30
1E-16
41
1
10
45.5985320066829
20
-1.60104234472922
30
1E-16
41
1
10
46.1612712356988
20
-1.83838226520388
30
1E-16
41
1
10
46.4417798756646
20
-1.94920504403331
30
-1E-16
41
1
10
47.0027794948897
20
-2.15294885849559
30
-1E-16
41
1
10
47.2832781630307
20
-2.24586288474347
30
-1E-16
41
1
10
47.8459013587754
20
-2.41175821050194
30
-1E-16
41
1
10
48.1264933847594
20
-2.48426579480909
30
-1E-16
41
1
10
48.9634717236426
20
-2.66776926575165
30
1E-16
41
1
10
49.5172135118594
20
-2.74530423232642
30
-1E-16
41
1
10
50.245171006315
20
-2.7847894423418
30
0
41
1
10
50.4176199067525
20
-2.78958045854023
30
0
41
1
10
50.5904506988188
20
-2.78975298919855
30
0
0
SPLINE
5
C9
100
AcDbEntity
8
1
62
256
6
ByLayer
370
18
48
1
60
0
100
AcDbSpline
70
4
71
3
72
10
73
6
40
0
40
0
40
0
40
0
40
0.254565469200798
40
0.254565469200798
40
1
40
1
40
1
40
1
41
1
10
65.725845907422
20
2.72274054098594
30
0
41
1
10
65.8212742456938
20
2.73472219457412
30
0
41
1
10
65.9168588636813
20
2.74534751975423
30
0
41
1
10
66.2930912191006
20
2.7816481661103
30
0
41
1
10
66.5746326676833
20
2.7967156360688
30
0
41
1
10
66.855593782005
20
2.7995018338197
30
0
0
SPLINE
5
CA
100
AcDbEntity
8
1
62
256
6
ByLayer
370
18
48
1
60
0
100
AcDbSpline
70
4
71
3
72
28
73
24
40
0
40
0
40
0
40
0
40
0.0468914297496377
40
0.0468914297496377
40
0.150772515837404
40
0.150772515837404
40
0.202713058881284
40
0.202713058881284
40
0.254653601925165
40
0.254653601925165
40
0.358534688012931
40
0.358534688012931
40
0.566296860188463
40
0.566296860188463
40
0.670177946276228
40
0.670177946276228
40
0.722118489320113
40
0.722118489320113
40
0.774059032363998
40
0.774059032363998
40
0.98182120453953
40
0.98182120453953
40
1
40
1
40
1
40
1
41
1
10
51.4107736952332
20
-2.66004334221785
30
0
41
1
10
51.2834479328488
20
-2.66101365009402
30
0
41
1
10
51.1561485632125
20
-2.65960987697989
30
0
41
1
10
50.747451180194
20
-2.64742631489003
30
0
41
1
10
50.4663653461936
20
-2.62745152121633
30
0
41
1
10
50.0441967869574
20
-2.58005377804332
30
0
41
1
10
49.9033830170504
20
-2.56142654134476
30
0
41
1
10
49.6213894658452
20
-2.51859449650689
30
0
41
1
10
49.4801194881788
20
-2.49436260513454
30
0
41
1
10
49.0580411834875
20
-2.41389002389352
30
-1E-16
41
1
10
48.7781416570348
20
-2.3496162656694
30
-1E-16
41
1
10
47.9407937831438
20
-2.1277575859975
30
-1E-16
41
1
10
47.3855508477132
20
-1.94157443754912
30
-1E-16
41
1
10
46.5484453099646
20
-1.6161107679481
30
1E-16
41
1
10
46.2687326078284
20
-1.49985475949711
30
1E-16
41
1
10
45.8469812534618
20
-1.3154780856612
30
1E-16
41
1
10
45.7057470847629
20
-1.25224276254337
30
1E-16
41
1
10
45.4238203829602
20
-1.12343381179389
30
1E-16
41
1
10
45.2832542753774
20
-1.05792487645709
30
1E-16
41
1
10
44.5819537507263
20
-0.725769565644242
30
0
41
1
10
44.0258949649395
20
-0.444992580202126
30
0
41
1
10
43.4200161720642
20
-0.136504513731211
30
0
41
1
10
43.3712594980323
20
-0.111659454274445
30
0
41
1
10
43.3224905395149
20
-0.0867975644319756
30
0
0
SPLINE
5
CB
100
AcDbEntity
8
1
62
256
6
ByLayer
370
18
48
1
60
0
100
AcDbSpline
70
4
71
3
72
8
73
4
40
0
40
0
40
0
40
0
40
1
40
1
40
1
40
1
41
1
10
67.772872548357
20
0.843755619524586
30
0
41
1
10
67.8489814801801
20
0.629394396706118
30
0
41
1
10
67.9233397413361
20
0.414403418779841
30
0
41
1
10
67.9959245075952
20
0.198774475363535
30
0
0
SPLINE
5
CC
100
AcDbEntity
8
1
62
256
6
ByLayer
370
18
48
1
60
0
100
AcDbSpline
70
4
71
3
72
8
73
4
40
0
40
0
40
0
40
0
40
1
40
1
40
1
40
1
41
1
10
40.0000000000001
20
1.21022231535153
30
-1E-16
41
1
10
40.0000000000001
20
1.20635858288651
30
-1E-16
41
1
10
40.0000000000001
20
1.20197147953218
30
-1E-16
41
1
10
40.0000000000001
20
1.19706467612076
30
-1E-16
0
SPLINE
5
CD
100
AcDbEntity
8
1
62
256
6
ByLayer
370
18
48
1
60
0
100
AcDbSpline
70
4
71
3
72
8
73
4
40
0
40
0
40
0
40
0
40
1
40
1
40
1
40
1
41
1
10
67.9959245075952
20
0.198774475363535
30
0
41
1
10
68.0013613130126
20
0.0661894969786374
30
0
41
1
10
68.0013556848354
20
-0.066326748847672
30
0
41
1
10
67.9959245075957
20
-0.198774475350376
30
0
0
SPLINE
5
CE
100
AcDbEntity
8
1
62
256
6
ByLayer
370
18
48
1
60
0
100
AcDbSpline
70
4
71
3
72
14
73
10
40
0
40
0
40
0
40
0
40
0.269329816550861
40
0.269329816550861
40
0.503259960452556
40
0.503259960452556
40
0.779672562463969
40
0.779672562463969
40
1
40
1
40
1
40
1
41
1
10
66.6778878373062
20
-0.0984747305266183
30
0
41
1
10
66.6786163733773
20
-0.0987946337002938
30
0
41
1
10
66.6793267987483
20
-0.0994883256805963
30
0
41
1
10
66.680504084949
20
-0.101217966011859
30
0
41
1
10
66.681006866841
20
-0.102220217866176
30
0
41
1
10
66.6819433813347
20
-0.104672422351996
30
0
41
1
10
66.6823629916633
20
-0.106208199684261
30
0
41
1
10
66.6828802990256
20
-0.10914308213566
30
0
41
1
10
66.6830310079071
20
-0.110541048102732
30
0
41
1
10
66.6830725621517
20
-0.111938189113999
30
0
0
SPLINE
5
CF
100
AcDbEntity
8
1
62
256
6
ByLayer
370
18
48
1
60
0
100
AcDbSpline
70
4
71
3
72
10
73
6
40
0
40
0
40
0
40
0
40
0.5
40
0.5
40
1
40
1
40
1
40
1
41
1
10
67.0291840943673
20
-2.68412004720491
30
0
41
1
10
67.0183103485762
20
-2.69157662611983
30
0
41
1
10
67.0088420150275
20
-2.695417667518
30
0
41
1
10
66.9924884520469
20
-2.6958870895738
30
0
41
1
10
66.9855588646061
20
-2.69256191704457
30
0
41
1
10
66.9795037211993
20
-2.68590502817651
30
0
0
SPLINE
5
D0
100
AcDbEntity
8
1
62
256
6
ByLayer
370
18
48
1
60
0
100
AcDbSpline
70
4
71
3
72
18
73
14
40
0
40
0
40
0
40
0
40
0.499999999999993
40
0.499999999999993
40
0.562499999999994
40
0.562499999999994
40
0.624999999999995
40
0.624999999999995
40
0.749999999999997
40
0.749999999999997
40
0.874999999999998
40
0.874999999999998
40
1
40
1
40
1
40
1
41
1
10
67.0291840943671
20
-2.68412004720503
30
0
41
1
10
67.140534801836
20
-2.36762084268625
30
0
41
1
10
67.2510275741909
20
-2.04594216407719
30
0
41
1
10
67.379789027282
20
-1.68657153978572
30
0
41
1
10
67.3941987628413
20
-1.64677649620862
30
0
41
1
10
67.4236713935457
20
-1.56791612013785
30
0
41
1
10
67.4386899609699
20
-1.52879535686159
30
0
41
1
10
67.4847620858758
20
-1.41243053297251
30
0
41
1
10
67.5168426772788
20
-1.33619475160899
30
0
41
1
10
67.5846524829408
20
-1.18681154487504
30
0
41
1
10
67.6207101673668
20
-1.11308559952482
30
0
41
1
10
67.6949756776533
20
-0.973332812627888
30
0
41
1
10
67.7332810335771
20
-0.906934081115963
30
0
41
1
10
67.7728725483569
20
-0.843755619524671
30
0
0
SPLINE
5
D1
100
AcDbEntity
8
1
62
256
6
ByLayer
370
18
48
1
60
0
100
AcDbSpline
70
4
71
3
72
34
73
30
40
0
40
0
40
0
40
0
40
0.0853041395358418
40
0.0853041395358418
40
0.186498508028555
40
0.186498508028555
40
0.287692876521268
40
0.287692876521268
40
0.338290060767625
40
0.338290060767625
40
0.388887245013981
40
0.388887245013981
40
0.439484429260338
40
0.439484429260338
40
0.490081613506694
40
0.490081613506694
40
0.540678797753051
40
0.540678797753051
40
0.591275981999408
40
0.591275981999408
40
0.692470350492121
40
0.692470350492121
40
0.793664718984835
40
0.793664718984835
40
0.894859087477548
40
0.894859087477548
40
0.996053455970262
40
0.996053455970262
40
1
40
1
40
1
40
1
41
1
10
41.9452053095362
20
2.65590487520535
30
0
41
1
10
42.1795694284014
20
2.65604476997601
30
0
41
1
10
42.4126847737514
20
2.64890778474054
30
0
41
1
10
42.9208952480605
20
2.61566356168163
30
0
41
1
10
43.1957281089646
20
2.58622689512629
30
0
41
1
10
43.7451880840604
20
2.50568895062659
30
0
41
1
10
44.0198624785306
20
2.45441200869365
30
1E-16
41
1
10
44.4323477611327
20
2.36282445251339
30
1E-16
41
1
10
44.5699179930025
20
2.32984773171654
30
1E-16
41
1
10
44.8451677489812
20
2.25929684026551
30
1E-16
41
1
10
44.982861154541
20
2.22172015052371
30
1E-16
41
1
10
45.2591911277018
20
2.14138870863758
30
1E-16
41
1
10
45.397818588145
20
2.09863273455932
30
1E-16
41
1
10
45.675922050686
20
2.00837453060487
30
1E-16
41
1
10
45.8154915362586
20
1.96083097457742
30
1E-16
41
1
10
46.0932953945028
20
1.8622425898397
30
1E-16
41
1
10
46.23180384662
20
1.81110929593461
30
-1E-16
41
1
10
46.5080736098629
20
1.70537099511776
30
-1E-16
41
1
10
46.6458415901658
20
1.65077501253433
30
-1E-16
41
1
10
47.0589315931031
20
1.48204913718774
30
-1E-16
41
1
10
47.3340130867367
20
1.36303015760691
30
-1E-16
41
1
10
47.8838640908063
20
1.11493417624223
30
-1E-16
41
1
10
48.1584450072338
20
0.985641362665319
30
-1E-16
41
1
10
48.7087337676783
20
0.719046014761261
30
0
41
1
10
48.9844284107111
20
0.581607399601893
30
0
41
1
10
49.5390365668335
20
0.3021142897787
30
0
41
1
10
49.8188880373203
20
0.160259224742958
30
0
41
1
10
50.1069669250529
20
0.0133518715876733
30
0
41
1
10
50.1177776687829
20
0.0078363816347178
30
0
41
1
10
50.1285859744786
20
0.0023198862508877
30
0
0
SPLINE
5
D2
100
AcDbEntity
8
1
62
256
6
ByLayer
370
18
48
1
60
0
100
AcDbSpline
70
4
71
3
72
10
73
6
40
0
40
0
40
0
40
0
40
0.5
40
0.5
40
1
40
1
40
1
40
1
41
1
10
67.0291840943673
20
2.68412004720491
30
0
41
1
10
67.0183103485763
20
2.6915766261198
30
0
41
1
10
67.0088420150276
20
2.69541766751792
30
0
41
1
10
66.992488452047
20
2.69588708957372
30
0
41
1
10
66.9855588646061
20
2.69256191704454
30
0
41
1
10
66.9795037211993
20
2.68590502817648
30
0
0
SPLINE
5
D3
100
AcDbEntity
8
1
62
256
6
ByLayer
370
18
48
1
60
0
100
AcDbSpline
70
4
71
3
72
10
73
6
40
0
40
0
40
0
40
0
40
0.5
40
0.5
40
1
40
1
40
1
40
1
41
1
10
66.8489863444372
20
0.46627459326686
30
0
41
1
10
66.8074175926566
20
0.450354579092533
30
0
41
1
10
66.766702676196
20
0.430246876019936
30
0
41
1
10
66.687207500746
20
0.383759506604207
30
0
41
1
10
66.6485298718777
20
0.356540288396246
30
0
41
1
10
66.6112434047039
20
0.324986440040419
30
0
0
SPLINE
5
D4
100
AcDbEntity
8
1
62
256
6
ByLayer
370
18
48
1
60
0
100
AcDbSpline
70
2053
71
3
72
50
73
46
40
0
40
0
40
0
40
0
40
0.0625000000000011
40
0.0625000000000011
40
0.125000000000002
40
0.125000000000002
40
0.187500000000003
40
0.187500000000003
40
0.250000000000004
40
0.250000000000004
40
0.281250000000004
40
0.281250000000004
40
0.312500000000004
40
0.312500000000004
40
0.343750000000004
40
0.343750000000004
40
0.375000000000004
40
0.375000000000004
40
0.406250000000004
40
0.406250000000004
40
0.437500000000004
40
0.437500000000004
40
0.500000000000003
40
0.500000000000003
40
0.562500000000003
40
0.562500000000003
40
0.625000000000003
40
0.625000000000003
40
0.656250000000003
40
0.656250000000003
40
0.687500000000002
40
0.687500000000002
40
0.718750000000002
40
0.718750000000002
40
0.750000000000002
40
0.750000000000002
40
0.781250000000002
40
0.781250000000002
40
0.812500000000001
40
0.812500000000001
40
0.875000000000001
40
0.875000000000001
40
0.9375
40
0.9375
40
1
40
1
40
1
40
1
41
1
10
67.3012353854067
20
-1.10971711352546
30
0
41
1
10
67.2798531796815
20
-1.13492740291812
30
0
41
1
10
67.2598603509231
20
-1.15143324655938
30
0
41
1
10
67.2218051121216
20
-1.16755255790463
30
1E-16
41
1
10
67.2047444408625
20
-1.16670820091571
30
1E-16
41
1
10
67.1736928740957
20
-1.14663764200108
30
1E-16
41
1
10
67.1605053373121
20
-1.12794116866107
30
1E-16
41
1
10
67.1384544750653
20
-1.07206539081642
30
1E-16
41
1
10
67.1301724319212
20
-1.0364178125046
30
1E-16
41
1
10
67.1225347493067
20
-0.970541324500374
30
1E-16
41
1
10
67.1209053340465
20
-0.947258106475829
30
1E-16
41
1
10
67.119608133406
20
-0.898071683896944
30
1E-16
41
1
10
67.1199601863736
20
-0.871785684424538
30
1E-16
41
1
10
67.1229858103559
20
-0.818054356139612
30
1E-16
41
1
10
67.125610999032
20
-0.790923328224608
30
0
41
1
10
67.133350454947
20
-0.736139388614816
30
0
41
1
10
67.1385114982758
20
-0.708513507835335
30
0
41
1
10
67.1509838569995
20
-0.655981133688499
30
0
41
1
10
67.1584589877499
20
-0.630350872773761
30
0
41
1
10
67.1752689906115
20
-0.582684958422448
30
0
41
1
10
67.1845329819719
20
-0.560715589413974
30
0
41
1
10
67.2148225064255
20
-0.500006849527665
30
0
41
1
10
67.2376345530906
20
-0.468113386084724
30
0
41
1
10
67.2844858708997
20
-0.421961769972398
30
0
41
1
10
67.3086611223314
20
-0.407521727919402
30
0
41
1
10
67.3548732023372
20
-0.395159423065849
30
0
41
1
10
67.377332233987
20
-0.39714606396646
30
0
41
1
10
67.4072358758846
20
-0.412119635428581
30
0
41
1
10
67.416589893985
20
-0.419077352214657
30
0
41
1
10
67.4338886146885
20
-0.437185810090568
30
0
41
1
10
67.4418879676426
20
-0.448476009810861
30
0
41
1
10
67.4556504488503
20
-0.474978799234833
30
0
41
1
10
67.4614799150293
20
-0.490202420713757
30
0
41
1
10
67.470723902745
20
-0.525106011306065
30
0
41
1
10
67.4740865058862
20
-0.544795558318583
30
0
41
1
10
67.477757161567
20
-0.587357473367092
30
0
41
1
10
67.4781048878853
20
-0.610757928367605
30
0
41
1
10
67.4755706762978
20
-0.65998355799934
30
0
41
1
10
67.4727490151146
20
-0.685539001095293
30
0
41
1
10
67.4596896011368
20
-0.765177221804123
30
0
41
1
10
67.4448594648254
20
-0.820689418137476
30
1E-16
41
1
10
67.4089384737644
20
-0.923157254630809
30
-1E-16
41
1
10
67.3878555798318
20
-0.970585094036835
30
-1E-16
41
1
10
67.3447593685697
20
-1.05107783450484
30
0
41
1
10
67.3226175911318
20
-1.0845068241328
30
0
41
1
10
67.3012353854067
20
-1.10971711352546
30
0
0
SPLINE
5
D5
100
AcDbEntity
8
1
62
256
6
ByLayer
370
18
48
1
60
0
100
AcDbSpline
70
4
71
3
72
16
73
12
40
0
40
0
40
0
40
0
40
0.494999654746988
40
0.494999654746988
40
0.758783692144057
40
0.758783692144057
40
0.894362450623477
40
0.894362450623477
40
0.965043781256188
40
0.965043781256188
40
1
40
1
40
1
40
1
41
1
10
66.8555937820056
20
-2.79950183380765
30
0
41
1
10
66.8823246946356
20
-2.78202586525202
30
0
41
1
10
66.9090940125114
20
-2.76438514308057
30
0
41
1
10
66.950198891548
20
-2.73709159997122
30
0
41
1
10
66.9645111139075
20
-2.72754987031692
30
0
41
1
10
66.9862012457419
20
-2.71303377543691
30
0
41
1
10
66.9935649992368
20
-2.70809602614165
30
0
41
1
10
67.004748968803
20
-2.70058212543103
30
0
41
1
10
67.0085781370524
20
-2.69800690930035
30
0
41
1
10
67.0142929670311
20
-2.69415953982914
30
0
41
1
10
67.0161760767558
20
-2.69289111966043
30
0
41
1
10
67.0180788922225
20
-2.691608772796
30
0
0
SPLINE
5
D6
100
AcDbEntity
8
1
62
256
6
ByLayer
370
18
48
1
60
0
100
AcDbSpline
70
4
71
3
72
8
73
4
40
0
40
0
40
0
40
0
40
1
40
1
40
1
40
1
41
1
10
66.9932173097065
20
-2.64699589677599
30
0
41
1
10
66.9886263786921
20
-2.65996673055091
30
0
41
1
10
66.9840550314913
20
-2.67293638924514
30
0
41
1
10
66.9795037211993
20
-2.68590502817676
30
0
0
SPLINE
5
D7
100
AcDbEntity
8
1
62
256
6
ByLayer
370
18
48
1
60
0
100
AcDbSpline
70
4
71
3
72
16
73
12
40
0
40
0
40
0
40
0
40
0.155229654655343
40
0.155229654655343
40
0.324183723724274
40
0.324183723724274
40
0.662091861862137
40
0.662091861862137
40
0.831045930931068
40
0.831045930931068
40
1
40
1
40
1
40
1
41
1
10
40.1027859486601
20
2.64390107114107
30
0
41
1
10
40.1027641703408
20
2.64415426762289
30
0
41
1
10
40.1027410415005
20
2.63410550252669
30
0
41
1
10
40.1026910744583
20
2.59209143756289
30
0
41
1
10
40.1026639374352
20
2.55823349262462
30
0
41
1
10
40.1025796594633
20
2.42146795702533
30
1E-16
41
1
10
40.10252033901
20
2.28393975093417
30
1E-16
41
1
10
40.1024252812193
20
2.01841597294339
30
1E-16
41
1
10
40.1023926366196
20
1.92039566396153
30
1E-16
41
1
10
40.1023246110339
20
1.70725075111724
30
-1E-16
41
1
10
40.1022895034719
20
1.59302296946407
30
-1E-16
41
1
10
40.1022525046028
20
1.47109892609018
30
-1E-16
0
SPLINE
5
D8
100
AcDbEntity
8
1
62
256
6
ByLayer
370
18
48
1
60
0
100
AcDbSpline
70
4
71
3
72
22
73
18
40
0
40
0
40
0
40
0
40
0.151357436423983
40
0.151357436423983
40
0.302714872847966
40
0.302714872847966
40
0.454072309271949
40
0.454072309271949
40
0.605429745695933
40
0.605429745695933
40
0.681108463907934
40
0.681108463907934
40
0.756787182119935
40
0.756787182119935
40
0.908144618543937
40
0.908144618543937
40
1
40
1
40
1
40
1
41
1
10
67.949685093159
20
0.0434623617569514
30
0
41
1
10
67.9346387356764
20
-0.0067380024316037
30
0
41
1
10
67.917532993699
20
-0.0559100572120315
30
0
41
1
10
67.8791942280411
20
-0.152119429620683
30
0
41
1
10
67.8576847019654
20
-0.199601182114804
30
0
41
1
10
67.8126781976559
20
-0.287033223316769
30
0
41
1
10
67.788944977409
20
-0.32767647467162
30
0
41
1
10
67.7392310886686
20
-0.401312941361226
30
0
41
1
10
67.7145052209953
20
-0.43247151531105
30
0
41
1
10
67.677557374758
20
-0.470621379089692
30
0
41
1
10
67.6651690391072
20
-0.481948057813554
30
0
41
1
10
67.6411617461791
20
-0.500925295692326
30
0
41
1
10
67.6294753400173
20
-0.508668007794569
30
0
41
1
10
67.5952438565052
20
-0.52682956729933
30
0
41
1
10
67.5734079649786
20
-0.532048663452144
30
0
41
1
10
67.541384499501
20
-0.52977980829229
30
0
41
1
10
67.5298058845635
20
-0.526493370901221
30
0
41
1
10
67.5188249796565
20
-0.521045201975454
30
0
0
SPLINE
5
D9
100
AcDbEntity
8
1
62
256
6
ByLayer
370
18
48
1
60
0
100
AcDbSpline
70
4
71
3
72
8
73
4
40
0
40
0
40
0
40
0
40
1
40
1
40
1
40
1
41
1
10
67.4795955101724
20
-0.490006005724808
30
0
41
1
10
67.4700252663334
20
-0.479325427024889
30
0
41
1
10
67.4610075107088
20
-0.466749806017248
30
0
41
1
10
67.4524332445658
20
-0.452440152542522
30
0
0
SPLINE
5
DA
100
AcDbEntity
8
1
62
256
6
ByLayer
370
18
48
1
60
0
100
AcDbSpline
70
4
71
3
72
8
73
4
40
0
40
0
40
0
40
0
40
1
40
1
40
1
40
1
41
1
10
67.772872548357
20
-0.843755619524586
30
0
41
1
10
67.8489814801823
20
-0.629394396699922
30
0
41
1
10
67.9233397413404
20
-0.414403418767364
30
0
41
1
10
67.9959245076015
20
-0.198774475344777
30
0
0
SPLINE
5
DB
100
AcDbEntity
8
1
62
256
6
ByLayer
370
18
48
1
60
0
100
AcDbSpline
70
4
71
3
72
42
73
38
40
0
40
0
40
0
40
0
40
0.0397545669904505
40
0.0397545669904505
40
0.0877668386409277
40
0.0877668386409277
40
0.135779110291405
40
0.135779110291405
40
0.183791381941882
40
0.183791381941882
40
0.231803653592359
40
0.231803653592359
40
0.327828196893314
40
0.327828196893314
40
0.423852740194268
40
0.423852740194268
40
0.519877283495222
40
0.519877283495222
40
0.567889555145701
40
0.567889555145701
40
0.615901826796179
40
0.615901826796179
40
0.663914098446657
40
0.663914098446657
40
0.711926370097135
40
0.711926370097135
40
0.735932505922374
40
0.735932505922374
40
0.759938641747613
40
0.759938641747613
40
0.807950913398091
40
0.807950913398091
40
0.903975456699045
40
0.903975456699045
40
0.951987728349523
40
0.951987728349523
40
1
40
1
40
1
40
1
41
1
10
49.3832923795576
20
2.7138239158115
30
0
41
1
10
49.6131222910457
20
2.7423650546672
30
0
41
1
10
49.8428469975704
20
2.7629669484455
30
0
41
1
10
50.3507523401769
20
2.79051628927033
30
0
41
1
10
50.6290771741833
20
2.79374303826262
30
0
41
1
10
51.1883449677845
20
2.77595763467159
30
0
41
1
10
51.470121418031
20
2.75480791902032
30
0
41
1
10
52.0317990689319
20
2.68876799981754
30
-1E-16
41
1
10
52.3121119878229
20
2.6439440623607
30
-1E-16
41
1
10
52.8732141082118
20
2.53161385735973
30
1E-16
41
1
10
53.1545412991353
20
2.46394830005778
30
1E-16
41
1
10
53.9977216954055
20
2.2296568721367
30
1E-16
41
1
10
54.5574698354212
20
2.03226568616606
30
1E-16
41
1
10
55.6822305673406
20
1.57140030091466
30
-1E-16
41
1
10
56.2376507446204
20
1.31219544269021
30
-1E-16
41
1
10
57.3476681261297
20
0.759408345945872
30
0
41
1
10
57.902024805511
20
0.465408799972352
30
0
41
1
10
58.7421285441061
20
0.0151504951589061
30
0
41
1
10
59.0239579471121
20
-0.136611487510493
30
0
41
1
10
59.5851028509108
20
-0.436289521652185
30
0
41
1
10
59.865255038333
20
-0.584693027784112
30
0
41
1
10
60.4262858721201
20
-0.875736987232386
30
1E-16
41
1
10
60.7077521409817
20
-1.01862947486808
30
1E-16
41
1
10
61.2691569271403
20
-1.29348684695853
30
1E-16
41
1
10
61.5493133925415
20
-1.42557241089167
30
1E-16
41
1
10
61.9698966144845
20
-1.61380703129706
30
1E-16
41
1
10
62.1101499024572
20
-1.67490142586618
30
1E-16
41
1
10
62.3909837843931
20
-1.79345401695952
30
1E-16
41
1
10
62.5317634213282
20
-1.85098632974802
30
1E-16
41
1
10
62.9525415137758
20
-2.01670339374519
30
-1E-16
41
1
10
63.231478869948
20
-2.11822740705145
30
-1E-16
41
1
10
64.0660116477017
20
-2.39356749268049
30
-1E-16
41
1
10
64.6191984407221
20
-2.538308796352
30
-1E-16
41
1
10
65.4533604928255
20
-2.68859776323376
30
1E-16
41
1
10
65.7321780404345
20
-2.72752865554213
30
-1E-16
41
1
10
66.2930912191014
20
-2.78164816611036
30
0
41
1
10
66.5746326676843
20
-2.79671563606883
30
0
41
1
10
66.8555937820059
20
-2.7995018338197
30
0
0
SPLINE
5
DC
100
AcDbEntity
8
1
62
256
6
ByLayer
370
18
48
1
60
0
100
AcDbSpline
70
4
71
3
72
32
73
28
40
0
40
0
40
0
40
0
40
0.0987263110556693
40
0.0987263110556693
40
0.197452622111339
40
0.197452622111339
40
0.296178933167008
40
0.296178933167008
40
0.394905244222677
40
0.394905244222677
40
0.444268399750513
40
0.444268399750513
40
0.49363155527835
40
0.49363155527835
40
0.592357866334023
40
0.592357866334023
40
0.691084177389696
40
0.691084177389696
40
0.789810488445369
40
0.789810488445369
40
0.839173643973206
40
0.839173643973206
40
0.888536799501042
40
0.888536799501042
40
0.987263110556715
40
0.987263110556715
40
1
40
1
40
1
40
1
41
1
10
66.6830725621386
20
-0.111938189107292
30
0
41
1
10
66.4065103210798
20
0.0298163113180578
30
0
41
1
10
66.1308636141346
20
0.170956292932914
30
0
41
1
10
65.5802807962732
20
0.449750651751515
30
0
41
1
10
65.3053665110879
20
0.587439584831316
30
0
41
1
10
64.7555032052558
20
0.857352934354594
30
-1E-16
41
1
10
64.4807214634423
20
0.989658794948213
30
-1E-16
41
1
10
63.9288183090804
20
1.24516585287759
30
-1E-16
41
1
10
63.6518106281931
20
1.36850396864588
30
-1E-16
41
1
10
63.2339981170667
20
1.54511196258326
30
-1E-16
41
1
10
63.094736976789
20
1.60237742477116
30
-1E-16
41
1
10
62.8175007854788
20
1.71281682627213
30
-1E-16
41
1
10
62.6792325741728
20
1.76612760332807
30
-1E-16
41
1
10
62.2648895058333
20
1.92016552697095
30
1E-16
41
1
10
61.9894222797076
20
2.01494895002503
30
1E-16
41
1
10
61.4394514458244
20
2.1865259407989
30
1E-16
41
1
10
61.1651432518216
20
2.26282722577219
30
1E-16
41
1
10
60.6149960979289
20
2.39732806838637
30
1E-16
41
1
10
60.3394437480944
20
2.45514079987092
30
1E-16
41
1
10
59.9246354791737
20
2.52587552683687
30
0
41
1
10
59.7861245646396
20
2.54669862761406
30
0
41
1
10
59.5084456719075
20
2.58255013235748
30
0
41
1
10
59.3690144276
20
2.59778177636295
30
0
41
1
10
58.9516403715394
20
2.63610549808209
30
0
41
1
10
58.6743755845922
20
2.65137810488503
30
0
41
1
10
58.3627755746757
20
2.65482814172762
30
0
41
1
10
58.3271931182638
20
2.65500291186086
30
0
41
1
10
58.2916306065476
20
2.65496654602137
30
0
0
SPLINE
5
DD
100
AcDbEntity
8
1
62
256
6
ByLayer
370
18
48
1
60
0
100
AcDbSpline
70
4
71
3
72
8
73
4
40
0
40
0
40
0
40
0
40
1
40
1
40
1
40
1
41
1
10
67.452433244566
20
-0.452440152542522
30
0
41
1
10
67.2900241729988
20
-0.181394503090985
30
0
41
1
10
67.0904652114455
20
0.123399332358332
30
0
41
1
10
66.8489863444373
20
0.466274593266888
30
0
0
SPLINE
5
DE
100
AcDbEntity
8
1
62
256
6
ByLayer
370
18
48
1
60
0
100
AcDbSpline
70
4
71
3
72
8
73
4
40
0
40
0
40
0
40
0
40
1
40
1
40
1
40
1
41
1
10
66.8441694575993
20
2.7641248377183
30
0
41
1
10
66.8484726209976
20
2.78523075265778
30
0
41
1
10
66.8522349075732
20
2.79718570136311
30
0
41
1
10
66.8555937819876
20
2.7995018338197
30
0
0
SPLINE
5
DF
100
AcDbEntity
8
1
62
256
6
ByLayer
370
18
48
1
60
0
100
AcDbSpline
70
4
71
3
72
8
73
4
40
0
40
0
40
0
40
0
40
1
40
1
40
1
40
1
41
1
10
66.6130989383065
20
-0.068344469329304
30
0
41
1
10
66.6348058762371
20
-0.0789982049423941
30
0
41
1
10
66.6563940416717
20
-0.0890367168022976
30
0
41
1
10
66.6778878373062
20
-0.0984747305266467
30
0
0
SPLINE
5
E0
100
AcDbEntity
8
1
62
256
6
ByLayer
370
18
48
1
60
0
100
AcDbSpline
70
4
71
3
72
24
73
20
40
0
40
0
40
0
40
0
40
0.110797098938176
40
0.110797098938176
40
0.221594197876353
40
0.221594197876353
40
0.443188395752705
40
0.443188395752705
40
0.498586945221796
40
0.498586945221796
40
0.553985494690886
40
0.553985494690886
40
0.664782593629063
40
0.664782593629063
40
0.88637679150542
40
0.88637679150542
40
0.9971738904436
40
0.9971738904436
40
1
40
1
40
1
40
1
41
1
10
66.9932173097066
20
-2.64699589677602
30
0
41
1
10
66.7121902052623
20
-2.62771753056671
30
0
41
1
10
66.4325280340219
20
-2.59761666282964
30
0
41
1
10
65.8747531507127
20
-2.51470812562138
30
0
41
1
10
65.5965858812819
20
-2.46228770535313
30
-1E-16
41
1
10
64.7622366519558
20
-2.2743641035951
30
-1E-16
41
1
10
64.2064272468441
20
-2.10813614045713
30
-1E-16
41
1
10
63.5040788685367
20
-1.85591131526775
30
-1E-16
41
1
10
63.362957574499
20
-1.80315527793397
30
1E-16
41
1
10
63.0811499649582
20
-1.6939401936645
30
1E-16
41
1
10
62.9406934091561
20
-1.63757564513838
30
1E-16
41
1
10
62.520269997499
20
-1.46372841056174
30
1E-16
41
1
10
62.2412096130004
20
-1.34147211084874
30
1E-16
41
1
10
61.4053782627149
20
-0.960035463674018
30
1E-16
41
1
10
60.8503319189554
20
-0.685824172431978
30
0
41
1
10
60.0120440441187
20
-0.261271953685025
30
0
41
1
10
59.7316835628019
20
-0.117522791497322
30
0
41
1
10
59.4424353963211
20
0.0306979280120458
30
0
41
1
10
59.4352418246783
20
0.0343840161641822
30
0
41
1
10
59.4280490474283
20
0.0380695208487793
30
0
0
SPLINE
5
E1
100
AcDbEntity
8
1
62
256
6
ByLayer
370
18
48
1
60
0
100
AcDbSpline
70
4
71
3
72
24
73
20
40
0
40
0
40
0
40
0
40
0.0465648576218002
40
0.0465648576218002
40
0.15250209566382
40
0.15250209566382
40
0.364376571747863
40
0.364376571747863
40
0.470313809789882
40
0.470313809789882
40
0.523282428810892
40
0.523282428810892
40
0.576251047831902
40
0.576251047831902
40
0.788125523915949
40
0.788125523915949
40
0.894062761957975
40
0.894062761957975
40
1
40
1
40
1
40
1
41
1
10
59.0650669063708
20
0.234070003639602
30
0
41
1
10
59.1884227386809
20
0.171374464938737
30
0
41
1
10
59.3120266291721
20
0.108338375530508
30
0
41
1
10
59.7177732696105
20
-0.0987740711257459
30
0
41
1
10
59.9979290180536
20
-0.241950880629361
30
0
41
1
10
60.8355782649087
20
-0.665028896180445
30
0
41
1
10
61.3901590841786
20
-0.938594729735712
30
1E-16
41
1
10
62.2251696973456
20
-1.31962464261801
30
1E-16
41
1
10
62.5039360894287
20
-1.44184024145346
30
1E-16
41
1
10
62.923877160881
20
-1.61576810054478
30
1E-16
41
1
10
63.0641640691927
20
-1.67218105579184
30
1E-16
41
1
10
63.3456123317303
20
-1.78155209155841
30
1E-16
41
1
10
63.4866750404181
20
-1.83446595390754
30
-1E-16
41
1
10
64.1894658538303
20
-2.08783695509871
30
-1E-16
41
1
10
64.7476009251495
20
-2.25602952797521
30
-1E-16
41
1
10
65.5884356101063
20
-2.44709343862766
30
-1E-16
41
1
10
65.8696040193173
20
-2.50063720231145
30
0
41
1
10
66.4330029382936
20
-2.58535288168628
30
0
41
1
10
66.7141636544006
20
-2.61607342461218
30
0
41
1
10
66.9956762966087
20
-2.63577299149153
30
0
0
SPLINE
5
E2
100
AcDbEntity
8
1
62
256
6
ByLayer
370
18
48
1
60
0
100
AcDbSpline
70
4
71
3
72
28
73
24
40
0
40
0
40
0
40
0
40
0.120452837356124
40
0.120452837356124
40
0.240905674712248
40
0.240905674712248
40
0.361358512068372
40
0.361358512068372
40
0.421584930746432
40
0.421584930746432
40
0.481811349424492
40
0.481811349424492
40
0.602264186780612
40
0.602264186780612
40
0.722717024136731
40
0.722717024136731
40
0.843169861492851
40
0.843169861492851
40
0.903396280170911
40
0.903396280170911
40
0.963622698848971
40
0.963622698848971
40
1
40
1
40
1
40
1
41
1
10
66.6112434046958
20
0.324986440033626
30
0
41
1
10
66.3073534355977
20
0.487572009196668
30
0
41
1
10
66.0044795978443
20
0.647160219822524
30
0
41
1
10
65.4002379075056
20
0.959469600592541
30
-1E-16
41
1
10
65.0980862822123
20
1.11075104290032
30
-1E-16
41
1
10
64.4925444976772
20
1.4015382566736
30
-1E-16
41
1
10
64.189457214829
20
1.54151339590575
30
-1E-16
41
1
10
63.731547197289
20
1.73855406180326
30
-1E-16
41
1
10
63.578060023765
20
1.80231046113977
30
-1E-16
41
1
10
63.2722975893342
20
1.92510978912179
30
-1E-16
41
1
10
63.1199501049143
20
1.98394269269752
30
1E-16
41
1
10
62.6636905904295
20
2.15178059766288
30
1E-16
41
1
10
62.3606451377765
20
2.25233448819634
30
1E-16
41
1
10
61.7561768120611
20
2.43034547557647
30
1E-16
41
1
10
61.453960460245
20
2.50695581600064
30
1E-16
41
1
10
60.8485495893644
20
2.63462355421501
30
-1E-16
41
1
10
60.5455763901711
20
2.6857199898005
30
-1E-16
41
1
10
60.08797623011
20
2.74122796028425
30
1E-16
41
1
10
59.934730369417
20
2.75628551902437
30
0
41
1
10
59.6286155449965
20
2.77926458049291
30
0
41
1
10
59.4761011214052
20
2.78710345939385
30
0
41
1
10
59.2319304202926
20
2.7938741021631
30
0
41
1
10
59.1400992034558
20
2.79511378971537
30
0
41
1
10
59.0483719370554
20
2.79505012503546
30
0
0
SPLINE
5
E3
100
AcDbEntity
8
1
62
256
6
ByLayer
370
18
48
1
60
0
100
AcDbSpline
70
4
71
3
72
62
73
58
40
0
40
0
40
0
40
0
40
0.0279007677124493
40
0.0279007677124493
40
0.0718374861153159
40
0.0718374861153159
40
0.0938058453167493
40
0.0938058453167493
40
0.115774204518183
40
0.115774204518183
40
0.159710922921049
40
0.159710922921049
40
0.203647641323916
40
0.203647641323916
40
0.247584359726782
40
0.247584359726782
40
0.291521078129649
40
0.291521078129649
40
0.335457796532516
40
0.335457796532516
40
0.379394514935383
40
0.379394514935383
40
0.423331233338249
40
0.423331233338249
40
0.467267951741116
40
0.467267951741116
40
0.489236310942548
40
0.489236310942548
40
0.511204670143981
40
0.511204670143981
40
0.555141388546844
40
0.555141388546844
40
0.599078106949708
40
0.599078106949708
40
0.643014825352571
40
0.643014825352571
40
0.664983184554004
40
0.664983184554004
40
0.686951543755437
40
0.686951543755437
40
0.730888262158301
40
0.730888262158301
40
0.774824980561167
40
0.774824980561167
40
0.818761698964032
40
0.818761698964032
40
0.840730058165464
40
0.840730058165464
40
0.862698417366897
40
0.862698417366897
40
0.906635135769763
40
0.906635135769763
40
0.95057185417263
40
0.95057185417263
40
0.994508572575497
40
0.994508572575497
40
1
40
1
40
1
40
1
41
1
10
47.1457869317621
20
-1.83564223740555
30
1E-16
41
1
10
46.9535637398739
20
-1.91303227493106
30
1E-16
41
1
10
46.7614578385812
20
-1.98649054321916
30
1E-16
41
1
10
46.2669976548621
20
-2.16537456296175
30
-1E-16
41
1
10
45.9645365779188
20
-2.26454287501764
30
-1E-16
41
1
10
45.5084805464628
20
-2.39515238318066
30
-1E-16
41
1
10
45.3561937700112
20
-2.43581170336154
30
-1E-16
41
1
10
45.0509890111026
20
-2.51114625135699
30
-1E-16
41
1
10
44.897576783192
20
-2.54574422247907
30
-1E-16
41
1
10
44.438208711441
20
-2.63904195582259
30
1E-16
41
1
10
44.1338293219265
20
-2.68737999295178
30
1E-16
41
1
10
43.5274191214855
20
-2.75623173568232
30
0
41
1
10
43.2246903882816
20
-2.77651475066205
30
0
41
1
10
42.6198727336823
20
-2.78901644258895
30
0
41
1
10
42.3174738277673
20
-2.78106841027534
30
0
41
1
10
41.7098173552951
20
-2.73695537077242
30
-1E-16
41
1
10
41.4051643888905
20
-2.70051697412907
30
1E-16
41
1
10
40.7915954966437
20
-2.59959007647075
30
-1E-16
41
1
10
40.4868453168854
20
-2.5357221922016
30
-1E-16
41
1
10
39.8798476457816
20
-2.38299813278957
30
-1E-16
41
1
10
39.5769391000907
20
-2.29479923954975
30
-1E-16
41
1
10
38.972075074155
20
-2.09522656040554
30
-1E-16
41
1
10
38.6697093639505
20
-1.98422691046525
30
-1E-16
41
1
10
38.0624431034459
20
-1.7432881360744
30
1E-16
41
1
10
37.7583052243639
20
-1.61220587140167
30
1E-16
41
1
10
37.2985176490103
20
-1.40353711926326
30
1E-16
41
1
10
37.1449999051918
20
-1.33215292133474
30
1E-16
41
1
10
36.8395633401343
20
-1.18654189582418
30
1E-16
41
1
10
36.6874489391009
20
-1.11199571258652
30
1E-16
41
1
10
36.2316980054169
20
-0.885341179270227
30
1E-16
41
1
10
35.9285831794442
20
-0.730374563665237
30
0
41
1
10
35.3236165003835
20
-0.41310195517832
30
0
41
1
10
35.0212577979444
20
-0.25172175721778
30
0
41
1
10
34.4143372855973
20
0.0718464293915986
30
0
41
1
10
34.1105139500233
20
0.23547365853176
30
0
41
1
10
33.6513590075297
20
0.478156340106892
30
0
41
1
10
33.4975367265068
20
0.558689654505486
30
0
41
1
10
33.1916326149206
20
0.717676980201844
30
0
41
1
10
33.0393095418529
20
0.796425272222251
30
0
41
1
10
32.5829985746685
20
1.02815032199032
30
-1E-16
41
1
10
32.2796443683846
20
1.17665158731984
30
-1E-16
41
1
10
31.674497095438
20
1.46164747507404
30
-1E-16
41
1
10
31.3721120887726
20
1.59708274018914
30
-1E-16
41
1
10
30.7655005979188
20
1.85037605335177
30
-1E-16
41
1
10
30.4619726602064
20
1.96924185440545
30
1E-16
41
1
10
30.0034222052969
20
2.13140349870645
30
1E-16
41
1
10
29.8496834583494
20
2.18290421209983
30
1E-16
41
1
10
29.5432624464421
20
2.28011309322062
30
1E-16
41
1
10
29.3907000909541
20
2.32582404164702
30
1E-16
41
1
10
28.9337573421524
20
2.45308216670142
30
1E-16
41
1
10
28.6301317868848
20
2.52493045021424
30
1E-16
41
1
10
28.0247320694011
20
2.64295072080606
30
-1E-16
41
1
10
27.7222875273413
20
2.68855190686935
30
-1E-16
41
1
10
27.1159266275725
20
2.75212083546853
30
0
41
1
10
26.8126572280828
20
2.77023211159346
30
0
41
1
10
26.4691749390835
20
2.7743766993369
30
0
41
1
10
26.4309788429307
20
2.77461427024437
30
0
41
1
10
26.3927520474698
20
2.77462776675185
30
0
0
SPLINE
5
E4
100
AcDbEntity
8
1
62
256
6
ByLayer
370
18
48
1
60
0
100
AcDbSpline
70
4
71
3
72
20
73
16
40
0
40
0
40
0
40
0
40
0.0316309326305159
40
0.0316309326305159
40
0.193025777192097
40
0.193025777192097
40
0.354420621753678
40
0.354420621753678
40
0.515815466315259
40
0.515815466315259
40
0.677210310876838
40
0.677210310876838
40
0.838605155438419
40
0.838605155438419
40
1
40
1
40
1
40
1
41
1
10
13.9013404780686
20
-2.04171697728736
30
-1E-16
41
1
10
13.8417262393085
20
-2.06310575957826
30
-1E-16
41
1
10
13.7821677194211
20
-2.08409102031561
30
-1E-16
41
1
10
13.4190435463769
20
-2.20968648029538
30
-1E-16
41
1
10
13.1159807862164
20
-2.30308936374163
30
-1E-16
41
1
10
12.5099880655308
20
-2.46600900214665
30
-1E-16
41
1
10
12.2073192165955
20
-2.53564756508672
30
-1E-16
41
1
10
11.5989090577316
20
-2.64798196214562
30
1E-16
41
1
10
11.2939265063481
20
-2.69123306037915
30
1E-16
41
1
10
10.6793816229613
20
-2.74939042112351
30
0
41
1
10
10.3733439984873
20
-2.76401798389477
30
0
41
1
10
9.76293875037109
20
-2.7648028204558
30
0
41
1
10
9.4580477122895
20
-2.75093680145486
30
0
41
1
10
8.84772961249305
20
-2.69483113724152
30
1E-16
41
1
10
8.5421440042505
20
-2.65250906739763
30
1E-16
41
1
10
8.23437230770077
20
-2.59678199085727
30
0
0
SPLINE
5
E5
100
AcDbEntity
8
1
62
256
6
ByLayer
370
18
48
1
60
0
100
AcDbSpline
70
4
71
3
72
30
73
26
40
0
40
0
40
0
40
0
40
0.0488230381056483
40
0.0488230381056483
40
0.146364631355803
40
0.146364631355803
40
0.195135427980882
40
0.195135427980882
40
0.243906224605961
40
0.243906224605961
40
0.341447817856123
40
0.341447817856123
40
0.438989411106286
40
0.438989411106286
40
0.536531004356448
40
0.536531004356448
40
0.634072597606611
40
0.634072597606611
40
0.731614190856772
40
0.731614190856772
40
0.829155784106935
40
0.829155784106935
40
0.926697377357097
40
0.926697377357097
40
1
40
1
40
1
40
1
41
1
10
57.9760620370595
20
2.65857724768321
30
0
41
1
10
58.1136063889668
20
2.66360042685986
30
0
41
1
10
58.2512688527532
20
2.66581118534774
30
0
41
1
10
58.6650416391165
20
2.66252073518811
30
0
41
1
10
58.9420643122157
20
2.64806200747643
30
0
41
1
10
59.3590844291766
20
2.61085245133702
30
0
41
1
10
59.4984335569245
20
2.59597126355914
30
0
41
1
10
59.7759618749496
20
2.56085818693174
30
0
41
1
10
59.9143932199768
20
2.54041578627994
30
0
41
1
10
60.3289516021651
20
2.4707223101401
30
1E-16
41
1
10
60.6043167632682
20
2.41354080852972
30
1E-16
41
1
10
61.1540766838037
20
2.28015661798315
30
1E-16
41
1
10
61.4281680798643
20
2.20438578798635
30
1E-16
41
1
10
61.9776765076237
20
2.03375680725426
30
1E-16
41
1
10
62.2529067317607
20
1.93937186185528
30
1E-16
41
1
10
62.8048825976367
20
1.73465878113211
30
-1E-16
41
1
10
63.0818577488766
20
1.62421214359284
30
-1E-16
41
1
10
63.6387403177599
20
1.38901358186178
30
-1E-16
41
1
10
63.9158352967315
20
1.26564021138671
30
-1E-16
41
1
10
64.4682544850521
20
1.00973551169798
30
-1E-16
41
1
10
64.7434451734258
20
0.877065201891497
30
-1E-16
41
1
10
65.294576295055
20
0.60600739383051
30
0
41
1
10
65.570334116902
20
0.467545572616871
30
0
41
1
10
66.05433045399
20
0.221726739874896
30
0
41
1
10
66.2623056331304
20
0.115168881836496
30
0
41
1
10
66.4708346215407
20
0.0080089459834198
30
0
0
SPLINE
5
E6
100
AcDbEntity
8
1
62
256
6
ByLayer
370
18
48
1
60
0
100
AcDbSpline
70
4
71
3
72
18
73
14
40
0
40
0
40
0
40
0
40
0.235057408874879
40
0.235057408874879
40
0.430491096813571
40
0.430491096813571
40
0.627668989044541
40
0.627668989044541
40
0.799355252949012
40
0.799355252949012
40
0.965036311141458
40
0.965036311141458
40
1
40
1
40
1
40
1
41
1
10
66.995676296613
20
-2.63577299149182
30
0
41
1
10
66.9957817818226
20
-2.63594594375596
30
0
41
1
10
66.9958292941394
20
-2.63630342074026
30
0
41
1
10
66.9957786016268
20
-2.63731585744057
30
0
41
1
10
66.9957021834032
20
-2.63792398856032
30
0
41
1
10
66.9954342752945
20
-2.63939201732575
30
0
41
1
10
66.9952366013382
20
-2.64027906825035
30
0
41
1
10
66.9947774655217
20
-2.64206511168101
30
0
41
1
10
66.9945213815809
20
-2.64297160331424
30
0
41
1
10
66.9939819344791
20
-2.64474022865014
30
0
41
1
10
66.9936934862182
20
-2.6456242562426
30
0
41
1
10
66.9933416490173
20
-2.64664250609249
30
0
41
1
10
66.9932795234192
20
-2.64682012333847
30
0
41
1
10
66.9932173097065
20
-2.64699589677602
30
0
0
SPLINE
5
E7
100
AcDbEntity
8
1
62
256
6
ByLayer
370
18
48
1
60
0
100
AcDbSpline
70
4
71
3
72
46
73
42
40
0
40
0
40
0
40
0
40
0.0917454323484665
40
0.0917454323484665
40
0.183743867730897
40
0.183743867730897
40
0.229743085422113
40
0.229743085422113
40
0.275742303113328
40
0.275742303113328
40
0.36774073849576
40
0.36774073849576
40
0.390740347341368
40
0.390740347341368
40
0.413739956186976
40
0.413739956186976
40
0.459739173878192
40
0.459739173878192
40
0.551737609260625
40
0.551737609260625
40
0.574737218106233
40
0.574737218106233
40
0.597736826951841
40
0.597736826951841
40
0.643736044643056
40
0.643736044643056
40
0.735734480025486
40
0.735734480025486
40
0.758734088871094
40
0.758734088871094
40
0.781733697716703
40
0.781733697716703
40
0.827732915407917
40
0.827732915407917
40
0.919731350790347
40
0.919731350790347
40
0.942730959635955
40
0.942730959635955
40
0.965730568481562
40
0.965730568481562
40
1
40
1
40
1
40
1
41
1
10
13.8932594997653
20
2.01344567267313
30
0
41
1
10
14.5194154145771
20
2.24214832803216
30
1E-16
41
1
10
15.13739363096
20
2.42399695694164
30
1E-16
41
1
10
16.3742703478
20
2.67972649976645
30
-1E-16
41
1
10
16.9933570584993
20
2.75351301860852
30
0
41
1
10
17.9348409491724
20
2.77376735499581
30
0
41
1
10
18.2470261269863
20
2.76534643452598
30
0
41
1
10
18.8685006236425
20
2.71929403856908
30
-1E-16
41
1
10
19.1780871676689
20
2.68166808254276
30
-1E-16
41
1
10
20.1066331803539
20
2.52688371573382
30
1E-16
41
1
10
20.7253454840977
20
2.36773806464788
30
1E-16
41
1
10
21.5092313138059
20
2.10615701587733
30
1E-16
41
1
10
21.6660931065987
20
2.05086065510494
30
1E-16
41
1
10
21.9783712092962
20
1.93538187564505
30
1E-16
41
1
10
22.1340664366756
20
1.87510039697835
30
-1E-16
41
1
10
22.6002576694266
20
1.68733578976801
30
-1E-16
41
1
10
22.9098528044914
20
1.55292275875686
30
-1E-16
41
1
10
23.8382481843458
20
1.12726412540627
30
-1E-16
41
1
10
24.456649653457
20
0.813549286989002
30
0
41
1
10
25.2398891982281
20
0.402431765764504
30
0
41
1
10
25.3969000939297
20
0.319362962367904
30
0
41
1
10
25.7092905504978
20
0.153402781907062
30
0
41
1
10
25.8650328020515
20
0.0703368612378767
30
0
41
1
10
26.3313123633686
20
-0.178339342260074
30
0
41
1
10
26.6409128727152
20
-0.343407093827892
30
0
41
1
10
27.5691829615001
20
-0.830387464409768
30
1E-16
41
1
10
28.1872968774192
20
-1.1441083245015
30
1E-16
41
1
10
28.9699195803072
20
-1.50227652516415
30
1E-16
41
1
10
29.1270107958931
20
-1.57221147144722
30
1E-16
41
1
10
29.4395111088248
20
-1.70692903616688
30
1E-16
41
1
10
29.5952980843426
20
-1.77186864571811
30
1E-16
41
1
10
30.0616686935443
20
-1.95895369923068
30
-1E-16
41
1
10
30.3712815155671
20
-2.07333358200637
30
-1E-16
41
1
10
31.299444510394
20
-2.38166973530258
30
-1E-16
41
1
10
31.9172681206399
20
-2.54081731654011
30
-1E-16
41
1
10
32.6993150473887
20
-2.66968403229907
30
1E-16
41
1
10
32.8564283312117
20
-2.69196701184444
30
1E-16
41
1
10
33.1690429671012
20
-2.72895455155702
30
-1E-16
41
1
10
33.3248714731607
20
-2.74372256929624
30
0
41
1
10
33.7120339405836
20
-2.77124614201469
30
0
41
1
10
33.9429606390259
20
-2.77946587172423
30
0
41
1
10
34.1735832906272
20
-2.77949245325558
30
0
0
SPLINE
5
E8
100
AcDbEntity
8
1
62
256
6
ByLayer
370
18
48
1
60
0
100
AcDbSpline
70
4
71
3
72
16
73
12
40
0
40
0
40
0
40
0
40
0.431173774181931
40
0.431173774181931
40
0.646760661272893
40
0.646760661272893
40
0.754554104818377
40
0.754554104818377
40
0.862347548363862
40
0.862347548363862
40
1
40
1
40
1
40
1
41
1
10
67.0239857593095
20
2.68762566677583
30
0
41
1
10
66.4642421305126
20
2.69351640772587
30
0
41
1
10
65.907678342874
20
2.65196168383576
30
-1E-16
41
1
10
65.0681816315015
20
2.52161466383672
30
0
41
1
10
64.7875828288424
20
2.46707917877188
30
1E-16
41
1
10
64.3643904080996
20
2.36911021589975
30
1E-16
41
1
10
64.2227550084287
20
2.3337010256121
30
1E-16
41
1
10
63.9400866414479
20
2.25792669253903
30
1E-16
41
1
10
63.7989365278077
20
2.21754579309695
30
1E-16
41
1
10
63.4777395844014
20
2.12008129079746
30
1E-16
41
1
10
63.2977393649848
20
2.06149991678865
30
1E-16
41
1
10
63.1176639966281
20
1.99928574875872
30
1E-16
0
SPLINE
5
E9
100
AcDbEntity
8
1
62
256
6
ByLayer
370
18
48
1
60
0
100
AcDbSpline
70
4
71
3
72
10
73
6
40
0
40
0
40
0
40
0
40
0.488032984561103
40
0.488032984561103
40
1
40
1
40
1
40
1
41
1
10
43.3073450945308
20
-0.465177875054707
30
0
41
1
10
42.7689403956599
20
-0.191307406106148
30
0
41
1
10
42.2325317873757
20
0.0891377840819985
30
0
41
1
10
41.1271975691974
20
0.654620653691609
30
0
41
1
10
40.5649269622692
20
0.935838795964486
30
-1E-16
41
1
10
40.0000000000001
20
1.19706467612031
30
-1E-16
0
SPLINE
5
EA
100
AcDbEntity
8
1
62
256
6
ByLayer
370
18
48
1
60
0
100
AcDbSpline
70
4
71
3
72
8
73
4
40
0
40
0
40
0
40
0
40
1
40
1
40
1
40
1
41
1
10
67.3045919161861
20
0.755533293397036
30
0
41
1
10
67.4618851146002
20
0.777218814967142
30
0
41
1
10
67.6188219600938
20
0.804733430446674
30
0
41
1
10
67.7728725483564
20
0.843755619524131
30
0
0
SPLINE
5
EB
100
AcDbEntity
8
1
62
256
6
ByLayer
370
18
48
1
60
0
100
AcDbSpline
70
4
71
3
72
8
73
4
40
0
40
0
40
0
40
0
40
1
40
1
40
1
40
1
41
1
10
67.0239857593029
20
2.68762566665936
30
0
41
1
10
67.0257185096158
20
2.68645728044783
30
0
41
1
10
67.0274512879014
20
2.68528874059666
30
0
41
1
10
67.0291840943672
20
2.684120047205
30
0
0
SPLINE
5
EC
100
AcDbEntity
8
1
62
256
6
ByLayer
370
18
48
1
60
0
100
AcDbSpline
70
4
71
3
72
10
73
6
40
0
40
0
40
0
40
0
40
0.5
40
0.5
40
1
40
1
40
1
40
1
41
1
10
40.0020632783334
20
-2.64567780846184
30
1E-16
41
1
10
40.0020632783334
20
-2.63487743656393
30
1E-16
41
1
10
40.0211285451307
20
-2.62377530393206
30
0
41
1
10
40.0807222688606
20
-2.6117675065714
30
0
41
1
10
40.1192006526878
20
-2.61150073979152
30
0
41
1
10
40.1497802051468
20
-2.61716815690284
30
0
0
SPLINE
5
ED
100
AcDbEntity
8
1
62
256
6
ByLayer
370
18
48
1
60
0
100
AcDbSpline
70
4
71
3
72
64
73
60
40
0
40
0
40
0
40
0
40
0.0218798546893964
40
0.0218798546893964
40
0.0659037055487984
40
0.0659037055487984
40
0.1099275564082
40
0.1099275564082
40
0.153951407267603
40
0.153951407267603
40
0.175963332697304
40
0.175963332697304
40
0.197975258127006
40
0.197975258127006
40
0.241999108986408
40
0.241999108986408
40
0.28602295984581
40
0.28602295984581
40
0.330046810705212
40
0.330046810705212
40
0.352058736134914
40
0.352058736134914
40
0.374070661564616
40
0.374070661564616
40
0.418094512424021
40
0.418094512424021
40
0.462118363283426
40
0.462118363283426
40
0.506142214142831
40
0.506142214142831
40
0.528154139572535
40
0.528154139572535
40
0.550166065002238
40
0.550166065002238
40
0.594189915861645
40
0.594189915861645
40
0.638213766721052
40
0.638213766721052
40
0.682237617580458
40
0.682237617580458
40
0.704249543010161
40
0.704249543010161
40
0.726261468439864
40
0.726261468439864
40
0.770285319299269
40
0.770285319299269
40
0.814309170158674
40
0.814309170158674
40
0.858333021018079
40
0.858333021018079
40
0.880344946447782
40
0.880344946447782
40
0.902356871877484
40
0.902356871877484
40
0.946380722736891
40
0.946380722736891
40
0.990404573596298
40
0.990404573596298
40
1
40
1
40
1
40
1
41
1
10
63.4224270191481
20
-1.86481503500948
30
1E-16
41
1
10
63.2704694401602
20
-1.92581567569422
30
1E-16
41
1
10
63.1190375914977
20
-1.98427836644294
30
-1E-16
41
1
10
62.6636905904296
20
-2.15178059766285
30
-1E-16
41
1
10
62.3606451377767
20
-2.25233448819631
30
-1E-16
41
1
10
61.7561768120613
20
-2.43034547557647
30
-1E-16
41
1
10
61.453960460245
20
-2.50695581600064
30
-1E-16
41
1
10
60.8485495893644
20
-2.63462355421501
30
1E-16
41
1
10
60.5455763901711
20
-2.6857199898005
30
1E-16
41
1
10
60.08797623011
20
-2.74122796028425
30
-1E-16
41
1
10
59.934730369417
20
-2.75628551902437
30
0
41
1
10
59.6286155449965
20
-2.77926458049291
30
0
41
1
10
59.4761011214053
20
-2.78710345939385
30
0
41
1
10
59.0194253256861
20
-2.79976668499828
30
0
41
1
10
58.7162271045178
20
-2.79384717561092
30
0
41
1
10
58.111589689369
20
-2.75375881222297
30
-1E-16
41
1
10
57.8093601517238
20
-2.71976525419191
30
1E-16
41
1
10
57.204226233152
20
-2.62440376042966
30
0
41
1
10
56.9014487312048
20
-2.56281891172676
30
-1E-16
41
1
10
56.4443048505078
20
-2.4511558927305
30
-1E-16
41
1
10
56.2915031172506
20
-2.41068625893223
30
-1E-16
41
1
10
55.9851677211882
20
-2.3229397975455
30
-1E-16
41
1
10
55.8322836960186
20
-2.2760281206759
30
-1E-16
41
1
10
55.3749902410076
20
-2.12748983370503
30
-1E-16
41
1
10
55.0715315113887
20
-2.01783297350809
30
-1E-16
41
1
10
54.4665259579223
20
-1.77871866667004
30
1E-16
41
1
10
54.1641989085767
20
-1.65036071775722
30
1E-16
41
1
10
53.559201409298
20
-1.37722194832605
30
1E-16
41
1
10
53.2565544322196
20
-1.23231319474741
30
1E-16
41
1
10
52.7998054515149
20
-1.00662332617324
30
1E-16
41
1
10
52.64718443975
20
-0.929857924479563
30
1E-16
41
1
10
52.3412515085569
20
-0.773038285254131
30
0
41
1
10
52.1878989108194
20
-0.693321075069804
30
0
41
1
10
51.7299575049058
20
-0.453491662272626
30
0
41
1
10
51.4262152716495
20
-0.291738058157165
30
0
41
1
10
50.8207868630954
20
0.0335244201638432
30
0
41
1
10
50.5183433489331
20
0.195583482918408
30
0
41
1
10
49.9134492939894
20
0.517531712597503
30
0
41
1
10
49.6109072137165
20
0.677236273252788
30
0
41
1
10
49.1545134885008
20
0.910292985888276
30
-1E-16
41
1
10
49.0020612974243
20
0.987100788564135
30
-1E-16
41
1
10
48.6964991976351
20
1.1389164167191
30
-1E-16
41
1
10
48.5429668920405
20
1.21376129337597
30
-1E-16
41
1
10
48.0843394395365
20
1.43180273174133
30
-1E-16
41
1
10
47.780297316951
20
1.56935472575026
30
-1E-16
41
1
10
47.1744103487934
20
1.82727668051288
30
-1E-16
41
1
10
46.8718339048006
20
1.94655908855645
30
-1E-16
41
1
10
46.2669976548621
20
2.16537456296172
30
1E-16
41
1
10
45.9645365779188
20
2.26454287501761
30
1E-16
41
1
10
45.5084805464629
20
2.39515238318063
30
1E-16
41
1
10
45.3561937700112
20
2.43581170336151
30
1E-16
41
1
10
45.0509890111025
20
2.51114625135699
30
1E-16
41
1
10
44.8975767831921
20
2.54574422247904
30
1E-16
41
1
10
44.438208711441
20
2.63904195582259
30
-1E-16
41
1
10
44.1338293219266
20
2.68737999295178
30
-1E-16
41
1
10
43.5274191214855
20
2.75623173568229
30
0
41
1
10
43.2246903882817
20
2.77651475066205
30
0
41
1
10
42.8563686163046
20
2.78412802928943
30
0
41
1
10
42.7904561429568
20
2.78481592377321
30
0
41
1
10
42.72452923822
20
2.78483021602801
30
0
0
SPLINE
5
EE
100
AcDbEntity
8
1
62
256
6
ByLayer
370
18
48
1
60
0
100
AcDbSpline
70
4
71
3
72
64
73
60
40
0
40
0
40
0
40
0
40
0.0066340666619016
40
0.0066340666619016
40
0.029198257671038
40
0.029198257671038
40
0.0517624486801745
40
0.0517624486801745
40
0.096890830698447
40
0.096890830698447
40
0.14201921271672
40
0.14201921271672
40
0.187147594734992
40
0.187147594734992
40
0.209711785744129
40
0.209711785744129
40
0.232275976753265
40
0.232275976753265
40
0.277404358771537
40
0.277404358771537
40
0.322532740789809
40
0.322532740789809
40
0.367661122808081
40
0.367661122808081
40
0.390225313817217
40
0.390225313817217
40
0.412789504826353
40
0.412789504826353
40
0.457917886844624
40
0.457917886844624
40
0.503046268862895
40
0.503046268862895
40
0.548174650881166
40
0.548174650881166
40
0.570738841890301
40
0.570738841890301
40
0.593303032899436
40
0.593303032899436
40
0.638431414917706
40
0.638431414917706
40
0.683559796935975
40
0.683559796935975
40
0.728688178954245
40
0.728688178954245
40
0.751252369963379
40
0.751252369963379
40
0.773816560972513
40
0.773816560972513
40
0.818944942990783
40
0.818944942990783
40
0.864073325009052
40
0.864073325009052
40
0.909201707027322
40
0.909201707027322
40
0.954330089045591
40
0.954330089045591
40
0.999458471063861
40
0.999458471063861
40
1
40
1
40
1
40
1
41
1
10
30.2909555025349
20
-2.0289847016841
30
-1E-16
41
1
10
30.2461039358578
20
-2.04533251901239
30
-1E-16
41
1
10
30.2012116190957
20
-2.06145731018231
30
-1E-16
41
1
10
30.003422205297
20
-2.13140349870645
30
-1E-16
41
1
10
29.8496834583494
20
-2.1829042120998
30
-1E-16
41
1
10
29.5432624464421
20
-2.28011309322062
30
-1E-16
41
1
10
29.3907000909542
20
-2.32582404164702
30
-1E-16
41
1
10
28.9337573421524
20
-2.45308216670142
30
-1E-16
41
1
10
28.6301317868848
20
-2.52493045021421
30
-1E-16
41
1
10
28.0247320694011
20
-2.64295072080606
30
1E-16
41
1
10
27.7222875273414
20
-2.68855190686935
30
1E-16
41
1
10
27.1159266275725
20
-2.7521208354685
30
0
41
1
10
26.8126572280829
20
-2.77023211159346
30
0
41
1
10
26.3546747055083
20
-2.77575830263902
30
0
41
1
10
26.2014459057431
20
-2.77403327439507
30
0
41
1
10
25.8944656741724
20
-2.76329730841462
30
0
41
1
10
25.7416376586131
20
-2.75429437245811
30
0
41
1
10
25.2839970894879
20
-2.71680404358889
30
1E-16
41
1
10
24.9800593907699
20
-2.67797892672257
30
1E-16
41
1
10
24.3743079561684
20
-2.57322245590356
30
-1E-16
41
1
10
24.0717602307556
20
-2.50766426229166
30
-1E-16
41
1
10
23.4655869270909
20
-2.35183914206837
30
-1E-16
41
1
10
23.1625380874538
20
-2.26092609128909
30
-1E-16
41
1
10
22.7050653209235
20
-2.10785817495298
30
-1E-16
41
1
10
22.5521075177489
20
-2.05407265221663
30
-1E-16
41
1
10
22.2455152631536
20
-1.94048655997878
30
-1E-16
41
1
10
22.0920760223029
20
-1.88081835976317
30
1E-16
41
1
10
21.6336782209476
20
-1.69610510502849
30
1E-16
41
1
10
21.3294002099947
20
-1.56487016954628
30
1E-16
41
1
10
20.7232184017496
20
-1.28687048866334
30
1E-16
41
1
10
20.4205270838399
20
-1.14138051188576
30
1E-16
41
1
10
19.8144590255601
20
-0.840148345951263
30
1E-16
41
1
10
19.5115741656325
20
-0.683468685932382
30
0
41
1
10
19.0545404124267
20
-0.444668101447235
30
0
41
1
10
18.9017720429722
20
-0.364402885484395
30
0
41
1
10
18.5956536323765
20
-0.201951686480527
30
0
41
1
10
18.4419588923078
20
-0.119802844129822
30
0
41
1
10
17.9827722765501
20
0.124929488252462
30
0
41
1
10
17.6781319385898
20
0.28656372702369
30
0
41
1
10
17.0714485410587
20
0.606251936417095
30
0
41
1
10
16.768583209555
20
0.762716317536047
30
0
41
1
10
16.1625748047714
20
1.0667306511877
30
-1E-16
41
1
10
15.8598168653643
20
1.21493475292652
30
-1E-16
41
1
10
15.4031633557814
20
1.42637076499941
30
-1E-16
41
1
10
15.2505684446578
20
1.4951229193727
30
-1E-16
41
1
10
14.9448764923369
20
1.6295497390646
30
-1E-16
41
1
10
14.7913215227498
20
1.69515136103973
30
-1E-16
41
1
10
14.3313008590706
20
1.88412394473138
30
-1E-16
41
1
10
14.026282334041
20
1.99965795419953
30
1E-16
41
1
10
13.419043546377
20
2.20968648029538
30
1E-16
41
1
10
13.1159807862164
20
2.30308936374161
30
1E-16
41
1
10
12.5099880655308
20
2.46600900214665
30
1E-16
41
1
10
12.2073192165955
20
2.53564756508672
30
1E-16
41
1
10
11.5989090577316
20
2.64798196214562
30
-1E-16
41
1
10
11.2939265063482
20
2.69123306037915
30
-1E-16
41
1
10
10.6793816229613
20
2.74939042112351
30
0
41
1
10
10.3733439984874
20
2.76401798389477
30
0
41
1
10
10.0644790217164
20
2.76441511109337
30
0
41
1
10
10.0608167138699
20
2.76441776688483
30
0
41
1
10
10.0571544498884
20
2.76441836967339
30
0
0
SPLINE
5
EF
100
AcDbEntity
8
1
62
256
6
ByLayer
370
18
48
1
60
0
100
AcDbSpline
70
4
71
3
72
10
73
6
40
0
40
0
40
0
40
0
40
0.558594535133468
40
0.558594535133468
40
1
40
1
40
1
40
1
41
1
10
12.8866867775623
20
-1.58956368101474
30
0
41
1
10
12.0092785915259
20
-1.781169375915
30
0
41
1
10
11.1377560422183
20
-1.97215591093484
30
0
41
1
10
9.58899342578371
20
-2.30787178683221
30
0
41
1
10
8.90970643601997
20
-2.45381803338194
30
0
41
1
10
8.23437230770051
20
-2.59678199085732
30
0
0
SPLINE
5
F0
100
AcDbEntity
8
1
62
256
6
ByLayer
370
18
48
1
60
0
100
AcDbSpline
70
4
71
3
72
10
73
6
40
0
40
0
40
0
40
0
40
0.915551971062603
40
0.915551971062603
40
1
40
1
40
1
40
1
41
1
10
40.1497802051468
20
-2.61716815690284
30
0
41
1
10
40.7037731937659
20
-2.71984164591058
30
-1E-16
41
1
10
41.257471020473
20
-2.77479812116172
30
0
41
1
10
41.8647873666764
20
-2.78400996281357
30
0
41
1
10
41.9161157147995
20
-2.78438544019366
30
0
41
1
10
41.9674362009177
20
-2.78435692972258
30
0
0
SPLINE
5
F1
100
AcDbEntity
8
1
62
256
6
ByLayer
370
18
48
1
60
0
100
AcDbSpline
70
4
71
3
72
28
73
24
40
0
40
0
40
0
40
0
40
0.0743877020000325
40
0.0743877020000325
40
0.158534274545484
40
0.158534274545484
40
0.242680847090937
40
0.242680847090937
40
0.326827419636388
40
0.326827419636388
40
0.41097399218184
40
0.41097399218184
40
0.495120564727292
40
0.495120564727292
40
0.579267137272744
40
0.579267137272744
40
0.663413709818196
40
0.663413709818196
40
0.747560282363648
40
0.747560282363648
40
0.8317068549091
40
0.8317068549091
40
1
40
1
40
1
40
1
41
1
10
56.7864230510316
20
2.6751132618447
30
0
41
1
10
57.0314836826433
20
2.71303656743973
30
0
41
1
10
57.2779403899793
20
2.74219415864223
30
1E-16
41
1
10
57.7985445999214
20
2.78467568738432
30
0
41
1
10
58.072961080183
20
2.7954773403969
30
0
41
1
10
58.6219698418616
20
2.79356432620745
30
0
41
1
10
58.8963566394664
20
2.78105646543918
30
0
41
1
10
59.4447011378791
20
2.73300479936358
30
1E-16
41
1
10
59.7184943262936
20
2.69721402928661
30
-1E-16
41
1
10
60.2690593523214
20
2.60349415822765
30
1E-16
41
1
10
60.5454508821928
20
2.5454676161786
30
1E-16
41
1
10
61.1015495057114
20
2.40728418045654
30
1E-16
41
1
10
61.3774763845774
20
2.32752976321225
30
1E-16
41
1
10
61.9280793846706
20
2.15068803446047
30
1E-16
41
1
10
62.2025901325193
20
2.05342766436701
30
1E-16
41
1
10
62.7507349511343
20
1.84229352926099
30
-1E-16
41
1
10
63.0242404553756
20
1.72816570009533
30
-1E-16
41
1
10
63.5731658950598
20
1.48724183027758
30
-1E-16
41
1
10
63.8483128745241
20
1.36009660128582
30
-1E-16
41
1
10
64.4007290149685
20
1.09331800082708
30
-1E-16
41
1
10
64.678767122129
20
0.952887409732028
30
-1E-16
41
1
10
65.5097937558619
20
0.525620352875109
30
0
41
1
10
66.0606975609594
20
0.22983187643851
30
0
41
1
10
66.6130989383065
20
-0.0683444693293325
30
0
0
SPLINE
5
F2
100
AcDbEntity
8
1
62
256
6
ByLayer
370
18
48
1
60
0
100
AcDbSpline
70
4
71
3
72
8
73
4
40
0
40
0
40
0
40
0
40
1
40
1
40
1
40
1
41
1
10
66.8441694576024
20
-2.76412483771463
30
0
41
1
10
66.8891699352067
20
-2.73855049145558
30
0
41
1
10
66.9342759713331
20
-2.71247360478742
30
0
41
1
10
66.9795037211991
20
-2.68590502817671
30
0
0
SPLINE
5
F3
100
AcDbEntity
8
1
62
256
6
ByLayer
370
18
48
1
60
0
100
AcDbSpline
70
4
71
3
72
40
73
36
40
0
40
0
40
0
40
0
40
0.0539403622914654
40
0.0539403622914654
40
0.107880724582931
40
0.107880724582931
40
0.215761449165862
40
0.215761449165862
40
0.323642173748793
40
0.323642173748793
40
0.350612354894525
40
0.350612354894525
40
0.377582536040258
40
0.377582536040258
40
0.431522898331725
40
0.431522898331725
40
0.539403622914662
40
0.539403622914662
40
0.566373804060395
40
0.566373804060395
40
0.593343985206128
40
0.593343985206128
40
0.647284347497593
40
0.647284347497593
40
0.755165072080524
40
0.755165072080524
40
0.809105434371989
40
0.809105434371989
40
0.836075615517722
40
0.836075615517722
40
0.863045796663455
40
0.863045796663455
40
0.970926521246389
40
0.970926521246389
40
1
40
1
40
1
40
1
41
1
10
66.8441694576038
20
-2.76412483771699
30
0
41
1
10
66.5637851836646
20
-2.73985463708826
30
-1E-16
41
1
10
66.2838754688662
20
-2.70358555222492
30
1E-16
41
1
10
65.7234754251268
20
-2.60797819768206
30
-1E-16
41
1
10
65.4426397173087
20
-2.54854211692563
30
-1E-16
41
1
10
64.5993792074019
20
-2.3373724463178
30
-1E-16
41
1
10
64.0442436771962
20
-2.15476856371018
30
-1E-16
41
1
10
62.9342110004561
20
-1.72472359024968
30
1E-16
41
1
10
62.3800657416784
20
-1.47621422503647
30
1E-16
41
1
10
61.6795516631367
20
-1.13664218709911
30
1E-16
41
1
10
61.538801977601
20
-1.06710770982568
30
1E-16
41
1
10
61.257872892704
20
-0.925978094995401
30
1E-16
41
1
10
61.1178517602149
20
-0.854502417122092
30
1E-16
41
1
10
60.6986746192477
20
-0.638184772072833
30
0
41
1
10
60.4204647431646
20
-0.491339322321295
30
0
41
1
10
59.5873273403033
20
-0.047146891864287
30
0
41
1
10
59.0339480709138
20
0.253965333505448
30
0
41
1
10
58.3365442959001
20
0.62091242947335
30
0
41
1
10
58.1967921887718
20
0.693853655093335
30
0
41
1
10
57.9165909419303
20
0.838546668723382
30
-1E-16
41
1
10
57.7758441798276
20
0.910430443029327
30
-1E-16
41
1
10
57.3544724694482
20
1.12226866010533
30
-1E-16
41
1
10
57.0751788440821
20
1.25823026602387
30
-1E-16
41
1
10
56.2398077702844
20
1.64686407207125
30
-1E-16
41
1
10
55.6864857276012
20
1.8806436791684
30
-1E-16
41
1
10
54.8522487875303
20
2.17914227887795
30
1E-16
41
1
10
54.5734039105581
20
2.26988856849235
30
1E-16
41
1
10
54.1528694891159
20
2.39131048592552
30
1E-16
41
1
10
54.0120202435946
20
2.42941055318667
30
1E-16
41
1
10
53.7310938481877
20
2.50006282549774
30
1E-16
41
1
10
53.5910675624617
20
2.53260285709308
30
1E-16
41
1
10
52.8924063469874
20
2.68100210107673
30
-1E-16
41
1
10
52.3382679922683
20
2.75409495697545
30
1E-16
41
1
10
51.6333236503077
20
2.78672753731982
30
0
41
1
10
51.4835686075768
20
2.7902092550604
30
0
41
1
10
51.3335938529971
20
2.79021744382075
30
0
0
SPLINE
5
F4
100
AcDbEntity
8
1
62
256
6
ByLayer
370
18
48
1
60
0
100
AcDbSpline
70
4
71
3
72
14
73
10
40
0
40
0
40
0
40
0
40
0.0944460169300304
40
0.0944460169300304
40
0.320834512697523
40
0.320834512697523
40
0.547223008465015
40
0.547223008465015
40
1
40
1
40
1
40
1
41
1
10
66.7390790798473
20
0.55001912531975
30
0
41
1
10
66.751474790415
20
0.55576867508023
30
0
41
1
10
66.7644630921447
20
0.561936097116956
30
0
41
1
10
66.8106625988455
20
0.58412168795769
30
0
41
1
10
66.8472282919466
20
0.602144773949533
30
0
41
1
10
66.9254128816722
20
0.638947026742215
30
0
41
1
10
66.9672198396328
20
0.657797101665665
30
0
41
1
10
67.1023248047868
20
0.711710704927782
30
0
41
1
10
67.2014226747095
20
0.741309672579376
30
0
41
1
10
67.3045919161862
20
0.755533293396894
30
0
0
SPLINE
5
F5
100
AcDbEntity
8
1
62
256
6
ByLayer
370
18
48
1
60
0
100
AcDbSpline
70
4
71
3
72
8
73
4
40
0
40
0
40
0
40
0
40
1
40
1
40
1
40
1
41
1
10
66.6130989383065
20
-0.0683444693293325
30
0
41
1
10
66.6076332179601
20
0.0633112465615113
30
0
41
1
10
66.6065143259985
20
0.194423329977241
30
0
41
1
10
66.6112434046962
20
0.324986440041272
30
0
0
SPLINE
5
F6
100
AcDbEntity
8
1
62
256
6
ByLayer
370
18
48
1
60
0
100
AcDbSpline
70
4
71
3
72
16
73
12
40
0
40
0
40
0
40
0
40
0.243349914939133
40
0.243349914939133
40
0.486699829878265
40
0.486699829878265
40
0.730049744817398
40
0.730049744817398
40
0.973399659756531
40
0.973399659756531
40
1
40
1
40
1
40
1
41
1
10
10.154420648209
20
-0.265794330382391
30
0
41
1
10
10.7826254264841
20
-0.598105944943256
30
0
41
1
10
11.402008234888
20
-0.919986520348829
30
1E-16
41
1
10
12.6408845431849
20
-1.51171542561784
30
1E-16
41
1
10
13.2601512024355
20
-1.78196013644379
30
1E-16
41
1
10
14.5160070596059
20
-2.2411449614934
30
-1E-16
41
1
10
15.1356905343295
20
-2.42364483444086
30
-1E-16
41
1
10
16.3742703478
20
-2.67972649976642
30
1E-16
41
1
10
16.9933570584993
20
-2.75351301860852
30
0
41
1
10
17.6896214386782
20
-2.76849189728114
30
0
41
1
10
17.7581513766933
20
-2.76924273931255
30
0
41
1
10
17.8266048356345
20
-2.76927436090585
30
0
0
SPLINE
5
F7
100
AcDbEntity
8
1
62
256
6
ByLayer
370
18
48
1
60
0
100
AcDbSpline
70
4
71
3
72
26
73
22
40
0
40
0
40
0
40
0
40
0.0410892101171311
40
0.0410892101171311
40
0.232871368093707
40
0.232871368093707
40
0.28081690758785
40
0.28081690758785
40
0.328762447081993
40
0.328762447081993
40
0.424653526070283
40
0.424653526070283
40
0.616435684046859
40
0.616435684046859
40
0.664381223541
40
0.664381223541
40
0.712326763035142
40
0.712326763035142
40
0.808217842023428
40
0.808217842023428
40
1
40
1
40
1
40
1
41
1
10
30.2827438100555
20
2.03769927408081
30
1E-16
41
1
10
30.4154833667606
20
2.08590108609061
30
1E-16
41
1
10
30.5480969443161
20
2.13207174485896
30
1E-16
41
1
10
31.2994445103939
20
2.38166973530258
30
1E-16
41
1
10
31.9172681206399
20
2.54081731654008
30
1E-16
41
1
10
32.6993150473887
20
2.66968403229904
30
-1E-16
41
1
10
32.8564283312117
20
2.69196701184444
30
-1E-16
41
1
10
33.1690429671012
20
2.72895455155702
30
1E-16
41
1
10
33.3248714731607
20
2.74372256929624
30
0
41
1
10
33.7913321604966
20
2.77688349197982
30
0
41
1
10
34.1009566928757
20
2.78412622674748
30
0
41
1
10
35.0290098352893
20
2.7616747300892
30
0
41
1
10
35.6465823786195
20
2.68771888047439
30
-1E-16
41
1
10
36.4280718271585
20
2.52386098575789
30
1E-16
41
1
10
36.5851557908147
20
2.48742865361982
30
1E-16
41
1
10
36.8978802547921
20
2.40824804830271
30
1E-16
41
1
10
37.0537483020891
20
2.36545879373369
30
1E-16
41
1
10
37.5203028438857
20
2.22806289381126
30
1E-16
41
1
10
37.8299440525366
20
2.12443270321964
30
1E-16
41
1
10
38.757895042159
20
1.78180596660567
30
-1E-16
41
1
10
39.3752333366814
20
1.51102240288918
30
-1E-16
41
1
10
40.0000000000115
20
1.21022231534735
30
-1E-16
0
SPLINE
5
F8
100
AcDbEntity
8
1
62
256
6
ByLayer
370
18
48
1
60
0
100
AcDbSpline
70
4
71
3
72
8
73
4
40
0
40
0
40
0
40
0
40
1
40
1
40
1
40
1
41
1
10
66.8441694575993
20
-2.7641248377183
30
0
41
1
10
66.8484726209976
20
-2.78523075265795
30
0
41
1
10
66.8522349075733
20
-2.79718570136328
30
0
41
1
10
66.8555937819878
20
-2.79950183381976
30
0
0
SPLINE
5
F9
100
AcDbEntity
8
1
62
256
6
ByLayer
370
18
48
1
60
0
100
AcDbSpline
70
4
71
3
72
54
73
50
40
0
40
0
40
0
40
0
40
0.0751895559031883
40
0.0751895559031883
40
0.0983602151356587
40
0.0983602151356587
40
0.121530874368129
40
0.121530874368129
40
0.16787219283307
40
0.16787219283307
40
0.214213511298011
40
0.214213511298011
40
0.260554829762952
40
0.260554829762952
40
0.283725488995421
40
0.283725488995421
40
0.306896148227891
40
0.306896148227891
40
0.353237466692831
40
0.353237466692831
40
0.399578785157772
40
0.399578785157772
40
0.445920103622713
40
0.445920103622713
40
0.492261422087654
40
0.492261422087654
40
0.515432081320123
40
0.515432081320123
40
0.538602740552593
40
0.538602740552593
40
0.584944059017534
40
0.584944059017534
40
0.631285377482474
40
0.631285377482474
40
0.677626695947415
40
0.677626695947415
40
0.700797355179886
40
0.700797355179886
40
0.723968014412356
40
0.723968014412356
40
0.770309332877299
40
0.770309332877299
40
0.816650651342241
40
0.816650651342241
40
0.909333288272128
40
0.909333288272128
40
0.955674606737072
40
0.955674606737072
40
1
40
1
40
1
40
1
41
1
10
40.4634511056638
20
2.67021297062647
30
0
41
1
10
40.9128680312536
20
2.73892951263681
30
0
41
1
10
41.362417022547
20
2.77638995375301
30
0
41
1
10
41.9525081177548
20
2.78534052088858
30
0
41
1
10
42.0918217279403
20
2.78449253426436
30
0
41
1
10
42.3690884445648
20
2.77682216711213
30
0
41
1
10
42.507243323761
20
2.77000160397705
30
0
41
1
10
42.9211177653784
20
2.74086836913503
30
1E-16
41
1
10
43.1959742801386
20
2.70984423549865
30
-1E-16
41
1
10
43.7452039691457
20
2.62583635599569
30
0
41
1
10
44.0196187621057
20
2.57291263016651
30
1E-16
41
1
10
44.5688465597808
20
2.44580664330004
30
1E-16
41
1
10
44.8432547280641
20
2.37116962070291
30
1E-16
41
1
10
45.2570570077189
20
2.24460662354389
30
1E-16
41
1
10
45.3954213351901
20
2.20008634473655
30
1E-16
41
1
10
45.6729377932371
20
2.10628797346882
30
1E-16
41
1
10
45.8123476208198
20
2.05690601092604
30
1E-16
41
1
10
46.2286990524172
20
1.90264363444754
30
-1E-16
41
1
10
46.5040384292968
20
1.79088741765366
30
-1E-16
41
1
10
47.0538385023505
20
1.55497780399824
30
-1E-16
41
1
10
47.3285396981721
20
1.43128534838127
30
-1E-16
41
1
10
47.8774221170655
20
1.17248285012397
30
-1E-16
41
1
10
48.1514631160304
20
1.03708398475439
30
-1E-16
41
1
10
48.7008804989227
20
0.757798457117332
30
0
41
1
10
48.9762436058048
20
0.613889751236769
30
0
41
1
10
49.3917977576902
20
0.394373983324073
30
0
41
1
10
49.5311165579585
20
0.32062675901426
30
0
41
1
10
49.8089778660165
20
0.173067438448101
30
0
41
1
10
49.9475127895847
20
0.0992502676527351
30
0
41
1
10
50.3619307660866
20
-0.122332377595768
30
0
41
1
10
50.6363473835252
20
-0.270749402974729
30
0
41
1
10
51.1849309425771
20
-0.562297907757284
30
0
41
1
10
51.4593641988094
20
-0.704972691646134
30
0
41
1
10
52.008111084105
20
-0.984937829412473
30
1E-16
41
1
10
52.2823663961632
20
-1.12229602221038
30
1E-16
41
1
10
52.6956419594138
20
-1.32060770157148
30
1E-16
41
1
10
52.8337746051318
20
-1.38532664084855
30
1E-16
41
1
10
53.1107963850027
20
-1.51197597040789
30
1E-16
41
1
10
53.249926620074
20
-1.57403742569804
30
1E-16
41
1
10
53.6665573791444
20
-1.75520401194464
30
1E-16
41
1
10
53.9421808817463
20
-1.86897155450001
30
1E-16
41
1
10
54.492351463744
20
-2.07817409956647
30
-1E-16
41
1
10
54.7670223613218
20
-2.17357552907049
30
-1E-16
41
1
10
55.5897849773002
20
-2.4327138362768
30
-1E-16
41
1
10
56.1366031491412
20
-2.5687539680049
30
-1E-16
41
1
10
56.96678123246
20
-2.7052274827393
30
1E-16
41
1
10
57.2458936347641
20
-2.73957912955348
30
-1E-16
41
1
10
57.786523977234
20
-2.78369479937285
30
0
41
1
10
58.0490823118312
20
-2.79451533102383
30
0
41
1
10
58.3116415905454
20
-2.79457890995718
30
0
0
SPLINE
5
FA
100
AcDbEntity
8
1
62
256
6
ByLayer
370
18
48
1
60
0
100
AcDbSpline
70
4
71
3
72
8
73
4
40
0
40
0
40
0
40
0
40
1
40
1
40
1
40
1
41
1
10
40.0548959777892
20
1.56011817735222
30
-1E-16
41
1
10
40.0228732554156
20
1.57429212174281
30
-1E-16
41
1
10
40.0020632783333
20
1.60292391701887
30
-1E-16
41
1
10
40.0020632783333
20
1.63233793409125
30
-1E-16
0
SPLINE
5
FB
100
AcDbEntity
8
1
62
256
6
ByLayer
370
18
48
1
60
0
100
AcDbSpline
70
4
71
3
72
18
73
14
40
0
40
0
40
0
40
0
40
0.499999999999993
40
0.499999999999993
40
0.562499999999994
40
0.562499999999994
40
0.624999999999995
40
0.624999999999995
40
0.749999999999996
40
0.749999999999996
40
0.874999999999998
40
0.874999999999998
40
1
40
1
40
1
40
1
41
1
10
67.0291840943671
20
2.68412004720503
30
0
41
1
10
67.1405348018359
20
2.36762084268662
30
0
41
1
10
67.2510275741907
20
2.04594216407733
30
0
41
1
10
67.3797890272815
20
1.686571539787
30
0
41
1
10
67.3941987628408
20
1.64677649620998
30
0
41
1
10
67.4236713935452
20
1.56791612013939
30
0
41
1
10
67.4386899609693
20
1.52879535686318
30
0
41
1
10
67.484762085875
20
1.41243053297424
30
0
41
1
10
67.516842677278
20
1.33619475161075
30
0
41
1
10
67.58465248294
20
1.18681154487672
30
0
41
1
10
67.6207101673661
20
1.11308559952622
30
0
41
1
10
67.694975677653
20
0.973332812628286
30
0
41
1
10
67.733281033577
20
0.906934081116106
30
0
41
1
10
67.7728725483569
20
0.8437556195247
30
0
0
SPLINE
5
FC
100
AcDbEntity
8
1
62
256
6
ByLayer
370
18
48
1
60
0
100
AcDbSpline
70
4
71
3
72
22
73
18
40
0
40
0
40
0
40
0
40
0.125
40
0.125
40
0.25
40
0.25
40
0.375
40
0.375
40
0.5
40
0.5
40
0.625
40
0.625
40
0.75
40
0.75
40
0.875
40
0.875
40
1
40
1
40
1
40
1
41
1
10
66.6830725621515
20
-0.111938189106212
30
0
41
1
10
66.6876986361183
20
-0.267476515504029
30
0
41
1
10
66.6982680860729
20
-0.419743432831865
30
0
41
1
10
66.7258146397145
20
-0.718473028589727
30
0
41
1
10
66.7428897825246
20
-0.865472659541553
30
1E-16
41
1
10
66.7791904773847
20
-1.15137880035604
30
1E-16
41
1
10
66.7982068740338
20
-1.28885659367768
30
1E-16
41
1
10
66.8345542132964
20
-1.55002278587642
30
1E-16
41
1
10
66.8518419201999
20
-1.67346550996862
30
1E-16
41
1
10
66.882736659244
20
-1.90243716018966
30
-1E-16
41
1
10
66.8963523345851
20
-2.00806646988039
30
-1E-16
41
1
10
66.9198229797862
20
-2.19776023444243
30
-1E-16
41
1
10
66.9297203653612
20
-2.28211718666975
30
-1E-16
41
1
10
66.9476174814008
20
-2.42642973078881
30
-1E-16
41
1
10
66.9556899880723
20
-2.48676511689052
30
0
41
1
10
66.9733352812264
20
-2.58082414706448
30
0
41
1
10
66.982929889985
20
-2.61487413852302
30
0
41
1
10
66.9956762966128
20
-2.63577299149151
30
0
0
SPLINE
5
FD
100
AcDbEntity
8
1
62
256
6
ByLayer
370
18
48
1
60
0
100
AcDbSpline
70
4
71
3
72
28
73
24
40
0
40
0
40
0
40
0
40
0.0702985876571313
40
0.0702985876571313
40
0.268616068780701
40
0.268616068780701
40
0.318195439061593
40
0.318195439061593
40
0.367774809342486
40
0.367774809342486
40
0.466933549904266
40
0.466933549904266
40
0.665251031027824
40
0.665251031027824
40
0.764409771589603
40
0.764409771589603
40
0.813989141870494
40
0.813989141870494
40
0.863568512151385
40
0.863568512151385
40
0.962727252713172
40
0.962727252713172
40
1
40
1
40
1
40
1
41
1
10
42.8775121331493
20
0.150721602234683
30
0
41
1
10
43.0753474294411
20
0.0503705404069024
30
0
41
1
10
43.2728074454829
20
-0.0501195140057575
30
0
41
1
10
44.0267535566099
20
-0.432645717147153
30
0
41
1
10
44.5823081494467
20
-0.712372163378802
30
0
41
1
10
45.2829185061186
20
-1.04350892145547
30
1E-16
41
1
10
45.423342159937
20
-1.10883142996732
30
1E-16
41
1
10
45.7049749241854
20
-1.23730124536655
30
1E-16
41
1
10
45.8460839641756
20
-1.30039591794133
30
1E-16
41
1
10
46.2674614975969
20
-1.48440719981673
30
1E-16
41
1
10
46.546934780852
20
-1.60049971455962
30
1E-16
41
1
10
47.3833143212551
20
-1.92571917254995
30
-1E-16
41
1
10
47.9380687913405
20
-2.11205840847856
30
-1E-16
41
1
10
48.7746147242544
20
-2.33463368226714
30
-1E-16
41
1
10
49.0542316570751
20
-2.39924392140759
30
-1E-16
41
1
10
49.4758609609734
20
-2.4803236272823
30
0
41
1
10
49.6169799844918
20
-2.50477919921798
30
0
41
1
10
49.8987148913317
20
-2.54810455829767
30
0
41
1
10
50.039398831409
20
-2.5669973647253
30
0
41
1
10
50.4611744237055
20
-2.61525535026573
30
0
41
1
10
50.7419934504832
20
-2.63589149231603
30
0
41
1
10
51.1290442164664
20
-2.64843441963805
30
0
41
1
10
51.2349172239661
20
-2.6502169979187
30
0
41
1
10
51.3408286705261
20
-2.65036124790098
30
0
0
SPLINE
5
FE
100
AcDbEntity
8
1
62
256
6
ByLayer
370
18
48
1
60
0
100
AcDbSpline
70
4
71
3
72
28
73
24
40
0
40
0
40
0
40
0
40
0.048871213744462
40
0.048871213744462
40
0.185097035191518
40
0.185097035191518
40
0.321322856638573
40
0.321322856638573
40
0.457548678085629
40
0.457548678085629
40
0.525661588809157
40
0.525661588809157
40
0.593774499532685
40
0.593774499532685
40
0.661887410256212
40
0.661887410256212
40
0.73000032097974
40
0.73000032097974
40
0.866226142426796
40
0.866226142426796
40
0.934339053150325
40
0.934339053150325
40
1
40
1
40
1
40
1
41
1
10
59.18406195874
20
-0.222734816463912
30
0
41
1
10
58.9816238192691
20
-0.118518855117628
30
0
41
1
10
58.7790242660764
20
-0.0137204629419614
30
0
41
1
10
58.0099610981278
20
0.383235600205268
30
0
41
1
10
57.4435649147687
20
0.673723208523342
30
0
41
1
10
56.3176987618793
20
1.21806684615362
30
-1E-16
41
1
10
55.7565908422331
20
1.47273632885117
30
-1E-16
41
1
10
54.6251180388305
20
1.92550028750259
30
1E-16
41
1
10
54.0622234804621
20
2.12035693988298
30
1E-16
41
1
10
53.2145769499319
20
2.35320776598817
30
1E-16
41
1
10
52.9315021727178
20
2.42090867391425
30
1E-16
41
1
10
52.3671311394643
20
2.53420351865165
30
0
41
1
10
52.0852553992162
20
2.57993517680933
30
0
41
1
10
51.5206467393726
20
2.64816301902496
30
0
41
1
10
51.2371874627627
20
2.67058153287175
30
0
41
1
10
50.6741584363711
20
2.6914716284457
30
0
41
1
10
50.3939922500054
20
2.69012622968106
30
0
41
1
10
49.5552328510778
20
2.65164649379739
30
-1E-16
41
1
10
48.9984850728129
20
2.5794646814114
30
0
41
1
10
48.1579147537998
20
2.40604938994915
30
1E-16
41
1
10
47.8768350519532
20
2.3374652399115
30
1E-16
41
1
10
47.321501627702
20
2.18212160528066
30
1E-16
41
1
10
47.0497016174598
20
2.09664226671362
30
1E-16
41
1
10
46.7792944401534
20
2.00348446669665
30
0
0
SPLINE
5
FF
100
AcDbEntity
8
SK1
62
256
6
ByLayer
370
18
48
1
60
0
100
AcDbSpline
70
4
71
3
72
10
73
6
40
0
40
0
40
0
40
0
40
0.5
40
0.5
40
1
40
1
40
1
40
1
41
1
10
-35.8509618943233
20
-0.0731898753807627
30
0
41
1
10
-35.8741904300927
20
-0.123518279536256
30
0
41
1
10
-35.8986222732874
20
-0.172425134034342
30
0
41
1
10
-35.9485161922248
20
-0.266211614547899
30
0
41
1
10
-35.974056478015
20
-0.311272962266969
30
0
41
1
10
-35.9999999999999
20
-0.35479059242428
30
0
0
SPLINE
5
100
100
AcDbEntity
8
SK1
62
256
6
ByLayer
370
18
48
1
60
0
100
AcDbSpline
70
4
71
3
72
8
73
4
40
0
40
0
40
0
40
0
40
1
40
1
40
1
40
1
41
1
10
-35.75
20
1.38705136438557
30
-1E-16
41
1
10
-35.7837021645704
20
1.37609858038431
30
-1E-16
41
1
10
-35.8173584567731
20
1.36513272176467
30
-1E-16
41
1
10
-35.8509618943233
20
1.35415179842423
30
-1E-16
0
SPLINE
5
101
100
AcDbEntity
8
SK1
62
256
6
ByLayer
370
18
48
1
60
0
100
AcDbSpline
70
4
71
3
72
8
73
4
40
0
40
0
40
0
40
0
40
1
40
1
40
1
40
1
41
1
10
-35.8509618943233
20
-0.0731898753807627
30
0
41
1
10
-35.8173581918013
20
-0.0622088654529307
30
0
41
1
10
-35.7837019110652
20
-0.0512430110346713
30
0
41
1
10
-35.7499999999999
20
-0.0402903094194187
30
0
0
SPLINE
5
102
100
AcDbEntity
8
SK1
62
256
6
ByLayer
370
18
48
1
60
0
100
AcDbSpline
70
4
71
3
72
8
73
4
40
0
40
0
40
0
40
0
40
1
40
1
40
1
40
1
41
1
10
-35.8509618943233
20
0.0731898753807627
30
0
41
1
10
-35.8173581918013
20
0.0622088654529307
30
0
41
1
10
-35.7837019110652
20
0.0512430110346713
30
0
41
1
10
-35.7499999999999
20
0.0402903094193903
30
0
0
SPLINE
5
103
100
AcDbEntity
8
SK1
62
256
6
ByLayer
370
18
48
1
60
0
100
AcDbSpline
70
4
71
3
72
10
73
6
40
0
40
0
40
0
40
0
40
0.5
40
0.5
40
1
40
1
40
1
40
1
41
1
10
-35.8509618943233
20
0.0731898753807627
30
0
41
1
10
-35.8741904300927
20
0.123518279536256
30
0
41
1
10
-35.8986222732874
20
0.172425134034342
30
0
41
1
10
-35.9485161922248
20
0.266211614547899
30
0
41
1
10
-35.974056478015
20
0.311272962266969
30
0
41
1
10
-35.9999999999999
20
0.35479059242428
30
0
0
SPLINE
5
104
100
AcDbEntity
8
SK1
62
256
6
ByLayer
370
18
48
1
60
0
100
AcDbSpline
70
4
71
3
72
12
73
8
40
0
40
0
40
0
40
0
40
0.500000000000001
40
0.500000000000001
40
0.750000000000001
40
0.750000000000001
40
1
40
1
40
1
40
1
41
1
10
-35.75
20
-0.040290309419504
30
0
41
1
10
-35.7259913046562
20
-0.0324877822641838
30
0
41
1
10
-35.7033433879313
20
-0.0164511538866918
30
0
41
1
10
-35.6754686754417
20
0.0177426942836973
30
0
41
1
10
-35.667025596347
20
0.0311720332650509
30
0
41
1
10
-35.6543350076412
20
0.061575017553281
30
0
41
1
10
-35.65
20
0.0790623279309273
30
0
41
1
10
-35.65
20
0.0966000271598375
30
0
0
SPLINE
5
105
100
AcDbEntity
8
SK1
62
256
6
ByLayer
370
18
48
1
60
0
100
AcDbSpline
70
4
71
3
72
8
73
4
40
0
40
0
40
0
40
0
40
1
40
1
40
1
40
1
41
1
10
-36.0000000000001
20
1.47804555610284
30
-1E-16
41
1
10
-35.9478735570755
20
1.44702404082076
30
-1E-16
41
1
10
-35.897619057052
20
1.40685767069599
30
-1E-16
41
1
10
-35.8509618943233
20
1.35415179842423
30
-1E-16
0
SPLINE
5
106
100
AcDbEntity
8
SK1
62
256
6
ByLayer
370
18
48
1
60
0
100
AcDbSpline
70
4
71
3
72
12
73
8
40
0
40
0
40
0
40
0
40
0.250000000000001
40
0.250000000000001
40
0.500000000000003
40
0.500000000000003
40
1
40
1
40
1
40
1
41
1
10
-35.65
20
1.33362947779085
30
-1E-16
41
1
10
-35.65
20
1.34828404924517
30
-1E-16
41
1
10
-35.6543403470552
20
1.36019664680524
30
-1E-16
41
1
10
-35.6670034572333
20
1.37773975949526
30
-1E-16
41
1
10
-35.6754069618006
20
1.38375237402025
30
-1E-16
41
1
10
-35.7033744297257
20
1.39527952387883
30
-1E-16
41
1
10
-35.7260009806424
20
1.39485074696597
30
-1E-16
41
1
10
-35.7500000000001
20
1.38705136438571
30
-1E-16
0
SPLINE
5
107
100
AcDbEntity
8
SK1
62
256
6
ByLayer
370
18
48
1
60
0
100
AcDbSpline
70
4
71
3
72
8
73
4
40
0
40
0
40
0
40
0
40
1
40
1
40
1
40
1
41
1
10
-35.75
20
0.040290309419504
30
0
41
1
10
-35.7293236592316
20
0.0335707560240621
30
0
41
1
10
-35.7096565660458
20
0.0207442234053303
30
0
41
1
10
-35.6927258363251
20
0.0027527260159559
30
0
0
SPLINE
5
108
100
AcDbEntity
8
1
62
256
6
ByLayer
370
18
48
1
60
0
100
AcDbSpline
70
4
71
1
72
4
73
2
40
0
40
0
40
1
40
1
41
1
10
59.5027799690352
20
-0.000226260431873
30
0
41
1
10
59.5027641082213
20
-0.0002207756757855
30
0
0
SPLINE
5
109
100
AcDbEntity
8
1
62
256
6
ByLayer
370
18
48
1
60
0
100
AcDbSpline
70
4
71
3
72
10
73
6
40
0
40
0
40
0
40
0
40
0.329472296025306
40
0.531606760397536
40
1
40
1
40
1
40
1
41
1
10
41.9538030026291
20
2.64586497162438
30
0
41
1
10
41.7386459127754
20
2.64649556579741
30
0
41
1
10
41.3921498404519
20
2.64702880508543
30
0
41
1
10
40.7440395522077
20
2.64663614624237
30
0
41
1
10
40.3074469123912
20
2.64496527651872
30
0
41
1
10
40.0020632783335
20
2.64313692420683
30
0
0
SPLINE
5
10A
100
AcDbEntity
8
1
62
256
6
ByLayer
370
18
48
1
60
0
100
AcDbSpline
70
4
71
1
72
4
73
2
40
0
40
0
40
1
40
1
41
1
10
67.018074504851
20
-2.69161177986979
30
0
41
1
10
67.0300226855006
20
-2.68355960866242
30
0
0
SPLINE
5
10B
100
AcDbEntity
8
1
62
256
6
ByLayer
370
18
48
1
60
0
100
AcDbSpline
70
4
71
3
72
11
73
7
40
0
40
0
40
0
40
0
40
0.138119571939224
40
0.334884890536529
40
0.616884199031857
40
1
40
1
40
1
40
1
41
1
10
66.5115217857238
20
0.72645805595775
30
0
41
1
10
66.3634862157446
20
0.77599050002479
30
0
41
1
10
66.005140424942
20
0.897728376196596
30
-1E-16
41
1
10
65.3479309657158
20
1.13010929023395
30
-1E-16
41
1
10
64.4338954447874
20
1.4667078585118
30
-1E-16
41
1
10
63.7336235066046
20
1.73960529912418
30
-1E-16
41
1
10
63.3318864486084
20
1.90112382592773
30
-1E-16
0
SPLINE
5
10C
100
AcDbEntity
8
1
62
256
6
ByLayer
370
18
48
1
60
0
100
AcDbSpline
70
4
71
3
72
24
73
20
40
0
40
0
40
0
40
0
40
1.29267719488E-05
40
8.69077031898E-05
40
0.0001508408334318
40
0.0002067019874753
40
0.000334546376484
40
0.0011556652065137
40
0.0018358788807959
40
0.0031293937142816
40
0.005691208719764
40
0.011071546199705
40
0.0615907226941157
40
0.226258750490848
40
0.427893617854803
40
0.527997195054956
40
0.636945621078163
40
0.806040435994318
40
1
40
1
40
1
40
1
41
1
10
36.0089201737155
20
0.0334376673657459
30
0
41
1
10
36.0089234723063
20
0.0334372565771446
30
0
41
1
10
36.008941778655
20
0.0334356341638795
30
0
41
1
10
36.008925817842
20
0.0334468302802691
30
0
41
1
10
36.0087923603504
20
0.033493441681685
30
0
41
1
10
36.0085205677455
20
0.033581177446564
30
0
41
1
10
36.0069061187407
20
0.0340751755384758
30
0
41
1
10
36.0040796952384
20
0.0349172259354589
30
0
41
1
10
35.9993659515101
20
0.0363321286631617
30
0
41
1
10
35.9916358889179
20
0.0386400234567645
30
0
41
1
10
35.9758696180039
20
0.0433321372678961
30
0
41
1
10
35.8754196100994
20
0.0730615623267568
30
0
41
1
10
35.49211908552
20
0.186240629250307
30
0
41
1
10
34.7697581136413
20
0.40841851296176
30
0
41
1
10
33.964586679632
20
0.671852290766424
30
0
41
1
10
33.2591338328584
20
0.913895646859487
30
-1E-16
41
1
10
32.6116851701267
20
1.14325634067751
30
-1E-16
41
1
10
31.8069553434789
20
1.43948558896832
30
-1E-16
41
1
10
31.1922688612685
20
1.67899203411918
30
-1E-16
41
1
10
30.8650237175156
20
1.81012157326572
30
-1E-16
0
SPLINE
5
10D
100
AcDbEntity
8
1
62
256
6
ByLayer
370
18
48
1
60
0
100
AcDbSpline
70
4
71
3
72
25
73
21
40
0
40
0
40
0
40
0
40
4.30246284386E-05
40
8.8534745233E-05
40
0.0001595228859941
40
0.0002505081395019
40
0.0007775053262703
40
0.0011985656316929
40
0.0019679618434979
40
0.0033977290340398
40
0.0061291078742567
40
0.0120486889507173
40
0.0367830886855596
40
0.130125167562053
40
0.235161429965503
40
0.327651683137486
40
0.409326975429412
40
0.555072139522052
40
0.761834747727463
40
1
40
1
40
1
40
1
41
1
10
52.3405022984817
20
0.0374856535361232
30
0
41
1
10
52.3405108497738
20
0.0374849086139477
30
0
41
1
10
52.3405150110343
20
0.0374872810091347
30
0
41
1
10
52.3404645763586
20
0.037508095585963
30
0
41
1
10
52.3403009535309
20
0.0375628129640404
30
0
41
1
10
52.3393191392826
20
0.0378588812793339
30
0
41
1
10
52.3375273105858
20
0.0383797484235231
30
0
41
1
10
52.3347771389258
20
0.0391913879538492
30
0
41
1
10
52.3304905473468
20
0.0404534062722348
30
0
41
1
10
52.3224334119402
20
0.0428337087724628
30
0
41
1
10
52.3058384998119
20
0.04776099059373
30
0
41
1
10
52.2495797015332
20
0.0646096090055153
30
0
41
1
10
52.0327985023793
20
0.129029033907045
30
0
41
1
10
51.6416191276666
20
0.24690355185453
30
0
41
1
10
51.1323032114351
20
0.406184768380115
30
0
41
1
10
50.6450275932212
20
0.563696916005313
30
0
41
1
10
50.0881882779584
20
0.748904842420018
30
0
41
1
10
49.3352402075431
20
1.00852862293883
30
-1E-16
41
1
10
48.3163982842669
20
1.37834768901087
30
-1E-16
41
1
10
47.5550500555467
20
1.67358348556925
30
-1E-16
41
1
10
47.1491758714893
20
1.83631726346104
30
-1E-16
0
SPLINE
5
10E
100
AcDbEntity
8
1
62
256
6
ByLayer
370
18
48
1
60
0
100
AcDbSpline
70
4
71
3
72
27
73
23
40
0
40
0
40
0
40
0
40
8.02563124018E-05
40
0.0001513308911261
40
0.0002169770532263
40
0.0003279931626059
40
0.0010148633700487
40
0.0015633950072725
40
0.0025659042236391
40
0.0044294646274396
40
0.007991514146487
40
0.0151008927930808
40
0.0301902050106578
40
0.064797971705788
40
0.146325651839169
40
0.25517057490755
40
0.37762266060287
40
0.466400741573581
40
0.527667329958898
40
0.642332375266216
40
0.813038003859196
40
1
40
1
40
1
40
1
41
1
10
19.5627871800501
20
0.060186461487973
30
0
41
1
10
19.5628102170387
20
0.0601850823148311
30
0
41
1
10
19.5628133722675
20
0.0601944258286267
30
0
41
1
10
19.5626862561953
20
0.0602448257787387
30
0
41
1
10
19.5624318284387
20
0.0603316113128471
30
0
41
1
10
19.5611432366501
20
0.0607324395726039
30
0
41
1
10
19.5587385202351
20
0.0614266887352812
30
0
41
1
10
19.5549954513832
20
0.0625344555383265
30
0
41
1
10
19.5491872126436
20
0.0642432284365952
30
0
41
1
10
19.5382983633994
20
0.0674543595226567
30
0
41
1
10
19.5169813164251
20
0.073741172225624
30
0
41
1
10
19.4730773136593
20
0.0867169305616926
30
0
41
1
10
19.3759259289035
20
0.115553749844139
30
0
41
1
10
19.150803845082
20
0.182982569645105
30
0
41
1
10
18.7648746577692
20
0.30090575744498
30
0
41
1
10
18.2302905630374
20
0.469869207981588
30
0
41
1
10
17.6853750470269
20
0.648803393414966
30
0
41
1
10
17.2229981457982
20
0.805686343657896
30
0
41
1
10
16.7745313563289
20
0.961237229581712
30
-1E-16
41
1
10
16.1890188333632
20
1.1697314415436
30
-1E-16
41
1
10
15.3946509305708
20
1.46362222351024
30
-1E-16
41
1
10
14.7973014772784
20
1.69687945829929
30
-1E-16
41
1
10
14.4861137509716
20
1.82161091165503
30
-1E-16
0
SPLINE
5
10F
100
AcDbEntity
8
1
62
256
6
ByLayer
370
18
48
1
60
0
100
AcDbSpline
70
4
71
3
72
16
73
12
40
0
40
0
40
0
40
0
40
0.138296444314509
40
0.247102065167283
40
0.397926725226169
40
0.498402286223041
40
0.64328868032549
40
0.747193561954885
40
0.820320104088746
40
0.902660375333769
40
1
40
1
40
1
40
1
41
1
10
51.3249444325423
20
-2.65037181429179
30
0
41
1
10
51.5768477397973
20
-2.65049916275151
30
0
41
1
10
52.0269387797473
20
-2.65072109184735
30
0
41
1
10
52.7517587027949
20
-2.65179143985205
30
0
41
1
10
53.4076878862757
20
-2.65117028073371
30
0
41
1
10
54.1293366344074
20
-2.65266641215192
30
0
41
1
10
54.7655231716542
20
-2.65230903339207
30
0
41
1
10
55.3518938401437
20
-2.65217080372611
30
0
41
1
10
55.8243353995434
20
-2.65288938780441
30
0
41
1
10
56.2848187414929
20
-2.653756528033
30
0
41
1
10
56.6121040212326
20
-2.65398505770511
30
0
41
1
10
56.7894071962536
20
-2.65383135876033
30
0
0
SPLINE
5
110
100
AcDbEntity
8
1
62
256
6
ByLayer
370
18
48
1
60
0
100
AcDbSpline
70
4
71
3
72
18
73
14
40
0
40
0
40
0
40
0
40
0.11904196055382
40
0.194299962480675
40
0.318050447833737
40
0.425473784316069
40
0.507236936173725
40
0.623385827248417
40
0.730101895301355
40
0.803058096091063
40
0.875966961603741
40
0.978203851266491
40
1
40
1
40
1
40
1
41
1
10
58.3074401653453
20
2.65502513208728
30
0
41
1
10
58.0867390751468
20
2.65390357878022
30
0
41
1
10
57.7265098284941
20
2.65277326933793
30
0
41
1
10
57.1368427742493
20
2.6530664354413
30
0
41
1
10
56.5687181582274
20
2.65450125591019
30
0
41
1
10
55.988531450889
20
2.65302420634606
30
0
41
1
10
55.4224417263624
20
2.65233785522261
30
0
41
1
10
54.8576590157438
20
2.65213453841065
30
0
41
1
10
54.3092053599977
20
2.65286055675602
30
0
41
1
10
53.8409197256084
20
2.65190875288587
30
0
41
1
10
53.3809378272277
20
2.65139453182019
30
0
41
1
10
53.0158072231863
20
2.65164193902635
30
0
41
1
10
52.7858495353826
20
2.65153842182383
30
0
41
1
10
52.7454393971045
20
2.65151417179345
30
0
0
SPLINE
5
111
100
AcDbEntity
8
1
62
256
6
ByLayer
370
18
48
1
60
0
100
AcDbSpline
70
4
71
3
72
8
73
4
40
0
40
0
40
0
40
0
40
1
40
1
40
1
40
1
41
1
10
40.0020632783335
20
-2.64313692420683
30
0
41
1
10
40.1557170615639
20
-2.64405685971897
30
0
41
1
10
40.3092684727172
20
-2.64480941196072
30
0
41
1
10
40.4626436688456
20
-2.64539131077805
30
0
0
SPLINE
5
112
100
AcDbEntity
8
1
62
256
6
ByLayer
370
18
48
1
60
0
100
AcDbSpline
70
4
71
1
72
4
73
2
40
0
40
0
40
1
40
1
41
1
10
59.5027641082214
20
0.0002207756758423
30
0
41
1
10
59.5027799690351
20
0.0002262604318162
30
0
0
LINE
5
84
100
AcDbEntity
8
1
62
256
6
ByLayer
370
18
48
1
60
0
100
AcDbLine
10
40.002063
20
2.783137
30
0
11
40.002063
21
1.632338
31
0
39
0
210
0
220
0
230
1
0
LINE
5
85
100
AcDbEntity
8
1
62
256
6
ByLayer
370
18
48
1
60
0
100
AcDbLine
10
0.845504
20
2.758664
30
0
11
0.845504
21
0
31
0
39
0
210
0
220
0
230
1
0
LINE
5
86
100
AcDbEntity
8
1
62
256
6
ByLayer
370
18
48
1
60
0
100
AcDbLine
10
0.845504
20
0
30
0
11
0.845504
21
-2.758664
31
0
39
0
210
0
220
0
230
1
0
LINE
5
87
100
AcDbEntity
8
1
62
256
6
ByLayer
370
18
48
1
60
0
100
AcDbLine
10
0.422502
20
2.879332
30
0
11
0.422502
21
0
31
0
39
0
210
0
220
0
230
1
0
LINE
5
88
100
AcDbEntity
8
1
62
256
6
ByLayer
370
18
48
1
60
0
100
AcDbLine
10
0.422502
20
0
30
0
11
0.422502
21
-2.879332
31
0
39
0
210
0
220
0
230
1
0
LINE
5
89
100
AcDbEntity
8
1
62
256
6
ByLayer
370
18
48
1
60
0
100
AcDbLine
10
1
20
0
30
0
11
1
21
2.758761
31
0
39
0
210
0
220
0
230
1
0
LINE
5
8A
100
AcDbEntity
8
1
62
256
6
ByLayer
370
18
48
1
60
0
100
AcDbLine
10
1
20
-2.758761
30
0
11
1
21
0
31
0
39
0
210
0
220
0
230
1
0
LINE
5
8B
100
AcDbEntity
8
1
62
256
6
ByLayer
370
18
48
1
60
0
100
AcDbLine
10
0
20
3
30
0
11
0
21
0
31
0
39
0
210
0
220
0
230
1
0
LINE
5
8C
100
AcDbEntity
8
1
62
256
6
ByLayer
370
18
48
1
60
0
100
AcDbLine
10
0
20
0
30
0
11
0
21
-3
31
0
39
0
210
0
220
0
230
1
0
LINE
5
8D
100
AcDbEntity
8
1
62
256
6
ByLayer
370
18
48
1
60
0
100
AcDbLine
10
40
20
1.246968
30
0
11
40
21
1.210222
31
0
39
0
210
0
220
0
230
1
0
LINE
5
8E
100
AcDbEntity
8
1
62
256
6
ByLayer
370
18
48
1
60
0
100
AcDbLine
10
67.949685
20
0.043462
30
0
11
67.304592
21
0.755533
31
0
39
0
210
0
220
0
230
1
0
LINE
5
8F
100
AcDbEntity
8
1
62
256
6
ByLayer
370
18
48
1
60
0
100
AcDbLine
10
40.002063
20
-2.645678
30
0
11
40.002063
21
-2.783137
31
0
39
0
210
0
220
0
230
1
0
LINE
5
90
100
AcDbEntity
8
SK1
62
256
6
ByLayer
370
18
48
1
60
0
100
AcDbLine
10
-35.065
20
-3
30
0
11
-35.065
21
3
31
0
39
0
210
0
220
0
230
1
0
LINE
5
92
100
AcDbEntity
8
SK1
62
256
6
ByLayer
370
18
48
1
60
0
100
AcDbLine
10
0
20
3
30
0
11
0
21
-3
31
0
39
0
210
0
220
0
230
1
0
LINE
5
93
100
AcDbEntity
8
SK1
62
256
6
ByLayer
370
18
48
1
60
0
100
AcDbLine
10
-35.850962
20
0.07319
30
0
11
-35.850962
21
1.354152
31
0
39
0
210
0
220
0
230
1
0
LINE
5
94
100
AcDbEntity
8
SK1
62
256
6
ByLayer
370
18
48
1
60
0
100
AcDbLine
10
-36
20
-2.065
30
0
11
-36
21
-0.354791
31
0
39
0
210
0
220
0
230
1
0
LINE
5
95
100
AcDbEntity
8
SK1
62
256
6
ByLayer
370
18
48
1
60
0
100
AcDbLine
10
-36
20
0.354791
30
0
11
-36
21
1.478046
31
0
39
0
210
0
220
0
230
1
0
LINE
5
96
100
AcDbEntity
8
SK1
62
256
6
ByLayer
370
18
48
1
60
0
100
AcDbLine
10
-35.65
20
0.0966
30
0
11
-35.65
21
1.333629
31
0
39
0
210
0
220
0
230
1
0
LINE
5
97
100
AcDbEntity
8
SK1
62
256
6
ByLayer
370
18
48
1
60
0
100
AcDbLine
10
-35.75
20
0.04029
30
0
11
-35.75
21
1.387051
31
0
39
0
210
0
220
0
230
1
0
LINE
5
98
100
AcDbEntity
8
SK1
62
256
6
ByLayer
370
18
48
1
60
0
100
AcDbLine
10
-36
20
1.478046
30
0
11
-36
21
2.065
31
0
39
0
210
0
220
0
230
1
0
LINE
5
99
100
AcDbEntity
8
1
62
256
6
ByLayer
370
18
48
1
60
0
100
AcDbLine
10
0.845504
20
-2.758664
30
0
11
1
21
-2.758761
31
0
39
0
210
0
220
0
230
1
0
LINE
5
9A
100
AcDbEntity
8
1
62
256
6
ByLayer
370
18
48
1
60
0
100
AcDbLine
10
1
20
2.758761
30
0
11
0.845504
21
2.758664
31
0
39
0
210
0
220
0
230
1
0
LINE
5
9B
100
AcDbEntity
8
SK1
62
256
6
ByLayer
370
18
48
1
60
0
100
AcDbLine
10
-36
20
-2.065
30
0
11
-35.065
21
-3
31
0
39
0
210
0
220
0
230
1
0
LINE
5
9C
100
AcDbEntity
8
SK1
62
256
6
ByLayer
370
18
48
1
60
0
100
AcDbLine
10
-35.065
20
3
30
0
11
-36
21
2.065
31
0
39
0
210
0
220
0
230
1
0
LINE
5
9D
100
AcDbEntity
8
SK1
62
256
6
ByLayer
370
18
48
1
60
0
100
AcDbLine
10
-35.065
20
-3
30
0
11
0
21
-3
31
0
39
0
210
0
220
0
230
1
0
LINE
5
9E
100
AcDbEntity
8
SK1
62
256
6
ByLayer
370
18
48
1
60
0
100
AcDbLine
10
0
20
3
30
0
11
-35.065
21
3
31
0
39
0
210
0
220
0
230
1
0
LINE
5
9F
100
AcDbEntity
8
1
62
256
6
ByLayer
370
18
48
1
60
0
100
AcDbLine
10
1
20
-2.758761
30
0
11
10.049106
21
-2.764416
31
0
39
0
210
0
220
0
230
1
0
LINE
5
A0
100
AcDbEntity
8
1
62
256
6
ByLayer
370
18
48
1
60
0
100
AcDbLine
10
17.823779
20
-2.769276
30
0
11
26.380755
21
-2.774624
31
0
39
0
210
0
220
0
230
1
0
LINE
5
A1
100
AcDbEntity
8
1
62
256
6
ByLayer
370
18
48
1
60
0
100
AcDbLine
10
34.170318
20
-2.779492
30
0
11
40.002063
21
-2.783137
31
0
39
0
210
0
220
0
230
1
0
LINE
5
A2
100
AcDbEntity
8
1
62
256
6
ByLayer
370
18
48
1
60
0
100
AcDbLine
10
41.956841
20
-2.784359
30
0
11
42.717732
21
-2.784834
31
0
39
0
210
0
220
0
230
1
0
LINE
5
A3
100
AcDbEntity
8
1
62
256
6
ByLayer
370
18
48
1
60
0
100
AcDbLine
10
50.594542
20
-2.789757
30
0
11
51.32761
21
-2.790215
31
0
39
0
210
0
220
0
230
1
0
LINE
5
A4
100
AcDbEntity
8
1
62
256
6
ByLayer
370
18
48
1
60
0
100
AcDbLine
10
58.3107
20
-2.79458
30
0
11
59.049524
21
-2.795042
31
0
39
0
210
0
220
0
230
1
0
LINE
5
A5
100
AcDbEntity
8
1
62
256
6
ByLayer
370
18
48
1
60
0
100
AcDbLine
10
59.049524
20
2.795042
30
0
11
58.3107
21
2.79458
31
0
39
0
210
0
220
0
230
1
0
LINE
5
A6
100
AcDbEntity
8
1
62
256
6
ByLayer
370
18
48
1
60
0
100
AcDbLine
10
51.32761
20
2.790215
30
0
11
50.594542
21
2.789757
31
0
39
0
210
0
220
0
230
1
0
LINE
5
A7
100
AcDbEntity
8
1
62
256
6
ByLayer
370
18
48
1
60
0
100
AcDbLine
10
42.717732
20
2.784834
30
0
11
41.956841
21
2.784359
31
0
39
0
210
0
220
0
230
1
0
LINE
5
A8
100
AcDbEntity
8
1
62
256
6
ByLayer
370
18
48
1
60
0
100
AcDbLine
10
40.002063
20
2.783137
30
0
11
34.170318
21
2.779492
31
0
39
0
210
0
220
0
230
1
0
LINE
5
A9
100
AcDbEntity
8
1
62
256
6
ByLayer
370
18
48
1
60
0
100
AcDbLine
10
26.380755
20
2.774624
30
0
11
17.823779
21
2.769276
31
0
39
0
210
0
220
0
230
1
0
LINE
5
AA
100
AcDbEntity
8
1
62
256
6
ByLayer
370
18
48
1
60
0
100
AcDbLine
10
10.049106
20
2.764416
30
0
11
1
21
2.758761
31
0
39
0
210
0
220
0
230
1
0
LINE
5
AB
100
AcDbEntity
8
SK4
62
256
6
ByLayer
370
18
48
0.05
60
0
100
AcDbLine
10
73
20
0
30
0
11
-41
21
0
31
0
39
0
210
0
220
0
230
1
0
LINE
5
AD
100
AcDbEntity
8
4
62
256
6
ByLayer
370
18
48
0.05
60
0
100
AcDbLine
10
-36
20
0
30
0
11
73
21
0
31
0
39
0
210
0
220
0
230
1
0
LINE
5
AF
100
AcDbEntity
8
80
62
256
6
ByLayer
370
18
48
1
60
0
100
AcDbLine
10
0
20
0
30
0
11
-6
21
0
31
0
39
0
210
0
220
0
230
1
0
LINE
5
B0
100
AcDbEntity
8
81
62
256
6
ByLayer
370
18
48
1
60
0
100
AcDbLine
10
68
20
0
30
0
11
74
21
0
31
0
39
0
210
0
220
0
230
1
0
LINE
5
B1
100
AcDbEntity
8
SK2
62
256
6
ByLayer
370
13
48
1
60
0
100
AcDbLine
10
68.542949
20
1.491765
30
0
11
75.926202
21
21.777418
31
0
39
0
210
0
220
0
230
1
0
LINE
5
B3
100
AcDbEntity
8
SK2
62
256
6
ByLayer
370
13
48
1
60
0
100
AcDbLine
10
68.542949
20
-1.491765
30
0
11
75.926202
21
-21.777418
31
0
39
0
210
0
220
0
230
1
0
LINE
5
B4
100
AcDbEntity
8
1
62
256
6
ByLayer
370
13
48
1
60
0
100
AcDbLine
10
74.840304
20
18.793888
30
0
11
77.936899
21
17.977533
31
0
39
0
210
0
220
0
230
1
0
LINE
5
B5
100
AcDbEntity
8
1
62
256
6
ByLayer
370
13
48
1
60
0
100
AcDbLine
10
74.840304
20
18.793888
30
0
11
77.620099
21
17.20389
31
0
39
0
210
0
220
0
230
1
0
LINE
5
B6
100
AcDbEntity
8
1
62
256
6
ByLayer
370
13
48
1
60
0
100
AcDbLine
10
77.936899
20
17.977533
30
0
11
77.620099
21
17.20389
31
0
39
0
210
0
220
0
230
1
0
LINE
5
B7
100
AcDbEntity
8
1
62
256
6
ByLayer
370
13
48
1
60
0
100
AcDbLine
10
74.840304
20
-18.793888
30
0
11
77.620097
21
-17.203891
31
0
39
0
210
0
220
0
230
1
0
LINE
5
B8
100
AcDbEntity
8
1
62
256
6
ByLayer
370
13
48
1
60
0
100
AcDbLine
10
74.840304
20
-18.793888
30
0
11
77.936902
21
-17.977531
31
0
39
0
210
0
220
0
230
1
0
LINE
5
B9
100
AcDbEntity
8
1
62
256
6
ByLayer
370
13
48
1
60
0
100
AcDbLine
10
77.620097
20
-17.203891
30
0
11
77.936902
21
-17.977531
31
0
39
0
210
0
220
0
230
1
0
MTEXT
5
113
100
AcDbEntity
8
SK2
62
256
6
ByLayer
370
18
48
1
60
0
100
AcDbMText
10
81.717388
20
-2.467451
30
0
210
0
220
0
230
1
1
\W0.7237;140.00
40
3.50012
41
0
44
1.084337
50
0
71
7
72
5
7
iso_b_vert
0
MTEXT
5
116
100
AcDbEntity
8
SK6
62
256
6
ByLayer
370
18
48
1
60
0
100
AcDbMText
10
-23.331725
20
-57.658182
30
0
210
0
220
0
230
1
1
\W0.7494;860.1-0560-045A1-GM X1BM
40
3.175
41
0
44
1.084337
50
0
71
7
72
5
7
iso_b_vert
0
DIMENSION
5
119
100
AcDbEntity
8
SK2
62
256
6
ByLayer
370
18
48
1
60
0
100
AcDbDimension
2
_U0
10
68
20
-26.50012
30
0
11
34
21
-26.50012
31
0
70
32
71
2
72
1
41
1
210
0
220
0
230
1
3
Standard
100
AcDbAlignedDimension
13
0
23
-3
33
0
14
68
24
0
34
0
50
0
100
AcDbRotatedDimension
1001
ACAD
1000
DSTYLE
1002
{
1070
   371
1070
    13
1070
   372
1070
    13
1070
     3
1000

1070
   170
1070
     0
1070
   144
1040
1.0
1070
   277
1070
     2
1070
   284
1070
     8
1070
   278
1070
    46
1070
   146
1040
0.999966
1070
   345
1005
16
1070
   347
1005
16
1070
   346
1005
16
1070
   344
1005
11A
1070
   343
1005
11A
1070
   172
1070
     1
1070
    76
1070
     0
1070
    75
1070
     0
1070
   282
1070
     0
1070
   281
1070
     0
1070
    71
1070
     0
1070
    74
1070
     0
1070
   279
1070
     0
1070
   173
1070
     1
1070
   340
1005
114
1070
   271
1070
     1
1070
   272
1070
     2
1070
    77
1070
     1
1070
    73
1070
     1
1070
   171
1070
     3
1070
   274
1070
     4
1070
   177
1070
   150
1070
   176
1070
     9
1070
   178
1070
    43
1070
    78
1070
     8
1070
    48
1040
-0.1
1070
    41
1040
3.175
1070
   147
1040
1.75006
1070
    42
1040
1.5875
1070
    44
1040
3.175
1070
   140
1040
3.50012
1002
}
1001
ACAD_DSTYLE_DIM_LINETYPE
1070
   380
1005
16
1001
ACAD_DSTYLE_DIM_EXT1_LINETYPE
1070
   381
1005
16
1001
ACAD_DSTYLE_DIM_EXT2_LINETYPE
1070
   382
1005
16
0
DIMENSION
5
13F
100
AcDbEntity
8
2
62
256
6
ByLayer
370
18
48
1
60
0
100
AcDbDimension
2
_U1
10
74.75006
20
2.8
30
0
11
74.75006
21
18.373233
31
0
70
32
71
1
72
1
41
1
210
0
220
0
230
1
3
Standard
100
AcDbAlignedDimension
13
66.9809
23
-2.8
33
0
14
66.9809
24
2.8
34
0
50
90
100
AcDbRotatedDimension
1001
ACAD
1000
DSTYLE
1002
{
1070
   371
1070
    13
1070
   372
1070
    13
1070
     3
1000

1070
   170
1070
     0
1070
   144
1040
1.0
1070
   277
1070
     2
1070
   284
1070
     8
1070
   278
1070
    46
1070
   146
1040
0.999966
1070
   345
1005
16
1070
   347
1005
16
1070
   346
1005
16
1070
   344
1005
11A
1070
   343
1005
11A
1070
   172
1070
     1
1070
    76
1070
     0
1070
    75
1070
     0
1070
   282
1070
     0
1070
   281
1070
     0
1070
    71
1070
     0
1070
    74
1070
     0
1070
   279
1070
     0
1070
   173
1070
     1
1070
   340
1005
114
1070
   271
1070
     1
1070
   272
1070
     2
1070
    77
1070
     1
1070
    73
1070
     0
1070
   171
1070
     3
1070
   274
1070
     4
1070
   177
1070
   150
1070
   176
1070
     9
1070
   178
1070
    43
1070
    78
1070
     8
1070
    48
1040
-0.1
1070
    41
1040
3.175
1070
   147
1040
1.75006
1070
    42
1040
1.5875
1070
    44
1040
3.175
1070
   140
1040
3.50012
1002
}
1001
ACAD_DSTYLE_DIM_LINETYPE
1070
   380
1005
16
1001
ACAD_DSTYLE_DIM_EXT1_LINETYPE
1070
   381
1005
16
1001
ACAD_DSTYLE_DIM_EXT2_LINETYPE
1070
   382
1005
16
0
DIMENSION
5
15E
100
AcDbEntity
8
SK2
62
256
6
ByLayer
370
18
48
1
60
0
100
AcDbDimension
2
_U2
10
-39.24994
20
-3
30
0
11
-39.24994
21
17.10734
31
0
70
32
71
1
72
1
41
1
210
0
220
0
230
1
3
Standard
100
AcDbAlignedDimension
13
-36
23
3
33
0
14
-36
24
-3
34
0
50
90
100
AcDbRotatedDimension
1001
ACAD
1000
DSTYLE
1002
{
1070
   371
1070
    13
1070
   372
1070
    13
1070
     3
1000

1070
   170
1070
     0
1070
   144
1040
1.0
1070
   277
1070
     2
1070
   284
1070
     8
1070
   278
1070
    46
1070
   146
1040
0.999966
1070
   345
1005
16
1070
   347
1005
16
1070
   346
1005
16
1070
   344
1005
11A
1070
   343
1005
11A
1070
   172
1070
     1
1070
    76
1070
     0
1070
    75
1070
     0
1070
   282
1070
     0
1070
   281
1070
     0
1070
    71
1070
     0
1070
    74
1070
     0
1070
   279
1070
     0
1070
   173
1070
     1
1070
   340
1005
114
1070
   271
1070
     1
1070
   272
1070
     2
1070
    77
1070
     1
1070
    73
1070
     0
1070
   171
1070
     3
1070
   274
1070
     4
1070
   177
1070
   150
1070
   176
1070
     9
1070
   178
1070
    43
1070
    78
1070
     8
1070
    48
1040
-0.1
1070
    41
1040
3.175
1070
   147
1040
1.75006
1070
    42
1040
1.5875
1070
    44
1040
3.175
1070
   140
1040
3.50012
1002
}
1001
ACAD_DSTYLE_DIM_LINETYPE
1070
   380
1005
16
1001
ACAD_DSTYLE_DIM_EXT1_LINETYPE
1070
   381
1005
16
1001
ACAD_DSTYLE_DIM_EXT2_LINETYPE
1070
   382
1005
16
0
DIMENSION
5
17C
100
AcDbEntity
8
SK2
62
256
6
ByLayer
370
18
48
1
60
0
100
AcDbDimension
2
_U3
10
0
20
-26.50012
30
0
11
-18
21
-26.50012
31
0
70
32
71
1
72
1
41
1
210
0
220
0
230
1
3
Standard
100
AcDbAlignedDimension
13
-36
23
-3
33
0
14
0
24
-3
34
0
50
0
100
AcDbRotatedDimension
1001
ACAD
1000
DSTYLE
1002
{
1070
   371
1070
    13
1070
   372
1070
    13
1070
     3
1000

1070
   170
1070
     0
1070
   144
1040
1.0
1070
   277
1070
     2
1070
   284
1070
     8
1070
   278
1070
    46
1070
   146
1040
0.999966
1070
   345
1005
16
1070
   347
1005
16
1070
   346
1005
16
1070
   344
1005
11A
1070
   343
1005
11A
1070
   172
1070
     1
1070
    76
1070
     0
1070
    75
1070
     0
1070
   282
1070
     0
1070
   281
1070
     0
1070
    71
1070
     0
1070
    74
1070
     0
1070
   279
1070
     0
1070
   173
1070
     1
1070
   340
1005
114
1070
   271
1070
     1
1070
   272
1070
     2
1070
    77
1070
     1
1070
    73
1070
     1
1070
   171
1070
     3
1070
   274
1070
     4
1070
   177
1070
   150
1070
   176
1070
     9
1070
   178
1070
    43
1070
    78
1070
     8
1070
    48
1040
-0.1
1070
    41
1040
3.175
1070
   147
1040
1.75006
1070
    42
1040
1.5875
1070
    44
1040
3.175
1070
   140
1040
3.50012
1002
}
1001
ACAD_DSTYLE_DIM_LINETYPE
1070
   380
1005
16
1001
ACAD_DSTYLE_DIM_EXT1_LINETYPE
1070
   381
1005
16
1001
ACAD_DSTYLE_DIM_EXT2_LINETYPE
1070
   382
1005
16
0
DIMENSION
5
198
100
AcDbEntity
8
SK2
62
256
6
ByLayer
370
18
48
1
60
0
100
AcDbDimension
2
_U4
10
68
20
-17.74982
30
0
11
37
21
-17.74982
31
0
70
32
71
1
72
1
41
1
210
0
220
0
230
1
3
Standard
100
AcDbAlignedDimension
13
6
23
3.3
33
0
14
68
24
0
34
0
50
0
100
AcDbRotatedDimension
1001
ACAD
1000
DSTYLE
1002
{
1070
   371
1070
    13
1070
   372
1070
    13
1070
     3
1000

1070
   170
1070
     0
1070
   144
1040
1.0
1070
   277
1070
     2
1070
   284
1070
     8
1070
   278
1070
    46
1070
   146
1040
0.999966
1070
   345
1005
16
1070
   347
1005
16
1070
   346
1005
16
1070
   344
1005
11A
1070
   343
1005
11A
1070
   172
1070
     1
1070
    76
1070
     0
1070
    75
1070
     0
1070
   282
1070
     0
1070
   281
1070
     0
1070
    71
1070
     0
1070
    74
1070
     0
1070
   279
1070
     0
1070
   173
1070
     1
1070
   340
1005
114
1070
   271
1070
     1
1070
   272
1070
     2
1070
    77
1070
     1
1070
    73
1070
     1
1070
   171
1070
     3
1070
   274
1070
     4
1070
   177
1070
   150
1070
   176
1070
     9
1070
   178
1070
    43
1070
    78
1070
     8
1070
    48
1040
-0.1
1070
    41
1040
3.175
1070
   147
1040
1.75006
1070
    42
1040
1.5875
1070
    44
1040
3.175
1070
   140
1040
3.50012
1002
}
1001
ACAD_DSTYLE_DIM_LINETYPE
1070
   380
1005
16
1001
ACAD_DSTYLE_DIM_EXT1_LINETYPE
1070
   381
1005
16
1001
ACAD_DSTYLE_DIM_EXT2_LINETYPE
1070
   382
1005
16
0
DIMENSION
5
1B4
100
AcDbEntity
8
SK2
62
256
6
ByLayer
370
18
48
1
60
0
100
AcDbDimension
2
_U5
10
68
20
-9.82
30
0
11
45.1
21
-9.82
31
0
70
32
71
1
72
1
41
1
210
0
220
0
230
1
3
Standard
100
AcDbAlignedDimension
13
22.2
23
-2.8
33
0
14
68
24
0
34
0
50
0
100
AcDbRotatedDimension
1001
ACAD
1000
DSTYLE
1002
{
1070
   371
1070
    13
1070
   372
1070
    13
1070
     3
1000

1070
   170
1070
     0
1070
   144
1040
1.0
1070
   277
1070
     2
1070
   284
1070
     8
1070
   278
1070
    46
1070
   146
1040
1.25
1070
   345
1005
16
1070
   347
1005
16
1070
   346
1005
16
1070
   344
1005
11A
1070
   343
1005
11A
1070
   172
1070
     1
1070
    76
1070
     0
1070
    75
1070
     0
1070
   282
1070
     0
1070
   281
1070
     0
1070
    71
1070
     0
1070
    74
1070
     0
1070
   279
1070
     0
1070
   173
1070
     1
1070
   340
1005
114
1070
   271
1070
     1
1070
   272
1070
     2
1070
    77
1070
     1
1070
    73
1070
     1
1070
   171
1070
     3
1070
   274
1070
     4
1070
   177
1070
   150
1070
   176
1070
     9
1070
   178
1070
    43
1070
    78
1070
     8
1070
    48
1040
-0.1
1070
    41
1040
3.175
1070
   147
1040
0.42
1070
    42
1040
1.5875
1070
    44
1040
0.5
1070
   140
1040
2.8
1002
}
1001
ACAD_DSTYLE_DIM_LINETYPE
1070
   380
1005
16
1001
ACAD_DSTYLE_DIM_EXT1_LINETYPE
1070
   381
1005
16
1001
ACAD_DSTYLE_DIM_EXT2_LINETYPE
1070
   382
1005
16
0
DIMENSION
5
1D0
100
AcDbEntity
8
SK2
62
256
6
ByLayer
370
18
48
1
60
0
100
AcDbDimension
2
_U6
10
68
20
-36.50012
30
0
11
16
21
-36.50012
31
0
70
32
71
1
72
1
41
1
210
0
220
0
230
1
3
Standard
100
AcDbAlignedDimension
13
-36
23
0
33
0
14
68
24
0
34
0
50
0
100
AcDbRotatedDimension
1001
ACAD
1000
DSTYLE
1002
{
1070
   371
1070
    13
1070
   372
1070
    13
1070
     3
1000

1070
   170
1070
     0
1070
   144
1040
1.0
1070
   277
1070
     2
1070
   284
1070
     8
1070
   278
1070
    46
1070
   146
1040
0.999966
1070
   345
1005
16
1070
   347
1005
16
1070
   346
1005
16
1070
   344
1005
11A
1070
   343
1005
11A
1070
   172
1070
     1
1070
    76
1070
     0
1070
    75
1070
     0
1070
   282
1070
     0
1070
   281
1070
     0
1070
    71
1070
     0
1070
    74
1070
     0
1070
   279
1070
     0
1070
   173
1070
     1
1070
   340
1005
114
1070
   271
1070
     1
1070
   272
1070
     2
1070
    77
1070
     1
1070
    73
1070
     1
1070
   171
1070
     3
1070
   274
1070
     4
1070
   177
1070
   150
1070
   176
1070
     9
1070
   178
1070
    43
1070
    78
1070
     8
1070
    48
1040
-0.1
1070
    41
1040
3.175
1070
   147
1040
1.75006
1070
    42
1040
1.5875
1070
    44
1040
3.175
1070
   140
1040
3.50012
1002
}
1001
ACAD_DSTYLE_DIM_LINETYPE
1070
   380
1005
16
1001
ACAD_DSTYLE_DIM_EXT1_LINETYPE
1070
   381
1005
16
1001
ACAD_DSTYLE_DIM_EXT2_LINETYPE
1070
   382
1005
16
0
ENDSEC
0
SECTION
2
OBJECTS
0
DICTIONARY
5
25c
330
0
100
AcDbDictionary
280
0
281
1
3
ACAD_GROUP
350
25d
3
ACAD_MLINESTYLE
350
25e
0
DICTIONARY
5
25d
330
0
100
AcDbDictionary
280
0
281
1
0
DICTIONARY
5
25e
330
0
100
AcDbDictionary
280
0
281
1
3
Standard
350
18
0
MLINESTYLE
5
18
330
25e
100
AcDbMlineStyle
2
Standard
70
0
3

62
256
51
90
52
90
71
2
49
-0.5
62
256
6
ByLayer
49
0.5
62
256
6
ByLayer
0
RASTERVARIABLES
5
24a
330

100
AcDbRasterVariables
90
0
70
1
71
1
72
1
0
ENDSEC
0
EOF
