0
SECTION
2
HEADER
9
$ACADVER
1
AC1015
9
$DWGCODEPAGE
3
ANSI_1252
9
$HANDSEED
5
26e
9
$ANGBASE
50
0
9
$ANGDIR
70
0
9
$ATTMODE
70
1
9
$AUNITS
70
0
9
$AUPREC
70
0
9
$CECOLOR
62
256
9
$CELTSCALE
40
1
9
$CELTYPE
6
ByLayer
9
$CELWEIGHT
370
18
9
$CLAYER
8
0
9
$CMLJUST
70
0
9
$CMLSCALE
40
1
9
$CMLSTYLE
2
Standard
9
$DIMSTYLE
2
Standard
9
$TEXTSIZE
40
0.2
9
$TEXTSTYLE
7
Standard
9
$LUNITS
70
2
9
$LUPREC
70
4
9
$EXTNAMES
290
1
9
$INSUNITS
70
4
9
$LTSCALE
40
1
9
$LWDISPLAY
290
1
9
$PDMODE
70
0
9
$PDSIZE
40
0
9
$PLINEGEN
70
0
0
ENDSEC
0
SECTION
2
CLASSES
0
CLASS
1
RASTERVARIABLES
2
AcDbRasterVariables
3
ISM
90
0
280
0
281
0
0
ENDSEC
0
SECTION
2
TABLES
0
TABLE
2
VPORT
5
264
100
AcDbSymbolTable
0
VPORT
5
1
100
AcDbSymbolTableRecord
100
AcDbViewportTableRecord
2
*Active
70
0
10
0
20
0
11
1
21
1
12
-1
22
1
13
0
23
0
14
0.5
24
0.5
15
10
25
10
16
0
26
0
36
1
17
0
27
0
37
0
0
ENDTAB
0
TABLE
2
LTYPE
5
265
100
AcDbSymbolTable
0
LTYPE
5
14
100
AcDbSymbolTableRecord
100
AcDbLinetypeTableRecord
70
0
2
ByBlock
3

72
65
73
0
40
0
0
LTYPE
5
15
100
AcDbSymbolTableRecord
100
AcDbLinetypeTableRecord
70
0
2
ByLayer
3

72
65
73
0
40
0
0
LTYPE
5
16
100
AcDbSymbolTableRecord
100
AcDbLinetypeTableRecord
70
0
2
Continuous
3
Solid line
72
65
73
0
40
0
0
LTYPE
5
6E
100
AcDbSymbolTableRecord
100
AcDbLinetypeTableRecord
70
0
2
CENTER
3
____ _ ____ _ ____ _ ____
72
65
73
4
40
47.5
49
22
74
0
49
-8.5
74
0
49
8.5
74
0
49
-8.5
74
0
0
LTYPE
5
6F
100
AcDbSymbolTableRecord
100
AcDbLinetypeTableRecord
70
0
2
DASHED
3
__ __ __ __ __ __ __ __ __
72
65
73
2
40
25.72
49
12.86
74
0
49
-12.86
74
0
0
ENDTAB
0
TABLE
2
LAYER
5
266
100
AcDbSymbolTable
0
LAYER
5
10
100
AcDbSymbolTableRecord
100
AcDbLayerTableRecord
2
0
70
0
62
7
6
Continuous
290
1
370
-3
390
0
0
LAYER
5
71
100
AcDbSymbolTableRecord
100
AcDbLayerTableRecord
2
80
70
0
62
-6
6
Continuous
290
1
370
-3
390
0
0
LAYER
5
73
100
AcDbSymbolTableRecord
100
AcDbLayerTableRecord
2
81
70
0
62
-3
6
Continuous
290
1
370
-3
390
0
0
LAYER
5
75
100
AcDbSymbolTableRecord
100
AcDbLayerTableRecord
2
1
70
0
62
4
6
Continuous
290
1
370
-3
390
0
0
LAYER
5
AB
100
AcDbSymbolTableRecord
100
AcDbLayerTableRecord
2
4
70
0
62
-2
6
CENTER
290
1
370
-3
390
0
0
LAYER
5
128
100
AcDbSymbolTableRecord
100
AcDbLayerTableRecord
2
Defpoints
70
0
62
7
6
Continuous
290
0
370
-3
390
0
0
LAYER
5
155
100
AcDbSymbolTableRecord
100
AcDbLayerTableRecord
2
2
70
0
62
7
6
Continuous
290
1
370
-3
390
0
0
LAYER
5
250
100
AcDbSymbolTableRecord
100
AcDbLayerTableRecord
2
SK1
70
0
62
4
6
Continuous
290
1
370
-3
390
0
0
LAYER
5
251
100
AcDbSymbolTableRecord
100
AcDbLayerTableRecord
2
SK4
70
0
62
2
6
CENTER
290
1
370
-3
390
0
0
LAYER
5
252
100
AcDbSymbolTableRecord
100
AcDbLayerTableRecord
2
SK2
70
0
62
7
6
Continuous
290
1
370
-3
390
0
0
LAYER
5
253
100
AcDbSymbolTableRecord
100
AcDbLayerTableRecord
2
SK6
70
0
62
5
6
Continuous
290
1
370
-3
390
0
0
ENDTAB
0
TABLE
2
STYLE
5
267
100
AcDbSymbolTable
0
STYLE
5
11
100
AcDbSymbolTableRecord
100
AcDbTextStyleTableRecord
2
Standard
3
txt
70
0
71
0
40
0
41
1
42
0
50
0
0
STYLE
5
119
100
AcDbSymbolTableRecord
100
AcDbTextStyleTableRecord
2
iso_b_vert
3
simplex.shx
70
0
71
0
40
0
41
1
42
0
50
0
0
STYLE
5
11A
100
AcDbSymbolTableRecord
100
AcDbTextStyleTableRecord
2
DWGDirectTextStyle
3
simplex
70
0
71
0
40
0
41
1
42
0
50
0
0
ENDTAB
0
TABLE
2
DIMSTYLE
5
268
100
AcDbSymbolTable
100
AcDbDimStyleTable
0
DIMSTYLE
105
27
100
AcDbSymbolTableRecord
100
AcDbDimStyleTableRecord
2
Standard
70
0
3
<>
41
0.18
42
0.0625
44
0.18
140
0.18
147
0.09
73
0
74
0
77
1
271
2
275
0
278
52
280
0
340
11
0
ENDTAB
0
TABLE
2
VIEW
5
269
100
AcDbSymbolTable
0
ENDTAB
0
TABLE
2
UCS
5
26a
100
AcDbSymbolTable
0
ENDTAB
0
TABLE
2
APPID
5
26b
100
AcDbSymbolTable
0
APPID
5
12
100
AcDbSymbolTableRecord
100
AcDbRegAppTableRecord
2
ACAD
70
0
0
APPID
5
11D
100
AcDbSymbolTableRecord
100
AcDbRegAppTableRecord
2
ACAD_DSTYLE_DIMBREAK
70
0
0
APPID
5
20F
100
AcDbSymbolTableRecord
100
AcDbRegAppTableRecord
2
ACAD_DSTYLE_DIM_LINETYPE
70
0
0
APPID
5
210
100
AcDbSymbolTableRecord
100
AcDbRegAppTableRecord
2
ACAD_DSTYLE_DIM_EXT1_LINETYPE
70
0
0
APPID
5
211
100
AcDbSymbolTableRecord
100
AcDbRegAppTableRecord
2
ACAD_DSTYLE_DIM_EXT2_LINETYPE
70
0
0
APPID
5
24C
100
AcDbSymbolTableRecord
100
AcDbRegAppTableRecord
2
ACAD_MLEADERVER
70
0
0
ENDTAB
0
TABLE
2
BLOCK_RECORD
5
26c
100
AcDbSymbolTable
0
BLOCK_RECORD
5
1F
100
AcDbSymbolTableRecord
100
AcDbBlockTableRecord
2
*Model_Space
340
0
70
0
0
BLOCK_RECORD
5
1B
100
AcDbSymbolTableRecord
100
AcDbBlockTableRecord
2
*Paper_Space
340
0
70
0
0
BLOCK_RECORD
5
23
100
AcDbSymbolTableRecord
100
AcDbBlockTableRecord
2
*Paper_Space0
340
0
70
0
0
BLOCK_RECORD
5
11F
100
AcDbSymbolTableRecord
100
AcDbBlockTableRecord
2
_Closed
340
0
70
0
0
BLOCK_RECORD
5
129
100
AcDbSymbolTableRecord
100
AcDbBlockTableRecord
2
*D2
340
0
70
0
0
BLOCK_RECORD
5
135
100
AcDbSymbolTableRecord
100
AcDbBlockTableRecord
2
_U0
340
0
70
0
0
BLOCK_RECORD
5
147
100
AcDbSymbolTableRecord
100
AcDbBlockTableRecord
2
*D4
340
0
70
0
0
BLOCK_RECORD
5
156
100
AcDbSymbolTableRecord
100
AcDbBlockTableRecord
2
_U1
340
0
70
0
0
BLOCK_RECORD
5
166
100
AcDbSymbolTableRecord
100
AcDbBlockTableRecord
2
*D6
340
0
70
0
0
BLOCK_RECORD
5
174
100
AcDbSymbolTableRecord
100
AcDbBlockTableRecord
2
_U2
340
0
70
0
0
BLOCK_RECORD
5
184
100
AcDbSymbolTableRecord
100
AcDbBlockTableRecord
2
*D8
340
0
70
0
0
BLOCK_RECORD
5
190
100
AcDbSymbolTableRecord
100
AcDbBlockTableRecord
2
_U3
340
0
70
0
0
BLOCK_RECORD
5
1A0
100
AcDbSymbolTableRecord
100
AcDbBlockTableRecord
2
*D10
340
0
70
0
0
BLOCK_RECORD
5
1AC
100
AcDbSymbolTableRecord
100
AcDbBlockTableRecord
2
_U4
340
0
70
0
0
BLOCK_RECORD
5
1BC
100
AcDbSymbolTableRecord
100
AcDbBlockTableRecord
2
*D12
340
0
70
0
0
BLOCK_RECORD
5
1C8
100
AcDbSymbolTableRecord
100
AcDbBlockTableRecord
2
_U5
340
0
70
0
0
BLOCK_RECORD
5
1D8
100
AcDbSymbolTableRecord
100
AcDbBlockTableRecord
2
*D14
340
0
70
0
0
BLOCK_RECORD
5
1E4
100
AcDbSymbolTableRecord
100
AcDbBlockTableRecord
2
_U6
340
0
70
0
0
ENDTAB
0
ENDSEC
0
SECTION
2
BLOCKS
0
BLOCK
5
20
100
AcDbEntity
8
0
100
AcDbBlockBegin
2
*Model_Space
70
0
10
0
20
0
30
0
3
*Model_Space
0
ENDBLK
5
21
100
AcDbEntity
8
0
100
AcDbBlockEnd
0
BLOCK
5
1C
100
AcDbEntity
8
0
100
AcDbBlockBegin
2
*Paper_Space
70
0
10
0
20
0
30
0
3
*Paper_Space
0
ENDBLK
5
1D
100
AcDbEntity
8
0
100
AcDbBlockEnd
0
BLOCK
5
24
100
AcDbEntity
8
0
100
AcDbBlockBegin
2
*Paper_Space0
70
0
10
0
20
0
30
0
3
*Paper_Space0
0
ENDBLK
5
25
100
AcDbEntity
8
0
100
AcDbBlockEnd
0
BLOCK
5
120
100
AcDbEntity
8
0
100
AcDbBlockBegin
2
_Closed
70
0
10
0
20
0
30
0
3
_Closed
0
LINE
5
122
100
AcDbEntity
8
0
62
256
6
ByLayer
370
-2
48
1
60
0
100
AcDbLine
10
-1
20
0.166667
30
0
11
0
21
0
31
0
39
0
210
0
220
0
230
1
0
LINE
5
123
100
AcDbEntity
8
0
62
256
6
ByLayer
370
-2
48
1
60
0
100
AcDbLine
10
0
20
0
30
0
11
-1
21
-0.166667
31
0
39
0
210
0
220
0
230
1
0
LINE
5
124
100
AcDbEntity
8
0
62
256
6
ByLayer
370
-2
48
1
60
0
100
AcDbLine
10
-1
20
0.166667
30
0
11
-1
21
-0.166667
31
0
39
0
210
0
220
0
230
1
0
LINE
5
125
100
AcDbEntity
8
0
62
256
6
ByLayer
370
-2
48
1
60
0
100
AcDbLine
10
0
20
0
30
0
11
-1
21
0
31
0
39
0
210
0
220
0
230
1
0
ENDBLK
5
121
100
AcDbEntity
8
0
100
AcDbBlockEnd
0
BLOCK
5
12A
100
AcDbEntity
8
0
100
AcDbBlockBegin
2
*D2
70
1
10
0
20
0
30
0
3
*D2
0
LINE
5
12C
100
AcDbEntity
8
0
62
256
6
ByLayer
370
-2
48
1
60
0
100
AcDbLine
10
0
20
-4.5875
30
0
11
0
21
-29.67512
31
0
39
0
210
0
220
0
230
1
0
LINE
5
12D
100
AcDbEntity
8
0
62
256
6
ByLayer
370
-2
48
1
60
0
100
AcDbLine
10
68
20
-1.5875
30
0
11
68
21
-29.67512
31
0
39
0
210
0
220
0
230
1
0
LINE
5
12E
100
AcDbEntity
8
0
62
256
6
ByLayer
370
-2
48
1
60
0
100
AcDbLine
10
3.175
20
-26.50012
30
0
11
64.825
21
-26.50012
31
0
39
0
210
0
220
0
230
1
0
SOLID
5
12F
100
AcDbEntity
8
0
62
256
6
ByLayer
370
-1
48
1
60
0
100
AcDbTrace
10
3.175
20
-25.970953
30
0
11
3.175
21
-27.029287
31
0
12
0
22
-26.50012
32
0
13
0
23
-26.50012
33
0
39
0
210
0
220
0
230
1
0
SOLID
5
130
100
AcDbEntity
8
0
62
256
6
ByLayer
370
-1
48
1
60
0
100
AcDbTrace
10
64.825
20
-27.029287
30
0
11
64.825
21
-25.970953
31
0
12
68
22
-26.50012
32
0
13
68
23
-26.50012
33
0
39
0
210
0
220
0
230
1
0
MTEXT
5
131
100
AcDbEntity
8
0
62
256
6
ByLayer
370
18
48
1
60
0
100
AcDbMText
10
34
20
-19.193619
30
0
210
0
220
0
230
1
1
\A1;68
40
3.50012
41
0
44
1
50
0
71
5
72
5
7
iso_b_vert
0
POINT
5
132
100
AcDbEntity
8
Defpoints
62
0
6
ByLayer
370
-1
48
1
60
0
100
AcDbPoint
10
0
20
-3
30
0
39
0
210
0
220
0
230
1
50
360
0
POINT
5
133
100
AcDbEntity
8
Defpoints
62
0
6
ByLayer
370
-1
48
1
60
0
100
AcDbPoint
10
68
20
0
30
0
39
0
210
0
220
0
230
1
50
360
0
POINT
5
134
100
AcDbEntity
8
Defpoints
62
0
6
ByLayer
370
-1
48
1
60
0
100
AcDbPoint
10
68
20
-26.50012
30
0
39
0
210
0
220
0
230
1
50
360
0
ENDBLK
5
12B
100
AcDbEntity
8
0
100
AcDbBlockEnd
0
BLOCK
5
142
100
AcDbEntity
8
0
100
AcDbBlockBegin
2
_U0
70
0
10
0
20
0
30
0
3
_U0
0
MTEXT
5
136
100
AcDbEntity
8
SK2
62
256
6
ByLayer
370
18
48
1
60
0
100
AcDbMText
10
28.770389
20
-25.467451
30
0
210
0
220
0
230
1
1
\W0.7468;68.00
40
3.50012
41
0
44
1.084337
50
0
71
7
72
5
7
iso_b_vert
0
MTEXT
5
137
100
AcDbEntity
8
SK2
62
256
6
ByLayer
370
18
48
1
60
0
100
AcDbMText
10
25.244329
20
-25.400814
30
0
210
0
220
0
230
1
1
\W0.1790;(
40
3.175
41
0
44
1.084337
50
0
71
7
72
5
7
iso_b_vert
0
MTEXT
5
138
100
AcDbEntity
8
SK2
62
256
6
ByLayer
370
18
48
1
60
0
100
AcDbMText
10
42.758393
20
-25.400814
30
0
210
0
220
0
230
1
1
\W0.1969;)
40
3.175
41
0
44
1.084337
50
0
71
7
72
5
7
iso_b_vert
0
LINE
5
139
100
AcDbEntity
8
SK2
62
256
6
ByLayer
370
13
48
1
60
0
100
AcDbLine
10
0
20
-4.5875
30
0
11
0
21
-29.67512
31
0
39
0
210
0
220
0
230
1
0
LINE
5
13A
100
AcDbEntity
8
SK2
62
256
6
ByLayer
370
13
48
1
60
0
100
AcDbLine
10
68
20
-1.5875
30
0
11
68
21
-29.67512
31
0
39
0
210
0
220
0
230
1
0
LINE
5
13B
100
AcDbEntity
8
SK2
62
256
6
ByLayer
370
13
48
1
60
0
100
AcDbLine
10
0
20
-26.50012
30
0
11
68
21
-26.50012
31
0
39
0
210
0
220
0
230
1
0
LINE
5
13C
100
AcDbEntity
8
SK2
62
256
6
ByLayer
370
13
48
1
60
0
100
AcDbLine
10
0
20
-26.50012
30
0
11
3.174998
21
-26.082123
31
0
39
0
210
0
220
0
230
1
0
LINE
5
13D
100
AcDbEntity
8
SK2
62
256
6
ByLayer
370
13
48
1
60
0
100
AcDbLine
10
0
20
-26.50012
30
0
11
3.175002
21
-26.918117
31
0
39
0
210
0
220
0
230
1
0
LINE
5
13E
100
AcDbEntity
8
SK2
62
256
6
ByLayer
370
13
48
1
60
0
100
AcDbLine
10
3.174998
20
-26.082123
30
0
11
3.175002
21
-26.918117
31
0
39
0
210
0
220
0
230
1
0
LINE
5
13F
100
AcDbEntity
8
SK2
62
256
6
ByLayer
370
13
48
1
60
0
100
AcDbLine
10
68
20
-26.50012
30
0
11
64.825002
21
-26.918117
31
0
39
0
210
0
220
0
230
1
0
LINE
5
140
100
AcDbEntity
8
SK2
62
256
6
ByLayer
370
13
48
1
60
0
100
AcDbLine
10
68
20
-26.50012
30
0
11
64.824998
21
-26.082123
31
0
39
0
210
0
220
0
230
1
0
LINE
5
141
100
AcDbEntity
8
SK2
62
256
6
ByLayer
370
13
48
1
60
0
100
AcDbLine
10
64.825002
20
-26.918117
30
0
11
64.824998
21
-26.082123
31
0
39
0
210
0
220
0
230
1
0
ENDBLK
5
143
100
AcDbEntity
8
0
100
AcDbBlockEnd
0
BLOCK
5
148
100
AcDbEntity
8
0
100
AcDbBlockBegin
2
*D4
70
1
10
0
20
0
30
0
3
*D4
0
LINE
5
14A
100
AcDbEntity
8
0
62
256
6
ByLayer
370
-2
48
1
60
0
100
AcDbLine
10
68.623
20
-2.65
30
0
11
77.92506
21
-2.65
31
0
39
0
210
0
220
0
230
1
0
LINE
5
14B
100
AcDbEntity
8
0
62
256
6
ByLayer
370
-2
48
1
60
0
100
AcDbLine
10
68.623
20
2.65
30
0
11
77.92506
21
2.65
31
0
39
0
210
0
220
0
230
1
0
LINE
5
14C
100
AcDbEntity
8
0
62
256
6
ByLayer
370
-2
48
1
60
0
100
AcDbLine
10
74.75006
20
2.65
30
0
11
74.75006
21
27.446466
31
0
39
0
210
0
220
0
230
1
0
LINE
5
14D
100
AcDbEntity
8
0
62
256
6
ByLayer
370
-2
48
1
60
0
100
AcDbLine
10
74.75006
20
-5.825
30
0
11
74.75006
21
-9
31
0
39
0
210
0
220
0
230
1
0
LINE
5
14E
100
AcDbEntity
8
0
62
256
6
ByLayer
370
-2
48
1
60
0
100
AcDbLine
10
74.75006
20
5.825
30
0
11
74.75006
21
9
31
0
39
0
210
0
220
0
230
1
0
SOLID
5
14F
100
AcDbEntity
8
0
62
256
6
ByLayer
370
-1
48
1
60
0
100
AcDbTrace
10
75.279227
20
-5.825
30
0
11
74.220893
21
-5.825
31
0
12
74.75006
22
-2.65
32
0
13
74.75006
23
-2.65
33
0
39
0
210
0
220
0
230
1
0
SOLID
5
150
100
AcDbEntity
8
0
62
256
6
ByLayer
370
-1
48
1
60
0
100
AcDbTrace
10
74.220893
20
5.825
30
0
11
75.279227
21
5.825
31
0
12
74.75006
22
2.65
32
0
13
74.75006
23
2.65
33
0
39
0
210
0
220
0
230
1
0
MTEXT
5
151
100
AcDbEntity
8
0
62
256
6
ByLayer
370
18
48
1
60
0
100
AcDbMText
10
67.44356
20
18.223233
30
0
210
0
220
0
230
1
1
\A1;5.3
40
3.50012
41
0
44
1
50
90
71
5
72
5
7
iso_b_vert
0
POINT
5
152
100
AcDbEntity
8
Defpoints
62
0
6
ByLayer
370
-1
48
1
60
0
100
AcDbPoint
10
67.0355
20
-2.65
30
0
39
0
210
0
220
0
230
1
50
360
0
POINT
5
153
100
AcDbEntity
8
Defpoints
62
0
6
ByLayer
370
-1
48
1
60
0
100
AcDbPoint
10
67.0355
20
2.65
30
0
39
0
210
0
220
0
230
1
50
360
0
POINT
5
154
100
AcDbEntity
8
Defpoints
62
0
6
ByLayer
370
-1
48
1
60
0
100
AcDbPoint
10
74.75006
20
2.65
30
0
39
0
210
0
220
0
230
1
50
360
0
ENDBLK
5
149
100
AcDbEntity
8
0
100
AcDbBlockEnd
0
BLOCK
5
161
100
AcDbEntity
8
0
100
AcDbBlockBegin
2
_U1
70
0
10
0
20
0
30
0
3
_U1
0
MTEXT
5
157
100
AcDbEntity
8
2
62
256
6
ByLayer
370
18
48
1
60
0
100
AcDbMText
10
74.060403
20
6.807505
30
0
210
0
220
0
230
1
1
\W0.7346;5.30
40
3.50012
41
0
44
1.084337
50
90
71
7
72
5
7
iso_b_vert
0
LINE
5
158
100
AcDbEntity
8
2
62
256
6
ByLayer
370
13
48
1
60
0
100
AcDbLine
10
68.623
20
-2.65
30
0
11
77.92506
21
-2.65
31
0
39
0
210
0
220
0
230
1
0
LINE
5
159
100
AcDbEntity
8
2
62
256
6
ByLayer
370
13
48
1
60
0
100
AcDbLine
10
68.623
20
2.65
30
0
11
77.92506
21
2.65
31
0
39
0
210
0
220
0
230
1
0
LINE
5
15A
100
AcDbEntity
8
2
62
256
6
ByLayer
370
13
48
1
60
0
100
AcDbLine
10
74.75006
20
14.86468
30
0
11
74.75006
21
-11.4003
31
0
39
0
210
0
220
0
230
1
0
LINE
5
15B
100
AcDbEntity
8
2
62
256
6
ByLayer
370
13
48
1
60
0
100
AcDbLine
10
74.75006
20
-2.65
30
0
11
75.168057
21
-5.824998
31
0
39
0
210
0
220
0
230
1
0
LINE
5
15C
100
AcDbEntity
8
2
62
256
6
ByLayer
370
13
48
1
60
0
100
AcDbLine
10
74.75006
20
-2.65
30
0
11
74.332063
21
-5.825002
31
0
39
0
210
0
220
0
230
1
0
LINE
5
15D
100
AcDbEntity
8
2
62
256
6
ByLayer
370
13
48
1
60
0
100
AcDbLine
10
75.168057
20
-5.824998
30
0
11
74.332063
21
-5.825002
31
0
39
0
210
0
220
0
230
1
0
LINE
5
15E
100
AcDbEntity
8
2
62
256
6
ByLayer
370
13
48
1
60
0
100
AcDbLine
10
74.75006
20
2.65
30
0
11
74.332063
21
5.824998
31
0
39
0
210
0
220
0
230
1
0
LINE
5
15F
100
AcDbEntity
8
2
62
256
6
ByLayer
370
13
48
1
60
0
100
AcDbLine
10
74.75006
20
2.65
30
0
11
75.168057
21
5.825002
31
0
39
0
210
0
220
0
230
1
0
LINE
5
160
100
AcDbEntity
8
2
62
256
6
ByLayer
370
13
48
1
60
0
100
AcDbLine
10
74.332063
20
5.824998
30
0
11
75.168057
21
5.825002
31
0
39
0
210
0
220
0
230
1
0
ENDBLK
5
162
100
AcDbEntity
8
0
100
AcDbBlockEnd
0
BLOCK
5
167
100
AcDbEntity
8
0
100
AcDbBlockBegin
2
*D6
70
1
10
0
20
0
30
0
3
*D6
0
LINE
5
169
100
AcDbEntity
8
0
62
256
6
ByLayer
370
-2
48
1
60
0
100
AcDbLine
10
-37.5875
20
3
30
0
11
-42.42494
21
3
31
0
39
0
210
0
220
0
230
1
0
LINE
5
16A
100
AcDbEntity
8
0
62
256
6
ByLayer
370
-2
48
1
60
0
100
AcDbLine
10
-37.5875
20
-3
30
0
11
-42.42494
21
-3
31
0
39
0
210
0
220
0
230
1
0
LINE
5
16B
100
AcDbEntity
8
0
62
256
6
ByLayer
370
-2
48
1
60
0
100
AcDbLine
10
-39.24994
20
3
30
0
11
-39.24994
21
23.747151
31
0
39
0
210
0
220
0
230
1
0
LINE
5
16C
100
AcDbEntity
8
0
62
256
6
ByLayer
370
-2
48
1
60
0
100
AcDbLine
10
-39.24994
20
6.175
30
0
11
-39.24994
21
9.35
31
0
39
0
210
0
220
0
230
1
0
LINE
5
16D
100
AcDbEntity
8
0
62
256
6
ByLayer
370
-2
48
1
60
0
100
AcDbLine
10
-39.24994
20
-6.175
30
0
11
-39.24994
21
-9.35
31
0
39
0
210
0
220
0
230
1
0
SOLID
5
16E
100
AcDbEntity
8
0
62
256
6
ByLayer
370
-1
48
1
60
0
100
AcDbTrace
10
-39.779107
20
6.175
30
0
11
-38.720773
21
6.175
31
0
12
-39.24994
22
3
32
0
13
-39.24994
23
3
33
0
39
0
210
0
220
0
230
1
0
SOLID
5
16F
100
AcDbEntity
8
0
62
256
6
ByLayer
370
-1
48
1
60
0
100
AcDbTrace
10
-38.720773
20
-6.175
30
0
11
-39.779107
21
-6.175
31
0
12
-39.24994
22
-3
32
0
13
-39.24994
23
-3
33
0
39
0
210
0
220
0
230
1
0
MTEXT
5
170
100
AcDbEntity
8
0
62
256
6
ByLayer
370
18
48
1
60
0
100
AcDbMText
10
-46.556441
20
17.10734
30
0
210
0
220
0
230
1
1
\A1;6
40
3.50012
41
0
44
1
50
90
71
5
72
5
7
iso_b_vert
0
POINT
5
171
100
AcDbEntity
8
Defpoints
62
0
6
ByLayer
370
-1
48
1
60
0
100
AcDbPoint
10
-36
20
3
30
0
39
0
210
0
220
0
230
1
50
360
0
POINT
5
172
100
AcDbEntity
8
Defpoints
62
0
6
ByLayer
370
-1
48
1
60
0
100
AcDbPoint
10
-36
20
-3
30
0
39
0
210
0
220
0
230
1
50
360
0
POINT
5
173
100
AcDbEntity
8
Defpoints
62
0
6
ByLayer
370
-1
48
1
60
0
100
AcDbPoint
10
-39.24994
20
-3
30
0
39
0
210
0
220
0
230
1
50
360
0
ENDBLK
5
168
100
AcDbEntity
8
0
100
AcDbBlockEnd
0
BLOCK
5
17F
100
AcDbEntity
8
0
100
AcDbBlockBegin
2
_U2
70
0
10
0
20
0
30
0
3
_U2
0
MTEXT
5
175
100
AcDbEntity
8
SK2
62
256
6
ByLayer
370
18
48
1
60
0
100
AcDbMText
10
-39.939597
20
13.157505
30
0
210
0
220
0
230
1
1
\W0.7346;6.00
40
3.50012
41
0
44
1.084337
50
90
71
7
72
5
7
iso_b_vert
0
LINE
5
176
100
AcDbEntity
8
SK2
62
256
6
ByLayer
370
13
48
1
60
0
100
AcDbLine
10
-37.5875
20
3
30
0
11
-42.42494
21
3
31
0
39
0
210
0
220
0
230
1
0
LINE
5
177
100
AcDbEntity
8
SK2
62
256
6
ByLayer
370
13
48
1
60
0
100
AcDbLine
10
-37.5875
20
-3
30
0
11
-42.42494
21
-3
31
0
39
0
210
0
220
0
230
1
0
LINE
5
178
100
AcDbEntity
8
SK2
62
256
6
ByLayer
370
13
48
1
60
0
100
AcDbLine
10
-39.24994
20
-11.7503
30
0
11
-39.24994
21
21.21468
31
0
39
0
210
0
220
0
230
1
0
LINE
5
179
100
AcDbEntity
8
SK2
62
256
6
ByLayer
370
13
48
1
60
0
100
AcDbLine
10
-39.24994
20
3
30
0
11
-39.667937
21
6.174998
31
0
39
0
210
0
220
0
230
1
0
LINE
5
17A
100
AcDbEntity
8
SK2
62
256
6
ByLayer
370
13
48
1
60
0
100
AcDbLine
10
-39.24994
20
3
30
0
11
-38.831943
21
6.175002
31
0
39
0
210
0
220
0
230
1
0
LINE
5
17B
100
AcDbEntity
8
SK2
62
256
6
ByLayer
370
13
48
1
60
0
100
AcDbLine
10
-39.667937
20
6.174998
30
0
11
-38.831943
21
6.175002
31
0
39
0
210
0
220
0
230
1
0
LINE
5
17C
100
AcDbEntity
8
SK2
62
256
6
ByLayer
370
13
48
1
60
0
100
AcDbLine
10
-39.24994
20
-3
30
0
11
-38.831943
21
-6.174998
31
0
39
0
210
0
220
0
230
1
0
LINE
5
17D
100
AcDbEntity
8
SK2
62
256
6
ByLayer
370
13
48
1
60
0
100
AcDbLine
10
-39.24994
20
-3
30
0
11
-39.667937
21
-6.175002
31
0
39
0
210
0
220
0
230
1
0
LINE
5
17E
100
AcDbEntity
8
SK2
62
256
6
ByLayer
370
13
48
1
60
0
100
AcDbLine
10
-38.831943
20
-6.174998
30
0
11
-39.667937
21
-6.175002
31
0
39
0
210
0
220
0
230
1
0
ENDBLK
5
180
100
AcDbEntity
8
0
100
AcDbBlockEnd
0
BLOCK
5
185
100
AcDbEntity
8
0
100
AcDbBlockBegin
2
*D8
70
1
10
0
20
0
30
0
3
*D8
0
LINE
5
187
100
AcDbEntity
8
0
62
256
6
ByLayer
370
-2
48
1
60
0
100
AcDbLine
10
-36
20
-4.5875
30
0
11
-36
21
-29.67512
31
0
39
0
210
0
220
0
230
1
0
LINE
5
188
100
AcDbEntity
8
0
62
256
6
ByLayer
370
-2
48
1
60
0
100
AcDbLine
10
0
20
-4.5875
30
0
11
0
21
-29.67512
31
0
39
0
210
0
220
0
230
1
0
LINE
5
189
100
AcDbEntity
8
0
62
256
6
ByLayer
370
-2
48
1
60
0
100
AcDbLine
10
-32.825
20
-26.50012
30
0
11
-3.175
21
-26.50012
31
0
39
0
210
0
220
0
230
1
0
SOLID
5
18A
100
AcDbEntity
8
0
62
256
6
ByLayer
370
-1
48
1
60
0
100
AcDbTrace
10
-32.825
20
-25.970953
30
0
11
-32.825
21
-27.029287
31
0
12
-36
22
-26.50012
32
0
13
-36
23
-26.50012
33
0
39
0
210
0
220
0
230
1
0
SOLID
5
18B
100
AcDbEntity
8
0
62
256
6
ByLayer
370
-1
48
1
60
0
100
AcDbTrace
10
-3.175
20
-27.029287
30
0
11
-3.175
21
-25.970953
31
0
12
0
22
-26.50012
32
0
13
0
23
-26.50012
33
0
39
0
210
0
220
0
230
1
0
MTEXT
5
18C
100
AcDbEntity
8
0
62
256
6
ByLayer
370
18
48
1
60
0
100
AcDbMText
10
-18
20
-19.193619
30
0
210
0
220
0
230
1
1
\A1;36
40
3.50012
41
0
44
1
50
0
71
5
72
5
7
iso_b_vert
0
POINT
5
18D
100
AcDbEntity
8
Defpoints
62
0
6
ByLayer
370
-1
48
1
60
0
100
AcDbPoint
10
-36
20
-3
30
0
39
0
210
0
220
0
230
1
50
360
0
POINT
5
18E
100
AcDbEntity
8
Defpoints
62
0
6
ByLayer
370
-1
48
1
60
0
100
AcDbPoint
10
0
20
-3
30
0
39
0
210
0
220
0
230
1
50
360
0
POINT
5
18F
100
AcDbEntity
8
Defpoints
62
0
6
ByLayer
370
-1
48
1
60
0
100
AcDbPoint
10
0
20
-26.50012
30
0
39
0
210
0
220
0
230
1
50
360
0
ENDBLK
5
186
100
AcDbEntity
8
0
100
AcDbBlockEnd
0
BLOCK
5
19B
100
AcDbEntity
8
0
100
AcDbBlockBegin
2
_U3
70
0
10
0
20
0
30
0
3
_U3
0
MTEXT
5
191
100
AcDbEntity
8
SK2
62
256
6
ByLayer
370
18
48
1
60
0
100
AcDbMText
10
-23.229611
20
-25.467451
30
0
210
0
220
0
230
1
1
\W0.7468;36.00
40
3.50012
41
0
44
1.084337
50
0
71
7
72
5
7
iso_b_vert
0
LINE
5
192
100
AcDbEntity
8
SK2
62
256
6
ByLayer
370
13
48
1
60
0
100
AcDbLine
10
-36
20
-4.5875
30
0
11
-36
21
-29.67512
31
0
39
0
210
0
220
0
230
1
0
LINE
5
193
100
AcDbEntity
8
SK2
62
256
6
ByLayer
370
13
48
1
60
0
100
AcDbLine
10
0
20
-4.5875
30
0
11
0
21
-29.67512
31
0
39
0
210
0
220
0
230
1
0
LINE
5
194
100
AcDbEntity
8
SK2
62
256
6
ByLayer
370
13
48
1
60
0
100
AcDbLine
10
-36
20
-26.50012
30
0
11
0
21
-26.50012
31
0
39
0
210
0
220
0
230
1
0
LINE
5
195
100
AcDbEntity
8
SK2
62
256
6
ByLayer
370
13
48
1
60
0
100
AcDbLine
10
-36
20
-26.50012
30
0
11
-32.825002
21
-26.082123
31
0
39
0
210
0
220
0
230
1
0
LINE
5
196
100
AcDbEntity
8
SK2
62
256
6
ByLayer
370
13
48
1
60
0
100
AcDbLine
10
-36
20
-26.50012
30
0
11
-32.824998
21
-26.918117
31
0
39
0
210
0
220
0
230
1
0
LINE
5
197
100
AcDbEntity
8
SK2
62
256
6
ByLayer
370
13
48
1
60
0
100
AcDbLine
10
-32.825002
20
-26.082123
30
0
11
-32.824998
21
-26.918117
31
0
39
0
210
0
220
0
230
1
0
LINE
5
198
100
AcDbEntity
8
SK2
62
256
6
ByLayer
370
13
48
1
60
0
100
AcDbLine
10
0
20
-26.50012
30
0
11
-3.174998
21
-26.918117
31
0
39
0
210
0
220
0
230
1
0
LINE
5
199
100
AcDbEntity
8
SK2
62
256
6
ByLayer
370
13
48
1
60
0
100
AcDbLine
10
0
20
-26.50012
30
0
11
-3.175002
21
-26.082123
31
0
39
0
210
0
220
0
230
1
0
LINE
5
19A
100
AcDbEntity
8
SK2
62
256
6
ByLayer
370
13
48
1
60
0
100
AcDbLine
10
-3.174998
20
-26.918117
30
0
11
-3.175002
21
-26.082123
31
0
39
0
210
0
220
0
230
1
0
ENDBLK
5
19C
100
AcDbEntity
8
0
100
AcDbBlockEnd
0
BLOCK
5
1A1
100
AcDbEntity
8
0
100
AcDbBlockBegin
2
*D10
70
1
10
0
20
0
30
0
3
*D10
0
LINE
5
1A3
100
AcDbEntity
8
0
62
256
6
ByLayer
370
-2
48
1
60
0
100
AcDbLine
10
6
20
1.5625
30
0
11
6
21
-20.92482
31
0
39
0
210
0
220
0
230
1
0
LINE
5
1A4
100
AcDbEntity
8
0
62
256
6
ByLayer
370
-2
48
1
60
0
100
AcDbLine
10
68
20
-1.5875
30
0
11
68
21
-20.92482
31
0
39
0
210
0
220
0
230
1
0
LINE
5
1A5
100
AcDbEntity
8
0
62
256
6
ByLayer
370
-2
48
1
60
0
100
AcDbLine
10
9.175
20
-17.74982
30
0
11
64.825
21
-17.74982
31
0
39
0
210
0
220
0
230
1
0
SOLID
5
1A6
100
AcDbEntity
8
0
62
256
6
ByLayer
370
-1
48
1
60
0
100
AcDbTrace
10
9.175
20
-17.220653
30
0
11
9.175
21
-18.278987
31
0
12
6
22
-17.74982
32
0
13
6
23
-17.74982
33
0
39
0
210
0
220
0
230
1
0
SOLID
5
1A7
100
AcDbEntity
8
0
62
256
6
ByLayer
370
-1
48
1
60
0
100
AcDbTrace
10
64.825
20
-18.278987
30
0
11
64.825
21
-17.220653
31
0
12
68
22
-17.74982
32
0
13
68
23
-17.74982
33
0
39
0
210
0
220
0
230
1
0
MTEXT
5
1A8
100
AcDbEntity
8
0
62
256
6
ByLayer
370
18
48
1
60
0
100
AcDbMText
10
37
20
-10.443319
30
0
210
0
220
0
230
1
1
\A1;62
40
3.50012
41
0
44
1
50
0
71
5
72
5
7
iso_b_vert
0
POINT
5
1A9
100
AcDbEntity
8
Defpoints
62
0
6
ByLayer
370
-1
48
1
60
0
100
AcDbPoint
10
6
20
3.15
30
0
39
0
210
0
220
0
230
1
50
360
0
POINT
5
1AA
100
AcDbEntity
8
Defpoints
62
0
6
ByLayer
370
-1
48
1
60
0
100
AcDbPoint
10
68
20
0
30
0
39
0
210
0
220
0
230
1
50
360
0
POINT
5
1AB
100
AcDbEntity
8
Defpoints
62
0
6
ByLayer
370
-1
48
1
60
0
100
AcDbPoint
10
68
20
-17.74982
30
0
39
0
210
0
220
0
230
1
50
360
0
ENDBLK
5
1A2
100
AcDbEntity
8
0
100
AcDbBlockEnd
0
BLOCK
5
1B7
100
AcDbEntity
8
0
100
AcDbBlockBegin
2
_U4
70
0
10
0
20
0
30
0
3
_U4
0
MTEXT
5
1AD
100
AcDbEntity
8
SK2
62
256
6
ByLayer
370
18
48
1
60
0
100
AcDbMText
10
31.770389
20
-16.717151
30
0
210
0
220
0
230
1
1
\W0.7468;62.00
40
3.50012
41
0
44
1.084337
50
0
71
7
72
5
7
iso_b_vert
0
LINE
5
1AE
100
AcDbEntity
8
SK2
62
256
6
ByLayer
370
13
48
1
60
0
100
AcDbLine
10
6
20
1.5625
30
0
11
6
21
-20.92482
31
0
39
0
210
0
220
0
230
1
0
LINE
5
1AF
100
AcDbEntity
8
SK2
62
256
6
ByLayer
370
13
48
1
60
0
100
AcDbLine
10
68
20
-1.5875
30
0
11
68
21
-20.92482
31
0
39
0
210
0
220
0
230
1
0
LINE
5
1B0
100
AcDbEntity
8
SK2
62
256
6
ByLayer
370
13
48
1
60
0
100
AcDbLine
10
6
20
-17.74982
30
0
11
68
21
-17.74982
31
0
39
0
210
0
220
0
230
1
0
LINE
5
1B1
100
AcDbEntity
8
SK2
62
256
6
ByLayer
370
13
48
1
60
0
100
AcDbLine
10
6
20
-17.74982
30
0
11
9.174998
21
-17.331823
31
0
39
0
210
0
220
0
230
1
0
LINE
5
1B2
100
AcDbEntity
8
SK2
62
256
6
ByLayer
370
13
48
1
60
0
100
AcDbLine
10
6
20
-17.74982
30
0
11
9.175002
21
-18.167817
31
0
39
0
210
0
220
0
230
1
0
LINE
5
1B3
100
AcDbEntity
8
SK2
62
256
6
ByLayer
370
13
48
1
60
0
100
AcDbLine
10
9.174998
20
-17.331823
30
0
11
9.175002
21
-18.167817
31
0
39
0
210
0
220
0
230
1
0
LINE
5
1B4
100
AcDbEntity
8
SK2
62
256
6
ByLayer
370
13
48
1
60
0
100
AcDbLine
10
68
20
-17.74982
30
0
11
64.825002
21
-18.167817
31
0
39
0
210
0
220
0
230
1
0
LINE
5
1B5
100
AcDbEntity
8
SK2
62
256
6
ByLayer
370
13
48
1
60
0
100
AcDbLine
10
68
20
-17.74982
30
0
11
64.824998
21
-17.331823
31
0
39
0
210
0
220
0
230
1
0
LINE
5
1B6
100
AcDbEntity
8
SK2
62
256
6
ByLayer
370
13
48
1
60
0
100
AcDbLine
10
64.825002
20
-18.167817
30
0
11
64.824998
21
-17.331823
31
0
39
0
210
0
220
0
230
1
0
ENDBLK
5
1B8
100
AcDbEntity
8
0
100
AcDbBlockEnd
0
BLOCK
5
1BD
100
AcDbEntity
8
0
100
AcDbBlockBegin
2
*D12
70
1
10
0
20
0
30
0
3
*D12
0
LINE
5
1BF
100
AcDbEntity
8
0
62
256
6
ByLayer
370
-2
48
1
60
0
100
AcDbLine
10
24.7
20
-4.2375
30
0
11
24.7
21
-10.32
31
0
39
0
210
0
220
0
230
1
0
LINE
5
1C0
100
AcDbEntity
8
0
62
256
6
ByLayer
370
-2
48
1
60
0
100
AcDbLine
10
68
20
-1.5875
30
0
11
68
21
-10.32
31
0
39
0
210
0
220
0
230
1
0
LINE
5
1C1
100
AcDbEntity
8
0
62
256
6
ByLayer
370
-2
48
1
60
0
100
AcDbLine
10
27.875
20
-9.82
30
0
11
64.825
21
-9.82
31
0
39
0
210
0
220
0
230
1
0
SOLID
5
1C2
100
AcDbEntity
8
0
62
256
6
ByLayer
370
-1
48
1
60
0
100
AcDbTrace
10
27.875
20
-9.290833
30
0
11
27.875
21
-10.349167
31
0
12
24.7
22
-9.82
32
0
13
24.7
23
-9.82
33
0
39
0
210
0
220
0
230
1
0
SOLID
5
1C3
100
AcDbEntity
8
0
62
256
6
ByLayer
370
-1
48
1
60
0
100
AcDbTrace
10
64.825
20
-10.349167
30
0
11
64.825
21
-9.290833
31
0
12
68
22
-9.82
32
0
13
68
23
-9.82
33
0
39
0
210
0
220
0
230
1
0
MTEXT
5
1C4
100
AcDbEntity
8
0
62
256
6
ByLayer
370
18
48
1
60
0
100
AcDbMText
10
46.35
20
-3.975
30
0
210
0
220
0
230
1
1
\A1;43.3
40
2.8
41
0
44
1
50
0
71
5
72
5
7
iso_b_vert
0
POINT
5
1C5
100
AcDbEntity
8
Defpoints
62
0
6
ByLayer
370
-1
48
1
60
0
100
AcDbPoint
10
24.7
20
-2.65
30
0
39
0
210
0
220
0
230
1
50
360
0
POINT
5
1C6
100
AcDbEntity
8
Defpoints
62
0
6
ByLayer
370
-1
48
1
60
0
100
AcDbPoint
10
68
20
0
30
0
39
0
210
0
220
0
230
1
50
360
0
POINT
5
1C7
100
AcDbEntity
8
Defpoints
62
0
6
ByLayer
370
-1
48
1
60
0
100
AcDbPoint
10
68
20
-9.82
30
0
39
0
210
0
220
0
230
1
50
360
0
ENDBLK
5
1BE
100
AcDbEntity
8
0
100
AcDbBlockEnd
0
BLOCK
5
1D3
100
AcDbEntity
8
0
100
AcDbBlockBegin
2
_U5
70
0
10
0
20
0
30
0
3
_U5
0
MTEXT
5
1C9
100
AcDbEntity
8
SK2
62
256
6
ByLayer
370
18
48
1
60
0
100
AcDbMText
10
42.019041
20
-9.973893
30
0
210
0
220
0
230
1
1
\W0.7694;43.30
40
2.8
41
0
44
1.084337
50
0
71
7
72
5
7
iso_b_vert
0
LINE
5
1CA
100
AcDbEntity
8
SK2
62
256
6
ByLayer
370
13
48
1
60
0
100
AcDbLine
10
24.7
20
-4.2375
30
0
11
24.7
21
-10.32
31
0
39
0
210
0
220
0
230
1
0
LINE
5
1CB
100
AcDbEntity
8
SK2
62
256
6
ByLayer
370
13
48
1
60
0
100
AcDbLine
10
68
20
-1.5875
30
0
11
68
21
-10.32
31
0
39
0
210
0
220
0
230
1
0
LINE
5
1CC
100
AcDbEntity
8
SK2
62
256
6
ByLayer
370
13
48
1
60
0
100
AcDbLine
10
24.7
20
-9.82
30
0
11
68
21
-9.82
31
0
39
0
210
0
220
0
230
1
0
LINE
5
1CD
100
AcDbEntity
8
SK2
62
256
6
ByLayer
370
13
48
1
60
0
100
AcDbLine
10
24.7
20
-9.82
30
0
11
27.874998
21
-9.402003
31
0
39
0
210
0
220
0
230
1
0
LINE
5
1CE
100
AcDbEntity
8
SK2
62
256
6
ByLayer
370
13
48
1
60
0
100
AcDbLine
10
24.7
20
-9.82
30
0
11
27.875002
21
-10.237997
31
0
39
0
210
0
220
0
230
1
0
LINE
5
1CF
100
AcDbEntity
8
SK2
62
256
6
ByLayer
370
13
48
1
60
0
100
AcDbLine
10
27.874998
20
-9.402003
30
0
11
27.875002
21
-10.237997
31
0
39
0
210
0
220
0
230
1
0
LINE
5
1D0
100
AcDbEntity
8
SK2
62
256
6
ByLayer
370
13
48
1
60
0
100
AcDbLine
10
68
20
-9.82
30
0
11
64.825002
21
-10.237997
31
0
39
0
210
0
220
0
230
1
0
LINE
5
1D1
100
AcDbEntity
8
SK2
62
256
6
ByLayer
370
13
48
1
60
0
100
AcDbLine
10
68
20
-9.82
30
0
11
64.824998
21
-9.402003
31
0
39
0
210
0
220
0
230
1
0
LINE
5
1D2
100
AcDbEntity
8
SK2
62
256
6
ByLayer
370
13
48
1
60
0
100
AcDbLine
10
64.825002
20
-10.237997
30
0
11
64.824998
21
-9.402003
31
0
39
0
210
0
220
0
230
1
0
ENDBLK
5
1D4
100
AcDbEntity
8
0
100
AcDbBlockEnd
0
BLOCK
5
1D9
100
AcDbEntity
8
0
100
AcDbBlockBegin
2
*D14
70
1
10
0
20
0
30
0
3
*D14
0
LINE
5
1DB
100
AcDbEntity
8
0
62
256
6
ByLayer
370
-2
48
1
60
0
100
AcDbLine
10
-36
20
-1.5875
30
0
11
-36
21
-39.67512
31
0
39
0
210
0
220
0
230
1
0
LINE
5
1DC
100
AcDbEntity
8
0
62
256
6
ByLayer
370
-2
48
1
60
0
100
AcDbLine
10
68
20
-1.5875
30
0
11
68
21
-39.67512
31
0
39
0
210
0
220
0
230
1
0
LINE
5
1DD
100
AcDbEntity
8
0
62
256
6
ByLayer
370
-2
48
1
60
0
100
AcDbLine
10
-32.825
20
-36.50012
30
0
11
64.825
21
-36.50012
31
0
39
0
210
0
220
0
230
1
0
SOLID
5
1DE
100
AcDbEntity
8
0
62
256
6
ByLayer
370
-1
48
1
60
0
100
AcDbTrace
10
-32.825
20
-35.970953
30
0
11
-32.825
21
-37.029287
31
0
12
-36
22
-36.50012
32
0
13
-36
23
-36.50012
33
0
39
0
210
0
220
0
230
1
0
SOLID
5
1DF
100
AcDbEntity
8
0
62
256
6
ByLayer
370
-1
48
1
60
0
100
AcDbTrace
10
64.825
20
-37.029287
30
0
11
64.825
21
-35.970953
31
0
12
68
22
-36.50012
32
0
13
68
23
-36.50012
33
0
39
0
210
0
220
0
230
1
0
MTEXT
5
1E0
100
AcDbEntity
8
0
62
256
6
ByLayer
370
18
48
1
60
0
100
AcDbMText
10
16
20
-29.193619
30
0
210
0
220
0
230
1
1
\A1;104
40
3.50012
41
0
44
1
50
0
71
5
72
5
7
iso_b_vert
0
POINT
5
1E1
100
AcDbEntity
8
Defpoints
62
0
6
ByLayer
370
-1
48
1
60
0
100
AcDbPoint
10
-36
20
0
30
0
39
0
210
0
220
0
230
1
50
360
0
POINT
5
1E2
100
AcDbEntity
8
Defpoints
62
0
6
ByLayer
370
-1
48
1
60
0
100
AcDbPoint
10
68
20
0
30
0
39
0
210
0
220
0
230
1
50
360
0
POINT
5
1E3
100
AcDbEntity
8
Defpoints
62
0
6
ByLayer
370
-1
48
1
60
0
100
AcDbPoint
10
68
20
-36.50012
30
0
39
0
210
0
220
0
230
1
50
360
0
ENDBLK
5
1DA
100
AcDbEntity
8
0
100
AcDbBlockEnd
0
BLOCK
5
1EF
100
AcDbEntity
8
0
100
AcDbBlockBegin
2
_U6
70
0
10
0
20
0
30
0
3
_U6
0
MTEXT
5
1E5
100
AcDbEntity
8
SK2
62
256
6
ByLayer
370
18
48
1
60
0
100
AcDbMText
10
9.715786
20
-35.467451
30
0
210
0
220
0
230
1
1
\W0.7237;104.00
40
3.50012
41
0
44
1.084337
50
0
71
7
72
5
7
iso_b_vert
0
LINE
5
1E6
100
AcDbEntity
8
SK2
62
256
6
ByLayer
370
13
48
1
60
0
100
AcDbLine
10
-36
20
-1.5875
30
0
11
-36
21
-39.67512
31
0
39
0
210
0
220
0
230
1
0
LINE
5
1E7
100
AcDbEntity
8
SK2
62
256
6
ByLayer
370
13
48
1
60
0
100
AcDbLine
10
68
20
-1.5875
30
0
11
68
21
-39.67512
31
0
39
0
210
0
220
0
230
1
0
LINE
5
1E8
100
AcDbEntity
8
SK2
62
256
6
ByLayer
370
13
48
1
60
0
100
AcDbLine
10
-36
20
-36.50012
30
0
11
68
21
-36.50012
31
0
39
0
210
0
220
0
230
1
0
LINE
5
1E9
100
AcDbEntity
8
SK2
62
256
6
ByLayer
370
13
48
1
60
0
100
AcDbLine
10
-36
20
-36.50012
30
0
11
-32.825002
21
-36.082123
31
0
39
0
210
0
220
0
230
1
0
LINE
5
1EA
100
AcDbEntity
8
SK2
62
256
6
ByLayer
370
13
48
1
60
0
100
AcDbLine
10
-36
20
-36.50012
30
0
11
-32.824998
21
-36.918117
31
0
39
0
210
0
220
0
230
1
0
LINE
5
1EB
100
AcDbEntity
8
SK2
62
256
6
ByLayer
370
13
48
1
60
0
100
AcDbLine
10
-32.825002
20
-36.082123
30
0
11
-32.824998
21
-36.918117
31
0
39
0
210
0
220
0
230
1
0
LINE
5
1EC
100
AcDbEntity
8
SK2
62
256
6
ByLayer
370
13
48
1
60
0
100
AcDbLine
10
68
20
-36.50012
30
0
11
64.825002
21
-36.918117
31
0
39
0
210
0
220
0
230
1
0
LINE
5
1ED
100
AcDbEntity
8
SK2
62
256
6
ByLayer
370
13
48
1
60
0
100
AcDbLine
10
68
20
-36.50012
30
0
11
64.824998
21
-36.082123
31
0
39
0
210
0
220
0
230
1
0
LINE
5
1EE
100
AcDbEntity
8
SK2
62
256
6
ByLayer
370
13
48
1
60
0
100
AcDbLine
10
64.825002
20
-36.918117
30
0
11
64.824998
21
-36.082123
31
0
39
0
210
0
220
0
230
1
0
ENDBLK
5
1F0
100
AcDbEntity
8
0
100
AcDbBlockEnd
0
ENDSEC
0
SECTION
2
ENTITIES
0
ARC
5
B7
100
AcDbEntity
8
1
62
256
6
ByLayer
370
18
48
1
60
0
100
AcDbCircle
39
0
10
1.048288
20
3.408757
30
0
40
0.800000000000003
210
0
220
0
230
1
100
AcDbArc
50
229.06672
51
270.03581
0
ARC
5
B8
100
AcDbEntity
8
1
62
256
6
ByLayer
370
18
48
1
60
0
100
AcDbCircle
39
0
10
1.048288
20
-3.408757
30
0
40
0.800000000000003
210
0
220
0
230
1
100
AcDbArc
50
89.96419
51
130.93328
0
ARC
5
B9
100
AcDbEntity
8
1
62
256
6
ByLayer
370
18
48
1
60
0
100
AcDbCircle
39
0
10
0
20
2.2
30
0
40
0.799999999999998
210
0
220
0
230
1
100
AcDbArc
50
49.06672
51
90
0
ARC
5
BA
100
AcDbEntity
8
1
62
256
6
ByLayer
370
18
48
1
60
0
100
AcDbCircle
39
0
10
0
20
-2.2
30
0
40
0.799999999999998
210
0
220
0
230
1
100
AcDbArc
50
270
51
310.93328
0
ARC
5
BB
100
AcDbEntity
8
SK2
62
256
6
ByLayer
370
13
48
1
60
0
100
AcDbCircle
39
0
10
68
20
0
30
0
40
20
210
0
220
0
230
1
100
AcDbArc
50
9.606349
51
70.000403
0
ARC
5
BC
100
AcDbEntity
8
SK2
62
256
6
ByLayer
370
13
48
1
60
0
100
AcDbCircle
39
0
10
68
20
0
30
0
40
20
210
0
220
0
230
1
100
AcDbArc
50
289.999597
51
350.393651
0
ELLIPSE
5
BD
100
AcDbEntity
8
1
62
256
6
ByLayer
370
18
48
1
60
0
100
AcDbEllipse
10
41.602699
20
2.505004
30
0
11
-7.6391075867768E-05
21
0.00999970821591949
31
0
210
0
220
0
230
1
40
0.006556
41
3.06541354009345
42
-1.64695682200898
0
ELLIPSE
5
BE
100
AcDbEntity
8
1
62
256
6
ByLayer
370
18
48
1
60
0
100
AcDbEllipse
10
41.641596
20
2.505952
30
0
11
0.000421000960121449
21
-0.00999113397926266
31
0
210
0
220
0
230
1
40
0.437695
41
-0.0806587972687897
42
1.48394696078883
0
ELLIPSE
5
BF
100
AcDbEntity
8
1
62
256
6
ByLayer
370
18
48
1
60
0
100
AcDbEllipse
10
41.602058
20
2.602183
30
0
11
-0.1
21
1.22460635382238E-17
31
0
210
0
220
0
230
1
40
0.99996
41
0.00207305434114153
42
1.58167420726014
0
POINT
5
70
100
AcDbEntity
8
80
62
256
6
ByLayer
370
18
48
1
60
0
100
AcDbPoint
10
0
20
0
30
0
39
0
210
0
220
0
230
1
50
360
0
POINT
5
72
100
AcDbEntity
8
81
62
256
6
ByLayer
370
18
48
1
60
0
100
AcDbPoint
10
68
20
0
30
0
39
0
210
0
220
0
230
1
50
360
0
POINT
5
74
100
AcDbEntity
8
1
62
256
6
ByLayer
370
18
48
1
60
0
100
AcDbPoint
10
-36
20
0
30
0
39
0
210
0
220
0
230
1
50
360
0
POINT
5
76
100
AcDbEntity
8
1
62
256
6
ByLayer
370
18
48
1
60
1
100
AcDbPoint
10
0
20
-3
30
0
39
0
210
0
220
0
230
1
50
360
0
POINT
5
77
100
AcDbEntity
8
1
62
256
6
ByLayer
370
18
48
1
60
1
100
AcDbPoint
10
68
20
0
30
0
39
0
210
0
220
0
230
1
50
360
0
POINT
5
78
100
AcDbEntity
8
1
62
256
6
ByLayer
370
18
48
1
60
1
100
AcDbPoint
10
67.0355
20
-2.65
30
0
39
0
210
0
220
0
230
1
50
360
0
POINT
5
79
100
AcDbEntity
8
1
62
256
6
ByLayer
370
18
48
1
60
1
100
AcDbPoint
10
67.0355
20
2.65
30
0
39
0
210
0
220
0
230
1
50
360
0
POINT
5
7A
100
AcDbEntity
8
1
62
256
6
ByLayer
370
18
48
1
60
1
100
AcDbPoint
10
-36
20
3
30
0
39
0
210
0
220
0
230
1
50
360
0
POINT
5
7B
100
AcDbEntity
8
1
62
256
6
ByLayer
370
18
48
1
60
1
100
AcDbPoint
10
-36
20
-3
30
0
39
0
210
0
220
0
230
1
50
360
0
POINT
5
7C
100
AcDbEntity
8
1
62
256
6
ByLayer
370
18
48
1
60
1
100
AcDbPoint
10
-36
20
-3
30
0
39
0
210
0
220
0
230
1
50
360
0
POINT
5
7D
100
AcDbEntity
8
1
62
256
6
ByLayer
370
18
48
1
60
1
100
AcDbPoint
10
0
20
-3
30
0
39
0
210
0
220
0
230
1
50
360
0
POINT
5
7E
100
AcDbEntity
8
1
62
256
6
ByLayer
370
18
48
1
60
1
100
AcDbPoint
10
6
20
3.15
30
0
39
0
210
0
220
0
230
1
50
360
0
POINT
5
7F
100
AcDbEntity
8
1
62
256
6
ByLayer
370
18
48
1
60
1
100
AcDbPoint
10
68
20
0
30
0
39
0
210
0
220
0
230
1
50
360
0
POINT
5
80
100
AcDbEntity
8
1
62
256
6
ByLayer
370
18
48
1
60
1
100
AcDbPoint
10
24.7
20
-2.65
30
0
39
0
210
0
220
0
230
1
50
360
0
POINT
5
81
100
AcDbEntity
8
1
62
256
6
ByLayer
370
18
48
1
60
1
100
AcDbPoint
10
68
20
0
30
0
39
0
210
0
220
0
230
1
50
360
0
POINT
5
82
100
AcDbEntity
8
1
62
256
6
ByLayer
370
18
48
1
60
1
100
AcDbPoint
10
-36
20
0
30
0
39
0
210
0
220
0
230
1
50
360
0
POINT
5
83
100
AcDbEntity
8
1
62
256
6
ByLayer
370
18
48
1
60
1
100
AcDbPoint
10
68
20
0
30
0
39
0
210
0
220
0
230
1
50
360
0
SPLINE
5
C0
100
AcDbEntity
8
1
62
256
6
ByLayer
370
18
48
1
60
0
100
AcDbSpline
70
4
71
3
72
34
73
30
40
0
40
0
40
0
40
0
40
0.0472890903868019
40
0.0472890903868019
40
0.0905941317328527
40
0.0905941317328527
40
0.133899173078904
40
0.133899173078904
40
0.220509255771009
40
0.220509255771009
40
0.307119338463114
40
0.307119338463114
40
0.350424379809169
40
0.350424379809169
40
0.393729421155223
40
0.393729421155223
40
0.480339503847332
40
0.480339503847332
40
0.523644545193386
40
0.523644545193386
40
0.566949586539441
40
0.566949586539441
40
0.653559669231553
40
0.653559669231553
40
0.740169751923666
40
0.740169751923666
40
0.826779834615778
40
0.826779834615778
40
1
40
1
40
1
40
1
41
1
10
50.6949107027336
20
-0.240396850359986
30
0
41
1
10
50.5519416945489
20
-0.172163850995702
30
0
41
1
10
50.4086770011688
20
-0.103494217475685
30
0
41
1
10
50.1335918674737
20
0.0290466360124526
30
0
41
1
10
50.0015786733946
20
0.0929074953729412
30
0
41
1
10
49.7383063694328
20
0.219722833171545
30
0
41
1
10
49.6069770997126
20
0.282745287919283
30
0
41
1
10
49.2139769662914
20
0.470548450103252
30
0
41
1
10
48.9530167763757
20
0.593770405807817
30
0
41
1
10
48.4316605049343
20
0.833828175937981
30
-1E-16
41
1
10
48.1714380304027
20
0.950908734975144
30
-1E-16
41
1
10
47.7818225053306
20
1.12086094188965
30
-1E-16
41
1
10
47.6520748486416
20
1.17655655801622
30
-1E-16
41
1
10
47.3922724425871
20
1.28559273541848
30
-1E-16
41
1
10
47.2622121604239
20
1.33892841633025
30
-1E-16
41
1
10
46.8715565503846
20
1.49522048840754
30
-1E-16
41
1
10
46.6104943202931
20
1.59448887499767
30
-1E-16
41
1
10
46.2176887410723
20
1.73405404357777
30
-1E-16
41
1
10
46.0865591155923
20
1.77901050522232
30
-1E-16
41
1
10
45.8235429638383
20
1.86572451041906
30
1E-16
41
1
10
45.6914118714294
20
1.90755579757044
30
1E-16
41
1
10
45.2960608324434
20
2.02719108499127
30
1E-16
41
1
10
45.0337454548468
20
2.09922037376853
30
1E-16
41
1
10
44.5110327235923
20
2.22617858828917
30
1E-16
41
1
10
44.250647236161
20
2.28110339438999
30
1E-16
41
1
10
43.7305781677163
20
2.3728890597211
30
0
41
1
10
43.4707891188128
20
2.40993758155776
30
0
41
1
10
42.6897263961101
20
2.49601718304333
30
0
41
1
10
42.1679106402349
20
2.51808026119343
30
0
41
1
10
41.6416635157718
20
2.49597815422973
30
0
0
SPLINE
5
C1
100
AcDbEntity
8
1
62
256
6
ByLayer
370
18
48
1
60
0
100
AcDbSpline
70
4
71
3
72
8
73
4
40
0
40
0
40
0
40
0
40
1
40
1
40
1
40
1
41
1
10
67.0770804262216
20
2.54326637114829
30
0
41
1
10
67.0784037622524
20
2.54237389367694
30
0
41
1
10
67.0797271168702
20
2.54148132975436
30
0
41
1
10
67.0810504902207
20
2.54058867940762
30
0
0
SPLINE
5
C2
100
AcDbEntity
8
1
62
256
6
ByLayer
370
18
48
1
60
0
100
AcDbSpline
70
4
71
3
72
8
73
4
40
0
40
0
40
0
40
0
40
1
40
1
40
1
40
1
41
1
10
41.6476851740957
20
2.62655362497333
30
0
41
1
10
41.6471278915573
20
2.58612451839156
30
0
41
1
10
41.6465626099812
20
2.545696158118
30
0
41
1
10
41.6459893330563
20
2.50526859464296
30
0
0
SPLINE
5
C3
100
AcDbEntity
8
1
62
256
6
ByLayer
370
18
48
1
60
0
100
AcDbSpline
70
4
71
3
72
24
73
20
40
0
40
0
40
0
40
0
40
0.0367945495526684
40
0.0367945495526684
40
0.227688969417252
40
0.227688969417252
40
0.323136179349543
40
0.323136179349543
40
0.418583389281834
40
0.418583389281834
40
0.609477809146413
40
0.609477809146413
40
0.704925019078703
40
0.704925019078703
40
0.752648624044848
40
0.752648624044848
40
0.800372229010992
40
0.800372229010992
40
1
40
1
40
1
40
1
41
1
10
51.4367771798383
20
-2.51779493439423
30
0
41
1
10
51.3353197839647
20
-2.51826572923292
30
0
41
1
10
51.2338749831898
20
-2.5172881269047
30
0
41
1
10
50.6060003922618
20
-2.50222756163981
30
0
41
1
10
50.0790464470762
20
-2.45148586721933
30
0
41
1
10
49.2809603081155
20
-2.31768041415125
30
0
41
1
10
49.0132339626938
20
-2.26353509655439
30
-1E-16
41
1
10
48.4819505215039
20
-2.1387127455707
30
-1E-16
41
1
10
48.217484476862
20
-2.06809684504015
30
-1E-16
41
1
10
47.4258650826155
20
-1.83369224979026
30
-1E-16
41
1
10
46.9005714152665
20
-1.64724136485432
30
1E-16
41
1
10
46.1094019898718
20
-1.33349601602165
30
1E-16
41
1
10
45.845141631348
20
-1.22315326914605
30
1E-16
41
1
10
45.447107626206
20
-1.05031131344981
30
1E-16
41
1
10
45.3141712100935
20
-0.991514091868254
30
1E-16
41
1
10
45.0476076303943
20
-0.871815545245795
30
1E-16
41
1
10
44.9138528411901
20
-0.810852312257339
30
0
41
1
10
44.2230795380598
20
-0.492294252646957
30
0
41
1
10
43.6704488507082
20
-0.224583997664922
30
0
41
1
10
43.1173273010039
20
0.0424316703836212
30
0
0
SPLINE
5
C4
100
AcDbEntity
8
1
62
256
6
ByLayer
370
18
48
1
60
0
100
AcDbSpline
70
4
71
3
72
8
73
4
40
0
40
0
40
0
40
0
40
1
40
1
40
1
40
1
41
1
10
66.6871300695215
20
-0.0581568767336194
30
0
41
1
10
66.6821267978857
20
0.0658097613479924
30
0
41
1
10
66.681208472821
20
0.189471662701493
30
0
41
1
10
66.6858349147679
20
0.312833930395186
30
0
0
SPLINE
5
C5
100
AcDbEntity
8
1
62
256
6
ByLayer
370
18
48
1
60
0
100
AcDbSpline
70
4
71
3
72
22
73
18
40
0
40
0
40
0
40
0
40
0.2440066490215
40
0.2440066490215
40
0.36600997353225
40
0.36600997353225
40
0.488013298042999
40
0.488013298042999
40
0.732019947064501
40
0.732019947064501
40
0.854023271575252
40
0.854023271575252
40
0.915024933830626
40
0.915024933830626
40
0.976026596086001
40
0.976026596086001
40
1
40
1
40
1
40
1
41
1
10
9.73973479707539
20
-0.0152797289253499
30
0
41
1
10
10.4082175885318
20
-0.351031406633268
30
0
41
1
10
11.0671163139779
20
-0.681817614509725
30
0
41
1
10
12.0557531079895
20
-1.14217757818253
30
1E-16
41
1
10
12.385324210432
20
-1.28972092123979
30
1E-16
41
1
10
13.0468580238185
20
-1.56859998219312
30
1E-16
41
1
10
13.3793201169418
20
-1.70005499135334
30
1E-16
41
1
10
14.3809860914236
20
-2.062374627727
30
-1E-16
41
1
10
15.0395489486271
20
-2.2554273219894
30
-1E-16
41
1
10
16.0280285775541
20
-2.45858315026581
30
0
41
1
10
16.3575779530318
20
-2.51196548478299
30
0
41
1
10
16.8538338447995
20
-2.56903695260567
30
0
41
1
10
17.019581717503
20
-2.58422789338607
30
0
41
1
10
17.3519969069452
20
-2.60673581628203
30
0
41
1
10
17.5190182997571
20
-2.61405311555095
30
0
41
1
10
17.7513595985332
20
-2.6185890701301
30
0
41
1
10
17.8168212591256
20
-2.61924258688964
30
0
41
1
10
17.8822048643363
20
-2.61927490969077
30
0
0
SPLINE
5
C6
100
AcDbEntity
8
1
62
256
6
ByLayer
370
18
48
1
60
0
100
AcDbSpline
70
4
71
3
72
30
73
26
40
0
40
0
40
0
40
0
40
0.108256778766867
40
0.108256778766867
40
0.197431100890181
40
0.197431100890181
40
0.242018261951837
40
0.242018261951837
40
0.286605423013494
40
0.286605423013494
40
0.464954067260123
40
0.464954067260123
40
0.554128389383437
40
0.554128389383437
40
0.598715550445093
40
0.598715550445093
40
0.64330271150675
40
0.64330271150675
40
0.821651355753374
40
0.821651355753374
40
0.910825677876687
40
0.910825677876687
40
0.955412838938344
40
0.955412838938344
40
1
40
1
40
1
40
1
41
1
10
30.3782732602241
20
1.94118614058317
30
1E-16
41
1
10
30.7794199090179
20
2.07785422492847
30
1E-16
41
1
10
31.1787312752714
20
2.19664973046315
30
1E-16
41
1
10
31.9075374389258
20
2.37631541252995
30
1E-16
41
1
10
32.236892423606
20
2.44376505377411
30
0
41
1
10
32.7330530821038
20
2.52254412295724
30
0
41
1
10
32.8987893120946
20
2.54507824318083
30
0
41
1
10
33.2312478249083
20
2.58241773447631
30
0
41
1
10
33.3983740225093
20
2.59723535415969
30
0
41
1
10
34.2308084081558
20
2.65094805010685
30
0
41
1
10
34.8881359582578
20
2.62912886654974
30
0
41
1
10
35.8754891979791
20
2.50421673738541
30
0
41
1
10
36.2048518661732
20
2.44725367022622
30
0
41
1
10
36.7010164112835
20
2.33968666086929
30
1E-16
41
1
10
36.8667548647877
20
2.30014109542924
30
1E-16
41
1
10
37.1992625299813
20
2.21386837704449
30
1E-16
41
1
10
37.3663947746675
20
2.16701536356956
30
1E-16
41
1
10
38.1984306360707
20
1.91749762141197
30
1E-16
41
1
10
38.8554777927575
20
1.66830547395796
30
-1E-16
41
1
10
39.8427104952386
20
1.2437497795284
30
-1E-16
41
1
10
40.1720589952773
20
1.09378221874311
30
-1E-16
41
1
10
40.6682401911737
20
0.85914402332088
30
-1E-16
41
1
10
40.8339999279771
20
0.7793292408968
30
0
41
1
10
41.1665652807025
20
0.617049435482556
30
0
41
1
10
41.3336919968365
20
0.534426169417259
30
0
41
1
10
41.4999999999878
20
0.451477788292692
30
0
0
SPLINE
5
C7
100
AcDbEntity
8
1
62
256
6
ByLayer
370
18
48
1
60
0
100
AcDbSpline
70
4
71
3
72
26
73
22
40
0
40
0
40
0
40
0
40
0.125
40
0.125
40
0.25
40
0.25
40
0.375000000000001
40
0.375000000000001
40
0.437500000000001
40
0.437500000000001
40
0.500000000000001
40
0.500000000000001
40
0.625000000000001
40
0.625000000000001
40
0.687500000000001
40
0.687500000000001
40
0.750000000000001
40
0.750000000000001
40
0.875
40
0.875
40
1
40
1
40
1
40
1
41
1
10
41.6027700822633
20
2.4950329539223
30
0
41
1
10
41.602759069762
20
2.50570574221427
30
0
41
1
10
41.6027455500472
20
2.50450976573183
30
0
41
1
10
41.60271502955
20
2.47912112774469
30
0
41
1
10
41.6026980081146
20
2.45508882853025
30
0
41
1
10
41.602660817059
20
2.38446821837644
30
0
41
1
10
41.6026404792842
20
2.33737071178464
30
0
41
1
10
41.6026083423569
20
2.25109213760911
30
1E-16
41
1
10
41.6025973418228
20
2.21972263937127
30
1E-16
41
1
10
41.6025747291718
20
2.15175732560067
30
1E-16
41
1
10
41.6025630719837
20
2.11501072191308
30
1E-16
41
1
10
41.6025274373207
20
1.99795680647568
30
1E-16
41
1
10
41.6025028968646
20
1.91122923373911
30
1E-16
41
1
10
41.6024644466846
20
1.76850513079808
30
-1E-16
41
1
10
41.6024513536941
20
1.71881377350047
30
-1E-16
41
1
10
41.6024244975602
20
1.6151319408545
30
-1E-16
41
1
10
41.60241067486
20
1.56090383916589
30
-1E-16
41
1
10
41.6023684210398
20
1.39330169839704
30
-1E-16
41
1
10
41.6023394371697
20
1.27597399143002
30
-1E-16
41
1
10
41.6022788479589
20
1.0305025410494
30
-1E-16
41
1
10
41.6022471742212
20
0.902065825146963
30
-1E-16
41
1
10
41.6022137233486
20
0.768575211858661
30
0
0
SPLINE
5
C8
100
AcDbEntity
8
1
62
256
6
ByLayer
370
18
48
1
60
0
100
AcDbSpline
70
4
71
3
72
8
73
4
40
0
40
0
40
0
40
0
40
1
40
1
40
1
40
1
41
1
10
41.6459893330563
20
2.50526859464296
30
0
41
1
10
41.6324823887982
20
2.50470613591983
30
0
41
1
10
41.617805027706
20
2.50434753921954
30
0
41
1
10
41.6027700822633
20
2.50424335151587
30
0
0
SPLINE
5
C9
100
AcDbEntity
8
1
62
256
6
ByLayer
370
18
48
1
60
0
100
AcDbSpline
70
4
71
3
72
14
73
10
40
0
40
0
40
0
40
0
40
0.411397495463815
40
0.411397495463815
40
0.617096243195723
40
0.617096243195723
40
0.822794990927631
40
0.822794990927631
40
1
40
1
40
1
40
1
41
1
10
67.0770804262219
20
2.54326637114698
30
0
41
1
10
66.5473201198481
20
2.5479847934123
30
0
41
1
10
66.0196386273338
20
2.5132105925519
30
0
41
1
10
65.2243572698268
20
2.40357247218196
30
0
41
1
10
64.9586310861205
20
2.35746200269708
30
0
41
1
10
64.4247767372977
20
2.24662508141651
30
1E-16
41
1
10
64.1559994248502
20
2.18154089599258
30
1E-16
41
1
10
63.6595274173047
20
2.04553853375322
30
1E-16
41
1
10
63.4306227781818
20
1.97666226169554
30
1E-16
41
1
10
63.2022063747787
20
1.90246606110128
30
1E-16
0
SPLINE
5
CA
100
AcDbEntity
8
1
62
256
6
ByLayer
370
18
48
1
60
0
100
AcDbSpline
70
4
71
3
72
10
73
6
40
0
40
0
40
0
40
0
40
0.0793763491384634
40
0.0793763491384634
40
1
40
1
40
1
40
1
41
1
10
43.2408358929862
20
-0.382673630872716
30
0
41
1
10
43.1946778205807
20
-0.360364632939309
30
0
41
1
10
43.1485431400615
20
-0.338021053288912
30
0
41
1
10
42.5678114709583
20
-0.0562751417890581
30
0
41
1
10
42.0352585155188
20
0.206970001727114
30
0
41
1
10
41.4999999999999
20
0.464207104076081
30
0
0
SPLINE
5
CB
100
AcDbEntity
8
1
62
256
6
ByLayer
370
18
48
1
60
0
100
AcDbSpline
70
4
71
3
72
36
73
32
40
0
40
0
40
0
40
0
40
0.102022545724891
40
0.102022545724891
40
0.153033818587337
40
0.153033818587337
40
0.204045091449783
40
0.204045091449783
40
0.306067637174672
40
0.306067637174672
40
0.357078910037117
40
0.357078910037117
40
0.408090182899561
40
0.408090182899561
40
0.510112728624451
40
0.510112728624451
40
0.561124001486895
40
0.561124001486895
40
0.61213527434934
40
0.61213527434934
40
0.714157820074227
40
0.714157820074227
40
0.816180365799114
40
0.816180365799114
40
0.841686002230335
40
0.841686002230335
40
0.867191638661557
40
0.867191638661557
40
0.918202911524001
40
0.918202911524001
40
1
40
1
40
1
40
1
41
1
10
66.9065981065338
20
-2.61684691790245
30
0
41
1
10
66.3754979724027
20
-2.57381348361096
30
0
41
1
10
65.8459285894543
20
-2.49003879013222
30
0
41
1
10
65.0469521101258
20
-2.30766293088536
30
-1E-16
41
1
10
64.781714918912
20
-2.23771546439525
30
-1E-16
41
1
10
64.2535459033658
20
-2.08189195135503
30
-1E-16
41
1
10
63.9904433231545
20
-1.9958484480054
30
-1E-16
41
1
10
63.2019975497952
20
-1.71629437249658
30
1E-16
41
1
10
62.6774166209161
20
-1.5015221085026
30
1E-16
41
1
10
61.8851375612837
20
-1.14759060466849
30
1E-16
41
1
10
61.6200030621762
20
-1.02412163506645
30
1E-16
41
1
10
61.087377410213
20
-0.769143968089452
30
0
41
1
10
60.8225425836968
20
-0.638950401936626
30
0
41
1
10
60.0306945537913
20
-0.243840258163402
30
0
41
1
10
59.5064813065009
20
0.0258923201836012
30
0
41
1
10
58.7176904473752
20
0.423864213012081
30
0
41
1
10
58.4545369595947
20
0.555796610325899
30
0
41
1
10
57.9262613841008
20
0.815148910155898
30
0
41
1
10
57.6606582783265
20
0.942674060350811
30
-1E-16
41
1
10
56.8618516899731
20
1.31354052271496
30
-1E-16
41
1
10
56.3353508463172
20
1.54139182999924
30
-1E-16
41
1
10
55.2841477043788
20
1.94259328892446
30
1E-16
41
1
10
54.7593592735924
20
2.11588111842667
30
1E-16
41
1
10
54.0986442441941
20
2.29028758064231
30
1E-16
41
1
10
53.9662430595846
20
2.32303514780608
30
1E-16
41
1
10
53.7007795717521
20
2.38407313367557
30
1E-16
41
1
10
53.567478303515
20
2.41240826840428
30
1E-16
41
1
10
53.168214069638
20
2.49008401015971
30
0
41
1
10
52.9035079161917
20
2.53202726769388
30
0
41
1
10
52.2164917410324
20
2.61519807064639
30
0
41
1
10
51.7954822861078
20
2.64068901409584
30
0
41
1
10
51.3740668922505
20
2.64020327756432
30
0
0
SPLINE
5
CC
100
AcDbEntity
8
1
62
256
6
ByLayer
370
18
48
1
60
0
100
AcDbSpline
70
4
71
3
72
56
73
52
40
0
40
0
40
0
40
0
40
0.124999999999985
40
0.124999999999985
40
0.187499999999977
40
0.187499999999977
40
0.24999999999997
40
0.24999999999997
40
0.281249999999965
40
0.281249999999965
40
0.31249999999996
40
0.31249999999996
40
0.343749999999956
40
0.343749999999956
40
0.374999999999951
40
0.374999999999951
40
0.390624999999949
40
0.390624999999949
40
0.406249999999946
40
0.406249999999946
40
0.437499999999942
40
0.437499999999942
40
0.468749999999937
40
0.468749999999937
40
0.484374999999935
40
0.484374999999935
40
0.499999999999932
40
0.499999999999932
40
0.531249999999926
40
0.531249999999926
40
0.562499999999921
40
0.562499999999921
40
0.624999999999911
40
0.624999999999911
40
0.687499999999902
40
0.687499999999902
40
0.718749999999897
40
0.718749999999897
40
0.722656249999899
40
0.722656249999899
40
0.7265624999999
40
0.7265624999999
40
0.734374999999903
40
0.734374999999903
40
0.742187499999906
40
0.742187499999906
40
0.749999999999908
40
0.749999999999908
40
0.874999999999954
40
0.874999999999954
40
1
40
1
40
1
40
1
41
1
10
8.363925405852
20
-2.46390711919196
30
0
41
1
10
8.05785835989062
20
-2.4128911825274
30
-1E-16
41
1
10
7.75838102040063
20
-2.34666320755645
30
-1E-16
41
1
10
7.32390786931029
20
-2.21119033723772
30
-1E-16
41
1
10
7.18156905606298
20
-2.15993738548082
30
-1E-16
41
1
10
6.9037294662547
20
-2.04030956314918
30
-1E-16
41
1
10
6.76947104429814
20
-1.97254586974296
30
-1E-16
41
1
10
6.5794515455465
20
-1.85368262341012
30
-1E-16
41
1
10
6.51772203156162
20
-1.81092400607514
30
1E-16
41
1
10
6.40053936040579
20
-1.71892969506646
30
1E-16
41
1
10
6.34517694906506
20
-1.66982685521768
30
1E-16
41
1
10
6.24263946141559
20
-1.56374043250031
30
1E-16
41
1
10
6.19543411806637
20
-1.50678551694122
30
1E-16
41
1
10
6.11210573973423
20
-1.38221897751396
30
1E-16
41
1
10
6.07601180353771
20
-1.31412031373506
30
1E-16
41
1
10
6.03592135103526
20
-1.20663934826706
30
1E-16
41
1
10
6.02477443752457
20
-1.1697540306339
30
1E-16
41
1
10
6.00746053232911
20
-1.09361231758101
30
1E-16
41
1
10
6.00132714411876
20
-1.05420525393012
30
1E-16
41
1
10
5.99150611802122
20
-0.935850828109324
30
1E-16
41
1
10
5.99603161102419
20
-0.855666073532518
30
1E-16
41
1
10
6.02744474847196
20
-0.692773218755406
30
0
41
1
10
6.05373274961374
20
-0.61323681991658
30
0
41
1
10
6.10570901822007
20
-0.497396425814543
30
0
41
1
10
6.12525495281125
20
-0.459147284293493
30
0
41
1
10
6.16734653615558
20
-0.385029074980395
30
0
41
1
10
6.18995046762348
20
-0.348990403470594
30
0
41
1
10
6.26174282715439
20
-0.243484554240751
30
0
41
1
10
6.31487781403936
20
-0.176605413364541
30
0
41
1
10
6.42924635169402
20
-0.0481721986663501
30
0
41
1
10
6.49020063526882
20
0.0129846722735181
30
0
41
1
10
6.6787018640162
20
0.186642868085357
30
0
41
1
10
6.81303726454263
20
0.290942430890823
30
0
41
1
10
7.09280968716723
20
0.48490148465288
30
0
41
1
10
7.23854909396749
20
0.574482895655507
30
0
41
1
10
7.46110358060278
20
0.699505037771388
30
0
41
1
10
7.53608076025654
20
0.73968083387652
30
0
41
1
10
7.6211027426132
20
0.783368603929603
30
0
41
1
10
7.63037620308688
20
0.788592426951624
30
0
41
1
10
7.64993116451166
20
0.796943541339715
30
0
41
1
10
7.6601803692476
20
0.800089865043503
30
0
41
1
10
7.69159476653903
20
0.804469937795659
30
0
41
1
10
7.71315602992152
20
0.803517099176304
30
0
41
1
10
7.7545114537503
20
0.795087682177552
30
0
41
1
10
7.77471381241236
20
0.788122694631028
30
0
41
1
10
7.81534482673678
20
0.775831274615484
30
0
41
1
10
7.83564143013706
20
0.769620827618496
30
0
41
1
10
8.1803552666446
20
0.662957229725549
30
0
41
1
10
8.4994852345589
20
0.546006114079773
30
0
41
1
10
9.12684796413822
20
0.283947008047676
30
0
41
1
10
9.43547489441949
20
0.138697330241939
30
0
41
1
10
9.73973792021226
20
-0.0152809353915586
30
0
0
SPLINE
5
CD
100
AcDbEntity
8
1
62
256
6
ByLayer
370
18
48
1
60
0
100
AcDbSpline
70
4
71
3
72
18
73
14
40
0
40
0
40
0
40
0
40
0.536445075869969
40
0.536445075869969
40
0.733399270684918
40
0.733399270684918
40
0.85874107027395
40
0.85874107027395
40
0.938790611353503
40
0.938790611353503
40
0.989968263309469
40
0.989968263309469
40
1
40
1
40
1
40
1
41
1
10
66.9173244400084
20
-2.64960383432893
30
0
41
1
10
66.943815041024
20
-2.63223010585193
30
0
41
1
10
66.9703339963502
20
-2.61470487598851
30
0
41
1
10
67.0066793832543
20
-2.59050962310013
30
0
41
1
10
67.0164543959241
20
-2.58398492766131
30
0
41
1
10
67.0324568379428
20
-2.57327642302741
30
0
41
1
10
67.0386801540251
20
-2.56910526346314
30
0
41
1
10
67.0488649368081
20
-2.56226812419814
30
0
41
1
10
67.0528311190604
20
-2.55960288695175
30
0
41
1
10
67.0593237952108
20
-2.55523532876748
30
0
41
1
10
67.0618536039441
20
-2.55353241687149
30
0
41
1
10
67.0648757194793
20
-2.55149671751246
30
0
41
1
10
67.0653707207972
20
-2.55116323883757
30
0
41
1
10
67.0658656292428
20
-2.55082977749387
30
0
0
SPLINE
5
CE
100
AcDbEntity
8
1
62
256
6
ByLayer
370
18
48
1
60
0
100
AcDbSpline
70
4
71
3
72
10
73
6
40
0
40
0
40
0
40
0
40
0.5
40
0.5
40
1
40
1
40
1
40
1
41
1
10
66.9188950291743
20
0.429576586313885
30
0
41
1
10
66.8787640892807
20
0.418010161893932
30
0
41
1
10
66.8387777013215
20
0.401551260985229
30
0
41
1
10
66.7606824810517
20
0.36303332277447
30
0
41
1
10
66.7225915113579
20
0.340120432101258
30
0
41
1
10
66.6858349147748
20
0.31283393039476
30
0
0
SPLINE
5
CF
100
AcDbEntity
8
1
62
256
6
ByLayer
370
18
48
1
60
0
100
AcDbSpline
70
4
71
3
72
28
73
24
40
0
40
0
40
0
40
0
40
0.0804520012582984
40
0.0804520012582984
40
0.175718223586979
40
0.175718223586979
40
0.270984445915659
40
0.270984445915659
40
0.36625066824434
40
0.36625066824434
40
0.46151689057302
40
0.46151689057302
40
0.556783112901701
40
0.556783112901701
40
0.652049335230382
40
0.652049335230382
40
0.747315557559062
40
0.747315557559062
40
0.842581779887743
40
0.842581779887743
40
0.937848002216423
40
0.937848002216423
40
1
40
1
40
1
40
1
41
1
10
58.2351073147939
20
2.51906584959031
30
0
41
1
10
58.4545339447542
20
2.52271375292676
30
0
41
1
10
58.6736946955104
20
2.52031391505261
30
0
41
1
10
59.1536056779132
20
2.49821527699621
30
0
41
1
10
59.4144900048494
20
2.47609348582768
30
0
41
1
10
59.9373088348201
20
2.41461833075169
30
0
41
1
10
60.1992825123197
20
2.37565483787401
30
0
41
1
10
60.7266138040727
20
2.27662814497856
30
1E-16
41
1
10
60.9899953490017
20
2.21757452050659
30
1E-16
41
1
10
61.5155059212746
20
2.08498381045516
30
1E-16
41
1
10
61.7773348207818
20
2.0115322631045
30
1E-16
41
1
10
62.3033204252259
20
1.84757188142794
30
1E-16
41
1
10
62.5676347984005
20
1.75747190811776
30
-1E-16
41
1
10
63.0926944067131
20
1.56602162876024
30
-1E-16
41
1
10
63.35412198689
20
1.46452127529366
30
-1E-16
41
1
10
63.8754077741004
20
1.2517138978034
30
-1E-16
41
1
10
64.1351594223705
20
1.14034482244088
30
-1E-16
41
1
10
64.6550473419638
20
0.90993145278162
30
-1E-16
41
1
10
64.9149598854257
20
0.79082321798407
30
0
41
1
10
65.4363110750372
20
0.547596170876204
30
0
41
1
10
65.6976421283665
20
0.423416030307607
30
0
41
1
10
66.1308462448438
20
0.215134305065277
30
0
41
1
10
66.3024489913603
20
0.131991361703115
30
0
41
1
10
66.4741378805204
20
0.0484202756467766
30
0
0
SPLINE
5
D0
100
AcDbEntity
8
1
62
256
6
ByLayer
370
18
48
1
60
0
100
AcDbSpline
70
4
71
3
72
8
73
4
40
0
40
0
40
0
40
0
40
1
40
1
40
1
40
1
41
1
10
67.4817671778928
20
-0.428202287227748
30
0
41
1
10
67.329931182261
20
-0.174802119065674
30
0
41
1
10
67.1437758204552
20
0.109789349074049
30
0
41
1
10
66.9188950291745
20
0.42957658631417
30
0
0
SPLINE
5
D1
100
AcDbEntity
8
1
62
256
6
ByLayer
370
18
48
1
60
0
100
AcDbSpline
70
4
71
3
72
8
73
4
40
0
40
0
40
0
40
0
40
1
40
1
40
1
40
1
41
1
10
67.781375174562
20
0.808872143790694
30
0
41
1
10
67.8546851454665
20
0.602575655672638
30
0
41
1
10
67.9262819374478
20
0.395662945241668
30
0
41
1
10
67.9961428375456
20
0.188125842754005
30
0
0
SPLINE
5
D2
100
AcDbEntity
8
1
62
256
6
ByLayer
370
18
48
1
60
0
100
AcDbSpline
70
4
71
3
72
8
73
4
40
0
40
0
40
0
40
0
40
1
40
1
40
1
40
1
41
1
10
67.3329572601926
20
0.724869834361328
30
0
41
1
10
67.4835998234792
20
0.746171325868318
30
0
41
1
10
67.6335156180618
20
0.772558572260408
30
0
41
1
10
67.7813751745614
20
0.808872143790524
30
0
0
SPLINE
5
D3
100
AcDbEntity
8
1
62
256
6
ByLayer
370
18
48
1
60
0
100
AcDbSpline
70
4
71
3
72
48
73
44
40
0
40
0
40
0
40
0
40
0.0934623912822856
40
0.0934623912822856
40
0.140193586923427
40
0.140193586923427
40
0.186924782564569
40
0.186924782564569
40
0.233655978205711
40
0.233655978205711
40
0.280387173846853
40
0.280387173846853
40
0.327118369487995
40
0.327118369487995
40
0.350483967308567
40
0.350483967308567
40
0.373849565129138
40
0.373849565129138
40
0.42058076077028
40
0.42058076077028
40
0.467311956411422
40
0.467311956411422
40
0.514043152052564
40
0.514043152052564
40
0.560774347693706
40
0.560774347693706
40
0.607505543334848
40
0.607505543334848
40
0.654236738975989
40
0.654236738975989
40
0.700967934617131
40
0.700967934617131
40
0.747699130258273
40
0.747699130258273
40
0.794430325899415
40
0.794430325899415
40
0.841161521540557
40
0.841161521540557
40
0.934623912822842
40
0.934623912822842
40
0.981355108463985
40
0.981355108463985
40
1
40
1
40
1
40
1
41
1
10
41.6476851740958
20
2.62655362497333
30
0
41
1
10
42.1725694755683
20
2.64728045509835
30
0
41
1
10
42.6969673091532
20
2.62694216911532
30
0
41
1
10
43.4860775678905
20
2.5378373534393
30
0
41
1
10
43.7495377364306
20
2.4979551509953
30
0
41
1
10
44.2728708633888
20
2.40001914870615
30
1E-16
41
1
10
44.5335309227294
20
2.34200336781422
30
1E-16
41
1
10
45.0540624550887
20
2.20946507474062
30
1E-16
41
1
10
45.3139056650853
20
2.13493001748901
30
1E-16
41
1
10
45.8335093025966
20
1.9702808678756
30
1E-16
41
1
10
46.092912261342
20
1.8796366647052
30
1E-16
41
1
10
46.6136117784251
20
1.68520087461101
30
-1E-16
41
1
10
46.8750193617632
20
1.58169298363882
30
-1E-16
41
1
10
47.2686154259264
20
1.41665630583125
30
-1E-16
41
1
10
47.4002976428505
20
1.35991721693651
30
-1E-16
41
1
10
47.6630728237332
20
1.24366610668454
30
-1E-16
41
1
10
47.7940135241114
20
1.18427364185487
30
-1E-16
41
1
10
48.1864305294729
20
1.00408927873147
30
-1E-16
41
1
10
48.4473735630039
20
0.881064854362563
30
-1E-16
41
1
10
48.9678826073615
20
0.629235956346321
30
0
41
1
10
49.2273107220772
20
0.500147110415242
30
0
41
1
10
49.7462776884437
20
0.239079577942277
30
0
41
1
10
50.0057717698399
20
0.107012726893032
30
0
41
1
10
50.5263713586584
20
-0.15697740050615
30
0
41
1
10
50.7877172658901
20
-0.288393107932279
30
0
41
1
10
51.3122783539854
20
-0.550583137457949
30
0
41
1
10
51.5757425800331
20
-0.681847629920497
30
0
41
1
10
52.098911453253
20
-0.935262133348743
30
1E-16
41
1
10
52.3598648065367
20
-1.05738333786846
30
1E-16
41
1
10
52.8801193953929
20
-1.29352910769541
30
1E-16
41
1
10
53.1393566507045
20
-1.4075898739703
30
1E-16
41
1
10
53.658396159275
20
-1.62361421821049
30
1E-16
41
1
10
53.9183080877594
20
-1.72546664769538
30
1E-16
41
1
10
54.4387897756135
20
-1.91698384440045
30
-1E-16
41
1
10
54.699299222791
20
-2.00666201175156
30
-1E-16
41
1
10
55.2233694717771
20
-2.17006845015575
30
-1E-16
41
1
10
55.487491928015
20
-2.24383611358527
30
-1E-16
41
1
10
56.2729848614825
20
-2.43803572550306
30
-1E-16
41
1
10
56.7911274894569
20
-2.53201939105216
30
0
41
1
10
57.5698978926287
20
-2.61414728612777
30
0
41
1
10
57.8297844979684
20
-2.63186260221127
30
0
41
1
10
58.1937304726921
20
-2.64298348260576
30
0
41
1
10
58.2975535016857
20
-2.64457750500924
30
0
41
1
10
58.401500036085
20
-2.64458416394751
30
0
0
SPLINE
5
D4
100
AcDbEntity
8
1
62
256
6
ByLayer
370
18
48
1
60
0
100
AcDbSpline
70
4
71
3
72
8
73
4
40
0
40
0
40
0
40
0
40
1
40
1
40
1
40
1
41
1
10
67.0470298995351
20
-2.50580327054189
30
0
41
1
10
67.0427139428471
20
-2.51804120756549
30
0
41
1
10
67.0384157199406
20
-2.53027829976654
30
0
41
1
10
67.0341356404676
20
-2.54251467037301
30
0
0
SPLINE
5
D5
100
AcDbEntity
8
1
62
256
6
ByLayer
370
18
48
1
60
0
100
AcDbSpline
70
4
71
3
72
10
73
6
40
0
40
0
40
0
40
0
40
0.5
40
0.5
40
1
40
1
40
1
40
1
41
1
10
41.5568957871354
20
0.819932543865178
30
-1E-16
41
1
10
41.540358012756
20
0.827884656714531
30
-1E-16
41
1
10
41.5264761463858
20
0.840095891867946
30
-1E-16
41
1
10
41.5073060273839
20
0.869562219688959
30
-1E-16
41
1
10
41.5020582801495
20
0.886830508015834
30
-1E-16
41
1
10
41.5020582801494
20
0.904239838986399
30
-1E-16
0
SPLINE
5
D6
100
AcDbEntity
8
1
62
256
6
ByLayer
370
18
48
1
60
0
100
AcDbSpline
70
4
71
3
72
28
73
24
40
0
40
0
40
0
40
0
40
0.0939010469454715
40
0.0939010469454715
40
0.187802093890943
40
0.187802093890943
40
0.281703140836415
40
0.281703140836415
40
0.375604187781886
40
0.375604187781886
40
0.469505234727357
40
0.469505234727357
40
0.563406281672829
40
0.563406281672829
40
0.6573073286183
40
0.6573073286183
40
0.751208375563772
40
0.751208375563772
40
0.845109422509243
40
0.845109422509243
40
0.939010469454715
40
0.939010469454715
40
1
40
1
40
1
40
1
41
1
10
66.7537241405042
20
-0.0986751406672397
30
0
41
1
10
66.4905438444513
20
0.0294290791493381
30
0
41
1
10
66.2269413310512
20
0.157190707586921
30
0
41
1
10
65.702379874724
20
0.408555875856706
30
0
41
1
10
65.440933654974
20
0.532421973092283
30
0
41
1
10
64.919353896245
20
0.775140098972827
30
0
41
1
10
64.6593291163722
20
0.894050753737986
30
-1E-16
41
1
10
64.1392290818558
20
1.12418167217885
30
-1E-16
41
1
10
63.8793758760732
20
1.23546359451728
30
-1E-16
41
1
10
63.3579124428945
20
1.44818709304437
30
-1E-16
41
1
10
63.0964057808786
20
1.54969750281592
30
-1E-16
41
1
10
62.5712132499874
20
1.74128505422127
30
-1E-16
41
1
10
62.3068313092248
20
1.83151716196531
30
1E-16
41
1
10
61.7806474414546
20
1.99589999473
30
1E-16
41
1
10
61.5187171611286
20
2.06960675778387
30
1E-16
41
1
10
60.9930384263099
20
2.20275203084506
30
1E-16
41
1
10
60.7295809632079
20
2.26214916631051
30
1E-16
41
1
10
60.2021102666039
20
2.36200783251496
30
0
41
1
10
59.9399843625452
20
2.40144021649488
30
0
41
1
10
59.4169464227141
20
2.46386532106226
30
0
41
1
10
59.1559521097042
20
2.48651606468255
30
0
41
1
10
58.7265894835467
20
2.50722234134605
30
0
41
1
10
58.5578586457567
20
2.51082383246413
30
0
41
1
10
58.3890867104519
20
2.51062525067388
30
0
0
SPLINE
5
D7
100
AcDbEntity
8
1
62
256
6
ByLayer
370
18
48
1
60
0
100
AcDbSpline
70
4
71
3
72
28
73
24
40
0
40
0
40
0
40
0
40
0.120525041242383
40
0.120525041242383
40
0.241050082484767
40
0.241050082484767
40
0.36157512372715
40
0.36157512372715
40
0.421837644348344
40
0.421837644348344
40
0.482100164969537
40
0.482100164969537
40
0.602625206211921
40
0.602625206211921
40
0.723150247454304
40
0.723150247454304
40
0.843675288696687
40
0.843675288696687
40
0.903937809317876
40
0.903937809317876
40
0.964200329939066
40
0.964200329939066
40
1
40
1
40
1
40
1
41
1
10
66.6858349147677
20
0.312833930389473
30
0
41
1
10
66.381977210004
20
0.466591974178044
30
0
41
1
10
66.0791510770695
20
0.617473120263384
30
0
41
1
10
65.4752318363325
20
0.912920224200207
30
-1E-16
41
1
10
65.1731335923217
20
1.05554961060767
30
-1E-16
41
1
10
64.5684599092154
20
1.33031935845062
30
-1E-16
41
1
10
64.2659473647348
20
1.46249984033975
30
-1E-16
41
1
10
63.8091681955553
20
1.64809052568526
30
-1E-16
41
1
10
63.6565169229015
20
1.70804042022647
30
-1E-16
41
1
10
63.3506166165108
20
1.82433590380376
30
1E-16
41
1
10
63.1977917797775
20
1.88012358868053
30
1E-16
41
1
10
62.7407429313106
20
2.03891750707206
30
1E-16
41
1
10
62.4373741565661
20
2.13396587069698
30
1E-16
41
1
10
61.8327792299886
20
2.30214075240312
30
1E-16
41
1
10
61.530568863559
20
2.37420209120703
30
1E-16
41
1
10
60.9262842750497
20
2.49450157275985
30
0
41
1
10
60.6241546989817
20
2.54251432480825
30
0
41
1
10
60.168367702722
20
2.59455305705399
30
0
41
1
10
60.0161330095867
20
2.60866217323985
30
0
41
1
10
59.7111768371445
20
2.63026799098412
30
0
41
1
10
59.5579236362404
20
2.6376929032057
30
0
41
1
10
59.314292836079
20
2.64399096212085
30
0
41
1
10
59.2236429151242
20
2.64512989545244
30
0
41
1
10
59.1331282402417
20
2.64506839395435
30
0
0
SPLINE
5
D8
100
AcDbEntity
8
1
62
256
6
ByLayer
370
18
48
1
60
0
100
AcDbSpline
70
4
71
3
72
70
73
66
40
0
40
0
40
0
40
0
40
0.0245668308805787
40
0.0245668308805787
40
0.0685905467226174
40
0.0685905467226174
40
0.112614262564656
40
0.112614262564656
40
0.134626120485675
40
0.134626120485675
40
0.156637978406693
40
0.156637978406693
40
0.200661694248732
40
0.200661694248732
40
0.244685410090771
40
0.244685410090771
40
0.28870912593281
40
0.28870912593281
40
0.310720983853829
40
0.310720983853829
40
0.332732841774849
40
0.332732841774849
40
0.354744699695868
40
0.354744699695868
40
0.376756557616888
40
0.376756557616888
40
0.420780273458926
40
0.420780273458926
40
0.464803989300965
40
0.464803989300965
40
0.486815847221985
40
0.486815847221985
40
0.508827705143004
40
0.508827705143004
40
0.530839563064024
40
0.530839563064024
40
0.552851420985043
40
0.552851420985043
40
0.596875136827083
40
0.596875136827083
40
0.640898852669124
40
0.640898852669124
40
0.662910710590143
40
0.662910710590143
40
0.684922568511163
40
0.684922568511163
40
0.7289462843532
40
0.7289462843532
40
0.772970000195237
40
0.772970000195237
40
0.816993716037274
40
0.816993716037274
40
0.839005573958292
40
0.839005573958292
40
0.86101743187931
40
0.86101743187931
40
0.905041147721344
40
0.905041147721344
40
0.927053005642361
40
0.927053005642361
40
0.949064863563378
40
0.949064863563378
40
0.993088579405412
40
0.993088579405412
40
1
40
1
40
1
40
1
41
1
10
47.1619440452258
20
-1.76263252435044
30
0
41
1
10
46.9921475196381
20
-1.82648438046257
30
0
41
1
10
46.8227451214454
20
-1.88731678080126
30
-1E-16
41
1
10
46.3509638863721
20
-2.04901861401947
30
-1E-16
41
1
10
46.0490131395999
20
-2.14257369048491
30
-1E-16
41
1
10
45.4441497388605
20
-2.3063902133037
30
-1E-16
41
1
10
45.1422110439732
20
-2.37764325533971
30
-1E-16
41
1
10
44.6870521747199
20
-2.46545974083819
30
0
41
1
10
44.5349582284481
20
-2.49159341769769
30
0
41
1
10
44.2301935526369
20
-2.53764666033564
30
0
41
1
10
44.0776625531854
20
-2.55762506635102
30
0
41
1
10
43.618215185298
20
-2.60740431384434
30
0
41
1
10
43.3127869603515
20
-2.6268170684213
30
0
41
1
10
42.7059063415913
20
-2.63886535208056
30
0
41
1
10
42.4035392739045
20
-2.6313049504746
30
0
41
1
10
41.7984944556245
20
-2.5899716816121
30
0
41
1
10
41.4967654812476
20
-2.55584709961573
30
0
41
1
10
41.0423089607245
20
-2.48562425606389
30
0
41
1
10
40.8905175075395
20
-2.45908857973942
30
0
41
1
10
40.5865501842247
20
-2.39953947444735
30
-1E-16
41
1
10
40.4344885904562
20
-2.36639855425651
30
-1E-16
41
1
10
40.1292523437561
20
-2.29408632969725
30
-1E-16
41
1
10
39.975796502212
20
-2.25478827634598
30
-1E-16
41
1
10
39.6696130048325
20
-2.1708172071983
30
-1E-16
41
1
10
39.5169263639139
20
-2.12618377992138
30
-1E-16
41
1
10
39.0605707285792
20
-1.98376025797054
30
-1E-16
41
1
10
38.7576299938631
20
-1.87864472122877
30
-1E-16
41
1
10
38.1521176669005
20
-1.65173694533976
30
1E-16
41
1
10
37.8504531538645
20
-1.5285071710945
30
1E-16
41
1
10
37.3964730690451
20
-1.33398421524876
30
1E-16
41
1
10
37.2449070366399
20
-1.26754732220232
30
1E-16
41
1
10
36.9415846364719
20
-1.1309389655396
30
1E-16
41
1
10
36.7899077439412
20
-1.06059958269921
30
1E-16
41
1
10
36.4855703764531
20
-0.917571578118043
30
1E-16
41
1
10
36.3329756395151
20
-0.844769298101966
30
1E-16
41
1
10
36.0267297430932
20
-0.696975993914123
30
0
41
1
10
35.8731419662251
20
-0.621958950483361
30
0
41
1
10
35.415289830397
20
-0.394604370664212
30
0
41
1
10
35.1115891331679
20
-0.241419465757588
30
0
41
1
10
34.505247446862
20
0.0641528734489327
30
0
41
1
10
34.2034614040143
20
0.218274148597629
30
0
41
1
10
33.7497059966232
20
0.445075379126337
30
0
41
1
10
33.5982857944442
20
0.519973586342047
30
0
41
1
10
33.2954579245289
20
0.669058054353769
30
0
41
1
10
33.1440843326891
20
0.743307834708958
30
0
41
1
10
32.6886952381079
20
0.962419108602745
30
-1E-16
41
1
10
32.3832960886563
20
1.10384859234745
30
-1E-16
41
1
10
31.7703471127862
20
1.37770358796536
30
-1E-16
41
1
10
31.4656592160931
20
1.50675908323791
30
-1E-16
41
1
10
30.858068639964
20
1.74694792010871
30
-1E-16
41
1
10
30.5559524853114
20
1.8592392459077
30
1E-16
41
1
10
30.1021101576954
20
2.01138002246597
30
1E-16
41
1
10
29.9507328577523
20
2.0594401209822
30
1E-16
41
1
10
29.6481938662874
20
2.15074702439233
30
1E-16
41
1
10
29.4970121100897
20
2.19394059159922
30
1E-16
41
1
10
29.0424240035236
20
2.31458673442975
30
1E-16
41
1
10
28.7380484866518
20
2.3833489826371
30
1E-16
41
1
10
28.2798442455094
20
2.46882820994659
30
0
41
1
10
28.1263281101573
20
2.4942384500099
30
0
41
1
10
27.8202716185669
20
2.53818147359397
30
0
41
1
10
27.6675959614774
20
2.55676352374763
30
0
41
1
10
27.2106784082699
20
2.60259485785014
30
0
41
1
10
26.9080239559096
20
2.61994232571337
30
0
41
1
10
26.55766690105
20
2.62441061450139
30
0
41
1
10
26.5101249698212
20
2.62469027057415
30
0
41
1
10
26.4625880983738
20
2.62464249761769
30
0
0
SPLINE
5
D9
100
AcDbEntity
8
1
62
256
6
ByLayer
370
18
48
1
60
0
100
AcDbSpline
70
4
71
3
72
24
73
20
40
0
40
0
40
0
40
0
40
0.0288086919312372
40
0.0288086919312372
40
0.190673909942699
40
0.190673909942699
40
0.27160651894843
40
0.27160651894843
40
0.352539127954161
40
0.352539127954161
40
0.433471736959892
40
0.433471736959892
40
0.514404345965624
40
0.514404345965624
40
0.676269563977082
40
0.676269563977082
40
0.838134781988542
40
0.838134781988542
40
1
40
1
40
1
40
1
41
1
10
14.0019932964116
20
-1.9250663718494
30
-1E-16
41
1
10
13.9481076961801
20
-1.94342520762356
30
-1E-16
41
1
10
13.8942233903713
20
-1.96149452702639
30
-1E-16
41
1
10
13.5375926790293
20
-2.07917031976316
30
-1E-16
41
1
10
13.2338067067961
20
-2.16845357696738
30
-1E-16
41
1
10
12.7762974717664
20
-2.28602172344529
30
-1E-16
41
1
10
12.6236521098498
20
-2.32262999881581
30
-1E-16
41
1
10
12.317107874032
20
-2.38958639179117
30
-1E-16
41
1
10
12.1636173411826
20
-2.41992545349191
30
0
41
1
10
11.8579054565783
20
-2.47392613783046
30
0
41
1
10
11.7054220692876
20
-2.49768165986777
30
0
41
1
10
11.4014855544219
20
-2.53888899810022
30
0
41
1
10
11.2498379130685
20
-2.55620607872788
30
0
41
1
10
10.7950897432802
20
-2.59811272954178
30
0
41
1
10
10.492296127963
20
-2.61281327744143
30
0
41
1
10
9.88703985898894
20
-2.61580618143631
30
0
41
1
10
9.58409279428844
20
-2.60404925701877
30
0
41
1
10
8.97647980291998
20
-2.55374007815914
30
0
41
1
10
8.67157442662148
20
-2.51512611988764
30
0
41
1
10
8.36393058883061
20
-2.46390241153932
30
0
0
SPLINE
5
DA
100
AcDbEntity
8
1
62
256
6
ByLayer
370
18
48
1
60
0
100
AcDbSpline
70
4
71
3
72
8
73
4
40
0
40
0
40
0
40
0
40
1
40
1
40
1
40
1
41
1
10
67.9961428375456
20
0.188125842754005
30
0
41
1
10
67.9816452190115
20
0.139099662666297
30
0
41
1
10
67.967057644201
20
0.0901024339475214
30
0
41
1
10
67.9523805345972
20
0.041134020948391
30
0
0
SPLINE
5
DB
100
AcDbEntity
8
1
62
256
6
ByLayer
370
18
48
1
60
0
100
AcDbSpline
70
4
71
3
72
10
73
6
40
0
40
0
40
0
40
0
40
0.5
40
0.5
40
1
40
1
40
1
40
1
41
1
10
66.9065981065304
20
-2.61684691790347
30
0
41
1
10
66.9086593792435
20
-2.62670329473139
30
0
41
1
10
66.9106123991037
20
-2.63439063220005
30
0
41
1
10
66.914166243482
20
-2.64534877786818
30
0
41
1
10
66.915797129428
20
-2.64861899316426
30
0
41
1
10
66.9173244400085
20
-2.6496038343289
30
0
0
SPLINE
5
DC
100
AcDbEntity
8
1
62
256
6
ByLayer
370
18
48
1
60
0
100
AcDbSpline
70
4
71
3
72
16
73
12
40
0
40
0
40
0
40
0
40
0.29647338825091
40
0.29647338825091
40
0.592946776501819
40
0.592946776501819
40
0.741183470627275
40
0.741183470627275
40
0.889420164752731
40
0.889420164752731
40
1
40
1
40
1
40
1
41
1
10
66.9188950291747
20
0.429576586313829
30
0
41
1
10
66.8858815499135
20
0.457998515832259
30
0
41
1
10
66.8543235764526
20
0.484266359166696
30
0
41
1
10
66.7960368874024
20
0.530688776431106
30
0
41
1
10
66.7679414604258
20
0.552535773412814
30
0
41
1
10
66.7307033162029
20
0.578920792253115
30
0
41
1
10
66.7191204911633
20
0.586623192440953
30
0
41
1
10
66.6986077299468
20
0.598963430316246
30
0
41
1
10
66.6898353651738
20
0.603380763226625
30
0
41
1
10
66.6757491210312
20
0.609640491174673
30
0
41
1
10
66.66976689873
20
0.612239422636719
30
0
41
1
10
66.664671478768
20
0.613864791318235
30
0
0
SPLINE
5
DD
100
AcDbEntity
8
1
62
256
6
ByLayer
370
18
48
1
60
0
100
AcDbSpline
70
4
71
3
72
8
73
4
40
0
40
0
40
0
40
0
40
1
40
1
40
1
40
1
41
1
10
66.9065981065327
20
-2.61684691790063
30
0
41
1
10
66.9490149366154
20
-2.59249869293186
30
0
41
1
10
66.9915227883187
20
-2.56771848641779
30
0
41
1
10
67.0341356404675
20
-2.54251467037292
30
0
0
SPLINE
5
DE
100
AcDbEntity
8
1
62
256
6
ByLayer
370
18
48
1
60
0
100
AcDbSpline
70
4
71
3
72
24
73
20
40
0
40
0
40
0
40
0
40
0.0859919455601813
40
0.0859919455601813
40
0.171983891120362
40
0.171983891120362
40
0.343967782240725
40
0.343967782240725
40
0.429959727800906
40
0.429959727800906
40
0.515951673361088
40
0.515951673361088
40
0.68793556448145
40
0.68793556448145
40
0.773927510041631
40
0.773927510041631
40
0.859919455601813
40
0.859919455601813
40
1
40
1
40
1
40
1
41
1
10
41.5
20
0.488401218741984
30
0
41
1
10
41.7670707233186
20
0.35569074380092
30
0
41
1
10
42.0345294345275
20
0.220768761801509
30
0
41
1
10
42.5671749025253
20
-0.048740996818907
30
0
41
1
10
42.8324803611513
20
-0.18336864820742
30
0
41
1
10
43.627292599698
20
-0.58301227330287
30
0
41
1
10
44.1556211743243
20
-0.843926955911627
30
1E-16
41
1
10
44.953351458028
20
-1.21224645873747
30
1E-16
41
1
10
45.2209901850073
20
-1.33148074963088
30
1E-16
41
1
10
45.7528639036948
20
-1.5569577500961
30
1E-16
41
1
10
46.0175916764929
20
-1.6634479164031
30
1E-16
41
1
10
46.8098622110457
20
-1.96190874136173
30
-1E-16
41
1
10
47.3353759388912
20
-2.13298213655915
30
-1E-16
41
1
10
48.1270549236231
20
-2.33803553522228
30
-1E-16
41
1
10
48.3915317125479
20
-2.39778679761275
30
-1E-16
41
1
10
48.9229478837911
20
-2.49857730359236
30
0
41
1
10
49.1906508651189
20
-2.53965088841409
30
0
41
1
10
49.8891568410558
20
-2.62033756489453
30
0
41
1
10
50.3186994181395
20
-2.64327179796919
30
0
41
1
10
50.7476978198887
20
-2.63931109453361
30
0
0
SPLINE
5
DF
100
AcDbEntity
8
1
62
256
6
ByLayer
370
18
48
1
60
0
100
AcDbSpline
70
4
71
3
72
8
73
4
40
0
40
0
40
0
40
0
40
1
40
1
40
1
40
1
41
1
10
66.7666039243739
20
2.64720311946505
30
0
41
1
10
66.8168232828994
20
2.64837325089778
30
0
41
1
10
66.8670620540901
20
2.64917400696964
30
0
41
1
10
66.9173244400084
20
2.6496038343289
30
0
0
SPLINE
5
E0
100
AcDbEntity
8
1
62
256
6
ByLayer
370
18
48
1
60
0
100
AcDbSpline
70
4
71
3
72
24
73
20
40
0
40
0
40
0
40
0
40
0.0078872619798212
40
0.0078872619798212
40
0.107098535781838
40
0.107098535781838
40
0.206309809583855
40
0.206309809583855
40
0.404732357187889
40
0.404732357187889
40
0.503943630989909
40
0.503943630989909
40
0.603154904791928
40
0.603154904791928
40
0.801577452395962
40
0.801577452395962
40
0.900788726197981
40
0.900788726197981
40
1
40
1
40
1
40
1
41
1
10
59.0281983980494
20
0.26483646338292
30
0
41
1
10
59.0491721057696
20
0.254775510600098
30
0
41
1
10
59.0701491583703
20
0.244707345926059
30
0
41
1
10
59.3550393005651
20
0.10790604091298
30
0
41
1
10
59.6194021067982
20
-0.0201841346950857
30
0
41
1
10
60.1503358845667
20
-0.276290615808421
30
0
41
1
10
60.4176268209045
20
-0.404583755849586
30
0
41
1
10
61.2171642820016
20
-0.78216798221311
30
0
41
1
10
61.7481417685711
20
-1.02475665237551
30
1E-16
41
1
10
62.5487726498255
20
-1.36054578492983
30
1E-16
41
1
10
62.8150204980885
20
-1.46729207897724
30
1E-16
41
1
10
63.3447492128839
20
-1.66775273447269
30
1E-16
41
1
10
63.6086399169536
20
-1.7616243592833
30
1E-16
41
1
10
64.3991172803021
20
-2.02126940340736
30
-1E-16
41
1
10
64.9247288311738
20
-2.16527456375425
30
-1E-16
41
1
10
65.7177781054471
20
-2.32984924497347
30
0
41
1
10
65.9828847475049
20
-2.37609847513849
30
0
41
1
10
66.5156602201376
20
-2.44985550567529
30
0
41
1
10
66.7827175890289
20
-2.47697134588199
30
0
41
1
10
67.0494935044524
20
-2.49459158835168
30
0
0
SPLINE
5
E1
100
AcDbEntity
8
1
62
256
6
ByLayer
370
18
48
1
60
0
100
AcDbSpline
70
4
71
3
72
20
73
16
40
0
40
0
40
0
40
0
40
0.151357607662148
40
0.151357607662148
40
0.302715215324295
40
0.302715215324295
40
0.454072822986443
40
0.454072822986443
40
0.60543043064859
40
0.60543043064859
40
0.756788038310738
40
0.756788038310738
40
0.908145645972886
40
0.908145645972886
40
1
40
1
40
1
40
1
41
1
10
67.9523805345972
20
0.041134020948391
30
0
41
1
10
67.9381402319796
20
-0.0063770380157564
30
0
41
1
10
67.9219508690367
20
-0.0529148755758229
30
0
41
1
10
67.8856659658247
20
-0.143970174462566
30
0
41
1
10
67.8653087357887
20
-0.188908261644485
30
0
41
1
10
67.8227132942101
20
-0.271656443496312
30
0
41
1
10
67.8002514964763
20
-0.310122377814338
30
0
41
1
10
67.7532008517756
20
-0.379814033788392
30
0
41
1
10
67.7297995841562
20
-0.409303398419439
30
0
41
1
10
67.6831749210473
20
-0.457444893187756
30
0
41
1
10
67.6601240933862
20
-0.475688396342861
30
0
41
1
10
67.6169272213352
20
-0.49860655476553
30
0
41
1
10
67.5962611097118
20
-0.503546056481611
30
0
41
1
10
67.5659533280104
20
-0.50139875712253
30
0
41
1
10
67.5549951249726
20
-0.498288445507171
30
0
41
1
10
67.5446025968963
20
-0.493132256679274
30
0
0
SPLINE
5
E2
100
AcDbEntity
8
1
62
256
6
ByLayer
370
18
48
1
60
0
100
AcDbSpline
70
4
71
3
72
8
73
4
40
0
40
0
40
0
40
0
40
1
40
1
40
1
40
1
41
1
10
67.5074744293803
20
-0.463755803685984
30
0
41
1
10
67.4984168372967
20
-0.453647373104616
30
0
41
1
10
67.4898821403797
20
-0.441745405579297
30
0
41
1
10
67.4817671778927
20
-0.428202287227918
30
0
0
SPLINE
5
E3
100
AcDbEntity
8
1
62
256
6
ByLayer
370
18
48
1
60
0
100
AcDbSpline
70
4
71
3
72
20
73
16
40
0
40
0
40
0
40
0
40
0.249999999999996
40
0.249999999999996
40
0.374999999999993
40
0.374999999999993
40
0.437499999999996
40
0.437499999999996
40
0.499999999999998
40
0.499999999999998
40
0.749999999999999
40
0.749999999999999
40
0.875
40
0.875
40
1
40
1
40
1
40
1
41
1
10
67.0810504902203
20
-2.54058867940785
30
0
41
1
10
67.1335838658142
20
-2.39135554095046
30
0
41
1
10
67.1855935109369
20
-2.24126872644251
30
0
41
1
10
67.264066207299
20
-2.01545809873238
30
0
41
1
10
67.2902963743979
20
-1.94007366577185
30
0
41
1
10
67.3298564989497
20
-1.82689074295459
30
0
41
1
10
67.3430782082451
20
-1.78914534165796
30
0
41
1
10
67.369605377641
20
-1.71362847771482
30
0
41
1
10
67.3828744850582
20
-1.67588878968743
30
0
41
1
10
67.4505482899635
20
-1.48864543537397
30
0
41
1
10
67.5082116734909
20
-1.34258522847895
30
0
41
1
10
67.6049083006561
20
-1.13117081374361
30
0
41
1
10
67.6387265679775
20
-1.06230935302747
30
0
41
1
10
67.7082375485344
20
-0.931363110999342
30
0
41
1
10
67.7441637225218
20
-0.868758613625374
30
0
41
1
10
67.781375174562
20
-0.808872143790751
30
0
0
SPLINE
5
E4
100
AcDbEntity
8
1
62
256
6
ByLayer
370
18
48
1
60
0
100
AcDbSpline
70
4
71
3
72
28
73
24
40
0
40
0
40
0
40
0
40
0.0079013681822443
40
0.0079013681822443
40
0.149629744156215
40
0.149629744156215
40
0.220493932143199
40
0.220493932143199
40
0.255926026136691
40
0.255926026136691
40
0.291358120130182
40
0.291358120130182
40
0.43308649610415
40
0.43308649610415
40
0.574814872078118
40
0.574814872078118
40
0.61024696607161
40
0.61024696607161
40
0.645679060065101
40
0.645679060065101
40
0.716543248052082
40
0.716543248052082
40
1
40
1
40
1
40
1
41
1
10
52.7279270831658
20
-2.55291441617146
30
0
41
1
10
52.6984829211885
20
-2.55672472913886
30
0
41
1
10
52.6690499144421
20
-2.56041096660698
30
0
41
1
10
52.1118656757761
20
-2.62786419725558
30
0
41
1
10
51.5874114887359
20
-2.65172161419241
30
0
41
1
10
50.7983220610717
20
-2.62675124723924
30
0
41
1
10
50.5348713616982
20
-2.60832254380475
30
0
41
1
10
50.1382041176093
20
-2.56553327077427
30
0
41
1
10
50.0057313933386
20
-2.54874577251951
30
0
41
1
10
49.7401141261635
20
-2.51014376868636
30
0
41
1
10
49.6067171748777
20
-2.48827858446623
30
0
41
1
10
48.9415223024537
20
-2.36708573397854
30
-1E-16
41
1
10
48.4149540281285
20
-2.2326336024035
30
-1E-16
41
1
10
47.3634507831339
20
-1.9008280789719
30
-1E-16
41
1
10
46.8384742082853
20
-1.70349364258146
30
1E-16
41
1
10
46.1770716257691
20
-1.42601517235093
30
1E-16
41
1
10
46.0445367659618
20
-1.36897342874815
30
1E-16
41
1
10
45.778786678008
20
-1.25205164879628
30
1E-16
41
1
10
45.6453217365665
20
-1.19204812909365
30
1E-16
41
1
10
45.246345782562
20
-1.00931120759361
30
1E-16
41
1
10
44.9818598434592
20
-0.883738653853413
30
1E-16
41
1
10
43.6635456255041
20
-0.243923920067033
30
0
41
1
10
42.6226771473487
20
0.307456472136096
30
0
41
1
10
41.5568957871356
20
0.819932543865093
30
-1E-16
0
SPLINE
5
E5
100
AcDbEntity
8
1
62
256
6
ByLayer
370
18
48
1
60
0
100
AcDbSpline
70
4
71
3
72
24
73
20
40
0
40
0
40
0
40
0
40
0.239894101360226
40
0.239894101360226
40
0.28557081078343
40
0.28557081078343
40
0.331247520206634
40
0.331247520206634
40
0.422600939053042
40
0.422600939053042
40
0.605307776745862
40
0.605307776745862
40
0.696661195592272
40
0.696661195592272
40
0.788014614438683
40
0.788014614438683
40
0.970721452131507
40
0.970721452131507
40
1
40
1
40
1
40
1
41
1
10
42.6973003503384
20
0.254846238476176
30
0
41
1
10
43.3924647354993
20
-0.0775556889677205
30
0
41
1
10
44.0847232499005
20
-0.415849105829608
30
0
41
1
10
44.9178740773323
20
-0.79898005070487
30
0
41
1
10
45.0516115864579
20
-0.859771710792387
30
1E-16
41
1
10
45.3181483742766
20
-0.979155728282933
30
1E-16
41
1
10
45.4510738805707
20
-1.03780875700204
30
1E-16
41
1
10
45.8490791721718
20
-1.21026243417288
30
1E-16
41
1
10
46.1133278687371
20
-1.32040212082745
30
1E-16
41
1
10
46.9044752153878
20
-1.63368294576853
30
1E-16
41
1
10
47.4297622494257
20
-1.82004174773101
30
-1E-16
41
1
10
48.2213497110914
20
-2.0546154127768
30
-1E-16
41
1
10
48.485799557413
20
-2.1253371366669
30
-1E-16
41
1
10
49.0170349074717
20
-2.25047731179697
30
-1E-16
41
1
10
49.2847246565955
20
-2.30483454649686
30
0
41
1
10
50.0827464403695
20
-2.43943590257027
30
0
41
1
10
50.609684949711
20
-2.49090579544529
30
0
41
1
10
51.2204363376731
20
-2.50658956322201
30
0
41
1
10
51.3047772872303
20
-2.50775335169303
30
0
41
1
10
51.3891231633737
20
-2.50791909079936
30
0
0
SPLINE
5
E6
100
AcDbEntity
8
1
62
256
6
ByLayer
370
18
48
1
60
0
100
AcDbSpline
70
4
71
3
72
22
73
18
40
0
40
0
40
0
40
0
40
0.108084742769186
40
0.108084742769186
40
0.216169485538372
40
0.216169485538372
40
0.432338971076739
40
0.432338971076739
40
0.540423713845925
40
0.540423713845925
40
0.648508456615111
40
0.648508456615111
40
0.864677942153483
40
0.864677942153483
40
0.972762684922669
40
0.972762684922669
40
1
40
1
40
1
40
1
41
1
10
67.0470298995351
20
-2.50580327054192
30
0
41
1
10
66.7802775559802
20
-2.48856192210238
30
0
41
1
10
66.5131483883449
20
-2.46189109623054
30
0
41
1
10
65.9803054232242
20
-2.38880218961796
30
0
41
1
10
65.7151730079931
20
-2.34283594168568
30
0
41
1
10
64.9220643890156
20
-2.17895773415674
30
-1E-16
41
1
10
64.3964450858177
20
-2.03520968894679
30
-1E-16
41
1
10
63.6059507078515
20
-1.77561750991808
30
1E-16
41
1
10
63.3420499144599
20
-1.68171082569881
30
1E-16
41
1
10
62.8122908248867
20
-1.48106715710108
30
1E-16
41
1
10
62.5460254953278
20
-1.37417534272299
30
1E-16
41
1
10
61.7452913722438
20
-1.03776357848685
30
1E-16
41
1
10
61.2142750525359
20
-0.79454468023178
30
0
41
1
10
60.4146528136534
20
-0.415745375265715
30
0
41
1
10
60.1473259348685
20
-0.286990991746563
30
0
41
1
10
59.8149312268665
20
-0.126050178065526
30
0
41
1
10
59.7480980849197
20
-0.0936522660076093
30
0
41
1
10
59.6813249846113
20
-0.0612726235851255
30
0
0
SPLINE
5
E7
100
AcDbEntity
8
1
62
256
6
ByLayer
370
18
48
1
60
0
100
AcDbSpline
70
4
71
3
72
8
73
4
40
0
40
0
40
0
40
0
40
1
40
1
40
1
40
1
41
1
10
66.6871300695215
20
-0.0581568767336194
30
0
41
1
10
66.7077104115203
20
-0.0678015646802805
30
0
41
1
10
66.7281808347331
20
-0.0768951271180356
30
0
41
1
10
66.7485633960422
20
-0.0854501841162687
30
0
0
SPLINE
5
E8
100
AcDbEntity
8
1
62
256
6
ByLayer
370
18
48
1
60
0
100
AcDbSpline
70
2053
71
3
72
50
73
46
40
0
40
0
40
0
40
0
40
0.0624999999999977
40
0.0624999999999977
40
0.124999999999996
40
0.124999999999996
40
0.187499999999993
40
0.187499999999993
40
0.249999999999991
40
0.249999999999991
40
0.28124999999999
40
0.28124999999999
40
0.312499999999988
40
0.312499999999988
40
0.343749999999986
40
0.343749999999986
40
0.374999999999984
40
0.374999999999984
40
0.406249999999983
40
0.406249999999983
40
0.437499999999981
40
0.437499999999981
40
0.499999999999983
40
0.499999999999983
40
0.562499999999985
40
0.562499999999985
40
0.624999999999987
40
0.624999999999987
40
0.656249999999988
40
0.656249999999988
40
0.687499999999989
40
0.687499999999989
40
0.71874999999999
40
0.71874999999999
40
0.749999999999991
40
0.749999999999991
40
0.781249999999992
40
0.781249999999992
40
0.812499999999993
40
0.812499999999993
40
0.874999999999996
40
0.874999999999996
40
0.937499999999998
40
0.937499999999998
40
1
40
1
40
1
40
1
41
1
10
67.3119332242181
20
-1.1253856337559
30
0
41
1
10
67.2910463544133
20
-1.15161323959529
30
0
41
1
10
67.2715326657441
20
-1.16915079026879
30
0
41
1
10
67.2343810047985
20
-1.18733130851032
30
1E-16
41
1
10
67.2177558860259
20
-1.18745644288811
30
1E-16
41
1
10
67.1873720735233
20
-1.1692083963483
30
1E-16
41
1
10
67.1744614723594
20
-1.15137119876547
30
1E-16
41
1
10
67.1525839466758
20
-1.09698406503344
30
1E-16
41
1
10
67.1442449988065
20
-1.06199521887959
30
1E-16
41
1
10
67.1361625842626
20
-0.997161725997756
30
1E-16
41
1
10
67.1343238596846
20
-0.974194298237848
30
1E-16
41
1
10
67.1324813872221
20
-0.92550066804759
30
1E-16
41
1
10
67.1324948089033
20
-0.899389957813355
30
1E-16
41
1
10
67.1347267214892
20
-0.846006726087353
30
1E-16
41
1
10
67.1369042055897
20
-0.818958121952647
30
1E-16
41
1
10
67.1436692634527
20
-0.764143207683645
30
0
41
1
10
67.148301048851
20
-0.73641284742115
30
0
41
1
10
67.159724095584
20
-0.683488698079742
30
0
41
1
10
67.1666653248952
20
-0.657565838653568
30
0
41
1
10
67.1824817034823
20
-0.609147131820833
30
0
41
1
10
67.191278157907
20
-0.586753181872268
30
0
41
1
10
67.2202745618294
20
-0.524659527213544
30
0
41
1
10
67.2424287621625
20
-0.491718159201014
30
0
41
1
10
67.2882731532935
20
-0.443644584628402
30
0
41
1
10
67.3121028310802
20
-0.42829275113678
30
0
41
1
10
67.3578541242498
20
-0.414212034045363
30
0
41
1
10
67.3802075827502
20
-0.415372132468832
30
0
41
1
10
67.4100871891829
20
-0.429115783705385
30
0
41
1
10
67.419467158322
20
-0.435668492606709
30
0
41
1
10
67.4368814196675
20
-0.452980433162054
30
0
41
1
10
67.4449547434796
20
-0.463858576808008
30
0
41
1
10
67.4589119964564
20
-0.489516043073507
30
0
41
1
10
67.4648760248198
20
-0.504329891216287
30
0
41
1
10
67.4744567040562
20
-0.538460711998624
30
0
41
1
10
67.4780098119552
20
-0.557728571440208
30
0
41
1
10
67.4821265011178
20
-0.599566035904843
30
0
41
1
10
67.4827282185458
20
-0.622658024741582
30
0
41
1
10
67.4807403212965
20
-0.671299135772301
30
0
41
1
10
67.4782079146518
20
-0.696636340706988
30
0
41
1
10
67.4660427258026
20
-0.77586861029414
30
0
41
1
10
67.4518325267871
20
-0.831419918768404
30
1E-16
41
1
10
67.41705430986
20
-0.934606977200161
30
-1E-16
41
1
10
67.3965105900431
20
-0.982680736704197
30
-1E-16
41
1
10
67.3544516517603
20
-1.0647777041697
30
0
41
1
10
67.3328200940228
20
-1.0991580279165
30
0
41
1
10
67.3119332242181
20
-1.1253856337559
30
0
0
SPLINE
5
E9
100
AcDbEntity
8
1
62
256
6
ByLayer
370
18
48
1
60
0
100
AcDbSpline
70
4
71
3
72
10
73
6
40
0
40
0
40
0
40
0
40
0.5
40
0.5
40
1
40
1
40
1
40
1
41
1
10
67.0810504902205
20
2.54058867940768
30
0
41
1
10
67.0707780571271
20
2.54769056551007
30
0
41
1
10
67.061831797163
20
2.55137395429031
30
0
41
1
10
67.0463829607677
20
2.55189788679823
30
0
41
1
10
67.0398445199168
20
2.54878130625707
30
0
41
1
10
67.0341356404677
20
2.54251467037281
30
0
0
SPLINE
5
EA
100
AcDbEntity
8
1
62
256
6
ByLayer
370
18
48
1
60
0
100
AcDbSpline
70
4
71
3
72
66
73
62
40
0
40
0
40
0
40
0
40
0.0037245269610897
40
0.0037245269610897
40
0.0256342232554485
40
0.0256342232554485
40
0.0694536158441659
40
0.0694536158441659
40
0.113273008432883
40
0.113273008432883
40
0.157092401021601
40
0.157092401021601
40
0.17900209731596
40
0.17900209731596
40
0.200911793610318
40
0.200911793610318
40
0.244731186199036
40
0.244731186199036
40
0.288550578787753
40
0.288550578787753
40
0.332369971376471
40
0.332369971376471
40
0.376189363965188
40
0.376189363965188
40
0.398099060259547
40
0.398099060259547
40
0.420008756553906
40
0.420008756553906
40
0.463828149142623
40
0.463828149142623
40
0.507647541731341
40
0.507647541731341
40
0.551466934320058
40
0.551466934320058
40
0.573376630614417
40
0.573376630614417
40
0.595286326908776
40
0.595286326908776
40
0.639105719497493
40
0.639105719497493
40
0.682925112086211
40
0.682925112086211
40
0.726744504674928
40
0.726744504674928
40
0.748654200969287
40
0.748654200969287
40
0.770563897263645
40
0.770563897263645
40
0.814383289852363
40
0.814383289852363
40
0.85820268244108
40
0.85820268244108
40
0.902022075029798
40
0.902022075029798
40
0.923931771324156
40
0.923931771324156
40
0.945841467618514
40
0.945841467618514
40
0.989660860207229
40
0.989660860207229
40
1
40
1
40
1
40
1
41
1
10
63.5815424386997
20
-1.73637699607627
30
0
41
1
10
63.5555594896121
20
-1.74636649541989
30
0
41
1
10
63.5295674482013
20
-1.75630336812713
30
0
41
1
10
63.3506166165106
20
-1.82433590380378
30
-1E-16
41
1
10
63.1977917797774
20
-1.88012358868053
30
-1E-16
41
1
10
62.7407429313106
20
-2.03891750707208
30
-1E-16
41
1
10
62.437374156566
20
-2.13396587069701
30
-1E-16
41
1
10
61.8327792299885
20
-2.30214075240312
30
-1E-16
41
1
10
61.530568863559
20
-2.37420209120705
30
-1E-16
41
1
10
60.9262842750496
20
-2.49450157275985
30
0
41
1
10
60.6241546989817
20
-2.54251432480825
30
0
41
1
10
60.168367702722
20
-2.59455305705399
30
0
41
1
10
60.0161330095865
20
-2.60866217323985
30
0
41
1
10
59.7111768371444
20
-2.63026799098412
30
0
41
1
10
59.5579236362404
20
-2.6376929032057
30
0
41
1
10
59.0994142264165
20
-2.6495457529862
30
0
41
1
10
58.7953780713511
20
-2.64375376992302
30
0
41
1
10
58.1898800178145
20
-2.60537279941883
30
0
41
1
10
57.8874659825315
20
-2.57306536329992
30
0
41
1
10
57.2834143016751
20
-2.48254016521085
30
0
41
1
10
56.9815975141252
20
-2.42423592755205
30
-1E-16
41
1
10
56.3750800464507
20
-2.28404706611715
30
-1E-16
41
1
10
56.0713667307143
20
-2.20122654467519
30
-1E-16
41
1
10
55.612389604458
20
-2.06023522283127
30
-1E-16
41
1
10
55.4590649599742
20
-2.01056073489173
30
-1E-16
41
1
10
55.1539224289122
20
-1.90655626934174
30
-1E-16
41
1
10
55.0019821956989
20
-1.85186145201237
30
-1E-16
41
1
10
54.5468564090086
20
-1.68146787508024
30
1E-16
41
1
10
54.2440401866632
20
-1.56005111785814
30
1E-16
41
1
10
53.6398336807599
20
-1.30146486115575
30
1E-16
41
1
10
53.3381479077603
20
-1.16469792546073
30
1E-16
41
1
10
52.7325181892014
20
-0.881825577266795
30
1E-16
41
1
10
52.429565807435
20
-0.73384339118698
30
0
41
1
10
51.9721089199792
20
-0.507298245539289
30
0
41
1
10
51.8188580049881
20
-0.430930582673227
30
0
41
1
10
51.512582887371
20
-0.277131281126998
30
0
41
1
10
51.3601561587681
20
-0.199548846916883
30
0
41
1
10
50.9037325205684
20
0.0325587450743683
30
0
41
1
10
50.6003386437388
20
0.18596163935058
30
0
41
1
10
49.9956398686862
20
0.490875700386766
30
0
41
1
10
49.6939244376147
20
0.641517153791114
30
0
41
1
10
49.0888675255621
20
0.9335482362508
30
-1E-16
41
1
10
48.7865153123105
20
1.07683523780872
30
-1E-16
41
1
10
48.330352592703
20
1.2820882140949
30
-1E-16
41
1
10
48.1778560069042
20
1.34889665250341
30
-1E-16
41
1
10
47.8720975534769
20
1.47949385408703
30
-1E-16
41
1
10
47.7187842583484
20
1.54363301550421
30
-1E-16
41
1
10
47.2607476351506
20
1.72829684223467
30
-1E-16
41
1
10
46.9565739602052
20
1.84144728249112
30
1E-16
41
1
10
46.3509638863721
20
2.0490186140195
30
1E-16
41
1
10
46.0490131395999
20
2.14257369048491
30
1E-16
41
1
10
45.4441497388604
20
2.30639021330373
30
1E-16
41
1
10
45.1422110439731
20
2.37764325533971
30
1E-16
41
1
10
44.6870521747199
20
2.46545974083821
30
0
41
1
10
44.5349582284481
20
2.49159341769772
30
0
41
1
10
44.2301935526368
20
2.53764666033567
30
0
41
1
10
44.0776625531853
20
2.55762506635105
30
0
41
1
10
43.6182151852979
20
2.60740431384434
30
0
41
1
10
43.3127869603513
20
2.6268170684213
30
0
41
1
10
42.9377502277418
20
2.63426260020705
30
0
41
1
10
42.8662135539254
20
2.63492771270643
30
0
41
1
10
42.7947204911876
20
2.63484283070747
30
0
0
SPLINE
5
EB
100
AcDbEntity
8
1
62
256
6
ByLayer
370
18
48
1
60
0
100
AcDbSpline
70
4
71
3
72
74
73
70
40
0
40
0
40
0
40
0
40
0.0059931174759214
40
0.0059931174759214
40
0.0285227401386509
40
0.0285227401386509
40
0.0510523628013804
40
0.0510523628013804
40
0.0961116081268411
40
0.0961116081268411
40
0.118641230789572
40
0.118641230789572
40
0.141170853452303
40
0.141170853452303
40
0.186230098777765
40
0.186230098777765
40
0.208759721440496
40
0.208759721440496
40
0.231289344103227
40
0.231289344103227
40
0.27634858942869
40
0.27634858942869
40
0.298878212091422
40
0.298878212091422
40
0.321407834754153
40
0.321407834754153
40
0.366467080079617
40
0.366467080079617
40
0.388996702742348
40
0.388996702742348
40
0.41152632540508
40
0.41152632540508
40
0.456585570730543
40
0.456585570730543
40
0.501644816056006
40
0.501644816056006
40
0.546704061381469
40
0.546704061381469
40
0.5692336840442
40
0.5692336840442
40
0.591763306706932
40
0.591763306706932
40
0.636822552032395
40
0.636822552032395
40
0.681881797357858
40
0.681881797357858
40
0.704411420020589
40
0.704411420020589
40
0.72694104268332
40
0.72694104268332
40
0.749470665346052
40
0.749470665346052
40
0.772000288008783
40
0.772000288008783
40
0.817059533334246
40
0.817059533334246
40
0.862118778659709
40
0.862118778659709
40
0.884648401322441
40
0.884648401322441
40
0.907178023985172
40
0.907178023985172
40
0.929707646647904
40
0.929707646647904
40
0.952237269310635
40
0.952237269310635
40
0.997296514636099
40
0.997296514636099
40
1
40
1
40
1
40
1
41
1
10
30.3740991450557
20
-1.91962600678613
30
-1E-16
41
1
10
30.3338676212513
20
-1.93349353740692
30
-1E-16
41
1
10
30.2936332170366
20
-1.94717607936954
30
-1E-16
41
1
10
30.1021101576953
20
-2.01138002246597
30
-1E-16
41
1
10
29.9507328577523
20
-2.0594401209822
30
-1E-16
41
1
10
29.6481938662873
20
-2.15074702439236
30
-1E-16
41
1
10
29.4970121100897
20
-2.19394059159924
30
-1E-16
41
1
10
29.0424240035236
20
-2.31458673442975
30
-1E-16
41
1
10
28.7380484866518
20
-2.3833489826371
30
-1E-16
41
1
10
28.2798442455093
20
-2.46882820994659
30
0
41
1
10
28.1263281101572
20
-2.4942384500099
30
0
41
1
10
27.8202716185668
20
-2.53818147359399
30
0
41
1
10
27.6675959614773
20
-2.55676352374766
30
0
41
1
10
27.2106784082698
20
-2.60259485785014
30
0
41
1
10
26.9080239559096
20
-2.61994232571337
30
0
41
1
10
26.453798626242
20
-2.62573530153514
30
0
41
1
10
26.3023723022879
20
-2.62435300027948
30
0
41
1
10
25.9999246991696
20
-2.61491140315192
30
0
41
1
10
25.8488328560297
20
-2.6068239269176
30
0
41
1
10
25.3947401275939
20
-2.57269436656341
30
0
41
1
10
25.0910102966073
20
-2.53696072830556
30
0
41
1
10
24.6342299465661
20
-2.46323107684165
30
0
41
1
10
24.4815705312586
20
-2.43539595818172
30
0
41
1
10
24.1751156601419
20
-2.37342490533334
30
-1E-16
41
1
10
24.0215540272738
20
-2.33935575803014
30
-1E-16
41
1
10
23.5631757776979
20
-2.22857943761906
30
-1E-16
41
1
10
23.2598230225752
20
-2.14255456609959
30
-1E-16
41
1
10
22.8049752408356
20
-1.99924641183944
30
-1E-16
41
1
10
22.6534247690479
20
-1.9490929812188
30
-1E-16
41
1
10
22.3509014375339
20
-1.84339790389018
30
-1E-16
41
1
10
22.1998141545247
20
-1.78799286279863
30
1E-16
41
1
10
21.7459710797551
20
-1.61574231185503
30
1E-16
41
1
10
21.4427380462928
20
-1.49283050335419
30
1E-16
41
1
10
20.8352712214588
20
-1.22991835016174
30
1E-16
41
1
10
20.5295252323714
20
-1.09150345183227
30
1E-16
41
1
10
19.9159568588451
20
-0.803589848548285
30
0
41
1
10
19.6116808951131
20
-0.654534053738416
30
0
41
1
10
19.1559114815577
20
-0.429641223993116
30
0
41
1
10
19.0041477193905
20
-0.354353117840304
30
0
41
1
10
18.7013594138775
20
-0.20227432368236
30
0
41
1
10
18.5501844555035
20
-0.12578947142697
30
0
41
1
10
18.0963218868999
20
0.102977800902437
30
0
41
1
10
17.7934140783787
20
0.254811845205438
30
0
41
1
10
17.1871567053515
20
0.557579944579004
30
0
41
1
10
16.8827351896418
20
0.706334473808624
30
0
41
1
10
16.4236741476086
20
0.924526660238001
30
-1E-16
41
1
10
16.2701526058561
20
0.996953828551284
30
-1E-16
41
1
10
15.9641789682136
20
1.13786160339731
30
-1E-16
41
1
10
15.8115651458099
20
1.20655625858231
30
-1E-16
41
1
10
15.5068696310093
20
1.34015245021359
30
-1E-16
41
1
10
15.3547804671759
20
1.40505224382559
30
-1E-16
41
1
10
15.0514875602838
20
1.53169804910604
30
-1E-16
41
1
10
14.9001064762702
20
1.5931212578669
30
-1E-16
41
1
10
14.4458802981971
20
1.77033194707414
30
-1E-16
41
1
10
14.1430882904456
20
1.87937772253017
30
1E-16
41
1
10
13.5375926790292
20
2.07917031976319
30
1E-16
41
1
10
13.233806706796
20
2.16845357696738
30
1E-16
41
1
10
12.7762974717663
20
2.28602172344529
30
1E-16
41
1
10
12.6236521098498
20
2.32262999881584
30
1E-16
41
1
10
12.3171078740319
20
2.38958639179117
30
1E-16
41
1
10
12.1636173411825
20
2.41992545349194
30
0
41
1
10
11.8579054565782
20
2.47392613783046
30
0
41
1
10
11.7054220692876
20
2.49768165986777
30
0
41
1
10
11.4014855544218
20
2.53888899810022
30
0
41
1
10
11.2498379130685
20
2.55620607872788
30
0
41
1
10
10.7950897432801
20
2.59811272954178
30
0
41
1
10
10.492296127963
20
2.61281327744146
30
0
41
1
10
10.1715107712149
20
2.61439951425538
30
0
41
1
10
10.153352400864
20
2.61444158936473
30
0
41
1
10
10.135192765684
20
2.61443592360297
30
0
0
SPLINE
5
EC
100
AcDbEntity
8
1
62
256
6
ByLayer
370
18
48
1
60
0
100
AcDbSpline
70
4
71
3
72
48
73
44
40
0
40
0
40
0
40
0
40
0.0838630459970087
40
0.0838630459970087
40
0.132948831499857
40
0.132948831499857
40
0.15749172425128
40
0.15749172425128
40
0.182034617002704
40
0.182034617002704
40
0.280206188008398
40
0.280206188008398
40
0.329291973511246
40
0.329291973511246
40
0.35383486626267
40
0.35383486626267
40
0.378377759014094
40
0.378377759014094
40
0.47654933001979
40
0.47654933001979
40
0.525635115522639
40
0.525635115522639
40
0.550178008274063
40
0.550178008274063
40
0.574720901025487
40
0.574720901025487
40
0.672892472031181
40
0.672892472031181
40
0.721978257534029
40
0.721978257534029
40
0.746521150285452
40
0.746521150285452
40
0.771064043036876
40
0.771064043036876
40
0.869235614042568
40
0.869235614042568
40
0.918321399545414
40
0.918321399545414
40
0.942864292296838
40
0.942864292296838
40
0.967407185048262
40
0.967407185048262
40
1
40
1
40
1
40
1
41
1
10
14.0046373945043
20
1.92332579763163
30
0
41
1
10
14.5729664107484
20
2.11742562868449
30
1E-16
41
1
10
15.1355963436532
20
2.27516732220721
30
1E-16
41
1
10
16.0280285775541
20
2.45858315026581
30
0
41
1
10
16.3575779530318
20
2.51196548478299
30
0
41
1
10
16.8538338447995
20
2.56903695260567
30
0
41
1
10
17.019581717503
20
2.58422789338607
30
0
41
1
10
17.3519969069452
20
2.60673581628203
30
0
41
1
10
17.5190182997571
20
2.61405311555095
30
0
41
1
10
18.3529809004845
20
2.63033440732954
30
0
41
1
10
19.0111258814559
20
2.57848961420805
30
0
41
1
10
19.9991395471111
20
2.4113029503996
30
1E-16
41
1
10
20.3286063607409
20
2.34069582093235
30
1E-16
41
1
10
20.8247939949699
20
2.21372768690523
30
1E-16
41
1
10
20.9905088369686
20
2.16788346898636
30
1E-16
41
1
10
21.3229069130795
20
2.06941234817864
30
1E-16
41
1
10
21.4899636565155
20
2.01665538331415
30
1E-16
41
1
10
22.3235869140247
20
1.73825065311033
30
-1E-16
41
1
10
22.9815151831821
20
1.47010439144182
30
-1E-16
41
1
10
23.9693497469708
20
1.02490593193338
30
-1E-16
41
1
10
24.2987968392539
20
0.869382711544318
30
-1E-16
41
1
10
24.7949430902225
20
0.628541141183092
30
0
41
1
10
24.9606623238166
20
0.547017150556201
30
0
41
1
10
25.2930769831593
20
0.382043130470151
30
0
41
1
10
25.4601752154077
20
0.298415537776719
30
0
41
1
10
26.293415134045
20
-0.120440300844479
30
0
41
1
10
26.9511274802043
20
-0.45634001422269
30
0
41
1
10
27.9388149284908
20
-0.932807139407146
30
1E-16
41
1
10
28.2682166948874
20
-1.08710176630379
30
1E-16
41
1
10
28.7643588724943
20
-1.30829476824587
30
1E-16
41
1
10
28.9300824063515
20
-1.3803126530747
30
1E-16
41
1
10
29.2625276070393
20
-1.52032395839515
30
1E-16
41
1
10
29.4296358739347
20
-1.58849657057962
30
1E-16
41
1
10
30.2624752000568
20
-1.91552225654911
30
-1E-16
41
1
10
30.9199909686361
20
-2.13286493281996
30
-1E-16
41
1
10
31.9075374389259
20
-2.37631541252995
30
-1E-16
41
1
10
32.236892423606
20
-2.44376505377414
30
0
41
1
10
32.7330530821039
20
-2.52254412295724
30
0
41
1
10
32.8987893120946
20
-2.54507824318083
30
0
41
1
10
33.2312478249084
20
-2.58241773447631
30
0
41
1
10
33.3983740225093
20
-2.59723535415969
30
0
41
1
10
33.7859544778539
20
-2.62224392121547
30
0
41
1
10
34.0060979383214
20
-2.62936867308665
30
0
41
1
10
34.2256399438677
20
-2.62947414456252
30
0
0
SPLINE
5
ED
100
AcDbEntity
8
1
62
256
6
ByLayer
370
18
48
1
60
0
100
AcDbSpline
70
4
71
3
72
16
73
12
40
0
40
0
40
0
40
0
40
0.111264251456941
40
0.111264251456941
40
0.333448188592705
40
0.333448188592705
40
0.55563212572847
40
0.55563212572847
40
0.777816062864235
40
0.777816062864235
40
1
40
1
40
1
40
1
41
1
10
66.8080508765668
20
0.51036964616938
30
0
41
1
10
66.8206685874454
20
0.518154407784579
30
0
41
1
10
66.8341971241108
20
0.526420080644101
30
0
41
1
10
66.8775400137496
20
0.55244412850368
30
0
41
1
10
66.910357846724
20
0.57152034380087
30
0
41
1
10
66.9811653879311
20
0.609599255818409
30
0
41
1
10
67.0198474259251
20
0.6288829058293
30
0
41
1
10
67.1029737143891
20
0.664634687924291
30
0
41
1
10
67.1463988243251
20
0.680755050010191
30
0
41
1
10
67.2372650992625
20
0.70750830379643
30
0
41
1
10
67.2848744536624
20
0.718070723455412
30
0
41
1
10
67.3329572601927
20
0.724869834361328
30
0
0
SPLINE
5
EE
100
AcDbEntity
8
1
62
256
6
ByLayer
370
18
48
1
60
0
100
AcDbSpline
70
4
71
3
72
12
73
8
40
0
40
0
40
0
40
0
40
0.250000000000001
40
0.250000000000001
40
0.500000000000002
40
0.500000000000002
40
1
40
1
40
1
40
1
41
1
10
41.6027700822633
20
-2.50424335151587
30
0
41
1
10
41.5871609013072
20
-2.50413518453075
30
0
41
1
10
41.5720056424498
20
-2.50769037541522
30
0
41
1
10
41.545980950899
20
-2.51974082160814
30
0
41
1
10
41.5352229837112
20
-2.52802363562878
30
0
41
1
10
41.509846357642
20
-2.55597523503769
30
0
41
1
10
41.5020582801494
20
-2.57816865135388
30
0
41
1
10
41.5020582801494
20
-2.60003793613919
30
0
0
SPLINE
5
EF
100
AcDbEntity
8
1
62
256
6
ByLayer
370
18
48
1
60
0
100
AcDbSpline
70
4
71
3
72
14
73
10
40
0
40
0
40
0
40
0
40
0.272471324509631
40
0.272471324509631
40
0.508018822472214
40
0.508018822472214
40
0.782298008373472
40
0.782298008373472
40
1
40
1
40
1
40
1
41
1
10
66.7485633960422
20
-0.0854501841162687
30
0
41
1
10
66.7492943660792
20
-0.0857569900292106
30
0
41
1
10
66.7500088399451
20
-0.0864374817292344
30
0
41
1
10
66.7511901164718
20
-0.0881477867173146
30
0
41
1
10
66.7516937000318
20
-0.0891409402802879
30
0
41
1
10
66.7526218743191
20
-0.0915595506067746
30
0
41
1
10
66.7530347194096
20
-0.0930666333844954
30
0
41
1
10
66.7535398456362
20
-0.0959426582829792
30
0
41
1
10
66.7536855177676
20
-0.0973098270010837
30
0
41
1
10
66.7537241404892
20
-0.0986751406599353
30
0
0
SPLINE
5
F0
100
AcDbEntity
8
1
62
256
6
ByLayer
370
18
48
1
60
0
100
AcDbSpline
70
4
71
3
72
10
73
6
40
0
40
0
40
0
40
0
40
0.5
40
0.5
40
1
40
1
40
1
40
1
41
1
10
67.0810504902206
20
-2.54058867940762
30
0
41
1
10
67.0707780571272
20
-2.54769056551004
30
0
41
1
10
67.0618317971631
20
-2.55137395429031
30
0
41
1
10
67.0463829607678
20
-2.55189788679823
30
0
41
1
10
67.0398445199168
20
-2.54878130625707
30
0
41
1
10
67.0341356404677
20
-2.54251467037281
30
0
0
SPLINE
5
F1
100
AcDbEntity
8
1
62
256
6
ByLayer
370
18
48
1
60
0
100
AcDbSpline
70
4
71
3
72
8
73
4
40
0
40
0
40
0
40
0
40
1
40
1
40
1
40
1
41
1
10
41.6459893330563
20
2.50526859464296
30
0
41
1
10
41.714765654737
20
2.50828701087491
30
0
41
1
10
41.7834660889529
20
2.51054820070098
30
0
41
1
10
41.8520980488415
20
2.51207188212311
30
0
0
SPLINE
5
F2
100
AcDbEntity
8
1
62
256
6
ByLayer
370
18
48
1
60
0
100
AcDbSpline
70
4
71
3
72
30
73
26
40
0
40
0
40
0
40
0
40
0.0871077364482741
40
0.0871077364482741
40
0.202335314159134
40
0.202335314159134
40
0.317562891869994
40
0.317562891869994
40
0.375176680725424
40
0.375176680725424
40
0.432790469580854
40
0.432790469580854
40
0.548018047291714
40
0.548018047291714
40
0.605631836147144
40
0.605631836147144
40
0.663245625002574
40
0.663245625002574
40
0.778473202713439
40
0.778473202713439
40
0.893700780424304
40
0.893700780424304
40
0.951314569279734
40
0.951314569279734
40
1
40
1
40
1
40
1
41
1
10
43.4045385150028
20
2.42819990321831
30
0
41
1
10
43.6010951295811
20
2.40365504438949
30
0
41
1
10
43.7974399200845
20
2.37424647523346
30
0
41
1
10
44.2538504040896
20
2.29415126409032
30
1E-16
41
1
10
44.5141243366183
20
2.23946352737184
30
1E-16
41
1
10
45.0366288156018
20
2.11289361434208
30
1E-16
41
1
10
45.2988462976759
20
2.04101310961519
30
1E-16
41
1
10
45.6940583532217
20
1.92151506135301
30
1E-16
41
1
10
45.826149660787
20
1.87971244762753
30
1E-16
41
1
10
46.0890786687048
20
1.79303510044309
30
-1E-16
41
1
10
46.2201643768917
20
1.74809142482923
30
-1E-16
41
1
10
46.6128408732865
20
1.60854029419863
30
-1E-16
41
1
10
46.8738098504289
20
1.50922647660818
30
-1E-16
41
1
10
47.2643106626302
20
1.3527848877124
30
-1E-16
41
1
10
47.3943175189205
20
1.29938716617326
30
-1E-16
41
1
10
47.6540083765631
20
1.19020110951311
30
-1E-16
41
1
10
47.7836999670081
20
1.13442332155452
30
-1E-16
41
1
10
48.1731577023597
20
0.964211159070288
30
-1E-16
41
1
10
48.4332746200406
20
0.846900290476071
30
-1E-16
41
1
10
48.9544161286883
20
0.606277005031757
30
0
41
1
10
49.2152659463932
20
0.482718029015984
30
0
41
1
10
49.608110467657
20
0.294356851197222
30
0
41
1
10
49.7393890838061
20
0.231135321117989
30
0
41
1
10
49.9821702075255
20
0.11375415816832
30
0
41
1
10
50.0936427780255
20
0.059657768236633
30
0
41
1
10
50.2048454788175
20
0.0058104985166949
30
0
0
SPLINE
5
F3
100
AcDbEntity
8
1
62
256
6
ByLayer
370
18
48
1
60
0
100
AcDbSpline
70
4
71
3
72
8
73
4
40
0
40
0
40
0
40
0
40
1
40
1
40
1
40
1
41
1
10
67.781375174562
20
-0.808872143790694
30
0
41
1
10
67.8546851454681
20
-0.602575655668176
30
0
41
1
10
67.9262819374508
20
-0.395662945232743
30
0
41
1
10
67.9961428375501
20
-0.18812584274059
30
0
0
SPLINE
5
F4
100
AcDbEntity
8
1
62
256
6
ByLayer
370
18
48
1
60
0
100
AcDbSpline
70
4
71
3
72
20
73
16
40
0
40
0
40
0
40
0
40
0.249999999999999
40
0.249999999999999
40
0.374999999999995
40
0.374999999999995
40
0.437499999999996
40
0.437499999999996
40
0.499999999999998
40
0.499999999999998
40
0.750000000000003
40
0.750000000000003
40
0.875000000000002
40
0.875000000000002
40
1
40
1
40
1
40
1
41
1
10
67.0810504902203
20
2.54058867940787
30
0
41
1
10
67.1335838658141
20
2.3913555409504
30
0
41
1
10
67.1855935109369
20
2.2412687264424
30
0
41
1
10
67.2640662072991
20
2.01545809873218
30
0
41
1
10
67.2902963743981
20
1.94007366577162
30
0
41
1
10
67.3298564989498
20
1.82689074295433
30
0
41
1
10
67.3430782082452
20
1.7891453416577
30
0
41
1
10
67.3696053776411
20
1.71362847771454
30
0
41
1
10
67.3828744850583
20
1.67588878968712
30
0
41
1
10
67.4505482899636
20
1.48864543537357
30
0
41
1
10
67.508211673491
20
1.34258522847864
30
0
41
1
10
67.6049083006561
20
1.13117081374364
30
0
41
1
10
67.6387265679775
20
1.06230935302745
30
0
41
1
10
67.7082375485344
20
0.931363110999314
30
0
41
1
10
67.7441637225218
20
0.868758613625374
30
0
41
1
10
67.7813751745619
20
0.808872143790751
30
0
0
SPLINE
5
F5
100
AcDbEntity
8
1
62
256
6
ByLayer
370
18
48
1
60
0
100
AcDbSpline
70
4
71
3
72
18
73
14
40
0
40
0
40
0
40
0
40
0.231063039723848
40
0.231063039723848
40
0.426609754152636
40
0.426609754152636
40
0.623734288593504
40
0.623734288593504
40
0.797305493485131
40
0.797305493485131
40
0.966253067444644
40
0.966253067444644
40
1
40
1
40
1
40
1
41
1
10
67.0494935044523
20
-2.49459158835168
30
0
41
1
10
67.0495967352085
20
-2.4947606760845
30
0
41
1
10
67.0496428780464
20
-2.49511132100429
30
0
41
1
10
67.049593068165
20
-2.49610912078251
30
0
41
1
10
67.0495164865022
20
-2.49671578070158
30
0
41
1
10
67.0492492027121
20
-2.49817811082647
30
0
41
1
10
67.0490526017911
20
-2.49906004848137
30
0
41
1
10
67.0485948587463
20
-2.50084380596974
30
0
41
1
10
67.0483381392707
20
-2.50175435298138
30
0
41
1
10
67.047794714469
20
-2.50354044361194
30
0
41
1
10
67.0475025696601
20
-2.5044379859707
30
0
41
1
10
67.0471492285174
20
-2.50546299940856
30
0
41
1
10
67.0470896124538
20
-2.50563395398197
30
0
41
1
10
67.0470298995351
20
-2.50580327054192
30
0
0
SPLINE
5
F6
100
AcDbEntity
8
1
62
256
6
ByLayer
370
18
48
1
60
0
100
AcDbSpline
70
4
71
3
72
8
73
4
40
0
40
0
40
0
40
0
40
1
40
1
40
1
40
1
41
1
10
41.6476851740958
20
-2.62655362497333
30
0
41
1
10
41.7794268972224
20
-2.63175589204047
30
0
41
1
10
41.9111379743566
20
-2.63437118211411
30
0
41
1
10
42.0428525926648
20
-2.63443112167545
30
0
0
SPLINE
5
F7
100
AcDbEntity
8
1
62
256
6
ByLayer
370
18
48
1
60
0
100
AcDbSpline
70
4
71
3
72
30
73
26
40
0
40
0
40
0
40
0
40
0.0412244703185353
40
0.0412244703185353
40
0.121122431125324
40
0.121122431125324
40
0.201020391932112
40
0.201020391932112
40
0.280918352738901
40
0.280918352738901
40
0.360816313545689
40
0.360816313545689
40
0.440714274352478
40
0.440714274352478
40
0.520612235159266
40
0.520612235159266
40
0.600510195966054
40
0.600510195966054
40
0.680408156772843
40
0.680408156772843
40
0.760306117579631
40
0.760306117579631
40
0.84020407838642
40
0.84020407838642
40
1
40
1
40
1
40
1
41
1
10
56.908584874006
20
2.53662748472823
30
0
41
1
10
57.0424984972687
20
2.5559102403144
30
0
41
1
10
57.1763685978126
20
2.57264630907187
30
0
41
1
10
57.5698978926286
20
2.61414728612777
30
0
41
1
10
57.8297844979684
20
2.63186260221127
30
0
41
1
10
58.3500857665816
20
2.64776113820068
30
0
41
1
10
58.6104103389759
20
2.64580007412639
30
0
41
1
10
59.134424620983
20
2.62174951641597
30
0
41
1
10
59.3985213328358
20
2.59965321916602
30
0
41
1
10
59.9219409134708
20
2.53601191958816
30
0
41
1
10
60.181980742842
20
2.49422300011463
30
0
41
1
10
60.702219880396
20
2.39343355611931
30
1E-16
41
1
10
60.9622380866226
20
2.3344850847958
30
1E-16
41
1
10
61.4811444940452
20
2.19864525044372
30
1E-16
41
1
10
61.739767867555
20
2.12125218524901
30
1E-16
41
1
10
62.2596709210254
20
1.95234913982651
30
1E-16
41
1
10
62.5206088682374
20
1.86056842064889
30
1E-16
41
1
10
63.0447929829796
20
1.66274307459923
30
-1E-16
41
1
10
63.3087732926212
20
1.55636638738542
30
-1E-16
41
1
10
63.8320419256385
20
1.33334080626551
30
-1E-16
41
1
10
64.0920201938998
20
1.21616014965943
30
-1E-16
41
1
10
64.611267411254
20
0.975297391802116
30
-1E-16
41
1
10
64.8702620607538
20
0.851119156424318
30
-1E-16
41
1
10
65.6476853547442
20
0.471917523555277
30
0
41
1
10
66.1658650104341
20
0.20898126027015
30
0
41
1
10
66.6871300695215
20
-0.0581568767335909
30
0
0
SPLINE
5
F8
100
AcDbEntity
8
1
62
256
6
ByLayer
370
18
48
1
60
0
100
AcDbSpline
70
4
71
3
72
10
73
6
40
0
40
0
40
0
40
0
40
0.5
40
0.5
40
1
40
1
40
1
40
1
41
1
10
41.5020582801494
20
2.63170845302227
30
0
41
1
10
41.5020582801494
20
2.63026072459533
30
0
41
1
10
41.5206203083239
20
2.62808036387025
30
0
41
1
10
41.5792545010142
20
2.62545202825794
30
0
41
1
10
41.6170625131377
20
2.62534438573741
30
0
41
1
10
41.6476851740958
20
2.62655362497333
30
0
0
SPLINE
5
F9
100
AcDbEntity
8
1
62
256
6
ByLayer
370
18
48
1
60
0
100
AcDbSpline
70
4
71
3
72
8
73
4
40
0
40
0
40
0
40
0
40
1
40
1
40
1
40
1
41
1
10
66.9065981065327
20
2.61684691790063
30
0
41
1
10
66.9490149366154
20
2.59249869293186
30
0
41
1
10
66.9915227883187
20
2.56771848641779
30
0
41
1
10
67.0341356404675
20
2.54251467037295
30
0
0
SPLINE
5
FA
100
AcDbEntity
8
1
62
256
6
ByLayer
370
18
48
1
60
0
100
AcDbSpline
70
4
71
3
72
30
73
26
40
0
40
0
40
0
40
0
40
0.498912865221872
40
0.498912865221872
40
0.682087221654973
40
0.682087221654973
40
0.798659521688085
40
0.798659521688085
40
0.873108421869298
40
0.873108421869298
40
0.92070544557622
40
0.92070544557622
40
0.951110815943847
40
0.951110815943847
40
0.970469184254768
40
0.970469184254768
40
0.982616973826103
40
0.982616973826103
40
0.99022632213749
40
0.99022632213749
40
0.99522385439615
40
0.99522385439615
40
0.999384358035502
40
0.999384358035502
40
1
40
1
40
1
40
1
41
1
10
66.9173244400085
20
2.64960383432893
30
0
41
1
10
66.9438150410242
20
2.63223010585182
30
0
41
1
10
66.9703339963505
20
2.61470487598828
30
0
41
1
10
67.0066793832431
20
2.59050962310758
30
0
41
1
10
67.0164543959011
20
2.5839849276766
30
0
41
1
10
67.0324568379052
20
2.57327642305256
30
0
41
1
10
67.0386801539846
20
2.56910526349029
30
0
41
1
10
67.0488649367655
20
2.56226812422679
30
0
41
1
10
67.0528311190185
20
2.55960288697997
30
0
41
1
10
67.0593237951717
20
2.55523532879383
30
0
41
1
10
67.0618536039071
20
2.55353241689636
30
0
41
1
10
67.0659945699292
20
2.55074305898515
30
0
41
1
10
67.0676055330438
20
2.54965743076036
30
0
41
1
10
67.0702486271615
20
2.54787547209111
30
0
41
1
10
67.0712779826074
20
2.5471812883182
30
0
41
1
10
67.0729739888049
20
2.54603733436807
30
0
41
1
10
67.0736339008121
20
2.54559218632056
30
0
41
1
10
67.0747156697884
20
2.54486244206234
30
0
41
1
10
67.0751336385032
20
2.54458047532944
30
0
41
1
10
67.0758189369116
20
2.54411807817021
30
0
41
1
10
67.076089078915
20
2.54393578115656
30
0
41
1
10
67.0765727769942
20
2.54360927537877
30
0
41
1
10
67.0767898383925
20
2.54346272129871
30
0
41
1
10
67.0770217396752
20
2.54330603241223
30
0
41
1
10
67.0770513239962
20
2.54328604174776
30
0
41
1
10
67.0770804278801
20
2.543266371362
30
0
0
SPLINE
5
FB
100
AcDbEntity
8
1
62
256
6
ByLayer
370
18
48
1
60
0
100
AcDbSpline
70
4
71
3
72
8
73
4
40
0
40
0
40
0
40
0
40
1
40
1
40
1
40
1
41
1
10
67.9961428375456
20
0.188125842753976
30
0
41
1
10
68.0012903350118
20
0.0625960899126312
30
0
41
1
10
68.0012811148868
20
-0.0628209370348429
30
0
41
1
10
67.996142837546
20
-0.18812584274454
30
0
0
SPLINE
5
FC
100
AcDbEntity
8
1
62
256
6
ByLayer
370
18
48
1
60
0
100
AcDbSpline
70
4
71
3
72
10
73
6
40
0
40
0
40
0
40
0
40
0.5
40
0.5
40
1
40
1
40
1
40
1
41
1
10
66.9065981065304
20
2.61684691790347
30
0
41
1
10
66.9086593792435
20
2.62670329473139
30
0
41
1
10
66.9106123991037
20
2.63439063220005
30
0
41
1
10
66.914166243482
20
2.64534877786818
30
0
41
1
10
66.915797129428
20
2.64861899316426
30
0
41
1
10
66.9173244400085
20
2.6496038343289
30
0
0
SPLINE
5
FD
100
AcDbEntity
8
1
62
256
6
ByLayer
370
18
48
1
60
0
100
AcDbSpline
70
4
71
3
72
22
73
18
40
0
40
0
40
0
40
0
40
0.125
40
0.125
40
0.25
40
0.25
40
0.375
40
0.375
40
0.5
40
0.5
40
0.625
40
0.625
40
0.75
40
0.75
40
0.875
40
0.875
40
1
40
1
40
1
40
1
41
1
10
66.7537241404895
20
-0.0986751406684618
30
0
41
1
10
66.7578974119486
20
-0.246200335413164
30
0
41
1
10
66.7677617871435
20
-0.390663721277548
30
0
41
1
10
66.793653512032
20
-0.674156702027346
30
0
41
1
10
66.8097769705778
20
-0.813720865349495
30
0
41
1
10
66.8441120184919
20
-1.08511830604723
30
1E-16
41
1
10
66.8621338663643
20
-1.21566529365836
30
1E-16
41
1
10
66.8966013247146
20
-1.46363500100773
30
1E-16
41
1
10
66.9130130993909
20
-1.58087811855816
30
1E-16
41
1
10
66.9423437034731
20
-1.79830996295277
30
1E-16
41
1
10
66.9552771120072
20
-1.89864241870137
30
-1E-16
41
1
10
66.9775619768185
20
-2.07878209141899
30
-1E-16
41
1
10
66.9869582910769
20
-2.15890370282023
30
-1E-16
41
1
10
67.0039360114475
20
-2.29593373625843
30
-1E-16
41
1
10
67.0115895506805
20
-2.35322311351655
30
0
41
1
10
67.0283105768672
20
-2.44248002109279
30
0
41
1
10
67.0374020986858
20
-2.47478636300781
30
0
41
1
10
67.0494935044524
20
-2.49459158835168
30
0
0
SPLINE
5
FE
100
AcDbEntity
8
1
62
256
6
ByLayer
370
18
48
1
60
0
100
AcDbSpline
70
4
71
3
72
10
73
6
40
0
40
0
40
0
40
0
40
0.648653406070844
40
0.648653406070844
40
1
40
1
40
1
40
1
41
1
10
13.0142731798146
20
-1.50597651152111
30
0
41
1
10
11.9959505625148
20
-1.71895849683906
30
0
41
1
10
10.9856379342433
20
-1.93032340985283
30
0
41
1
10
9.44178228992632
20
-2.24693532907943
30
0
41
1
10
8.90163376670967
20
-2.35648078357136
30
0
41
1
10
8.36393058884101
20
-2.46390241153722
30
0
0
SPLINE
5
FF
100
AcDbEntity
8
1
62
256
6
ByLayer
370
18
48
1
60
0
100
AcDbSpline
70
4
71
3
72
12
73
8
40
0
40
0
40
0
40
0
40
0.5
40
0.5
40
0.75
40
0.75
40
1
40
1
40
1
40
1
41
1
10
41.5020582801494
20
-2.60003793613919
30
0
41
1
10
41.5020582801494
20
-2.57603777174043
30
0
41
1
10
41.5098412407893
20
-2.55169459770335
30
0
41
1
10
41.5352273177853
20
-2.52106049209954
30
0
41
1
10
41.5459904949411
20
-2.51198912859979
30
0
41
1
10
41.5720175118212
20
-2.49880055763342
30
0
41
1
10
41.5871684753556
20
-2.49491464363103
30
0
41
1
10
41.6027700822633
20
-2.4950329539223
30
0
0
SPLINE
5
100
100
AcDbEntity
8
1
62
256
6
ByLayer
370
18
48
1
60
0
100
AcDbSpline
70
4
71
3
72
40
73
36
40
0
40
0
40
0
40
0
40
0.0237237026120227
40
0.0237237026120227
40
0.12135133235082
40
0.12135133235082
40
0.170165147220219
40
0.170165147220219
40
0.218978962089617
40
0.218978962089617
40
0.316606591828413
40
0.316606591828413
40
0.36542040669781
40
0.36542040669781
40
0.414234221567208
40
0.414234221567208
40
0.511861851306005
40
0.511861851306005
40
0.609489481044802
40
0.609489481044802
40
0.633896388479503
40
0.633896388479503
40
0.658303295914203
40
0.658303295914203
40
0.707117110783604
40
0.707117110783604
40
0.804744740522403
40
0.804744740522403
40
0.853558555391802
40
0.853558555391802
40
0.877965462826502
40
0.877965462826502
40
0.902372370261203
40
0.902372370261203
40
1
40
1
40
1
40
1
41
1
10
50.6568325171377
20
2.63974774867128
30
0
41
1
10
50.7848492902355
20
2.63969925402816
30
0
41
1
10
50.9128004956639
20
2.63725579214537
30
0
41
1
10
51.5673306133209
20
2.61252890018719
30
0
41
1
10
52.0938975751327
20
2.55214822633641
30
0
41
1
10
52.8912145637124
20
2.40248062880653
30
1E-16
41
1
10
53.1588599352903
20
2.34254379676167
30
1E-16
41
1
10
53.6899729563447
20
2.20576185211763
30
1E-16
41
1
10
53.9543214152638
20
2.1287822661711
30
1E-16
41
1
10
54.7455562450449
20
1.87459964494056
30
1E-16
41
1
10
55.2706536395737
20
1.67410717250306
30
-1E-16
41
1
10
56.0624504449501
20
1.33838793153564
30
-1E-16
41
1
10
56.3270586425344
20
1.22064493432666
30
-1E-16
41
1
10
56.8587832531178
20
0.975277755959979
30
-1E-16
41
1
10
57.1263245849718
20
0.847424384139032
30
-1E-16
41
1
10
57.9224815580814
20
0.458362899153485
30
0
41
1
10
58.4485788104963
20
0.190008530914042
30
0
41
1
10
59.5011650169987
20
-0.345025269085568
30
0
41
1
10
60.0276676178297
20
-0.611676621524651
30
0
41
1
10
60.692498084477
20
-0.930939491498521
30
1E-16
41
1
10
60.8260438741377
20
-0.994214959521173
30
1E-16
41
1
10
61.0926023091745
20
-1.11844411614416
30
1E-16
41
1
10
61.2255170640603
20
-1.17935582552613
30
1E-16
41
1
10
61.6234030268863
20
-1.35811455327257
30
1E-16
41
1
10
61.8875183547635
20
-1.47197964838199
30
1E-16
41
1
10
62.6782637706918
20
-1.79485543626995
30
1E-16
41
1
10
63.2032133064829
20
-1.98521263545786
30
-1E-16
41
1
10
63.9949692164799
20
-2.22226929310224
30
-1E-16
41
1
10
64.2596202973193
20
-2.29321136166021
30
-1E-16
41
1
10
64.6586196645761
20
-2.38626002708602
30
-1E-16
41
1
10
64.7921664249842
20
-2.41508853032008
30
-1E-16
41
1
10
65.0587011576289
20
-2.46781973584177
30
0
41
1
10
65.1917412153974
20
-2.49174313693499
30
0
41
1
10
65.85620615826
20
-2.59897001750608
30
0
41
1
10
66.3854431018794
20
-2.64505536041861
30
0
41
1
10
66.9173244400084
20
-2.6496038343289
30
0
0
SPLINE
5
101
100
AcDbEntity
8
1
62
256
6
ByLayer
370
18
48
1
60
0
100
AcDbSpline
70
4
71
3
72
30
73
26
40
0
40
0
40
0
40
0
40
0.0515148204450111
40
0.0515148204450111
40
0.175051681303168
40
0.175051681303168
40
0.236820111732247
40
0.236820111732247
40
0.298588542161326
40
0.298588542161326
40
0.42212540301948
40
0.42212540301948
40
0.483893833448557
40
0.483893833448557
40
0.545662263877632
40
0.545662263877632
40
0.669199124735782
40
0.669199124735782
40
0.792735985593931
40
0.792735985593931
40
0.916272846452081
40
0.916272846452081
40
0.978041276881156
40
0.978041276881156
40
1
40
1
40
1
40
1
41
1
10
59.7720424830377
20
-0.470230185138263
30
0
41
1
10
59.5497949843189
20
-0.363392706858036
30
0
41
1
10
59.3283420530261
20
-0.255637390787911
30
0
41
1
10
58.5772411755495
20
0.110998132875039
30
0
41
1
10
58.0496929826235
20
0.370735821439666
30
0
41
1
10
57.2551542188639
20
0.747305008277323
30
0
41
1
10
56.9897682477116
20
0.870653626406039
30
-1E-16
41
1
10
56.4567559540064
20
1.11059393505764
30
-1E-16
41
1
10
56.1886040808186
20
1.22748101142295
30
-1E-16
41
1
10
55.3842100408006
20
1.56201355519156
30
-1E-16
41
1
10
54.8479843498531
20
1.76306266638872
30
-1E-16
41
1
10
54.0461872682578
20
2.01778772673188
30
1E-16
41
1
10
53.7790644771994
20
2.09514001271324
30
1E-16
41
1
10
53.2439116592163
20
2.23268852957816
30
1E-16
41
1
10
52.9756324505868
20
2.29290208620577
30
1E-16
41
1
10
52.1712583071379
20
2.44564088910957
30
0
41
1
10
51.634342077957
20
2.50986253957291
30
0
41
1
10
50.5645704286875
20
2.55750055347994
30
0
41
1
10
50.0309538749444
20
2.54072888964035
30
0
41
1
10
48.9588334863543
20
2.42734928130926
30
0
41
1
10
48.4257162088643
20
2.33082681445833
30
1E-16
41
1
10
47.6228604704915
20
2.13318500043138
30
1E-16
41
1
10
47.3544916092121
20
2.05846300850229
30
1E-16
41
1
10
46.993126034788
20
1.94756640066905
30
1E-16
41
1
10
46.8984907157024
20
1.91756476460452
30
1E-16
41
1
10
46.8039696055955
20
1.88667794521726
30
0
0
SPLINE
5
102
100
AcDbEntity
8
1
62
256
6
ByLayer
370
18
48
1
60
0
100
AcDbSpline
70
4
71
3
72
10
73
6
40
0
40
0
40
0
40
0
40
0.5
40
0.5
40
1
40
1
40
1
40
1
41
1
10
41.5020582801494
20
-2.63170845302224
30
0
41
1
10
41.5020582801494
20
-2.63026072459533
30
0
41
1
10
41.520620308324
20
-2.62808036387025
30
0
41
1
10
41.5792545010142
20
-2.62545202825794
30
0
41
1
10
41.6170625131377
20
-2.62534438573741
30
0
41
1
10
41.6476851740958
20
-2.62655362497333
30
0
0
SPLINE
5
103
100
AcDbEntity
8
SK1
62
256
6
ByLayer
370
18
48
1
60
0
100
AcDbSpline
70
4
71
3
72
8
73
4
40
0
40
0
40
0
40
0
40
1
40
1
40
1
40
1
41
1
10
-35.8509618943233
20
0.109135018935973
30
0
41
1
10
-35.8173583433639
20
0.0987077103842182
30
0
41
1
10
-35.7837020560679
20
0.0882947438998372
30
0
41
1
10
-35.7499999999999
20
0.0778942245980545
30
0
0
SPLINE
5
104
100
AcDbEntity
8
SK1
62
256
6
ByLayer
370
18
48
1
60
0
100
AcDbSpline
70
4
71
3
72
12
73
8
40
0
40
0
40
0
40
0
40
0.250000000000001
40
0.250000000000001
40
0.500000000000001
40
0.500000000000001
40
1
40
1
40
1
40
1
41
1
10
-35.65
20
1.30073948525859
30
-1E-16
41
1
10
-35.65
20
1.31554984476642
30
-1E-16
41
1
10
-35.6543403470552
20
1.3276776742735
30
-1E-16
41
1
10
-35.6670034572333
20
1.34566618291623
30
-1E-16
41
1
10
-35.6754069618006
20
1.35191453332899
30
-1E-16
41
1
10
-35.7033744297257
20
1.36413383425392
30
-1E-16
41
1
10
-35.7260009806424
20
1.36415873329659
30
-1E-16
41
1
10
-35.7500000000001
20
1.35675258977972
30
-1E-16
0
SPLINE
5
105
100
AcDbEntity
8
SK1
62
256
6
ByLayer
370
18
48
1
60
0
100
AcDbSpline
70
4
71
3
72
10
73
6
40
0
40
0
40
0
40
0
40
0.5
40
0.5
40
1
40
1
40
1
40
1
41
1
10
-35.8509618943233
20
0.109135018935973
30
0
41
1
10
-35.8741904300927
20
0.159052099884775
30
0
41
1
10
-35.8986222732874
20
0.207500061307229
30
0
41
1
10
-35.9485161922248
20
0.300302285982923
30
0
41
1
10
-35.974056478015
20
0.34483700045709
30
0
41
1
10
-35.9999999999999
20
0.387797663433958
30
0
0
SPLINE
5
106
100
AcDbEntity
8
SK1
62
256
6
ByLayer
370
18
48
1
60
0
100
AcDbSpline
70
4
71
3
72
8
73
4
40
0
40
0
40
0
40
0
40
1
40
1
40
1
40
1
41
1
10
-36.0000000000001
20
1.45441894805967
30
-1E-16
41
1
10
-35.9478735570755
20
1.42167208860391
30
-1E-16
41
1
10
-35.897619057052
20
1.37983098691595
30
-1E-16
41
1
10
-35.8509618943233
20
1.32551179544169
30
-1E-16
0
SPLINE
5
107
100
AcDbEntity
8
SK1
62
256
6
ByLayer
370
18
48
1
60
0
100
AcDbSpline
70
4
71
3
72
10
73
6
40
0
40
0
40
0
40
0
40
0.886060905867395
40
0.886060905867395
40
1
40
1
40
1
40
1
41
1
10
-35.75
20
0.0778942245981398
30
0
41
1
10
-35.7259913046562
20
0.0704850950533569
30
0
41
1
10
-35.7033433879313
20
0.0548228551962779
30
0
41
1
10
-35.6823706291326
20
0.0294386743468635
30
0
41
1
10
-35.6800371330686
20
0.0264110766895556
30
0
41
1
10
-35.6777810092013
20
0.0232521710313165
30
0
0
SPLINE
5
108
100
AcDbEntity
8
SK1
62
256
6
ByLayer
370
18
48
1
60
0
100
AcDbSpline
70
4
71
3
72
10
73
6
40
0
40
0
40
0
40
0
40
0.5
40
0.5
40
1
40
1
40
1
40
1
41
1
10
-35.8509618943233
20
-0.109135018936001
30
0
41
1
10
-35.8741904300927
20
-0.159052099884775
30
0
41
1
10
-35.8986222732874
20
-0.207500061307229
30
0
41
1
10
-35.9485161922248
20
-0.300302285982923
30
0
41
1
10
-35.974056478015
20
-0.34483700045709
30
0
41
1
10
-35.9999999999999
20
-0.387797663433958
30
0
0
SPLINE
5
109
100
AcDbEntity
8
SK1
62
256
6
ByLayer
370
18
48
1
60
0
100
AcDbSpline
70
4
71
3
72
8
73
4
40
0
40
0
40
0
40
0
40
1
40
1
40
1
40
1
41
1
10
-35.8509618943233
20
-0.109135018936001
30
0
41
1
10
-35.8173583433639
20
-0.0987077103842466
30
0
41
1
10
-35.7837020560679
20
-0.0882947438998372
30
0
41
1
10
-35.7499999999999
20
-0.0778942245980545
30
0
0
SPLINE
5
10A
100
AcDbEntity
8
SK1
62
256
6
ByLayer
370
18
48
1
60
0
100
AcDbSpline
70
4
71
3
72
8
73
4
40
0
40
0
40
0
40
0
40
1
40
1
40
1
40
1
41
1
10
-35.75
20
1.35675258977957
30
-1E-16
41
1
10
-35.7837021700193
20
1.34635203531221
30
-1E-16
41
1
10
-35.8173584624684
20
1.33593906703482
30
-1E-16
41
1
10
-35.8509618943233
20
1.32551179544169
30
-1E-16
0
SPLINE
5
10B
100
AcDbEntity
8
SK1
62
256
6
ByLayer
370
18
48
1
60
0
100
AcDbSpline
70
4
71
3
72
12
73
8
40
0
40
0
40
0
40
0
40
0.5
40
0.5
40
0.75
40
0.75
40
1
40
1
40
1
40
1
41
1
10
-35.75
20
-0.0778942245981682
30
0
41
1
10
-35.7259913046562
20
-0.0704850950533853
30
0
41
1
10
-35.7033433879313
20
-0.0548228551962779
30
0
41
1
10
-35.6754686754417
20
-0.0210849597790741
30
0
41
1
10
-35.667025596347
20
-0.0077926887945523
30
0
41
1
10
-35.6543350076412
20
0.0224095722107904
30
0
41
1
10
-35.65
20
0.0398321212959729
30
0
41
1
10
-35.65
20
0.057378912797958
30
0
0
SPLINE
5
10C
100
AcDbEntity
8
1
62
256
6
ByLayer
370
18
48
1
60
0
100
AcDbSpline
70
4
71
2
72
6
73
3
40
0
40
0
40
0
40
1
40
1
40
1
41
1
10
43.1869645579912
20
0.0086646925570903
30
0
41
1
10
43.1869630597398
20
0.0088166382244026
30
0
41
1
10
43.1869615615211
20
0.0089685406797457
30
0
0
SPLINE
5
10D
100
AcDbEntity
8
1
62
256
6
ByLayer
370
18
48
1
60
0
100
AcDbSpline
70
4
71
2
72
6
73
3
40
0
40
0
40
0
40
1
40
1
40
1
41
1
10
50.2163050280833
20
0.0002619508160251
30
0
41
1
10
50.2162780588655
20
0.0002762235475302
30
0
41
1
10
50.2162510900095
20
0.0002911910800663
30
0
0
SPLINE
5
10E
100
AcDbEntity
8
1
62
256
6
ByLayer
370
18
48
1
60
0
100
AcDbSpline
70
4
71
2
72
6
73
3
40
0
40
0
40
0
40
1
40
1
40
1
41
1
10
42.1579161984673
20
2.50408220381416
30
0
41
1
10
41.8803221038801
20
2.50364846024769
30
0
41
1
10
41.6027331588333
20
2.50154055004458
30
0
0
SPLINE
5
10F
100
AcDbEntity
8
1
62
256
6
ByLayer
370
18
48
1
60
0
100
AcDbSpline
70
4
71
1
72
4
73
2
40
0
40
0
40
1
40
1
41
1
10
67.065865247976
20
-2.55083006713431
30
0
41
1
10
67.0817592926371
20
-2.5401209000691
30
0
0
SPLINE
5
110
100
AcDbEntity
8
1
62
256
6
ByLayer
370
18
48
1
60
0
100
AcDbSpline
70
4
71
3
72
10
73
6
40
0
40
0
40
0
40
0
40
0.233248234284974
40
0.579124963514614
40
1
40
1
40
1
40
1
41
1
10
66.667445870554
20
0.612981642687828
30
0
41
1
10
66.4377380160086
20
0.689382823333034
30
0
41
1
10
65.8686426771446
20
0.882681050308776
30
-1E-16
41
1
10
64.8909686373869
20
1.23188097735971
30
-1E-16
41
1
10
64.1472492865898
20
1.51536419392298
30
-1E-16
41
1
10
63.7407209558376
20
1.67570334635894
30
-1E-16
0
SPLINE
5
111
100
AcDbEntity
8
1
62
256
6
ByLayer
370
18
48
1
60
0
100
AcDbSpline
70
4
71
3
72
23
73
19
40
0
40
0
40
0
40
0
40
4.62283156238E-05
40
0.0001159486428337
40
0.0010347078109639
40
0.0021045823607249
40
0.0027278237437406
40
0.0037828459901051
40
0.0079274183378129
40
0.0245314895773197
40
0.0522771204196068
40
0.140287034174464
40
0.237570102216597
40
0.326885862625456
40
0.409858690309505
40
0.559863410425012
40
0.772027738594246
40
1
40
1
40
1
40
1
41
1
10
36.0715067994476
20
-0.041300001558028
30
0
41
1
10
36.0715018113561
20
-0.0412992165146022
30
0
41
1
10
36.0714745465179
20
-0.0412933225394454
30
0
41
1
10
36.0712428207477
20
-0.0412593025593253
30
0
41
1
10
36.0697594171982
20
-0.040934948352259
30
0
41
1
10
36.0668253773047
20
-0.0402194755169774
30
0
41
1
10
36.0632923411206
20
-0.039337642954365
30
0
41
1
10
36.0540148352619
20
-0.0367901775565258
30
0
41
1
10
36.0186364549543
20
-0.0267907076011227
30
0
41
1
10
35.9386282335952
20
-0.0037412559474035
30
0
41
1
10
35.7205344119037
20
0.0599268265552837
30
0
41
1
10
35.3688157080851
20
0.165291653640395
30
0
41
1
10
34.9167902210511
20
0.304926214061396
30
0
41
1
10
34.4741185340603
20
0.445852925439254
30
0
41
1
10
33.9462874010454
20
0.618417755171492
30
0
41
1
10
33.2198876821927
20
0.864523557717405
30
-1E-16
41
1
10
32.2618087717391
20
1.20586556398905
30
-1E-16
41
1
10
31.5528483550211
20
1.4758717463732
30
-1E-16
41
1
10
31.1870389371636
20
1.61970830106307
30
-1E-16
0
SPLINE
5
112
100
AcDbEntity
8
1
62
256
6
ByLayer
370
18
48
1
60
0
100
AcDbSpline
70
4
71
3
72
27
73
23
40
0
40
0
40
0
40
0
40
2.65490879677E-05
40
7.58456145263E-05
40
0.0001602482235234
40
0.0002303374109978
40
0.0002955670060184
40
0.0007040939291646
40
0.0010202627684722
40
0.0015935599450369
40
0.0026446444722571
40
0.004608668982617
40
0.0083937742958846
40
0.0160400705437279
40
0.032526726871674
40
0.0698470172938844
40
0.238419288081829
40
0.43557384815041
40
0.531006905831062
40
0.640064343029524
40
0.806276587250079
40
1
40
1
40
1
40
1
41
1
10
52.3575048109674
20
-0.0237215632554353
30
0
41
1
10
52.3575147034993
20
-0.023723807128107
30
0
41
1
10
52.3575361902289
20
-0.0237282333405062
30
0
41
1
10
52.357527623527
20
-0.023721851972283
30
0
41
1
10
52.3574237550767
20
-0.0236867950031865
30
0
41
1
10
52.3572048763893
20
-0.023618285565334
30
0
41
1
10
52.3564348770322
20
-0.0233851408078181
30
0
41
1
10
52.3550828135323
20
-0.0229843675706718
30
0
41
1
10
52.3529669077231
20
-0.0223553527166018
30
0
41
1
10
52.349774920007
20
-0.021406904928881
30
0
41
1
10
52.3438891894448
20
-0.0196589199106825
30
0
41
1
10
52.3327127817336
20
-0.0163431424507792
30
0
41
1
10
52.3106764111057
20
-0.0098150582102789
30
0
41
1
10
52.2646590343217
20
0.0037933991169155
30
0
41
1
10
52.1631508969921
20
0.0337882662890081
30
0
41
1
10
51.7952558631381
20
0.143016446156793
30
0
41
1
10
51.1292204826109
20
0.347239068869783
30
0
41
1
10
50.3702306386217
20
0.594205279398494
30
0
41
1
10
49.7122050773194
20
0.817954097873326
30
-1E-16
41
1
10
49.1067631738752
20
1.0300753756313
30
-1E-16
41
1
10
48.3439283489008
20
1.30742107877526
30
-1E-16
41
1
10
47.7621714663399
20
1.53033218261129
30
-1E-16
41
1
10
47.4500798982467
20
1.65312462988615
30
-1E-16
0
SPLINE
5
113
100
AcDbEntity
8
1
62
256
6
ByLayer
370
18
48
1
60
0
100
AcDbSpline
70
4
71
3
72
20
73
16
40
0
40
0
40
0
40
0
40
0.0002125328967626
40
0.000450694222439
40
0.0009963254181246
40
0.0016891854245308
40
0.0099884530451948
40
0.0542501387886456
40
0.11306864496909
40
0.225346906425362
40
0.365249114398259
40
0.491299051565274
40
0.620890828834383
40
0.805660285714823
40
1
40
1
40
1
40
1
41
1
10
19.3770738745396
20
0.0573768591940791
30
0
41
1
10
19.3770892151222
20
0.0573902509872823
30
0
41
1
10
19.3770410586795
20
0.0574433795133018
30
0
41
1
10
19.3765806544121
20
0.0576637441734249
30
0
41
1
10
19.3752101062549
20
0.0581800760262752
30
0
41
1
10
19.3635321586357
20
0.0621756110893159
30
0
41
1
10
19.2792989900088
20
0.0878256273256568
30
0
41
1
10
19.1106735532867
20
0.138312949873125
30
0
41
1
10
18.7773379747154
20
0.24015012011904
30
0
41
1
10
18.3003454285403
20
0.389466367205188
30
0
41
1
10
17.7207163210737
20
0.57783083589544
30
0
41
1
10
17.1172394367727
20
0.781375449453805
30
0
41
1
10
16.4475384296097
20
1.01528859726307
30
-1E-16
41
1
10
15.677298305725
20
1.29492868737469
30
-1E-16
41
1
10
15.107067925243
20
1.51345193427787
30
-1E-16
41
1
10
14.8156806989486
20
1.62799181812545
30
-1E-16
0
SPLINE
5
114
100
AcDbEntity
8
1
62
256
6
ByLayer
370
18
48
1
60
0
100
AcDbSpline
70
4
71
3
72
19
73
15
40
0
40
0
40
0
40
0
40
0.162438963189204
40
0.273020546777798
40
0.344221383372122
40
0.416796648123265
40
0.492497233876192
40
0.568270392070189
40
0.644034843797711
40
0.732428178593273
40
0.820862013580935
40
0.908145397017042
40
0.98962237203331
40
1
40
1
40
1
40
1
41
1
10
58.396737993189
20
2.51069669734082
30
0
41
1
10
58.0905751294736
20
2.51083098892781
30
0
41
1
10
57.5759664780276
20
2.5108395909989
30
0
41
1
10
56.9266485254782
20
2.51084636132012
30
0
41
1
10
56.4473738359525
20
2.51007109966997
30
0
41
1
10
56.0334838316624
20
2.50954014491211
30
0
41
1
10
55.6109900922092
20
2.5095165291915
30
0
41
1
10
55.1824774090504
20
2.51023454243082
30
0
41
1
10
54.7300302037512
20
2.50976531401514
30
0
41
1
10
54.253706387395
20
2.50885037561773
30
0
41
1
10
53.755669234707
20
2.50930982274707
30
0
41
1
10
53.2706420255322
20
2.5089945856439
30
0
41
1
10
52.9329050810679
20
2.50859888796796
30
0
41
1
10
52.7597059404129
20
2.50849682645551
30
0
41
1
10
52.7401378716714
20
2.50848640468752
30
0
0
SPLINE
5
115
100
AcDbEntity
8
1
62
256
6
ByLayer
370
18
48
1
60
0
100
AcDbSpline
70
4
71
3
72
8
73
4
40
0
40
0
40
0
40
0
40
1
40
1
40
1
40
1
41
1
10
51.9751655238858
20
2.50826566866513
30
0
41
1
10
51.7771219488558
20
2.50818467409869
30
0
41
1
10
51.5790931742172
20
2.50807128016405
30
0
41
1
10
51.3810696020045
20
2.50796221734757
30
0
0
SPLINE
5
116
100
AcDbEntity
8
1
62
256
6
ByLayer
370
18
48
1
60
0
100
AcDbSpline
70
4
71
3
72
19
73
15
40
0
40
0
40
0
40
0
40
0.152319791939506
40
0.257015029681243
40
0.340564465935641
40
0.430068003333876
40
0.52075125535151
40
0.611392977007736
40
0.689084585326469
40
0.766785121570725
40
0.844411239409805
40
0.918832540087235
40
0.991844452435593
40
1
40
1
40
1
40
1
41
1
10
51.3810696020045
20
-2.50796221734757
30
0
41
1
10
51.6611172808592
20
-2.50811645549337
30
0
41
1
10
52.1336700317582
20
-2.50839132356492
30
0
41
1
10
52.7599800448447
20
-2.50839628639866
30
0
41
1
10
53.2706420255327
20
-2.5089945856439
30
0
41
1
10
53.7556692347075
20
-2.50930982274707
30
0
41
1
10
54.2537063873955
20
-2.50885037561773
30
0
41
1
10
54.7300302037518
20
-2.50976531401514
30
0
41
1
10
55.182477409051
20
-2.51023454243082
30
0
41
1
10
55.6109900922099
20
-2.5095165291915
30
0
41
1
10
56.0334838316631
20
-2.50954014491211
30
0
41
1
10
56.4473738359532
20
-2.51007109966997
30
0
41
1
10
56.7332705902796
20
-2.51053355845275
30
0
41
1
10
56.882488861205
20
-2.51066908527642
30
0
41
1
10
56.8974826694949
20
-2.51068171190303
30
0
0
SPLINE
5
117
100
AcDbEntity
8
1
62
256
6
ByLayer
370
18
48
1
60
0
100
AcDbSpline
70
4
71
1
72
4
73
2
40
0
40
0
40
1
40
1
41
1
10
50.2162510900095
20
0.0002911910800663
30
0
41
1
10
50.2162098759597
20
0.0003140019618968
30
0
0
LINE
5
84
100
AcDbEntity
8
1
62
256
6
ByLayer
370
18
48
1
60
0
100
AcDbLine
10
0.524144
20
2.804378
30
0
11
0.524144
21
0
31
0
39
0
210
0
220
0
230
1
0
LINE
5
85
100
AcDbEntity
8
1
62
256
6
ByLayer
370
18
48
1
60
0
100
AcDbLine
10
0.524144
20
0
30
0
11
0.524144
21
-2.804378
31
0
39
0
210
0
220
0
230
1
0
LINE
5
86
100
AcDbEntity
8
1
62
256
6
ByLayer
370
18
48
1
60
0
100
AcDbLine
10
67.952381
20
0.041134
30
0
11
67.332957
21
0.72487
31
0
39
0
210
0
220
0
230
1
0
LINE
5
87
100
AcDbEntity
8
1
62
256
6
ByLayer
370
18
48
1
60
0
100
AcDbLine
10
41.502058
20
2.63404
30
0
11
41.502058
21
0.90424
31
0
39
0
210
0
220
0
230
1
0
LINE
5
88
100
AcDbEntity
8
1
62
256
6
ByLayer
370
18
48
1
60
0
100
AcDbLine
10
1.048788
20
2.608757
30
0
11
1.048788
21
0
31
0
39
0
210
0
220
0
230
1
0
LINE
5
89
100
AcDbEntity
8
1
62
256
6
ByLayer
370
18
48
1
60
0
100
AcDbLine
10
1.048788
20
0
30
0
11
1.048788
21
-2.608757
31
0
39
0
210
0
220
0
230
1
0
LINE
5
8A
100
AcDbEntity
8
1
62
256
6
ByLayer
370
18
48
1
60
0
100
AcDbLine
10
41.502058
20
-2.631708
30
0
11
41.502058
21
-2.63404
31
0
39
0
210
0
220
0
230
1
0
LINE
5
8B
100
AcDbEntity
8
1
62
256
6
ByLayer
370
18
48
1
60
0
100
AcDbLine
10
41.5
20
0.488401
30
0
11
41.5
21
0.451478
31
0
39
0
210
0
220
0
230
1
0
LINE
5
8C
100
AcDbEntity
8
1
62
256
6
ByLayer
370
18
48
1
60
0
100
AcDbLine
10
0
20
3
30
0
11
0
21
0
31
0
39
0
210
0
220
0
230
1
0
LINE
5
8D
100
AcDbEntity
8
1
62
256
6
ByLayer
370
18
48
1
60
0
100
AcDbLine
10
0
20
0
30
0
11
0
21
-3
31
0
39
0
210
0
220
0
230
1
0
LINE
5
8E
100
AcDbEntity
8
1
62
256
6
ByLayer
370
18
48
1
60
0
100
AcDbLine
10
41.60277
20
-2.495033
30
0
11
41.602754
21
-2.502265
31
0
39
0
210
0
220
0
230
1
0
LINE
5
8F
100
AcDbEntity
8
SK1
62
256
6
ByLayer
370
18
48
1
60
0
100
AcDbLine
10
0
20
3
30
0
11
0
21
-3
31
0
39
0
210
0
220
0
230
1
0
LINE
5
91
100
AcDbEntity
8
SK1
62
256
6
ByLayer
370
18
48
1
60
0
100
AcDbLine
10
-36
20
-2.065
30
0
11
-36
21
-0.387798
31
0
39
0
210
0
220
0
230
1
0
LINE
5
92
100
AcDbEntity
8
SK1
62
256
6
ByLayer
370
18
48
1
60
0
100
AcDbLine
10
-35.75
20
0.077894
30
0
11
-35.75
21
1.356753
31
0
39
0
210
0
220
0
230
1
0
LINE
5
93
100
AcDbEntity
8
SK1
62
256
6
ByLayer
370
18
48
1
60
0
100
AcDbLine
10
-35.850962
20
0.109135
30
0
11
-35.850962
21
1.325512
31
0
39
0
210
0
220
0
230
1
0
LINE
5
94
100
AcDbEntity
8
SK1
62
256
6
ByLayer
370
18
48
1
60
0
100
AcDbLine
10
-35.065
20
-3
30
0
11
-35.065
21
3
31
0
39
0
210
0
220
0
230
1
0
LINE
5
95
100
AcDbEntity
8
SK1
62
256
6
ByLayer
370
18
48
1
60
0
100
AcDbLine
10
-36
20
0.387798
30
0
11
-36
21
1.454419
31
0
39
0
210
0
220
0
230
1
0
LINE
5
96
100
AcDbEntity
8
SK1
62
256
6
ByLayer
370
18
48
1
60
0
100
AcDbLine
10
-36
20
1.454419
30
0
11
-36
21
2.065
31
0
39
0
210
0
220
0
230
1
0
LINE
5
97
100
AcDbEntity
8
SK1
62
256
6
ByLayer
370
18
48
1
60
0
100
AcDbLine
10
-35.65
20
0.057379
30
0
11
-35.65
21
1.300739
31
0
39
0
210
0
220
0
230
1
0
LINE
5
98
100
AcDbEntity
8
SK1
62
256
6
ByLayer
370
18
48
1
60
0
100
AcDbLine
10
-35.065
20
-3
30
0
11
0
21
-3
31
0
39
0
210
0
220
0
230
1
0
LINE
5
99
100
AcDbEntity
8
SK1
62
256
6
ByLayer
370
18
48
1
60
0
100
AcDbLine
10
0
20
3
30
0
11
-35.065
21
3
31
0
39
0
210
0
220
0
230
1
0
LINE
5
9A
100
AcDbEntity
8
SK1
62
256
6
ByLayer
370
18
48
1
60
0
100
AcDbLine
10
-36
20
-2.065
30
0
11
-35.065
21
-3
31
0
39
0
210
0
220
0
230
1
0
LINE
5
9B
100
AcDbEntity
8
SK1
62
256
6
ByLayer
370
18
48
1
60
0
100
AcDbLine
10
-35.065
20
3
30
0
11
-36
21
2.065
31
0
39
0
210
0
220
0
230
1
0
LINE
5
9C
100
AcDbEntity
8
1
62
256
6
ByLayer
370
18
48
1
60
0
100
AcDbLine
10
1.048788
20
-2.608757
30
0
11
10.134036
21
-2.614435
31
0
39
0
210
0
220
0
230
1
0
LINE
5
9D
100
AcDbEntity
8
1
62
256
6
ByLayer
370
18
48
1
60
0
100
AcDbLine
10
17.878934
20
-2.619276
30
0
11
26.464259
21
-2.624642
31
0
39
0
210
0
220
0
230
1
0
LINE
5
9E
100
AcDbEntity
8
1
62
256
6
ByLayer
370
18
48
1
60
0
100
AcDbLine
10
34.223483
20
-2.629491
30
0
11
41.502058
21
-2.63404
31
0
39
0
210
0
220
0
230
1
0
LINE
5
9F
100
AcDbEntity
8
1
62
256
6
ByLayer
370
18
48
1
60
0
100
AcDbLine
10
42.040335
20
-2.634377
30
0
11
42.799185
21
-2.634851
31
0
39
0
210
0
220
0
230
1
0
LINE
5
A0
100
AcDbEntity
8
1
62
256
6
ByLayer
370
18
48
1
60
0
100
AcDbLine
10
50.648213
20
-2.639757
30
0
11
51.381359
21
-2.640215
31
0
39
0
210
0
220
0
230
1
0
LINE
5
A1
100
AcDbEntity
8
1
62
256
6
ByLayer
370
18
48
1
60
0
100
AcDbLine
10
58.395916
20
-2.644599
30
0
11
59.135946
21
-2.645061
31
0
39
0
210
0
220
0
230
1
0
LINE
5
A2
100
AcDbEntity
8
1
62
256
6
ByLayer
370
18
48
1
60
0
100
AcDbLine
10
59.135946
20
2.645061
30
0
11
58.395916
21
2.644599
31
0
39
0
210
0
220
0
230
1
0
LINE
5
A3
100
AcDbEntity
8
1
62
256
6
ByLayer
370
18
48
1
60
0
100
AcDbLine
10
51.381359
20
2.640215
30
0
11
50.648213
21
2.639757
31
0
39
0
210
0
220
0
230
1
0
LINE
5
A4
100
AcDbEntity
8
1
62
256
6
ByLayer
370
18
48
1
60
0
100
AcDbLine
10
42.799185
20
2.634851
30
0
11
42.040335
21
2.634377
31
0
39
0
210
0
220
0
230
1
0
LINE
5
A5
100
AcDbEntity
8
1
62
256
6
ByLayer
370
18
48
1
60
0
100
AcDbLine
10
41.502058
20
2.63404
30
0
11
34.223483
21
2.629491
31
0
39
0
210
0
220
0
230
1
0
LINE
5
A6
100
AcDbEntity
8
1
62
256
6
ByLayer
370
18
48
1
60
0
100
AcDbLine
10
26.464259
20
2.624642
30
0
11
17.878934
21
2.619276
31
0
39
0
210
0
220
0
230
1
0
LINE
5
A7
100
AcDbEntity
8
1
62
256
6
ByLayer
370
18
48
1
60
0
100
AcDbLine
10
10.134036
20
2.614435
30
0
11
1.048788
21
2.608757
31
0
39
0
210
0
220
0
230
1
0
LINE
5
A8
100
AcDbEntity
8
SK4
62
256
6
ByLayer
370
18
48
0.05
60
0
100
AcDbLine
10
73
20
0
30
0
11
-41
21
0
31
0
39
0
210
0
220
0
230
1
0
LINE
5
AA
100
AcDbEntity
8
4
62
256
6
ByLayer
370
18
48
0.05
60
0
100
AcDbLine
10
-36
20
0
30
0
11
73
21
0
31
0
39
0
210
0
220
0
230
1
0
LINE
5
AC
100
AcDbEntity
8
80
62
256
6
ByLayer
370
18
48
1
60
0
100
AcDbLine
10
0
20
0
30
0
11
-6
21
0
31
0
39
0
210
0
220
0
230
1
0
LINE
5
AD
100
AcDbEntity
8
81
62
256
6
ByLayer
370
18
48
1
60
0
100
AcDbLine
10
68
20
0
30
0
11
74
21
0
31
0
39
0
210
0
220
0
230
1
0
LINE
5
AE
100
AcDbEntity
8
SK2
62
256
6
ByLayer
370
13
48
1
60
0
100
AcDbLine
10
68.542946
20
1.491766
30
0
11
75.926164
21
21.777432
31
0
39
0
210
0
220
0
230
1
0
LINE
5
B0
100
AcDbEntity
8
SK2
62
256
6
ByLayer
370
13
48
1
60
0
100
AcDbLine
10
68.542946
20
-1.491766
30
0
11
75.926164
21
-21.777432
31
0
39
0
210
0
220
0
230
1
0
LINE
5
B1
100
AcDbEntity
8
1
62
256
6
ByLayer
370
13
48
1
60
0
100
AcDbLine
10
74.840271
20
18.793901
30
0
11
77.936867
21
17.97755
31
0
39
0
210
0
220
0
230
1
0
LINE
5
B2
100
AcDbEntity
8
1
62
256
6
ByLayer
370
13
48
1
60
0
100
AcDbLine
10
74.840271
20
18.793901
30
0
11
77.620069
21
17.203907
31
0
39
0
210
0
220
0
230
1
0
LINE
5
B3
100
AcDbEntity
8
1
62
256
6
ByLayer
370
13
48
1
60
0
100
AcDbLine
10
77.936867
20
17.97755
30
0
11
77.620069
21
17.203907
31
0
39
0
210
0
220
0
230
1
0
LINE
5
B4
100
AcDbEntity
8
1
62
256
6
ByLayer
370
13
48
1
60
0
100
AcDbLine
10
74.840271
20
-18.793901
30
0
11
77.620066
21
-17.203908
31
0
39
0
210
0
220
0
230
1
0
LINE
5
B5
100
AcDbEntity
8
1
62
256
6
ByLayer
370
13
48
1
60
0
100
AcDbLine
10
74.840271
20
-18.793901
30
0
11
77.93687
21
-17.977549
31
0
39
0
210
0
220
0
230
1
0
LINE
5
B6
100
AcDbEntity
8
1
62
256
6
ByLayer
370
13
48
1
60
0
100
AcDbLine
10
77.620066
20
-17.203908
30
0
11
77.93687
21
-17.977549
31
0
39
0
210
0
220
0
230
1
0
MTEXT
5
118
100
AcDbEntity
8
SK2
62
256
6
ByLayer
370
18
48
1
60
0
100
AcDbMText
10
81.717388
20
-2.467451
30
0
210
0
220
0
230
1
1
\W0.7237;140.00
40
3.50012
41
0
44
1.084337
50
0
71
7
72
5
7
iso_b_vert
0
MTEXT
5
11B
100
AcDbEntity
8
SK6
62
256
6
ByLayer
370
18
48
1
60
0
100
AcDbMText
10
-23.331725
20
-58.549449
30
0
210
0
220
0
230
1
1
\W0.7494;860.1-0530-043A1-GM X1BM
40
3.175
41
0
44
1.084337
50
0
71
7
72
5
7
iso_b_vert
0
DIMENSION
5
11E
100
AcDbEntity
8
SK2
62
256
6
ByLayer
370
18
48
1
60
0
100
AcDbDimension
2
_U0
10
68
20
-26.50012
30
0
11
34
21
-26.50012
31
0
70
32
71
2
72
1
41
1
210
0
220
0
230
1
3
Standard
100
AcDbAlignedDimension
13
0
23
-3
33
0
14
68
24
0
34
0
50
0
100
AcDbRotatedDimension
1001
ACAD
1000
DSTYLE
1002
{
1070
   371
1070
    13
1070
   372
1070
    13
1070
     3
1000

1070
   170
1070
     0
1070
   144
1040
1.0
1070
   277
1070
     2
1070
   284
1070
     8
1070
   278
1070
    46
1070
   146
1040
0.999966
1070
   345
1005
16
1070
   347
1005
16
1070
   346
1005
16
1070
   344
1005
11F
1070
   343
1005
11F
1070
   172
1070
     1
1070
    76
1070
     0
1070
    75
1070
     0
1070
   282
1070
     0
1070
   281
1070
     0
1070
    71
1070
     0
1070
    74
1070
     0
1070
   279
1070
     0
1070
   173
1070
     1
1070
   340
1005
119
1070
   271
1070
     1
1070
   272
1070
     2
1070
    77
1070
     1
1070
    73
1070
     1
1070
   171
1070
     3
1070
   274
1070
     4
1070
   177
1070
   150
1070
   176
1070
     9
1070
   178
1070
    43
1070
    78
1070
     8
1070
    48
1040
-0.1
1070
    41
1040
3.175
1070
   147
1040
1.75006
1070
    42
1040
1.5875
1070
    44
1040
3.175
1070
   140
1040
3.50012
1002
}
1001
ACAD_DSTYLE_DIM_LINETYPE
1070
   380
1005
16
1001
ACAD_DSTYLE_DIM_EXT1_LINETYPE
1070
   381
1005
16
1001
ACAD_DSTYLE_DIM_EXT2_LINETYPE
1070
   382
1005
16
0
DIMENSION
5
144
100
AcDbEntity
8
2
62
256
6
ByLayer
370
18
48
1
60
0
100
AcDbDimension
2
_U1
10
74.75006
20
2.65
30
0
11
74.75006
21
18.223233
31
0
70
32
71
1
72
1
41
1
210
0
220
0
230
1
3
Standard
100
AcDbAlignedDimension
13
67.0355
23
-2.65
33
0
14
67.0355
24
2.65
34
0
50
90
100
AcDbRotatedDimension
1001
ACAD
1000
DSTYLE
1002
{
1070
   371
1070
    13
1070
   372
1070
    13
1070
     3
1000

1070
   170
1070
     0
1070
   144
1040
1.0
1070
   277
1070
     2
1070
   284
1070
     8
1070
   278
1070
    46
1070
   146
1040
0.999966
1070
   345
1005
16
1070
   347
1005
16
1070
   346
1005
16
1070
   344
1005
11F
1070
   343
1005
11F
1070
   172
1070
     1
1070
    76
1070
     0
1070
    75
1070
     0
1070
   282
1070
     0
1070
   281
1070
     0
1070
    71
1070
     0
1070
    74
1070
     0
1070
   279
1070
     0
1070
   173
1070
     1
1070
   340
1005
119
1070
   271
1070
     1
1070
   272
1070
     2
1070
    77
1070
     1
1070
    73
1070
     0
1070
   171
1070
     3
1070
   274
1070
     4
1070
   177
1070
   150
1070
   176
1070
     9
1070
   178
1070
    43
1070
    78
1070
     8
1070
    48
1040
-0.1
1070
    41
1040
3.175
1070
   147
1040
1.75006
1070
    42
1040
1.5875
1070
    44
1040
3.175
1070
   140
1040
3.50012
1002
}
1001
ACAD_DSTYLE_DIM_LINETYPE
1070
   380
1005
16
1001
ACAD_DSTYLE_DIM_EXT1_LINETYPE
1070
   381
1005
16
1001
ACAD_DSTYLE_DIM_EXT2_LINETYPE
1070
   382
1005
16
0
DIMENSION
5
163
100
AcDbEntity
8
SK2
62
256
6
ByLayer
370
18
48
1
60
0
100
AcDbDimension
2
_U2
10
-39.24994
20
-3
30
0
11
-39.24994
21
17.10734
31
0
70
32
71
1
72
1
41
1
210
0
220
0
230
1
3
Standard
100
AcDbAlignedDimension
13
-36
23
3
33
0
14
-36
24
-3
34
0
50
90
100
AcDbRotatedDimension
1001
ACAD
1000
DSTYLE
1002
{
1070
   371
1070
    13
1070
   372
1070
    13
1070
     3
1000

1070
   170
1070
     0
1070
   144
1040
1.0
1070
   277
1070
     2
1070
   284
1070
     8
1070
   278
1070
    46
1070
   146
1040
0.999966
1070
   345
1005
16
1070
   347
1005
16
1070
   346
1005
16
1070
   344
1005
11F
1070
   343
1005
11F
1070
   172
1070
     1
1070
    76
1070
     0
1070
    75
1070
     0
1070
   282
1070
     0
1070
   281
1070
     0
1070
    71
1070
     0
1070
    74
1070
     0
1070
   279
1070
     0
1070
   173
1070
     1
1070
   340
1005
119
1070
   271
1070
     1
1070
   272
1070
     2
1070
    77
1070
     1
1070
    73
1070
     0
1070
   171
1070
     3
1070
   274
1070
     4
1070
   177
1070
   150
1070
   176
1070
     9
1070
   178
1070
    43
1070
    78
1070
     8
1070
    48
1040
-0.1
1070
    41
1040
3.175
1070
   147
1040
1.75006
1070
    42
1040
1.5875
1070
    44
1040
3.175
1070
   140
1040
3.50012
1002
}
1001
ACAD_DSTYLE_DIM_LINETYPE
1070
   380
1005
16
1001
ACAD_DSTYLE_DIM_EXT1_LINETYPE
1070
   381
1005
16
1001
ACAD_DSTYLE_DIM_EXT2_LINETYPE
1070
   382
1005
16
0
DIMENSION
5
181
100
AcDbEntity
8
SK2
62
256
6
ByLayer
370
18
48
1
60
0
100
AcDbDimension
2
_U3
10
0
20
-26.50012
30
0
11
-18
21
-26.50012
31
0
70
32
71
1
72
1
41
1
210
0
220
0
230
1
3
Standard
100
AcDbAlignedDimension
13
-36
23
-3
33
0
14
0
24
-3
34
0
50
0
100
AcDbRotatedDimension
1001
ACAD
1000
DSTYLE
1002
{
1070
   371
1070
    13
1070
   372
1070
    13
1070
     3
1000

1070
   170
1070
     0
1070
   144
1040
1.0
1070
   277
1070
     2
1070
   284
1070
     8
1070
   278
1070
    46
1070
   146
1040
0.999966
1070
   345
1005
16
1070
   347
1005
16
1070
   346
1005
16
1070
   344
1005
11F
1070
   343
1005
11F
1070
   172
1070
     1
1070
    76
1070
     0
1070
    75
1070
     0
1070
   282
1070
     0
1070
   281
1070
     0
1070
    71
1070
     0
1070
    74
1070
     0
1070
   279
1070
     0
1070
   173
1070
     1
1070
   340
1005
119
1070
   271
1070
     1
1070
   272
1070
     2
1070
    77
1070
     1
1070
    73
1070
     1
1070
   171
1070
     3
1070
   274
1070
     4
1070
   177
1070
   150
1070
   176
1070
     9
1070
   178
1070
    43
1070
    78
1070
     8
1070
    48
1040
-0.1
1070
    41
1040
3.175
1070
   147
1040
1.75006
1070
    42
1040
1.5875
1070
    44
1040
3.175
1070
   140
1040
3.50012
1002
}
1001
ACAD_DSTYLE_DIM_LINETYPE
1070
   380
1005
16
1001
ACAD_DSTYLE_DIM_EXT1_LINETYPE
1070
   381
1005
16
1001
ACAD_DSTYLE_DIM_EXT2_LINETYPE
1070
   382
1005
16
0
DIMENSION
5
19D
100
AcDbEntity
8
SK2
62
256
6
ByLayer
370
18
48
1
60
0
100
AcDbDimension
2
_U4
10
68
20
-17.74982
30
0
11
37
21
-17.74982
31
0
70
32
71
1
72
1
41
1
210
0
220
0
230
1
3
Standard
100
AcDbAlignedDimension
13
6
23
3.15
33
0
14
68
24
0
34
0
50
0
100
AcDbRotatedDimension
1001
ACAD
1000
DSTYLE
1002
{
1070
   371
1070
    13
1070
   372
1070
    13
1070
     3
1000

1070
   170
1070
     0
1070
   144
1040
1.0
1070
   277
1070
     2
1070
   284
1070
     8
1070
   278
1070
    46
1070
   146
1040
0.999966
1070
   345
1005
16
1070
   347
1005
16
1070
   346
1005
16
1070
   344
1005
11F
1070
   343
1005
11F
1070
   172
1070
     1
1070
    76
1070
     0
1070
    75
1070
     0
1070
   282
1070
     0
1070
   281
1070
     0
1070
    71
1070
     0
1070
    74
1070
     0
1070
   279
1070
     0
1070
   173
1070
     1
1070
   340
1005
119
1070
   271
1070
     1
1070
   272
1070
     2
1070
    77
1070
     1
1070
    73
1070
     1
1070
   171
1070
     3
1070
   274
1070
     4
1070
   177
1070
   150
1070
   176
1070
     9
1070
   178
1070
    43
1070
    78
1070
     8
1070
    48
1040
-0.1
1070
    41
1040
3.175
1070
   147
1040
1.75006
1070
    42
1040
1.5875
1070
    44
1040
3.175
1070
   140
1040
3.50012
1002
}
1001
ACAD_DSTYLE_DIM_LINETYPE
1070
   380
1005
16
1001
ACAD_DSTYLE_DIM_EXT1_LINETYPE
1070
   381
1005
16
1001
ACAD_DSTYLE_DIM_EXT2_LINETYPE
1070
   382
1005
16
0
DIMENSION
5
1B9
100
AcDbEntity
8
SK2
62
256
6
ByLayer
370
18
48
1
60
0
100
AcDbDimension
2
_U5
10
68
20
-9.82
30
0
11
46.35
21
-9.82
31
0
70
32
71
1
72
1
41
1
210
0
220
0
230
1
3
Standard
100
AcDbAlignedDimension
13
24.7
23
-2.65
33
0
14
68
24
0
34
0
50
0
100
AcDbRotatedDimension
1001
ACAD
1000
DSTYLE
1002
{
1070
   371
1070
    13
1070
   372
1070
    13
1070
     3
1000

1070
   170
1070
     0
1070
   144
1040
1.0
1070
   277
1070
     2
1070
   284
1070
     8
1070
   278
1070
    46
1070
   146
1040
1.25
1070
   345
1005
16
1070
   347
1005
16
1070
   346
1005
16
1070
   344
1005
11F
1070
   343
1005
11F
1070
   172
1070
     1
1070
    76
1070
     0
1070
    75
1070
     0
1070
   282
1070
     0
1070
   281
1070
     0
1070
    71
1070
     0
1070
    74
1070
     0
1070
   279
1070
     0
1070
   173
1070
     1
1070
   340
1005
119
1070
   271
1070
     1
1070
   272
1070
     2
1070
    77
1070
     1
1070
    73
1070
     1
1070
   171
1070
     3
1070
   274
1070
     4
1070
   177
1070
   150
1070
   176
1070
     9
1070
   178
1070
    43
1070
    78
1070
     8
1070
    48
1040
-0.1
1070
    41
1040
3.175
1070
   147
1040
0.42
1070
    42
1040
1.5875
1070
    44
1040
0.5
1070
   140
1040
2.8
1002
}
1001
ACAD_DSTYLE_DIM_LINETYPE
1070
   380
1005
16
1001
ACAD_DSTYLE_DIM_EXT1_LINETYPE
1070
   381
1005
16
1001
ACAD_DSTYLE_DIM_EXT2_LINETYPE
1070
   382
1005
16
0
DIMENSION
5
1D5
100
AcDbEntity
8
SK2
62
256
6
ByLayer
370
18
48
1
60
0
100
AcDbDimension
2
_U6
10
68
20
-36.50012
30
0
11
16
21
-36.50012
31
0
70
32
71
1
72
1
41
1
210
0
220
0
230
1
3
Standard
100
AcDbAlignedDimension
13
-36
23
0
33
0
14
68
24
0
34
0
50
0
100
AcDbRotatedDimension
1001
ACAD
1000
DSTYLE
1002
{
1070
   371
1070
    13
1070
   372
1070
    13
1070
     3
1000

1070
   170
1070
     0
1070
   144
1040
1.0
1070
   277
1070
     2
1070
   284
1070
     8
1070
   278
1070
    46
1070
   146
1040
0.999966
1070
   345
1005
16
1070
   347
1005
16
1070
   346
1005
16
1070
   344
1005
11F
1070
   343
1005
11F
1070
   172
1070
     1
1070
    76
1070
     0
1070
    75
1070
     0
1070
   282
1070
     0
1070
   281
1070
     0
1070
    71
1070
     0
1070
    74
1070
     0
1070
   279
1070
     0
1070
   173
1070
     1
1070
   340
1005
119
1070
   271
1070
     1
1070
   272
1070
     2
1070
    77
1070
     1
1070
    73
1070
     1
1070
   171
1070
     3
1070
   274
1070
     4
1070
   177
1070
   150
1070
   176
1070
     9
1070
   178
1070
    43
1070
    78
1070
     8
1070
    48
1040
-0.1
1070
    41
1040
3.175
1070
   147
1040
1.75006
1070
    42
1040
1.5875
1070
    44
1040
3.175
1070
   140
1040
3.50012
1002
}
1001
ACAD_DSTYLE_DIM_LINETYPE
1070
   380
1005
16
1001
ACAD_DSTYLE_DIM_EXT1_LINETYPE
1070
   381
1005
16
1001
ACAD_DSTYLE_DIM_EXT2_LINETYPE
1070
   382
1005
16
0
ENDSEC
0
SECTION
2
OBJECTS
0
DICTIONARY
5
261
330
0
100
AcDbDictionary
280
0
281
1
3
ACAD_GROUP
350
262
3
ACAD_MLINESTYLE
350
263
0
DICTIONARY
5
262
330
0
100
AcDbDictionary
280
0
281
1
0
DICTIONARY
5
263
330
0
100
AcDbDictionary
280
0
281
1
3
Standard
350
18
0
MLINESTYLE
5
18
330
263
100
AcDbMlineStyle
2
Standard
70
0
3

62
256
51
90
52
90
71
2
49
-0.5
62
256
6
ByLayer
49
0.5
62
256
6
ByLayer
0
RASTERVARIABLES
5
24f
330

100
AcDbRasterVariables
90
0
70
1
71
1
72
1
0
ENDSEC
0
EOF
