0
SECTION
2
HEADER
9
$ACADVER
1
AC1015
9
$DWGCODEPAGE
3
ANSI_1252
9
$HANDSEED
5
276
9
$ANGBASE
50
0
9
$ANGDIR
70
0
9
$ATTMODE
70
1
9
$AUNITS
70
0
9
$AUPREC
70
0
9
$CECOLOR
62
256
9
$CELTSCALE
40
1
9
$CELTYPE
6
ByLayer
9
$CELWEIGHT
370
18
9
$CLAYER
8
0
9
$CMLJUST
70
0
9
$CMLSCALE
40
1
9
$CMLSTYLE
2
Standard
9
$DIMSTYLE
2
Standard
9
$TEXTSIZE
40
0.2
9
$TEXTSTYLE
7
Standard
9
$LUNITS
70
2
9
$LUPREC
70
4
9
$EXTNAMES
290
1
9
$INSUNITS
70
4
9
$LTSCALE
40
1
9
$LWDISPLAY
290
1
9
$PDMODE
70
0
9
$PDSIZE
40
0
9
$PLINEGEN
70
0
0
ENDSEC
0
SECTION
2
CLASSES
0
CLASS
1
RASTERVARIABLES
2
AcDbRasterVariables
3
ISM
90
0
280
0
281
0
0
ENDSEC
0
SECTION
2
TABLES
0
TABLE
2
VPORT
5
26c
100
AcDbSymbolTable
0
VPORT
5
1
100
AcDbSymbolTableRecord
100
AcDbViewportTableRecord
2
*Active
70
0
10
0
20
0
11
1
21
1
12
-1
22
1
13
0
23
0
14
0.5
24
0.5
15
10
25
10
16
0
26
0
36
1
17
0
27
0
37
0
0
ENDTAB
0
TABLE
2
LTYPE
5
26d
100
AcDbSymbolTable
0
LTYPE
5
14
100
AcDbSymbolTableRecord
100
AcDbLinetypeTableRecord
70
0
2
ByBlock
3

72
65
73
0
40
0
0
LTYPE
5
15
100
AcDbSymbolTableRecord
100
AcDbLinetypeTableRecord
70
0
2
ByLayer
3

72
65
73
0
40
0
0
LTYPE
5
16
100
AcDbSymbolTableRecord
100
AcDbLinetypeTableRecord
70
0
2
Continuous
3
Solid line
72
65
73
0
40
0
0
LTYPE
5
6E
100
AcDbSymbolTableRecord
100
AcDbLinetypeTableRecord
70
0
2
CENTER
3
____ _ ____ _ ____ _ ____
72
65
73
4
40
47.5
49
22
74
0
49
-8.5
74
0
49
8.5
74
0
49
-8.5
74
0
0
LTYPE
5
6F
100
AcDbSymbolTableRecord
100
AcDbLinetypeTableRecord
70
0
2
DASHED
3
__ __ __ __ __ __ __ __ __
72
65
73
2
40
25.72
49
12.86
74
0
49
-12.86
74
0
0
ENDTAB
0
TABLE
2
LAYER
5
26e
100
AcDbSymbolTable
0
LAYER
5
10
100
AcDbSymbolTableRecord
100
AcDbLayerTableRecord
2
0
70
0
62
7
6
Continuous
290
1
370
-3
390
0
0
LAYER
5
71
100
AcDbSymbolTableRecord
100
AcDbLayerTableRecord
2
80
70
0
62
-6
6
Continuous
290
1
370
-3
390
0
0
LAYER
5
73
100
AcDbSymbolTableRecord
100
AcDbLayerTableRecord
2
81
70
0
62
-3
6
Continuous
290
1
370
-3
390
0
0
LAYER
5
75
100
AcDbSymbolTableRecord
100
AcDbLayerTableRecord
2
1
70
0
62
4
6
Continuous
290
1
370
-3
390
0
0
LAYER
5
A8
100
AcDbSymbolTableRecord
100
AcDbLayerTableRecord
2
4
70
0
62
-2
6
CENTER
290
1
370
-3
390
0
0
LAYER
5
130
100
AcDbSymbolTableRecord
100
AcDbLayerTableRecord
2
Defpoints
70
0
62
7
6
Continuous
290
0
370
-3
390
0
0
LAYER
5
15D
100
AcDbSymbolTableRecord
100
AcDbLayerTableRecord
2
2
70
0
62
7
6
Continuous
290
1
370
-3
390
0
0
LAYER
5
258
100
AcDbSymbolTableRecord
100
AcDbLayerTableRecord
2
SK1
70
0
62
4
6
Continuous
290
1
370
-3
390
0
0
LAYER
5
259
100
AcDbSymbolTableRecord
100
AcDbLayerTableRecord
2
SK4
70
0
62
2
6
CENTER
290
1
370
-3
390
0
0
LAYER
5
25a
100
AcDbSymbolTableRecord
100
AcDbLayerTableRecord
2
SK2
70
0
62
7
6
Continuous
290
1
370
-3
390
0
0
LAYER
5
25b
100
AcDbSymbolTableRecord
100
AcDbLayerTableRecord
2
SK6
70
0
62
5
6
Continuous
290
1
370
-3
390
0
0
ENDTAB
0
TABLE
2
STYLE
5
26f
100
AcDbSymbolTable
0
STYLE
5
11
100
AcDbSymbolTableRecord
100
AcDbTextStyleTableRecord
2
Standard
3
txt
70
0
71
0
40
0
41
1
42
0
50
0
0
STYLE
5
121
100
AcDbSymbolTableRecord
100
AcDbTextStyleTableRecord
2
iso_b_vert
3
simplex.shx
70
0
71
0
40
0
41
1
42
0
50
0
0
STYLE
5
122
100
AcDbSymbolTableRecord
100
AcDbTextStyleTableRecord
2
DWGDirectTextStyle
3
simplex
70
0
71
0
40
0
41
1
42
0
50
0
0
ENDTAB
0
TABLE
2
DIMSTYLE
5
270
100
AcDbSymbolTable
100
AcDbDimStyleTable
0
DIMSTYLE
105
27
100
AcDbSymbolTableRecord
100
AcDbDimStyleTableRecord
2
Standard
70
0
3
<>
41
0.18
42
0.0625
44
0.18
140
0.18
147
0.09
73
0
74
0
77
1
271
2
275
0
278
52
280
0
340
11
0
ENDTAB
0
TABLE
2
VIEW
5
271
100
AcDbSymbolTable
0
ENDTAB
0
TABLE
2
UCS
5
272
100
AcDbSymbolTable
0
ENDTAB
0
TABLE
2
APPID
5
273
100
AcDbSymbolTable
0
APPID
5
12
100
AcDbSymbolTableRecord
100
AcDbRegAppTableRecord
2
ACAD
70
0
0
APPID
5
125
100
AcDbSymbolTableRecord
100
AcDbRegAppTableRecord
2
ACAD_DSTYLE_DIMBREAK
70
0
0
APPID
5
217
100
AcDbSymbolTableRecord
100
AcDbRegAppTableRecord
2
ACAD_DSTYLE_DIM_LINETYPE
70
0
0
APPID
5
218
100
AcDbSymbolTableRecord
100
AcDbRegAppTableRecord
2
ACAD_DSTYLE_DIM_EXT1_LINETYPE
70
0
0
APPID
5
219
100
AcDbSymbolTableRecord
100
AcDbRegAppTableRecord
2
ACAD_DSTYLE_DIM_EXT2_LINETYPE
70
0
0
APPID
5
254
100
AcDbSymbolTableRecord
100
AcDbRegAppTableRecord
2
ACAD_MLEADERVER
70
0
0
ENDTAB
0
TABLE
2
BLOCK_RECORD
5
274
100
AcDbSymbolTable
0
BLOCK_RECORD
5
1F
100
AcDbSymbolTableRecord
100
AcDbBlockTableRecord
2
*Model_Space
340
0
70
0
0
BLOCK_RECORD
5
1B
100
AcDbSymbolTableRecord
100
AcDbBlockTableRecord
2
*Paper_Space
340
0
70
0
0
BLOCK_RECORD
5
23
100
AcDbSymbolTableRecord
100
AcDbBlockTableRecord
2
*Paper_Space0
340
0
70
0
0
BLOCK_RECORD
5
127
100
AcDbSymbolTableRecord
100
AcDbBlockTableRecord
2
_Closed
340
0
70
0
0
BLOCK_RECORD
5
131
100
AcDbSymbolTableRecord
100
AcDbBlockTableRecord
2
*D2
340
0
70
0
0
BLOCK_RECORD
5
13D
100
AcDbSymbolTableRecord
100
AcDbBlockTableRecord
2
_U0
340
0
70
0
0
BLOCK_RECORD
5
14F
100
AcDbSymbolTableRecord
100
AcDbBlockTableRecord
2
*D4
340
0
70
0
0
BLOCK_RECORD
5
15E
100
AcDbSymbolTableRecord
100
AcDbBlockTableRecord
2
_U1
340
0
70
0
0
BLOCK_RECORD
5
16E
100
AcDbSymbolTableRecord
100
AcDbBlockTableRecord
2
*D6
340
0
70
0
0
BLOCK_RECORD
5
17C
100
AcDbSymbolTableRecord
100
AcDbBlockTableRecord
2
_U2
340
0
70
0
0
BLOCK_RECORD
5
18C
100
AcDbSymbolTableRecord
100
AcDbBlockTableRecord
2
*D8
340
0
70
0
0
BLOCK_RECORD
5
198
100
AcDbSymbolTableRecord
100
AcDbBlockTableRecord
2
_U3
340
0
70
0
0
BLOCK_RECORD
5
1A8
100
AcDbSymbolTableRecord
100
AcDbBlockTableRecord
2
*D10
340
0
70
0
0
BLOCK_RECORD
5
1B4
100
AcDbSymbolTableRecord
100
AcDbBlockTableRecord
2
_U4
340
0
70
0
0
BLOCK_RECORD
5
1C4
100
AcDbSymbolTableRecord
100
AcDbBlockTableRecord
2
*D12
340
0
70
0
0
BLOCK_RECORD
5
1D0
100
AcDbSymbolTableRecord
100
AcDbBlockTableRecord
2
_U5
340
0
70
0
0
BLOCK_RECORD
5
1E0
100
AcDbSymbolTableRecord
100
AcDbBlockTableRecord
2
*D14
340
0
70
0
0
BLOCK_RECORD
5
1EC
100
AcDbSymbolTableRecord
100
AcDbBlockTableRecord
2
_U6
340
0
70
0
0
ENDTAB
0
ENDSEC
0
SECTION
2
BLOCKS
0
BLOCK
5
20
100
AcDbEntity
8
0
100
AcDbBlockBegin
2
*Model_Space
70
0
10
0
20
0
30
0
3
*Model_Space
0
ENDBLK
5
21
100
AcDbEntity
8
0
100
AcDbBlockEnd
0
BLOCK
5
1C
100
AcDbEntity
8
0
100
AcDbBlockBegin
2
*Paper_Space
70
0
10
0
20
0
30
0
3
*Paper_Space
0
ENDBLK
5
1D
100
AcDbEntity
8
0
100
AcDbBlockEnd
0
BLOCK
5
24
100
AcDbEntity
8
0
100
AcDbBlockBegin
2
*Paper_Space0
70
0
10
0
20
0
30
0
3
*Paper_Space0
0
ENDBLK
5
25
100
AcDbEntity
8
0
100
AcDbBlockEnd
0
BLOCK
5
128
100
AcDbEntity
8
0
100
AcDbBlockBegin
2
_Closed
70
0
10
0
20
0
30
0
3
_Closed
0
LINE
5
12A
100
AcDbEntity
8
0
62
256
6
ByLayer
370
-2
48
1
60
0
100
AcDbLine
10
-1
20
0.166667
30
0
11
0
21
0
31
0
39
0
210
0
220
0
230
1
0
LINE
5
12B
100
AcDbEntity
8
0
62
256
6
ByLayer
370
-2
48
1
60
0
100
AcDbLine
10
0
20
0
30
0
11
-1
21
-0.166667
31
0
39
0
210
0
220
0
230
1
0
LINE
5
12C
100
AcDbEntity
8
0
62
256
6
ByLayer
370
-2
48
1
60
0
100
AcDbLine
10
-1
20
0.166667
30
0
11
-1
21
-0.166667
31
0
39
0
210
0
220
0
230
1
0
LINE
5
12D
100
AcDbEntity
8
0
62
256
6
ByLayer
370
-2
48
1
60
0
100
AcDbLine
10
0
20
0
30
0
11
-1
21
0
31
0
39
0
210
0
220
0
230
1
0
ENDBLK
5
129
100
AcDbEntity
8
0
100
AcDbBlockEnd
0
BLOCK
5
132
100
AcDbEntity
8
0
100
AcDbBlockBegin
2
*D2
70
1
10
0
20
0
30
0
3
*D2
0
LINE
5
134
100
AcDbEntity
8
0
62
256
6
ByLayer
370
-2
48
1
60
0
100
AcDbLine
10
0
20
-4.5875
30
0
11
0
21
-29.67512
31
0
39
0
210
0
220
0
230
1
0
LINE
5
135
100
AcDbEntity
8
0
62
256
6
ByLayer
370
-2
48
1
60
0
100
AcDbLine
10
30
20
-1.5875
30
0
11
30
21
-29.67512
31
0
39
0
210
0
220
0
230
1
0
LINE
5
136
100
AcDbEntity
8
0
62
256
6
ByLayer
370
-2
48
1
60
0
100
AcDbLine
10
3.175
20
-26.50012
30
0
11
26.825
21
-26.50012
31
0
39
0
210
0
220
0
230
1
0
SOLID
5
137
100
AcDbEntity
8
0
62
256
6
ByLayer
370
-1
48
1
60
0
100
AcDbTrace
10
3.175
20
-25.970953
30
0
11
3.175
21
-27.029287
31
0
12
0
22
-26.50012
32
0
13
0
23
-26.50012
33
0
39
0
210
0
220
0
230
1
0
SOLID
5
138
100
AcDbEntity
8
0
62
256
6
ByLayer
370
-1
48
1
60
0
100
AcDbTrace
10
26.825
20
-27.029287
30
0
11
26.825
21
-25.970953
31
0
12
30
22
-26.50012
32
0
13
30
23
-26.50012
33
0
39
0
210
0
220
0
230
1
0
MTEXT
5
139
100
AcDbEntity
8
0
62
256
6
ByLayer
370
18
48
1
60
0
100
AcDbMText
10
15
20
-19.193619
30
0
210
0
220
0
230
1
1
\A1;30
40
3.50012
41
0
44
1
50
0
71
5
72
5
7
iso_b_vert
0
POINT
5
13A
100
AcDbEntity
8
Defpoints
62
0
6
ByLayer
370
-1
48
1
60
0
100
AcDbPoint
10
0
20
-3
30
0
39
0
210
0
220
0
230
1
50
360
0
POINT
5
13B
100
AcDbEntity
8
Defpoints
62
0
6
ByLayer
370
-1
48
1
60
0
100
AcDbPoint
10
30
20
0
30
0
39
0
210
0
220
0
230
1
50
360
0
POINT
5
13C
100
AcDbEntity
8
Defpoints
62
0
6
ByLayer
370
-1
48
1
60
0
100
AcDbPoint
10
30
20
-26.50012
30
0
39
0
210
0
220
0
230
1
50
360
0
ENDBLK
5
133
100
AcDbEntity
8
0
100
AcDbBlockEnd
0
BLOCK
5
14A
100
AcDbEntity
8
0
100
AcDbBlockBegin
2
_U0
70
0
10
0
20
0
30
0
3
_U0
0
MTEXT
5
13E
100
AcDbEntity
8
SK2
62
256
6
ByLayer
370
18
48
1
60
0
100
AcDbMText
10
9.770389
20
-25.467451
30
0
210
0
220
0
230
1
1
\W0.7468;30.00
40
3.50012
41
0
44
1.084337
50
0
71
7
72
5
7
iso_b_vert
0
MTEXT
5
13F
100
AcDbEntity
8
SK2
62
256
6
ByLayer
370
18
48
1
60
0
100
AcDbMText
10
6.244329
20
-25.400814
30
0
210
0
220
0
230
1
1
\W0.1790;(
40
3.175
41
0
44
1.084337
50
0
71
7
72
5
7
iso_b_vert
0
MTEXT
5
140
100
AcDbEntity
8
SK2
62
256
6
ByLayer
370
18
48
1
60
0
100
AcDbMText
10
23.758393
20
-25.400814
30
0
210
0
220
0
230
1
1
\W0.1969;)
40
3.175
41
0
44
1.084337
50
0
71
7
72
5
7
iso_b_vert
0
LINE
5
141
100
AcDbEntity
8
SK2
62
256
6
ByLayer
370
13
48
1
60
0
100
AcDbLine
10
0
20
-4.5875
30
0
11
0
21
-29.67512
31
0
39
0
210
0
220
0
230
1
0
LINE
5
142
100
AcDbEntity
8
SK2
62
256
6
ByLayer
370
13
48
1
60
0
100
AcDbLine
10
30
20
-1.5875
30
0
11
30
21
-29.67512
31
0
39
0
210
0
220
0
230
1
0
LINE
5
143
100
AcDbEntity
8
SK2
62
256
6
ByLayer
370
13
48
1
60
0
100
AcDbLine
10
0
20
-26.50012
30
0
11
30
21
-26.50012
31
0
39
0
210
0
220
0
230
1
0
LINE
5
144
100
AcDbEntity
8
SK2
62
256
6
ByLayer
370
13
48
1
60
0
100
AcDbLine
10
0
20
-26.50012
30
0
11
3.174998
21
-26.082123
31
0
39
0
210
0
220
0
230
1
0
LINE
5
145
100
AcDbEntity
8
SK2
62
256
6
ByLayer
370
13
48
1
60
0
100
AcDbLine
10
0
20
-26.50012
30
0
11
3.175002
21
-26.918117
31
0
39
0
210
0
220
0
230
1
0
LINE
5
146
100
AcDbEntity
8
SK2
62
256
6
ByLayer
370
13
48
1
60
0
100
AcDbLine
10
3.174998
20
-26.082123
30
0
11
3.175002
21
-26.918117
31
0
39
0
210
0
220
0
230
1
0
LINE
5
147
100
AcDbEntity
8
SK2
62
256
6
ByLayer
370
13
48
1
60
0
100
AcDbLine
10
30
20
-26.50012
30
0
11
26.825002
21
-26.918117
31
0
39
0
210
0
220
0
230
1
0
LINE
5
148
100
AcDbEntity
8
SK2
62
256
6
ByLayer
370
13
48
1
60
0
100
AcDbLine
10
30
20
-26.50012
30
0
11
26.824998
21
-26.082123
31
0
39
0
210
0
220
0
230
1
0
LINE
5
149
100
AcDbEntity
8
SK2
62
256
6
ByLayer
370
13
48
1
60
0
100
AcDbLine
10
26.825002
20
-26.918117
30
0
11
26.824998
21
-26.082123
31
0
39
0
210
0
220
0
230
1
0
ENDBLK
5
14B
100
AcDbEntity
8
0
100
AcDbBlockEnd
0
BLOCK
5
150
100
AcDbEntity
8
0
100
AcDbBlockBegin
2
*D4
70
1
10
0
20
0
30
0
3
*D4
0
LINE
5
152
100
AcDbEntity
8
0
62
256
6
ByLayer
370
-2
48
1
60
0
100
AcDbLine
10
30.9688
20
-1.7
30
0
11
39.92506
21
-1.7
31
0
39
0
210
0
220
0
230
1
0
LINE
5
153
100
AcDbEntity
8
0
62
256
6
ByLayer
370
-2
48
1
60
0
100
AcDbLine
10
30.9688
20
1.7
30
0
11
39.92506
21
1.7
31
0
39
0
210
0
220
0
230
1
0
LINE
5
154
100
AcDbEntity
8
0
62
256
6
ByLayer
370
-2
48
1
60
0
100
AcDbLine
10
36.75006
20
1.7
30
0
11
36.75006
21
26.663138
31
0
39
0
210
0
220
0
230
1
0
LINE
5
155
100
AcDbEntity
8
0
62
256
6
ByLayer
370
-2
48
1
60
0
100
AcDbLine
10
36.75006
20
-4.875
30
0
11
36.75006
21
-8.05
31
0
39
0
210
0
220
0
230
1
0
LINE
5
156
100
AcDbEntity
8
0
62
256
6
ByLayer
370
-2
48
1
60
0
100
AcDbLine
10
36.75006
20
4.875
30
0
11
36.75006
21
8.05
31
0
39
0
210
0
220
0
230
1
0
SOLID
5
157
100
AcDbEntity
8
0
62
256
6
ByLayer
370
-1
48
1
60
0
100
AcDbTrace
10
37.279227
20
-4.875
30
0
11
36.220893
21
-4.875
31
0
12
36.75006
22
-1.7
32
0
13
36.75006
23
-1.7
33
0
39
0
210
0
220
0
230
1
0
SOLID
5
158
100
AcDbEntity
8
0
62
256
6
ByLayer
370
-1
48
1
60
0
100
AcDbTrace
10
36.220893
20
4.875
30
0
11
37.279227
21
4.875
31
0
12
36.75006
22
1.7
32
0
13
36.75006
23
1.7
33
0
39
0
210
0
220
0
230
1
0
MTEXT
5
159
100
AcDbEntity
8
0
62
256
6
ByLayer
370
18
48
1
60
0
100
AcDbMText
10
29.443559
20
17.356569
30
0
210
0
220
0
230
1
1
\A1;3.4
40
3.50012
41
0
44
1
50
90
71
5
72
5
7
iso_b_vert
0
POINT
5
15A
100
AcDbEntity
8
Defpoints
62
0
6
ByLayer
370
-1
48
1
60
0
100
AcDbPoint
10
29.3813
20
-1.7
30
0
39
0
210
0
220
0
230
1
50
360
0
POINT
5
15B
100
AcDbEntity
8
Defpoints
62
0
6
ByLayer
370
-1
48
1
60
0
100
AcDbPoint
10
29.3813
20
1.7
30
0
39
0
210
0
220
0
230
1
50
360
0
POINT
5
15C
100
AcDbEntity
8
Defpoints
62
0
6
ByLayer
370
-1
48
1
60
0
100
AcDbPoint
10
36.75006
20
1.7
30
0
39
0
210
0
220
0
230
1
50
360
0
ENDBLK
5
151
100
AcDbEntity
8
0
100
AcDbBlockEnd
0
BLOCK
5
169
100
AcDbEntity
8
0
100
AcDbBlockBegin
2
_U1
70
0
10
0
20
0
30
0
3
_U1
0
MTEXT
5
15F
100
AcDbEntity
8
2
62
256
6
ByLayer
370
18
48
1
60
0
100
AcDbMText
10
36.060403
20
5.857505
30
0
210
0
220
0
230
1
1
\W0.7640;3.40
40
3.50012
41
0
44
1.084337
50
90
71
7
72
5
7
iso_b_vert
0
LINE
5
160
100
AcDbEntity
8
2
62
256
6
ByLayer
370
13
48
1
60
0
100
AcDbLine
10
30.9688
20
-1.7
30
0
11
39.92506
21
-1.7
31
0
39
0
210
0
220
0
230
1
0
LINE
5
161
100
AcDbEntity
8
2
62
256
6
ByLayer
370
13
48
1
60
0
100
AcDbLine
10
30.9688
20
1.7
30
0
11
39.92506
21
1.7
31
0
39
0
210
0
220
0
230
1
0
LINE
5
162
100
AcDbEntity
8
2
62
256
6
ByLayer
370
13
48
1
60
0
100
AcDbLine
10
36.75006
20
14.283226
30
0
11
36.75006
21
-10.4503
31
0
39
0
210
0
220
0
230
1
0
LINE
5
163
100
AcDbEntity
8
2
62
256
6
ByLayer
370
13
48
1
60
0
100
AcDbLine
10
36.75006
20
-1.7
30
0
11
37.168057
21
-4.874998
31
0
39
0
210
0
220
0
230
1
0
LINE
5
164
100
AcDbEntity
8
2
62
256
6
ByLayer
370
13
48
1
60
0
100
AcDbLine
10
36.75006
20
-1.7
30
0
11
36.332063
21
-4.875002
31
0
39
0
210
0
220
0
230
1
0
LINE
5
165
100
AcDbEntity
8
2
62
256
6
ByLayer
370
13
48
1
60
0
100
AcDbLine
10
37.168057
20
-4.874998
30
0
11
36.332063
21
-4.875002
31
0
39
0
210
0
220
0
230
1
0
LINE
5
166
100
AcDbEntity
8
2
62
256
6
ByLayer
370
13
48
1
60
0
100
AcDbLine
10
36.75006
20
1.7
30
0
11
36.332063
21
4.874998
31
0
39
0
210
0
220
0
230
1
0
LINE
5
167
100
AcDbEntity
8
2
62
256
6
ByLayer
370
13
48
1
60
0
100
AcDbLine
10
36.75006
20
1.7
30
0
11
37.168057
21
4.875002
31
0
39
0
210
0
220
0
230
1
0
LINE
5
168
100
AcDbEntity
8
2
62
256
6
ByLayer
370
13
48
1
60
0
100
AcDbLine
10
36.332063
20
4.874998
30
0
11
37.168057
21
4.875002
31
0
39
0
210
0
220
0
230
1
0
ENDBLK
5
16A
100
AcDbEntity
8
0
100
AcDbBlockEnd
0
BLOCK
5
16F
100
AcDbEntity
8
0
100
AcDbBlockBegin
2
*D6
70
1
10
0
20
0
30
0
3
*D6
0
LINE
5
171
100
AcDbEntity
8
0
62
256
6
ByLayer
370
-2
48
1
60
0
100
AcDbLine
10
-37.5875
20
3
30
0
11
-42.42494
21
3
31
0
39
0
210
0
220
0
230
1
0
LINE
5
172
100
AcDbEntity
8
0
62
256
6
ByLayer
370
-2
48
1
60
0
100
AcDbLine
10
-37.5875
20
-3
30
0
11
-42.42494
21
-3
31
0
39
0
210
0
220
0
230
1
0
LINE
5
173
100
AcDbEntity
8
0
62
256
6
ByLayer
370
-2
48
1
60
0
100
AcDbLine
10
-39.24994
20
3
30
0
11
-39.24994
21
23.747151
31
0
39
0
210
0
220
0
230
1
0
LINE
5
174
100
AcDbEntity
8
0
62
256
6
ByLayer
370
-2
48
1
60
0
100
AcDbLine
10
-39.24994
20
6.175
30
0
11
-39.24994
21
9.35
31
0
39
0
210
0
220
0
230
1
0
LINE
5
175
100
AcDbEntity
8
0
62
256
6
ByLayer
370
-2
48
1
60
0
100
AcDbLine
10
-39.24994
20
-6.175
30
0
11
-39.24994
21
-9.35
31
0
39
0
210
0
220
0
230
1
0
SOLID
5
176
100
AcDbEntity
8
0
62
256
6
ByLayer
370
-1
48
1
60
0
100
AcDbTrace
10
-39.779107
20
6.175
30
0
11
-38.720773
21
6.175
31
0
12
-39.24994
22
3
32
0
13
-39.24994
23
3
33
0
39
0
210
0
220
0
230
1
0
SOLID
5
177
100
AcDbEntity
8
0
62
256
6
ByLayer
370
-1
48
1
60
0
100
AcDbTrace
10
-38.720773
20
-6.175
30
0
11
-39.779107
21
-6.175
31
0
12
-39.24994
22
-3
32
0
13
-39.24994
23
-3
33
0
39
0
210
0
220
0
230
1
0
MTEXT
5
178
100
AcDbEntity
8
0
62
256
6
ByLayer
370
18
48
1
60
0
100
AcDbMText
10
-46.556441
20
17.10734
30
0
210
0
220
0
230
1
1
\A1;6
40
3.50012
41
0
44
1
50
90
71
5
72
5
7
iso_b_vert
0
POINT
5
179
100
AcDbEntity
8
Defpoints
62
0
6
ByLayer
370
-1
48
1
60
0
100
AcDbPoint
10
-36
20
3
30
0
39
0
210
0
220
0
230
1
50
360
0
POINT
5
17A
100
AcDbEntity
8
Defpoints
62
0
6
ByLayer
370
-1
48
1
60
0
100
AcDbPoint
10
-36
20
-3
30
0
39
0
210
0
220
0
230
1
50
360
0
POINT
5
17B
100
AcDbEntity
8
Defpoints
62
0
6
ByLayer
370
-1
48
1
60
0
100
AcDbPoint
10
-39.24994
20
-3
30
0
39
0
210
0
220
0
230
1
50
360
0
ENDBLK
5
170
100
AcDbEntity
8
0
100
AcDbBlockEnd
0
BLOCK
5
187
100
AcDbEntity
8
0
100
AcDbBlockBegin
2
_U2
70
0
10
0
20
0
30
0
3
_U2
0
MTEXT
5
17D
100
AcDbEntity
8
SK2
62
256
6
ByLayer
370
18
48
1
60
0
100
AcDbMText
10
-39.939597
20
13.157505
30
0
210
0
220
0
230
1
1
\W0.7346;6.00
40
3.50012
41
0
44
1.084337
50
90
71
7
72
5
7
iso_b_vert
0
LINE
5
17E
100
AcDbEntity
8
SK2
62
256
6
ByLayer
370
13
48
1
60
0
100
AcDbLine
10
-37.5875
20
3
30
0
11
-42.42494
21
3
31
0
39
0
210
0
220
0
230
1
0
LINE
5
17F
100
AcDbEntity
8
SK2
62
256
6
ByLayer
370
13
48
1
60
0
100
AcDbLine
10
-37.5875
20
-3
30
0
11
-42.42494
21
-3
31
0
39
0
210
0
220
0
230
1
0
LINE
5
180
100
AcDbEntity
8
SK2
62
256
6
ByLayer
370
13
48
1
60
0
100
AcDbLine
10
-39.24994
20
-11.7503
30
0
11
-39.24994
21
21.21468
31
0
39
0
210
0
220
0
230
1
0
LINE
5
181
100
AcDbEntity
8
SK2
62
256
6
ByLayer
370
13
48
1
60
0
100
AcDbLine
10
-39.24994
20
3
30
0
11
-39.667937
21
6.174998
31
0
39
0
210
0
220
0
230
1
0
LINE
5
182
100
AcDbEntity
8
SK2
62
256
6
ByLayer
370
13
48
1
60
0
100
AcDbLine
10
-39.24994
20
3
30
0
11
-38.831943
21
6.175002
31
0
39
0
210
0
220
0
230
1
0
LINE
5
183
100
AcDbEntity
8
SK2
62
256
6
ByLayer
370
13
48
1
60
0
100
AcDbLine
10
-39.667937
20
6.174998
30
0
11
-38.831943
21
6.175002
31
0
39
0
210
0
220
0
230
1
0
LINE
5
184
100
AcDbEntity
8
SK2
62
256
6
ByLayer
370
13
48
1
60
0
100
AcDbLine
10
-39.24994
20
-3
30
0
11
-38.831943
21
-6.174998
31
0
39
0
210
0
220
0
230
1
0
LINE
5
185
100
AcDbEntity
8
SK2
62
256
6
ByLayer
370
13
48
1
60
0
100
AcDbLine
10
-39.24994
20
-3
30
0
11
-39.667937
21
-6.175002
31
0
39
0
210
0
220
0
230
1
0
LINE
5
186
100
AcDbEntity
8
SK2
62
256
6
ByLayer
370
13
48
1
60
0
100
AcDbLine
10
-38.831943
20
-6.174998
30
0
11
-39.667937
21
-6.175002
31
0
39
0
210
0
220
0
230
1
0
ENDBLK
5
188
100
AcDbEntity
8
0
100
AcDbBlockEnd
0
BLOCK
5
18D
100
AcDbEntity
8
0
100
AcDbBlockBegin
2
*D8
70
1
10
0
20
0
30
0
3
*D8
0
LINE
5
18F
100
AcDbEntity
8
0
62
256
6
ByLayer
370
-2
48
1
60
0
100
AcDbLine
10
-36
20
-4.5875
30
0
11
-36
21
-29.67512
31
0
39
0
210
0
220
0
230
1
0
LINE
5
190
100
AcDbEntity
8
0
62
256
6
ByLayer
370
-2
48
1
60
0
100
AcDbLine
10
0
20
-4.5875
30
0
11
0
21
-29.67512
31
0
39
0
210
0
220
0
230
1
0
LINE
5
191
100
AcDbEntity
8
0
62
256
6
ByLayer
370
-2
48
1
60
0
100
AcDbLine
10
-32.825
20
-26.50012
30
0
11
-3.175
21
-26.50012
31
0
39
0
210
0
220
0
230
1
0
SOLID
5
192
100
AcDbEntity
8
0
62
256
6
ByLayer
370
-1
48
1
60
0
100
AcDbTrace
10
-32.825
20
-25.970953
30
0
11
-32.825
21
-27.029287
31
0
12
-36
22
-26.50012
32
0
13
-36
23
-26.50012
33
0
39
0
210
0
220
0
230
1
0
SOLID
5
193
100
AcDbEntity
8
0
62
256
6
ByLayer
370
-1
48
1
60
0
100
AcDbTrace
10
-3.175
20
-27.029287
30
0
11
-3.175
21
-25.970953
31
0
12
0
22
-26.50012
32
0
13
0
23
-26.50012
33
0
39
0
210
0
220
0
230
1
0
MTEXT
5
194
100
AcDbEntity
8
0
62
256
6
ByLayer
370
18
48
1
60
0
100
AcDbMText
10
-18
20
-19.193619
30
0
210
0
220
0
230
1
1
\A1;36
40
3.50012
41
0
44
1
50
0
71
5
72
5
7
iso_b_vert
0
POINT
5
195
100
AcDbEntity
8
Defpoints
62
0
6
ByLayer
370
-1
48
1
60
0
100
AcDbPoint
10
-36
20
-3
30
0
39
0
210
0
220
0
230
1
50
360
0
POINT
5
196
100
AcDbEntity
8
Defpoints
62
0
6
ByLayer
370
-1
48
1
60
0
100
AcDbPoint
10
0
20
-3
30
0
39
0
210
0
220
0
230
1
50
360
0
POINT
5
197
100
AcDbEntity
8
Defpoints
62
0
6
ByLayer
370
-1
48
1
60
0
100
AcDbPoint
10
0
20
-26.50012
30
0
39
0
210
0
220
0
230
1
50
360
0
ENDBLK
5
18E
100
AcDbEntity
8
0
100
AcDbBlockEnd
0
BLOCK
5
1A3
100
AcDbEntity
8
0
100
AcDbBlockBegin
2
_U3
70
0
10
0
20
0
30
0
3
_U3
0
MTEXT
5
199
100
AcDbEntity
8
SK2
62
256
6
ByLayer
370
18
48
1
60
0
100
AcDbMText
10
-23.229611
20
-25.467451
30
0
210
0
220
0
230
1
1
\W0.7468;36.00
40
3.50012
41
0
44
1.084337
50
0
71
7
72
5
7
iso_b_vert
0
LINE
5
19A
100
AcDbEntity
8
SK2
62
256
6
ByLayer
370
13
48
1
60
0
100
AcDbLine
10
-36
20
-4.5875
30
0
11
-36
21
-29.67512
31
0
39
0
210
0
220
0
230
1
0
LINE
5
19B
100
AcDbEntity
8
SK2
62
256
6
ByLayer
370
13
48
1
60
0
100
AcDbLine
10
0
20
-4.5875
30
0
11
0
21
-29.67512
31
0
39
0
210
0
220
0
230
1
0
LINE
5
19C
100
AcDbEntity
8
SK2
62
256
6
ByLayer
370
13
48
1
60
0
100
AcDbLine
10
-36
20
-26.50012
30
0
11
0
21
-26.50012
31
0
39
0
210
0
220
0
230
1
0
LINE
5
19D
100
AcDbEntity
8
SK2
62
256
6
ByLayer
370
13
48
1
60
0
100
AcDbLine
10
-36
20
-26.50012
30
0
11
-32.825002
21
-26.082123
31
0
39
0
210
0
220
0
230
1
0
LINE
5
19E
100
AcDbEntity
8
SK2
62
256
6
ByLayer
370
13
48
1
60
0
100
AcDbLine
10
-36
20
-26.50012
30
0
11
-32.824998
21
-26.918117
31
0
39
0
210
0
220
0
230
1
0
LINE
5
19F
100
AcDbEntity
8
SK2
62
256
6
ByLayer
370
13
48
1
60
0
100
AcDbLine
10
-32.825002
20
-26.082123
30
0
11
-32.824998
21
-26.918117
31
0
39
0
210
0
220
0
230
1
0
LINE
5
1A0
100
AcDbEntity
8
SK2
62
256
6
ByLayer
370
13
48
1
60
0
100
AcDbLine
10
0
20
-26.50012
30
0
11
-3.174998
21
-26.918117
31
0
39
0
210
0
220
0
230
1
0
LINE
5
1A1
100
AcDbEntity
8
SK2
62
256
6
ByLayer
370
13
48
1
60
0
100
AcDbLine
10
0
20
-26.50012
30
0
11
-3.175002
21
-26.082123
31
0
39
0
210
0
220
0
230
1
0
LINE
5
1A2
100
AcDbEntity
8
SK2
62
256
6
ByLayer
370
13
48
1
60
0
100
AcDbLine
10
-3.174998
20
-26.918117
30
0
11
-3.175002
21
-26.082123
31
0
39
0
210
0
220
0
230
1
0
ENDBLK
5
1A4
100
AcDbEntity
8
0
100
AcDbBlockEnd
0
BLOCK
5
1A9
100
AcDbEntity
8
0
100
AcDbBlockBegin
2
*D10
70
1
10
0
20
0
30
0
3
*D10
0
LINE
5
1AB
100
AcDbEntity
8
0
62
256
6
ByLayer
370
-2
48
1
60
0
100
AcDbLine
10
2
20
0.6125
30
0
11
2
21
-20.92482
31
0
39
0
210
0
220
0
230
1
0
LINE
5
1AC
100
AcDbEntity
8
0
62
256
6
ByLayer
370
-2
48
1
60
0
100
AcDbLine
10
30
20
-1.5875
30
0
11
30
21
-20.92482
31
0
39
0
210
0
220
0
230
1
0
LINE
5
1AD
100
AcDbEntity
8
0
62
256
6
ByLayer
370
-2
48
1
60
0
100
AcDbLine
10
5.175
20
-17.74982
30
0
11
26.825
21
-17.74982
31
0
39
0
210
0
220
0
230
1
0
SOLID
5
1AE
100
AcDbEntity
8
0
62
256
6
ByLayer
370
-1
48
1
60
0
100
AcDbTrace
10
5.175
20
-17.220653
30
0
11
5.175
21
-18.278987
31
0
12
2
22
-17.74982
32
0
13
2
23
-17.74982
33
0
39
0
210
0
220
0
230
1
0
SOLID
5
1AF
100
AcDbEntity
8
0
62
256
6
ByLayer
370
-1
48
1
60
0
100
AcDbTrace
10
26.825
20
-18.278987
30
0
11
26.825
21
-17.220653
31
0
12
30
22
-17.74982
32
0
13
30
23
-17.74982
33
0
39
0
210
0
220
0
230
1
0
MTEXT
5
1B0
100
AcDbEntity
8
0
62
256
6
ByLayer
370
18
48
1
60
0
100
AcDbMText
10
16
20
-10.443319
30
0
210
0
220
0
230
1
1
\A1;28
40
3.50012
41
0
44
1
50
0
71
5
72
5
7
iso_b_vert
0
POINT
5
1B1
100
AcDbEntity
8
Defpoints
62
0
6
ByLayer
370
-1
48
1
60
0
100
AcDbPoint
10
2
20
2.2
30
0
39
0
210
0
220
0
230
1
50
360
0
POINT
5
1B2
100
AcDbEntity
8
Defpoints
62
0
6
ByLayer
370
-1
48
1
60
0
100
AcDbPoint
10
30
20
0
30
0
39
0
210
0
220
0
230
1
50
360
0
POINT
5
1B3
100
AcDbEntity
8
Defpoints
62
0
6
ByLayer
370
-1
48
1
60
0
100
AcDbPoint
10
30
20
-17.74982
30
0
39
0
210
0
220
0
230
1
50
360
0
ENDBLK
5
1AA
100
AcDbEntity
8
0
100
AcDbBlockEnd
0
BLOCK
5
1BF
100
AcDbEntity
8
0
100
AcDbBlockBegin
2
_U4
70
0
10
0
20
0
30
0
3
_U4
0
MTEXT
5
1B5
100
AcDbEntity
8
SK2
62
256
6
ByLayer
370
18
48
1
60
0
100
AcDbMText
10
10.770389
20
-16.717151
30
0
210
0
220
0
230
1
1
\W0.7468;28.00
40
3.50012
41
0
44
1.084337
50
0
71
7
72
5
7
iso_b_vert
0
LINE
5
1B6
100
AcDbEntity
8
SK2
62
256
6
ByLayer
370
13
48
1
60
0
100
AcDbLine
10
2
20
0.6125
30
0
11
2
21
-20.92482
31
0
39
0
210
0
220
0
230
1
0
LINE
5
1B7
100
AcDbEntity
8
SK2
62
256
6
ByLayer
370
13
48
1
60
0
100
AcDbLine
10
30
20
-1.5875
30
0
11
30
21
-20.92482
31
0
39
0
210
0
220
0
230
1
0
LINE
5
1B8
100
AcDbEntity
8
SK2
62
256
6
ByLayer
370
13
48
1
60
0
100
AcDbLine
10
2
20
-17.74982
30
0
11
30
21
-17.74982
31
0
39
0
210
0
220
0
230
1
0
LINE
5
1B9
100
AcDbEntity
8
SK2
62
256
6
ByLayer
370
13
48
1
60
0
100
AcDbLine
10
2
20
-17.74982
30
0
11
5.174998
21
-17.331823
31
0
39
0
210
0
220
0
230
1
0
LINE
5
1BA
100
AcDbEntity
8
SK2
62
256
6
ByLayer
370
13
48
1
60
0
100
AcDbLine
10
2
20
-17.74982
30
0
11
5.175002
21
-18.167817
31
0
39
0
210
0
220
0
230
1
0
LINE
5
1BB
100
AcDbEntity
8
SK2
62
256
6
ByLayer
370
13
48
1
60
0
100
AcDbLine
10
5.174998
20
-17.331823
30
0
11
5.175002
21
-18.167817
31
0
39
0
210
0
220
0
230
1
0
LINE
5
1BC
100
AcDbEntity
8
SK2
62
256
6
ByLayer
370
13
48
1
60
0
100
AcDbLine
10
30
20
-17.74982
30
0
11
26.825002
21
-18.167817
31
0
39
0
210
0
220
0
230
1
0
LINE
5
1BD
100
AcDbEntity
8
SK2
62
256
6
ByLayer
370
13
48
1
60
0
100
AcDbLine
10
30
20
-17.74982
30
0
11
26.824998
21
-17.331823
31
0
39
0
210
0
220
0
230
1
0
LINE
5
1BE
100
AcDbEntity
8
SK2
62
256
6
ByLayer
370
13
48
1
60
0
100
AcDbLine
10
26.825002
20
-18.167817
30
0
11
26.824998
21
-17.331823
31
0
39
0
210
0
220
0
230
1
0
ENDBLK
5
1C0
100
AcDbEntity
8
0
100
AcDbBlockEnd
0
BLOCK
5
1C5
100
AcDbEntity
8
0
100
AcDbBlockBegin
2
*D12
70
1
10
0
20
0
30
0
3
*D12
0
LINE
5
1C7
100
AcDbEntity
8
0
62
256
6
ByLayer
370
-2
48
1
60
0
100
AcDbLine
10
12.4
20
-3.2875
30
0
11
12.4
21
-10.32
31
0
39
0
210
0
220
0
230
1
0
LINE
5
1C8
100
AcDbEntity
8
0
62
256
6
ByLayer
370
-2
48
1
60
0
100
AcDbLine
10
30
20
-1.5875
30
0
11
30
21
-10.32
31
0
39
0
210
0
220
0
230
1
0
LINE
5
1C9
100
AcDbEntity
8
0
62
256
6
ByLayer
370
-2
48
1
60
0
100
AcDbLine
10
15.575
20
-9.82
30
0
11
26.825
21
-9.82
31
0
39
0
210
0
220
0
230
1
0
SOLID
5
1CA
100
AcDbEntity
8
0
62
256
6
ByLayer
370
-1
48
1
60
0
100
AcDbTrace
10
15.575
20
-9.290833
30
0
11
15.575
21
-10.349167
31
0
12
12.4
22
-9.82
32
0
13
12.4
23
-9.82
33
0
39
0
210
0
220
0
230
1
0
SOLID
5
1CB
100
AcDbEntity
8
0
62
256
6
ByLayer
370
-1
48
1
60
0
100
AcDbTrace
10
26.825
20
-10.349167
30
0
11
26.825
21
-9.290833
31
0
12
30
22
-9.82
32
0
13
30
23
-9.82
33
0
39
0
210
0
220
0
230
1
0
MTEXT
5
1CC
100
AcDbEntity
8
0
62
256
6
ByLayer
370
18
48
1
60
0
100
AcDbMText
10
21.2
20
-3.975
30
0
210
0
220
0
230
1
1
\A1;17.6
40
2.8
41
0
44
1
50
0
71
5
72
5
7
iso_b_vert
0
POINT
5
1CD
100
AcDbEntity
8
Defpoints
62
0
6
ByLayer
370
-1
48
1
60
0
100
AcDbPoint
10
12.4
20
-1.7
30
0
39
0
210
0
220
0
230
1
50
360
0
POINT
5
1CE
100
AcDbEntity
8
Defpoints
62
0
6
ByLayer
370
-1
48
1
60
0
100
AcDbPoint
10
30
20
0
30
0
39
0
210
0
220
0
230
1
50
360
0
POINT
5
1CF
100
AcDbEntity
8
Defpoints
62
0
6
ByLayer
370
-1
48
1
60
0
100
AcDbPoint
10
30
20
-9.82
30
0
39
0
210
0
220
0
230
1
50
360
0
ENDBLK
5
1C6
100
AcDbEntity
8
0
100
AcDbBlockEnd
0
BLOCK
5
1DB
100
AcDbEntity
8
0
100
AcDbBlockBegin
2
_U5
70
0
10
0
20
0
30
0
3
_U5
0
MTEXT
5
1D1
100
AcDbEntity
8
SK2
62
256
6
ByLayer
370
18
48
1
60
0
100
AcDbMText
10
17.366401
20
-9.973893
30
0
210
0
220
0
230
1
1
\W0.6864;17.60
40
2.8
41
0
44
1.084337
50
0
71
7
72
5
7
iso_b_vert
0
LINE
5
1D2
100
AcDbEntity
8
SK2
62
256
6
ByLayer
370
13
48
1
60
0
100
AcDbLine
10
12.4
20
-3.2875
30
0
11
12.4
21
-10.32
31
0
39
0
210
0
220
0
230
1
0
LINE
5
1D3
100
AcDbEntity
8
SK2
62
256
6
ByLayer
370
13
48
1
60
0
100
AcDbLine
10
30
20
-1.5875
30
0
11
30
21
-10.32
31
0
39
0
210
0
220
0
230
1
0
LINE
5
1D4
100
AcDbEntity
8
SK2
62
256
6
ByLayer
370
13
48
1
60
0
100
AcDbLine
10
12.4
20
-9.82
30
0
11
30
21
-9.82
31
0
39
0
210
0
220
0
230
1
0
LINE
5
1D5
100
AcDbEntity
8
SK2
62
256
6
ByLayer
370
13
48
1
60
0
100
AcDbLine
10
12.4
20
-9.82
30
0
11
15.574998
21
-9.402003
31
0
39
0
210
0
220
0
230
1
0
LINE
5
1D6
100
AcDbEntity
8
SK2
62
256
6
ByLayer
370
13
48
1
60
0
100
AcDbLine
10
12.4
20
-9.82
30
0
11
15.575002
21
-10.237997
31
0
39
0
210
0
220
0
230
1
0
LINE
5
1D7
100
AcDbEntity
8
SK2
62
256
6
ByLayer
370
13
48
1
60
0
100
AcDbLine
10
15.574998
20
-9.402003
30
0
11
15.575002
21
-10.237997
31
0
39
0
210
0
220
0
230
1
0
LINE
5
1D8
100
AcDbEntity
8
SK2
62
256
6
ByLayer
370
13
48
1
60
0
100
AcDbLine
10
30
20
-9.82
30
0
11
26.825002
21
-10.237997
31
0
39
0
210
0
220
0
230
1
0
LINE
5
1D9
100
AcDbEntity
8
SK2
62
256
6
ByLayer
370
13
48
1
60
0
100
AcDbLine
10
30
20
-9.82
30
0
11
26.824998
21
-9.402003
31
0
39
0
210
0
220
0
230
1
0
LINE
5
1DA
100
AcDbEntity
8
SK2
62
256
6
ByLayer
370
13
48
1
60
0
100
AcDbLine
10
26.825002
20
-10.237997
30
0
11
26.824998
21
-9.402003
31
0
39
0
210
0
220
0
230
1
0
ENDBLK
5
1DC
100
AcDbEntity
8
0
100
AcDbBlockEnd
0
BLOCK
5
1E1
100
AcDbEntity
8
0
100
AcDbBlockBegin
2
*D14
70
1
10
0
20
0
30
0
3
*D14
0
LINE
5
1E3
100
AcDbEntity
8
0
62
256
6
ByLayer
370
-2
48
1
60
0
100
AcDbLine
10
-36
20
-1.5875
30
0
11
-36
21
-39.67512
31
0
39
0
210
0
220
0
230
1
0
LINE
5
1E4
100
AcDbEntity
8
0
62
256
6
ByLayer
370
-2
48
1
60
0
100
AcDbLine
10
30
20
-1.5875
30
0
11
30
21
-39.67512
31
0
39
0
210
0
220
0
230
1
0
LINE
5
1E5
100
AcDbEntity
8
0
62
256
6
ByLayer
370
-2
48
1
60
0
100
AcDbLine
10
-32.825
20
-36.50012
30
0
11
26.825
21
-36.50012
31
0
39
0
210
0
220
0
230
1
0
SOLID
5
1E6
100
AcDbEntity
8
0
62
256
6
ByLayer
370
-1
48
1
60
0
100
AcDbTrace
10
-32.825
20
-35.970953
30
0
11
-32.825
21
-37.029287
31
0
12
-36
22
-36.50012
32
0
13
-36
23
-36.50012
33
0
39
0
210
0
220
0
230
1
0
SOLID
5
1E7
100
AcDbEntity
8
0
62
256
6
ByLayer
370
-1
48
1
60
0
100
AcDbTrace
10
26.825
20
-37.029287
30
0
11
26.825
21
-35.970953
31
0
12
30
22
-36.50012
32
0
13
30
23
-36.50012
33
0
39
0
210
0
220
0
230
1
0
MTEXT
5
1E8
100
AcDbEntity
8
0
62
256
6
ByLayer
370
18
48
1
60
0
100
AcDbMText
10
-3
20
-29.19362
30
0
210
0
220
0
230
1
1
\A1;66
40
3.50012
41
0
44
1
50
0
71
5
72
5
7
iso_b_vert
0
POINT
5
1E9
100
AcDbEntity
8
Defpoints
62
0
6
ByLayer
370
-1
48
1
60
0
100
AcDbPoint
10
-36
20
0
30
0
39
0
210
0
220
0
230
1
50
360
0
POINT
5
1EA
100
AcDbEntity
8
Defpoints
62
0
6
ByLayer
370
-1
48
1
60
0
100
AcDbPoint
10
30
20
0
30
0
39
0
210
0
220
0
230
1
50
360
0
POINT
5
1EB
100
AcDbEntity
8
Defpoints
62
0
6
ByLayer
370
-1
48
1
60
0
100
AcDbPoint
10
30
20
-36.50012
30
0
39
0
210
0
220
0
230
1
50
360
0
ENDBLK
5
1E2
100
AcDbEntity
8
0
100
AcDbBlockEnd
0
BLOCK
5
1F7
100
AcDbEntity
8
0
100
AcDbBlockBegin
2
_U6
70
0
10
0
20
0
30
0
3
_U6
0
MTEXT
5
1ED
100
AcDbEntity
8
SK2
62
256
6
ByLayer
370
18
48
1
60
0
100
AcDbMText
10
-8.229611
20
-35.467451
30
0
210
0
220
0
230
1
1
\W0.7468;66.00
40
3.50012
41
0
44
1.084337
50
0
71
7
72
5
7
iso_b_vert
0
LINE
5
1EE
100
AcDbEntity
8
SK2
62
256
6
ByLayer
370
13
48
1
60
0
100
AcDbLine
10
-36
20
-1.5875
30
0
11
-36
21
-39.67512
31
0
39
0
210
0
220
0
230
1
0
LINE
5
1EF
100
AcDbEntity
8
SK2
62
256
6
ByLayer
370
13
48
1
60
0
100
AcDbLine
10
30
20
-1.5875
30
0
11
30
21
-39.67512
31
0
39
0
210
0
220
0
230
1
0
LINE
5
1F0
100
AcDbEntity
8
SK2
62
256
6
ByLayer
370
13
48
1
60
0
100
AcDbLine
10
-36
20
-36.50012
30
0
11
30
21
-36.50012
31
0
39
0
210
0
220
0
230
1
0
LINE
5
1F1
100
AcDbEntity
8
SK2
62
256
6
ByLayer
370
13
48
1
60
0
100
AcDbLine
10
-36
20
-36.50012
30
0
11
-32.825002
21
-36.082123
31
0
39
0
210
0
220
0
230
1
0
LINE
5
1F2
100
AcDbEntity
8
SK2
62
256
6
ByLayer
370
13
48
1
60
0
100
AcDbLine
10
-36
20
-36.50012
30
0
11
-32.824998
21
-36.918117
31
0
39
0
210
0
220
0
230
1
0
LINE
5
1F3
100
AcDbEntity
8
SK2
62
256
6
ByLayer
370
13
48
1
60
0
100
AcDbLine
10
-32.825002
20
-36.082123
30
0
11
-32.824998
21
-36.918117
31
0
39
0
210
0
220
0
230
1
0
LINE
5
1F4
100
AcDbEntity
8
SK2
62
256
6
ByLayer
370
13
48
1
60
0
100
AcDbLine
10
30
20
-36.50012
30
0
11
26.825002
21
-36.918117
31
0
39
0
210
0
220
0
230
1
0
LINE
5
1F5
100
AcDbEntity
8
SK2
62
256
6
ByLayer
370
13
48
1
60
0
100
AcDbLine
10
30
20
-36.50012
30
0
11
26.824998
21
-36.082123
31
0
39
0
210
0
220
0
230
1
0
LINE
5
1F6
100
AcDbEntity
8
SK2
62
256
6
ByLayer
370
13
48
1
60
0
100
AcDbLine
10
26.825002
20
-36.918117
30
0
11
26.824998
21
-36.082123
31
0
39
0
210
0
220
0
230
1
0
ENDBLK
5
1F8
100
AcDbEntity
8
0
100
AcDbBlockEnd
0
ENDSEC
0
SECTION
2
ENTITIES
0
ARC
5
B4
100
AcDbEntity
8
1
62
256
6
ByLayer
370
18
48
1
60
0
100
AcDbCircle
39
0
10
1.574842
20
2.48262
30
0
40
0.800000000000002
210
0
220
0
230
1
100
AcDbArc
50
190.173959
51
270.03581
0
ARC
5
B5
100
AcDbEntity
8
1
62
256
6
ByLayer
370
18
48
1
60
0
100
AcDbCircle
39
0
10
1.574842
20
-2.48262
30
0
40
0.800000000000002
210
0
220
0
230
1
100
AcDbArc
50
89.96419
51
169.826041
0
ARC
5
B6
100
AcDbEntity
8
1
62
256
6
ByLayer
370
18
48
1
60
0
100
AcDbCircle
39
0
10
0
20
2.2
30
0
40
0.800000000000002
210
0
220
0
230
1
100
AcDbArc
50
10.173959
51
90
0
ARC
5
B7
100
AcDbEntity
8
1
62
256
6
ByLayer
370
18
48
1
60
0
100
AcDbCircle
39
0
10
0
20
-2.2
30
0
40
0.800000000000002
210
0
220
0
230
1
100
AcDbArc
50
270
51
349.826041
0
ARC
5
B8
100
AcDbEntity
8
SK2
62
256
6
ByLayer
370
13
48
1
60
0
100
AcDbCircle
39
0
10
30
20
0
30
0
40
20
210
0
220
0
230
1
100
AcDbArc
50
9.606349
51
70.00147
0
ARC
5
B9
100
AcDbEntity
8
SK2
62
256
6
ByLayer
370
13
48
1
60
0
100
AcDbCircle
39
0
10
30
20
0
30
0
40
20
210
0
220
0
230
1
100
AcDbArc
50
289.99853
51
350.393651
0
ELLIPSE
5
BA
100
AcDbEntity
8
1
62
256
6
ByLayer
370
18
48
1
60
0
100
AcDbEllipse
10
3.602043
20
-1.699176
30
0
11
-0.1
21
1.22460635382238E-17
31
0
210
0
220
0
230
1
40
1
41
-1.55505135844949
42
-0.000422350252329117
0
ELLIPSE
5
BB
100
AcDbEntity
8
1
62
256
6
ByLayer
370
18
48
1
60
0
100
AcDbEllipse
10
3.602043
20
1.699176
30
0
11
-0.1
21
1.22460635382238E-17
31
0
210
0
220
0
230
1
40
1
41
0.000422350252038238
42
0.926772599698137
0
POINT
5
70
100
AcDbEntity
8
80
62
256
6
ByLayer
370
18
48
1
60
0
100
AcDbPoint
10
0
20
0
30
0
39
0
210
0
220
0
230
1
50
360
0
POINT
5
72
100
AcDbEntity
8
81
62
256
6
ByLayer
370
18
48
1
60
0
100
AcDbPoint
10
30
20
0
30
0
39
0
210
0
220
0
230
1
50
360
0
POINT
5
74
100
AcDbEntity
8
1
62
256
6
ByLayer
370
18
48
1
60
0
100
AcDbPoint
10
-36
20
0
30
0
39
0
210
0
220
0
230
1
50
360
0
POINT
5
76
100
AcDbEntity
8
1
62
256
6
ByLayer
370
18
48
1
60
1
100
AcDbPoint
10
0
20
-3
30
0
39
0
210
0
220
0
230
1
50
360
0
POINT
5
77
100
AcDbEntity
8
1
62
256
6
ByLayer
370
18
48
1
60
1
100
AcDbPoint
10
30
20
0
30
0
39
0
210
0
220
0
230
1
50
360
0
POINT
5
78
100
AcDbEntity
8
1
62
256
6
ByLayer
370
18
48
1
60
1
100
AcDbPoint
10
29.3813
20
-1.7
30
0
39
0
210
0
220
0
230
1
50
360
0
POINT
5
79
100
AcDbEntity
8
1
62
256
6
ByLayer
370
18
48
1
60
1
100
AcDbPoint
10
29.3813
20
1.7
30
0
39
0
210
0
220
0
230
1
50
360
0
POINT
5
7A
100
AcDbEntity
8
1
62
256
6
ByLayer
370
18
48
1
60
1
100
AcDbPoint
10
-36
20
3
30
0
39
0
210
0
220
0
230
1
50
360
0
POINT
5
7B
100
AcDbEntity
8
1
62
256
6
ByLayer
370
18
48
1
60
1
100
AcDbPoint
10
-36
20
-3
30
0
39
0
210
0
220
0
230
1
50
360
0
POINT
5
7C
100
AcDbEntity
8
1
62
256
6
ByLayer
370
18
48
1
60
1
100
AcDbPoint
10
-36
20
-3
30
0
39
0
210
0
220
0
230
1
50
360
0
POINT
5
7D
100
AcDbEntity
8
1
62
256
6
ByLayer
370
18
48
1
60
1
100
AcDbPoint
10
0
20
-3
30
0
39
0
210
0
220
0
230
1
50
360
0
POINT
5
7E
100
AcDbEntity
8
1
62
256
6
ByLayer
370
18
48
1
60
1
100
AcDbPoint
10
2
20
2.2
30
0
39
0
210
0
220
0
230
1
50
360
0
POINT
5
7F
100
AcDbEntity
8
1
62
256
6
ByLayer
370
18
48
1
60
1
100
AcDbPoint
10
30
20
0
30
0
39
0
210
0
220
0
230
1
50
360
0
POINT
5
80
100
AcDbEntity
8
1
62
256
6
ByLayer
370
18
48
1
60
1
100
AcDbPoint
10
12.4
20
-1.7
30
0
39
0
210
0
220
0
230
1
50
360
0
POINT
5
81
100
AcDbEntity
8
1
62
256
6
ByLayer
370
18
48
1
60
1
100
AcDbPoint
10
30
20
0
30
0
39
0
210
0
220
0
230
1
50
360
0
POINT
5
82
100
AcDbEntity
8
1
62
256
6
ByLayer
370
18
48
1
60
1
100
AcDbPoint
10
-36
20
0
30
0
39
0
210
0
220
0
230
1
50
360
0
POINT
5
83
100
AcDbEntity
8
1
62
256
6
ByLayer
370
18
48
1
60
1
100
AcDbPoint
10
30
20
0
30
0
39
0
210
0
220
0
230
1
50
360
0
SPLINE
5
BC
100
AcDbEntity
8
SK1
62
256
6
ByLayer
370
18
48
1
60
0
100
AcDbSpline
70
4
71
3
72
12
73
8
40
0
40
0
40
0
40
0
40
0.249999999999999
40
0.249999999999999
40
0.499999999999997
40
0.499999999999997
40
1
40
1
40
1
40
1
41
1
10
-35.65
20
0.906514862515394
30
-1E-16
41
1
10
-35.65
20
0.922807380885132
30
-1E-16
41
1
10
-35.6543403470552
20
0.937135963526174
30
-1E-16
41
1
10
-35.6670034572333
20
0.959809207401975
30
-1E-16
41
1
10
-35.6754069618006
20
0.968597158920801
30
-1E-16
41
1
10
-35.7033744297257
20
0.988385573388769
30
-1E-16
41
1
10
-35.7260009806424
20
0.993518340779644
30
-1E-16
41
1
10
-35.7500000000001
20
0.990676025960113
30
-1E-16
0
SPLINE
5
BD
100
AcDbEntity
8
SK1
62
256
6
ByLayer
370
18
48
1
60
0
100
AcDbSpline
70
4
71
3
72
8
73
4
40
0
40
0
40
0
40
0
40
1
40
1
40
1
40
1
41
1
10
-35.8509618943233
20
0.511867871266446
30
0
41
1
10
-35.8173591830281
20
0.507866199817755
30
0
41
1
10
-35.7837028594367
20
0.503869927697934
30
0
41
1
10
-35.7499999999999
20
0.499878342233131
30
0
0
SPLINE
5
BE
100
AcDbEntity
8
SK1
62
256
6
ByLayer
370
18
48
1
60
0
100
AcDbSpline
70
4
71
3
72
12
73
8
40
0
40
0
40
0
40
0
40
0.500000000000002
40
0.500000000000002
40
0.750000000000001
40
0.750000000000001
40
1
40
1
40
1
40
1
41
1
10
-35.75
20
0.499878342233245
30
0
41
1
10
-35.7259913046562
20
0.497034881441948
30
0
41
1
10
-35.7033433879313
20
0.48587583900914
30
0
41
1
10
-35.6754686754417
20
0.457891501680507
30
0
41
1
10
-35.667025596347
20
0.446386708910524
30
0
41
1
10
-35.6543350076412
20
0.418999227201624
30
0
41
1
10
-35.65
20
0.402625845811087
30
0
41
1
10
-35.65
20
0.38529892325198
30
0
0
SPLINE
5
BF
100
AcDbEntity
8
SK1
62
256
6
ByLayer
370
18
48
1
60
0
100
AcDbSpline
70
4
71
3
72
10
73
6
40
0
40
0
40
0
40
0
40
0.5
40
0.5
40
1
40
1
40
1
40
1
41
1
10
-35.8509618943233
20
0.511867871266446
30
0
41
1
10
-35.8741904300927
20
0.556236785808409
30
0
41
1
10
-35.8986222732874
20
0.598627931345675
30
0
41
1
10
-35.9485161922248
20
0.678643265916435
30
0
41
1
10
-35.974056478015
20
0.716430286735346
30
0
41
1
10
-35.9999999999999
20
0.752330607768528
30
0
0
SPLINE
5
C0
100
AcDbEntity
8
SK1
62
256
6
ByLayer
370
18
48
1
60
0
100
AcDbSpline
70
4
71
3
72
8
73
4
40
0
40
0
40
0
40
0
40
1
40
1
40
1
40
1
41
1
10
-35.75
20
0.990676025959971
30
-1E-16
41
1
10
-35.7837023417761
20
0.98668450180412
30
-1E-16
41
1
10
-35.8173586419894
20
0.982688232806453
30
-1E-16
41
1
10
-35.8509618943233
20
0.978686496926684
30
-1E-16
0
SPLINE
5
C1
100
AcDbEntity
8
SK1
62
256
6
ByLayer
370
18
48
1
60
0
100
AcDbSpline
70
4
71
3
72
10
73
6
40
0
40
0
40
0
40
0
40
0.5
40
0.5
40
1
40
1
40
1
40
1
41
1
10
-35.8509618943233
20
-0.511867871266446
30
0
41
1
10
-35.8741904300927
20
-0.556236785808409
30
0
41
1
10
-35.8986222732874
20
-0.598627931345675
30
0
41
1
10
-35.9485161922248
20
-0.678643265916435
30
0
41
1
10
-35.974056478015
20
-0.716430286735346
30
0
41
1
10
-35.9999999999999
20
-0.752330607768528
30
0
0
SPLINE
5
C2
100
AcDbEntity
8
SK1
62
256
6
ByLayer
370
18
48
1
60
0
100
AcDbSpline
70
4
71
3
72
8
73
4
40
0
40
0
40
0
40
0
40
1
40
1
40
1
40
1
41
1
10
-35.8509618943233
20
-0.511867871266446
30
0
41
1
10
-35.8173591830281
20
-0.507866199817755
30
0
41
1
10
-35.7837028594367
20
-0.503869927697934
30
0
41
1
10
-35.7499999999999
20
-0.499878342233131
30
0
0
SPLINE
5
C3
100
AcDbEntity
8
SK1
62
256
6
ByLayer
370
18
48
1
60
0
100
AcDbSpline
70
4
71
3
72
8
73
4
40
0
40
0
40
0
40
0
40
1
40
1
40
1
40
1
41
1
10
-36.0000000000001
20
1.16167637283533
30
-1E-16
41
1
10
-35.9478735570756
20
1.11010378331005
30
-1E-16
41
1
10
-35.897619057052
20
1.05017385787673
30
-1E-16
41
1
10
-35.8509618943233
20
0.978686496926684
30
-1E-16
0
SPLINE
5
C4
100
AcDbEntity
8
SK1
62
256
6
ByLayer
370
18
48
1
60
0
100
AcDbSpline
70
4
71
3
72
12
73
8
40
0
40
0
40
0
40
0
40
0.500000000000002
40
0.500000000000002
40
0.750000000000001
40
0.750000000000001
40
1
40
1
40
1
40
1
41
1
10
-35.75
20
-0.499878342233245
30
0
41
1
10
-35.7259913046562
20
-0.497034881441948
30
0
41
1
10
-35.7033433879313
20
-0.48587583900914
30
0
41
1
10
-35.6754686754417
20
-0.457891501680507
30
0
41
1
10
-35.667025596347
20
-0.446386708910524
30
0
41
1
10
-35.6543350076412
20
-0.418999227201596
30
0
41
1
10
-35.65
20
-0.402625845811087
30
0
41
1
10
-35.65
20
-0.38529892325198
30
0
0
SPLINE
5
C5
100
AcDbEntity
8
1
62
256
6
ByLayer
370
18
48
1
60
0
100
AcDbSpline
70
4
71
3
72
20
73
16
40
0
40
0
40
0
40
0
40
0.100732007733869
40
0.100732007733869
40
0.250610006444891
40
0.250610006444891
40
0.400488005155913
40
0.400488005155913
40
0.550366003866935
40
0.550366003866935
40
0.700244002577956
40
0.700244002577956
40
0.850122001288978
40
0.850122001288978
40
1
40
1
40
1
40
1
41
1
10
29.2852336979314
20
0.274699408141345
30
0
41
1
10
29.2834208662149
20
0.279039367170668
30
0
41
1
10
29.2830140482974
20
0.283805779088169
30
0
41
1
10
29.2853551073129
20
0.296799589200191
30
0
41
1
10
29.2897591360648
20
0.305809135418826
30
0
41
1
10
29.3038949408665
20
0.325723458544814
30
0
41
1
10
29.3135905974853
20
0.336538950958413
30
0
41
1
10
29.3381778161423
20
0.360182999950439
30
0
41
1
10
29.3524697402852
20
0.372651844762686
30
0
41
1
10
29.3855761022938
20
0.397891217477991
30
0
41
1
10
29.4045571729729
20
0.410677845840297
30
0
41
1
10
29.4457427819953
20
0.433424470609253
30
0
41
1
10
29.4685215002094
20
0.443716411540862
30
0
41
1
10
29.5160664786065
20
0.460596296939599
30
0
41
1
10
29.5406737924263
20
0.467152457485099
30
0
41
1
10
29.5661179441592
20
0.47159830292432
30
0
0
SPLINE
5
C6
100
AcDbEntity
8
1
62
256
6
ByLayer
370
18
48
1
60
0
100
AcDbSpline
70
4
71
3
72
28
73
24
40
0
40
0
40
0
40
0
40
0.061690366147382
40
0.061690366147382
40
0.123380732294764
40
0.123380732294764
40
0.246761464589522
40
0.246761464589522
40
0.370142196884281
40
0.370142196884281
40
0.431832563031663
40
0.431832563031663
40
0.493522929179045
40
0.493522929179045
40
0.740284393768572
40
0.740284393768572
40
0.801974759915953
40
0.801974759915953
40
0.863665126063333
40
0.863665126063333
40
0.987045858358094
40
0.987045858358094
40
1
40
1
40
1
40
1
41
1
10
29.3758020672285
20
-1.61097984414352
30
0
41
1
10
29.2410110501927
20
-1.60090854739957
30
0
41
1
10
29.1063204335386
20
-1.5855851636199
30
0
41
1
10
28.8365872860853
20
-1.54434514755801
30
0
41
1
10
28.7012090943681
20
-1.51831613472862
30
0
41
1
10
28.2960922649672
20
-1.42550715876911
30
0
41
1
10
28.0293892849885
20
-1.34469851642211
30
0
41
1
10
27.4974530213752
20
-1.1513967733357
30
1E-16
41
1
10
27.2320900329465
20
-1.03899873541238
30
1E-16
41
1
10
26.831872566537
20
-0.851221911397687
30
1E-16
41
1
10
26.6980028688319
20
-0.785494488622817
30
0
41
1
10
26.4287296156502
20
-0.648572097516023
30
0
41
1
10
26.2930360956643
20
-0.577142666308617
30
0
41
1
10
25.6207666711808
20
-0.214784889996366
30
0
41
1
10
25.0945213851389
20
0.096011403376707
30
0
41
1
10
24.4250422623086
20
0.463290753127978
30
0
41
1
10
24.2905394047617
20
0.535643414117345
30
0
41
1
10
24.0198433997493
20
0.677279588184774
30
0
41
1
10
23.8848668259743
20
0.746007897567722
30
0
41
1
10
23.4822952358049
20
0.943247419296227
30
-1E-16
41
1
10
23.2157075296084
20
1.06309166334231
30
-1E-16
41
1
10
22.9205895331079
20
1.17877329869077
30
-1E-16
41
1
10
22.8925411544814
20
1.18960232713718
30
-1E-16
41
1
10
22.8644828241389
20
1.20026406774437
30
-1E-16
0
SPLINE
5
C7
100
AcDbEntity
8
1
62
256
6
ByLayer
370
18
48
1
60
0
100
AcDbSpline
70
4
71
3
72
10
73
6
40
0
40
0
40
0
40
0
40
0.133156265010314
40
0.133156265010314
40
1
40
1
40
1
40
1
41
1
10
21.4581916200518
20
1.57153273450692
30
0
41
1
10
21.4178052138352
20
1.57707127621555
30
0
41
1
10
21.3774429131007
20
1.58212953776342
30
0
41
1
10
21.0744484382785
20
1.61646567736983
30
0
41
1
10
20.8122947230648
20
1.62667485214587
30
0
41
1
10
20.5483678685414
20
1.61573041802629
30
0
0
SPLINE
5
C8
100
AcDbEntity
8
1
62
256
6
ByLayer
370
18
48
1
60
0
100
AcDbSpline
70
4
71
3
72
30
73
26
40
0
40
0
40
0
40
0
40
0.0324404625837554
40
0.0324404625837554
40
0.146465361867539
40
0.146465361867539
40
0.203477811509432
40
0.203477811509432
40
0.260490261151326
40
0.260490261151326
40
0.374515160435112
40
0.374515160435112
40
0.431527610077005
40
0.431527610077005
40
0.488540059718898
40
0.488540059718898
40
0.602564959002687
40
0.602564959002687
40
0.716589858286475
40
0.716589858286475
40
0.830614757570264
40
0.830614757570264
40
0.944639656854052
40
0.944639656854052
40
1
40
1
40
1
40
1
41
1
10
11.893860768925
20
-1.61217997684756
30
0
41
1
10
11.8178029991938
20
-1.61427324012152
30
0
41
1
10
11.7417639099693
20
-1.61463473724478
30
0
41
1
10
11.3982308664601
20
-1.60825868213166
30
0
41
1
10
11.1307208836226
20
-1.58280145032714
30
0
41
1
10
10.7246430208013
20
-1.51225183555266
30
0
41
1
10
10.5891500216287
20
-1.48361889932269
30
0
41
1
10
10.3200867835567
20
-1.41726432872906
30
0
41
1
10
10.1860418929543
20
-1.37932283734716
30
0
41
1
10
9.78437485318025
20
-1.25254287685004
30
1E-16
41
1
10
9.51764313951233
20
-1.15096388034135
30
1E-16
41
1
10
9.11456519532754
20
-0.976860681761138
30
1E-16
41
1
10
8.97985929495684
20
-0.915253823820535
30
1E-16
41
1
10
8.7089729721464
20
-0.785616754015393
30
0
41
1
10
8.57372876722849
20
-0.718052039082096
30
0
41
1
10
8.17020451046452
20
-0.510258354104707
30
0
41
1
10
7.90337217846428
20
-0.363952713012509
30
0
41
1
10
7.36839997404016
20
-0.0655047086551974
30
0
41
1
10
7.10034572742691
20
0.0867266508622322
30
0
41
1
10
6.55812727234283
20
0.388301426622832
30
0
41
1
10
6.28948891828242
20
0.534418341628452
30
0
41
1
10
5.75418323347228
20
0.807898045221975
30
0
41
1
10
5.48717060794596
20
0.935494862322827
30
-1E-16
41
1
10
5.08779158961582
20
1.10555180966077
30
-1E-16
41
1
10
4.95652978668105
20
1.1581018618883
30
-1E-16
41
1
10
4.82512284130556
20
1.20692291608717
30
-1E-16
0
SPLINE
5
C9
100
AcDbEntity
8
1
62
256
6
ByLayer
370
18
48
1
60
0
100
AcDbSpline
70
4
71
3
72
8
73
4
40
0
40
0
40
0
40
0
40
1
40
1
40
1
40
1
41
1
10
29.3758020672285
20
1.61097984414352
30
0
41
1
10
29.3294337534774
20
1.60751530282931
30
0
41
1
10
29.2830773208104
20
1.60342924507782
30
0
41
1
10
29.2367215192347
20
1.59871985786262
30
0
0
SPLINE
5
CA
100
AcDbEntity
8
1
62
256
6
ByLayer
370
18
48
1
60
0
100
AcDbSpline
70
4
71
3
72
32
73
28
40
0
40
0
40
0
40
0
40
0.0631796971577207
40
0.0631796971577207
40
0.121461421272485
40
0.121461421272485
40
0.179743145387249
40
0.179743145387249
40
0.296306593616778
40
0.296306593616778
40
0.354588317731542
40
0.354588317731542
40
0.412870041846307
40
0.412870041846307
40
0.529433490075836
40
0.529433490075836
40
0.5877152141906
40
0.5877152141906
40
0.645996938305364
40
0.645996938305364
40
0.879123834764426
40
0.879123834764426
40
0.93740555887919
40
0.93740555887919
40
0.995687282993954
40
0.995687282993954
40
1
40
1
40
1
40
1
41
1
10
20.9700854434327
20
-1.61540727461104
30
0
41
1
10
20.8252454125758
20
-1.62158055051125
30
0
41
1
10
20.6802346206332
20
-1.6215819943879
30
0
41
1
10
20.4003955934356
20
-1.60920432450541
30
0
41
1
10
20.2654591698593
20
-1.59794923657435
30
0
41
1
10
19.994709756842
20
-1.56489572880721
30
0
41
1
10
19.8600775950084
20
-1.54319607111111
30
0
41
1
10
19.4576785757959
20
-1.46294068849914
30
0
41
1
10
19.1911922077171
20
-1.39020692950879
30
0
41
1
10
18.7900777781328
20
-1.25491664770925
30
1E-16
41
1
10
18.6561727008084
20
-1.20552551640847
30
1E-16
41
1
10
18.3874909998021
20
-1.09886276290504
30
1E-16
41
1
10
18.2523697674088
20
-1.04139699287879
30
1E-16
41
1
10
17.8462867936785
20
-0.858666973804276
30
1E-16
41
1
10
17.5778156749611
20
-0.724924410094076
30
0
41
1
10
17.1745210511815
20
-0.512390198806486
30
0
41
1
10
17.0400071969023
20
-0.439605819677837
30
0
41
1
10
16.7702082196707
20
-0.291178648649634
30
0
41
1
10
16.6344466533027
20
-0.215272080477746
30
0
41
1
10
15.9595999388053
20
0.164202754183663
30
0
41
1
10
15.4299038027097
20
0.469450140702918
30
0
41
1
10
14.7549992660918
20
0.807383357507462
30
0
41
1
10
14.6191657952191
20
0.872970955911484
30
-1E-16
41
1
10
14.3496062295564
20
0.997003024794822
30
-1E-16
41
1
10
14.2154057351199
20
1.05554580933048
30
-1E-16
41
1
10
14.071538568658
20
1.11431971939882
30
-1E-16
41
1
10
14.0616277474627
20
1.11834941684449
30
-1E-16
41
1
10
14.0517183220626
20
1.12235911721723
30
-1E-16
0
SPLINE
5
CB
100
AcDbEntity
8
1
62
256
6
ByLayer
370
18
48
1
60
0
100
AcDbSpline
70
2053
71
3
72
36
73
32
40
0
40
0
40
0
40
0
40
0.124999999999999
40
0.124999999999999
40
0.187500000000001
40
0.187500000000001
40
0.250000000000004
40
0.250000000000004
40
0.312500000000007
40
0.312500000000007
40
0.343750000000008
40
0.343750000000008
40
0.375000000000009
40
0.375000000000009
40
0.437500000000005
40
0.437500000000005
40
0.500000000000001
40
0.500000000000001
40
0.624999999999994
40
0.624999999999994
40
0.687499999999995
40
0.687499999999995
40
0.749999999999996
40
0.749999999999996
40
0.812499999999997
40
0.812499999999997
40
0.874999999999998
40
0.874999999999998
40
0.937499999999999
40
0.937499999999999
40
1
40
1
40
1
40
1
41
1
10
29.5893936511642
20
-0.692446815006245
30
0
41
1
10
29.56235948903
20
-0.72624864193827
30
0
41
1
10
29.5381984821606
20
-0.739412821420359
30
0
41
1
10
29.5087007889969
20
-0.725159579484256
30
0
41
1
10
29.5003059075521
20
-0.714955732449027
30
0
41
1
10
29.4861918879872
20
-0.683011003153297
30
0
41
1
10
29.4807907716818
20
-0.661996285473748
30
0
41
1
10
29.4738575847001
20
-0.609519865783454
30
0
41
1
10
29.4725114521962
20
-0.579197242128714
30
0
41
1
10
29.4746945966904
20
-0.52930360699429
30
0
41
1
10
29.4761090760828
20
-0.512432018387642
30
0
41
1
10
29.48046831286
20
-0.478212814416395
30
0
41
1
10
29.4834626456603
20
-0.460748046688764
30
0
41
1
10
29.4945098977873
20
-0.410709287424027
30
0
41
1
10
29.5049217156384
20
-0.379293221463712
30
0
41
1
10
29.5296499324932
20
-0.326694051038629
30
0
41
1
10
29.5438104915374
20
-0.305571162523677
30
0
41
1
10
29.5876325485884
20
-0.25887151226766
30
0
41
1
10
29.6187386517061
20
-0.249220041044509
30
0
41
1
10
29.6569418016425
20
-0.263947473265034
30
0
41
1
10
29.6684338562506
20
-0.273830491660249
30
0
41
1
10
29.686630945073
20
-0.30405595434766
30
0
41
1
10
29.6933303397884
20
-0.324596230840825
30
0
41
1
10
29.6992612236253
20
-0.375345650652463
30
0
41
1
10
29.6983987321108
20
-0.40592289361885
30
0
41
1
10
29.6885567062242
20
-0.471366902092285
30
0
41
1
10
29.6795789048797
20
-0.50625850064003
30
0
41
1
10
29.6573104638462
20
-0.571251195506676
30
0
41
1
10
29.6440728815096
20
-0.601600644154132
30
0
41
1
10
29.6169086803513
20
-0.653639790323041
30
0
41
1
10
29.6029107322314
20
-0.675545901540232
30
0
41
1
10
29.5893936511642
20
-0.692446815006245
30
0
0
SPLINE
5
CC
100
AcDbEntity
8
1
62
256
6
ByLayer
370
18
48
1
60
0
100
AcDbSpline
70
4
71
3
72
26
73
22
40
0
40
0
40
0
40
0
40
0.152056439953533
40
0.152056439953533
40
0.232043414703769
40
0.232043414703769
40
0.312030389454004
40
0.312030389454004
40
0.472004338954478
40
0.472004338954478
40
0.551991313704715
40
0.551991313704715
40
0.631978288454952
40
0.631978288454952
40
0.791952237955426
40
0.791952237955426
40
0.871939212705662
40
0.871939212705662
40
0.951926187455898
40
0.951926187455898
40
1
40
1
40
1
40
1
41
1
10
15.7438336837333
20
0.294930277744044
30
0
41
1
10
15.9981135107494
20
0.154735368526786
30
0
41
1
10
16.2525134208908
20
0.0109325763490062
30
0
41
1
10
16.6442304593494
20
-0.208056010769752
30
0
41
1
10
16.7800191832662
20
-0.283559318910506
30
0
41
1
10
17.04989185669
20
-0.431231486620106
30
0
41
1
10
17.1844513308281
20
-0.503669217610991
30
0
41
1
10
17.5878842354645
20
-0.71527075394016
30
0
41
1
10
17.8564743311983
20
-0.848504965325475
30
1E-16
41
1
10
18.2627202751953
20
-1.03067562663239
30
1E-16
41
1
10
18.3978404729115
20
-1.08796167070972
30
1E-16
41
1
10
18.6665991741412
20
-1.19436694895535
30
1E-16
41
1
10
18.8005509637414
20
-1.24367118266841
30
1E-16
41
1
10
19.2018140736543
20
-1.37880668314128
30
0
41
1
10
19.4684253270249
20
-1.45157450034762
30
0
41
1
10
19.8710178396258
20
-1.53207655568338
30
0
41
1
10
20.0057168736268
20
-1.55388535471124
30
0
41
1
10
20.2765941838372
20
-1.58723264272095
30
0
41
1
10
20.4115171599234
20
-1.59866479227446
30
0
41
1
10
20.6265532467827
20
-1.60850372193116
30
0
41
1
10
20.7071119389208
20
-1.61022934429477
30
0
41
1
10
20.7875689774497
20
-1.61003155893266
30
0
0
SPLINE
5
CD
100
AcDbEntity
8
1
62
256
6
ByLayer
370
18
48
1
60
0
100
AcDbSpline
70
4
71
3
72
46
73
42
40
0
40
0
40
0
40
0
40
0.0390092116561003
40
0.0390092116561003
40
0.0796861425639271
40
0.0796861425639271
40
0.120363073471754
40
0.120363073471754
40
0.16104000437958
40
0.16104000437958
40
0.201716935287407
40
0.201716935287407
40
0.242393866195234
40
0.242393866195234
40
0.283070797103061
40
0.283070797103061
40
0.323747728010888
40
0.323747728010888
40
0.364424658918714
40
0.364424658918714
40
0.405101589826541
40
0.405101589826541
40
0.445778520734368
40
0.445778520734368
40
0.527132382550023
40
0.527132382550023
40
0.56780931345785
40
0.56780931345785
40
0.608486244365676
40
0.608486244365676
40
0.68984010618133
40
0.68984010618133
40
0.730517037089157
40
0.730517037089157
40
0.771193967996983
40
0.771193967996983
40
0.93390169162829
40
0.93390169162829
40
0.974578622536116
40
0.974578622536116
40
1
40
1
40
1
40
1
41
1
10
5.66501333911225
20
1.61953920165604
30
0
41
1
10
5.79285255026252
20
1.64040898241586
30
0
41
1
10
5.9201258292762
20
1.6563743070773
30
0
41
1
10
6.17987724971653
20
1.67882337370932
30
0
41
1
10
6.31233337546843
20
1.68490866058846
30
0
41
1
10
6.57715430314113
20
1.68631180939377
30
0
41
1
10
6.70952319540436
20
1.68158918125798
30
0
41
1
10
6.97537709346355
20
1.66130797352525
30
0
41
1
10
7.10886354901515
20
1.64579699641709
30
0
41
1
10
7.37704028878562
20
1.60376461046101
30
0
41
1
10
7.51065404562823
20
1.57734107954263
30
0
41
1
10
7.77673439957897
20
1.51496369872587
30
0
41
1
10
7.90944937654913
20
1.47902681481207
30
0
41
1
10
8.17415182791285
20
1.39769959277444
30
0
41
1
10
8.30620197509845
20
1.35231833018366
30
-1E-16
41
1
10
8.57107229983549
20
1.25354684307462
30
-1E-16
41
1
10
8.7037689465871
20
1.20006400604149
30
-1E-16
41
1
10
8.96974262366027
20
1.08478389027556
30
-1E-16
41
1
10
9.10333801767294
20
1.02290946163194
30
-1E-16
41
1
10
9.37153992307736
20
0.893167473641881
30
-1E-16
41
1
10
9.50495651122841
20
0.825653054701377
30
-1E-16
41
1
10
9.77057561267821
20
0.685638471384522
30
0
41
1
10
9.90285839490537
20
0.613252079775975
30
0
41
1
10
10.2999691485892
20
0.392000477879975
30
0
41
1
10
10.5639495298186
20
0.237216819053117
30
0
41
1
10
10.9636986919089
20
0.0023357470661551
30
0
41
1
10
11.098050362854
20
-0.0767754591232972
30
0
41
1
10
11.3654811955369
20
-0.233963478346567
30
0
41
1
10
11.4984397604057
20
-0.311718712280992
30
0
41
1
10
11.8966333171854
20
-0.539883830059097
30
0
41
1
10
12.1601186846044
20
-0.68696619634008
30
0
41
1
10
12.5579443838146
20
-0.891190639057697
30
1E-16
41
1
10
12.6908241395736
20
-0.956802197234254
30
1E-16
41
1
10
12.9573432868208
20
-1.08262888927464
30
1E-16
41
1
10
13.0915989913719
20
-1.1427913981633
30
1E-16
41
1
10
13.7597441234989
20
-1.41990768910043
30
0
41
1
10
14.2827162735393
20
-1.57631849718808
30
0
41
1
10
14.9509670566646
20
-1.66530937407128
30
0
41
1
10
15.0853730861271
20
-1.67781458295369
30
0
41
1
10
15.3017626924151
20
-1.6890779966518
30
0
41
1
10
15.3847759763015
20
-1.69125157856388
30
0
41
1
10
15.4676737090848
20
-1.69130209008222
30
0
0
SPLINE
5
CE
100
AcDbEntity
8
1
62
256
6
ByLayer
370
18
48
1
60
0
100
AcDbSpline
70
4
71
3
72
26
73
22
40
0
40
0
40
0
40
0
40
0.0038423095402105
40
0.0038423095402105
40
0.146150551034469
40
0.146150551034469
40
0.217304671781597
40
0.217304671781597
40
0.288458792528725
40
0.288458792528725
40
0.430767034022981
40
0.430767034022981
40
0.501921154770106
40
0.501921154770106
40
0.573075275517233
40
0.573075275517233
40
0.715383517011489
40
0.715383517011489
40
0.857691758505745
40
0.857691758505745
40
1
40
1
40
1
40
1
41
1
10
23.5619253267824
20
1.61200785063605
30
0
41
1
10
23.5690641078845
20
1.61332506751003
30
0
41
1
10
23.576202510838
20
1.61462755727013
30
0
41
1
10
23.8477123205564
20
1.66361117698653
30
0
41
1
10
24.1110637606426
20
1.69096467179946
30
0
41
1
10
24.5115165666367
20
1.69858751830608
30
0
41
1
10
24.6460027175088
20
1.69560180860469
30
0
41
1
10
24.9126669924425
20
1.67876723163175
30
0
41
1
10
25.0453306277534
20
1.66494435144264
30
0
41
1
10
25.4420532059743
20
1.60756971246985
30
0
41
1
10
25.7052222358159
20
1.54815779512077
30
0
41
1
10
26.102854455811
20
1.43048059851429
30
0
41
1
10
26.2357909079319
20
1.38644235462914
30
0
41
1
10
26.5031015229483
20
1.28914274933158
30
-1E-16
41
1
10
26.6371583651052
20
1.23595593260296
30
-1E-16
41
1
10
27.036040839324
20
1.06597439496235
30
-1E-16
41
1
10
27.2996916486036
20
0.93819039444125
30
-1E-16
41
1
10
27.8280316648483
20
0.661884948407902
30
0
41
1
10
28.0927107358894
20
0.513378387137578
30
0
41
1
10
28.6280460300148
20
0.202860429217708
30
0
41
1
10
28.8942381713523
20
0.0432237391069918
30
0
41
1
10
29.161668659988
20
-0.11411727788169
30
0
0
SPLINE
5
CF
100
AcDbEntity
8
1
62
256
6
ByLayer
370
18
48
1
60
0
100
AcDbSpline
70
4
71
3
72
46
73
42
40
0
40
0
40
0
40
0
40
0.124999999999992
40
0.124999999999992
40
0.187499999999987
40
0.187499999999987
40
0.249999999999983
40
0.249999999999983
40
0.281249999999983
40
0.281249999999983
40
0.312499999999982
40
0.312499999999982
40
0.343749999999981
40
0.343749999999981
40
0.37499999999998
40
0.37499999999998
40
0.40624999999998
40
0.40624999999998
40
0.437499999999979
40
0.437499999999979
40
0.499999999999978
40
0.499999999999978
40
0.562499999999976
40
0.562499999999976
40
0.624999999999975
40
0.624999999999975
40
0.687499999999973
40
0.687499999999973
40
0.703124999999974
40
0.703124999999974
40
0.710937499999974
40
0.710937499999974
40
0.718749999999974
40
0.718749999999974
40
0.734374999999975
40
0.734374999999975
40
0.749999999999975
40
0.749999999999975
40
0.874999999999988
40
0.874999999999988
40
1
40
1
40
1
40
1
41
1
10
3.19488392012923
20
-0.460823213354814
30
0
41
1
10
3.01876462783267
20
-0.362048231639051
30
0
41
1
10
2.84803467206831
20
-0.254833751358234
30
0
41
1
10
2.60470662581781
20
-0.0739171531780869
30
0
41
1
10
2.52575074944042
20
-0.0102220066877408
30
0
41
1
10
2.37408970320198
20
0.127018648425491
30
0
41
1
10
2.30214622710361
20
0.199845794787279
30
0
41
1
10
2.2049369244346
20
0.317109396647282
30
0
41
1
10
2.17429634132281
20
0.357653209364827
30
0
41
1
10
2.11882599227261
20
0.440540314761165
30
0
41
1
10
2.09381856905057
20
0.483066521044435
30
0
41
1
10
2.05082180397682
20
0.570913487223436
30
0
41
1
10
2.03280589233839
20
0.616602523043468
30
0
41
1
10
2.00728475572868
20
0.707413725999743
30
0
41
1
10
1.99951039404792
20
0.753226976587797
30
0
41
1
10
1.99577893778775
20
0.843856588928958
30
-1E-16
41
1
10
1.99981302295612
20
0.887362592112112
30
-1E-16
41
1
10
2.01903285962271
20
0.971006439084562
30
-1E-16
41
1
10
2.03441668533142
20
1.01117632794646
30
-1E-16
41
1
10
2.0929609175565
20
1.12162196652562
30
-1E-16
41
1
10
2.14959557580534
20
1.18489483255402
30
-1E-16
41
1
10
2.27802804561824
20
1.29161821222164
30
-1E-16
41
1
10
2.3505688365407
20
1.33622690411218
30
-1E-16
41
1
10
2.5051701621222
20
1.41368048701088
30
0
41
1
10
2.58660381466768
20
1.44614671563105
30
0
41
1
10
2.75478324390309
20
1.50255610327415
30
0
41
1
10
2.84121619198302
20
1.5263432025923
30
0
41
1
10
2.95137456767975
20
1.55208618826777
30
0
41
1
10
2.97350523319108
20
1.5570299479497
30
0
41
1
10
3.00683576571023
20
1.56415871620018
30
0
41
1
10
3.01770997845404
20
1.56669231095907
30
0
41
1
10
3.04083426364451
20
1.57063179911762
30
0
41
1
10
3.05333778435931
20
1.57172837433856
30
0
41
1
10
3.09128038994561
20
1.57287496021797
30
0
41
1
10
3.11644908907761
20
1.57095095714729
30
0
41
1
10
3.16438006431577
20
1.56473979692012
30
0
41
1
10
3.18825585869047
20
1.56147887403532
30
0
41
1
10
3.40274657848226
20
1.53116725581444
30
0
41
1
10
3.58948606756457
20
1.49610924236597
30
0
41
1
10
3.95430855092931
20
1.40493478611734
30
0
41
1
10
4.13214943254428
20
1.34896668127794
30
-1E-16
41
1
10
4.30732391659183
20
1.28173826525798
30
-1E-16
0
SPLINE
5
D0
100
AcDbEntity
8
1
62
256
6
ByLayer
370
18
48
1
60
0
100
AcDbSpline
70
4
71
3
72
8
73
4
40
0
40
0
40
0
40
0
40
1
40
1
40
1
40
1
41
1
10
29.2627907441864
20
1.67513163498899
30
0
41
1
10
29.2652310731919
20
1.6888089798548
30
0
41
1
10
29.2672200618663
20
1.69696121811811
30
0
41
1
10
29.2690170164848
20
1.69924743751332
30
0
0
SPLINE
5
D1
100
AcDbEntity
8
1
62
256
6
ByLayer
370
18
48
1
60
0
100
AcDbSpline
70
4
71
3
72
8
73
4
40
0
40
0
40
0
40
0
40
1
40
1
40
1
40
1
41
1
10
29.2627907441864
20
-1.67513163498899
30
0
41
1
10
29.2652310731919
20
-1.68880897985488
30
0
41
1
10
29.2672200618663
20
-1.69696121811819
30
0
41
1
10
29.2690170164849
20
-1.69924743751335
30
0
0
SPLINE
5
D2
100
AcDbEntity
8
1
62
256
6
ByLayer
370
18
48
1
60
0
100
AcDbSpline
70
4
71
3
72
8
73
4
40
0
40
0
40
0
40
0
40
1
40
1
40
1
40
1
41
1
10
29.3453125779735
20
-1.59939221528836
30
0
41
1
10
29.2373200840522
20
-1.59967704912438
30
0
41
1
10
29.1292796843983
20
-1.59654287005682
30
0
41
1
10
29.0212343691477
20
-1.58998042551676
30
0
0
SPLINE
5
D3
100
AcDbEntity
8
1
62
256
6
ByLayer
370
18
48
1
60
0
100
AcDbSpline
70
4
71
3
72
30
73
26
40
0
40
0
40
0
40
0
40
0.0275752724538221
40
0.0275752724538221
40
0.103035941843158
40
0.103035941843158
40
0.253957280621829
40
0.253957280621829
40
0.404878619400501
40
0.404878619400501
40
0.480339288789836
40
0.480339288789836
40
0.555799958179172
40
0.555799958179172
40
0.631260627568508
40
0.631260627568508
40
0.706721296957844
40
0.706721296957844
40
0.782181966347179
40
0.782181966347179
40
0.857642635736515
40
0.857642635736515
40
0.933103305125851
40
0.933103305125851
40
1
40
1
40
1
40
1
41
1
10
24.9967122125601
20
-0.0903509683280106
30
0
41
1
10
24.9340563249191
20
-0.0553897914234938
30
0
41
1
10
24.8713702348225
20
-0.0203359311583995
30
0
41
1
10
24.6372723140246
20
0.110519397357194
30
0
41
1
10
24.4657841254211
20
0.206334271572899
30
0
41
1
10
23.9513250326135
20
0.487869495317966
30
0
41
1
10
23.6086465734469
20
0.670156902849044
30
0
41
1
10
22.9226409815202
20
0.996337027272403
30
-1E-16
41
1
10
22.5800382024302
20
1.14217586248202
30
-1E-16
41
1
10
22.0654863932336
20
1.31880542356032
30
0
41
1
10
21.894148191712
20
1.37072494128651
30
0
41
1
10
21.5512996314098
20
1.46019729486906
30
0
41
1
10
21.3798360217063
20
1.49743780582546
30
0
41
1
10
21.0368778182265
20
1.55463044077612
30
0
41
1
10
20.8653859598009
20
1.57447286393767
30
0
41
1
10
20.5228348481445
20
1.59863718318408
30
0
41
1
10
20.3512940194024
20
1.6023350281545
30
0
41
1
10
20.0092967990276
20
1.59218298505365
30
0
41
1
10
19.838390635685
20
1.57816188012833
30
0
41
1
10
19.496181544071
20
1.53415312891369
30
0
41
1
10
19.3246035048902
20
1.50377750073216
30
0
41
1
10
18.9817084064441
20
1.42716868159297
30
0
41
1
10
18.8101184548578
20
1.38040433818014
30
0
41
1
10
18.4868673113724
20
1.27939244927074
30
0
41
1
10
18.3347020131028
20
1.22632214487683
30
-1E-16
41
1
10
18.1833229892164
20
1.16869280333645
30
-1E-16
0
SPLINE
5
D4
100
AcDbEntity
8
1
62
256
6
ByLayer
370
18
48
1
60
0
100
AcDbSpline
70
4
71
3
72
8
73
4
40
0
40
0
40
0
40
0
40
1
40
1
40
1
40
1
41
1
10
29.390471257969
20
-1.60068087185741
30
0
41
1
10
29.3904794631086
20
-1.60069409122409
30
0
41
1
10
29.3904873373607
20
-1.600708319917
30
0
41
1
10
29.3904948731219
20
-1.60072356713684
30
0
0
SPLINE
5
D5
100
AcDbEntity
8
1
62
256
6
ByLayer
370
18
48
1
60
0
100
AcDbSpline
70
4
71
3
72
14
73
10
40
0
40
0
40
0
40
0
40
0.262926517816568
40
0.262926517816568
40
0.543261488066738
40
0.543261488066738
40
0.825593442432486
40
0.825593442432486
40
1
40
1
40
1
40
1
41
1
10
29.1975247179224
20
-0.129211575667767
30
0
41
1
10
29.1982365060854
20
-0.129491722167216
30
0
41
1
10
29.1989334419952
20
-0.130155200480516
30
0
41
1
10
29.2002153526287
20
-0.131997631777267
30
0
41
1
10
29.200814693105
20
-0.133239964778852
30
0
41
1
10
29.2018101949863
20
-0.136065347751071
30
0
41
1
10
29.2022201780216
20
-0.137694175924167
30
0
41
1
10
29.2026658154712
20
-0.140487319852895
30
0
41
1
10
29.2027871631362
20
-0.141612428867148
30
0
41
1
10
29.2028437479152
20
-0.142746254953892
30
0
0
SPLINE
5
D6
100
AcDbEntity
8
1
62
256
6
ByLayer
370
18
48
1
60
0
100
AcDbSpline
70
4
71
3
72
8
73
4
40
0
40
0
40
0
40
0
40
1
40
1
40
1
40
1
41
1
10
3.55136323273501
20
1.61872971167398
30
0
41
1
10
3.52611282131755
20
1.6228030534275
30
0
41
1
10
3.50833345011114
20
1.62973749066737
30
0
41
1
10
3.50347719738849
20
1.63642407748381
30
0
0
SPLINE
5
D7
100
AcDbEntity
8
1
62
256
6
ByLayer
370
18
48
1
60
0
100
AcDbSpline
70
4
71
3
72
8
73
4
40
0
40
0
40
0
40
0
40
1
40
1
40
1
40
1
41
1
10
29.390471257978
20
1.6006808718565
30
0
41
1
10
29.3904794631173
20
1.60069409122275
30
0
41
1
10
29.390487337361
20
1.60070831991754
30
0
41
1
10
29.390494873122
20
1.60072356713687
30
0
0
SPLINE
5
D8
100
AcDbEntity
8
1
62
256
6
ByLayer
370
18
48
1
60
0
100
AcDbSpline
70
4
71
3
72
12
73
8
40
0
40
0
40
0
40
0
40
0.25
40
0.25
40
0.5
40
0.5
40
1
40
1
40
1
40
1
41
1
10
29.4732865901963
20
0.266390496629896
30
0
41
1
10
29.4459037400887
20
0.271005247255033
30
0
41
1
10
29.4181510367625
20
0.270209642864103
30
0
41
1
10
29.3627452184983
20
0.259915823349559
30
0
41
1
10
29.3351038578613
20
0.251672054578876
30
0
41
1
10
29.2531306247518
20
0.217013430408827
30
0
41
1
10
29.2016161373801
20
0.180615431517396
30
0
41
1
10
29.1552265584597
20
0.130239140550259
30
0
0
SPLINE
5
D9
100
AcDbEntity
8
1
62
256
6
ByLayer
370
18
48
1
60
0
100
AcDbSpline
70
4
71
3
72
8
73
4
40
0
40
0
40
0
40
0
40
1
40
1
40
1
40
1
41
1
10
29.4258145900641
20
-1.59478175816849
30
0
41
1
10
29.4104751731537
20
-1.60650789304501
30
0
41
1
10
29.3991294533585
20
-1.60832848489483
30
0
41
1
10
29.3904948731218
20
-1.60072356713712
30
0
0
SPLINE
5
DA
100
AcDbEntity
8
1
62
256
6
ByLayer
370
18
48
1
60
0
100
AcDbSpline
70
4
71
3
72
22
73
18
40
0
40
0
40
0
40
0
40
0.142060488419302
40
0.142060488419302
40
0.285050407016084
40
0.285050407016084
40
0.428040325612867
40
0.428040325612867
40
0.571030244209649
40
0.571030244209649
40
0.714020162806432
40
0.714020162806432
40
0.785515122104825
40
0.785515122104825
40
0.857010081403218
40
0.857010081403218
40
1
40
1
40
1
40
1
41
1
10
9.20127496943491
20
1.26087221713198
30
-1E-16
41
1
10
9.3803621025169
20
1.33107608508655
30
-1E-16
41
1
10
9.55947623967523
20
1.39405824352121
30
0
41
1
10
9.92087649119551
20
1.50363321181328
30
0
41
1
10
10.104288175719
20
1.55016754545545
30
0
41
1
10
10.4678398335928
20
1.62347058591175
30
0
41
1
10
10.6483646198699
20
1.6503568304276
30
0
41
1
10
11.0089071281232
20
1.68415188888386
30
0
41
1
10
11.1890814402538
20
1.69107611144059
30
0
41
1
10
11.550131693091
20
1.68485929730292
30
0
41
1
10
11.731047375374
20
1.67166178850619
30
0
41
1
10
12.0045317685287
20
1.63653824132541
30
0
41
1
10
12.095976886484
20
1.62227475862733
30
0
41
1
10
12.2778996472838
20
1.5891253203196
30
0
41
1
10
12.3685634245332
20
1.57018297676396
30
0
41
1
10
12.6398708537683
20
1.506458122141
30
0
41
1
10
12.8198738270456
20
1.45478628291204
30
0
41
1
10
12.9999999999987
20
1.3948234977054
30
0
0
SPLINE
5
DB
100
AcDbEntity
8
1
62
256
6
ByLayer
370
18
48
1
60
0
100
AcDbSpline
70
4
71
3
72
12
73
8
40
0
40
0
40
0
40
0
40
0.25
40
0.25
40
0.5
40
0.5
40
1
40
1
40
1
40
1
41
1
10
3.50354825113129
20
-0.990405056296993
30
1E-16
41
1
10
3.5063191877918
20
-0.977624611539738
30
1E-16
41
1
10
3.51295112253962
20
-0.965230548121269
30
1E-16
41
1
10
3.53277846420292
20
-0.944062748181722
30
1E-16
41
1
10
3.54578005919467
20
-0.935513567111485
30
1E-16
41
1
10
3.58957127497939
20
-0.918795744936716
30
1E-16
41
1
10
3.62534291226675
20
-0.920278663447505
30
1E-16
41
1
10
3.65329491539586
20
-0.934169270983688
30
1E-16
0
SPLINE
5
DC
100
AcDbEntity
8
1
62
256
6
ByLayer
370
18
48
1
60
0
100
AcDbSpline
70
4
71
3
72
8
73
4
40
0
40
0
40
0
40
0
40
1
40
1
40
1
40
1
41
1
10
29.5661179441593
20
0.471598302924349
30
0
41
1
10
29.6625963110903
20
0.48845592553667
30
0
41
1
10
29.7584623798129
20
0.510606962309708
30
0
41
1
10
29.8506889803336
20
0.544354390771389
30
0
0
SPLINE
5
DD
100
AcDbEntity
8
1
62
256
6
ByLayer
370
18
48
1
60
0
100
AcDbSpline
70
4
71
3
72
20
73
16
40
0
40
0
40
0
40
0
40
0.125
40
0.125
40
0.25
40
0.25
40
0.375
40
0.375
40
0.5
40
0.5
40
0.624999999999999
40
0.624999999999999
40
0.749999999999999
40
0.749999999999999
40
1
40
1
40
1
40
1
41
1
10
29.202843747915
20
-0.1427462549496
30
0
41
1
10
29.2074111175483
20
-0.234265615930838
30
0
41
1
10
29.2149451320117
20
-0.323565153648929
30
0
41
1
10
29.2330032819349
20
-0.498195234083568
30
0
41
1
10
29.2435735725847
20
-0.583759566237603
30
0
41
1
10
29.2654703083868
20
-0.749962756566532
30
0
41
1
10
29.2765359566538
20
-0.828772617979467
30
1E-16
41
1
10
29.2974380266012
20
-0.978252449776875
30
1E-16
41
1
10
29.3073109989029
20
-1.04916177081668
30
1E-16
41
1
10
29.3250070136336
20
-1.18142578282811
30
1E-16
41
1
10
29.3326474684147
20
-1.24141118741156
30
1E-16
41
1
10
29.3459345978112
20
-1.34945812617866
30
0
41
1
10
29.3515924037699
20
-1.39764616246256
30
0
41
1
10
29.3672889253383
20
-1.52249865091611
30
0
41
1
10
29.3753411402338
20
-1.57630461713487
30
0
41
1
10
29.3904712579689
20
-1.60068087185741
30
0
0
SPLINE
5
DE
100
AcDbEntity
8
1
62
256
6
ByLayer
370
18
48
1
60
0
100
AcDbSpline
70
4
71
3
72
14
73
10
40
0
40
0
40
0
40
0
40
0.499999999999993
40
0.499999999999993
40
0.74999999999999
40
0.74999999999999
40
0.874999999999995
40
0.874999999999995
40
1
40
1
40
1
40
1
41
1
10
29.4258145900641
20
1.59478175816852
30
0
41
1
10
29.4896597436056
20
1.41558173920703
30
0
41
1
10
29.5536797633131
20
1.23378257619356
30
0
41
1
10
29.6524519497874
20
0.96376566358461
30
0
41
1
10
29.6873896061065
20
0.875078327329334
30
0
41
1
10
29.7454897288619
20
0.745108150699792
30
0
41
1
10
29.7656737845014
20
0.702662171274199
30
0
41
1
10
29.8071437331111
20
0.621290347622733
30
0
41
1
10
29.8285480778899
20
0.582114671691841
30
0
41
1
10
29.8506889803315
20
0.544354390770366
30
0
0
SPLINE
5
DF
100
AcDbEntity
8
1
62
256
6
ByLayer
370
18
48
1
60
0
100
AcDbSpline
70
4
71
3
72
61
73
57
40
0
40
0
40
0
40
0
40
0.0170648654756375
40
0.0170648654756375
40
0.0556991319545707
40
0.0556991319545707
40
0.0750162651940374
40
0.0750162651940374
40
0.0846748318137707
40
0.0895041151236373
40
0.0919187567785705
40
0.0931260776060372
40
0.0931260776060372
40
0.0937297380197704
40
0.0937297380197704
40
0.0943333984335038
40
0.0943333984335038
40
0.096748040088437
40
0.096748040088437
40
0.0991626817433702
40
0.0991626817433702
40
0.103991965053237
40
0.103991965053237
40
0.113650531672969
40
0.113650531672969
40
0.132967664912435
40
0.132967664912435
40
0.171601931391366
40
0.171601931391366
40
0.248870464349228
40
0.248870464349228
40
0.403407530264953
40
0.403407530264953
40
0.442041796743884
40
0.442041796743884
40
0.480676063222816
40
0.480676063222816
40
0.499993196462281
40
0.499993196462281
40
0.502407838117214
40
0.502407838117214
40
0.503615158944681
40
0.503615158944681
40
0.504218819358414
40
0.504218819358414
40
0.504822479772148
40
0.504822479772148
40
0.506029800599614
40
0.506029800599614
40
0.507237121427081
40
0.509651763082015
40
0.519310329701749
40
0.557944596180684
40
0.86701872801217
40
0.86701872801217
40
1
40
1
40
1
40
1
41
1
10
4.30734912262909
20
1.28172810979365
30
-1E-16
41
1
10
4.30599668050951
20
1.26135650753648
30
-1E-16
41
1
10
4.30271206103788
20
1.2406338467016
30
-1E-16
41
1
10
4.28754149843399
20
1.17063277886098
30
0
41
1
10
4.27075071809099
20
1.11785091616278
30
0
41
1
10
4.2354501661784
20
1.03415920752713
30
0
41
1
10
4.22257859902976
20
1.00520215672509
30
0
41
1
10
4.19963201268371
20
0.961434673977351
30
1E-16
41
1
10
4.18729571674527
20
0.93944206632824
30
1E-16
41
1
10
4.17160853471171
20
0.913557264680435
30
1E-16
41
1
10
4.16346501454098
20
0.900551062141659
30
-1E-16
41
1
10
4.15991337298289
20
0.894962917339313
30
-1E-16
41
1
10
4.15812749079697
20
0.892166430969354
30
-1E-16
41
1
10
4.15727380856319
20
0.891311907861365
30
-1E-16
41
1
10
4.15727556404124
20
0.888959966415712
30
-1E-16
41
1
10
4.15809279459344
20
0.88771049701495
30
-1E-16
41
1
10
4.16232006284415
20
0.882085910009636
30
-1E-16
41
1
10
4.1668996141409
20
0.878287668535023
30
-1E-16
41
1
10
4.17572969344351
20
0.870616554639241
30
-1E-16
41
1
10
4.18024696945102
20
0.866881477001442
30
-1E-16
41
1
10
4.19389965480391
20
0.855775099039647
30
-1E-16
41
1
10
4.20314861556733
20
0.848515145810012
30
-1E-16
41
1
10
4.23103875978305
20
0.826874660471475
30
-1E-16
41
1
10
4.24982940366704
20
0.812661835463359
30
0
41
1
10
4.30638169227686
20
0.770233127388337
30
0
41
1
10
4.34435669618705
20
0.742250191458481
30
0
41
1
10
4.45854466814279
20
0.658578848931455
30
0
41
1
10
4.5350618082505
20
0.603240025378085
30
0
41
1
10
4.76466105219123
20
0.437209167364671
30
0
41
1
10
4.91779848136594
20
0.326472340538828
30
0
41
1
10
5.37681152556843
20
-0.006715436781235
30
0
41
1
10
5.68235774279066
20
-0.229987614427529
30
0
41
1
10
6.06477971017205
20
-0.508827941537874
30
0
41
1
10
6.14129300379051
20
-0.564571445050575
30
0
41
1
10
6.2941126521041
20
-0.676376578644607
30
0
41
1
10
6.37045569529442
20
-0.732396253430011
30
0
41
1
10
6.48385631495228
20
-0.817940476452804
30
0
41
1
10
6.52183339360272
20
-0.846304096039148
30
0
41
1
10
6.56265786205756
20
-0.880530448971399
30
0
41
1
10
6.56715682678191
20
-0.884372962941768
30
0
41
1
10
6.57369708357569
20
-0.890359098890627
30
0
41
1
10
6.57585232111921
20
-0.892383543856397
30
0
41
1
10
6.57888988052775
20
-0.895621118066714
30
0
41
1
10
6.57988142550431
20
-0.89672660072938
30
0
41
1
10
6.58151383593602
20
-0.899150360145796
30
0
41
1
10
6.58188041420962
20
-0.900941305899352
30
0
41
1
10
6.57799944498225
20
-0.901913160523151
30
0
41
1
10
6.57505558487807
20
-0.901110206558826
30
0
41
1
10
6.56947862261924
20
-0.900633617589051
30
0
41
1
10
6.56111343027032
20
-0.89991787471925
30
0
41
1
10
6.5304438280898
20
-0.897284028866665
30
0
41
1
10
6.41337676711612
20
-0.887107107080709
30
0
41
1
10
5.58932941266383
20
-0.811989409517281
30
0
41
1
10
4.79462016633627
20
-0.714824765387249
30
0
41
1
10
3.79369658889539
20
-0.563053813208313
30
0
41
1
10
3.49374920106669
20
-0.513750152797485
30
0
41
1
10
3.19488292960375
20
-0.46082839626132
30
0
0
SPLINE
5
E0
100
AcDbEntity
8
1
62
256
6
ByLayer
370
18
48
1
60
0
100
AcDbSpline
70
4
71
3
72
24
73
20
40
0
40
0
40
0
40
0
40
0.0838715096964153
40
0.0838715096964153
40
0.167743019392831
40
0.167743019392831
40
0.335486038785663
40
0.335486038785663
40
0.503229058178494
40
0.503229058178494
40
0.58710056787491
40
0.58710056787491
40
0.670972077571322
40
0.670972077571322
40
0.754843587267734
40
0.754843587267734
40
0.838715096964147
40
0.838715096964147
40
1
40
1
40
1
40
1
41
1
10
29.2028437479157
20
-0.142746254948491
30
0
41
1
10
29.0690172071148
20
-0.0681323680652497
30
0
41
1
10
28.9354980005086
20
0.0072279244685944
30
0
41
1
10
28.6681105263758
20
0.157687216081598
30
0
41
1
10
28.5338574370431
20
0.233063762793563
30
0
41
1
10
28.1331180095801
20
0.45495279459081
30
0
41
1
10
27.868991159914
20
0.596901953629896
30
0
41
1
10
27.3420927810416
20
0.861612648372216
30
-1E-16
41
1
10
27.0793142923997
20
0.9842659713361
30
-1E-16
41
1
10
26.6824516636061
20
1.14845353318549
30
-1E-16
41
1
10
26.549705522828
20
1.1999620286887
30
-1E-16
41
1
10
26.2827232946102
20
1.29531783108087
30
0
41
1
10
26.1482660853703
20
1.33917849514128
30
0
41
1
10
25.8818753849337
20
1.4171693561033
30
0
41
1
10
25.7493743036823
20
1.45153012360058
30
0
41
1
10
25.4853386252848
20
1.51003285578318
30
0
41
1
10
25.3538129074046
20
1.53414079199857
30
0
41
1
10
24.9691974878053
20
1.59122381281532
30
0
41
1
10
24.7159174143142
20
1.61193637465283
30
0
41
1
10
24.461020947917
20
1.61299185489099
30
0
0
SPLINE
5
E1
100
AcDbEntity
8
1
62
256
6
ByLayer
370
18
48
1
60
0
100
AcDbSpline
70
4
71
3
72
32
73
28
40
0
40
0
40
0
40
0
40
0.0269343646779551
40
0.0269343646779551
40
0.108056959376826
40
0.108056959376826
40
0.189179554075697
40
0.189179554075697
40
0.270302148774568
40
0.270302148774568
40
0.35142474347344
40
0.35142474347344
40
0.432547338172311
40
0.432547338172311
40
0.513669932871182
40
0.513669932871182
40
0.594792527570054
40
0.594792527570054
40
0.675915122268925
40
0.675915122268925
40
0.757037716967796
40
0.757037716967796
40
0.838160311666667
40
0.838160311666667
40
0.919282906365539
40
0.919282906365539
40
1
40
1
40
1
40
1
41
1
10
11.378239131955
20
-0.240488444231801
30
0
41
1
10
11.3341285356684
20
-0.216008557572877
30
0
41
1
10
11.2899849835711
20
-0.191420521154981
30
0
41
1
10
11.1126899509024
20
-0.0924798258049577
30
0
41
1
10
10.9790770864806
20
-0.0177466255089485
30
0
41
1
10
10.710472493254
20
0.132345471630146
30
0
41
1
10
10.5765148763442
20
0.207337269133888
30
0
41
1
10
10.310018844244
20
0.354413079357357
30
0
41
1
10
10.1770761251224
20
0.426600150057624
30
0
41
1
10
9.91170623020389
20
0.567699619128746
30
0
41
1
10
9.77938406695296
20
0.636636338142154
30
0
41
1
10
9.51433100135887
20
0.770002080269904
30
0
41
1
10
9.38154685053289
20
0.834428141024517
30
-1E-16
41
1
10
9.11528683024065
20
0.957913359714155
30
-1E-16
41
1
10
8.9818685798536
20
1.01689229475014
30
-1E-16
41
1
10
8.71342431217207
20
1.12845973479139
30
-1E-16
41
1
10
8.57914061498428
20
1.18075754745277
30
-1E-16
41
1
10
8.31236739636145
20
1.27661850627601
30
0
41
1
10
8.17970693839027
20
1.3200892480624
30
0
41
1
10
7.91443365481206
20
1.39859981215997
30
0
41
1
10
7.78179441270893
20
1.43370734679917
30
0
41
1
10
7.5165676484076
20
1.49394313700719
30
0
41
1
10
7.38394941712824
20
1.51914529700832
30
0
41
1
10
7.11764911501075
20
1.56035104696196
30
0
41
1
10
6.98398557724744
20
1.57630106992599
30
0
41
1
10
6.7160163786541
20
1.59708995929247
30
0
41
1
10
6.58276157628507
20
1.60194134807213
30
0
41
1
10
6.45007901128074
20
1.60195213281702
30
0
0
SPLINE
5
E2
100
AcDbEntity
8
1
62
256
6
ByLayer
370
18
48
1
60
0
100
AcDbSpline
70
4
71
3
72
20
73
16
40
0
40
0
40
0
40
0
40
0.283567245938214
40
0.283567245938214
40
0.425350868907324
40
0.425350868907324
40
0.567134491876434
40
0.567134491876434
40
0.708918114845543
40
0.708918114845543
40
0.850701737814653
40
0.850701737814653
40
0.992485360783763
40
0.992485360783763
40
1
40
1
40
1
40
1
41
1
10
3.65329491539583
20
-0.934169270983659
30
1E-16
41
1
10
3.91969780855666
20
-1.06655685044637
30
1E-16
41
1
10
4.18458173388964
20
-1.18354962994704
30
1E-16
41
1
10
4.58239434655349
20
-1.33425208787972
30
1E-16
41
1
10
4.71501577121904
20
-1.38041476040377
30
0
41
1
10
4.98044627963421
20
-1.46425671084586
30
0
41
1
10
5.11332889550502
20
-1.50183218946708
30
0
41
1
10
5.38072409562881
20
-1.56700722053074
30
0
41
1
10
5.51525817923672
20
-1.59463649825057
30
0
41
1
10
5.78196998111036
20
-1.63903479116073
30
0
41
1
10
5.91468959619294
20
-1.65590447958417
30
0
41
1
10
6.17987724971721
20
-1.67882337370938
30
0
41
1
10
6.31233337546911
20
-1.68490866058849
30
0
41
1
10
6.45176169400088
20
-1.68564741896489
30
0
41
1
10
6.4587794319184
20
-1.68566936591901
30
0
41
1
10
6.46579714233272
20
-1.68567607678057
30
0
0
SPLINE
5
E3
100
AcDbEntity
8
1
62
256
6
ByLayer
370
18
48
1
60
0
100
AcDbSpline
70
4
71
3
72
44
73
40
40
0
40
0
40
0
40
0
40
0.0150898195692023
40
0.0150898195692023
40
0.0557651069706683
40
0.0557651069706683
40
0.0964403943721341
40
0.0964403943721341
40
0.177790969175066
40
0.177790969175066
40
0.218466256576531
40
0.218466256576531
40
0.259141543977997
40
0.259141543977997
40
0.340492118780925
40
0.340492118780925
40
0.421842693583854
40
0.421842693583854
40
0.503193268386783
40
0.503193268386783
40
0.584543843189711
40
0.584543843189711
40
0.625219130591176
40
0.625219130591176
40
0.66589441799264
40
0.66589441799264
40
0.747244992795569
40
0.747244992795569
40
0.787920280197033
40
0.787920280197033
40
0.828595567598498
40
0.828595567598498
40
0.869270854999962
40
0.869270854999962
40
0.909946142401426
40
0.909946142401426
40
0.991296717204355
40
0.991296717204355
40
1
40
1
40
1
40
1
41
1
10
14.6688528840953
20
1.62551959384226
30
0
41
1
10
14.7182531884096
20
1.63357255080453
30
0
41
1
10
14.7677350315985
20
1.64090838720307
30
0
41
1
10
14.9509670566678
20
1.6653093740716
30
0
41
1
10
15.0853730861303
20
1.67781458295391
30
0
41
1
10
15.35170562265
20
1.69167760341742
30
0
41
1
10
15.4843340802003
20
1.69308306956751
30
0
41
1
10
15.8817675076413
20
1.68115458916216
30
0
41
1
10
16.1452702769282
20
1.65147703164996
30
0
41
1
10
16.5435497137448
20
1.57585551409426
30
0
41
1
10
16.6766421625272
20
1.54540386177535
30
0
41
1
10
16.9441245759171
20
1.4740518836947
30
0
41
1
10
17.0780988222204
20
1.43339856856778
30
0
41
1
10
17.4773308205827
20
1.29902407944817
30
-1E-16
41
1
10
17.7410601233007
20
1.19179553103092
30
-1E-16
41
1
10
18.2702443088053
20
0.950278201017539
30
-1E-16
41
1
10
18.5350530305366
20
0.815143550890241
30
0
41
1
10
19.0714531306185
20
0.52434160392437
30
0
41
1
10
19.3362421102324
20
0.37147616471492
30
0
41
1
10
19.8653699477244
20
0.0618490552680271
30
0
41
1
10
20.1289975888517
20
-0.0961494463302301
30
0
41
1
10
20.5281228183082
20
-0.329169782590469
30
0
41
1
10
20.6619692965404
20
-0.406843407754934
30
0
41
1
10
20.9292917820869
20
-0.558914997800002
30
0
41
1
10
21.0624549080095
20
-0.632549483948281
30
0
41
1
10
21.4606331118694
20
-0.846310966086293
30
1E-16
41
1
10
21.7239481153206
20
-0.979766388511933
30
1E-16
41
1
10
22.121181289
20
-1.1585100037679
30
1E-16
41
1
10
22.2536512732837
20
-1.21495356717287
30
1E-16
41
1
10
22.5196885705394
20
-1.3201265330207
30
1E-16
41
1
10
22.6541291370097
20
-1.3686211568976
30
1E-16
41
1
10
22.9213068058618
20
-1.45599251898423
30
0
41
1
10
23.0540632712966
20
-1.4950450449067
30
0
41
1
10
23.3188354667568
20
-1.56317607985685
30
0
41
1
10
23.4511546275256
20
-1.59206742226496
30
0
41
1
10
23.847712320562
20
-1.66361117698725
30
0
41
1
10
24.1110637606482
20
-1.69096467179989
30
0
41
1
10
24.4065938992146
20
-1.69659025576513
30
0
41
1
10
24.4352013696968
20
-1.69688091465389
30
0
41
1
10
24.4638335898517
20
-1.6969194775566
30
0
0
SPLINE
5
E4
100
AcDbEntity
8
1
62
256
6
ByLayer
370
18
48
1
60
0
100
AcDbSpline
70
4
71
3
72
30
73
26
40
0
40
0
40
0
40
0
40
0.155814798700644
40
0.155814798700644
40
0.233722198050966
40
0.233722198050966
40
0.311629597401288
40
0.311629597401288
40
0.389536996751611
40
0.389536996751611
40
0.467444396101933
40
0.467444396101933
40
0.545351795452255
40
0.545351795452255
40
0.623259194802577
40
0.623259194802577
40
0.701166594152899
40
0.701166594152899
40
0.779073993503221
40
0.779073993503221
40
0.856981392853543
40
0.856981392853543
40
0.934888792203866
40
0.934888792203866
40
1
40
1
40
1
40
1
41
1
10
4.30734912270191
20
1.28172811089104
30
-1E-16
41
1
10
4.67358623354534
20
1.14281879549816
30
-1E-16
41
1
10
5.03319537054927
20
0.973970213833809
30
-1E-16
41
1
10
5.57416255858129
20
0.692364726846989
30
0
41
1
10
5.75489883780796
20
0.594064565385793
30
0
41
1
10
6.11800921407468
20
0.389717033025448
30
0
41
1
10
6.30130540117005
20
0.283322892792427
30
0
41
1
10
6.66454009663789
20
0.0705273816047907
30
0
41
1
10
6.84530865177334
20
-0.0359232198475468
30
0
41
1
10
7.20597606233696
20
-0.247546476997968
30
0
41
1
10
7.38596592200923
20
-0.352553234753458
30
0
41
1
10
7.74719703739098
20
-0.557629394666208
30
0
41
1
10
7.92859933416668
20
-0.65743649868827
30
0
41
1
10
8.2938771077053
20
-0.850006416798095
30
1E-16
41
1
10
8.47565268283586
20
-0.941429715654579
30
1E-16
41
1
10
8.83719798527855
20
-1.11078767181053
30
1E-16
41
1
10
9.01750144601755
20
-1.1887351234036
30
1E-16
41
1
10
9.37801843813213
20
-1.33025160563372
30
1E-16
41
1
10
9.55829786458244
20
-1.39370096537081
30
0
41
1
10
9.92087649119617
20
-1.50363321181348
30
0
41
1
10
10.1042881757197
20
-1.55016754545565
30
0
41
1
10
10.4678398335932
20
-1.6234705859118
30
0
41
1
10
10.6483646198702
20
-1.65035683042763
30
0
41
1
10
10.9792978032228
20
-1.68137649113476
30
0
41
1
10
11.1298920203859
20
-1.68853246555463
30
0
41
1
10
11.280679905768
20
-1.68868765280283
30
0
0
SPLINE
5
E5
100
AcDbEntity
8
1
62
256
6
ByLayer
370
18
48
1
60
0
100
AcDbSpline
70
4
71
3
72
8
73
4
40
0
40
0
40
0
40
0
40
1
40
1
40
1
40
1
41
1
10
29.1616686599879
20
-0.114117277881633
30
0
41
1
10
29.1736736632574
20
-0.119498305392113
30
0
41
1
10
29.1856230862144
20
-0.124527316175517
30
0
41
1
10
29.1975247179188
20
-0.129211575663618
30
0
0
SPLINE
5
E6
100
AcDbEntity
8
1
62
256
6
ByLayer
370
18
48
1
60
0
100
AcDbSpline
70
4
71
3
72
54
73
50
40
0
40
0
40
0
40
0
40
0.00495279420176
40
0.00495279420176
40
0.0408414394043461
40
0.0408414394043461
40
0.0767300846069321
40
0.0767300846069321
40
0.112618729809518
40
0.112618729809518
40
0.18439602021469
40
0.18439602021469
40
0.256173310619862
40
0.256173310619862
40
0.292061955822449
40
0.292061955822449
40
0.327950601025036
40
0.327950601025036
40
0.399727891430208
40
0.399727891430208
40
0.435616536632794
40
0.435616536632794
40
0.47150518183538
40
0.47150518183538
40
0.543282472240554
40
0.543282472240554
40
0.57917111744314
40
0.57917111744314
40
0.615059762645727
40
0.615059762645727
40
0.6868370530509
40
0.6868370530509
40
0.722725698253486
40
0.722725698253486
40
0.758614343456072
40
0.758614343456072
40
0.794502988658659
40
0.794502988658659
40
0.830391633861245
40
0.830391633861245
40
0.866280279063831
40
0.866280279063831
40
0.902168924266417
40
0.902168924266417
40
0.938057569469003
40
0.938057569469003
40
0.973946214671589
40
0.973946214671589
40
1
40
1
40
1
40
1
41
1
10
27.1854239075247
20
-1.17621467072726
30
1E-16
41
1
10
27.1668536329776
20
-1.18414746433399
30
1E-16
41
1
10
27.1482875214565
20
-1.19200626993316
30
1E-16
41
1
10
26.9952174388724
20
-1.25619439101018
30
1E-16
41
1
10
26.8611271112102
20
-1.3089202582857
30
1E-16
41
1
10
26.5920260621493
20
-1.40497164658211
30
0
41
1
10
26.4570592877548
20
-1.44838774904628
30
0
41
1
10
26.1860341915038
20
-1.52568448400663
30
0
41
1
10
26.0493354763526
20
-1.55960359177726
30
0
41
1
10
25.6421891296036
20
-1.64514162601444
30
0
41
1
10
25.3731539097901
20
-1.67975292985369
30
0
41
1
10
24.8350841010307
20
-1.70442099766967
30
0
41
1
10
24.5667088198838
20
-1.69428620007031
30
0
41
1
10
24.1589972477023
20
-1.64509262446109
30
0
41
1
10
24.0222571323348
20
-1.62294964934549
30
0
41
1
10
23.7511427755669
20
-1.56826208555157
30
0
41
1
10
23.6165014801952
20
-1.53546607689188
30
0
41
1
10
23.2127687137467
20
-1.42268701511082
30
0
41
1
10
22.9438387480497
20
-1.32869510382179
30
1E-16
41
1
10
22.5390811268795
20
-1.1609517949
30
1E-16
41
1
10
22.4038158491121
20
-1.10064486670578
30
1E-16
41
1
10
22.1312642340986
20
-0.972815139620621
30
1E-16
41
1
10
21.9951378134568
20
-0.905704308780855
30
1E-16
41
1
10
21.5892730906735
20
-0.696867583195768
30
0
41
1
10
21.3213268060336
20
-0.546517375067367
30
0
41
1
10
20.9172803794298
20
-0.314202167322804
30
0
41
1
10
20.7823901526111
20
-0.235403426928144
30
0
41
1
10
20.5116009187435
20
-0.0760454109499449
30
0
41
1
10
20.375502946693
20
0.0052336054512239
30
0
41
1
10
19.967344255684
20
0.247185860881188
30
0
41
1
10
19.6975039223738
20
0.404159580732227
30
0
41
1
10
19.2940842220149
20
0.63006706640769
30
0
41
1
10
19.1598516098954
20
0.703772578728177
30
0
41
1
10
18.8903437431368
20
0.84556755404131
30
-1E-16
41
1
10
18.7551436947267
20
0.913791519126249
30
-1E-16
41
1
10
18.4836047191777
20
1.04446631941693
30
-1E-16
41
1
10
18.3467621981477
20
1.10703129535767
30
-1E-16
41
1
10
18.0755463606067
20
1.22382893376604
30
-1E-16
41
1
10
17.940512907211
20
1.27786276511148
30
-1E-16
41
1
10
17.6707552328465
20
1.37656653295403
30
0
41
1
10
17.5361311556735
20
1.42135492263011
30
0
41
1
10
17.2668959543623
20
1.50137857548504
30
0
41
1
10
17.1324705676373
20
1.53674867813501
30
0
41
1
10
16.8627267573718
20
1.59703063810628
30
0
41
1
10
16.7273155317974
20
1.62190863378615
30
0
41
1
10
16.4549127577342
20
1.66075215517168
30
0
41
1
10
16.3182779750765
20
1.67463581766731
30
0
41
1
10
16.0845173429929
20
1.68870113572808
30
0
41
1
10
15.9866268762611
20
1.69162122443123
30
0
41
1
10
15.8888405698806
20
1.691560990124
30
0
0
SPLINE
5
E7
100
AcDbEntity
8
1
62
256
6
ByLayer
370
18
48
1
60
0
100
AcDbSpline
70
4
71
3
72
32
73
28
40
0
40
0
40
0
40
0
40
0.0334834564470585
40
0.0334834564470585
40
0.102520352415125
40
0.102520352415125
40
0.171557248383191
40
0.171557248383191
40
0.309631040319327
40
0.309631040319327
40
0.378667936287394
40
0.378667936287394
40
0.44770483225546
40
0.44770483225546
40
0.516741728223527
40
0.516741728223527
40
0.585778624191593
40
0.585778624191593
40
0.654815520159659
40
0.654815520159659
40
0.723852416127726
40
0.723852416127726
40
0.861926208063862
40
0.861926208063862
40
0.930963104031931
40
0.930963104031931
40
1
40
1
40
1
40
1
41
1
10
9.07977149734813
20
-1.22044320474606
30
1E-16
41
1
10
9.01392818664982
20
-1.24717045782171
30
1E-16
41
1
10
8.94792361818213
20
-1.272963595101
30
1E-16
41
1
10
8.74528203953074
20
-1.34899491996231
30
1E-16
41
1
10
8.60881740164496
20
-1.39568792605291
30
0
41
1
10
8.33819193637652
20
-1.47931686585775
30
0
41
1
10
8.20346880665494
20
-1.516154483821
30
0
41
1
10
7.79917166699408
20
-1.61060692902751
30
0
41
1
10
7.52994759178674
20
-1.652744106836
30
0
41
1
10
7.12405432001131
20
-1.6827428555346
30
0
41
1
10
6.98777965207364
20
-1.68709295432646
30
0
41
1
10
6.7148158987797
20
-1.68428678111471
30
0
41
1
10
6.57909403751512
20
-1.67717482550322
30
0
41
1
10
6.30855344421997
20
-1.65191087634076
30
0
41
1
10
6.17400896654504
20
-1.63364311085766
30
0
41
1
10
5.90477239581412
20
-1.58648222873725
30
0
41
1
10
5.77005444255377
20
-1.55765073723941
30
0
41
1
10
5.50007333279407
20
-1.48979133475942
30
0
41
1
10
5.36476209344465
20
-1.45080928597889
30
0
41
1
10
5.0933715601945
20
-1.36252197276772
30
0
41
1
10
4.95670638608931
20
-1.31301496908512
30
1E-16
41
1
10
4.54847852352026
20
-1.15327227447403
30
1E-16
41
1
10
4.27815118050185
20
-1.0316670744906
30
1E-16
41
1
10
3.87393481909118
20
-0.828709535894887
30
1E-16
41
1
10
3.73928490080573
20
-0.757746378847031
30
0
41
1
10
3.46835565503929
20
-0.611997707062841
30
0
41
1
10
3.33217282665078
20
-0.537080348699021
30
0
41
1
10
3.19488292959824
20
-0.460828396260354
30
0
0
SPLINE
5
E8
100
AcDbEntity
8
1
62
256
6
ByLayer
370
18
48
1
60
0
100
AcDbSpline
70
4
71
3
72
8
73
4
40
0
40
0
40
0
40
0
40
1
40
1
40
1
40
1
41
1
10
29.4201296519398
20
1.59864784565954
30
0
41
1
10
29.4220245646343
20
1.59735956400098
30
0
41
1
10
29.4239195436042
20
1.59607086809555
30
0
41
1
10
29.4258145900641
20
1.59478175816852
30
0
0
SPLINE
5
E9
100
AcDbEntity
8
1
62
256
6
ByLayer
370
18
48
1
60
0
100
AcDbSpline
70
4
71
3
72
14
73
10
40
0
40
0
40
0
40
0
40
0.5
40
0.5
40
0.75
40
0.75
40
0.875
40
0.875
40
1
40
1
40
1
40
1
41
1
10
29.4258145900641
20
-1.59478175816849
30
0
41
1
10
29.4896597436056
20
-1.415581739207
30
0
41
1
10
29.5536797633131
20
-1.23378257619359
30
0
41
1
10
29.6524519497873
20
-0.963765663584581
30
0
41
1
10
29.6873896061065
20
-0.875078327329334
30
0
41
1
10
29.7454897288619
20
-0.745108150699821
30
0
41
1
10
29.7656737845014
20
-0.702662171274199
30
0
41
1
10
29.8071437331111
20
-0.621290347622733
30
0
41
1
10
29.8285480778899
20
-0.582114671691841
30
0
41
1
10
29.8506889803315
20
-0.544354390770366
30
0
0
SPLINE
5
EA
100
AcDbEntity
8
1
62
256
6
ByLayer
370
18
48
1
60
0
100
AcDbSpline
70
4
71
3
72
16
73
12
40
0
40
0
40
0
40
0
40
0.230955498222814
40
0.230955498222814
40
0.461910996445629
40
0.461910996445629
40
0.692866494668444
40
0.692866494668444
40
0.923821992891258
40
0.923821992891258
40
1
40
1
40
1
40
1
41
1
10
29.4201296520669
20
1.59864784712792
30
0
41
1
10
29.2487557664661
20
1.60160593464875
30
0
41
1
10
29.0772361717324
20
1.59595551582024
30
0
41
1
10
28.7342493963299
20
1.56736366402114
30
0
41
1
10
28.562793068116
20
1.54446679037173
30
0
41
1
10
28.2199415488571
20
1.48271392601603
30
0
41
1
10
28.0484621295539
20
1.44352445312097
30
0
41
1
10
27.7055298568727
20
1.35011341998211
30
0
41
1
10
27.533909109839
20
1.29539370922109
30
0
41
1
10
27.3060168435938
20
1.21449037970399
30
0
41
1
10
27.249452754425
20
1.19370241221972
30
0
41
1
10
27.1929044842261
20
1.17225292830827
30
-1E-16
0
SPLINE
5
EB
100
AcDbEntity
8
1
62
256
6
ByLayer
370
18
48
1
60
0
100
AcDbSpline
70
4
71
3
72
18
73
14
40
0
40
0
40
0
40
0
40
0.142662620886599
40
0.142662620886599
40
0.314130096709279
40
0.314130096709279
40
0.48559757253196
40
0.48559757253196
40
0.65706504835464
40
0.65706504835464
40
0.82853252417732
40
0.82853252417732
40
1
40
1
40
1
40
1
41
1
10
15.9990606711536
20
-0.091510272840793
30
0
41
1
10
15.856403803856
20
-0.0119440097693086
30
0
41
1
10
15.7137351903641
20
0.067994230235854
30
0
41
1
10
15.3996634635384
20
0.242321214382173
30
0
41
1
10
15.2283935279822
20
0.336778513875515
30
0
41
1
10
14.8855502159573
20
0.521370905843384
30
0
41
1
10
14.7141432861168
20
0.611493801213499
30
0
41
1
10
14.3712036327701
20
0.783477029283262
30
0
41
1
10
14.1999392361985
20
0.865543707739221
30
-1E-16
41
1
10
13.857075436504
20
1.02041647507613
30
-1E-16
41
1
10
13.6856424766889
20
1.0929672455751
30
-1E-16
41
1
10
13.342690343055
20
1.22484458780414
30
-1E-16
41
1
10
13.1713352455307
20
1.28412779625879
30
0
41
1
10
13
20
1.33673940361689
30
0
0
SPLINE
5
EC
100
AcDbEntity
8
1
62
256
6
ByLayer
370
18
48
1
60
0
100
AcDbSpline
70
4
71
3
72
16
73
12
40
0
40
0
40
0
40
0
40
0.499999999999924
40
0.499999999999924
40
0.749999999999811
40
0.749999999999811
40
0.874999999999754
40
0.937499999999801
40
0.968749999999901
40
0.968749999999901
40
1
40
1
40
1
40
1
41
1
10
29.2690170164932
20
1.69924743750761
30
0
41
1
10
29.2940841715496
20
1.68303825424996
30
0
41
1
10
29.319210669533
20
1.66654017597079
30
0
41
1
10
29.3570045406392
20
1.64137251357349
30
0
41
1
10
29.3696191546891
20
1.63291366651362
30
0
41
1
10
29.3885714907269
20
1.62012015525778
30
0
41
1
10
29.3980558282636
20
1.61369670082215
30
0
41
1
10
29.4091383098047
20
1.60615475767659
30
0
41
1
10
29.4138922414039
20
1.60291197784278
30
0
41
1
10
29.4170625272749
20
1.60074777304195
30
0
41
1
10
29.4188447097873
20
1.59953684832732
30
0
41
1
10
29.4201296513594
20
1.59864784603442
30
0
0
SPLINE
5
ED
100
AcDbEntity
8
1
62
256
6
ByLayer
370
18
48
1
60
0
100
AcDbSpline
70
4
71
3
72
8
73
4
40
0
40
0
40
0
40
0
40
1
40
1
40
1
40
1
41
1
10
3.50327170177326
20
-0.992956244216941
30
1E-16
41
1
10
3.50327172537234
20
-0.992103140915248
30
1E-16
41
1
10
3.50336583359353
20
-0.991246424238454
30
1E-16
41
1
10
3.50354825113072
20
-0.990405056299636
30
1E-16
0
SPLINE
5
EE
100
AcDbEntity
8
1
62
256
6
ByLayer
370
18
48
1
60
0
100
AcDbSpline
70
4
71
3
72
10
73
6
40
0
40
0
40
0
40
0
40
0.616448032183552
40
0.616448032183552
40
1
40
1
40
1
40
1
41
1
10
3.50321417050927
20
1.63714655571442
30
0
41
1
10
3.50321762300621
20
1.6565709513994
30
0
41
1
10
3.50322079877606
20
1.6699899981505
30
0
41
1
10
3.50322555364599
20
1.68177263977779
30
0
41
1
10
3.50322729045956
20
1.68396177822095
30
0
41
1
10
3.50322896391304
20
1.68382436761797
30
0
0
SPLINE
5
EF
100
AcDbEntity
8
1
62
256
6
ByLayer
370
18
48
1
60
0
100
AcDbSpline
70
4
71
3
72
8
73
4
40
0
40
0
40
0
40
0
40
1
40
1
40
1
40
1
41
1
10
29.997525593892
20
0.120684502900502
30
0
41
1
10
30.0008331388759
20
0.0400248606054276
30
0
41
1
10
30.0008093373142
20
-0.0406052987989938
30
0
41
1
10
29.9975255938924
20
-0.120684502890725
30
0
0
SPLINE
5
F0
100
AcDbEntity
8
1
62
256
6
ByLayer
370
18
48
1
60
0
100
AcDbSpline
70
4
71
3
72
32
73
28
40
0
40
0
40
0
40
0
40
0.0692097305054398
40
0.0692097305054398
40
0.13841946101088
40
0.13841946101088
40
0.276838922021759
40
0.276838922021759
40
0.31144378727448
40
0.31144378727448
40
0.346048652527201
40
0.346048652527201
40
0.415258383032643
40
0.415258383032643
40
0.553677844043527
40
0.553677844043527
40
0.622887574548967
40
0.622887574548967
40
0.692097305054408
40
0.692097305054408
40
0.761307035559849
40
0.761307035559849
40
0.83051676606529
40
0.83051676606529
40
0.968936227076174
40
0.968936227076174
40
1
40
1
40
1
40
1
41
1
10
13
20
1.41673370936169
30
0
41
1
10
13.1709473585108
20
1.3618456155211
30
-1E-16
41
1
10
13.341553180722
20
1.29952308318514
30
-1E-16
41
1
10
13.6834514929288
20
1.16147522324934
30
-1E-16
41
1
10
13.853456820539
20
1.0862486014797
30
-1E-16
41
1
10
14.361002876531
20
0.845872998819772
30
-1E-16
41
1
10
14.6967787630134
20
0.665673604094337
30
0
41
1
10
15.1200130146953
20
0.425813466680239
30
0
41
1
10
15.2048402767987
20
0.377118598856782
30
0
41
1
10
15.3750353694301
20
0.278561483638981
30
0
41
1
10
15.4606165842837
20
0.228574088069138
30
0
41
1
10
15.7163712935206
20
0.0784824237323107
30
0
41
1
10
15.8857184568733
20
-0.0218497138450857
30
0
41
1
10
16.3923428531687
20
-0.320188781004106
30
0
41
1
10
16.7282436182964
20
-0.515470573222672
30
0
41
1
10
17.2372967989988
20
-0.789461950419167
30
0
41
1
10
17.4084418655563
20
-0.877912220769673
30
1E-16
41
1
10
17.7494089756356
20
-1.04387203135866
30
1E-16
41
1
10
17.9195528123748
20
-1.12157880479168
30
1E-16
41
1
10
18.2605087328562
20
-1.26467594563533
30
1E-16
41
1
10
18.4316071441537
20
-1.33011670387214
30
1E-16
41
1
10
18.7708406306908
20
-1.44523659667936
30
0
41
1
10
18.939587720858
20
-1.49519138472104
30
0
41
1
10
19.4453011718854
20
-1.62094159510588
30
0
41
1
10
19.7816068903091
20
-1.67272523989189
30
0
41
1
10
20.1990334591011
20
-1.69252471831726
30
0
41
1
10
20.2756158116902
20
-1.69433990679164
30
0
41
1
10
20.3521875486569
20
-1.69434496612453
30
0
0
SPLINE
5
F1
100
AcDbEntity
8
1
62
256
6
ByLayer
370
18
48
1
60
0
100
AcDbSpline
70
4
71
3
72
8
73
4
40
0
40
0
40
0
40
0
40
1
40
1
40
1
40
1
41
1
10
28.9306488887726
20
1.68151197566638
30
0
41
1
10
29.0435607950478
20
1.69136069253344
30
0
41
1
10
29.1563610564418
20
1.69728450887183
30
0
41
1
10
29.2690170164963
20
1.69924743751332
30
0
0
SPLINE
5
F2
100
AcDbEntity
8
1
62
256
6
ByLayer
370
18
48
1
60
0
100
AcDbSpline
70
4
71
3
72
38
73
34
40
0
40
0
40
0
40
0
40
0.0328606531781664
40
0.0328606531781664
40
0.114807743800483
40
0.114807743800483
40
0.155781289111642
40
0.155781289111642
40
0.1967548344228
40
0.1967548344228
40
0.360649015667435
40
0.360649015667435
40
0.442596106289753
40
0.442596106289753
40
0.524543196912072
40
0.524543196912072
40
0.565516742223232
40
0.565516742223232
40
0.606490287534392
40
0.606490287534392
40
0.688437378156713
40
0.688437378156713
40
0.729410923467875
40
0.729410923467875
40
0.770384468779036
40
0.770384468779036
40
0.852331559401358
40
0.852331559401358
40
0.934278650023679
40
0.934278650023679
40
0.97525219533484
40
0.97525219533484
40
1
40
1
40
1
40
1
41
1
10
21.5573926692568
20
-1.6286209482077
30
0
41
1
10
21.4497763195582
20
-1.64621152363171
30
0
41
1
10
21.3425414468313
20
-1.66029844987332
30
0
41
1
10
20.9685938545754
20
-1.69721582339946
30
0
41
1
10
20.7027996452657
20
-1.70166971301558
30
0
41
1
10
20.3020941617204
20
-1.67526016601136
30
0
41
1
10
20.1681468672846
20
-1.66094213561465
30
0
41
1
10
19.8988214352432
20
-1.62124631801029
30
0
41
1
10
19.7635462826171
20
-1.59582069752514
30
0
41
1
10
19.092885205356
20
-1.44379311036229
30
0
41
1
10
18.5651028030172
20
-1.24215512861929
30
1E-16
41
1
10
17.7549907855281
20
-0.852005416932087
30
1E-16
41
1
10
17.4873152857228
20
-0.709961036124525
30
0
41
1
10
16.9540509523952
20
-0.412712967594473
30
0
41
1
10
16.6880747887717
20
-0.257103014339947
30
0
41
1
10
16.2859671052009
20
-0.020072321628021
30
0
41
1
10
16.1510676493538
20
0.0598068482267706
30
0
41
1
10
15.881205215667
20
0.218637801032372
30
0
41
1
10
15.7470138556568
20
0.297098564239207
30
0
41
1
10
15.345678605264
20
0.528075174486162
30
0
41
1
10
15.0798076384451
20
0.676236518647329
30
0
41
1
10
14.6794159474916
20
0.883199704504818
30
-1E-16
41
1
10
14.5457189145155
20
0.949688625897267
30
-1E-16
41
1
10
14.2771284932925
20
1.07650893426342
30
-1E-16
41
1
10
14.141685662003
20
1.13703372839524
30
-1E-16
41
1
10
13.7377514742082
20
1.30565420036333
30
-1E-16
41
1
10
13.4712151639736
20
1.4011256688477
30
0
41
1
10
12.9379758371094
20
1.55347172084368
30
0
41
1
10
12.6716126653872
20
1.61057678817795
30
0
41
1
10
12.2676338719348
20
1.66383900408132
30
0
41
1
10
12.1322112852323
20
1.67624119421066
30
0
41
1
10
11.9167142341585
20
1.68698701016999
30
0
41
1
10
11.8357655948641
20
1.68899149814553
30
0
41
1
10
11.754949200735
20
1.68898226637793
30
0
0
SPLINE
5
F3
100
AcDbEntity
8
1
62
256
6
ByLayer
370
18
48
1
60
0
100
AcDbSpline
70
4
71
3
72
8
73
4
40
0
40
0
40
0
40
0
40
1
40
1
40
1
40
1
41
1
10
3.62880601022062
20
-1.60565159745158
30
0
41
1
10
3.60300318725595
20
-1.61020356044344
30
0
41
1
10
3.57718961960927
20
-1.61456345480559
30
0
41
1
10
3.55136323273498
20
-1.61872971167398
30
0
0
SPLINE
5
F4
100
AcDbEntity
8
1
62
256
6
ByLayer
370
18
48
1
60
0
100
AcDbSpline
70
4
71
3
72
8
73
4
40
0
40
0
40
0
40
0
40
1
40
1
40
1
40
1
41
1
10
29.2627907441933
20
1.67513163498455
30
0
41
1
10
29.3003251770232
20
1.65443307214466
30
0
41
1
10
29.3379855584648
20
1.63304066245127
30
0
41
1
10
29.3758020671702
20
1.61097984413726
30
0
0
SPLINE
5
F5
100
AcDbEntity
8
1
62
256
6
ByLayer
370
18
48
1
60
0
100
AcDbSpline
70
4
71
3
72
20
73
16
40
0
40
0
40
0
40
0
40
0.0594387747462974
40
0.0594387747462974
40
0.216198978955248
40
0.216198978955248
40
0.372959183164198
40
0.372959183164198
40
0.529719387373149
40
0.529719387373149
40
0.686479591582099
40
0.686479591582099
40
0.84323979579105
40
0.84323979579105
40
1
40
1
40
1
40
1
41
1
10
3.5032289528836
20
-1.68382523950657
30
0
41
1
10
3.50322997286489
20
-1.68374772991228
30
0
41
1
10
3.50323096929659
20
-1.68280619545104
30
0
41
1
10
3.50323452739843
20
-1.67624170099498
30
0
41
1
10
3.50323699980027
20
-1.66530873472007
30
0
41
1
10
3.50324174331328
20
-1.63160409171019
30
0
41
1
10
3.50324401492159
20
-1.60897750042224
30
0
41
1
10
3.50324849603541
20
-1.5524233383718
30
0
41
1
10
3.50325070703093
20
-1.51846579282483
30
0
41
1
10
3.50325514356291
20
-1.43887989335676
30
0
41
1
10
3.50325731747552
20
-1.39419622318633
30
0
41
1
10
3.5032616043224
20
-1.29544158688807
30
1E-16
41
1
10
3.50326371726789
20
-1.24136973020336
30
1E-16
41
1
10
3.5032678416743
20
-1.12361139944667
30
1E-16
41
1
10
3.50326984780173
20
-1.05997682857071
30
1E-16
41
1
10
3.50327170177491
20
-0.992956244213303
30
1E-16
0
SPLINE
5
F6
100
AcDbEntity
8
1
62
256
6
ByLayer
370
18
48
1
60
0
100
AcDbSpline
70
4
71
3
72
18
73
14
40
0
40
0
40
0
40
0
40
0.161628266417822
40
0.161628266417822
40
0.323256532835644
40
0.323256532835644
40
0.484884799253466
40
0.484884799253466
40
0.646513065671288
40
0.646513065671288
40
0.969769598506931
40
0.969769598506931
40
1
40
1
40
1
40
1
41
1
10
29.9694516636998
20
0.0263878624996039
30
0
41
1
10
29.9617352690597
20
0.0006430387703915
30
0
41
1
10
29.952910459938
20
-0.0245496798009412
30
0
41
1
10
29.932957809572
20
-0.0737540810650046
30
0
41
1
10
29.9217328087812
20
-0.0978642398597742
30
0
41
1
10
29.8981703738852
20
-0.141771973098912
30
0
41
1
10
29.8854733612794
20
-0.16226304071418
30
0
41
1
10
29.8596205210899
20
-0.197482730458944
30
0
41
1
10
29.84671242443
20
-0.211991104741116
30
0
41
1
10
29.8079317746209
20
-0.245696328842826
30
0
41
1
10
29.7843979113893
20
-0.252508461811601
30
0
41
1
10
29.7627011144535
20
-0.245183176881625
30
0
41
1
10
29.7608800640619
20
-0.244445047814281
30
0
41
1
10
29.759092604942
20
-0.243598962727873
30
0
0
SPLINE
5
F7
100
AcDbEntity
8
1
62
256
6
ByLayer
370
18
48
1
60
0
100
AcDbSpline
70
4
71
3
72
8
73
4
40
0
40
0
40
0
40
0
40
1
40
1
40
1
40
1
41
1
10
29.7379830300651
20
-0.227165667733772
30
0
41
1
10
29.7297504569056
20
-0.217941457424587
30
0
41
1
10
29.7223966681247
20
-0.206003625396988
30
0
41
1
10
29.7157808879088
20
-0.191945343295288
30
0
0
SPLINE
5
F8
100
AcDbEntity
8
1
62
256
6
ByLayer
370
18
48
1
60
0
100
AcDbSpline
70
4
71
3
72
44
73
40
40
0
40
0
40
0
40
0
40
0.0418348426727801
40
0.0418348426727801
40
0.0970987549161477
40
0.0970987549161477
40
0.152362667159515
40
0.152362667159515
40
0.207626579402882
40
0.207626579402882
40
0.26289049164625
40
0.26289049164625
40
0.318154403889617
40
0.318154403889617
40
0.373418316132984
40
0.373418316132984
40
0.428682228376352
40
0.428682228376352
40
0.483946140619719
40
0.483946140619719
40
0.539210052863086
40
0.539210052863086
40
0.594473965106454
40
0.594473965106454
40
0.649737877349821
40
0.649737877349821
40
0.705001789593188
40
0.705001789593188
40
0.760265701836556
40
0.760265701836556
40
0.815529614079923
40
0.815529614079923
40
0.87079352632329
40
0.87079352632329
40
0.926057438566658
40
0.926057438566658
40
0.981321350810025
40
0.981321350810025
40
1
40
1
40
1
40
1
41
1
10
6.14972538071876
20
1.60215254891403
30
0
41
1
10
6.2502607212316
20
1.60836381824694
30
0
41
1
10
6.35096399108181
20
1.61155273908687
30
0
41
1
10
6.58514884194676
20
1.61237967873763
30
0
41
1
10
6.71901151417595
20
1.60794056559166
30
0
41
1
10
6.98758361163954
20
1.58785476010229
30
0
41
1
10
7.12120595935676
20
1.57224460422276
30
0
41
1
10
7.38740003712923
20
1.53163811653286
30
0
41
1
10
7.51995893782609
20
1.50670181967024
30
0
41
1
10
7.78507844589362
20
1.44693706909342
30
0
41
1
10
7.91766308797804
20
1.41202466433265
30
0
41
1
10
8.18280972228976
20
1.33380697563373
30
0
41
1
10
8.31541310853848
20
1.29046035626215
30
0
41
1
10
8.58207850025977
20
1.19474778665608
30
-1E-16
41
1
10
8.71630512545983
20
1.14248033540829
30
-1E-16
41
1
10
8.98466883951659
20
1.03085185640029
30
-1E-16
41
1
10
9.11804726511215
20
0.971822260289144
30
-1E-16
41
1
10
9.38421290572299
20
0.848136140204645
30
-1E-16
41
1
10
9.51694438069802
20
0.783566827997561
30
0
41
1
10
9.78187549590857
20
0.649823598843938
30
0
41
1
10
9.91414127615349
20
0.580678803890038
30
0
41
1
10
10.1793932914103
20
0.43906068136107
30
0
41
1
10
10.3122768768297
20
0.366572132194136
30
0
41
1
10
10.5786503549483
20
0.218803410084462
30
0
41
1
10
10.7125425513186
20
0.143449852978051
30
0
41
1
10
10.9810849786026
20
-0.0075028323194886
30
0
41
1
10
11.1146575865063
20
-0.082694684234184
30
0
41
1
10
11.3807614442038
20
-0.232227186141529
30
0
41
1
10
11.513370836492
20
-0.306335400195479
30
0
41
1
10
11.7785650084176
20
-0.451409454695494
30
0
41
1
10
11.9110684199148
20
-0.522639660326234
30
0
41
1
10
12.1761372408527
20
-0.662289731547531
30
0
41
1
10
12.3088674451468
20
-0.730312407119072
30
0
41
1
10
12.5757841991214
20
-0.860581286176171
30
1E-16
41
1
10
12.7100854825552
20
-0.923511867361526
30
1E-16
41
1
10
12.9781850853459
20
-1.04430148392356
30
1E-16
41
1
10
13.111506626051
20
-1.1013506540433
30
1E-16
41
1
10
13.2896097253123
20
-1.1711711919813
30
1E-16
41
1
10
13.3345562427169
20
-1.18837244556914
30
1E-16
41
1
10
13.3794646486184
20
-1.20514446161764
30
1E-16
0
SPLINE
5
F9
100
AcDbEntity
8
1
62
256
6
ByLayer
370
18
48
1
60
0
100
AcDbSpline
70
4
71
3
72
26
73
22
40
0
40
0
40
0
40
0
40
0.0373044920875893
40
0.0373044920875893
40
0.197753743406319
40
0.197753743406319
40
0.277978369065686
40
0.277978369065686
40
0.358202994725053
40
0.358202994725053
40
0.43842762038442
40
0.43842762038442
40
0.518652246043787
40
0.518652246043787
40
0.679101497362526
40
0.679101497362526
40
0.839550748681267
40
0.839550748681267
40
0.919775374340633
40
0.919775374340633
40
1
40
1
40
1
40
1
41
1
10
24.2419037901434
20
1.61808232199692
30
0
41
1
10
24.3037848746196
20
1.62088976493649
30
0
41
1
10
24.365536296592
20
1.62246801679075
30
0
41
1
10
24.6923589151757
20
1.62467370112992
30
0
41
1
10
24.9556896151173
20
1.60493260718425
30
0
41
1
10
25.3502324664321
20
1.54775074899783
30
0
41
1
10
25.4816806525053
20
1.52409267548839
30
0
41
1
10
25.7455589582571
20
1.46644594633261
30
0
41
1
10
25.8779794388732
20
1.43246481361376
30
0
41
1
10
26.1442072694956
20
1.35513067492357
30
0
41
1
10
26.2786014778333
20
1.31155282950499
30
0
41
1
10
26.5455592300567
20
1.21662246375377
30
-1E-16
41
1
10
26.6782778672039
20
1.16527204386014
30
-1E-16
41
1
10
27.0750205841998
20
1.0014028100222
30
-1E-16
41
1
10
27.3376826077553
20
0.878807984204713
30
-1E-16
41
1
10
27.8642897722646
20
0.613767310631459
30
0
41
1
10
28.1282555262814
20
0.47149410020802
30
0
41
1
10
28.5287398625971
20
0.248758547153642
30
0
41
1
10
28.6629673933819
20
0.173005301807592
30
0
41
1
10
28.9302780826359
20
0.0217184165741457
30
0
41
1
10
29.063750386159
20
-0.0540976713870691
30
0
41
1
10
29.1975247179232
20
-0.129211575666375
30
0
0
SPLINE
5
FA
100
AcDbEntity
8
1
62
256
6
ByLayer
370
18
48
1
60
0
100
AcDbSpline
70
4
71
3
72
10
73
6
40
0
40
0
40
0
40
0
40
0.66681985227292
40
0.66681985227292
40
1
40
1
40
1
40
1
41
1
10
29.269017016496
20
-1.69924743750582
30
0
41
1
10
29.2940841712185
20
-1.68303825446404
30
0
41
1
10
29.3192106688665
20
-1.66654017640837
30
0
41
1
10
29.3569958572463
20
-1.6413782960143
30
0
41
1
10
29.3696017659552
20
-1.632925326665
30
0
41
1
10
29.3822279208752
20
-1.62440229391399
30
0
0
SPLINE
5
FB
100
AcDbEntity
8
1
62
256
6
ByLayer
370
18
48
1
60
0
100
AcDbSpline
70
4
71
3
72
18
73
14
40
0
40
0
40
0
40
0
40
0.162561262932333
40
0.162561262932333
40
0.325122525864667
40
0.325122525864667
40
0.650245051729333
40
0.650245051729333
40
0.812806314661667
40
0.812806314661667
40
0.975367577594
40
0.975367577594
40
1
40
1
40
1
40
1
41
1
10
3.60266855896938
20
-0.883890161826855
30
1E-16
41
1
10
3.60265791938545
20
-0.955223151790733
30
1E-16
41
1
10
3.6026457027611
20
-1.02286701002345
30
1E-16
41
1
10
3.60261967271114
20
-1.14763893196573
30
1E-16
41
1
10
3.60260586213616
20
-1.20491084667105
30
1E-16
41
1
10
3.60256275832614
20
-1.36161520386173
30
0
41
1
10
3.60253163007565
20
-1.4463844045984
30
0
41
1
10
3.60248352528902
20
-1.53308046407187
30
0
41
1
10
3.60246727105564
20
-1.55533370340416
30
0
41
1
10
3.60243343419634
20
-1.58685285250738
30
0
41
1
10
3.60241574517622
20
-1.59612868603054
30
0
41
1
10
3.60239412276911
20
-1.59890444955232
30
0
41
1
10
3.60239125934657
20
-1.5991160809302
30
0
41
1
10
3.60238837514527
20
-1.59917397464736
30
0
0
SPLINE
5
FC
100
AcDbEntity
8
1
62
256
6
ByLayer
370
18
48
1
60
0
100
AcDbSpline
70
4
71
3
72
8
73
4
40
0
40
0
40
0
40
0
40
1
40
1
40
1
40
1
41
1
10
3.50347719739085
20
1.63642407747949
30
0
41
1
10
3.50330355176462
20
1.63666317058693
30
0
41
1
10
3.50321412770143
20
1.63690571434731
30
0
41
1
10
3.50321417050927
20
1.63714655571704
30
0
0
SPLINE
5
FD
100
AcDbEntity
8
1
62
256
6
ByLayer
370
18
48
1
60
0
100
AcDbSpline
70
4
71
3
72
20
73
16
40
0
40
0
40
0
40
0
40
0.482735828070638
40
0.482735828070638
40
0.654140258731879
40
0.654140258731879
40
0.7489443269818
40
0.7489443269818
40
0.829418194683352
40
0.829418194683352
40
0.910278548502489
40
0.910278548502489
40
0.986343284687558
40
0.986343284687558
40
1
40
1
40
1
40
1
41
1
10
29.3758020671686
20
1.61097984413902
30
0
41
1
10
29.3783450196071
20
1.60949637531414
30
0
41
1
10
29.3811104942491
20
1.60781495791775
30
0
41
1
10
29.3849186676814
20
1.60530516375442
30
0
41
1
10
29.3859519534162
20
1.60460438690356
30
0
41
1
10
29.3874691059066
20
1.60351845013219
30
0
41
1
10
29.3880014496821
20
1.60312491261786
30
0
41
1
10
29.3888835666036
20
1.60243803292175
30
0
41
1
10
29.3892561005752
20
1.60213233946945
30
0
41
1
10
29.3898578104136
20
1.60159721216058
30
0
41
1
10
29.3900930565546
20
1.60136186126877
30
0
41
1
10
29.390390771442
20
1.60100324645086
30
0
41
1
10
29.3904676589337
20
1.6008691806918
30
0
41
1
10
29.3904924944874
20
1.60075510813129
30
0
41
1
10
29.3904945241883
20
1.60073878080735
30
0
41
1
10
29.390494873122
20
1.6007235671369
30
0
0
SPLINE
5
FE
100
AcDbEntity
8
1
62
256
6
ByLayer
370
18
48
1
60
0
100
AcDbSpline
70
4
71
3
72
8
73
4
40
0
40
0
40
0
40
0
40
1
40
1
40
1
40
1
41
1
10
29.8506889803313
20
0.544354390770678
30
0
41
1
10
29.9008841466682
20
0.403579520431805
30
0
41
1
10
29.9498355177369
20
0.26235831770768
30
0
41
1
10
29.997525593892
20
0.120684502900502
30
0
0
SPLINE
5
FF
100
AcDbEntity
8
1
62
256
6
ByLayer
370
18
48
1
60
0
100
AcDbSpline
70
4
71
3
72
8
73
4
40
0
40
0
40
0
40
0
40
1
40
1
40
1
40
1
41
1
10
29.4258145900641
20
1.59478175816849
30
0
41
1
10
29.4104751731537
20
1.60650789304498
30
0
41
1
10
29.3991294533585
20
1.60832848489483
30
0
41
1
10
29.3904948731218
20
1.60072356713715
30
0
0
SPLINE
5
100
100
AcDbEntity
8
1
62
256
6
ByLayer
370
18
48
1
60
0
100
AcDbSpline
70
4
71
3
72
24
73
20
40
0
40
0
40
0
40
0
40
0.189588313703071
40
0.189588313703071
40
0.284382470554602
40
0.284382470554602
40
0.379176627406134
40
0.379176627406134
40
0.473970784257666
40
0.473970784257666
40
0.568764941109198
40
0.568764941109198
40
0.66355909796073
40
0.66355909796073
40
0.758353254812261
40
0.758353254812261
40
0.947941568515321
40
0.947941568515321
40
1
40
1
40
1
40
1
41
1
10
29.1552265584565
20
0.130239140546337
30
0
41
1
10
28.8864347671573
20
0.290136859835599
30
0
41
1
10
28.6179699244692
20
0.446818853929386
30
0
41
1
10
28.2125754777067
20
0.6716940100616
30
0
41
1
10
28.0770798441609
20
0.745243266170689
30
0
41
1
10
27.8046956853627
20
0.887473690396405
30
-1E-16
41
1
10
27.6691883765573
20
0.955147461594009
30
-1E-16
41
1
10
27.3989224781532
20
1.08305531621076
30
-1E-16
41
1
10
27.2642323396747
20
1.14338618752123
30
-1E-16
41
1
10
26.9952174388725
20
1.25619439101021
30
-1E-16
41
1
10
26.8611271112103
20
1.3089202582857
30
-1E-16
41
1
10
26.5920260621493
20
1.40497164658211
30
0
41
1
10
26.4570592877548
20
1.44838774904628
30
0
41
1
10
26.1860341915038
20
1.52568448400663
30
0
41
1
10
26.0493354763526
20
1.55960359177726
30
0
41
1
10
25.6421891296035
20
1.64514162601444
30
0
41
1
10
25.3731539097901
20
1.67975292985369
30
0
41
1
10
25.0302455958996
20
1.6954737255646
30
0
41
1
10
24.9564219205703
20
1.69716638551466
30
0
41
1
10
24.8825632605422
20
1.69716096676652
30
0
0
SPLINE
5
101
100
AcDbEntity
8
1
62
256
6
ByLayer
370
18
48
1
60
0
100
AcDbSpline
70
4
71
3
72
56
73
52
40
0
40
0
40
0
40
0
40
0.0003226727251538
40
0.0003226727251538
40
0.0361805208433859
40
0.0361805208433859
40
0.0720383689616182
40
0.0720383689616182
40
0.107896217079851
40
0.107896217079851
40
0.143754065198083
40
0.143754065198083
40
0.179611913316315
40
0.179611913316315
40
0.215469761434547
40
0.215469761434547
40
0.251327609552779
40
0.251327609552779
40
0.287185457671011
40
0.287185457671011
40
0.323043305789244
40
0.323043305789244
40
0.394759002025707
40
0.394759002025707
40
0.46647469826217
40
0.46647469826217
40
0.502332546380402
40
0.502332546380402
40
0.538190394498633
40
0.538190394498633
40
0.574048242616865
40
0.574048242616865
40
0.609906090735097
40
0.609906090735097
40
0.645763938853328
40
0.645763938853328
40
0.68162178697156
40
0.68162178697156
40
0.753337483208024
40
0.753337483208024
40
0.789195331326257
40
0.789195331326257
40
0.82505317944449
40
0.82505317944449
40
0.860911027562723
40
0.860911027562723
40
0.896768875680956
40
0.896768875680956
40
0.968484571917422
40
0.968484571917422
40
1
40
1
40
1
40
1
41
1
10
18.2148154478845
20
-1.1638525694548
30
1E-16
41
1
10
18.21359495953
20
-1.16437875450527
30
1E-16
41
1
10
18.2123745694671
20
-1.16490460321282
30
1E-16
41
1
10
18.0755463606067
20
-1.22382893376604
30
1E-16
41
1
10
17.940512907211
20
-1.27786276511151
30
1E-16
41
1
10
17.6707552328465
20
-1.37656653295406
30
0
41
1
10
17.5361311556735
20
-1.42135492263011
30
0
41
1
10
17.2668959543624
20
-1.50137857548506
30
0
41
1
10
17.1324705676373
20
-1.53674867813501
30
0
41
1
10
16.8627267573718
20
-1.59703063810628
30
0
41
1
10
16.7273155317974
20
-1.62190863378615
30
0
41
1
10
16.4549127577342
20
-1.66075215517168
30
0
41
1
10
16.3182779750765
20
-1.67463581766731
30
0
41
1
10
16.0474021855647
20
-1.6909343453556
30
0
41
1
10
15.9127845066674
20
-1.69339888659985
30
0
41
1
10
15.643474405396
20
-1.6870402940674
30
0
41
1
10
15.5088474607323
20
-1.67827327867371
30
0
41
1
10
15.2394321381594
20
-1.64971265422534
30
0
41
1
10
15.1045650303514
20
-1.62994866673532
30
0
41
1
10
14.8343985240823
20
-1.57917171526557
30
0
41
1
10
14.6986794408417
20
-1.54827045909639
30
0
41
1
10
14.289141568072
20
-1.4399915175423
30
0
41
1
10
14.019245178219
20
-1.34828588493889
30
1E-16
41
1
10
13.481209852557
20
-1.13130562036128
30
1E-16
41
1
10
13.2119967109572
20
-1.00734029973697
30
1E-16
41
1
10
12.8052231414662
20
-0.801523108563572
30
0
41
1
10
12.6688106127365
20
-0.72889936182915
30
0
41
1
10
12.396791136107
20
-0.580561696581213
30
0
41
1
10
12.2613110985732
20
-0.504877821231673
30
0
41
1
10
11.9911408759639
20
-0.350973276094834
30
0
41
1
10
11.8563600080889
20
-0.272906769965317
30
0
41
1
10
11.5874057362694
20
-0.114539134306284
30
0
41
1
10
11.4529502310134
20
-0.0347174407158946
30
0
41
1
10
11.183007991282
20
0.124337564817551
30
0
41
1
10
11.0476063793223
20
0.203715880441905
30
0
41
1
10
10.7755945173876
20
0.361587926246216
30
0
41
1
10
10.6388048314556
20
0.440308901861869
30
0
41
1
10
10.2320430974061
20
0.669546988725159
30
0
41
1
10
9.9627042338692
20
0.8129384713381
30
0
41
1
10
9.55855261164305
20
1.01001078063396
30
-1E-16
41
1
10
9.42408026961022
20
1.07304302505509
30
-1E-16
41
1
10
9.153896698642
20
1.19131148473738
30
-1E-16
41
1
10
9.0181984947437
20
1.24659639047792
30
-1E-16
41
1
10
8.74528203953076
20
1.34899491996234
30
-1E-16
41
1
10
8.60881740164496
20
1.39568792605289
30
0
41
1
10
8.33819193637652
20
1.47931686585778
30
0
41
1
10
8.20346880665494
20
1.516154483821
30
0
41
1
10
7.79917166699406
20
1.61060692902751
30
0
41
1
10
7.52994759178671
20
1.652744106836
30
0
41
1
10
7.14043900907467
20
1.68153189638869
30
0
41
1
10
7.02077131302499
20
1.68595649980492
30
0
41
1
10
6.90087155320779
20
1.68594667826986
30
0
0
SPLINE
5
102
100
AcDbEntity
8
1
62
256
6
ByLayer
370
18
48
1
60
0
100
AcDbSpline
70
4
71
3
72
38
73
34
40
0
40
0
40
0
40
0
40
0.0314032988512002
40
0.0314032988512002
40
0.0883795753893656
40
0.0883795753893656
40
0.202332128465695
40
0.202332128465695
40
0.259308405003859
40
0.259308405003859
40
0.28779654327294
40
0.28779654327294
40
0.316284681542021
40
0.316284681542021
40
0.430237234618349
40
0.430237234618349
40
0.487213511156513
40
0.487213511156513
40
0.544189787694677
40
0.544189787694677
40
0.658142340771006
40
0.658142340771006
40
0.71511861730917
40
0.71511861730917
40
0.743606755578252
40
0.743606755578252
40
0.772094893847334
40
0.772094893847334
40
0.886047446923666
40
0.886047446923666
40
0.943023723461833
40
0.943023723461833
40
1
40
1
40
1
40
1
41
1
10
20.3521876495699
20
1.69434496613118
30
0
41
1
10
20.446216832444
20
1.69435117697887
30
0
41
1
10
20.5402300073829
20
1.69162779488539
30
0
41
1
10
20.8043278741634
20
1.6763002063224
30
0
41
1
10
20.9745017567685
20
1.65747925781369
30
0
41
1
10
21.4869651710573
20
1.57461166748004
30
0
41
1
10
21.8237567694074
20
1.48548436675753
30
0
41
1
10
22.3291471830015
20
1.3090355940501
30
-1E-16
41
1
10
22.4976645523971
20
1.24307256823633
30
-1E-16
41
1
10
22.751560813306
20
1.13442207340543
30
-1E-16
41
1
10
22.8363798502451
20
1.09658807972261
30
-1E-16
41
1
10
23.0065665372227
20
1.01785638122857
30
-1E-16
41
1
10
23.0921092502353
20
0.976867413075183
30
-1E-16
41
1
10
23.517675838049
20
0.766733626487394
30
0
41
1
10
23.8537135914762
20
0.581173766281495
30
0
41
1
10
24.3591367584131
20
0.28984290118575
30
0
41
1
10
24.5278308888058
20
0.190551674214703
30
0
41
1
10
24.8670543154504
20
-0.0100973898746304
30
0
41
1
10
25.0383156617588
20
-0.111875272296089
30
0
41
1
10
25.5474630396393
20
-0.411302570769834
30
0
41
1
10
25.8829263420639
20
-0.604380503468519
30
0
41
1
10
26.3887354729165
20
-0.870498683777811
30
1E-16
41
1
10
26.5577730447426
20
-0.95529822736799
30
1E-16
41
1
10
26.8128952902863
20
-1.07516200331654
30
1E-16
41
1
10
26.898409031149
20
-1.11397960337942
30
1E-16
41
1
10
27.0687029214121
20
-1.18826069262414
30
1E-16
41
1
10
27.1535512375149
20
-1.22376357256641
30
1E-16
41
1
10
27.5767543367031
20
-1.3926794362423
30
0
41
1
10
27.9120630159047
20
-1.5002105251111
30
0
41
1
10
28.4183971849689
20
-1.6130159244872
30
0
41
1
10
28.5877005996901
20
-1.64256407113868
30
0
41
1
10
28.9287393866196
20
-1.68430733763753
30
0
41
1
10
29.0990424494892
20
-1.69628578376913
30
0
41
1
10
29.2690170164963
20
-1.69924743751332
30
0
0
SPLINE
5
103
100
AcDbEntity
8
1
62
256
6
ByLayer
370
18
48
1
60
0
100
AcDbSpline
70
4
71
3
72
26
73
22
40
0
40
0
40
0
40
0
40
0.0592675623668195
40
0.0592675623668195
40
0.141355659170892
40
0.141355659170892
40
0.305531852779042
40
0.305531852779042
40
0.387619949583115
40
0.387619949583115
40
0.469708046387188
40
0.469708046387188
40
0.633884239995337
40
0.633884239995337
40
0.715972336799413
40
0.715972336799413
40
0.798060433603489
40
0.798060433603489
40
0.962236627211642
40
0.962236627211642
40
1
40
1
40
1
40
1
41
1
10
20.3292931315662
20
-0.213674055399252
30
0
41
1
10
20.2330639979747
20
-0.160186198650621
30
0
41
1
10
20.1365689180134
20
-0.106166532396344
30
0
41
1
10
19.9055722764575
20
0.0238085401969101
30
0
41
1
10
19.771730933174
20
0.099330021221391
30
0
41
1
10
19.3717410070227
20
0.322336549946385
30
0
41
1
10
19.107231216996
20
0.467910674927964
30
0
41
1
10
18.7094026822217
20
0.674842654825966
30
0
41
1
10
18.5765948823004
20
0.741900769317795
30
0
41
1
10
18.3102723954038
20
0.871251228297666
30
-1E-16
41
1
10
18.176675027193
20
0.933516218068348
30
-1E-16
41
1
10
17.7734262085399
20
1.11155682605096
30
-1E-16
41
1
10
17.5070655053431
20
1.2158415461522
30
-1E-16
41
1
10
17.1065682168814
20
1.34749974071445
30
0
41
1
10
16.9730189360394
20
1.38712074790038
30
0
41
1
10
16.7052419931994
20
1.45693874471902
30
0
41
1
10
16.5706462768848
20
1.48740241421487
30
0
41
1
10
16.1694034738249
20
1.56384854346038
30
0
41
1
10
15.9046685527311
20
1.5935572298055
30
0
41
1
10
15.5783298705428
20
1.60609125061041
30
0
41
1
10
15.5173132404633
20
1.60728060649353
30
0
41
1
10
15.4562692028606
20
1.60734179374543
30
0
0
SPLINE
5
104
100
AcDbEntity
8
1
62
256
6
ByLayer
370
18
48
1
60
0
100
AcDbSpline
70
4
71
3
72
8
73
4
40
0
40
0
40
0
40
0
40
1
40
1
40
1
40
1
41
1
10
29.7157808879088
20
-0.191945343295401
30
0
41
1
10
29.6491934448592
20
-0.050449551678355
30
0
41
1
10
29.5685858851403
20
0.102151729467266
30
0
41
1
10
29.4732865901963
20
0.266390496629896
30
0
0
SPLINE
5
105
100
AcDbEntity
8
1
62
256
6
ByLayer
370
18
48
1
60
0
100
AcDbSpline
70
4
71
3
72
8
73
4
40
0
40
0
40
0
40
0
40
1
40
1
40
1
40
1
41
1
10
29.997525593892
20
0.120684502900474
30
0
41
1
10
29.9882252174539
20
0.089233687094378
30
0
41
1
10
29.9788671504072
20
0.0578015027954848
30
0
41
1
10
29.9694516636998
20
0.0263878624996323
30
0
0
SPLINE
5
106
100
AcDbEntity
8
1
62
256
6
ByLayer
370
18
48
1
60
0
100
AcDbSpline
70
4
71
3
72
8
73
4
40
0
40
0
40
0
40
0
40
1
40
1
40
1
40
1
41
1
10
29.1616686599879
20
-0.114117277881633
30
0
41
1
10
29.1567932952699
20
-0.0334898796176617
30
0
41
1
10
29.1542619063504
20
0.0487766171919475
30
0
41
1
10
29.1552265584563
20
0.130239140551907
30
0
0
SPLINE
5
107
100
AcDbEntity
8
1
62
256
6
ByLayer
370
18
48
1
60
0
100
AcDbSpline
70
4
71
3
72
34
73
30
40
0
40
0
40
0
40
0
40
0.0943350876237303
40
0.0943350876237303
40
0.188670175247461
40
0.188670175247461
40
0.235837719059324
40
0.235837719059324
40
0.283005262871187
40
0.283005262871187
40
0.377340350494918
40
0.377340350494918
40
0.471675438118648
40
0.471675438118648
40
0.566010525742378
40
0.566010525742378
40
0.613178069554243
40
0.613178069554243
40
0.660345613366109
40
0.660345613366109
40
0.754680700989839
40
0.754680700989839
40
0.849015788613569
40
0.849015788613569
40
0.896183332425433
40
0.896183332425433
40
0.943350876237298
40
0.943350876237298
40
1
40
1
40
1
40
1
41
1
10
29.2627907441928
20
-1.67513163498896
30
0
41
1
10
28.9943392939796
20
-1.64774213486027
30
0
41
1
10
28.7280616401428
20
-1.59859543746944
30
0
41
1
10
28.1954268352106
20
-1.4607480317647
30
0
41
1
10
27.9291461711051
20
-1.3718820237562
30
1E-16
41
1
10
27.525359662657
20
-1.21195493106765
30
1E-16
41
1
10
27.3901507351996
20
-1.15428994913751
30
1E-16
41
1
10
27.1220032252912
20
-1.03256201293956
30
1E-16
41
1
10
26.9885561019166
20
-0.968263261949346
30
1E-16
41
1
10
26.5887312956043
20
-0.76709623283017
30
0
41
1
10
26.3229061936766
20
-0.62194047068192
30
0
41
1
10
25.7878599202272
20
-0.316956919121367
30
0
41
1
10
25.516924870202
20
-0.156227053238638
30
0
41
1
10
24.9820546633317
20
0.161260085049918
30
0
41
1
10
24.7163068431677
20
0.318544899363474
30
0
41
1
10
24.3162334170472
20
0.545629054360006
30
0
41
1
10
24.1826337419022
20
0.61985139972515
30
0
41
1
10
23.9144678582027
20
0.764523215337675
30
0
41
1
10
23.7794402115933
20
0.835258175019106
30
-1E-16
41
1
10
23.3753919324864
20
1.03788004034914
30
-1E-16
41
1
10
23.1087740423568
20
1.1592469195005
30
-1E-16
41
1
10
22.5761413896434
20
1.3692709328835
30
-1E-16
41
1
10
22.3099031029542
20
1.45766950029383
30
0
41
1
10
21.9070160765058
20
1.56119868183194
30
0
41
1
10
21.771606580219
20
1.59086248565822
30
0
41
1
10
21.5027386026983
20
1.63904116950044
30
0
41
1
10
21.3689664629403
20
1.657689682735
30
0
41
1
10
21.0752238691321
20
1.68668894701889
30
0
41
1
10
20.9153430077946
20
1.69461656207255
30
0
41
1
10
20.7553328389867
20
1.69461252729661
30
0
0
SPLINE
5
108
100
AcDbEntity
8
1
62
256
6
ByLayer
370
18
48
1
60
0
100
AcDbSpline
70
4
71
3
72
36
73
32
40
0
40
0
40
0
40
0
40
0.0167175210447726
40
0.0167175210447726
40
0.0614121791791019
40
0.0614121791791019
40
0.106106837313431
40
0.106106837313431
40
0.195496153582092
40
0.195496153582092
40
0.240190811716421
40
0.240190811716421
40
0.284885469850751
40
0.284885469850751
40
0.463664102388065
40
0.463664102388065
40
0.553053418656721
40
0.553053418656721
40
0.642442734925377
40
0.642442734925377
40
0.687137393059705
40
0.687137393059705
40
0.731832051194034
40
0.731832051194034
40
0.82122136746269
40
0.82122136746269
40
0.865916025597018
40
0.865916025597018
40
0.910610683731346
40
0.910610683731346
40
1
40
1
40
1
40
1
41
1
10
12.5531079174313
20
-1.62391322305243
30
0
41
1
10
12.50292581615
20
-1.63204814253842
30
0
41
1
10
12.4526613381813
20
-1.63944422639744
30
0
41
1
10
12.2676338719348
20
-1.66383900408132
30
0
41
1
10
12.1322112852322
20
-1.67624119421066
30
0
41
1
10
11.8635108343203
20
-1.68964001140699
30
0
41
1
10
11.7297038684639
20
-1.69074220073398
30
0
41
1
10
11.3290149521432
20
-1.67764105274702
30
0
41
1
10
11.0631996273831
20
-1.64690237496407
30
0
41
1
10
10.6616811497277
20
-1.56919445645841
30
0
41
1
10
10.5275489946864
20
-1.53793374797982
30
0
41
1
10
10.2577012479876
20
-1.46506077883859
30
0
41
1
10
10.1225544404101
20
-1.42359534028637
30
0
41
1
10
9.45158547987953
20
-1.19519690869271
30
1E-16
41
1
10
8.92320038497675
20
-0.942170643890165
30
1E-16
41
1
10
8.11176442433811
20
-0.501297781259552
30
0
41
1
10
7.84470215124554
20
-0.347075052726012
30
0
41
1
10
7.31116725350188
20
-0.0348593530194989
30
0
41
1
10
7.0448122552545
20
0.123331097500881
30
0
41
1
10
6.64203566384185
20
0.357068325098766
30
0
41
1
10
6.50672079757089
20
0.434658835802708
30
0
41
1
10
6.23691043606044
20
0.585906966879207
30
0
41
1
10
6.10272069976088
20
0.659410994115518
30
0
41
1
10
5.70129809440579
20
0.872150278031853
30
-1E-16
41
1
10
5.43516744403911
20
1.00354632664795
30
-1E-16
41
1
10
5.03430270767922
20
1.17945997810696
30
-1E-16
41
1
10
4.90040308535592
20
1.23456562652933
30
-1E-16
41
1
10
4.63133050886427
20
1.33670232271504
30
-1E-16
41
1
10
4.49580276019262
20
1.38382436740881
30
0
41
1
10
4.09080863017022
20
1.5102504601866
30
0
41
1
10
3.8217886795367
20
1.57510526352309
30
0
41
1
10
3.55136323273498
20
1.61872971167398
30
0
0
SPLINE
5
109
100
AcDbEntity
8
1
62
256
6
ByLayer
370
18
48
1
60
0
100
AcDbSpline
70
4
71
3
72
8
73
4
40
0
40
0
40
0
40
0
40
1
40
1
40
1
40
1
41
1
10
12.9999999999999
20
1.39482349770483
30
0
41
1
10
12.9999999999999
20
1.37619566472841
30
0
41
1
10
13
20
1.3568338904837
30
0
41
1
10
13
20
1.33673940361695
30
0
0
SPLINE
5
10A
100
AcDbEntity
8
1
62
256
6
ByLayer
370
18
48
1
60
0
100
AcDbSpline
70
4
71
3
72
24
73
20
40
0
40
0
40
0
40
0
40
0.0949885974406569
40
0.0949885974406569
40
0.261643750519368
40
0.261643750519368
40
0.344971327058726
40
0.344971327058726
40
0.428298903598084
40
0.428298903598084
40
0.594954056676799
40
0.594954056676799
40
0.678281633216159
40
0.678281633216159
40
0.761609209755517
40
0.761609209755517
40
0.928264362834236
40
0.928264362834236
40
1
40
1
40
1
40
1
41
1
10
15.1856810137414
20
1.6091843866181
30
0
41
1
10
15.3372958076289
20
1.61779369263212
30
0
41
1
10
15.4883954357362
20
1.61967940731211
30
0
41
1
10
15.9047508989175
20
1.60523397546453
30
0
41
1
10
16.1693534324654
20
1.57640866849533
30
0
41
1
10
16.5704104344969
20
1.50104389726496
30
0
41
1
10
16.7049581196542
20
1.47088621310755
30
0
41
1
10
16.9726653310744
20
1.40162231653761
30
0
41
1
10
17.1061757894452
20
1.3622472953254
30
0
41
1
10
17.5065315311946
20
1.23114004822685
30
-1E-16
41
1
10
17.7727684769861
20
1.12707520636576
30
-1E-16
41
1
10
18.1758619946213
20
0.949023225381211
30
-1E-16
41
1
10
18.309455655176
20
0.886676125970979
30
-1E-16
41
1
10
18.5757019032885
20
0.757131982177611
30
0
41
1
10
18.7084659152626
20
0.689935910112979
30
0
41
1
10
19.1061313181245
20
0.482421087000034
30
0
41
1
10
19.3705124220499
20
0.336312102219495
30
0
41
1
10
19.7517670348718
20
0.122611668439561
30
0
41
1
10
19.8668410798185
20
0.0574062635661505
30
0
41
1
10
19.9822155473157
20
-0.0079502014868069
30
0
0
SPLINE
5
10B
100
AcDbEntity
8
1
62
256
6
ByLayer
370
18
48
1
60
0
100
AcDbSpline
70
4
71
3
72
26
73
22
40
0
40
0
40
0
40
0
40
0.0074554607681784
40
0.0074554607681784
40
0.169397767446517
40
0.169397767446517
40
0.331340074124856
40
0.331340074124856
40
0.412311227464026
40
0.412311227464026
40
0.493282380803197
40
0.493282380803197
40
0.655224687481539
40
0.655224687481539
40
0.736195840820709
40
0.736195840820709
40
0.81716699415988
40
0.81716699415988
40
0.979109300838222
40
0.979109300838222
40
1
40
1
40
1
40
1
41
1
10
6.79782726021119
20
0.264659203159653
30
0
41
1
10
6.81030171042568
20
0.257784141340466
30
0
41
1
10
6.8227811508745
20
0.250898614646445
30
0
41
1
10
7.10644681601616
20
0.0942231546914627
30
0
41
1
10
7.37460207113168
20
-0.0571216782390991
30
0
41
1
10
7.90979622176511
20
-0.354041403806519
30
0
41
1
10
8.17675679894157
20
-0.499694487497834
30
0
41
1
10
8.58043625708927
20
-0.706729907673605
30
0
41
1
10
8.71573570500604
20
-0.774079255232493
30
0
41
1
10
8.98668830988001
20
-0.903326983689993
30
1E-16
41
1
10
9.12144665464766
20
-0.964772280394357
30
1E-16
41
1
10
9.52465951302378
20
-1.13855240239727
30
1E-16
41
1
10
9.79151781530751
20
-1.24005902426137
30
1E-16
41
1
10
10.193350117209
20
-1.36697583222056
30
0
41
1
10
10.3274502014809
20
-1.40499705319698
30
0
41
1
10
10.5966248181403
20
-1.47157863127643
30
0
41
1
10
10.7321851369391
20
-1.50036539705283
30
0
41
1
10
11.1383501213683
20
-1.57147236913082
30
0
41
1
10
11.4059712028633
20
-1.59744273036196
30
0
41
1
10
11.708032904581
20
-1.60375898701017
30
0
41
1
10
11.7425371671204
20
-1.60411800986802
30
0
41
1
10
11.7770380191806
20
-1.60411818843366
30
0
0
SPLINE
5
10C
100
AcDbEntity
8
1
62
256
6
ByLayer
370
18
48
1
60
0
100
AcDbSpline
70
4
71
3
72
20
73
16
40
0
40
0
40
0
40
0
40
0.270605422071397
40
0.270605422071397
40
0.361779744312473
40
0.361779744312473
40
0.452954066553548
40
0.452954066553548
40
0.635302711035699
40
0.635302711035699
40
0.81765135551785
40
0.81765135551785
40
0.908825677758924
40
0.908825677758924
40
1
40
1
40
1
40
1
41
1
10
24.9847732909085
20
0.162888472551174
30
0
41
1
10
25.3797819021237
20
-0.0584249544807562
30
0
41
1
10
25.7727003073472
20
-0.283825328120884
30
0
41
1
10
26.3065193032975
20
-0.570013438677108
30
0
41
1
10
26.4422598986488
20
-0.641092202397687
30
0
41
1
10
26.7115601350507
20
-0.777349416890445
30
0
41
1
10
26.8454521544077
20
-0.842781760797237
30
1E-16
41
1
10
27.2457876564937
20
-1.02975219043114
30
1E-16
41
1
10
27.5112716692768
20
-1.14174495226737
30
1E-16
41
1
10
28.0434799422207
20
-1.33447632613399
30
0
41
1
10
28.3103468131705
20
-1.41511227057734
30
0
41
1
10
28.7157038908521
20
-1.5078388698897
30
0
41
1
10
28.8510753610843
20
-1.5338496438988
30
0
41
1
10
29.1208833303189
20
-1.5751338564078
30
0
41
1
10
29.2555698671798
20
-1.59034866963199
30
0
41
1
10
29.3904712579689
20
-1.60068087185741
30
0
0
SPLINE
5
10D
100
AcDbEntity
8
1
62
256
6
ByLayer
370
18
48
1
60
0
100
AcDbSpline
70
4
71
3
72
8
73
4
40
0
40
0
40
0
40
0
40
1
40
1
40
1
40
1
41
1
10
29.8506889803313
20
-0.544354390770678
30
0
41
1
10
29.9008841466698
20
-0.403579520427399
30
0
41
1
10
29.9498355177399
20
-0.26235831769884
30
0
41
1
10
29.9975255938965
20
-0.120684502887201
30
0
0
SPLINE
5
10E
100
AcDbEntity
8
1
62
256
6
ByLayer
370
18
48
1
60
0
100
AcDbSpline
70
4
71
3
72
8
73
4
40
0
40
0
40
0
40
0
40
1
40
1
40
1
40
1
41
1
10
29.2627907441933
20
-1.67513163498455
30
0
41
1
10
29.3003251770231
20
-1.65443307214466
30
0
41
1
10
29.3379855584648
20
-1.63304066245127
30
0
41
1
10
29.3758020671702
20
-1.61097984413726
30
0
0
SPLINE
5
10F
100
AcDbEntity
8
1
62
256
6
ByLayer
370
18
48
1
60
0
100
AcDbSpline
70
4
71
3
72
20
73
16
40
0
40
0
40
0
40
0
40
0.482735828063518
40
0.482735828063518
40
0.654140258721815
40
0.654140258721815
40
0.748944326970653
40
0.748944326970653
40
0.829418194671209
40
0.829418194671209
40
0.910278548488913
40
0.910278548488913
40
0.986343284673751
40
0.986343284673751
40
1
40
1
40
1
40
1
41
1
10
29.3758020671685
20
-1.61097984413902
30
0
41
1
10
29.3783450196071
20
-1.60949637531414
30
0
41
1
10
29.3811104942491
20
-1.60781495791778
30
0
41
1
10
29.3849186676814
20
-1.60530516375445
30
0
41
1
10
29.3859519534161
20
-1.60460438690362
30
0
41
1
10
29.3874691059066
20
-1.60351845013224
30
0
41
1
10
29.388001449682
20
-1.60312491261792
30
0
41
1
10
29.3888835666036
20
-1.60243803292178
30
0
41
1
10
29.3892561005752
20
-1.60213233946951
30
0
41
1
10
29.3898578104136
20
-1.60159721216064
30
0
41
1
10
29.3900930565545
20
-1.60136186126883
30
0
41
1
10
29.390390771442
20
-1.60100324645089
30
0
41
1
10
29.3904676589337
20
-1.60086918069183
30
0
41
1
10
29.3904924944874
20
-1.60075510813129
30
0
41
1
10
29.3904945241883
20
-1.60073878080732
30
0
41
1
10
29.390494873122
20
-1.60072356713684
30
0
0
SPLINE
5
110
100
AcDbEntity
8
1
62
256
6
ByLayer
370
18
48
1
60
0
100
AcDbSpline
70
4
71
3
72
13
73
9
40
0
40
0
40
0
40
0
40
0.25457096996088
40
0.415313861562138
40
0.604708803799531
40
0.69219323257417
40
0.832110993337393
40
1
40
1
40
1
40
1
41
1
10
6.46665792193628
20
1.60196848019635
30
0
41
1
10
6.22359443727279
20
1.60183053455236
30
0
41
1
10
5.8270549026808
20
1.60150015615977
30
0
41
1
10
5.24969422355116
20
1.6013078388639
30
0
41
1
10
4.83184804724243
20
1.60016645816034
30
0
41
1
10
4.43390585799938
20
1.60071632445749
30
0
41
1
10
4.05649483346906
20
1.60057831317235
30
0
41
1
10
3.7626172279297
20
1.59975969217436
30
0
41
1
10
3.60232676846309
20
1.59910310785193
30
0
0
SPLINE
5
111
100
AcDbEntity
8
1
62
256
6
ByLayer
370
18
48
1
60
0
100
AcDbSpline
70
4
71
2
72
6
73
3
40
0
40
0
40
0
40
1
40
1
40
1
41
1
10
7.24880749660582
20
0.0024144659575427
30
0
41
1
10
7.24881260522596
20
0.0024037403342447
30
0
41
1
10
7.24881771386896
20
0.0023926045584233
30
0
0
SPLINE
5
112
100
AcDbEntity
8
1
62
256
6
ByLayer
370
18
48
1
60
0
100
AcDbSpline
70
4
71
2
72
6
73
3
40
0
40
0
40
0
40
1
40
1
40
1
41
1
10
19.9663692370834
20
0.0010510879805565
30
0
41
1
10
19.9662546850283
20
0.0011090001532637
30
0
41
1
10
19.9661401350381
20
0.0011696786855282
30
0
0
SPLINE
5
113
100
AcDbEntity
8
1
62
256
6
ByLayer
370
18
48
1
60
0
100
AcDbSpline
70
4
71
2
72
6
73
3
40
0
40
0
40
0
40
1
40
1
40
1
41
1
10
28.7408584586671
20
0.128865694597749
30
0
41
1
10
28.7407376912404
20
0.131965377108003
30
0
41
1
10
28.7406169235476
20
0.135066830091034
30
0
0
SPLINE
5
114
100
AcDbEntity
8
1
62
256
6
ByLayer
370
18
48
1
60
0
100
AcDbSpline
70
4
71
3
72
10
73
6
40
0
40
0
40
0
40
0
40
0.168128303680096
40
0.529588902661019
40
1
40
1
40
1
40
1
41
1
10
29.4311295679471
20
0.287288371560692
30
0
41
1
10
29.3003839526288
20
0.334732718871237
30
0
41
1
10
28.8893579462236
20
0.486251778253433
30
0
41
1
10
28.1185520116677
20
0.786443654388847
30
0
41
1
10
27.4826959026419
20
1.04892892610263
30
-1E-16
41
1
10
27.1249954623106
20
1.20198842766828
30
-1E-16
0
SPLINE
5
115
100
AcDbEntity
8
1
62
256
6
ByLayer
370
18
48
1
60
0
100
AcDbSpline
70
4
71
1
72
4
73
2
40
0
40
0
40
1
40
1
41
1
10
29.4257990319692
20
1.59499222496126
30
0
41
1
10
29.382275729093
20
1.62437002723087
30
0
0
SPLINE
5
116
100
AcDbEntity
8
1
62
256
6
ByLayer
370
18
48
1
60
0
100
AcDbSpline
70
4
71
1
72
4
73
2
40
0
40
0
40
1
40
1
41
1
10
29.3822757290934
20
-1.62437002723058
30
0
41
1
10
29.4257990319692
20
-1.59499222496126
30
0
0
SPLINE
5
117
100
AcDbEntity
8
1
62
256
6
ByLayer
370
18
48
1
60
0
100
AcDbSpline
70
4
71
3
72
24
73
20
40
0
40
0
40
0
40
0
40
1.20326500677E-05
40
4.91059843846E-05
40
0.0001368706588064
40
0.0002290609799878
40
0.0003035627862749
40
0.0003709452690486
40
0.0008529820918823
40
0.0012313591825603
40
0.0019200631373686
40
0.0032397076508635
40
0.0058962112461248
40
0.011597090574947
40
0.0248255830688111
40
0.146442429517966
40
0.351535264169174
40
0.636118359183435
40
1
40
1
40
1
40
1
41
1
10
21.2495537211082
20
-0.0043832247317255
30
0
41
1
10
21.2495557562433
20
-0.0043832787432052
30
0
41
1
10
21.2495624572613
20
-0.0043829306340797
30
0
41
1
10
21.2495609564388
20
-0.0043748240561854
30
0
41
1
10
21.2494587210878
20
-0.0043284779740418
30
0
41
1
10
21.249326135642
20
-0.0042700569055683
30
0
41
1
10
21.2491353966102
20
-0.004194395317171
30
0
41
1
10
21.2485114626668
20
-0.0039623697042259
30
0
41
1
10
21.2475121641868
20
-0.0036083462514682
30
0
41
1
10
21.2459653796335
20
-0.003034821782478
30
0
41
1
10
21.2435398954308
20
-0.0021483175697483
30
0
41
1
10
21.2388053455385
20
-0.0004290478590292
30
0
41
1
10
21.2289029981531
20
0.0031111089921012
30
0
41
1
10
21.2066550871385
20
0.0109233247472105
30
0
41
1
10
21.0604594479228
20
0.0613691114775463
30
0
41
1
10
20.7021905598335
20
0.187094992559906
30
0
41
1
10
20.0635390377546
20
0.420864768229592
30
0
41
1
10
19.1760343775276
20
0.763332366193481
30
0
41
1
10
18.5080610377027
20
1.03859909444478
30
-1E-16
41
1
10
18.1350180387817
20
1.19791582504226
30
-1E-16
0
SPLINE
5
118
100
AcDbEntity
8
1
62
256
6
ByLayer
370
18
48
1
60
0
100
AcDbSpline
70
4
71
3
72
25
73
21
40
0
40
0
40
0
40
0
40
5.643449221E-06
40
6.44511589537E-05
40
0.0001547024682825
40
0.000218298297771
40
0.000243639701686
40
0.0002665373182607
40
0.0003095472151897
40
0.0005727959749952
40
0.0007803890113832
40
0.0011554143644819
40
0.0018687775869621
40
0.003396852714673
40
0.0069519913631438
40
0.0210191675389085
40
0.146992826291686
40
0.362626868918401
40
0.659762178951806
40
1
40
1
40
1
40
1
41
1
10
12.2751950662397
20
-0.013802877882184
30
0
41
1
10
12.275196053666
20
-0.0138027180635485
30
0
41
1
10
12.275200447664
20
-0.0138014628981296
30
0
41
1
10
12.2751711971297
20
-0.0137841134027497
30
0
41
1
10
12.2751257834759
20
-0.013758328609299
30
0
41
1
10
12.2750418902278
20
-0.0137203434193225
30
0
41
1
10
12.2749625939243
20
-0.0136875686812061
30
0
41
1
10
12.2748852362649
20
-0.0136567267717567
30
0
41
1
10
12.2745555524381
20
-0.0135313653950391
30
0
41
1
10
12.2740262219987
20
-0.0133340554379231
30
0
41
1
10
12.2732436459027
20
-0.0130279116395116
30
0
41
1
10
12.272015661958
20
-0.01255356491464
30
0
41
1
10
12.2695449835435
20
-0.0116038621099221
30
0
41
1
10
12.2639248108491
20
-0.0095064755099372
30
0
41
1
10
12.2450364332395
20
-0.0026487797635184
30
0
41
1
10
12.1003767439929
20
0.0478870773594338
30
0
41
1
10
11.7364936318183
20
0.174713866062888
30
0
41
1
10
11.0891148466168
20
0.411554983499116
30
0
41
1
10
10.2283675374438
20
0.742874589038649
30
0
41
1
10
9.59135356281894
20
1.00535155729608
30
-1E-16
41
1
10
9.25282043898758
20
1.14962823157694
30
-1E-16
0
SPLINE
5
119
100
AcDbEntity
8
1
62
256
6
ByLayer
370
18
48
1
60
0
100
AcDbSpline
70
4
71
3
72
14
73
10
40
0
40
0
40
0
40
0
40
0.205619166021353
40
0.336017744436687
40
0.461686974859853
40
0.641367647026816
40
0.843124545927944
40
0.982778321954746
40
1
40
1
40
1
40
1
41
1
10
20.7529118452837
20
-1.61000677418841
30
0
41
1
10
20.9456929357062
20
-1.61001983436728
30
0
41
1
10
21.2607326414488
20
-1.61007208737357
30
0
41
1
10
21.6935940071887
20
-1.6108810463802
30
0
41
1
10
22.1021492222473
20
-1.61045684790812
30
0
41
1
10
22.5776044403926
20
-1.61184723828879
30
0
41
1
10
23.0661711390307
20
-1.61119418841932
30
0
41
1
10
23.4024227312963
20
-1.61138100796154
30
0
41
1
10
23.5495052184421
20
-1.61145664250299
30
0
41
1
10
23.565651802246
20
-1.61146508449352
30
0
0
SPLINE
5
11A
100
AcDbEntity
8
1
62
256
6
ByLayer
370
18
48
1
60
0
100
AcDbSpline
70
4
71
3
72
14
73
10
40
0
40
0
40
0
40
0
40
0.19933254888315
40
0.325094325604997
40
0.569469537567134
40
0.701123061078458
40
0.838282942079186
40
0.946736394173521
40
1
40
1
40
1
40
1
41
1
10
15.4670487453641
20
1.60742859744403
30
0
41
1
10
15.2730497106076
20
1.60712928468462
30
0
41
1
10
14.9566524443759
20
1.60674818784736
30
0
41
1
10
14.4024175666032
20
1.60659151556797
30
0
41
1
10
13.9140363568593
20
1.60622853302778
30
0
41
1
10
13.4145707846648
20
1.60518609526113
30
0
41
1
10
13.0473881703319
20
1.60558844422383
30
0
41
1
10
12.7565004299331
20
1.60489859724865
30
0
41
1
10
12.5991076673656
20
1.60474642762009
30
0
41
1
10
12.5472684279993
20
1.60470743194537
30
0
0
SPLINE
5
11B
100
AcDbEntity
8
1
62
256
6
ByLayer
370
18
48
1
60
0
100
AcDbSpline
70
4
71
3
72
12
73
8
40
0
40
0
40
0
40
0
40
0.233275334323492
40
0.427685695482134
40
0.54924195325142
40
0.812398960061291
40
1
40
1
40
1
40
1
41
1
10
3.60232676846312
20
-1.59910310785193
30
0
41
1
10
3.76261722792967
20
-1.59975969217436
30
0
41
1
10
4.05649483346903
20
-1.60057831317235
30
0
41
1
10
4.43390585799938
20
-1.60071632445749
30
0
41
1
10
4.83184804724243
20
-1.60016645816034
30
0
41
1
10
5.22513094849248
20
-1.60124074228685
30
0
41
1
10
5.53487218159572
20
-1.60139850222012
30
0
41
1
10
5.66378386553183
20
-1.60146268125064
30
0
0
SPLINE
5
11C
100
AcDbEntity
8
1
62
256
6
ByLayer
370
18
48
1
60
0
100
AcDbSpline
70
4
71
3
72
14
73
10
40
0
40
0
40
0
40
0
40
0.204499951183922
40
0.325864703678549
40
0.434244874997102
40
0.57131207861142
40
0.702876645320071
40
0.947086735704533
40
1
40
1
40
1
40
1
41
1
10
11.7506956543486
20
-1.60410223901758
30
0
41
1
10
11.9498593742793
20
-1.6042638010376
30
0
41
1
10
12.2672225080494
20
-1.60458281654328
30
0
41
1
10
12.6901398098626
20
-1.60474122150995
30
0
41
1
10
13.0473881703319
20
-1.60558844422383
30
0
41
1
10
13.4145707846648
20
-1.60518609526113
30
0
41
1
10
13.9140363568593
20
-1.60622853302778
30
0
41
1
10
14.3315505993858
20
-1.60653884468044
30
0
41
1
10
14.6209224473884
20
-1.60664686248066
30
0
41
1
10
14.6724551538969
20
-1.60666739051882
30
0
0
SPLINE
5
11D
100
AcDbEntity
8
1
62
256
6
ByLayer
370
18
48
1
60
0
100
AcDbSpline
70
4
71
3
72
14
73
10
40
0
40
0
40
0
40
0
40
0.20006656933822
40
0.326210774133433
40
0.461262609049042
40
0.656371113657266
40
0.830130858401735
40
0.95165897345837
40
1
40
1
40
1
40
1
41
1
10
24.4660184573409
20
1.61300999633133
30
0
41
1
10
24.2720473971106
20
1.61239836720333
30
0
41
1
10
23.9557761495173
20
1.61165660055744
30
0
41
1
10
23.5085780183321
20
1.61143998725731
30
0
41
1
10
23.0661711390307
20
1.61119418841932
30
0
41
1
10
22.5776044403925
20
1.61184723828879
30
0
41
1
10
22.1021492222473
20
1.61045684790812
30
0
41
1
10
21.7689862446369
20
1.61080276743343
30
0
41
1
10
21.6042943663512
20
1.6106453316919
30
0
41
1
10
21.5574268413074
20
1.61058867886558
30
0
0
SPLINE
5
11E
100
AcDbEntity
8
1
62
256
6
ByLayer
370
18
48
1
60
0
100
AcDbSpline
70
4
71
3
72
8
73
4
40
0
40
0
40
0
40
0
40
1
40
1
40
1
40
1
41
1
10
21.225630802082
20
1.61017608649917
30
0
41
1
10
21.0680576996239
20
1.61004076090026
30
0
41
1
10
20.9104844400343
20
1.61001744912684
30
0
41
1
10
20.7529118452837
20
1.61000677418841
30
0
0
SPLINE
5
11F
100
AcDbEntity
8
1
62
256
6
ByLayer
370
18
48
1
60
0
100
AcDbSpline
70
4
71
2
72
6
73
3
40
0
40
0
40
0
40
1
40
1
40
1
41
1
10
19.9661401350382
20
-0.0011696786855282
30
0
41
1
10
19.9662546850283
20
-0.0011090001532637
30
0
41
1
10
19.9663692370833
20
-0.0010510879805565
30
0
0
LINE
5
84
100
AcDbEntity
8
SK1
62
256
6
ByLayer
370
18
48
1
60
0
100
AcDbLine
10
-35.75
20
0.499878
30
0
11
-35.75
21
0.990676
31
0
39
0
210
0
220
0
230
1
0
LINE
5
86
100
AcDbEntity
8
SK1
62
256
6
ByLayer
370
18
48
1
60
0
100
AcDbLine
10
-35.065
20
-3
30
0
11
-35.065
21
3
31
0
39
0
210
0
220
0
230
1
0
LINE
5
87
100
AcDbEntity
8
SK1
62
256
6
ByLayer
370
18
48
1
60
0
100
AcDbLine
10
-35.850962
20
0.511868
30
0
11
-35.850962
21
0.978686
31
0
39
0
210
0
220
0
230
1
0
LINE
5
88
100
AcDbEntity
8
SK1
62
256
6
ByLayer
370
18
48
1
60
0
100
AcDbLine
10
0
20
3
30
0
11
0
21
-3
31
0
39
0
210
0
220
0
230
1
0
LINE
5
89
100
AcDbEntity
8
SK1
62
256
6
ByLayer
370
18
48
1
60
0
100
AcDbLine
10
-35.65
20
-0.385299
30
0
11
-35.65
21
0.906515
31
0
39
0
210
0
220
0
230
1
0
LINE
5
8A
100
AcDbEntity
8
SK1
62
256
6
ByLayer
370
18
48
1
60
0
100
AcDbLine
10
-36
20
1.161676
30
0
11
-36
21
2.065
31
0
39
0
210
0
220
0
230
1
0
LINE
5
8B
100
AcDbEntity
8
SK1
62
256
6
ByLayer
370
18
48
1
60
0
100
AcDbLine
10
-36
20
-2.065
30
0
11
-36
21
-0.752331
31
0
39
0
210
0
220
0
230
1
0
LINE
5
8C
100
AcDbEntity
8
SK1
62
256
6
ByLayer
370
18
48
1
60
0
100
AcDbLine
10
-36
20
0.752331
30
0
11
-36
21
1.161676
31
0
39
0
210
0
220
0
230
1
0
LINE
5
8D
100
AcDbEntity
8
1
62
256
6
ByLayer
370
18
48
1
60
0
100
AcDbLine
10
29.969452
20
0.026388
30
0
11
29.566118
21
0.471598
31
0
39
0
210
0
220
0
230
1
0
LINE
5
8E
100
AcDbEntity
8
1
62
256
6
ByLayer
370
18
48
1
60
0
100
AcDbLine
10
13
20
1.416734
30
0
11
13
21
1.394823
31
0
39
0
210
0
220
0
230
1
0
LINE
5
8F
100
AcDbEntity
8
1
62
256
6
ByLayer
370
18
48
1
60
0
100
AcDbLine
10
0
20
3
30
0
11
0
21
0
31
0
39
0
210
0
220
0
230
1
0
LINE
5
90
100
AcDbEntity
8
1
62
256
6
ByLayer
370
18
48
1
60
0
100
AcDbLine
10
0
20
0
30
0
11
0
21
-3
31
0
39
0
210
0
220
0
230
1
0
LINE
5
91
100
AcDbEntity
8
1
62
256
6
ByLayer
370
18
48
1
60
0
100
AcDbLine
10
0.787421
20
2.34131
30
0
11
0.787421
21
0
31
0
39
0
210
0
220
0
230
1
0
LINE
5
92
100
AcDbEntity
8
1
62
256
6
ByLayer
370
18
48
1
60
0
100
AcDbLine
10
0.787421
20
0
30
0
11
0.787421
21
-2.34131
31
0
39
0
210
0
220
0
230
1
0
LINE
5
93
100
AcDbEntity
8
1
62
256
6
ByLayer
370
18
48
1
60
0
100
AcDbLine
10
1.575342
20
1.68262
30
0
11
1.575342
21
0
31
0
39
0
210
0
220
0
230
1
0
LINE
5
94
100
AcDbEntity
8
1
62
256
6
ByLayer
370
18
48
1
60
0
100
AcDbLine
10
1.575342
20
0
30
0
11
1.575342
21
-1.68262
31
0
39
0
210
0
220
0
230
1
0
LINE
5
95
100
AcDbEntity
8
1
62
256
6
ByLayer
370
18
48
1
60
0
100
AcDbLine
10
1.575342
20
-1.68262
30
0
11
3.503213
21
-1.683825
31
0
39
0
210
0
220
0
230
1
0
LINE
5
96
100
AcDbEntity
8
1
62
256
6
ByLayer
370
18
48
1
60
0
100
AcDbLine
10
6.466581
20
-1.685677
30
0
11
6.898509
21
-1.685947
31
0
39
0
210
0
220
0
230
1
0
LINE
5
97
100
AcDbEntity
8
1
62
256
6
ByLayer
370
18
48
1
60
0
100
AcDbLine
10
11.281404
20
-1.688686
30
0
11
11.752104
21
-1.68898
31
0
39
0
210
0
220
0
230
1
0
LINE
5
98
100
AcDbEntity
8
1
62
256
6
ByLayer
370
18
48
1
60
0
100
AcDbLine
10
15.468062
20
-1.691303
30
0
11
15.888278
21
-1.691566
31
0
39
0
210
0
220
0
230
1
0
LINE
5
99
100
AcDbEntity
8
1
62
256
6
ByLayer
370
18
48
1
60
0
100
AcDbLine
10
20.348703
20
-1.694353
30
0
11
20.753121
21
-1.694606
31
0
39
0
210
0
220
0
230
1
0
LINE
5
9A
100
AcDbEntity
8
1
62
256
6
ByLayer
370
18
48
1
60
0
100
AcDbLine
10
24.468745
20
-1.696928
30
0
11
24.880096
21
-1.697185
31
0
39
0
210
0
220
0
230
1
0
LINE
5
9B
100
AcDbEntity
8
1
62
256
6
ByLayer
370
18
48
1
60
0
100
AcDbLine
10
24.880096
20
1.697185
30
0
11
24.468745
21
1.696928
31
0
39
0
210
0
220
0
230
1
0
LINE
5
9C
100
AcDbEntity
8
1
62
256
6
ByLayer
370
18
48
1
60
0
100
AcDbLine
10
20.753121
20
1.694606
30
0
11
20.348703
21
1.694353
31
0
39
0
210
0
220
0
230
1
0
LINE
5
9D
100
AcDbEntity
8
1
62
256
6
ByLayer
370
18
48
1
60
0
100
AcDbLine
10
15.888278
20
1.691566
30
0
11
15.468062
21
1.691303
31
0
39
0
210
0
220
0
230
1
0
LINE
5
9E
100
AcDbEntity
8
1
62
256
6
ByLayer
370
18
48
1
60
0
100
AcDbLine
10
11.752104
20
1.68898
30
0
11
11.281404
21
1.688686
31
0
39
0
210
0
220
0
230
1
0
LINE
5
9F
100
AcDbEntity
8
1
62
256
6
ByLayer
370
18
48
1
60
0
100
AcDbLine
10
6.898509
20
1.685947
30
0
11
6.466581
21
1.685677
31
0
39
0
210
0
220
0
230
1
0
LINE
5
A0
100
AcDbEntity
8
1
62
256
6
ByLayer
370
18
48
1
60
0
100
AcDbLine
10
3.503213
20
1.683825
30
0
11
1.575342
21
1.68262
31
0
39
0
210
0
220
0
230
1
0
LINE
5
A1
100
AcDbEntity
8
SK1
62
256
6
ByLayer
370
18
48
1
60
0
100
AcDbLine
10
-36
20
-2.065
30
0
11
-35.065
21
-3
31
0
39
0
210
0
220
0
230
1
0
LINE
5
A2
100
AcDbEntity
8
SK1
62
256
6
ByLayer
370
18
48
1
60
0
100
AcDbLine
10
-35.065
20
3
30
0
11
-36
21
2.065
31
0
39
0
210
0
220
0
230
1
0
LINE
5
A3
100
AcDbEntity
8
SK1
62
256
6
ByLayer
370
18
48
1
60
0
100
AcDbLine
10
-35.065
20
-3
30
0
11
0
21
-3
31
0
39
0
210
0
220
0
230
1
0
LINE
5
A4
100
AcDbEntity
8
SK1
62
256
6
ByLayer
370
18
48
1
60
0
100
AcDbLine
10
0
20
3
30
0
11
-35.065
21
3
31
0
39
0
210
0
220
0
230
1
0
LINE
5
A5
100
AcDbEntity
8
SK4
62
256
6
ByLayer
370
18
48
0.05
60
0
100
AcDbLine
10
35
20
0
30
0
11
-41
21
0
31
0
39
0
210
0
220
0
230
1
0
LINE
5
A7
100
AcDbEntity
8
4
62
256
6
ByLayer
370
18
48
0.05
60
0
100
AcDbLine
10
-36
20
0
30
0
11
35
21
0
31
0
39
0
210
0
220
0
230
1
0
LINE
5
A9
100
AcDbEntity
8
80
62
256
6
ByLayer
370
18
48
1
60
0
100
AcDbLine
10
0
20
0
30
0
11
-6
21
0
31
0
39
0
210
0
220
0
230
1
0
LINE
5
AA
100
AcDbEntity
8
81
62
256
6
ByLayer
370
18
48
1
60
0
100
AcDbLine
10
30
20
0
30
0
11
36
21
0
31
0
39
0
210
0
220
0
230
1
0
LINE
5
AB
100
AcDbEntity
8
SK2
62
256
6
ByLayer
370
13
48
1
60
0
100
AcDbLine
10
30.542919
20
1.491776
30
0
11
37.925758
21
21.77758
31
0
39
0
210
0
220
0
230
1
0
LINE
5
AD
100
AcDbEntity
8
SK2
62
256
6
ByLayer
370
13
48
1
60
0
100
AcDbLine
10
30.542919
20
-1.491776
30
0
11
37.925758
21
-21.77758
31
0
39
0
210
0
220
0
230
1
0
LINE
5
AE
100
AcDbEntity
8
1
62
256
6
ByLayer
370
13
48
1
60
0
100
AcDbLine
10
36.839921
20
18.794028
30
0
11
39.936532
21
17.977735
31
0
39
0
210
0
220
0
230
1
0
LINE
5
AF
100
AcDbEntity
8
1
62
256
6
ByLayer
370
13
48
1
60
0
100
AcDbLine
10
36.839921
20
18.794028
30
0
11
39.619748
21
17.204086
31
0
39
0
210
0
220
0
230
1
0
LINE
5
B0
100
AcDbEntity
8
1
62
256
6
ByLayer
370
13
48
1
60
0
100
AcDbLine
10
39.936532
20
17.977735
30
0
11
39.619748
21
17.204086
31
0
39
0
210
0
220
0
230
1
0
LINE
5
B1
100
AcDbEntity
8
1
62
256
6
ByLayer
370
13
48
1
60
0
100
AcDbLine
10
36.839921
20
-18.794028
30
0
11
39.619745
21
-17.204088
31
0
39
0
210
0
220
0
230
1
0
LINE
5
B2
100
AcDbEntity
8
1
62
256
6
ByLayer
370
13
48
1
60
0
100
AcDbLine
10
36.839921
20
-18.794028
30
0
11
39.936535
21
-17.977734
31
0
39
0
210
0
220
0
230
1
0
LINE
5
B3
100
AcDbEntity
8
1
62
256
6
ByLayer
370
13
48
1
60
0
100
AcDbLine
10
39.619745
20
-17.204088
30
0
11
39.936535
21
-17.977734
31
0
39
0
210
0
220
0
230
1
0
MTEXT
5
120
100
AcDbEntity
8
SK2
62
256
6
ByLayer
370
18
48
1
60
0
100
AcDbMText
10
43.717388
20
-2.467451
30
0
210
0
220
0
230
1
1
\W0.7237;140.00
40
3.50012
41
0
44
1.084337
50
0
71
7
72
5
7
iso_b_vert
0
MTEXT
5
123
100
AcDbEntity
8
SK6
62
256
6
ByLayer
370
18
48
1
60
0
100
AcDbMText
10
-42.331725
20
-95.068137
30
0
210
0
220
0
230
1
1
\W0.7388;860.1-0340-017A1-GM X1BM
40
3.175
41
0
44
1.084337
50
0
71
7
72
5
7
iso_b_vert
0
DIMENSION
5
126
100
AcDbEntity
8
SK2
62
256
6
ByLayer
370
18
48
1
60
0
100
AcDbDimension
2
_U0
10
30
20
-26.50012
30
0
11
15
21
-26.50012
31
0
70
32
71
2
72
1
41
1
210
0
220
0
230
1
3
Standard
100
AcDbAlignedDimension
13
0
23
-3
33
0
14
30
24
0
34
0
50
0
100
AcDbRotatedDimension
1001
ACAD
1000
DSTYLE
1002
{
1070
   371
1070
    13
1070
   372
1070
    13
1070
     3
1000

1070
   170
1070
     0
1070
   144
1040
1.0
1070
   277
1070
     2
1070
   284
1070
     8
1070
   278
1070
    46
1070
   146
1040
0.999966
1070
   345
1005
16
1070
   347
1005
16
1070
   346
1005
16
1070
   344
1005
127
1070
   343
1005
127
1070
   172
1070
     1
1070
    76
1070
     0
1070
    75
1070
     0
1070
   282
1070
     0
1070
   281
1070
     0
1070
    71
1070
     0
1070
    74
1070
     0
1070
   279
1070
     0
1070
   173
1070
     1
1070
   340
1005
121
1070
   271
1070
     1
1070
   272
1070
     2
1070
    77
1070
     1
1070
    73
1070
     1
1070
   171
1070
     3
1070
   274
1070
     4
1070
   177
1070
   150
1070
   176
1070
     9
1070
   178
1070
    43
1070
    78
1070
     8
1070
    48
1040
-0.1
1070
    41
1040
3.175
1070
   147
1040
1.75006
1070
    42
1040
1.5875
1070
    44
1040
3.175
1070
   140
1040
3.50012
1002
}
1001
ACAD_DSTYLE_DIM_LINETYPE
1070
   380
1005
16
1001
ACAD_DSTYLE_DIM_EXT1_LINETYPE
1070
   381
1005
16
1001
ACAD_DSTYLE_DIM_EXT2_LINETYPE
1070
   382
1005
16
0
DIMENSION
5
14C
100
AcDbEntity
8
2
62
256
6
ByLayer
370
18
48
1
60
0
100
AcDbDimension
2
_U1
10
36.75006
20
1.7
30
0
11
36.75006
21
17.356569
31
0
70
32
71
1
72
1
41
1
210
0
220
0
230
1
3
Standard
100
AcDbAlignedDimension
13
29.3813
23
-1.7
33
0
14
29.3813
24
1.7
34
0
50
90
100
AcDbRotatedDimension
1001
ACAD
1000
DSTYLE
1002
{
1070
   371
1070
    13
1070
   372
1070
    13
1070
     3
1000

1070
   170
1070
     0
1070
   144
1040
1.0
1070
   277
1070
     2
1070
   284
1070
     8
1070
   278
1070
    46
1070
   146
1040
0.999966
1070
   345
1005
16
1070
   347
1005
16
1070
   346
1005
16
1070
   344
1005
127
1070
   343
1005
127
1070
   172
1070
     1
1070
    76
1070
     0
1070
    75
1070
     0
1070
   282
1070
     0
1070
   281
1070
     0
1070
    71
1070
     0
1070
    74
1070
     0
1070
   279
1070
     0
1070
   173
1070
     1
1070
   340
1005
121
1070
   271
1070
     1
1070
   272
1070
     2
1070
    77
1070
     1
1070
    73
1070
     0
1070
   171
1070
     3
1070
   274
1070
     4
1070
   177
1070
   150
1070
   176
1070
     9
1070
   178
1070
    43
1070
    78
1070
     8
1070
    48
1040
-0.1
1070
    41
1040
3.175
1070
   147
1040
1.75006
1070
    42
1040
1.5875
1070
    44
1040
3.175
1070
   140
1040
3.50012
1002
}
1001
ACAD_DSTYLE_DIM_LINETYPE
1070
   380
1005
16
1001
ACAD_DSTYLE_DIM_EXT1_LINETYPE
1070
   381
1005
16
1001
ACAD_DSTYLE_DIM_EXT2_LINETYPE
1070
   382
1005
16
0
DIMENSION
5
16B
100
AcDbEntity
8
SK2
62
256
6
ByLayer
370
18
48
1
60
0
100
AcDbDimension
2
_U2
10
-39.24994
20
-3
30
0
11
-39.24994
21
17.10734
31
0
70
32
71
1
72
1
41
1
210
0
220
0
230
1
3
Standard
100
AcDbAlignedDimension
13
-36
23
3
33
0
14
-36
24
-3
34
0
50
90
100
AcDbRotatedDimension
1001
ACAD
1000
DSTYLE
1002
{
1070
   371
1070
    13
1070
   372
1070
    13
1070
     3
1000

1070
   170
1070
     0
1070
   144
1040
1.0
1070
   277
1070
     2
1070
   284
1070
     8
1070
   278
1070
    46
1070
   146
1040
0.999966
1070
   345
1005
16
1070
   347
1005
16
1070
   346
1005
16
1070
   344
1005
127
1070
   343
1005
127
1070
   172
1070
     1
1070
    76
1070
     0
1070
    75
1070
     0
1070
   282
1070
     0
1070
   281
1070
     0
1070
    71
1070
     0
1070
    74
1070
     0
1070
   279
1070
     0
1070
   173
1070
     1
1070
   340
1005
121
1070
   271
1070
     1
1070
   272
1070
     2
1070
    77
1070
     1
1070
    73
1070
     0
1070
   171
1070
     3
1070
   274
1070
     4
1070
   177
1070
   150
1070
   176
1070
     9
1070
   178
1070
    43
1070
    78
1070
     8
1070
    48
1040
-0.1
1070
    41
1040
3.175
1070
   147
1040
1.75006
1070
    42
1040
1.5875
1070
    44
1040
3.175
1070
   140
1040
3.50012
1002
}
1001
ACAD_DSTYLE_DIM_LINETYPE
1070
   380
1005
16
1001
ACAD_DSTYLE_DIM_EXT1_LINETYPE
1070
   381
1005
16
1001
ACAD_DSTYLE_DIM_EXT2_LINETYPE
1070
   382
1005
16
0
DIMENSION
5
189
100
AcDbEntity
8
SK2
62
256
6
ByLayer
370
18
48
1
60
0
100
AcDbDimension
2
_U3
10
0
20
-26.50012
30
0
11
-18
21
-26.50012
31
0
70
32
71
1
72
1
41
1
210
0
220
0
230
1
3
Standard
100
AcDbAlignedDimension
13
-36
23
-3
33
0
14
0
24
-3
34
0
50
0
100
AcDbRotatedDimension
1001
ACAD
1000
DSTYLE
1002
{
1070
   371
1070
    13
1070
   372
1070
    13
1070
     3
1000

1070
   170
1070
     0
1070
   144
1040
1.0
1070
   277
1070
     2
1070
   284
1070
     8
1070
   278
1070
    46
1070
   146
1040
0.999966
1070
   345
1005
16
1070
   347
1005
16
1070
   346
1005
16
1070
   344
1005
127
1070
   343
1005
127
1070
   172
1070
     1
1070
    76
1070
     0
1070
    75
1070
     0
1070
   282
1070
     0
1070
   281
1070
     0
1070
    71
1070
     0
1070
    74
1070
     0
1070
   279
1070
     0
1070
   173
1070
     1
1070
   340
1005
121
1070
   271
1070
     1
1070
   272
1070
     2
1070
    77
1070
     1
1070
    73
1070
     1
1070
   171
1070
     3
1070
   274
1070
     4
1070
   177
1070
   150
1070
   176
1070
     9
1070
   178
1070
    43
1070
    78
1070
     8
1070
    48
1040
-0.1
1070
    41
1040
3.175
1070
   147
1040
1.75006
1070
    42
1040
1.5875
1070
    44
1040
3.175
1070
   140
1040
3.50012
1002
}
1001
ACAD_DSTYLE_DIM_LINETYPE
1070
   380
1005
16
1001
ACAD_DSTYLE_DIM_EXT1_LINETYPE
1070
   381
1005
16
1001
ACAD_DSTYLE_DIM_EXT2_LINETYPE
1070
   382
1005
16
0
DIMENSION
5
1A5
100
AcDbEntity
8
SK2
62
256
6
ByLayer
370
18
48
1
60
0
100
AcDbDimension
2
_U4
10
30
20
-17.74982
30
0
11
16
21
-17.74982
31
0
70
32
71
1
72
1
41
1
210
0
220
0
230
1
3
Standard
100
AcDbAlignedDimension
13
2
23
2.2
33
0
14
30
24
0
34
0
50
0
100
AcDbRotatedDimension
1001
ACAD
1000
DSTYLE
1002
{
1070
   371
1070
    13
1070
   372
1070
    13
1070
     3
1000

1070
   170
1070
     0
1070
   144
1040
1.0
1070
   277
1070
     2
1070
   284
1070
     8
1070
   278
1070
    46
1070
   146
1040
0.999966
1070
   345
1005
16
1070
   347
1005
16
1070
   346
1005
16
1070
   344
1005
127
1070
   343
1005
127
1070
   172
1070
     1
1070
    76
1070
     0
1070
    75
1070
     0
1070
   282
1070
     0
1070
   281
1070
     0
1070
    71
1070
     0
1070
    74
1070
     0
1070
   279
1070
     0
1070
   173
1070
     1
1070
   340
1005
121
1070
   271
1070
     1
1070
   272
1070
     2
1070
    77
1070
     1
1070
    73
1070
     1
1070
   171
1070
     3
1070
   274
1070
     4
1070
   177
1070
   150
1070
   176
1070
     9
1070
   178
1070
    43
1070
    78
1070
     8
1070
    48
1040
-0.1
1070
    41
1040
3.175
1070
   147
1040
1.75006
1070
    42
1040
1.5875
1070
    44
1040
3.175
1070
   140
1040
3.50012
1002
}
1001
ACAD_DSTYLE_DIM_LINETYPE
1070
   380
1005
16
1001
ACAD_DSTYLE_DIM_EXT1_LINETYPE
1070
   381
1005
16
1001
ACAD_DSTYLE_DIM_EXT2_LINETYPE
1070
   382
1005
16
0
DIMENSION
5
1C1
100
AcDbEntity
8
SK2
62
256
6
ByLayer
370
18
48
1
60
0
100
AcDbDimension
2
_U5
10
30
20
-9.82
30
0
11
21.2
21
-9.82
31
0
70
32
71
1
72
1
41
1
210
0
220
0
230
1
3
Standard
100
AcDbAlignedDimension
13
12.4
23
-1.7
33
0
14
30
24
0
34
0
50
0
100
AcDbRotatedDimension
1001
ACAD
1000
DSTYLE
1002
{
1070
   371
1070
    13
1070
   372
1070
    13
1070
     3
1000

1070
   170
1070
     0
1070
   144
1040
1.0
1070
   277
1070
     2
1070
   284
1070
     8
1070
   278
1070
    46
1070
   146
1040
1.25
1070
   345
1005
16
1070
   347
1005
16
1070
   346
1005
16
1070
   344
1005
127
1070
   343
1005
127
1070
   172
1070
     1
1070
    76
1070
     0
1070
    75
1070
     0
1070
   282
1070
     0
1070
   281
1070
     0
1070
    71
1070
     0
1070
    74
1070
     0
1070
   279
1070
     0
1070
   173
1070
     1
1070
   340
1005
121
1070
   271
1070
     1
1070
   272
1070
     2
1070
    77
1070
     1
1070
    73
1070
     1
1070
   171
1070
     3
1070
   274
1070
     4
1070
   177
1070
   150
1070
   176
1070
     9
1070
   178
1070
    43
1070
    78
1070
     8
1070
    48
1040
-0.1
1070
    41
1040
3.175
1070
   147
1040
0.42
1070
    42
1040
1.5875
1070
    44
1040
0.5
1070
   140
1040
2.8
1002
}
1001
ACAD_DSTYLE_DIM_LINETYPE
1070
   380
1005
16
1001
ACAD_DSTYLE_DIM_EXT1_LINETYPE
1070
   381
1005
16
1001
ACAD_DSTYLE_DIM_EXT2_LINETYPE
1070
   382
1005
16
0
DIMENSION
5
1DD
100
AcDbEntity
8
SK2
62
256
6
ByLayer
370
18
48
1
60
0
100
AcDbDimension
2
_U6
10
30
20
-36.50012
30
0
11
-3
21
-36.50012
31
0
70
32
71
1
72
1
41
1
210
0
220
0
230
1
3
Standard
100
AcDbAlignedDimension
13
-36
23
0
33
0
14
30
24
0
34
0
50
0
100
AcDbRotatedDimension
1001
ACAD
1000
DSTYLE
1002
{
1070
   371
1070
    13
1070
   372
1070
    13
1070
     3
1000

1070
   170
1070
     0
1070
   144
1040
1.0
1070
   277
1070
     2
1070
   284
1070
     8
1070
   278
1070
    46
1070
   146
1040
0.999966
1070
   345
1005
16
1070
   347
1005
16
1070
   346
1005
16
1070
   344
1005
127
1070
   343
1005
127
1070
   172
1070
     1
1070
    76
1070
     0
1070
    75
1070
     0
1070
   282
1070
     0
1070
   281
1070
     0
1070
    71
1070
     0
1070
    74
1070
     0
1070
   279
1070
     0
1070
   173
1070
     1
1070
   340
1005
121
1070
   271
1070
     1
1070
   272
1070
     2
1070
    77
1070
     1
1070
    73
1070
     1
1070
   171
1070
     3
1070
   274
1070
     4
1070
   177
1070
   150
1070
   176
1070
     9
1070
   178
1070
    43
1070
    78
1070
     8
1070
    48
1040
-0.1
1070
    41
1040
3.175
1070
   147
1040
1.75006
1070
    42
1040
1.5875
1070
    44
1040
3.175
1070
   140
1040
3.50012
1002
}
1001
ACAD_DSTYLE_DIM_LINETYPE
1070
   380
1005
16
1001
ACAD_DSTYLE_DIM_EXT1_LINETYPE
1070
   381
1005
16
1001
ACAD_DSTYLE_DIM_EXT2_LINETYPE
1070
   382
1005
16
0
ENDSEC
0
SECTION
2
OBJECTS
0
DICTIONARY
5
269
330
0
100
AcDbDictionary
280
0
281
1
3
ACAD_GROUP
350
26a
3
ACAD_MLINESTYLE
350
26b
0
DICTIONARY
5
26a
330
0
100
AcDbDictionary
280
0
281
1
0
DICTIONARY
5
26b
330
0
100
AcDbDictionary
280
0
281
1
3
Standard
350
18
0
MLINESTYLE
5
18
330
26b
100
AcDbMlineStyle
2
Standard
70
0
3

62
256
51
90
52
90
71
2
49
-0.5
62
256
6
ByLayer
49
0.5
62
256
6
ByLayer
0
RASTERVARIABLES
5
257
330

100
AcDbRasterVariables
90
0
70
1
71
1
72
1
0
ENDSEC
0
EOF
