0
SECTION
2
HEADER
9
$ACADVER
1
AC1015
9
$DWGCODEPAGE
3
ANSI_1252
9
$HANDSEED
5
275
9
$ANGBASE
50
0
9
$ANGDIR
70
0
9
$ATTMODE
70
1
9
$AUNITS
70
0
9
$AUPREC
70
0
9
$CECOLOR
62
256
9
$CELTSCALE
40
1
9
$CELTYPE
6
ByLayer
9
$CELWEIGHT
370
18
9
$CLAYER
8
0
9
$CMLJUST
70
0
9
$CMLSCALE
40
1
9
$CMLSTYLE
2
Standard
9
$DIMSTYLE
2
Standard
9
$TEXTSIZE
40
0.2
9
$TEXTSTYLE
7
Standard
9
$LUNITS
70
2
9
$LUPREC
70
4
9
$EXTNAMES
290
1
9
$INSUNITS
70
4
9
$LTSCALE
40
1
9
$LWDISPLAY
290
1
9
$PDMODE
70
0
9
$PDSIZE
40
0
9
$PLINEGEN
70
0
0
ENDSEC
0
SECTION
2
CLASSES
0
CLASS
1
RASTERVARIABLES
2
AcDbRasterVariables
3
ISM
90
0
280
0
281
0
0
ENDSEC
0
SECTION
2
TABLES
0
TABLE
2
VPORT
5
26b
100
AcDbSymbolTable
0
VPORT
5
1
100
AcDbSymbolTableRecord
100
AcDbViewportTableRecord
2
*Active
70
0
10
0
20
0
11
1
21
1
12
-1
22
1
13
0
23
0
14
0.5
24
0.5
15
10
25
10
16
0
26
0
36
1
17
0
27
0
37
0
0
ENDTAB
0
TABLE
2
LTYPE
5
26c
100
AcDbSymbolTable
0
LTYPE
5
14
100
AcDbSymbolTableRecord
100
AcDbLinetypeTableRecord
70
0
2
ByBlock
3

72
65
73
0
40
0
0
LTYPE
5
15
100
AcDbSymbolTableRecord
100
AcDbLinetypeTableRecord
70
0
2
ByLayer
3

72
65
73
0
40
0
0
LTYPE
5
16
100
AcDbSymbolTableRecord
100
AcDbLinetypeTableRecord
70
0
2
Continuous
3
Solid line
72
65
73
0
40
0
0
LTYPE
5
6E
100
AcDbSymbolTableRecord
100
AcDbLinetypeTableRecord
70
0
2
CENTER
3
____ _ ____ _ ____ _ ____
72
65
73
4
40
47.5
49
22
74
0
49
-8.5
74
0
49
8.5
74
0
49
-8.5
74
0
0
LTYPE
5
6F
100
AcDbSymbolTableRecord
100
AcDbLinetypeTableRecord
70
0
2
DASHED
3
__ __ __ __ __ __ __ __ __
72
65
73
2
40
25.72
49
12.86
74
0
49
-12.86
74
0
0
ENDTAB
0
TABLE
2
LAYER
5
26d
100
AcDbSymbolTable
0
LAYER
5
10
100
AcDbSymbolTableRecord
100
AcDbLayerTableRecord
2
0
70
0
62
7
6
Continuous
290
1
370
-3
390
0
0
LAYER
5
71
100
AcDbSymbolTableRecord
100
AcDbLayerTableRecord
2
80
70
0
62
-6
6
Continuous
290
1
370
-3
390
0
0
LAYER
5
73
100
AcDbSymbolTableRecord
100
AcDbLayerTableRecord
2
81
70
0
62
-3
6
Continuous
290
1
370
-3
390
0
0
LAYER
5
75
100
AcDbSymbolTableRecord
100
AcDbLayerTableRecord
2
1
70
0
62
4
6
Continuous
290
1
370
-3
390
0
0
LAYER
5
A9
100
AcDbSymbolTableRecord
100
AcDbLayerTableRecord
2
4
70
0
62
-2
6
CENTER
290
1
370
-3
390
0
0
LAYER
5
12F
100
AcDbSymbolTableRecord
100
AcDbLayerTableRecord
2
Defpoints
70
0
62
7
6
Continuous
290
0
370
-3
390
0
0
LAYER
5
15C
100
AcDbSymbolTableRecord
100
AcDbLayerTableRecord
2
2
70
0
62
7
6
Continuous
290
1
370
-3
390
0
0
LAYER
5
257
100
AcDbSymbolTableRecord
100
AcDbLayerTableRecord
2
SK1
70
0
62
4
6
Continuous
290
1
370
-3
390
0
0
LAYER
5
258
100
AcDbSymbolTableRecord
100
AcDbLayerTableRecord
2
SK4
70
0
62
2
6
CENTER
290
1
370
-3
390
0
0
LAYER
5
259
100
AcDbSymbolTableRecord
100
AcDbLayerTableRecord
2
SK2
70
0
62
7
6
Continuous
290
1
370
-3
390
0
0
LAYER
5
25a
100
AcDbSymbolTableRecord
100
AcDbLayerTableRecord
2
SK6
70
0
62
5
6
Continuous
290
1
370
-3
390
0
0
ENDTAB
0
TABLE
2
STYLE
5
26e
100
AcDbSymbolTable
0
STYLE
5
11
100
AcDbSymbolTableRecord
100
AcDbTextStyleTableRecord
2
Standard
3
txt
70
0
71
0
40
0
41
1
42
0
50
0
0
STYLE
5
120
100
AcDbSymbolTableRecord
100
AcDbTextStyleTableRecord
2
iso_b_vert
3
simplex.shx
70
0
71
0
40
0
41
1
42
0
50
0
0
STYLE
5
121
100
AcDbSymbolTableRecord
100
AcDbTextStyleTableRecord
2
DWGDirectTextStyle
3
simplex
70
0
71
0
40
0
41
1
42
0
50
0
0
ENDTAB
0
TABLE
2
DIMSTYLE
5
26f
100
AcDbSymbolTable
100
AcDbDimStyleTable
0
DIMSTYLE
105
27
100
AcDbSymbolTableRecord
100
AcDbDimStyleTableRecord
2
Standard
70
0
3
<>
41
0.18
42
0.0625
44
0.18
140
0.18
147
0.09
73
0
74
0
77
1
271
2
275
0
278
52
280
0
340
11
0
ENDTAB
0
TABLE
2
VIEW
5
270
100
AcDbSymbolTable
0
ENDTAB
0
TABLE
2
UCS
5
271
100
AcDbSymbolTable
0
ENDTAB
0
TABLE
2
APPID
5
272
100
AcDbSymbolTable
0
APPID
5
12
100
AcDbSymbolTableRecord
100
AcDbRegAppTableRecord
2
ACAD
70
0
0
APPID
5
124
100
AcDbSymbolTableRecord
100
AcDbRegAppTableRecord
2
ACAD_DSTYLE_DIMBREAK
70
0
0
APPID
5
216
100
AcDbSymbolTableRecord
100
AcDbRegAppTableRecord
2
ACAD_DSTYLE_DIM_LINETYPE
70
0
0
APPID
5
217
100
AcDbSymbolTableRecord
100
AcDbRegAppTableRecord
2
ACAD_DSTYLE_DIM_EXT1_LINETYPE
70
0
0
APPID
5
218
100
AcDbSymbolTableRecord
100
AcDbRegAppTableRecord
2
ACAD_DSTYLE_DIM_EXT2_LINETYPE
70
0
0
APPID
5
253
100
AcDbSymbolTableRecord
100
AcDbRegAppTableRecord
2
ACAD_MLEADERVER
70
0
0
ENDTAB
0
TABLE
2
BLOCK_RECORD
5
273
100
AcDbSymbolTable
0
BLOCK_RECORD
5
1F
100
AcDbSymbolTableRecord
100
AcDbBlockTableRecord
2
*Model_Space
340
0
70
0
0
BLOCK_RECORD
5
1B
100
AcDbSymbolTableRecord
100
AcDbBlockTableRecord
2
*Paper_Space
340
0
70
0
0
BLOCK_RECORD
5
23
100
AcDbSymbolTableRecord
100
AcDbBlockTableRecord
2
*Paper_Space0
340
0
70
0
0
BLOCK_RECORD
5
126
100
AcDbSymbolTableRecord
100
AcDbBlockTableRecord
2
_Closed
340
0
70
0
0
BLOCK_RECORD
5
130
100
AcDbSymbolTableRecord
100
AcDbBlockTableRecord
2
*D2
340
0
70
0
0
BLOCK_RECORD
5
13C
100
AcDbSymbolTableRecord
100
AcDbBlockTableRecord
2
_U0
340
0
70
0
0
BLOCK_RECORD
5
14E
100
AcDbSymbolTableRecord
100
AcDbBlockTableRecord
2
*D4
340
0
70
0
0
BLOCK_RECORD
5
15D
100
AcDbSymbolTableRecord
100
AcDbBlockTableRecord
2
_U1
340
0
70
0
0
BLOCK_RECORD
5
16D
100
AcDbSymbolTableRecord
100
AcDbBlockTableRecord
2
*D6
340
0
70
0
0
BLOCK_RECORD
5
17B
100
AcDbSymbolTableRecord
100
AcDbBlockTableRecord
2
_U2
340
0
70
0
0
BLOCK_RECORD
5
18B
100
AcDbSymbolTableRecord
100
AcDbBlockTableRecord
2
*D8
340
0
70
0
0
BLOCK_RECORD
5
197
100
AcDbSymbolTableRecord
100
AcDbBlockTableRecord
2
_U3
340
0
70
0
0
BLOCK_RECORD
5
1A7
100
AcDbSymbolTableRecord
100
AcDbBlockTableRecord
2
*D10
340
0
70
0
0
BLOCK_RECORD
5
1B3
100
AcDbSymbolTableRecord
100
AcDbBlockTableRecord
2
_U4
340
0
70
0
0
BLOCK_RECORD
5
1C3
100
AcDbSymbolTableRecord
100
AcDbBlockTableRecord
2
*D12
340
0
70
0
0
BLOCK_RECORD
5
1CF
100
AcDbSymbolTableRecord
100
AcDbBlockTableRecord
2
_U5
340
0
70
0
0
BLOCK_RECORD
5
1DF
100
AcDbSymbolTableRecord
100
AcDbBlockTableRecord
2
*D14
340
0
70
0
0
BLOCK_RECORD
5
1EB
100
AcDbSymbolTableRecord
100
AcDbBlockTableRecord
2
_U6
340
0
70
0
0
ENDTAB
0
ENDSEC
0
SECTION
2
BLOCKS
0
BLOCK
5
20
100
AcDbEntity
8
0
100
AcDbBlockBegin
2
*Model_Space
70
0
10
0
20
0
30
0
3
*Model_Space
0
ENDBLK
5
21
100
AcDbEntity
8
0
100
AcDbBlockEnd
0
BLOCK
5
1C
100
AcDbEntity
8
0
100
AcDbBlockBegin
2
*Paper_Space
70
0
10
0
20
0
30
0
3
*Paper_Space
0
ENDBLK
5
1D
100
AcDbEntity
8
0
100
AcDbBlockEnd
0
BLOCK
5
24
100
AcDbEntity
8
0
100
AcDbBlockBegin
2
*Paper_Space0
70
0
10
0
20
0
30
0
3
*Paper_Space0
0
ENDBLK
5
25
100
AcDbEntity
8
0
100
AcDbBlockEnd
0
BLOCK
5
127
100
AcDbEntity
8
0
100
AcDbBlockBegin
2
_Closed
70
0
10
0
20
0
30
0
3
_Closed
0
LINE
5
129
100
AcDbEntity
8
0
62
256
6
ByLayer
370
-2
48
1
60
0
100
AcDbLine
10
-1
20
0.166667
30
0
11
0
21
0
31
0
39
0
210
0
220
0
230
1
0
LINE
5
12A
100
AcDbEntity
8
0
62
256
6
ByLayer
370
-2
48
1
60
0
100
AcDbLine
10
0
20
0
30
0
11
-1
21
-0.166667
31
0
39
0
210
0
220
0
230
1
0
LINE
5
12B
100
AcDbEntity
8
0
62
256
6
ByLayer
370
-2
48
1
60
0
100
AcDbLine
10
-1
20
0.166667
30
0
11
-1
21
-0.166667
31
0
39
0
210
0
220
0
230
1
0
LINE
5
12C
100
AcDbEntity
8
0
62
256
6
ByLayer
370
-2
48
1
60
0
100
AcDbLine
10
0
20
0
30
0
11
-1
21
0
31
0
39
0
210
0
220
0
230
1
0
ENDBLK
5
128
100
AcDbEntity
8
0
100
AcDbBlockEnd
0
BLOCK
5
131
100
AcDbEntity
8
0
100
AcDbBlockBegin
2
*D2
70
1
10
0
20
0
30
0
3
*D2
0
LINE
5
133
100
AcDbEntity
8
0
62
256
6
ByLayer
370
-2
48
1
60
0
100
AcDbLine
10
0
20
-4.5875
30
0
11
0
21
-29.67512
31
0
39
0
210
0
220
0
230
1
0
LINE
5
134
100
AcDbEntity
8
0
62
256
6
ByLayer
370
-2
48
1
60
0
100
AcDbLine
10
30
20
-1.5875
30
0
11
30
21
-29.67512
31
0
39
0
210
0
220
0
230
1
0
LINE
5
135
100
AcDbEntity
8
0
62
256
6
ByLayer
370
-2
48
1
60
0
100
AcDbLine
10
3.175
20
-26.50012
30
0
11
26.825
21
-26.50012
31
0
39
0
210
0
220
0
230
1
0
SOLID
5
136
100
AcDbEntity
8
0
62
256
6
ByLayer
370
-1
48
1
60
0
100
AcDbTrace
10
3.175
20
-25.970953
30
0
11
3.175
21
-27.029287
31
0
12
0
22
-26.50012
32
0
13
0
23
-26.50012
33
0
39
0
210
0
220
0
230
1
0
SOLID
5
137
100
AcDbEntity
8
0
62
256
6
ByLayer
370
-1
48
1
60
0
100
AcDbTrace
10
26.825
20
-27.029287
30
0
11
26.825
21
-25.970953
31
0
12
30
22
-26.50012
32
0
13
30
23
-26.50012
33
0
39
0
210
0
220
0
230
1
0
MTEXT
5
138
100
AcDbEntity
8
0
62
256
6
ByLayer
370
18
48
1
60
0
100
AcDbMText
10
15
20
-19.193619
30
0
210
0
220
0
230
1
1
\A1;30
40
3.50012
41
0
44
1
50
0
71
5
72
5
7
iso_b_vert
0
POINT
5
139
100
AcDbEntity
8
Defpoints
62
0
6
ByLayer
370
-1
48
1
60
0
100
AcDbPoint
10
0
20
-3
30
0
39
0
210
0
220
0
230
1
50
360
0
POINT
5
13A
100
AcDbEntity
8
Defpoints
62
0
6
ByLayer
370
-1
48
1
60
0
100
AcDbPoint
10
30
20
0
30
0
39
0
210
0
220
0
230
1
50
360
0
POINT
5
13B
100
AcDbEntity
8
Defpoints
62
0
6
ByLayer
370
-1
48
1
60
0
100
AcDbPoint
10
30
20
-26.50012
30
0
39
0
210
0
220
0
230
1
50
360
0
ENDBLK
5
132
100
AcDbEntity
8
0
100
AcDbBlockEnd
0
BLOCK
5
149
100
AcDbEntity
8
0
100
AcDbBlockBegin
2
_U0
70
0
10
0
20
0
30
0
3
_U0
0
MTEXT
5
13D
100
AcDbEntity
8
SK2
62
256
6
ByLayer
370
18
48
1
60
0
100
AcDbMText
10
9.770389
20
-25.467451
30
0
210
0
220
0
230
1
1
\W0.7468;30.00
40
3.50012
41
0
44
1.084337
50
0
71
7
72
5
7
iso_b_vert
0
MTEXT
5
13E
100
AcDbEntity
8
SK2
62
256
6
ByLayer
370
18
48
1
60
0
100
AcDbMText
10
6.244329
20
-25.400814
30
0
210
0
220
0
230
1
1
\W0.1790;(
40
3.175
41
0
44
1.084337
50
0
71
7
72
5
7
iso_b_vert
0
MTEXT
5
13F
100
AcDbEntity
8
SK2
62
256
6
ByLayer
370
18
48
1
60
0
100
AcDbMText
10
23.758393
20
-25.400814
30
0
210
0
220
0
230
1
1
\W0.1969;)
40
3.175
41
0
44
1.084337
50
0
71
7
72
5
7
iso_b_vert
0
LINE
5
140
100
AcDbEntity
8
SK2
62
256
6
ByLayer
370
13
48
1
60
0
100
AcDbLine
10
0
20
-4.5875
30
0
11
0
21
-29.67512
31
0
39
0
210
0
220
0
230
1
0
LINE
5
141
100
AcDbEntity
8
SK2
62
256
6
ByLayer
370
13
48
1
60
0
100
AcDbLine
10
30
20
-1.5875
30
0
11
30
21
-29.67512
31
0
39
0
210
0
220
0
230
1
0
LINE
5
142
100
AcDbEntity
8
SK2
62
256
6
ByLayer
370
13
48
1
60
0
100
AcDbLine
10
0
20
-26.50012
30
0
11
30
21
-26.50012
31
0
39
0
210
0
220
0
230
1
0
LINE
5
143
100
AcDbEntity
8
SK2
62
256
6
ByLayer
370
13
48
1
60
0
100
AcDbLine
10
0
20
-26.50012
30
0
11
3.174998
21
-26.082123
31
0
39
0
210
0
220
0
230
1
0
LINE
5
144
100
AcDbEntity
8
SK2
62
256
6
ByLayer
370
13
48
1
60
0
100
AcDbLine
10
0
20
-26.50012
30
0
11
3.175002
21
-26.918117
31
0
39
0
210
0
220
0
230
1
0
LINE
5
145
100
AcDbEntity
8
SK2
62
256
6
ByLayer
370
13
48
1
60
0
100
AcDbLine
10
3.174998
20
-26.082123
30
0
11
3.175002
21
-26.918117
31
0
39
0
210
0
220
0
230
1
0
LINE
5
146
100
AcDbEntity
8
SK2
62
256
6
ByLayer
370
13
48
1
60
0
100
AcDbLine
10
30
20
-26.50012
30
0
11
26.825002
21
-26.918117
31
0
39
0
210
0
220
0
230
1
0
LINE
5
147
100
AcDbEntity
8
SK2
62
256
6
ByLayer
370
13
48
1
60
0
100
AcDbLine
10
30
20
-26.50012
30
0
11
26.824998
21
-26.082123
31
0
39
0
210
0
220
0
230
1
0
LINE
5
148
100
AcDbEntity
8
SK2
62
256
6
ByLayer
370
13
48
1
60
0
100
AcDbLine
10
26.825002
20
-26.918117
30
0
11
26.824998
21
-26.082123
31
0
39
0
210
0
220
0
230
1
0
ENDBLK
5
14A
100
AcDbEntity
8
0
100
AcDbBlockEnd
0
BLOCK
5
14F
100
AcDbEntity
8
0
100
AcDbBlockBegin
2
*D4
70
1
10
0
20
0
30
0
3
*D4
0
LINE
5
151
100
AcDbEntity
8
0
62
256
6
ByLayer
370
-2
48
1
60
0
100
AcDbLine
10
31.0106
20
-1.585
30
0
11
39.92506
21
-1.585
31
0
39
0
210
0
220
0
230
1
0
LINE
5
152
100
AcDbEntity
8
0
62
256
6
ByLayer
370
-2
48
1
60
0
100
AcDbLine
10
31.0106
20
1.585
30
0
11
39.92506
21
1.585
31
0
39
0
210
0
220
0
230
1
0
LINE
5
153
100
AcDbEntity
8
0
62
256
6
ByLayer
370
-2
48
1
60
0
100
AcDbLine
10
36.75006
20
1.585
30
0
11
36.75006
21
26.381466
31
0
39
0
210
0
220
0
230
1
0
LINE
5
154
100
AcDbEntity
8
0
62
256
6
ByLayer
370
-2
48
1
60
0
100
AcDbLine
10
36.75006
20
-4.76
30
0
11
36.75006
21
-7.935
31
0
39
0
210
0
220
0
230
1
0
LINE
5
155
100
AcDbEntity
8
0
62
256
6
ByLayer
370
-2
48
1
60
0
100
AcDbLine
10
36.75006
20
4.76
30
0
11
36.75006
21
7.935
31
0
39
0
210
0
220
0
230
1
0
SOLID
5
156
100
AcDbEntity
8
0
62
256
6
ByLayer
370
-1
48
1
60
0
100
AcDbTrace
10
37.279227
20
-4.76
30
0
11
36.220893
21
-4.76
31
0
12
36.75006
22
-1.585
32
0
13
36.75006
23
-1.585
33
0
39
0
210
0
220
0
230
1
0
SOLID
5
157
100
AcDbEntity
8
0
62
256
6
ByLayer
370
-1
48
1
60
0
100
AcDbTrace
10
36.220893
20
4.76
30
0
11
37.279227
21
4.76
31
0
12
36.75006
22
1.585
32
0
13
36.75006
23
1.585
33
0
39
0
210
0
220
0
230
1
0
MTEXT
5
158
100
AcDbEntity
8
0
62
256
6
ByLayer
370
18
48
1
60
0
100
AcDbMText
10
29.443559
20
17.158233
30
0
210
0
220
0
230
1
1
\A1;3.2
40
3.50012
41
0
44
1
50
90
71
5
72
5
7
iso_b_vert
0
POINT
5
159
100
AcDbEntity
8
Defpoints
62
0
6
ByLayer
370
-1
48
1
60
0
100
AcDbPoint
10
29.4231
20
-1.585
30
0
39
0
210
0
220
0
230
1
50
360
0
POINT
5
15A
100
AcDbEntity
8
Defpoints
62
0
6
ByLayer
370
-1
48
1
60
0
100
AcDbPoint
10
29.4231
20
1.585
30
0
39
0
210
0
220
0
230
1
50
360
0
POINT
5
15B
100
AcDbEntity
8
Defpoints
62
0
6
ByLayer
370
-1
48
1
60
0
100
AcDbPoint
10
36.75006
20
1.585
30
0
39
0
210
0
220
0
230
1
50
360
0
ENDBLK
5
150
100
AcDbEntity
8
0
100
AcDbBlockEnd
0
BLOCK
5
168
100
AcDbEntity
8
0
100
AcDbBlockBegin
2
_U1
70
0
10
0
20
0
30
0
3
_U1
0
MTEXT
5
15E
100
AcDbEntity
8
2
62
256
6
ByLayer
370
18
48
1
60
0
100
AcDbMText
10
36.060403
20
5.742505
30
0
210
0
220
0
230
1
1
\W0.6563;3.17
40
3.50012
41
0
44
1.084337
50
90
71
7
72
5
7
iso_b_vert
0
LINE
5
15F
100
AcDbEntity
8
2
62
256
6
ByLayer
370
13
48
1
60
0
100
AcDbLine
10
31.0106
20
-1.585
30
0
11
39.92506
21
-1.585
31
0
39
0
210
0
220
0
230
1
0
LINE
5
160
100
AcDbEntity
8
2
62
256
6
ByLayer
370
13
48
1
60
0
100
AcDbLine
10
31.0106
20
1.585
30
0
11
39.92506
21
1.585
31
0
39
0
210
0
220
0
230
1
0
LINE
5
161
100
AcDbEntity
8
2
62
256
6
ByLayer
370
13
48
1
60
0
100
AcDbLine
10
36.75006
20
12.924783
30
0
11
36.75006
21
-10.3353
31
0
39
0
210
0
220
0
230
1
0
LINE
5
162
100
AcDbEntity
8
2
62
256
6
ByLayer
370
13
48
1
60
0
100
AcDbLine
10
36.75006
20
-1.585
30
0
11
37.168057
21
-4.759998
31
0
39
0
210
0
220
0
230
1
0
LINE
5
163
100
AcDbEntity
8
2
62
256
6
ByLayer
370
13
48
1
60
0
100
AcDbLine
10
36.75006
20
-1.585
30
0
11
36.332063
21
-4.760002
31
0
39
0
210
0
220
0
230
1
0
LINE
5
164
100
AcDbEntity
8
2
62
256
6
ByLayer
370
13
48
1
60
0
100
AcDbLine
10
37.168057
20
-4.759998
30
0
11
36.332063
21
-4.760002
31
0
39
0
210
0
220
0
230
1
0
LINE
5
165
100
AcDbEntity
8
2
62
256
6
ByLayer
370
13
48
1
60
0
100
AcDbLine
10
36.75006
20
1.585
30
0
11
36.332063
21
4.759998
31
0
39
0
210
0
220
0
230
1
0
LINE
5
166
100
AcDbEntity
8
2
62
256
6
ByLayer
370
13
48
1
60
0
100
AcDbLine
10
36.75006
20
1.585
30
0
11
37.168057
21
4.760002
31
0
39
0
210
0
220
0
230
1
0
LINE
5
167
100
AcDbEntity
8
2
62
256
6
ByLayer
370
13
48
1
60
0
100
AcDbLine
10
36.332063
20
4.759998
30
0
11
37.168057
21
4.760002
31
0
39
0
210
0
220
0
230
1
0
ENDBLK
5
169
100
AcDbEntity
8
0
100
AcDbBlockEnd
0
BLOCK
5
16E
100
AcDbEntity
8
0
100
AcDbBlockBegin
2
*D6
70
1
10
0
20
0
30
0
3
*D6
0
LINE
5
170
100
AcDbEntity
8
0
62
256
6
ByLayer
370
-2
48
1
60
0
100
AcDbLine
10
-37.5875
20
3
30
0
11
-42.42494
21
3
31
0
39
0
210
0
220
0
230
1
0
LINE
5
171
100
AcDbEntity
8
0
62
256
6
ByLayer
370
-2
48
1
60
0
100
AcDbLine
10
-37.5875
20
-3
30
0
11
-42.42494
21
-3
31
0
39
0
210
0
220
0
230
1
0
LINE
5
172
100
AcDbEntity
8
0
62
256
6
ByLayer
370
-2
48
1
60
0
100
AcDbLine
10
-39.24994
20
3
30
0
11
-39.24994
21
23.747151
31
0
39
0
210
0
220
0
230
1
0
LINE
5
173
100
AcDbEntity
8
0
62
256
6
ByLayer
370
-2
48
1
60
0
100
AcDbLine
10
-39.24994
20
6.175
30
0
11
-39.24994
21
9.35
31
0
39
0
210
0
220
0
230
1
0
LINE
5
174
100
AcDbEntity
8
0
62
256
6
ByLayer
370
-2
48
1
60
0
100
AcDbLine
10
-39.24994
20
-6.175
30
0
11
-39.24994
21
-9.35
31
0
39
0
210
0
220
0
230
1
0
SOLID
5
175
100
AcDbEntity
8
0
62
256
6
ByLayer
370
-1
48
1
60
0
100
AcDbTrace
10
-39.779107
20
6.175
30
0
11
-38.720773
21
6.175
31
0
12
-39.24994
22
3
32
0
13
-39.24994
23
3
33
0
39
0
210
0
220
0
230
1
0
SOLID
5
176
100
AcDbEntity
8
0
62
256
6
ByLayer
370
-1
48
1
60
0
100
AcDbTrace
10
-38.720773
20
-6.175
30
0
11
-39.779107
21
-6.175
31
0
12
-39.24994
22
-3
32
0
13
-39.24994
23
-3
33
0
39
0
210
0
220
0
230
1
0
MTEXT
5
177
100
AcDbEntity
8
0
62
256
6
ByLayer
370
18
48
1
60
0
100
AcDbMText
10
-46.556441
20
17.10734
30
0
210
0
220
0
230
1
1
\A1;6
40
3.50012
41
0
44
1
50
90
71
5
72
5
7
iso_b_vert
0
POINT
5
178
100
AcDbEntity
8
Defpoints
62
0
6
ByLayer
370
-1
48
1
60
0
100
AcDbPoint
10
-36
20
3
30
0
39
0
210
0
220
0
230
1
50
360
0
POINT
5
179
100
AcDbEntity
8
Defpoints
62
0
6
ByLayer
370
-1
48
1
60
0
100
AcDbPoint
10
-36
20
-3
30
0
39
0
210
0
220
0
230
1
50
360
0
POINT
5
17A
100
AcDbEntity
8
Defpoints
62
0
6
ByLayer
370
-1
48
1
60
0
100
AcDbPoint
10
-39.24994
20
-3
30
0
39
0
210
0
220
0
230
1
50
360
0
ENDBLK
5
16F
100
AcDbEntity
8
0
100
AcDbBlockEnd
0
BLOCK
5
186
100
AcDbEntity
8
0
100
AcDbBlockBegin
2
_U2
70
0
10
0
20
0
30
0
3
_U2
0
MTEXT
5
17C
100
AcDbEntity
8
SK2
62
256
6
ByLayer
370
18
48
1
60
0
100
AcDbMText
10
-39.939597
20
13.157505
30
0
210
0
220
0
230
1
1
\W0.7346;6.00
40
3.50012
41
0
44
1.084337
50
90
71
7
72
5
7
iso_b_vert
0
LINE
5
17D
100
AcDbEntity
8
SK2
62
256
6
ByLayer
370
13
48
1
60
0
100
AcDbLine
10
-37.5875
20
3
30
0
11
-42.42494
21
3
31
0
39
0
210
0
220
0
230
1
0
LINE
5
17E
100
AcDbEntity
8
SK2
62
256
6
ByLayer
370
13
48
1
60
0
100
AcDbLine
10
-37.5875
20
-3
30
0
11
-42.42494
21
-3
31
0
39
0
210
0
220
0
230
1
0
LINE
5
17F
100
AcDbEntity
8
SK2
62
256
6
ByLayer
370
13
48
1
60
0
100
AcDbLine
10
-39.24994
20
-11.7503
30
0
11
-39.24994
21
21.21468
31
0
39
0
210
0
220
0
230
1
0
LINE
5
180
100
AcDbEntity
8
SK2
62
256
6
ByLayer
370
13
48
1
60
0
100
AcDbLine
10
-39.24994
20
3
30
0
11
-39.667937
21
6.174998
31
0
39
0
210
0
220
0
230
1
0
LINE
5
181
100
AcDbEntity
8
SK2
62
256
6
ByLayer
370
13
48
1
60
0
100
AcDbLine
10
-39.24994
20
3
30
0
11
-38.831943
21
6.175002
31
0
39
0
210
0
220
0
230
1
0
LINE
5
182
100
AcDbEntity
8
SK2
62
256
6
ByLayer
370
13
48
1
60
0
100
AcDbLine
10
-39.667937
20
6.174998
30
0
11
-38.831943
21
6.175002
31
0
39
0
210
0
220
0
230
1
0
LINE
5
183
100
AcDbEntity
8
SK2
62
256
6
ByLayer
370
13
48
1
60
0
100
AcDbLine
10
-39.24994
20
-3
30
0
11
-38.831943
21
-6.174998
31
0
39
0
210
0
220
0
230
1
0
LINE
5
184
100
AcDbEntity
8
SK2
62
256
6
ByLayer
370
13
48
1
60
0
100
AcDbLine
10
-39.24994
20
-3
30
0
11
-39.667937
21
-6.175002
31
0
39
0
210
0
220
0
230
1
0
LINE
5
185
100
AcDbEntity
8
SK2
62
256
6
ByLayer
370
13
48
1
60
0
100
AcDbLine
10
-38.831943
20
-6.174998
30
0
11
-39.667937
21
-6.175002
31
0
39
0
210
0
220
0
230
1
0
ENDBLK
5
187
100
AcDbEntity
8
0
100
AcDbBlockEnd
0
BLOCK
5
18C
100
AcDbEntity
8
0
100
AcDbBlockBegin
2
*D8
70
1
10
0
20
0
30
0
3
*D8
0
LINE
5
18E
100
AcDbEntity
8
0
62
256
6
ByLayer
370
-2
48
1
60
0
100
AcDbLine
10
-36
20
-4.5875
30
0
11
-36
21
-29.67512
31
0
39
0
210
0
220
0
230
1
0
LINE
5
18F
100
AcDbEntity
8
0
62
256
6
ByLayer
370
-2
48
1
60
0
100
AcDbLine
10
0
20
-4.5875
30
0
11
0
21
-29.67512
31
0
39
0
210
0
220
0
230
1
0
LINE
5
190
100
AcDbEntity
8
0
62
256
6
ByLayer
370
-2
48
1
60
0
100
AcDbLine
10
-32.825
20
-26.50012
30
0
11
-3.175
21
-26.50012
31
0
39
0
210
0
220
0
230
1
0
SOLID
5
191
100
AcDbEntity
8
0
62
256
6
ByLayer
370
-1
48
1
60
0
100
AcDbTrace
10
-32.825
20
-25.970953
30
0
11
-32.825
21
-27.029287
31
0
12
-36
22
-26.50012
32
0
13
-36
23
-26.50012
33
0
39
0
210
0
220
0
230
1
0
SOLID
5
192
100
AcDbEntity
8
0
62
256
6
ByLayer
370
-1
48
1
60
0
100
AcDbTrace
10
-3.175
20
-27.029287
30
0
11
-3.175
21
-25.970953
31
0
12
0
22
-26.50012
32
0
13
0
23
-26.50012
33
0
39
0
210
0
220
0
230
1
0
MTEXT
5
193
100
AcDbEntity
8
0
62
256
6
ByLayer
370
18
48
1
60
0
100
AcDbMText
10
-18
20
-19.193619
30
0
210
0
220
0
230
1
1
\A1;36
40
3.50012
41
0
44
1
50
0
71
5
72
5
7
iso_b_vert
0
POINT
5
194
100
AcDbEntity
8
Defpoints
62
0
6
ByLayer
370
-1
48
1
60
0
100
AcDbPoint
10
-36
20
-3
30
0
39
0
210
0
220
0
230
1
50
360
0
POINT
5
195
100
AcDbEntity
8
Defpoints
62
0
6
ByLayer
370
-1
48
1
60
0
100
AcDbPoint
10
0
20
-3
30
0
39
0
210
0
220
0
230
1
50
360
0
POINT
5
196
100
AcDbEntity
8
Defpoints
62
0
6
ByLayer
370
-1
48
1
60
0
100
AcDbPoint
10
0
20
-26.50012
30
0
39
0
210
0
220
0
230
1
50
360
0
ENDBLK
5
18D
100
AcDbEntity
8
0
100
AcDbBlockEnd
0
BLOCK
5
1A2
100
AcDbEntity
8
0
100
AcDbBlockBegin
2
_U3
70
0
10
0
20
0
30
0
3
_U3
0
MTEXT
5
198
100
AcDbEntity
8
SK2
62
256
6
ByLayer
370
18
48
1
60
0
100
AcDbMText
10
-23.229611
20
-25.467451
30
0
210
0
220
0
230
1
1
\W0.7468;36.00
40
3.50012
41
0
44
1.084337
50
0
71
7
72
5
7
iso_b_vert
0
LINE
5
199
100
AcDbEntity
8
SK2
62
256
6
ByLayer
370
13
48
1
60
0
100
AcDbLine
10
-36
20
-4.5875
30
0
11
-36
21
-29.67512
31
0
39
0
210
0
220
0
230
1
0
LINE
5
19A
100
AcDbEntity
8
SK2
62
256
6
ByLayer
370
13
48
1
60
0
100
AcDbLine
10
0
20
-4.5875
30
0
11
0
21
-29.67512
31
0
39
0
210
0
220
0
230
1
0
LINE
5
19B
100
AcDbEntity
8
SK2
62
256
6
ByLayer
370
13
48
1
60
0
100
AcDbLine
10
-36
20
-26.50012
30
0
11
0
21
-26.50012
31
0
39
0
210
0
220
0
230
1
0
LINE
5
19C
100
AcDbEntity
8
SK2
62
256
6
ByLayer
370
13
48
1
60
0
100
AcDbLine
10
-36
20
-26.50012
30
0
11
-32.825002
21
-26.082123
31
0
39
0
210
0
220
0
230
1
0
LINE
5
19D
100
AcDbEntity
8
SK2
62
256
6
ByLayer
370
13
48
1
60
0
100
AcDbLine
10
-36
20
-26.50012
30
0
11
-32.824998
21
-26.918117
31
0
39
0
210
0
220
0
230
1
0
LINE
5
19E
100
AcDbEntity
8
SK2
62
256
6
ByLayer
370
13
48
1
60
0
100
AcDbLine
10
-32.825002
20
-26.082123
30
0
11
-32.824998
21
-26.918117
31
0
39
0
210
0
220
0
230
1
0
LINE
5
19F
100
AcDbEntity
8
SK2
62
256
6
ByLayer
370
13
48
1
60
0
100
AcDbLine
10
0
20
-26.50012
30
0
11
-3.174998
21
-26.918117
31
0
39
0
210
0
220
0
230
1
0
LINE
5
1A0
100
AcDbEntity
8
SK2
62
256
6
ByLayer
370
13
48
1
60
0
100
AcDbLine
10
0
20
-26.50012
30
0
11
-3.175002
21
-26.082123
31
0
39
0
210
0
220
0
230
1
0
LINE
5
1A1
100
AcDbEntity
8
SK2
62
256
6
ByLayer
370
13
48
1
60
0
100
AcDbLine
10
-3.174998
20
-26.918117
30
0
11
-3.175002
21
-26.082123
31
0
39
0
210
0
220
0
230
1
0
ENDBLK
5
1A3
100
AcDbEntity
8
0
100
AcDbBlockEnd
0
BLOCK
5
1A8
100
AcDbEntity
8
0
100
AcDbBlockBegin
2
*D10
70
1
10
0
20
0
30
0
3
*D10
0
LINE
5
1AA
100
AcDbEntity
8
0
62
256
6
ByLayer
370
-2
48
1
60
0
100
AcDbLine
10
2
20
0.4975
30
0
11
2
21
-20.92482
31
0
39
0
210
0
220
0
230
1
0
LINE
5
1AB
100
AcDbEntity
8
0
62
256
6
ByLayer
370
-2
48
1
60
0
100
AcDbLine
10
30
20
-1.5875
30
0
11
30
21
-20.92482
31
0
39
0
210
0
220
0
230
1
0
LINE
5
1AC
100
AcDbEntity
8
0
62
256
6
ByLayer
370
-2
48
1
60
0
100
AcDbLine
10
5.175
20
-17.74982
30
0
11
26.825
21
-17.74982
31
0
39
0
210
0
220
0
230
1
0
SOLID
5
1AD
100
AcDbEntity
8
0
62
256
6
ByLayer
370
-1
48
1
60
0
100
AcDbTrace
10
5.175
20
-17.220653
30
0
11
5.175
21
-18.278987
31
0
12
2
22
-17.74982
32
0
13
2
23
-17.74982
33
0
39
0
210
0
220
0
230
1
0
SOLID
5
1AE
100
AcDbEntity
8
0
62
256
6
ByLayer
370
-1
48
1
60
0
100
AcDbTrace
10
26.825
20
-18.278987
30
0
11
26.825
21
-17.220653
31
0
12
30
22
-17.74982
32
0
13
30
23
-17.74982
33
0
39
0
210
0
220
0
230
1
0
MTEXT
5
1AF
100
AcDbEntity
8
0
62
256
6
ByLayer
370
18
48
1
60
0
100
AcDbMText
10
16
20
-10.443319
30
0
210
0
220
0
230
1
1
\A1;28
40
3.50012
41
0
44
1
50
0
71
5
72
5
7
iso_b_vert
0
POINT
5
1B0
100
AcDbEntity
8
Defpoints
62
0
6
ByLayer
370
-1
48
1
60
0
100
AcDbPoint
10
2
20
2.085
30
0
39
0
210
0
220
0
230
1
50
360
0
POINT
5
1B1
100
AcDbEntity
8
Defpoints
62
0
6
ByLayer
370
-1
48
1
60
0
100
AcDbPoint
10
30
20
0
30
0
39
0
210
0
220
0
230
1
50
360
0
POINT
5
1B2
100
AcDbEntity
8
Defpoints
62
0
6
ByLayer
370
-1
48
1
60
0
100
AcDbPoint
10
30
20
-17.74982
30
0
39
0
210
0
220
0
230
1
50
360
0
ENDBLK
5
1A9
100
AcDbEntity
8
0
100
AcDbBlockEnd
0
BLOCK
5
1BE
100
AcDbEntity
8
0
100
AcDbBlockBegin
2
_U4
70
0
10
0
20
0
30
0
3
_U4
0
MTEXT
5
1B4
100
AcDbEntity
8
SK2
62
256
6
ByLayer
370
18
48
1
60
0
100
AcDbMText
10
10.770389
20
-16.717151
30
0
210
0
220
0
230
1
1
\W0.7468;28.00
40
3.50012
41
0
44
1.084337
50
0
71
7
72
5
7
iso_b_vert
0
LINE
5
1B5
100
AcDbEntity
8
SK2
62
256
6
ByLayer
370
13
48
1
60
0
100
AcDbLine
10
2
20
0.4975
30
0
11
2
21
-20.92482
31
0
39
0
210
0
220
0
230
1
0
LINE
5
1B6
100
AcDbEntity
8
SK2
62
256
6
ByLayer
370
13
48
1
60
0
100
AcDbLine
10
30
20
-1.5875
30
0
11
30
21
-20.92482
31
0
39
0
210
0
220
0
230
1
0
LINE
5
1B7
100
AcDbEntity
8
SK2
62
256
6
ByLayer
370
13
48
1
60
0
100
AcDbLine
10
2
20
-17.74982
30
0
11
30
21
-17.74982
31
0
39
0
210
0
220
0
230
1
0
LINE
5
1B8
100
AcDbEntity
8
SK2
62
256
6
ByLayer
370
13
48
1
60
0
100
AcDbLine
10
2
20
-17.74982
30
0
11
5.174998
21
-17.331823
31
0
39
0
210
0
220
0
230
1
0
LINE
5
1B9
100
AcDbEntity
8
SK2
62
256
6
ByLayer
370
13
48
1
60
0
100
AcDbLine
10
2
20
-17.74982
30
0
11
5.175002
21
-18.167817
31
0
39
0
210
0
220
0
230
1
0
LINE
5
1BA
100
AcDbEntity
8
SK2
62
256
6
ByLayer
370
13
48
1
60
0
100
AcDbLine
10
5.174998
20
-17.331823
30
0
11
5.175002
21
-18.167817
31
0
39
0
210
0
220
0
230
1
0
LINE
5
1BB
100
AcDbEntity
8
SK2
62
256
6
ByLayer
370
13
48
1
60
0
100
AcDbLine
10
30
20
-17.74982
30
0
11
26.825002
21
-18.167817
31
0
39
0
210
0
220
0
230
1
0
LINE
5
1BC
100
AcDbEntity
8
SK2
62
256
6
ByLayer
370
13
48
1
60
0
100
AcDbLine
10
30
20
-17.74982
30
0
11
26.824998
21
-17.331823
31
0
39
0
210
0
220
0
230
1
0
LINE
5
1BD
100
AcDbEntity
8
SK2
62
256
6
ByLayer
370
13
48
1
60
0
100
AcDbLine
10
26.825002
20
-18.167817
30
0
11
26.824998
21
-17.331823
31
0
39
0
210
0
220
0
230
1
0
ENDBLK
5
1BF
100
AcDbEntity
8
0
100
AcDbBlockEnd
0
BLOCK
5
1C4
100
AcDbEntity
8
0
100
AcDbBlockBegin
2
*D12
70
1
10
0
20
0
30
0
3
*D12
0
LINE
5
1C6
100
AcDbEntity
8
0
62
256
6
ByLayer
370
-2
48
1
60
0
100
AcDbLine
10
13.6
20
-3.1725
30
0
11
13.6
21
-10.32
31
0
39
0
210
0
220
0
230
1
0
LINE
5
1C7
100
AcDbEntity
8
0
62
256
6
ByLayer
370
-2
48
1
60
0
100
AcDbLine
10
30
20
-1.5875
30
0
11
30
21
-10.32
31
0
39
0
210
0
220
0
230
1
0
LINE
5
1C8
100
AcDbEntity
8
0
62
256
6
ByLayer
370
-2
48
1
60
0
100
AcDbLine
10
16.775
20
-9.82
30
0
11
26.825
21
-9.82
31
0
39
0
210
0
220
0
230
1
0
SOLID
5
1C9
100
AcDbEntity
8
0
62
256
6
ByLayer
370
-1
48
1
60
0
100
AcDbTrace
10
16.775
20
-9.290833
30
0
11
16.775
21
-10.349167
31
0
12
13.6
22
-9.82
32
0
13
13.6
23
-9.82
33
0
39
0
210
0
220
0
230
1
0
SOLID
5
1CA
100
AcDbEntity
8
0
62
256
6
ByLayer
370
-1
48
1
60
0
100
AcDbTrace
10
26.825
20
-10.349167
30
0
11
26.825
21
-9.290833
31
0
12
30
22
-9.82
32
0
13
30
23
-9.82
33
0
39
0
210
0
220
0
230
1
0
MTEXT
5
1CB
100
AcDbEntity
8
0
62
256
6
ByLayer
370
18
48
1
60
0
100
AcDbMText
10
21.8
20
-3.975
30
0
210
0
220
0
230
1
1
\A1;16.4
40
2.8
41
0
44
1
50
0
71
5
72
5
7
iso_b_vert
0
POINT
5
1CC
100
AcDbEntity
8
Defpoints
62
0
6
ByLayer
370
-1
48
1
60
0
100
AcDbPoint
10
13.6
20
-1.585
30
0
39
0
210
0
220
0
230
1
50
360
0
POINT
5
1CD
100
AcDbEntity
8
Defpoints
62
0
6
ByLayer
370
-1
48
1
60
0
100
AcDbPoint
10
30
20
0
30
0
39
0
210
0
220
0
230
1
50
360
0
POINT
5
1CE
100
AcDbEntity
8
Defpoints
62
0
6
ByLayer
370
-1
48
1
60
0
100
AcDbPoint
10
30
20
-9.82
30
0
39
0
210
0
220
0
230
1
50
360
0
ENDBLK
5
1C5
100
AcDbEntity
8
0
100
AcDbBlockEnd
0
BLOCK
5
1DA
100
AcDbEntity
8
0
100
AcDbBlockBegin
2
_U5
70
0
10
0
20
0
30
0
3
_U5
0
MTEXT
5
1D0
100
AcDbEntity
8
SK2
62
256
6
ByLayer
370
18
48
1
60
0
100
AcDbMText
10
17.818988
20
-9.973893
30
0
210
0
220
0
230
1
1
\W0.7091;16.40
40
2.8
41
0
44
1.084337
50
0
71
7
72
5
7
iso_b_vert
0
LINE
5
1D1
100
AcDbEntity
8
SK2
62
256
6
ByLayer
370
13
48
1
60
0
100
AcDbLine
10
13.6
20
-3.1725
30
0
11
13.6
21
-10.32
31
0
39
0
210
0
220
0
230
1
0
LINE
5
1D2
100
AcDbEntity
8
SK2
62
256
6
ByLayer
370
13
48
1
60
0
100
AcDbLine
10
30
20
-1.5875
30
0
11
30
21
-10.32
31
0
39
0
210
0
220
0
230
1
0
LINE
5
1D3
100
AcDbEntity
8
SK2
62
256
6
ByLayer
370
13
48
1
60
0
100
AcDbLine
10
6.6
20
-9.82
30
0
11
37
21
-9.82
31
0
39
0
210
0
220
0
230
1
0
LINE
5
1D4
100
AcDbEntity
8
SK2
62
256
6
ByLayer
370
13
48
1
60
0
100
AcDbLine
10
13.6
20
-9.82
30
0
11
10.425002
21
-10.237997
31
0
39
0
210
0
220
0
230
1
0
LINE
5
1D5
100
AcDbEntity
8
SK2
62
256
6
ByLayer
370
13
48
1
60
0
100
AcDbLine
10
13.6
20
-9.82
30
0
11
10.424998
21
-9.402003
31
0
39
0
210
0
220
0
230
1
0
LINE
5
1D6
100
AcDbEntity
8
SK2
62
256
6
ByLayer
370
13
48
1
60
0
100
AcDbLine
10
10.425002
20
-10.237997
30
0
11
10.424998
21
-9.402003
31
0
39
0
210
0
220
0
230
1
0
LINE
5
1D7
100
AcDbEntity
8
SK2
62
256
6
ByLayer
370
13
48
1
60
0
100
AcDbLine
10
30
20
-9.82
30
0
11
33.174998
21
-9.402003
31
0
39
0
210
0
220
0
230
1
0
LINE
5
1D8
100
AcDbEntity
8
SK2
62
256
6
ByLayer
370
13
48
1
60
0
100
AcDbLine
10
30
20
-9.82
30
0
11
33.175002
21
-10.237997
31
0
39
0
210
0
220
0
230
1
0
LINE
5
1D9
100
AcDbEntity
8
SK2
62
256
6
ByLayer
370
13
48
1
60
0
100
AcDbLine
10
33.174998
20
-9.402003
30
0
11
33.175002
21
-10.237997
31
0
39
0
210
0
220
0
230
1
0
ENDBLK
5
1DB
100
AcDbEntity
8
0
100
AcDbBlockEnd
0
BLOCK
5
1E0
100
AcDbEntity
8
0
100
AcDbBlockBegin
2
*D14
70
1
10
0
20
0
30
0
3
*D14
0
LINE
5
1E2
100
AcDbEntity
8
0
62
256
6
ByLayer
370
-2
48
1
60
0
100
AcDbLine
10
-36
20
-1.5875
30
0
11
-36
21
-39.67512
31
0
39
0
210
0
220
0
230
1
0
LINE
5
1E3
100
AcDbEntity
8
0
62
256
6
ByLayer
370
-2
48
1
60
0
100
AcDbLine
10
30
20
-1.5875
30
0
11
30
21
-39.67512
31
0
39
0
210
0
220
0
230
1
0
LINE
5
1E4
100
AcDbEntity
8
0
62
256
6
ByLayer
370
-2
48
1
60
0
100
AcDbLine
10
-32.825
20
-36.50012
30
0
11
26.825
21
-36.50012
31
0
39
0
210
0
220
0
230
1
0
SOLID
5
1E5
100
AcDbEntity
8
0
62
256
6
ByLayer
370
-1
48
1
60
0
100
AcDbTrace
10
-32.825
20
-35.970953
30
0
11
-32.825
21
-37.029287
31
0
12
-36
22
-36.50012
32
0
13
-36
23
-36.50012
33
0
39
0
210
0
220
0
230
1
0
SOLID
5
1E6
100
AcDbEntity
8
0
62
256
6
ByLayer
370
-1
48
1
60
0
100
AcDbTrace
10
26.825
20
-37.029287
30
0
11
26.825
21
-35.970953
31
0
12
30
22
-36.50012
32
0
13
30
23
-36.50012
33
0
39
0
210
0
220
0
230
1
0
MTEXT
5
1E7
100
AcDbEntity
8
0
62
256
6
ByLayer
370
18
48
1
60
0
100
AcDbMText
10
-3
20
-29.19362
30
0
210
0
220
0
230
1
1
\A1;66
40
3.50012
41
0
44
1
50
0
71
5
72
5
7
iso_b_vert
0
POINT
5
1E8
100
AcDbEntity
8
Defpoints
62
0
6
ByLayer
370
-1
48
1
60
0
100
AcDbPoint
10
-36
20
0
30
0
39
0
210
0
220
0
230
1
50
360
0
POINT
5
1E9
100
AcDbEntity
8
Defpoints
62
0
6
ByLayer
370
-1
48
1
60
0
100
AcDbPoint
10
30
20
0
30
0
39
0
210
0
220
0
230
1
50
360
0
POINT
5
1EA
100
AcDbEntity
8
Defpoints
62
0
6
ByLayer
370
-1
48
1
60
0
100
AcDbPoint
10
30
20
-36.50012
30
0
39
0
210
0
220
0
230
1
50
360
0
ENDBLK
5
1E1
100
AcDbEntity
8
0
100
AcDbBlockEnd
0
BLOCK
5
1F6
100
AcDbEntity
8
0
100
AcDbBlockBegin
2
_U6
70
0
10
0
20
0
30
0
3
_U6
0
MTEXT
5
1EC
100
AcDbEntity
8
SK2
62
256
6
ByLayer
370
18
48
1
60
0
100
AcDbMText
10
-8.229611
20
-35.467451
30
0
210
0
220
0
230
1
1
\W0.7468;66.00
40
3.50012
41
0
44
1.084337
50
0
71
7
72
5
7
iso_b_vert
0
LINE
5
1ED
100
AcDbEntity
8
SK2
62
256
6
ByLayer
370
13
48
1
60
0
100
AcDbLine
10
-36
20
-1.5875
30
0
11
-36
21
-39.67512
31
0
39
0
210
0
220
0
230
1
0
LINE
5
1EE
100
AcDbEntity
8
SK2
62
256
6
ByLayer
370
13
48
1
60
0
100
AcDbLine
10
30
20
-1.5875
30
0
11
30
21
-39.67512
31
0
39
0
210
0
220
0
230
1
0
LINE
5
1EF
100
AcDbEntity
8
SK2
62
256
6
ByLayer
370
13
48
1
60
0
100
AcDbLine
10
-36
20
-36.50012
30
0
11
30
21
-36.50012
31
0
39
0
210
0
220
0
230
1
0
LINE
5
1F0
100
AcDbEntity
8
SK2
62
256
6
ByLayer
370
13
48
1
60
0
100
AcDbLine
10
-36
20
-36.50012
30
0
11
-32.825002
21
-36.082123
31
0
39
0
210
0
220
0
230
1
0
LINE
5
1F1
100
AcDbEntity
8
SK2
62
256
6
ByLayer
370
13
48
1
60
0
100
AcDbLine
10
-36
20
-36.50012
30
0
11
-32.824998
21
-36.918117
31
0
39
0
210
0
220
0
230
1
0
LINE
5
1F2
100
AcDbEntity
8
SK2
62
256
6
ByLayer
370
13
48
1
60
0
100
AcDbLine
10
-32.825002
20
-36.082123
30
0
11
-32.824998
21
-36.918117
31
0
39
0
210
0
220
0
230
1
0
LINE
5
1F3
100
AcDbEntity
8
SK2
62
256
6
ByLayer
370
13
48
1
60
0
100
AcDbLine
10
30
20
-36.50012
30
0
11
26.825002
21
-36.918117
31
0
39
0
210
0
220
0
230
1
0
LINE
5
1F4
100
AcDbEntity
8
SK2
62
256
6
ByLayer
370
13
48
1
60
0
100
AcDbLine
10
30
20
-36.50012
30
0
11
26.824998
21
-36.082123
31
0
39
0
210
0
220
0
230
1
0
LINE
5
1F5
100
AcDbEntity
8
SK2
62
256
6
ByLayer
370
13
48
1
60
0
100
AcDbLine
10
26.825002
20
-36.918117
30
0
11
26.824998
21
-36.082123
31
0
39
0
210
0
220
0
230
1
0
ENDBLK
5
1F7
100
AcDbEntity
8
0
100
AcDbBlockEnd
0
ENDSEC
0
SECTION
2
ENTITIES
0
ARC
5
B5
100
AcDbEntity
8
1
62
256
6
ByLayer
370
18
48
1
60
0
100
AcDbCircle
39
0
10
1.591197
20
2.367604
30
0
40
0.800000000000002
210
0
220
0
230
1
100
AcDbArc
50
186.012904
51
270.03581
0
ARC
5
B6
100
AcDbEntity
8
1
62
256
6
ByLayer
370
18
48
1
60
0
100
AcDbCircle
39
0
10
1.591197
20
-2.367604
30
0
40
0.800000000000002
210
0
220
0
230
1
100
AcDbArc
50
89.96419
51
173.987096
0
ARC
5
B7
100
AcDbEntity
8
1
62
256
6
ByLayer
370
18
48
1
60
0
100
AcDbCircle
39
0
10
0
20
2.2
30
0
40
0.800000000000002
210
0
220
0
230
1
100
AcDbArc
50
6.012904
51
90
0
ARC
5
B8
100
AcDbEntity
8
1
62
256
6
ByLayer
370
18
48
1
60
0
100
AcDbCircle
39
0
10
0
20
-2.2
30
0
40
0.800000000000002
210
0
220
0
230
1
100
AcDbArc
50
270
51
353.987096
0
ARC
5
B9
100
AcDbEntity
8
SK2
62
256
6
ByLayer
370
13
48
1
60
0
100
AcDbCircle
39
0
10
30
20
0
30
0
40
20
210
0
220
0
230
1
100
AcDbArc
50
9.606349
51
69.999771
0
ARC
5
BA
100
AcDbEntity
8
SK2
62
256
6
ByLayer
370
13
48
1
60
0
100
AcDbCircle
39
0
10
30
20
0
30
0
40
20
210
0
220
0
230
1
100
AcDbArc
50
290.000229
51
350.393651
0
ELLIPSE
5
BB
100
AcDbEntity
8
1
62
256
6
ByLayer
370
18
48
1
60
0
100
AcDbEllipse
10
3.602103
20
-1.589924
30
0
11
-0.1
21
1.22460635382238E-17
31
0
210
0
220
0
230
1
40
1
41
-1.55153555909946
42
-0.000652027136662372
0
ELLIPSE
5
BC
100
AcDbEntity
8
1
62
256
6
ByLayer
370
18
48
1
60
0
100
AcDbEllipse
10
3.602103
20
1.589924
30
0
11
-0.1
21
1.22460635382238E-17
31
0
210
0
220
0
230
1
40
1
41
0.000652027136298219
42
0.805552301503547
0
POINT
5
70
100
AcDbEntity
8
80
62
256
6
ByLayer
370
18
48
1
60
0
100
AcDbPoint
10
0
20
0
30
0
39
0
210
0
220
0
230
1
50
360
0
POINT
5
72
100
AcDbEntity
8
81
62
256
6
ByLayer
370
18
48
1
60
0
100
AcDbPoint
10
30
20
0
30
0
39
0
210
0
220
0
230
1
50
360
0
POINT
5
74
100
AcDbEntity
8
1
62
256
6
ByLayer
370
18
48
1
60
0
100
AcDbPoint
10
-36
20
0
30
0
39
0
210
0
220
0
230
1
50
360
0
POINT
5
76
100
AcDbEntity
8
1
62
256
6
ByLayer
370
18
48
1
60
1
100
AcDbPoint
10
0
20
-3
30
0
39
0
210
0
220
0
230
1
50
360
0
POINT
5
77
100
AcDbEntity
8
1
62
256
6
ByLayer
370
18
48
1
60
1
100
AcDbPoint
10
30
20
0
30
0
39
0
210
0
220
0
230
1
50
360
0
POINT
5
78
100
AcDbEntity
8
1
62
256
6
ByLayer
370
18
48
1
60
1
100
AcDbPoint
10
29.4231
20
-1.585
30
0
39
0
210
0
220
0
230
1
50
360
0
POINT
5
79
100
AcDbEntity
8
1
62
256
6
ByLayer
370
18
48
1
60
1
100
AcDbPoint
10
29.4231
20
1.585
30
0
39
0
210
0
220
0
230
1
50
360
0
POINT
5
7A
100
AcDbEntity
8
1
62
256
6
ByLayer
370
18
48
1
60
1
100
AcDbPoint
10
-36
20
3
30
0
39
0
210
0
220
0
230
1
50
360
0
POINT
5
7B
100
AcDbEntity
8
1
62
256
6
ByLayer
370
18
48
1
60
1
100
AcDbPoint
10
-36
20
-3
30
0
39
0
210
0
220
0
230
1
50
360
0
POINT
5
7C
100
AcDbEntity
8
1
62
256
6
ByLayer
370
18
48
1
60
1
100
AcDbPoint
10
-36
20
-3
30
0
39
0
210
0
220
0
230
1
50
360
0
POINT
5
7D
100
AcDbEntity
8
1
62
256
6
ByLayer
370
18
48
1
60
1
100
AcDbPoint
10
0
20
-3
30
0
39
0
210
0
220
0
230
1
50
360
0
POINT
5
7E
100
AcDbEntity
8
1
62
256
6
ByLayer
370
18
48
1
60
1
100
AcDbPoint
10
2
20
2.085
30
0
39
0
210
0
220
0
230
1
50
360
0
POINT
5
7F
100
AcDbEntity
8
1
62
256
6
ByLayer
370
18
48
1
60
1
100
AcDbPoint
10
30
20
0
30
0
39
0
210
0
220
0
230
1
50
360
0
POINT
5
80
100
AcDbEntity
8
1
62
256
6
ByLayer
370
18
48
1
60
1
100
AcDbPoint
10
13.6
20
-1.585
30
0
39
0
210
0
220
0
230
1
50
360
0
POINT
5
81
100
AcDbEntity
8
1
62
256
6
ByLayer
370
18
48
1
60
1
100
AcDbPoint
10
30
20
0
30
0
39
0
210
0
220
0
230
1
50
360
0
POINT
5
82
100
AcDbEntity
8
1
62
256
6
ByLayer
370
18
48
1
60
1
100
AcDbPoint
10
-36
20
0
30
0
39
0
210
0
220
0
230
1
50
360
0
POINT
5
83
100
AcDbEntity
8
1
62
256
6
ByLayer
370
18
48
1
60
1
100
AcDbPoint
10
30
20
0
30
0
39
0
210
0
220
0
230
1
50
360
0
SPLINE
5
BD
100
AcDbEntity
8
SK1
62
256
6
ByLayer
370
18
48
1
60
0
100
AcDbSpline
70
4
71
3
72
8
73
4
40
0
40
0
40
0
40
0
40
1
40
1
40
1
40
1
41
1
10
-35.8509618943233
20
0.559894542819478
30
0
41
1
10
-35.817360234391
20
0.556687347088939
30
0
41
1
10
-35.7837027637632
20
0.553484269079974
30
0
41
1
10
-35.7499999999999
20
0.55028506588738
30
0
0
SPLINE
5
BE
100
AcDbEntity
8
SK1
62
256
6
ByLayer
370
18
48
1
60
0
100
AcDbSpline
70
4
71
3
72
12
73
8
40
0
40
0
40
0
40
0
40
0.25
40
0.25
40
0.5
40
0.5
40
1
40
1
40
1
40
1
41
1
10
-35.65
20
0.856248071979962
30
-1E-16
41
1
10
-35.65
20
0.872684023181392
30
-1E-16
41
1
10
-35.6543403470552
20
0.88724838553847
30
-1E-16
41
1
10
-35.6670034572333
20
0.910441633543087
30
-1E-16
41
1
10
-35.6754069618006
20
0.919519580582033
30
-1E-16
41
1
10
-35.7033744297257
20
0.940187114459178
30
-1E-16
41
1
10
-35.7260009806424
20
0.945932148071677
30
-1E-16
41
1
10
-35.7500000000001
20
0.943654063701871
30
-1E-16
0
SPLINE
5
BF
100
AcDbEntity
8
SK1
62
256
6
ByLayer
370
18
48
1
60
0
100
AcDbSpline
70
4
71
3
72
10
73
6
40
0
40
0
40
0
40
0
40
0.5
40
0.5
40
1
40
1
40
1
40
1
41
1
10
-35.8509618943233
20
-0.559894542819478
30
0
41
1
10
-35.8741904300927
20
-0.603482927292248
30
0
41
1
10
-35.8986222732874
20
-0.645035963670182
30
0
41
1
10
-35.9485161922248
20
-0.723303836613752
30
0
41
1
10
-35.974056478015
20
-0.76017897551273
30
0
41
1
10
-35.9999999999999
20
-0.795133574507815
30
0
0
SPLINE
5
C0
100
AcDbEntity
8
SK1
62
256
6
ByLayer
370
18
48
1
60
0
100
AcDbSpline
70
4
71
3
72
8
73
4
40
0
40
0
40
0
40
0
40
1
40
1
40
1
40
1
41
1
10
-36.0000000000001
20
1.12321974667773
30
-1E-16
41
1
10
-35.9478735570756
20
1.06946607716679
30
-1E-16
41
1
10
-35.897619057052
20
1.00746443974879
30
-1E-16
41
1
10
-35.8509618943233
20
0.934044586769659
30
-1E-16
0
SPLINE
5
C1
100
AcDbEntity
8
SK1
62
256
6
ByLayer
370
18
48
1
60
0
100
AcDbSpline
70
4
71
3
72
12
73
8
40
0
40
0
40
0
40
0
40
0.500000000000002
40
0.500000000000002
40
0.750000000000001
40
0.750000000000001
40
1
40
1
40
1
40
1
41
1
10
-35.75
20
0.550285065887493
30
0
41
1
10
-35.7259913046562
20
0.548006063033796
30
0
41
1
10
-35.7033433879313
20
0.537423073352727
30
0
41
1
10
-35.6754686754417
20
0.510206476784361
30
0
41
1
10
-35.667025596347
20
0.498946700201202
30
0
41
1
10
-35.6543350076412
20
0.471966487245538
30
0
41
1
10
-35.65
20
0.455759164956731
30
0
41
1
10
-35.65
20
0.438499173663956
30
0
0
SPLINE
5
C2
100
AcDbEntity
8
SK1
62
256
6
ByLayer
370
18
48
1
60
0
100
AcDbSpline
70
4
71
3
72
8
73
4
40
0
40
0
40
0
40
0
40
1
40
1
40
1
40
1
41
1
10
-35.75
20
0.943654063701757
30
-1E-16
41
1
10
-35.783702442968
20
0.940454890960353
30
-1E-16
41
1
10
-35.8173587477538
20
0.937251924396065
30
-1E-16
41
1
10
-35.8509618943233
20
0.934044586769659
30
-1E-16
0
SPLINE
5
C3
100
AcDbEntity
8
SK1
62
256
6
ByLayer
370
18
48
1
60
0
100
AcDbSpline
70
4
71
3
72
10
73
6
40
0
40
0
40
0
40
0
40
0.5
40
0.5
40
1
40
1
40
1
40
1
41
1
10
-35.8509618943233
20
0.559894542819478
30
0
41
1
10
-35.8741904300927
20
0.603482927292276
30
0
41
1
10
-35.8986222732874
20
0.645035963670182
30
0
41
1
10
-35.9485161922248
20
0.723303836613752
30
0
41
1
10
-35.974056478015
20
0.76017897551273
30
0
41
1
10
-35.9999999999999
20
0.795133574507815
30
0
0
SPLINE
5
C4
100
AcDbEntity
8
SK1
62
256
6
ByLayer
370
18
48
1
60
0
100
AcDbSpline
70
4
71
3
72
12
73
8
40
0
40
0
40
0
40
0
40
0.500000000000001
40
0.500000000000001
40
0.750000000000001
40
0.750000000000001
40
1
40
1
40
1
40
1
41
1
10
-35.75
20
-0.550285065887493
30
0
41
1
10
-35.7259913046562
20
-0.548006063033796
30
0
41
1
10
-35.7033433879313
20
-0.537423073352727
30
0
41
1
10
-35.6754686754417
20
-0.510206476784361
30
0
41
1
10
-35.667025596347
20
-0.498946700201202
30
0
41
1
10
-35.6543350076412
20
-0.47196648724551
30
0
41
1
10
-35.65
20
-0.455759164956731
30
0
41
1
10
-35.65
20
-0.438499173663956
30
0
0
SPLINE
5
C5
100
AcDbEntity
8
SK1
62
256
6
ByLayer
370
18
48
1
60
0
100
AcDbSpline
70
4
71
3
72
8
73
4
40
0
40
0
40
0
40
0
40
1
40
1
40
1
40
1
41
1
10
-35.8509618943233
20
-0.559894542819478
30
0
41
1
10
-35.817360234391
20
-0.556687347088911
30
0
41
1
10
-35.7837027637632
20
-0.553484269079974
30
0
41
1
10
-35.7499999999999
20
-0.55028506588738
30
0
0
SPLINE
5
C6
100
AcDbEntity
8
1
62
256
6
ByLayer
370
18
48
1
60
0
100
AcDbSpline
70
4
71
3
72
26
73
22
40
0
40
0
40
0
40
0
40
0.499679950292752
40
0.499679950292752
40
0.66797067382371
40
0.66797067382371
40
0.837346157906461
40
0.837346157906461
40
0.92196882586612
40
0.92196882586612
40
0.96429321374138
40
0.96429321374138
40
0.978291435484224
40
0.978291435484224
40
0.987602198795797
40
0.987602198795797
40
0.993821091164853
40
0.993821091164853
40
0.998110428858416
40
0.998110428858416
40
1
40
1
40
1
40
1
41
1
10
29.3109632753415
20
1.58433377094056
30
0
41
1
10
29.3358595417448
20
1.56817782114371
30
0
41
1
10
29.3608145374786
20
1.55175115138283
30
0
41
1
10
29.3942524683982
20
1.52944843837699
30
0
41
1
10
29.4026857858385
20
1.52379870985339
30
0
41
1
10
29.4196306492052
20
1.51239853043347
30
0
41
1
10
29.4281478866291
20
1.50664403945149
30
0
41
1
10
29.4409229783431
20
1.49797760836776
30
0
41
1
10
29.445177805791
20
1.49508529803558
30
0
41
1
10
29.451548506828
20
1.49074530510322
30
0
41
1
10
29.4536659502164
20
1.48930104703712
30
0
41
1
10
29.4564990012916
20
1.48736731251935
30
0
41
1
10
29.4572047914747
20
1.48688547436959
30
0
41
1
10
29.4583842289729
20
1.48608021711414
30
0
41
1
10
29.458857227599
20
1.4857572980014
30
0
41
1
10
29.4596451735394
20
1.48521921085421
30
0
41
1
10
29.4599600798927
20
1.48500409759882
30
0
41
1
10
29.4604827416232
20
1.48464658694405
30
0
41
1
10
29.4606938339116
20
1.48450206370811
30
0
41
1
10
29.4609870475676
20
1.48430085353686
30
0
41
1
10
29.4610752281508
20
1.4842402754613
30
0
41
1
10
29.4611607401259
20
1.48418142378509
30
0
0
SPLINE
5
C7
100
AcDbEntity
8
1
62
256
6
ByLayer
370
18
48
1
60
0
100
AcDbSpline
70
4
71
3
72
12
73
8
40
0
40
0
40
0
40
0
40
0.681160220582977
40
0.681160220582977
40
0.910572960545307
40
0.910572960545307
40
1
40
1
40
1
40
1
41
1
10
29.3109632753446
20
-1.58433377093854
30
0
41
1
10
29.3358595417485
20
-1.56817782114126
30
0
41
1
10
29.3608145374829
20
-1.55175115137999
30
0
41
1
10
29.3942524684135
20
-1.52944843836676
30
0
41
1
10
29.4026857858643
20
-1.52379870983614
30
0
41
1
10
29.4144230214105
20
-1.51590212263872
30
0
41
1
10
29.4177176739042
20
-1.51368190478354
30
0
41
1
10
29.4210140390541
20
-1.51145694076919
30
0
0
SPLINE
5
C8
100
AcDbEntity
8
1
62
256
6
ByLayer
370
18
48
1
60
0
100
AcDbSpline
70
4
71
3
72
52
73
48
40
0
40
0
40
0
40
0
40
0.0219838812109605
40
0.0219838812109605
40
0.0572137825627577
40
0.0572137825627577
40
0.127673585266352
40
0.127673585266352
40
0.162903486618149
40
0.162903486618149
40
0.198133387969946
40
0.198133387969946
40
0.268593190673542
40
0.268593190673542
40
0.303823092025339
40
0.303823092025339
40
0.339052993377136
40
0.339052993377136
40
0.40951279608073
40
0.40951279608073
40
0.479972598784325
40
0.479972598784325
40
0.515202500136122
40
0.515202500136122
40
0.550432401487919
40
0.550432401487919
40
0.585662302839716
40
0.585662302839716
40
0.620892204191513
40
0.620892204191513
40
0.65612210554331
40
0.65612210554331
40
0.691352006895107
40
0.691352006895107
40
0.726581908246905
40
0.726581908246905
40
0.761811809598702
40
0.761811809598702
40
0.832271612302297
40
0.832271612302297
40
0.867501513654095
40
0.867501513654095
40
0.902731415005893
40
0.902731415005893
40
0.973191217709489
40
0.973191217709489
40
1
40
1
40
1
40
1
41
1
10
27.4417865502432
20
-1.01790735545615
30
1E-16
41
1
10
27.35756938006
20
-1.05344976973936
30
1E-16
41
1
10
27.2735411491226
20
-1.08762906107842
30
1E-16
41
1
10
27.0552808592942
20
-1.17296013141771
30
1E-16
41
1
10
26.9214162578484
20
-1.22202226434587
30
1E-16
41
1
10
26.518786453512
20
-1.35563485556406
30
0
41
1
10
26.2493654689412
20
-1.42743387663433
30
0
41
1
10
25.842716851716
20
-1.50719893037814
30
0
41
1
10
25.7065941176224
20
-1.52873415076087
30
0
41
1
10
25.436082693962
20
-1.56096952352607
30
0
41
1
10
25.3012811538155
20
-1.57184531267478
30
0
41
1
10
24.8978187894248
20
-1.58891831143947
30
0
41
1
10
24.6305108648978
20
-1.57928024238376
30
0
41
1
10
24.2260292083351
20
-1.53391415739151
30
0
41
1
10
24.0908157996389
20
-1.5136442254626
30
0
41
1
10
23.8191742045634
20
-1.46271328808712
30
0
41
1
10
23.6832792050099
20
-1.43182638207151
30
0
41
1
10
23.2779048264196
20
-1.32635498745216
30
0
41
1
10
23.0089087989018
20
-1.23892763245576
30
0
41
1
10
22.4724422268234
20
-1.03133198086141
30
1E-16
41
1
10
22.2033855157594
20
-0.91301436336451
30
1E-16
41
1
10
21.7956033701889
20
-0.717785323115834
30
0
41
1
10
21.6594863565506
20
-0.649654358228617
30
0
41
1
10
21.3894284509982
20
-0.510194748560963
30
0
41
1
10
21.25479756303
20
-0.439036273638976
30
0
41
1
10
20.9857079697403
20
-0.295031405207993
30
0
41
1
10
20.8513724396081
20
-0.221962822693541
30
0
41
1
10
20.5826289502581
20
-0.0745897328077945
30
0
41
1
10
20.4485367483007
20
0.0003038900000831
30
0
41
1
10
20.1791319631385
20
0.149226178131329
30
0
41
1
10
20.0438240971238
20
0.223254451274386
30
0
41
1
10
19.7717998461019
20
0.370083031967425
30
0
41
1
10
19.6354549780906
20
0.442518805534547
30
0
41
1
10
19.3653182169655
20
0.583962351304763
30
0
41
1
10
19.2308955765495
20
0.65285688681854
30
0
41
1
10
18.9619727678967
20
0.784782938499461
30
0
41
1
10
18.8275567199212
20
0.847983933451189
30
-1E-16
41
1
10
18.4243176098068
20
1.02917442220038
30
-1E-16
41
1
10
18.1558957561388
20
1.13914411946979
30
-1E-16
41
1
10
17.7478267607589
20
1.27898795751241
30
0
41
1
10
17.6115170677593
20
1.32146472107155
30
0
41
1
10
17.340944669584
20
1.39684542009758
30
0
41
1
10
17.2065050770634
20
1.43012115048921
30
0
41
1
10
16.8034214050632
20
1.51481831377771
30
0
41
1
10
16.5346987187638
20
1.55130252418684
30
0
41
1
10
16.1625453475315
20
1.57347433216714
30
0
41
1
10
16.0598903403496
20
1.57657182519142
30
0
41
1
10
15.9567749542544
20
1.57657642438835
30
0
0
SPLINE
5
C9
100
AcDbEntity
8
1
62
256
6
ByLayer
370
18
48
1
60
0
100
AcDbSpline
70
4
71
3
72
32
73
28
40
0
40
0
40
0
40
0
40
0.0263584133000455
40
0.0263584133000455
40
0.0959042409214715
40
0.0959042409214715
40
0.165450068542897
40
0.165450068542897
40
0.234995896164323
40
0.234995896164323
40
0.304541723785749
40
0.304541723785749
40
0.443633379028602
40
0.443633379028602
40
0.513179206650026
40
0.513179206650026
40
0.582725034271451
40
0.582725034271451
40
0.652270861892876
40
0.652270861892876
40
0.721816689514301
40
0.721816689514301
40
0.860908344757151
40
0.860908344757151
40
0.930454172378576
40
0.930454172378576
40
1
40
1
40
1
40
1
41
1
10
9.12439619292047
20
-1.14459988298714
30
1E-16
41
1
10
9.07327797793573
20
-1.163767363007
30
0
41
1
10
9.02219695376272
20
-1.18235939047824
30
0
41
1
10
8.83646186696774
20
-1.24792069288804
30
0
41
1
10
8.70192151388761
20
-1.2913798075202
30
0
41
1
10
8.43329649470195
20
-1.37016224532167
30
0
41
1
10
8.29894690939574
20
-1.40517336305163
30
0
41
1
10
8.02895843433862
20
-1.4653881269796
30
0
41
1
10
7.89340949337713
20
-1.49070218732697
30
0
41
1
10
7.62106987092
20
-1.53147679032938
30
0
41
1
10
7.48486014955915
20
-1.54680889213412
30
0
41
1
10
7.07941310284511
20
-1.57678817007255
30
0
41
1
10
6.81046190964304
20
-1.57553564779667
30
0
41
1
10
6.40679904627788
20
-1.54299019293453
30
0
41
1
10
6.27250479156058
20
-1.52686250693157
30
0
41
1
10
6.00273044813841
20
-1.48448790065046
30
0
41
1
10
5.86723142354373
20
-1.45831673664546
30
0
41
1
10
5.59477962030405
20
-1.39607801026438
30
0
41
1
10
5.45832687674511
20
-1.36015438514298
30
0
41
1
10
5.18785645531597
20
-1.27938762524818
30
0
41
1
10
5.05330458731777
20
-1.23452302441467
30
0
41
1
10
4.64947674152671
20
-1.08927137083921
30
1E-16
41
1
10
4.3803453877824
20
-0.978187049069277
30
1E-16
41
1
10
3.97622626463721
20
-0.790332027630853
30
0
41
1
10
3.84130057196032
20
-0.724307483126807
30
0
41
1
10
3.56909734731246
20
-0.588633624603631
30
0
41
1
10
3.43221514497918
20
-0.518973491152423
30
0
41
1
10
3.29500761889091
20
-0.448711295888074
30
0
0
SPLINE
5
CA
100
AcDbEntity
8
1
62
256
6
ByLayer
370
18
48
1
60
0
100
AcDbSpline
70
4
71
3
72
14
73
10
40
0
40
0
40
0
40
0
40
0.267374675818776
40
0.267374675818776
40
0.49753865828755
40
0.49753865828755
40
0.774977340705637
40
0.774977340705637
40
1
40
1
40
1
40
1
41
1
10
29.2513183097043
20
-0.113857178115666
30
0
41
1
10
29.252033279163
20
-0.114119550418707
30
0
41
1
10
29.252735652515
20
-0.114764004287082
30
0
41
1
10
29.2539019173657
20
-0.116403274303508
30
0
41
1
10
29.2544013827819
20
-0.11735879998875
30
0
41
1
10
29.255354217417
20
-0.119737667502051
30
0
41
1
10
29.2557921237536
20
-0.121252430909721
30
0
41
1
10
29.2563588338036
20
-0.124192194612675
30
0
41
1
10
29.2565360360765
20
-0.125614332772017
30
0
41
1
10
29.2566050510546
20
-0.127047593406047
30
0
0
SPLINE
5
CB
100
AcDbEntity
8
1
62
256
6
ByLayer
370
18
48
1
60
0
100
AcDbSpline
70
4
71
3
72
60
73
56
40
0
40
0
40
0
40
0
40
0.0001687163850065
40
0.0001687163850065
40
0.0414930839445984
40
0.0414930839445984
40
0.0621552677243943
40
0.0621552677243943
40
0.0724863596142922
40
0.0724863596142922
40
0.0776519055592411
40
0.0802346785317156
40
0.0808803717748343
40
0.0808803717748343
40
0.0815260650179528
40
0.0815260650179528
40
0.0828174515041902
40
0.0828174515041902
40
0.0879829974491391
40
0.0879829974491391
40
0.093148543394088
40
0.093148543394088
40
0.103479635283986
40
0.103479635283986
40
0.124141819063782
40
0.124141819063782
40
0.165466186623374
40
0.165466186623374
40
0.248114921742558
40
0.248114921742558
40
0.413412391980926
40
0.413412391980926
40
0.49606112710011
40
0.49606112710011
40
0.516723310879906
40
0.516723310879906
40
0.521888856824855
40
0.521888856824855
40
0.524471629797329
40
0.524471629797329
40
0.527054402769804
40
0.527054402769804
40
0.527700096012923
40
0.527700096012923
40
0.528345789256041
40
0.528345789256041
40
0.529637175742278
40
0.529637175742278
40
0.532219948714753
40
0.537385494659703
40
0.578709862219301
40
0.578709862219301
40
0.909304802696082
40
0.909304802696082
40
1
40
1
40
1
40
1
41
1
10
4.03814700517648
20
1.29626859834335
30
0
41
1
10
4.03812161629668
20
1.29604379363062
30
0
41
1
10
4.03809610134599
20
1.29581894138477
30
0
41
1
10
4.03179020231428
20
1.24050839533476
30
0
41
1
10
4.01879120208935
20
1.18182439077577
30
0
41
1
10
3.98841343839118
20
1.08962223764323
30
0
41
1
10
3.97709917814291
20
1.05801437079535
30
0
41
1
10
3.95620604629801
20
1.01032293705231
30
0
41
1
10
3.94863020406416
20
0.994340697335844
30
1E-16
41
1
10
3.93649424707479
20
0.970275256326914
30
1E-16
41
1
10
3.93023241243054
20
0.95821743473789
30
0
41
1
10
3.92315801376208
20
0.945110341000486
30
0
41
1
10
3.92039229737452
20
0.940061562792522
30
0
41
1
10
3.91928246198577
20
0.938041433384171
30
0
41
1
10
3.91848410004883
20
0.937084851351131
30
0
41
1
10
3.91874546240152
20
0.933369434213859
30
0
41
1
10
3.92117022601028
20
0.931030691680263
30
0
41
1
10
3.93118405724502
20
0.920446201969952
30
0
41
1
10
3.94058956488672
20
0.913092884185062
30
0
41
1
10
3.95895213393834
20
0.8981599164307
30
0
41
1
10
3.96825287362867
20
0.890829400386025
30
0
41
1
10
3.99628445059088
20
0.868984456987192
30
0
41
1
10
4.01515590946238
20
0.854629485879968
30
0
41
1
10
4.07195839920101
20
0.811775225695385
30
0
41
1
10
4.11008878286532
20
0.783517220606598
30
0
41
1
10
4.22472328259337
20
0.699055039148845
30
0
41
1
10
4.30153004478265
20
0.643214526052816
30
0
41
1
10
4.53204456850972
20
0.475748731428467
30
0
41
1
10
4.68580589766754
20
0.364145484903077
30
0
41
1
10
5.14661272347186
20
0.0286165509713214
30
0
41
1
10
5.45331935248598
20
-0.19591665427987
30
0
41
1
10
5.9139968301769
20
-0.532107602379398
30
0
41
1
10
6.06806758859284
20
-0.643552165837463
30
0
41
1
10
6.25836172813913
20
-0.785899725740137
30
0
41
1
10
6.2963479462336
20
-0.814473935520425
30
0
41
1
10
6.34303896865433
20
-0.851169760186934
30
0
41
1
10
6.35233730194309
20
-0.858564013442958
30
0
41
1
10
6.3660950991667
20
-0.869871135391548
30
0
41
1
10
6.37065027235212
20
-0.87367407262488
30
0
41
1
10
6.37960189067292
20
-0.881455038267717
30
0
41
1
10
6.38413591421687
20
-0.885321850161915
30
0
41
1
10
6.38896643451918
20
-0.890842911047031
30
0
41
1
10
6.39001318069563
20
-0.891996807483821
30
0
41
1
10
6.39088687085558
20
-0.894695864448153
30
0
41
1
10
6.38912849904301
20
-0.895174466741395
30
0
41
1
10
6.38487454720976
20
-0.894970171839503
30
0
41
1
10
6.38200004366934
20
-0.89455749254077
30
0
41
1
10
6.37342968983893
20
-0.893679865394603
30
0
41
1
10
6.35629003738327
20
-0.891920888126464
30
0
41
1
10
6.24775900387669
20
-0.88070993709735
30
0
41
1
10
6.14505339580649
20
-0.869686292375832
30
0
41
1
10
5.32425312692354
20
-0.778617223433059
30
0
41
1
10
4.60080794811523
20
-0.677159742495292
30
0
41
1
10
3.68707774042116
20
-0.520811143216378
30
0
41
1
10
3.490806238387
20
-0.485550809951491
30
0
41
1
10
3.29498308428941
20
-0.448706679711051
30
0
0
SPLINE
5
CC
100
AcDbEntity
8
1
62
256
6
ByLayer
370
18
48
1
60
0
100
AcDbSpline
70
4
71
3
72
50
73
46
40
0
40
0
40
0
40
0
40
0.031392974361476
40
0.031392974361476
40
0.0722160882359701
40
0.0722160882359701
40
0.113039202110464
40
0.113039202110464
40
0.153862315984958
40
0.153862315984958
40
0.194685429859452
40
0.194685429859452
40
0.235508543733946
40
0.235508543733946
40
0.27633165760844
40
0.27633165760844
40
0.317154771482935
40
0.317154771482935
40
0.357977885357429
40
0.357977885357429
40
0.398800999231923
40
0.398800999231923
40
0.439624113106417
40
0.439624113106417
40
0.521270340855407
40
0.521270340855407
40
0.562093454729901
40
0.562093454729901
40
0.602916568604396
40
0.602916568604396
40
0.684562796353386
40
0.684562796353386
40
0.725385910227881
40
0.725385910227881
40
0.766209024102376
40
0.766209024102376
40
0.807032137976871
40
0.807032137976871
40
0.847855251851366
40
0.847855251851366
40
0.929501479600357
40
0.929501479600357
40
0.970324593474853
40
0.970324593474853
40
1
40
1
40
1
40
1
41
1
10
5.74427001232462
20
1.51110875263561
30
0
41
1
10
5.84699860217165
20
1.52648754116632
30
0
41
1
10
5.94942345390592
20
1.5389096347244
30
0
41
1
10
6.1848345234732
20
1.5605841946213
30
0
41
1
10
6.31773315627197
20
1.56780583452121
30
0
41
1
10
6.58331823446196
20
1.5721707919887
30
0
41
1
10
6.71602582804832
20
1.56927137099993
30
0
41
1
10
6.9823809541351
20
1.55333278117351
30
0
41
1
10
7.11601070924257
20
1.54033746942866
30
0
41
1
10
7.38422767383958
20
1.50407235208166
30
0
41
1
10
7.51875636038761
20
1.4807240433895
30
0
41
1
10
7.7860114317092
20
1.42504098688366
30
0
41
1
10
7.91922041492683
20
1.39268285324869
30
0
41
1
10
8.18486915891515
20
1.31912946589574
30
0
41
1
10
8.31731727113925
20
1.27790541794332
30
0
41
1
10
8.58257029809073
20
1.18777020951239
30
-1E-16
41
1
10
8.71536711151214
20
1.13888592252988
30
-1E-16
41
1
10
8.98135913521739
20
1.03348063644984
30
-1E-16
41
1
10
9.11456190634061
20
0.97693312339635
30
-1E-16
41
1
10
9.38249518140148
20
0.857601892354154
30
-1E-16
41
1
10
9.51736620398532
20
0.794740201001957
30
0
41
1
10
9.78474309895861
20
0.664816612032809
30
0
41
1
10
9.9177509935426
20
0.597550325247397
30
0
41
1
10
10.3162815904096
20
0.391590965398961
30
0
41
1
10
10.5808672859436
20
0.24796683628864
30
0
41
1
10
10.979640449506
20
0.0295006634353854
30
0
41
1
10
11.1129604970786
20
-0.0436723118058069
30
0
41
1
10
11.3806394600796
20
-0.190296490786665
30
0
41
1
10
11.515339035922
20
-0.263895991028164
30
0
41
1
10
11.9166430045003
20
-0.479242438105473
30
0
41
1
10
12.1815034823678
20
-0.617656554279904
30
0
41
1
10
12.5795236576256
20
-0.809692922944521
30
0
41
1
10
12.7121939554783
20
-0.871338047326418
30
1E-16
41
1
10
12.9776749654581
20
-0.98955121879672
30
1E-16
41
1
10
13.1106530760563
20
-1.04584282953368
30
1E-16
41
1
10
13.3783185555668
20
-1.15099054184469
30
1E-16
41
1
10
13.513165948949
20
-1.20039666054171
30
1E-16
41
1
10
13.7807164259254
20
-1.29073433504462
30
0
41
1
10
13.9138144133261
20
-1.33165639718393
30
0
41
1
10
14.3125783631766
20
-1.44050434641457
30
0
41
1
10
14.5768879167328
20
-1.49524819578949
30
0
41
1
10
14.9753944899844
20
-1.54774978591868
30
0
41
1
10
15.1084720606835
20
-1.56039087135835
30
0
41
1
10
15.3390674009541
20
-1.57346644751152
30
0
41
1
10
15.4367222689917
20
-1.57625448103306
30
0
41
1
10
15.5342815740444
20
-1.5763111837056
30
0
0
SPLINE
5
CD
100
AcDbEntity
8
1
62
256
6
ByLayer
370
18
48
1
60
0
100
AcDbSpline
70
4
71
3
72
22
73
18
40
0
40
0
40
0
40
0
40
0.139723209190347
40
0.139723209190347
40
0.283102674325285
40
0.283102674325285
40
0.354792406892755
40
0.354792406892755
40
0.426482139460225
40
0.426482139460225
40
0.569861604595169
40
0.569861604595169
40
0.713241069730113
40
0.713241069730113
40
0.856620534865057
40
0.856620534865057
40
1
40
1
40
1
40
1
41
1
10
23.6506176464814
20
1.5065071364113
30
0
41
1
10
23.9120611858274
20
1.55050626379097
30
0
41
1
10
24.170008957868
20
1.57542613522409
30
0
41
1
10
24.6936240188538
20
1.58633285684124
30
0
41
1
10
24.9585736033154
20
1.5718323201383
30
0
41
1
10
25.3576659230534
20
1.51948251808884
30
0
41
1
10
25.4910582259142
20
1.49685810330641
30
0
41
1
10
25.7594096424954
20
1.44174463735774
30
0
41
1
10
25.8929635823968
20
1.40958374320951
30
0
41
1
10
26.2922898112336
20
1.30017890996612
30
0
41
1
10
26.556834371828
20
1.21010846990231
30
-1E-16
41
1
10
27.086699730716
20
1.00068538103619
30
-1E-16
41
1
10
27.3520885031461
20
0.881362795049512
30
-1E-16
41
1
10
27.88896650281
20
0.620107181605789
30
0
41
1
10
28.1550488422991
20
0.480814354745945
30
0
41
1
10
28.6859713454975
20
0.194090815236791
30
0
41
1
10
28.950808806606
20
0.0461578051019274
30
0
41
1
10
29.2180452895405
20
-0.100804196170714
30
0
0
SPLINE
5
CE
100
AcDbEntity
8
1
62
256
6
ByLayer
370
18
48
1
60
0
100
AcDbSpline
70
4
71
3
72
34
73
30
40
0
40
0
40
0
40
0
40
0.0444084579129142
40
0.0444084579129142
40
0.150585295922588
40
0.150585295922588
40
0.203673714927424
40
0.203673714927424
40
0.256762133932261
40
0.256762133932261
40
0.362938971941936
40
0.362938971941936
40
0.416027390946774
40
0.416027390946774
40
0.469115809951612
40
0.469115809951612
40
0.575292647961289
40
0.575292647961289
40
0.628381066966128
40
0.628381066966128
40
0.681469485970967
40
0.681469485970967
40
0.787646323980646
40
0.787646323980646
40
0.840734742985485
40
0.840734742985485
40
0.893823161990325
40
0.893823161990325
40
1
40
1
40
1
40
1
41
1
10
20.3956256503143
20
1.57935124601266
30
0
41
1
10
20.5276144739656
20
1.57924748546014
30
0
41
1
10
20.6591942281712
20
1.57411253009468
30
0
41
1
10
21.1049850359059
20
1.53998929999861
30
0
41
1
10
21.4186041850127
20
1.48775136594855
30
0
41
1
10
21.8937241688531
20
1.36921388384974
30
0
41
1
10
22.0534377344045
20
1.32280609113815
30
0
41
1
10
22.3702166708827
20
1.21909895553654
30
-1E-16
41
1
10
22.5278229839138
20
1.16171148894787
30
-1E-16
41
1
10
22.9996968390062
20
0.974992186165025
30
-1E-16
41
1
10
23.3130154083049
20
0.831087091389691
30
-1E-16
41
1
10
23.7868927557474
20
0.594487540830841
30
0
41
1
10
23.9461529988528
20
0.5118247921408
30
0
41
1
10
24.2637993416457
20
0.342981434965992
30
0
41
1
10
24.4216859857933
20
0.257112020314764
30
0
41
1
10
24.8940102252973
20
-0.0021150559883552
30
0
41
1
10
25.2070356848814
20
-0.177231616198441
30
0
41
1
10
25.6798746784792
20
-0.432109571075927
30
0
41
1
10
25.8380481210566
20
-0.515751036478065
30
0
41
1
10
26.1564796261359
20
-0.678620031054123
30
0
41
1
10
26.3149290072673
20
-0.756933247498893
30
0
41
1
10
26.7879787964219
20
-0.979600666473459
30
1E-16
41
1
10
27.1009792000213
20
-1.11192317252568
30
1E-16
41
1
10
27.5729742720202
20
-1.27798874344626
30
0
41
1
10
27.7307139824571
20
-1.32795627087995
30
0
41
1
10
28.0480167833019
20
-1.41578808481563
30
0
41
1
10
28.2074738659242
20
-1.45356333419107
30
0
41
1
10
28.6819005975513
20
-1.54560668565074
30
0
41
1
10
28.9957036877137
20
-1.57935803846888
30
0
41
1
10
29.3109632753444
20
-1.58433377094821
30
0
0
SPLINE
5
CF
100
AcDbEntity
8
1
62
256
6
ByLayer
370
18
48
1
60
0
100
AcDbSpline
70
4
71
3
72
8
73
4
40
0
40
0
40
0
40
0
40
1
40
1
40
1
40
1
41
1
10
29.8567454394915
20
0.518862880282313
30
0
41
1
10
29.9049608375238
20
0.383857589564002
30
0
41
1
10
29.9519492671359
20
0.248412268226332
30
0
41
1
10
29.9976929801992
20
0.11252055121551
30
0
0
SPLINE
5
D0
100
AcDbEntity
8
1
62
256
6
ByLayer
370
18
48
1
60
0
100
AcDbSpline
70
4
71
3
72
24
73
20
40
0
40
0
40
0
40
0
40
0.18957201429524
40
0.18957201429524
40
0.284358021442859
40
0.284358021442859
40
0.379144028590479
40
0.379144028590479
40
0.473930035738099
40
0.473930035738099
40
0.568716042885719
40
0.568716042885719
40
0.758288057180966
40
0.758288057180966
40
0.853074064328588
40
0.853074064328588
40
0.94786007147621
40
0.94786007147621
40
1
40
1
40
1
40
1
41
1
10
29.2124285826265
20
0.125815126894281
30
0
41
1
10
28.9439430483704
20
0.274868909891524
30
0
41
1
10
28.6757922039992
20
0.420323539367672
30
0
41
1
10
28.2717388214601
20
0.629013049399788
30
0
41
1
10
28.1369882215265
20
0.697396312090973
30
0
41
1
10
27.8659343569229
20
0.829280217139456
30
-1E-16
41
1
10
27.7295691883024
20
0.892608746055942
30
-1E-16
41
1
10
27.4588884147057
20
1.01175623483652
30
-1E-16
41
1
10
27.3240723334895
20
1.06787338288825
30
-1E-16
41
1
10
27.0552808592942
20
1.17296013141774
30
-1E-16
41
1
10
26.9214162578484
20
1.22202226434587
30
-1E-16
41
1
10
26.5187864535121
20
1.35563485556406
30
0
41
1
10
26.2493654689412
20
1.42743387663435
30
0
41
1
10
25.8427168517159
20
1.50719893037814
30
0
41
1
10
25.7065941176224
20
1.52873415076087
30
0
41
1
10
25.4360826939621
20
1.56096952352607
30
0
41
1
10
25.3012811538155
20
1.57184531267478
30
0
41
1
10
25.0928147807006
20
1.58066681982092
30
0
41
1
10
25.0189619650065
20
1.58220721969943
30
0
41
1
10
24.9451517470866
20
1.58216612726062
30
0
0
SPLINE
5
D1
100
AcDbEntity
8
1
62
256
6
ByLayer
370
18
48
1
60
0
100
AcDbSpline
70
4
71
3
72
58
73
54
40
0
40
0
40
0
40
0
40
0.051140711249478
40
0.051140711249478
40
0.0863397918015304
40
0.0863397918015304
40
0.121538872353583
40
0.121538872353583
40
0.191937033457689
40
0.191937033457689
40
0.227136114009743
40
0.227136114009743
40
0.262335194561797
40
0.262335194561797
40
0.297534275113851
40
0.297534275113851
40
0.332733355665905
40
0.332733355665905
40
0.367932436217958
40
0.367932436217958
40
0.403131516770012
40
0.403131516770012
40
0.438330597322066
40
0.438330597322066
40
0.47352967787412
40
0.47352967787412
40
0.508728758426173
40
0.508728758426173
40
0.543927838978227
40
0.543927838978227
40
0.579126919530281
40
0.579126919530281
40
0.614326000082335
40
0.614326000082335
40
0.649525080634388
40
0.649525080634388
40
0.684724161186442
40
0.684724161186442
40
0.755122322290549
40
0.755122322290549
40
0.790321402842602
40
0.790321402842602
40
0.825520483394655
40
0.825520483394655
40
0.860719563946709
40
0.860719563946709
40
0.895918644498762
40
0.895918644498762
40
0.931117725050815
40
0.931117725050815
40
0.966316805602868
40
0.966316805602868
40
1
40
1
40
1
40
1
41
1
10
18.4725394729122
20
-1.00495927267102
30
1E-16
41
1
10
18.2771925687678
20
-1.08808625917848
30
1E-16
41
1
10
18.0814774466024
20
-1.164647017617
30
1E-16
41
1
10
17.7478267607589
20
-1.27898795751241
30
0
41
1
10
17.6115170677593
20
-1.32146472107155
30
0
41
1
10
17.340944669584
20
-1.39684542009758
30
0
41
1
10
17.2065050770634
20
-1.43012115048921
30
0
41
1
10
16.8034214050632
20
-1.51481831377771
30
0
41
1
10
16.5346987187638
20
-1.55130252418684
30
0
41
1
10
16.1303258200407
20
-1.57539387725782
30
0
41
1
10
15.9953905389803
20
-1.57822044768878
30
0
41
1
10
15.7235211114403
20
-1.57310508604368
30
0
41
1
10
15.5871375714959
20
-1.56520129542926
30
0
41
1
10
15.3164675662037
20
-1.53915530773699
30
0
41
1
10
15.1816722778671
20
-1.52102626084002
30
0
41
1
10
14.9130533937368
20
-1.47455784535413
30
0
41
1
10
14.7788704817405
20
-1.44639957686346
30
0
41
1
10
14.5099642327474
20
-1.38101286495041
30
0
41
1
10
14.3753446741804
20
-1.34371874679027
30
0
41
1
10
14.1054689334712
20
-1.26011339834054
30
0
41
1
10
13.9703771968796
20
-1.21359194340789
30
1E-16
41
1
10
13.6986732574945
20
-1.11215346631707
30
1E-16
41
1
10
13.5623986704447
20
-1.05758757871337
30
1E-16
41
1
10
13.2916345043556
20
-0.942824850480719
30
1E-16
41
1
10
13.1567591971819
20
-0.882369027358266
30
1E-16
41
1
10
12.8876831528587
20
-0.755867347774085
30
0
41
1
10
12.7537002584493
20
-0.68944557913747
30
0
41
1
10
12.484988425415
20
-0.553317708108438
30
0
41
1
10
12.3503255911291
20
-0.483532359679742
30
0
41
1
10
12.0803161522021
20
-0.340649723750204
30
0
41
1
10
11.9448822539927
20
-0.267715554638471
30
0
41
1
10
11.6732142024119
20
-0.118534697973985
30
0
41
1
10
11.5371156716621
20
-0.0432234940393244
30
0
41
1
10
11.2664356791649
20
0.105311160020619
30
0
41
1
10
11.1315012331345
20
0.178964962886482
30
0
41
1
10
10.8622371998472
20
0.324707545047545
30
0
41
1
10
10.7279977806124
20
0.396954699423588
30
0
41
1
10
10.3251279267133
20
0.609361553896946
30
0
41
1
10
10.0554364745778
20
0.743630015222095
30
0
41
1
10
9.64712747089538
20
0.930275041600822
30
-1E-16
41
1
10
9.51120105686468
20
0.990174192035596
30
-1E-16
41
1
10
9.24075692154312
20
1.10130396076298
30
-1E-16
41
1
10
9.10583682276499
20
1.15283595018596
30
-1E-16
41
1
10
8.83646186696774
20
1.24792069288804
30
0
41
1
10
8.70192151388767
20
1.2913798075202
30
0
41
1
10
8.43329649470198
20
1.37016224532167
30
0
41
1
10
8.29894690939574
20
1.40517336305163
30
0
41
1
10
8.02895843433862
20
1.4653881269796
30
0
41
1
10
7.89340949337713
20
1.49070218732697
30
0
41
1
10
7.62106987092
20
1.53147679032938
30
0
41
1
10
7.48486014955918
20
1.54680889213412
30
0
41
1
10
7.22038245571915
20
1.56636471417406
30
0
41
1
10
7.09136210991596
20
1.57106525274915
30
0
41
1
10
6.96248533068388
20
1.57099060036015
30
0
0
SPLINE
5
D2
100
AcDbEntity
8
1
62
256
6
ByLayer
370
18
48
1
60
0
100
AcDbSpline
70
2053
71
3
72
36
73
32
40
0
40
0
40
0
40
0
40
0.124999999999999
40
0.124999999999999
40
0.187499999999998
40
0.187499999999998
40
0.249999999999998
40
0.249999999999998
40
0.312499999999997
40
0.312499999999997
40
0.343749999999997
40
0.343749999999997
40
0.374999999999997
40
0.374999999999997
40
0.437499999999998
40
0.437499999999998
40
0.499999999999998
40
0.499999999999998
40
0.624999999999999
40
0.624999999999999
40
0.687499999999999
40
0.687499999999999
40
0.749999999999999
40
0.749999999999999
40
0.812499999999999
40
0.812499999999999
40
0.875
40
0.875
40
0.9375
40
0.9375
40
1
40
1
40
1
40
1
41
1
10
29.5976623682548
20
-0.704137996853206
30
0
41
1
10
29.5713869191549
20
-0.739623805810595
30
0
41
1
10
29.5480114006629
20
-0.754624298250263
30
0
41
1
10
29.5193946159254
20
-0.742782429138657
30
0
41
1
10
29.5112605011792
20
-0.733335093396619
30
0
41
1
10
29.497392786859
20
-0.702719449515939
30
0
41
1
10
29.492023742221
20
-0.682384267133813
30
0
41
1
10
29.4847390224971
20
-0.630927950589353
30
0
41
1
10
29.4830484084664
20
-0.60110722888831
30
0
41
1
10
29.4843777352569
20
-0.551755777602494
30
0
41
1
10
29.4854623891408
20
-0.534989488999884
30
0
41
1
10
29.4890884354774
20
-0.500819106994186
30
0
41
1
10
29.491673732946
20
-0.483308843676639
30
0
41
1
10
29.5014822357901
20
-0.432896326976959
30
0
41
1
10
29.5110436576245
20
-0.400860020804401
30
0
41
1
10
29.5343425260421
20
-0.346764152420889
30
0
41
1
10
29.5479425600311
20
-0.324756003613487
30
0
41
1
10
29.5904761892543
20
-0.275594263261212
30
0
41
1
10
29.6212285569008
20
-0.264491540279124
30
0
41
1
10
29.6593274826363
20
-0.277119122895726
30
0
41
1
10
29.6708989842873
20
-0.286333960432984
30
0
41
1
10
29.6893510804655
20
-0.315115632469656
30
0
41
1
10
29.6962950078454
20
-0.334952115005535
30
0
41
1
10
29.7028830499195
20
-0.384405096737083
30
0
41
1
10
29.7024514977537
20
-0.414411474611001
30
0
41
1
10
29.6935230094886
20
-0.47925562389554
30
0
41
1
10
29.6850249381414
20
-0.514103579836245
30
0
41
1
10
29.6636282238073
20
-0.579575223611414
30
0
41
1
10
29.6507967327455
20
-0.610412516697579
30
0
41
1
10
29.6244143392855
20
-0.663716204660091
30
0
41
1
10
29.6108000928048
20
-0.686395092374511
30
0
41
1
10
29.5976623682548
20
-0.704137996853206
30
0
0
SPLINE
5
D3
100
AcDbEntity
8
1
62
256
6
ByLayer
370
18
48
1
60
0
100
AcDbSpline
70
4
71
3
72
18
73
14
40
0
40
0
40
0
40
0
40
0.162943441083937
40
0.162943441083937
40
0.325886882167874
40
0.325886882167874
40
0.651773764335748
40
0.651773764335748
40
0.814717205419685
40
0.814717205419685
40
0.977660646503623
40
0.977660646503623
40
1
40
1
40
1
40
1
41
1
10
3.60281557104219
20
-0.794821092598852
30
0
41
1
10
3.60280524791821
20
-0.86274186904464
30
1E-16
41
1
10
3.60279284541593
20
-0.927299086119291
30
1E-16
41
1
10
3.60276528528365
20
-1.04674158841468
30
1E-16
41
1
10
3.60275015246975
20
-1.10169912217378
30
1E-16
41
1
10
3.60270127801695
20
-1.25252251262859
30
0
41
1
10
3.60266371274304
20
-1.33484154991652
30
0
41
1
10
3.60260274416453
20
-1.4203279459594
30
0
41
1
10
3.60258171859346
20
-1.4425721803288
30
0
41
1
10
3.60253748880132
20
-1.47484394845961
30
0
41
1
10
3.60251413220755
20
-1.48488881066777
30
0
41
1
10
3.60248603687282
20
-1.48893851768654
30
0
41
1
10
3.60248263064622
20
-1.48930775111975
30
0
41
1
10
3.60247920400764
20
-1.48955787513273
30
0
0
SPLINE
5
D4
100
AcDbEntity
8
1
62
256
6
ByLayer
370
18
48
1
60
0
100
AcDbSpline
70
4
71
3
72
20
73
16
40
0
40
0
40
0
40
0
40
0.249999999999998
40
0.249999999999998
40
0.374999999999999
40
0.374999999999999
40
0.499999999999999
40
0.499999999999999
40
0.624999999999999
40
0.624999999999999
40
0.75
40
0.75
40
0.875
40
0.875
40
1
40
1
40
1
40
1
41
1
10
29.2566050510546
20
-0.127047593406047
30
0
41
1
10
29.2640241929506
20
-0.281123770910227
30
0
41
1
10
29.2803263803431
20
-0.428689796530591
30
0
41
1
10
29.307412252454
20
-0.641453447875392
30
0
41
1
10
29.316831434375
20
-0.710048048534276
30
0
41
1
10
29.334925286374
20
-0.840197394628973
30
1E-16
41
1
10
29.3436586655859
20
-0.902180859028391
30
1E-16
41
1
10
29.3598372243478
20
-1.01989068959173
30
1E-16
41
1
10
29.367269424509
20
-1.07557864448148
30
1E-16
41
1
10
29.3802474192892
20
-1.1768034328806
30
0
41
1
10
29.3858696052221
20
-1.2228812845018
30
0
41
1
10
29.3958941279166
20
-1.30588199306288
30
0
41
1
10
29.4003261854962
20
-1.34302622418164
30
0
41
1
10
29.4087578105357
20
-1.40562545667032
30
0
41
1
10
29.4127882387431
20
-1.43134659673902
30
0
41
1
10
29.4173875494406
20
-1.45157927784996
30
0
0
SPLINE
5
D5
100
AcDbEntity
8
1
62
256
6
ByLayer
370
18
48
1
60
0
100
AcDbSpline
70
4
71
3
72
24
73
20
40
0
40
0
40
0
40
0
40
0.0759676430104118
40
0.0759676430104118
40
0.151935286020824
40
0.151935286020824
40
0.227902929031235
40
0.227902929031235
40
0.303870572041647
40
0.303870572041647
40
0.455805858062473
40
0.455805858062473
40
0.6077411440833
40
0.6077411440833
40
0.911611716124952
40
0.911611716124952
40
0.987579359135364
40
0.987579359135364
40
1
40
1
40
1
40
1
41
1
10
14.15
20
0.898125521707328
30
-1E-16
41
1
10
14.3093702392463
20
0.826181380037696
30
-1E-16
41
1
10
14.4689320058082
20
0.749944235916928
30
0
41
1
10
14.7864432492169
20
0.592044502143096
30
0
41
1
10
14.9446472262323
20
0.510267304702325
30
0
41
1
10
15.2609609831327
20
0.342847049915577
30
0
41
1
10
15.4190734504406
20
0.257209022502138
30
0
41
1
10
15.7361947256533
20
0.0838317696892261
30
0
41
1
10
15.8958148469443
20
-0.0042668094074827
30
0
41
1
10
16.3722204055886
20
-0.266094453355038
30
0
41
1
10
16.6862070677811
20
-0.436986511347612
30
0
41
1
10
17.3149600932733
20
-0.75745394951025
30
0
41
1
10
17.6300661633963
20
-0.907350607581094
30
1E-16
41
1
10
18.5856140376645
20
-1.30389304029887
30
0
41
1
10
19.2063762979778
20
-1.48354789475076
30
0
41
1
10
20.000892110917
20
-1.56707527234229
30
0
41
1
10
20.1601903089762
20
-1.57660283868674
30
0
41
1
10
20.3440134848756
20
-1.57919959563009
30
0
41
1
10
20.36982714678
20
-1.57937152469359
30
0
41
1
10
20.3956251809393
20
-1.57935124638158
30
0
0
SPLINE
5
D6
100
AcDbEntity
8
1
62
256
6
ByLayer
370
18
48
1
60
0
100
AcDbSpline
70
4
71
3
72
28
73
24
40
0
40
0
40
0
40
0
40
0.0704652864516812
40
0.0704652864516812
40
0.184302123136285
40
0.184302123136285
40
0.298138959820889
40
0.298138959820889
40
0.5258126331901
40
0.5258126331901
40
0.582731051532402
40
0.582731051532402
40
0.639649469874706
40
0.639649469874706
40
0.753486306559312
40
0.753486306559312
40
0.810404724901615
40
0.810404724901615
40
0.867323143243918
40
0.867323143243918
40
0.981159979928524
40
0.981159979928524
40
1
40
1
40
1
40
1
41
1
10
4.72561135955115
20
1.17097698069279
30
0
41
1
10
4.89245791306226
20
1.11732635423723
30
0
41
1
10
5.05856934708874
20
1.0579406437098
30
-1E-16
41
1
10
5.49256268410036
20
0.889702834174614
30
-1E-16
41
1
10
5.76012877016234
20
0.772865168396663
30
0
41
1
10
6.29867175973811
20
0.520339867732474
30
0
41
1
10
6.5712872899432
20
0.383743994564639
30
0
41
1
10
7.37967289472559
20
-0.0314396521883396
30
0
41
1
10
7.91114562496713
20
-0.317545785886495
30
0
41
1
10
8.58848957556609
20
-0.643128280174352
30
0
41
1
10
8.72440702369389
20
-0.706520049880652
30
0
41
1
10
8.99424594025606
20
-0.827265593570019
30
1E-16
41
1
10
9.1286403886906
20
-0.884848619350322
30
1E-16
41
1
10
9.53109038939681
20
-1.04808241999297
30
1E-16
41
1
10
9.79841646772155
20
-1.1441685052136
30
0
41
1
10
10.2012669655962
20
-1.26466803659284
30
0
41
1
10
10.3358591443877
20
-1.30090952789792
30
0
41
1
10
10.6062397631565
20
-1.36475083944038
30
0
41
1
10
10.742354881554
20
-1.3923798962019
30
0
41
1
10
11.1477308607269
20
-1.46050954169982
30
0
41
1
10
11.4156602558189
20
-1.48659461215291
30
0
41
1
10
11.7277820491382
20
-1.49421371038898
30
0
41
1
10
11.7720986617869
20
-1.49474558382769
30
0
41
1
10
11.8164219151194
20
-1.49473286817991
30
0
0
SPLINE
5
D7
100
AcDbEntity
8
1
62
256
6
ByLayer
370
18
48
1
60
0
100
AcDbSpline
70
4
71
3
72
12
73
8
40
0
40
0
40
0
40
0
40
0.307799734222101
40
0.307799734222101
40
0.769262562800299
40
0.769262562800299
40
1
40
1
40
1
40
1
41
1
10
20.6925890248961
20
1.49928724329271
30
0
41
1
10
20.7823303242909
20
1.50132065443205
30
0
41
1
10
20.8722866556511
20
1.50110414366048
30
0
41
1
10
21.097818729428
20
1.4949983790269
30
0
41
1
10
21.233609019991
20
1.4863487913949
30
0
41
1
10
21.4357812313374
20
1.46621345034825
30
0
41
1
10
21.5030418346938
20
1.45827425928016
30
0
41
1
10
21.5702056109594
20
1.44914086305167
30
0
0
SPLINE
5
D8
100
AcDbEntity
8
1
62
256
6
ByLayer
370
18
48
1
60
0
100
AcDbSpline
70
4
71
3
72
26
73
22
40
0
40
0
40
0
40
0
40
0.0593845990181163
40
0.0593845990181163
40
0.122092292416908
40
0.122092292416908
40
0.247507679214491
40
0.247507679214491
40
0.310215372613282
40
0.310215372613282
40
0.372923066012073
40
0.372923066012073
40
0.498338452809658
40
0.498338452809658
40
0.623753839607244
40
0.623753839607244
40
0.686461533006037
40
0.686461533006037
40
0.74916922640483
40
0.74916922640483
40
1
40
1
40
1
40
1
41
1
10
22.9996646240711
20
1.0854179302309
30
0
41
1
10
23.1275976543164
20
1.03912309593232
30
-1E-16
41
1
10
23.2563308118722
20
0.989257013049183
30
-1E-16
41
1
10
23.5190864037626
20
0.881642156258238
30
-1E-16
41
1
10
23.6534010823496
20
0.823488371452385
30
-1E-16
41
1
10
24.0553454231662
20
0.641960226015613
30
0
41
1
10
24.3222610193214
20
0.511965014166663
30
0
41
1
10
24.7237154236053
20
0.308455684048909
30
0
41
1
10
24.8577190965335
20
0.239192463960165
30
0
41
1
10
25.1266830556849
20
0.0988866385703773
30
0
41
1
10
25.2618922015616
20
0.0277004061443051
30
0
41
1
10
25.6682593389686
20
-0.185930903811766
30
0
41
1
10
25.9363190145081
20
-0.32599314252812
30
0
41
1
10
26.4709982410698
20
-0.593498740882637
30
0
41
1
10
26.7377716012148
20
-0.72083172223995
30
0
41
1
10
27.1401281113222
20
-0.896462104354413
30
1E-16
41
1
10
27.2746221299849
20
-0.952436457625282
30
1E-16
41
1
10
27.5449623605703
20
-1.05820738383645
30
1E-16
41
1
10
27.680775068935
20
-1.10796077773128
30
1E-16
41
1
10
28.3545091760714
20
-1.33566861873666
30
0
41
1
10
28.885236199257
20
-1.45339581849029
30
0
41
1
10
29.4240732968095
20
-1.49190476168073
30
0
0
SPLINE
5
D9
100
AcDbEntity
8
1
62
256
6
ByLayer
370
18
48
1
60
0
100
AcDbSpline
70
4
71
3
72
18
73
14
40
0
40
0
40
0
40
0
40
0.478935338844018
40
0.478935338844018
40
0.684431810351764
40
0.684431810351764
40
0.769439721459121
40
0.769439721459121
40
0.855477344337614
40
0.855477344337614
40
0.933417653962661
40
0.933417653962661
40
1
40
1
40
1
40
1
41
1
10
29.4093918105264
20
1.5022591368627
30
0
41
1
10
29.4119664011813
20
1.50074573061633
30
0
41
1
10
29.4147611137418
20
1.49903269268836
30
0
41
1
10
29.4187784827313
20
1.49636422753721
30
0
41
1
10
29.4200360439683
20
1.49550013635681
30
0
41
1
10
29.4216353787775
20
1.49431560960659
30
0
41
1
10
29.4220913150747
20
1.49396538604458
30
0
41
1
10
29.4228911140034
20
1.49331481891517
30
0
41
1
10
29.4232420696523
20
1.49300751322696
30
0
41
1
10
29.4237324490975
20
1.49252400861741
30
0
41
1
10
29.4238948666492
20
1.49233228360419
30
0
41
1
10
29.4240611717065
20
1.49206326475635
30
0
41
1
10
29.4240873139849
20
1.4919703243894
30
0
41
1
10
29.4240732968259
20
1.49190476168192
30
0
0
SPLINE
5
DA
100
AcDbEntity
8
1
62
256
6
ByLayer
370
18
48
1
60
0
100
AcDbSpline
70
4
71
3
72
8
73
4
40
0
40
0
40
0
40
0
40
1
40
1
40
1
40
1
41
1
10
29.2180452895402
20
-0.100804196170543
30
0
41
1
10
29.2136272419517
20
-0.0258954057719905
30
0
41
1
10
29.2114163501641
20
0.0507428336082967
30
0
41
1
10
29.2124285826266
20
0.125815126903348
30
0
0
SPLINE
5
DB
100
AcDbEntity
8
1
62
256
6
ByLayer
370
18
48
1
60
0
100
AcDbSpline
70
4
71
3
72
44
73
40
40
0
40
0
40
0
40
0
40
0.0116272545511933
40
0.0116272545511933
40
0.0694741915541443
40
0.0694741915541443
40
0.127321128557095
40
0.127321128557095
40
0.185168065560047
40
0.185168065560047
40
0.243015002562998
40
0.243015002562998
40
0.300861939565949
40
0.300861939565949
40
0.3587088765689
40
0.3587088765689
40
0.416555813571851
40
0.416555813571851
40
0.474402750574802
40
0.474402750574802
40
0.532249687577753
40
0.532249687577753
40
0.590096624580704
40
0.590096624580704
40
0.647943561583655
40
0.647943561583655
40
0.705790498586606
40
0.705790498586606
40
0.763637435589557
40
0.763637435589557
40
0.821484372592508
40
0.821484372592508
40
0.879331309595459
40
0.879331309595459
40
0.93717824659841
40
0.93717824659841
40
0.995025183601361
40
0.995025183601361
40
1
40
1
40
1
40
1
41
1
10
6.37523912758971
20
1.50050028819083
30
0
41
1
10
6.40226535274795
20
1.5012745578689
30
0
41
1
10
6.42931435616956
20
1.50185782284933
30
0
41
1
10
6.59107211464675
20
1.50422181148127
30
0
41
1
10
6.72496270208276
20
1.50153505464291
30
0
41
1
10
6.99202011792855
20
1.48582305187494
30
0
41
1
10
7.12518414382649
20
1.47278090346867
30
0
41
1
10
7.39094058382798
20
1.43791483167797
30
0
41
1
10
7.52352927403757
20
1.41612304318258
30
0
41
1
10
7.78914097894867
20
1.36308945801753
30
0
41
1
10
7.92217496555813
20
1.33179888621535
30
0
41
1
10
8.18871309589406
20
1.26094108270237
30
0
41
1
10
8.32219842034596
20
1.2214191744381
30
0
41
1
10
8.59077995170554
20
1.13390897437375
30
0
41
1
10
8.72571354755829
20
1.08590496662646
30
-1E-16
41
1
10
8.9933493783457
20
0.983956858600436
30
-1E-16
41
1
10
9.12656231771612
20
0.929869803859589
30
-1E-16
41
1
10
9.39267306863093
20
0.816224070890144
30
0
41
1
10
9.52557283157876
20
0.756648276263519
30
0
41
1
10
9.79121701993381
20
0.632917370753262
30
0
41
1
10
9.92395623793141
20
0.568771047831319
30
0
41
1
10
10.190239595612
20
0.437033239579136
30
0
41
1
10
10.3237898458602
20
0.369433418390173
30
0
41
1
10
10.591821521634
20
0.231453410789413
30
0
41
1
10
10.7267157690042
20
0.160855990978149
30
0
41
1
10
10.994798485337
20
0.0203163162931048
30
0
41
1
10
11.1282895126529
20
-0.0497879178922176
30
0
41
1
10
11.39452122924
20
-0.189264914668996
30
0
41
1
10
11.5272665464885
20
-0.258629472716308
30
0
41
1
10
11.7928247768029
20
-0.394833190787807
30
0
41
1
10
11.9256329871752
20
-0.461678077531616
30
0
41
1
10
12.1913667800808
20
-0.593078211378412
30
0
41
1
10
12.3244717648148
20
-0.657193942441864
30
0
41
1
10
12.5921266933777
20
-0.780185242516865
30
0
41
1
10
12.7268765100865
20
-0.839699757458931
30
1E-16
41
1
10
12.9953773355143
20
-0.953973320222701
30
1E-16
41
1
10
13.1289990166481
20
-1.0080170559057
30
1E-16
41
1
10
13.2739210380251
20
-1.06190184011066
30
1E-16
41
1
10
13.2853948642084
20
-1.06614311843657
30
1E-16
41
1
10
13.2968663220645
20
-1.07035864570358
30
1E-16
0
SPLINE
5
DC
100
AcDbEntity
8
1
62
256
6
ByLayer
370
18
48
1
60
0
100
AcDbSpline
70
4
71
3
72
24
73
20
40
0
40
0
40
0
40
0
40
0.0365314962929413
40
0.0365314962929413
40
0.197109580244121
40
0.197109580244121
40
0.277398622219711
40
0.277398622219711
40
0.357687664195301
40
0.357687664195301
40
0.518265748146477
40
0.518265748146477
40
0.598554790122062
40
0.598554790122062
40
0.678843832097647
40
0.678843832097647
40
0.839421916048824
40
0.839421916048824
40
1
40
1
40
1
40
1
41
1
10
24.2816236976212
20
1.5078029123562
30
0
41
1
10
24.3418960270929
20
1.51063260861125
30
0
41
1
10
24.4021870918447
20
1.512372331736
30
0
41
1
10
24.7276941167712
20
1.51613997601729
30
0
41
1
10
24.9935923637509
20
1.49907386794857
30
0
41
1
10
25.394987010255
20
1.44664632602729
30
0
41
1
10
25.5294668991552
20
1.42463869511562
30
0
41
1
10
25.796469813412
20
1.37109927685904
30
0
41
1
10
25.9294229832489
20
1.33954632995253
30
0
41
1
10
26.3273755330988
20
1.2326696931037
30
0
41
1
10
26.591571089334
20
1.14490854312797
30
0
41
1
10
26.9889734545399
20
0.992889036857719
30
-1E-16
41
1
10
27.1216063788625
20
0.938880774478406
30
-1E-16
41
1
10
27.3879655933366
20
0.824574873130047
30
-1E-16
41
1
10
27.5219862196745
20
0.764122072589686
30
0
41
1
10
27.924412677956
20
0.575628631325344
30
0
41
1
10
28.190021066589
20
0.442061058613035
30
0
41
1
10
28.7202723073749
20
0.167400734581975
30
0
41
1
10
28.9847388714175
20
0.0261629555500917
30
0
41
1
10
29.2513183097061
20
-0.113857178112909
30
0
0
SPLINE
5
DD
100
AcDbEntity
8
1
62
256
6
ByLayer
370
18
48
1
60
0
100
AcDbSpline
70
4
71
3
72
10
73
6
40
0
40
0
40
0
40
0
40
0.5
40
0.5
40
1
40
1
40
1
40
1
41
1
10
3.50496650962907
20
-0.892077608903946
30
1E-16
41
1
10
3.51222412503384
20
-0.8676538957003
30
1E-16
41
1
10
3.53414348141376
20
-0.845740318483394
30
1E-16
41
1
10
3.59004184492895
20
-0.825103351346115
30
1E-16
41
1
10
3.62370664286055
20
-0.826342757387238
30
1E-16
41
1
10
3.65073207537219
20
-0.839060564154181
30
1E-16
0
SPLINE
5
DE
100
AcDbEntity
8
1
62
256
6
ByLayer
370
18
48
1
60
0
100
AcDbSpline
70
4
71
3
72
8
73
4
40
0
40
0
40
0
40
0
40
1
40
1
40
1
40
1
41
1
10
29.7350074749076
20
-0.178960805371389
30
0
41
1
10
29.6802548295615
20
-0.0626135101219631
30
0
41
1
10
29.6153340531665
20
0.0618026201490238
30
0
41
1
10
29.539774699039
20
0.194660904457578
30
0
0
SPLINE
5
DF
100
AcDbEntity
8
1
62
256
6
ByLayer
370
18
48
1
60
0
100
AcDbSpline
70
4
71
3
72
8
73
4
40
0
40
0
40
0
40
0
40
1
40
1
40
1
40
1
41
1
10
29.3051659474339
20
-1.56208848962146
30
0
41
1
10
29.3397956556838
20
-1.54270199433984
30
0
41
1
10
29.374529599758
20
-1.52275198198342
30
0
41
1
10
29.4093918105265
20
-1.50225913686273
30
0
0
SPLINE
5
E0
100
AcDbEntity
8
1
62
256
6
ByLayer
370
18
48
1
60
0
100
AcDbSpline
70
4
71
3
72
10
73
6
40
0
40
0
40
0
40
0
40
0.5
40
0.5
40
1
40
1
40
1
40
1
41
1
10
29.4674542625056
20
-1.47990272296181
30
0
41
1
10
29.4541793756579
20
-1.49010247987914
30
0
41
1
10
29.4440073896606
20
-1.49258560628451
30
0
41
1
10
29.4281898806221
20
-1.48260340320138
30
0
41
1
10
29.422424829421
20
-1.47025743032682
30
0
41
1
10
29.4173875494406
20
-1.45157927785004
30
0
0
SPLINE
5
E1
100
AcDbEntity
8
1
62
256
6
ByLayer
370
18
48
1
60
0
100
AcDbSpline
70
4
71
3
72
10
73
6
40
0
40
0
40
0
40
0
40
0.5
40
0.5
40
1
40
1
40
1
40
1
41
1
10
29.4674542625056
20
1.47990272296178
30
0
41
1
10
29.454179375658
20
1.49010247987911
30
0
41
1
10
29.4440073896607
20
1.49258560628448
30
0
41
1
10
29.4281898806222
20
1.48260340320149
30
0
41
1
10
29.4224248294211
20
1.47025743032705
30
0
41
1
10
29.4173875494407
20
1.45157927785041
30
0
0
SPLINE
5
E2
100
AcDbEntity
8
1
62
256
6
ByLayer
370
18
48
1
60
0
100
AcDbSpline
70
4
71
3
72
16
73
12
40
0
40
0
40
0
40
0
40
0.088971481506403
40
0.088971481506403
40
0.392647654337625
40
0.392647654337625
40
0.696323827168847
40
0.696323827168847
40
0.848161913584424
40
0.848161913584424
40
1
40
1
40
1
40
1
41
1
10
29.3484086839538
20
0.240177607522838
30
0
41
1
10
29.3458968461089
20
0.245001547976983
30
0
41
1
10
29.3443357400639
20
0.250121697720743
30
0
41
1
10
29.3416901882907
20
0.27403074770254
30
0
41
1
10
29.3502373124489
20
0.297194514261577
30
0
41
1
10
29.3884519644916
20
0.347991268292958
30
0
41
1
10
29.4186920705467
20
0.37515872075727
30
0
41
1
10
29.4751925476175
20
0.409899807411904
30
0
41
1
10
29.4960614671344
20
0.420471453008929
30
0
41
1
10
29.5403162499183
20
0.437752329087658
30
0
41
1
10
29.5633330673068
20
0.444368703508445
30
0
41
1
10
29.5872266001945
20
0.448794011177597
30
0
0
SPLINE
5
E3
100
AcDbEntity
8
1
62
256
6
ByLayer
370
18
48
1
60
0
100
AcDbSpline
70
4
71
3
72
8
73
4
40
0
40
0
40
0
40
0
40
1
40
1
40
1
40
1
41
1
10
29.9976929801891
20
0.112520551218751
30
0
41
1
10
29.9890217496401
20
0.0831972999910136
30
0
41
1
10
29.9802967283362
20
0.0538914104899106
30
0
41
1
10
29.9715181688068
20
0.0246028012080046
30
0
0
SPLINE
5
E4
100
AcDbEntity
8
1
62
256
6
ByLayer
370
18
48
1
60
0
100
AcDbSpline
70
4
71
3
72
8
73
4
40
0
40
0
40
0
40
0
40
1
40
1
40
1
40
1
41
1
10
29.9976929801939
20
0.112520551220001
30
0
41
1
10
30.0007611862156
20
0.0376975627391971
30
0
41
1
10
30.0007594269129
20
-0.0377404660764
30
0
41
1
10
29.997692980194
20
-0.112520551215823
30
0
0
SPLINE
5
E5
100
AcDbEntity
8
1
62
256
6
ByLayer
370
18
48
1
60
0
100
AcDbSpline
70
4
71
3
72
8
73
4
40
0
40
0
40
0
40
0
40
1
40
1
40
1
40
1
41
1
10
29.3051659474195
20
1.56208848963101
30
0
41
1
10
29.3074371591419
20
1.5747472469069
30
0
41
1
10
29.3092834632743
20
1.58226435418086
30
0
41
1
10
29.3109632753303
20
1.58433377094823
30
0
0
SPLINE
5
E6
100
AcDbEntity
8
1
62
256
6
ByLayer
370
18
48
1
60
0
100
AcDbSpline
70
4
71
3
72
16
73
12
40
0
40
0
40
0
40
0
40
0.0624999999999902
40
0.0624999999999902
40
0.124999999999981
40
0.124999999999981
40
0.249999999999987
40
0.249999999999987
40
0.500000000000001
40
0.500000000000001
40
1
40
1
40
1
40
1
41
1
10
29.5397746990389
20
0.19466090445755
30
0
41
1
10
29.5335988402893
20
0.199653365926878
30
0
41
1
10
29.52693604216
20
0.202875042492195
30
0
41
1
10
29.5134739244269
20
0.208249665684775
30
0
41
1
10
29.5067328985482
20
0.21100530810358
30
0
41
1
10
29.4862803716497
20
0.21815054989969
30
0
41
1
10
29.4722540074923
20
0.221304833019104
30
0
41
1
10
29.4299570150707
20
0.225524780813515
30
0
41
1
10
29.401607727143
20
0.22091492110593
30
0
41
1
10
29.3173708339077
20
0.200950989549654
30
0
41
1
10
29.2618530050141
20
0.171445612170544
30
0
41
1
10
29.2124285826334
20
0.125815126900505
30
0
0
SPLINE
5
E7
100
AcDbEntity
8
1
62
256
6
ByLayer
370
18
48
1
60
0
100
AcDbSpline
70
4
71
3
72
10
73
6
40
0
40
0
40
0
40
0
40
0.5
40
0.5
40
1
40
1
40
1
40
1
41
1
10
29.5872266001944
20
0.448794011177597
30
0
41
1
10
29.6329594930129
20
0.457264174308023
30
0
41
1
10
29.6783913182579
20
0.466961981974777
30
0
41
1
10
29.7684852930105
20
0.489496056236334
30
0
41
1
10
29.8132932092681
20
0.502671424335432
30
0
41
1
10
29.8567454394917
20
0.518862880281972
30
0
0
SPLINE
5
E8
100
AcDbEntity
8
1
62
256
6
ByLayer
370
18
48
1
60
0
100
AcDbSpline
70
4
71
3
72
10
73
6
40
0
40
0
40
0
40
0
40
0.675568509296325
40
0.675568509296325
40
1
40
1
40
1
40
1
41
1
10
3.50433384474539
20
1.53015973926964
30
0
41
1
10
3.50434011473223
20
1.5473637378077
30
0
41
1
10
3.50434603288895
20
1.55888043072062
30
0
41
1
10
3.50435423957413
20
1.56728942535548
30
0
41
1
10
3.50435682385094
20
1.568701026497
30
0
41
1
10
3.50435934301513
20
1.56879972197217
30
0
0
SPLINE
5
E9
100
AcDbEntity
8
1
62
256
6
ByLayer
370
18
48
1
60
0
100
AcDbSpline
70
4
71
3
72
8
73
4
40
0
40
0
40
0
40
0
40
1
40
1
40
1
40
1
41
1
10
3.5048382642573
20
1.52921999377605
30
0
41
1
10
3.50450817170821
20
1.52952855980624
30
0
41
1
10
3.50433373042068
20
1.52984604763316
30
0
41
1
10
3.50433384474536
20
1.53015973926668
30
0
0
SPLINE
5
EA
100
AcDbEntity
8
1
62
256
6
ByLayer
370
18
48
1
60
0
100
AcDbSpline
70
4
71
3
72
50
73
46
40
0
40
0
40
0
40
0
40
0.12499999999999
40
0.12499999999999
40
0.187499999999984
40
0.187499999999984
40
0.249999999999979
40
0.249999999999979
40
0.312499999999974
40
0.312499999999974
40
0.343749999999972
40
0.343749999999972
40
0.374999999999969
40
0.374999999999969
40
0.406249999999966
40
0.406249999999966
40
0.437499999999964
40
0.437499999999964
40
0.468749999999961
40
0.468749999999961
40
0.499999999999958
40
0.499999999999958
40
0.562499999999953
40
0.562499999999953
40
0.624999999999948
40
0.624999999999948
40
0.687499999999943
40
0.687499999999943
40
0.718749999999939
40
0.718749999999939
40
0.734374999999937
40
0.742187499999937
40
0.742187499999937
40
0.749999999999938
40
0.749999999999938
40
0.76562499999994
40
0.76562499999994
40
0.773437499999938
40
0.773437499999938
40
0.781249999999937
40
0.812499999999944
40
0.812499999999944
40
0.874999999999963
40
0.874999999999963
40
1
40
1
40
1
40
1
41
1
10
3.29495756136117
20
-0.448685661837544
30
0
41
1
10
3.12512877778568
20
-0.360193853511333
30
0
41
1
10
2.95942083808259
20
-0.264512101733288
30
0
41
1
10
2.72005070569446
20
-0.104841162993495
30
0
41
1
10
2.64181071959706
20
-0.0488942065007052
30
0
41
1
10
2.48957351041506
20
0.0704694981450018
30
0
41
1
10
2.41574876583786
20
0.133760911251159
30
0
41
1
10
2.277780733302
20
0.268329003202353
30
0
41
1
10
2.21294381602442
20
0.34030824361156
30
0
41
1
10
2.13011226183841
20
0.454162876584149
30
0
41
1
10
2.10480292271245
20
0.493214516867027
30
0
41
1
10
2.06026938063567
20
0.574233950975781
30
0
41
1
10
2.04119158142993
20
0.616143471138599
30
0
41
1
10
2.01255226331864
20
0.699944261805911
30
0
41
1
10
2.00271137396413
20
0.742795748998475
30
0
41
1
10
1.99444388077885
20
0.826556277547922
30
-1E-16
41
1
10
1.99590999881437
20
0.867082353250083
30
-1E-16
41
1
10
2.01002136970328
20
0.945477883641445
30
-1E-16
41
1
10
2.02274474403384
20
0.982950108177647
30
-1E-16
41
1
10
2.05692714512617
20
1.05194693569734
30
-1E-16
41
1
10
2.07871382035742
20
1.08422142038046
30
-1E-16
41
1
10
2.15287507839503
20
1.17223231123347
30
-1E-16
41
1
10
2.21422256733615
20
1.22047967261133
30
0
41
1
10
2.3495405564351
20
1.30317741464952
30
0
41
1
10
2.42227264565011
20
1.33686012792285
30
0
41
1
10
2.57413030390867
20
1.39481646686792
30
0
41
1
10
2.65336900120985
20
1.41899381619126
30
0
41
1
10
2.77564303737324
20
1.45012079909978
30
0
41
1
10
2.81684940392825
20
1.45959457919798
30
0
41
1
10
2.87924012264904
20
1.47265295945715
30
0
41
1
10
2.91058120638044
20
1.47889313292524
30
0
41
1
10
2.9421270202738
20
1.48473017515636
30
0
41
1
10
2.96320170143619
20
1.48853492575415
30
0
41
1
10
2.9737627992798
20
1.49050127270479
30
0
41
1
10
3.00816466634296
20
1.49382056492439
30
0
41
1
10
3.03279940393637
20
1.49361828343209
30
0
41
1
10
3.06777248079209
20
1.49117035688605
30
0
41
1
10
3.0791672147972
20
1.48992390599932
30
0
41
1
10
3.10173904463071
20
1.48735013116504
30
0
41
1
10
3.15813037662898
20
1.48080330767343
30
0
41
1
10
3.21418766594067
20
1.47357190561263
30
0
41
1
10
3.3480834626406
20
1.45480902807176
30
0
41
1
10
3.43639250774328
20
1.44041732396639
30
0
41
1
10
3.69873780047496
20
1.39061978793708
30
0
41
1
10
3.8699329455157
20
1.34853004757005
30
0
41
1
10
4.0381476394507
20
1.29626835965519
30
0
0
SPLINE
5
EB
100
AcDbEntity
8
1
62
256
6
ByLayer
370
18
48
1
60
0
100
AcDbSpline
70
4
71
3
72
8
73
4
40
0
40
0
40
0
40
0
40
1
40
1
40
1
40
1
41
1
10
29.4611607401308
20
1.48418142378202
30
0
41
1
10
29.4632584777705
20
1.48275566234099
30
0
41
1
10
29.4653563180723
20
1.48132942845797
30
0
41
1
10
29.4674542625056
20
1.47990272296181
30
0
0
SPLINE
5
EC
100
AcDbEntity
8
1
62
256
6
ByLayer
370
18
48
1
60
0
100
AcDbSpline
70
4
71
3
72
8
73
4
40
0
40
0
40
0
40
0
40
1
40
1
40
1
40
1
41
1
10
29.4093918105433
20
1.50225913686378
30
0
41
1
10
29.3283457510627
20
1.49652892665685
30
0
41
1
10
29.2474824511934
20
1.48899379230019
30
0
41
1
10
29.1667455296881
20
1.47970373442487
30
0
0
SPLINE
5
ED
100
AcDbEntity
8
1
62
256
6
ByLayer
370
18
48
1
60
0
100
AcDbSpline
70
4
71
3
72
34
73
30
40
0
40
0
40
0
40
0
40
0.0101977113060022
40
0.0101977113060022
40
0.0681249191733483
40
0.0681249191733483
40
0.183979334908043
40
0.183979334908043
40
0.241906542775389
40
0.241906542775389
40
0.299833750642735
40
0.299833750642735
40
0.415688166377429
40
0.415688166377429
40
0.531542582112123
40
0.531542582112123
40
0.589469789979469
40
0.589469789979469
40
0.647396997846815
40
0.647396997846815
40
0.763251413581507
40
0.763251413581507
40
0.879105829316199
40
0.879105829316199
40
0.937033037183546
40
0.937033037183546
40
0.994960245050894
40
0.994960245050894
40
1
40
1
40
1
40
1
41
1
10
21.0227049692342
20
-1.50577910411613
30
0
41
1
10
20.998873508804
20
-1.5067825998398
30
0
41
1
10
20.9750505590581
20
-1.50763166927342
30
0
41
1
10
20.8160179247719
20
-1.5122637326653
30
0
41
1
10
20.6814334319135
20
-1.51116238095969
30
0
41
1
10
20.2788840920634
20
-1.49253683296598
30
0
41
1
10
20.0118751188782
20
-1.46085666284782
30
0
41
1
10
19.6102759439093
20
-1.38467596322241
30
0
41
1
10
19.4762470536342
20
-1.35473498155915
30
0
41
1
10
19.2071576477715
20
-1.28590198001908
30
0
41
1
10
19.0717979603429
20
-1.24684228827343
30
0
41
1
10
18.6651614048835
20
-1.11733454363014
30
1E-16
41
1
10
18.3972245495272
20
-1.01601143555968
30
1E-16
41
1
10
17.8629289292756
20
-0.790267532337822
30
0
41
1
10
17.5966554368365
20
-0.666131109938448
30
0
41
1
10
17.1950393035637
20
-0.468280621984548
30
0
41
1
10
17.0608240828375
20
-0.400439647887197
30
0
41
1
10
16.791176579181
20
-0.261910919127956
30
0
41
1
10
16.6552127261059
20
-0.190957339159326
30
0
41
1
10
16.2495486455714
20
0.0218235626828687
30
0
41
1
10
15.981452887629
20
0.164204754226518
30
0
41
1
10
15.4451705581512
20
0.440324919649839
30
0
41
1
10
15.1771224799261
20
0.574559284903046
30
0
41
1
10
14.7715565211971
20
0.763103423371973
30
0
41
1
10
14.6355416073707
20
0.824037248731401
30
-1E-16
41
1
10
14.3653887842675
20
0.93926506684312
30
-1E-16
41
1
10
14.2308456048205
20
0.993607540608025
30
-1E-16
41
1
10
14.084852572326
20
1.04874961688341
30
0
41
1
10
14.0731696305358
20
1.0531372639164
30
0
41
1
10
14.0614885429254
20
1.05749876742738
30
0
0
SPLINE
5
EE
100
AcDbEntity
8
1
62
256
6
ByLayer
370
18
48
1
60
0
100
AcDbSpline
70
4
71
3
72
8
73
4
40
0
40
0
40
0
40
0
40
1
40
1
40
1
40
1
41
1
10
29.2180452895403
20
-0.100804196170572
30
0
41
1
10
29.2291832935252
20
-0.105454515665485
30
0
41
1
10
29.2402719439984
20
-0.109803493901751
30
0
41
1
10
29.2513183096967
20
-0.113857178107537
30
0
0
SPLINE
5
EF
100
AcDbEntity
8
1
62
256
6
ByLayer
370
18
48
1
60
0
100
AcDbSpline
70
4
71
3
72
8
73
4
40
0
40
0
40
0
40
0
40
1
40
1
40
1
40
1
41
1
10
29.4240732968256
20
-1.49190476168067
30
0
41
1
10
29.4221228146168
20
-1.48278173648367
30
0
41
1
10
29.4197899539867
20
-1.46928915709603
30
0
41
1
10
29.4173875494407
20
-1.45157927784996
30
0
0
SPLINE
5
F0
100
AcDbEntity
8
1
62
256
6
ByLayer
370
18
48
1
60
0
100
AcDbSpline
70
4
71
3
72
18
73
14
40
0
40
0
40
0
40
0
40
0.161628282006017
40
0.161628282006017
40
0.323256564012033
40
0.323256564012033
40
0.484884846018049
40
0.484884846018049
40
0.646513128024066
40
0.646513128024066
40
0.969769692036099
40
0.969769692036099
40
1
40
1
40
1
40
1
41
1
10
29.9715181688069
20
0.024602801208033
30
0
41
1
10
29.9643237655688
20
0.0005995390840496
30
0
41
1
10
29.9560959288289
20
-0.022888966172161
30
0
41
1
10
29.9374930165758
20
-0.0687648344094498
30
0
41
1
10
29.9270273540738
20
-0.0912440118739823
30
0
41
1
10
29.9050588485971
20
-0.13218151609982
30
0
41
1
10
29.8932207515499
20
-0.151286423258711
30
0
41
1
10
29.8691167799614
20
-0.184123604579497
30
0
41
1
10
29.8570818780757
20
-0.197650530013163
30
0
41
1
10
29.8209246251655
20
-0.229075694837377
30
0
41
1
10
29.7989827585642
20
-0.235427007046553
30
0
41
1
10
29.7787536916463
20
-0.228597257960587
30
0
41
1
10
29.7770558352719
20
-0.227909063681437
30
0
41
1
10
29.7753892976212
20
-0.227120216921548
30
0
0
SPLINE
5
F1
100
AcDbEntity
8
1
62
256
6
ByLayer
370
18
48
1
60
0
100
AcDbSpline
70
4
71
3
72
8
73
4
40
0
40
0
40
0
40
0
40
1
40
1
40
1
40
1
41
1
10
29.7557077231141
20
-0.211798596004399
30
0
41
1
10
29.7480320529783
20
-0.203198373984066
30
0
41
1
10
29.7411757212467
20
-0.192068094954351
30
0
41
1
10
29.7350074749076
20
-0.178960805371276
30
0
0
SPLINE
5
F2
100
AcDbEntity
8
1
62
256
6
ByLayer
370
18
48
1
60
0
100
AcDbSpline
70
4
71
3
72
36
73
32
40
0
40
0
40
0
40
0
40
0.0944330056380129
40
0.0944330056380129
40
0.188866011276026
40
0.188866011276026
40
0.23608251409503
40
0.23608251409503
40
0.283299016914035
40
0.283299016914035
40
0.37773202255204
40
0.37773202255204
40
0.424948525371043
40
0.424948525371043
40
0.472165028190046
40
0.472165028190046
40
0.566598033828049
40
0.566598033828049
40
0.661031039466053
40
0.661031039466053
40
0.708247542285055
40
0.708247542285055
40
0.755464045104057
40
0.755464045104057
40
0.849897050742062
40
0.849897050742062
40
0.897113553561065
40
0.897113553561065
40
0.944330056380068
40
0.944330056380068
40
1
40
1
40
1
40
1
41
1
10
29.3051659474328
20
-1.56208848963095
30
0
41
1
10
29.0361349994408
20
-1.53664002410818
30
0
41
1
10
28.7691388764309
20
-1.49078564444707
30
0
41
1
10
28.2351873678166
20
-1.3620244773463
30
0
41
1
10
27.9682588474292
20
-1.27901235912617
30
0
41
1
10
27.5641339273434
20
-1.12965789091075
30
1E-16
41
1
10
27.4286446211674
20
-1.07566396195236
30
1E-16
41
1
10
27.1597308901348
20
-0.961739563324272
30
1E-16
41
1
10
27.0258256988112
20
-0.901638662288377
30
1E-16
41
1
10
26.6247509144408
20
-0.713587593150635
30
0
41
1
10
26.3583106946157
20
-0.57775550824303
30
0
41
1
10
25.9565424677082
20
-0.364152742499243
30
0
41
1
10
25.8222279700473
20
-0.291384253895103
30
0
41
1
10
25.552323600724
20
-0.143513060977824
30
0
41
1
10
25.4172309365387
20
-0.0686598316559355
30
0
41
1
10
25.0146678736065
20
0.1540710404918
30
0
41
1
10
24.7482033204095
20
0.301011614336034
30
0
41
1
10
24.2143088105687
20
0.583285076831373
30
0
41
1
10
23.94704567309
20
0.718919344151345
30
0
41
1
10
23.542207668711
20
0.907852520213709
30
-1E-16
41
1
10
23.4069499473377
20
0.968057789699088
30
-1E-16
41
1
10
23.1383598416749
20
1.08081531856629
30
-1E-16
41
1
10
23.0046087666717
20
1.13362470490836
30
-1E-16
41
1
10
22.6040051995587
20
1.28021805448066
30
0
41
1
10
22.3377109661919
20
1.36208039805513
30
0
41
1
10
21.9361129004655
20
1.45750113290387
30
0
41
1
10
21.8018408176853
20
1.48470430971963
30
0
41
1
10
21.5319029254272
20
1.52930568996524
30
0
41
1
10
21.3965728828055
20
1.54661454005333
30
0
41
1
10
21.1038787830783
20
1.57282944061865
30
0
41
1
10
20.9462256249171
20
1.57978739317272
30
0
41
1
10
20.7888062144936
20
1.57959525600782
30
0
0
SPLINE
5
F3
100
AcDbEntity
8
1
62
256
6
ByLayer
370
18
48
1
60
0
100
AcDbSpline
70
4
71
3
72
34
73
30
40
0
40
0
40
0
40
0
40
0.11293260607396
40
0.11293260607396
40
0.157285975770261
40
0.157285975770261
40
0.201639345466561
40
0.201639345466561
40
0.290346084859164
40
0.290346084859164
40
0.334699454555465
40
0.334699454555465
40
0.379052824251766
40
0.379052824251766
40
0.467759563644369
40
0.467759563644369
40
0.556466303036972
40
0.556466303036972
40
0.600819672733273
40
0.600819672733273
40
0.645173042429576
40
0.645173042429576
40
0.733879781822182
40
0.733879781822182
40
0.778233151518485
40
0.778233151518485
40
0.822586521214788
40
0.822586521214788
40
1
40
1
40
1
40
1
41
1
10
12.632761923216
20
-1.50705084493586
30
0
41
1
10
12.2927240762343
20
-1.56094334057798
30
0
41
1
10
11.9535701180338
20
-1.58288550203952
30
0
41
1
10
11.475366381434
20
-1.56590091210771
30
0
41
1
10
11.3396627754509
20
-1.55580073089339
30
0
41
1
10
11.0703758114954
20
-1.52552900642738
30
0
41
1
10
10.9363080343506
20
-1.50535903538921
30
0
41
1
10
10.5349481902244
20
-1.43047217936007
30
0
41
1
10
10.268458378881
20
-1.36139736557246
30
0
41
1
10
9.86680798408341
20
-1.23209510553309
30
0
41
1
10
9.7326049574913
20
-1.18471294772238
30
1E-16
41
1
10
9.46292361398656
20
-1.08196987746072
30
1E-16
41
1
10
9.32716131328135
20
-1.02645482034177
30
1E-16
41
1
10
8.92303749950651
20
-0.851511192763638
30
1E-16
41
1
10
8.65596124173396
20
-0.723143474274423
30
0
41
1
10
8.12173103646614
20
-0.451089582441085
30
0
41
1
10
7.85455889222533
20
-0.307434642617977
30
0
41
1
10
7.45013978310476
20
-0.0867192524281677
30
0
41
1
10
7.3143521075184
20
-0.0120815389855693
30
0
41
1
10
7.04477406211583
20
0.135624150752847
30
0
41
1
10
6.91058608259419
20
0.208920323134151
30
0
41
1
10
6.50894448508461
20
0.425571743867465
30
0
41
1
10
6.24236556188734
20
0.565598759027608
30
0
41
1
10
5.84072972053286
20
0.762777792730105
30
0
41
1
10
5.7065568230305
20
0.826361231985857
30
-1E-16
41
1
10
5.43699710050595
20
0.948149999269475
30
-1E-16
41
1
10
5.30119823947163
20
1.00650908424916
30
-1E-16
41
1
10
4.62660343743261
20
1.2787566376081
30
0
41
1
10
4.09545651556357
20
1.43586755164534
30
0
41
1
10
3.55405821965166
20
1.5135667570984
30
0
0
SPLINE
5
F4
100
AcDbEntity
8
1
62
256
6
ByLayer
370
18
48
1
60
0
100
AcDbSpline
70
4
71
3
72
8
73
4
40
0
40
0
40
0
40
0
40
1
40
1
40
1
40
1
41
1
10
3.50443727073679
20
-0.895642535451969
30
1E-16
41
1
10
3.50443732037834
20
-0.89444650197072
30
1E-16
41
1
10
3.50462063916555
20
-0.893241550575311
30
1E-16
41
1
10
3.5049665096314
20
-0.892077608896159
30
1E-16
0
SPLINE
5
F5
100
AcDbEntity
8
1
62
256
6
ByLayer
370
18
48
1
60
0
100
AcDbSpline
70
4
71
3
72
40
73
36
40
0
40
0
40
0
40
0
40
0.030709008181186
40
0.030709008181186
40
0.0865436329268853
40
0.0865436329268853
40
0.142378257672584
40
0.142378257672584
40
0.198212882418283
40
0.198212882418283
40
0.254047507163983
40
0.254047507163983
40
0.309882131909682
40
0.309882131909682
40
0.365716756655381
40
0.365716756655381
40
0.42155138140108
40
0.42155138140108
40
0.477386006146779
40
0.477386006146779
40
0.533220630892478
40
0.533220630892478
40
0.589055255638178
40
0.589055255638178
40
0.644889880383877
40
0.644889880383877
40
0.756559129875272
40
0.756559129875272
40
0.812393754620971
40
0.812393754620971
40
0.868228379366669
40
0.868228379366669
40
0.979897628858067
40
0.979897628858067
40
1
40
1
40
1
40
1
41
1
10
22.6860712384664
20
-1.20694111362178
30
0
41
1
10
22.6127895427698
20
-1.18424217732257
30
0
41
1
10
22.5396376628716
20
-1.16031157761142
30
0
41
1
10
22.3338869149236
20
-1.0890183750362
30
1E-16
41
1
10
22.2014074313323
20
-1.03916427158165
30
1E-16
41
1
10
21.935842269964
20
-0.934620661303342
30
1E-16
41
1
10
21.8029162433228
20
-0.879437682865557
30
1E-16
41
1
10
21.5366424640588
20
-0.762014186144995
30
0
41
1
10
21.4031778199069
20
-0.700298677622925
30
0
41
1
10
21.1347429386653
20
-0.573441483642881
30
0
41
1
10
20.9998550479072
20
-0.507765416580412
30
0
41
1
10
20.7326271582708
20
-0.373512003591941
30
0
41
1
10
20.5996205156245
20
-0.305092375867787
30
0
41
1
10
20.3337186983566
20
-0.16784893807332
30
0
41
1
10
20.2010064283435
20
-0.0986602457010974
30
0
41
1
10
19.9358384932302
20
0.0404470151553085
30
0
41
1
10
19.8032654564095
20
0.110127939095321
30
0
41
1
10
19.5373256441596
20
0.248126440099952
30
0
41
1
10
19.4040908965548
20
0.316711509454478
30
0
41
1
10
19.1365788179784
20
0.452062901296188
30
0
41
1
10
19.0018501961671
20
0.519040183746341
30
0
41
1
10
18.7336277738704
20
0.648321769590666
30
0
41
1
10
18.6000482851533
20
0.710713211749322
30
0
41
1
10
18.3338334263367
20
0.830182271355653
30
-1E-16
41
1
10
18.2010717819452
20
0.887255621238694
30
-1E-16
41
1
10
17.802648634767
20
1.04942796793617
30
-1E-16
41
1
10
17.5374966988758
20
1.14502345326804
30
0
41
1
10
17.1365615398475
20
1.26577847218152
30
0
41
1
10
17.002232707515
20
1.3021991279769
30
0
41
1
10
16.7331056063639
20
1.36599748424379
30
0
41
1
10
16.5983676233374
20
1.39355458265331
30
0
41
1
10
16.196080391678
20
1.46237965528422
30
0
41
1
10
15.9304271893623
20
1.48828575174227
30
0
41
1
10
15.6163645918635
20
1.49725558060354
30
0
41
1
10
15.5684598335668
20
1.49795908318026
30
0
41
1
10
15.5205458422472
20
1.4980105659013
30
0
0
SPLINE
5
F6
100
AcDbEntity
8
1
62
256
6
ByLayer
370
18
48
1
60
0
100
AcDbSpline
70
4
71
3
72
36
73
32
40
0
40
0
40
0
40
0
40
0.0653755007069711
40
0.0653755007069711
40
0.134923868280819
40
0.134923868280819
40
0.204472235854666
40
0.204472235854666
40
0.274020603428514
40
0.274020603428514
40
0.343568971002362
40
0.343568971002362
40
0.413117338576209
40
0.413117338576209
40
0.482665706150057
40
0.482665706150057
40
0.552214073723904
40
0.552214073723904
40
0.621762441297752
40
0.621762441297752
40
0.691310808871599
40
0.691310808871599
40
0.760859176445447
40
0.760859176445447
40
0.830407544019294
40
0.830407544019294
40
0.899955911593142
40
0.899955911593142
40
0.969504279166989
40
0.969504279166989
40
1
40
1
40
1
40
1
41
1
10
25.1349747176762
20
-0.135473250831979
30
0
41
1
10
24.9845600092579
20
-0.0578013221434901
30
0
41
1
10
24.8341837598344
20
0.020274850936687
30
0
41
1
10
24.5237184765064
20
0.180986674390482
30
0
41
1
10
24.3636861639812
20
0.263475993568704
30
0
41
1
10
24.0436094539823
20
0.424812905895777
30
0
41
1
10
23.8834218289612
20
0.503437004775321
30
0
41
1
10
23.5640495319358
20
0.656082057342388
30
0
41
1
10
23.4045569936208
20
0.729617465542674
30
0
41
1
10
23.085020917877
20
0.869541592047028
30
-1E-16
41
1
10
22.9246989696587
20
0.935289832280148
30
-1E-16
41
1
10
22.6061849452979
20
1.05747779013819
30
-1E-16
41
1
10
22.4476474461181
20
1.11422178173134
30
0
41
1
10
22.1309274343685
20
1.21669858115706
30
0
41
1
10
21.9728024751297
20
1.26216052136823
30
0
41
1
10
21.6557302228406
20
1.34039704385251
30
0
41
1
10
21.4970235802427
20
1.37438528097269
30
0
41
1
10
21.1781379895053
20
1.42922617388953
30
0
41
1
10
21.017844499045
20
1.45066804830216
30
0
41
1
10
20.6976360459931
20
1.47803098925388
30
0
41
1
10
20.5374682445831
20
1.48448501568413
30
0
41
1
10
20.2179817619207
20
1.48508725072986
30
0
41
1
10
20.0584281456801
20
1.47857367254087
30
0
41
1
10
19.7387053140087
20
1.45126478409134
30
0
41
1
10
19.5783760339929
20
1.42995090501577
30
0
41
1
10
19.2598641099209
20
1.3763269824222
30
0
41
1
10
19.1012164796172
20
1.34321652608855
30
0
41
1
10
18.7841539519001
20
1.26521809322844
30
0
41
1
10
18.6257292564027
20
1.21971269626391
30
0
41
1
10
18.3972285804564
20
1.14614701080075
30
0
41
1
10
18.3275439404802
20
1.12276262599931
30
0
41
1
10
18.2577677905631
20
1.09840232373406
30
0
0
SPLINE
5
F7
100
AcDbEntity
8
1
62
256
6
ByLayer
370
18
48
1
60
0
100
AcDbSpline
70
4
71
3
72
10
73
6
40
0
40
0
40
0
40
0
40
0.554965155306484
40
0.554965155306484
40
1
40
1
40
1
40
1
41
1
10
3.64908200680912
20
-0.801752457577493
30
0
41
1
10
3.78312659193887
20
-0.862535689116754
30
1E-16
41
1
10
3.91716496275268
20
-0.920075790967672
30
1E-16
41
1
10
4.15916996537476
20
-1.01717962374673
30
1E-16
41
1
10
4.26725705711647
20
-1.05813559517381
30
1E-16
41
1
10
4.37521440532367
20
-1.09653931193398
30
0
0
SPLINE
5
F8
100
AcDbEntity
8
1
62
256
6
ByLayer
370
18
48
1
60
0
100
AcDbSpline
70
4
71
3
72
40
73
36
40
0
40
0
40
0
40
0
40
0.0696276810235799
40
0.0696276810235799
40
0.175610744644097
40
0.175610744644097
40
0.228602276454354
40
0.228602276454354
40
0.281593808264611
40
0.281593808264611
40
0.387576871885127
40
0.387576871885127
40
0.440568403695387
40
0.440568403695387
40
0.493559935505646
40
0.493559935505646
40
0.546551467315906
40
0.546551467315906
40
0.599542999126165
40
0.599542999126165
40
0.652534530936425
40
0.652534530936425
40
0.705526062746684
40
0.705526062746684
40
0.758517594556944
40
0.758517594556944
40
0.811509126367203
40
0.811509126367203
40
0.864500658177463
40
0.864500658177463
40
0.917492189987722
40
0.917492189987722
40
0.970483721797982
40
0.970483721797982
40
1
40
1
40
1
40
1
41
1
10
15.1394536693296
20
1.49333801920508
30
0
41
1
10
15.3148523331051
20
1.50618389845184
30
0
41
1
10
15.4895444608235
20
1.51075359939446
30
0
41
1
10
15.9303657079369
20
1.49980519720287
30
0
41
1
10
16.1958918319363
20
1.47479141106447
30
0
41
1
10
16.5980039260647
20
1.40705225021398
30
0
41
1
10
16.7326939692263
20
1.37980524332738
30
0
41
1
10
17.0017392318895
20
1.3165725746112
30
0
41
1
10
17.1360557098755
20
1.280392801685
30
0
41
1
10
17.5368796250165
20
1.1601841858089
30
0
41
1
10
17.8019250539438
20
1.0648017462957
30
-1E-16
41
1
10
18.2001688949362
20
0.902639246310315
30
-1E-16
41
1
10
18.3328662405311
20
0.845518371151428
30
-1E-16
41
1
10
18.5989525831977
20
0.725890453337144
30
0
41
1
10
18.7324691743551
20
0.663375429694042
30
0
41
1
10
19.0005678807369
20
0.533721207333429
30
0
41
1
10
19.1352701321068
20
0.46649224444846
30
0
41
1
10
19.4027235251257
20
0.330569354035475
30
0
41
1
10
19.5359197285737
20
0.261658249467388
30
0
41
1
10
19.8017654526589
20
0.122926426096285
30
0
41
1
10
19.9342806916063
20
0.0528385242287754
30
0
41
1
10
20.1993316611268
20
-0.0871438043090507
30
0
41
1
10
20.3319830514122
20
-0.156806787427314
30
0
41
1
10
20.5977554917534
20
-0.295073166197369
30
0
41
1
10
20.7306956859667
20
-0.364032786695702
30
0
41
1
10
20.997785605222
20
-0.499450269279748
30
0
41
1
10
21.1326145247874
20
-0.565743661487659
30
0
41
1
10
21.4010039489167
20
-0.693910438292619
30
0
41
1
10
21.5344299338647
20
-0.756278698595224
30
0
41
1
10
21.8006236136264
20
-0.875098486983802
30
1E-16
41
1
10
21.933504348211
20
-0.930981759053651
30
1E-16
41
1
10
22.1989588457448
20
-1.03692668880464
30
1E-16
41
1
10
22.3313763171107
20
-1.08746898496435
30
1E-16
41
1
10
22.537951518368
20
-1.16024143417496
30
0
41
1
10
22.6119997981351
20
-1.18487169948557
30
0
41
1
10
22.6861812007837
20
-1.20823702996873
30
0
0
SPLINE
5
F9
100
AcDbEntity
8
1
62
256
6
ByLayer
370
18
48
1
60
0
100
AcDbSpline
70
4
71
3
72
8
73
4
40
0
40
0
40
0
40
0
40
1
40
1
40
1
40
1
41
1
10
29.3051659474195
20
-1.56208848963101
30
0
41
1
10
29.3074371591419
20
-1.57474724690701
30
0
41
1
10
29.3092834632744
20
-1.58226435418098
30
0
41
1
10
29.3109632753303
20
-1.58433377094826
30
0
0
SPLINE
5
FA
100
AcDbEntity
8
1
62
256
6
ByLayer
370
18
48
1
60
0
100
AcDbSpline
70
4
71
3
72
24
73
20
40
0
40
0
40
0
40
0
40
0.120243855850159
40
0.120243855850159
40
0.18308358043229
40
0.18308358043229
40
0.245923305014421
40
0.245923305014421
40
0.49728220334295
40
0.49728220334295
40
0.560121927925081
40
0.560121927925081
40
0.622961652507212
40
0.622961652507212
40
0.748641101671475
40
0.748641101671475
40
0.874320550835737
40
0.874320550835737
40
1
40
1
40
1
40
1
41
1
10
9.12280279593236
20
1.13133470714399
30
-1E-16
41
1
10
9.32331600103558
20
1.20801129033205
30
-1E-16
41
1
10
9.52380924020451
20
1.27642356453981
30
0
41
1
10
9.83110887906901
20
1.36554274921917
30
0
41
1
10
9.93686595059762
20
1.39352755172794
30
0
41
1
10
10.1491299002407
20
1.44398498210114
30
0
41
1
10
10.2553585897535
20
1.46635798170857
30
0
41
1
10
10.7835518193031
20
1.5622258832623
30
0
41
1
10
11.2007765425649
20
1.5892006865314
30
0
41
1
10
11.7264396077018
20
1.5592132212083
30
0
41
1
10
11.8318272973377
20
1.55002884621351
30
0
41
1
10
12.0435160727345
20
1.52536360567996
30
0
41
1
10
12.1500286359186
20
1.50978569755782
30
0
41
1
10
12.4679040764111
20
1.45392071261941
30
0
41
1
10
12.6780008408622
20
1.40457244208059
30
0
41
1
10
13.0975942127147
20
1.28476911903638
30
0
41
1
10
13.3070948360797
20
1.21440780298678
30
-1E-16
41
1
10
13.7268519354889
20
1.05413230249476
30
-1E-16
41
1
10
13.9373762006113
20
0.964481684478272
30
-1E-16
41
1
10
14.1500000000142
20
0.867184793198788
30
-1E-16
0
SPLINE
5
FB
100
AcDbEntity
8
1
62
256
6
ByLayer
370
18
48
1
60
0
100
AcDbSpline
70
4
71
3
72
24
73
20
40
0
40
0
40
0
40
0
40
0.251303351044763
40
0.251303351044763
40
0.314129188805955
40
0.314129188805955
40
0.376955026567147
40
0.376955026567147
40
0.502606702089536
40
0.502606702089536
40
0.628258377611926
40
0.628258377611926
40
0.753910053134315
40
0.753910053134315
40
0.879561728656704
40
0.879561728656704
40
0.942387566417899
40
0.942387566417899
40
1
40
1
40
1
40
1
41
1
10
29.4093918105425
20
-1.50225913686373
30
0
41
1
10
28.8709042622705
20
-1.46418638088753
30
0
41
1
10
28.34048474853
20
-1.34643414723371
30
0
41
1
10
27.666873709848
20
-1.11797680074838
30
1E-16
41
1
10
27.5310656682524
20
-1.06803206715566
30
1E-16
41
1
10
27.260874059661
20
-0.96187296957109
30
1E-16
41
1
10
27.1264551505205
20
-0.905676339810412
30
1E-16
41
1
10
26.7243121948312
20
-0.729303114704578
30
0
41
1
10
26.4576716643338
20
-0.601366777638276
30
0
41
1
10
25.9231991193596
20
-0.332440272447627
30
0
41
1
10
25.6552143327793
20
-0.191557713057421
30
0
41
1
10
25.1134380073818
20
0.0951365391359502
30
0
41
1
10
24.8447836997842
20
0.237678309739408
30
0
41
1
10
24.3097625416274
20
0.51087427088828
30
0
41
1
10
24.0429754469387
20
0.641868972834772
30
0
41
1
10
23.6411628635863
20
0.824890295842749
30
-1E-16
41
1
10
23.5068805314774
20
0.883541180500771
30
-1E-16
41
1
10
23.248214763466
20
0.990454918097782
30
-1E-16
41
1
10
23.123619777516
20
1.0392699685284
30
-1E-16
41
1
10
22.9997476098326
20
1.08474747980213
30
0
0
SPLINE
5
FC
100
AcDbEntity
8
1
62
256
6
ByLayer
370
18
48
1
60
0
100
AcDbSpline
70
4
71
3
72
14
73
10
40
0
40
0
40
0
40
0
40
0.0802386258372449
40
0.0802386258372449
40
0.363767363024583
40
0.363767363024583
40
0.647296100211922
40
0.647296100211922
40
1
40
1
40
1
40
1
41
1
10
21.4712841926537
20
1.46881300538328
30
0
41
1
10
21.4332290845708
20
1.47348953941125
30
0
41
1
10
21.395137379659
20
1.47777709741797
30
0
41
1
10
21.2222514418318
20
1.49542403211353
30
0
41
1
10
21.0864715730333
20
1.50438636555177
30
0
41
1
10
20.8160179247714
20
1.51226373266533
30
0
41
1
10
20.681433431913
20
1.51116238095966
30
0
41
1
10
20.3803292939383
20
1.49723059914368
30
0
41
1
10
20.2139333514481
20
1.48205498057931
30
0
41
1
10
20.047561725105
20
1.45946458967725
30
0
0
SPLINE
5
FD
100
AcDbEntity
8
1
62
256
6
ByLayer
370
18
48
1
60
0
100
AcDbSpline
70
4
71
3
72
30
73
26
40
0
40
0
40
0
40
0
40
0.0240242790688288
40
0.0240242790688288
40
0.137345085169001
40
0.137345085169001
40
0.194005488219089
40
0.194005488219089
40
0.250665891269176
40
0.250665891269176
40
0.363986697369353
40
0.363986697369353
40
0.42064710041944
40
0.42064710041944
40
0.477307503469528
40
0.477307503469528
40
0.703949115669884
40
0.703949115669884
40
0.760609518719973
40
0.760609518719973
40
0.81726992177006
40
0.81726992177006
40
0.930590727870239
40
0.930590727870239
40
1
40
1
40
1
40
1
41
1
10
11.8460662770472
20
-1.50442997592839
30
0
41
1
10
11.7893089745192
20
-1.50498449634657
30
0
41
1
10
11.7325671985547
20
-1.50464270643695
30
0
41
1
10
11.4081308598456
20
-1.49749713189894
30
0
41
1
10
11.140307311647
20
-1.4719362486172
30
0
41
1
10
10.7350444631998
20
-1.40437260569414
30
0
41
1
10
10.5989649090671
20
-1.37689629179613
30
0
41
1
10
10.3286897089507
20
-1.3132887762558
30
0
41
1
10
10.1941535734055
20
-1.27712689250018
30
0
41
1
10
9.79147794066802
20
-1.15675630318182
30
0
41
1
10
9.52427310673639
20
-1.06060752712759
30
1E-16
41
1
10
9.12198356115118
20
-0.897042036120808
30
1E-16
41
1
10
8.98764045328647
20
-0.839307781512019
30
1E-16
41
1
10
8.71788716470041
20
-0.718178847877851
30
0
41
1
10
8.58199764655259
20
-0.654550168935458
30
0
41
1
10
7.90489433791043
20
-0.327643462473873
30
0
41
1
10
7.37369516061221
20
-0.0399691357662277
30
0
41
1
10
6.7002770966609
20
0.308519030310492
30
0
41
1
10
6.56496051205346
20
0.377742483045353
30
0
41
1
10
6.29348004669814
20
0.513584616281065
30
0
41
1
10
6.15846442455705
20
0.579626542669672
30
0
41
1
10
5.75471529103078
20
0.770720664293748
30
0
41
1
10
5.48726954109918
20
0.888729238663672
30
-1E-16
41
1
10
5.05520217837139
20
1.05820232311851
30
-1E-16
41
1
10
4.89090462188682
20
1.11774655637279
30
0
41
1
10
4.72588494824711
20
1.17167999720334
30
0
0
SPLINE
5
FE
100
AcDbEntity
8
1
62
256
6
ByLayer
370
18
48
1
60
0
100
AcDbSpline
70
4
71
3
72
8
73
4
40
0
40
0
40
0
40
0
40
1
40
1
40
1
40
1
41
1
10
29.3051659474339
20
1.56208848962146
30
0
41
1
10
29.3397956556837
20
1.54270199433984
30
0
41
1
10
29.374529599758
20
1.52275198198342
30
0
41
1
10
29.4093918105264
20
1.50225913686276
30
0
0
SPLINE
5
FF
100
AcDbEntity
8
1
62
256
6
ByLayer
370
18
48
1
60
0
100
AcDbSpline
70
4
71
3
72
8
73
4
40
0
40
0
40
0
40
0
40
1
40
1
40
1
40
1
41
1
10
14.1499999999999
20
0.867184793205183
30
-1E-16
41
1
10
14.1499999999999
20
0.859053315759468
30
-1E-16
41
1
10
14.15
20
0.850115288831887
30
-1E-16
41
1
10
14.15
20
0.840382258411552
30
-1E-16
0
SPLINE
5
100
100
AcDbEntity
8
1
62
256
6
ByLayer
370
18
48
1
60
0
100
AcDbSpline
70
4
71
3
72
22
73
18
40
0
40
0
40
0
40
0
40
0.16843522301644
40
0.16843522301644
40
0.33687044603288
40
0.33687044603288
40
0.421088057541103
40
0.421088057541103
40
0.505305669049326
40
0.505305669049326
40
0.673740892065772
40
0.673740892065772
40
0.757958503573995
40
0.757958503573995
40
0.842176115082218
40
0.842176115082218
40
1
40
1
40
1
40
1
41
1
10
29.2566050510547
20
-0.127047593406104
30
0
41
1
10
28.9898901682675
20
0.0120032384222668
30
0
41
1
10
28.7252926296464
20
0.152445674415048
30
0
41
1
10
28.1948465765848
20
0.425892028124394
30
0
41
1
10
27.9291740600167
20
0.559055840103724
30
0
41
1
10
27.5267128997669
20
0.747200102653096
30
0
41
1
10
27.3925785251512
20
0.807643400184247
30
0
41
1
10
27.1260680071457
20
0.922004536741355
30
-1E-16
41
1
10
26.9933597961962
20
0.976081721093323
30
-1E-16
41
1
10
26.595748975234
20
1.12843872159212
30
-1E-16
41
1
10
26.3314333190693
20
1.21664494197023
30
0
41
1
10
25.9333487103626
20
1.32443835036884
30
0
41
1
10
25.8003616839193
20
1.35635007290602
30
0
41
1
10
25.5333140201597
20
1.41071921515635
30
0
41
1
10
25.3988075824047
20
1.433173753837
30
0
41
1
10
25.014069843225
20
1.48475110809409
30
0
41
1
10
24.7646988348571
20
1.50282585673753
30
0
41
1
10
24.51601753187
20
1.50345845375227
30
0
0
SPLINE
5
101
100
AcDbEntity
8
1
62
256
6
ByLayer
370
18
48
1
60
0
100
AcDbSpline
70
4
71
3
72
42
73
38
40
0
40
0
40
0
40
0
40
0.0051968525485105
40
0.0051968525485105
40
0.0642531368611545
40
0.0642531368611545
40
0.123309421173799
40
0.123309421173799
40
0.182365705486442
40
0.182365705486442
40
0.241421989799087
40
0.241421989799087
40
0.300478274111731
40
0.300478274111731
40
0.359534558424375
40
0.359534558424375
40
0.418590842737019
40
0.418590842737019
40
0.477647127049663
40
0.477647127049663
40
0.536703411362307
40
0.536703411362307
40
0.595759695674951
40
0.595759695674951
40
0.654815979987595
40
0.654815979987595
40
0.713872264300239
40
0.713872264300239
40
0.772928548612883
40
0.772928548612883
40
0.831984832925527
40
0.831984832925527
40
0.891041117238171
40
0.891041117238171
40
0.950097401550815
40
0.950097401550815
40
1
40
1
40
1
40
1
41
1
10
13.2967174702561
20
-1.07107505373952
30
1E-16
41
1
10
13.2849754501315
20
-1.06682121683113
30
1E-16
41
1
10
13.2732310076678
20
-1.06254046035994
30
1E-16
41
1
10
13.1279932696222
20
-1.00928005984019
30
1E-16
41
1
10
12.994339543576
20
-0.955909971091018
30
1E-16
41
1
10
12.7257649490625
20
-0.842956118110976
30
1E-16
41
1
10
12.5909607495128
20
-0.784082051776522
30
0
41
1
10
12.3231928012157
20
-0.662332098501651
30
0
41
1
10
12.1900322267688
20
-0.598810878560272
30
0
41
1
10
11.9241716529379
20
-0.468568188404873
30
0
41
1
10
11.791304999451
20
-0.402275397490826
30
0
41
1
10
11.5256347447134
20
-0.267123561933204
30
0
41
1
10
11.3928319898671
20
-0.198264004436311
30
0
41
1
10
11.1264968123971
20
-0.0597429045946853
30
0
41
1
10
10.9929628491393
20
0.0099149934657703
30
0
41
1
10
10.7248096944882
20
0.149623278407432
30
0
41
1
10
10.5898753443588
20
0.219831354558011
30
0
41
1
10
10.3217345202024
20
0.357130019873722
30
0
41
1
10
10.1881296931937
20
0.424437950799103
30
0
41
1
10
9.92173242782485
20
0.555679275498051
30
0
41
1
10
9.78893019390668
20
0.619610463980592
30
0
41
1
10
9.52316552950015
20
0.742989404380097
30
0
41
1
10
9.39021213880707
20
0.802438206568354
30
0
41
1
10
9.12399996702104
20
0.915917527494457
30
-1E-16
41
1
10
8.99073378742088
20
0.96995287984933
30
-1E-16
41
1
10
8.7230069708877
20
1.07187487022418
30
-1E-16
41
1
10
8.5880480305907
20
1.11991348490795
30
0
41
1
10
8.31937239060443
20
1.20760002723839
30
0
41
1
10
8.18582898190743
20
1.2472458220827
30
0
41
1
10
7.91917357153329
20
1.31842811227048
30
0
41
1
10
7.78608432031734
20
1.34992806857045
30
0
41
1
10
7.52035988863491
20
1.40346104736807
30
0
41
1
10
7.38770845507145
20
1.42553423884544
30
0
41
1
10
7.12183385949976
20
1.46102790591709
30
0
41
1
10
6.98861962284701
20
1.47442241589766
30
0
41
1
10
6.74217597999649
20
1.48963375425711
30
0
41
1
10
6.62904754669438
20
1.49293183719277
30
0
41
1
10
6.51540291940211
20
1.49287073851178
30
0
0
SPLINE
5
102
100
AcDbEntity
8
1
62
256
6
ByLayer
370
18
48
1
60
0
100
AcDbSpline
70
4
71
3
72
30
73
26
40
0
40
0
40
0
40
0
40
0.0449833913718248
40
0.0449833913718248
40
0.106018541541785
40
0.106018541541785
40
0.228088841881706
40
0.228088841881706
40
0.350159142221626
40
0.350159142221626
40
0.411194292391585
40
0.411194292391585
40
0.472229442561544
40
0.472229442561544
40
0.594299742901459
40
0.594299742901459
40
0.716370043241375
40
0.716370043241375
40
0.777405193411333
40
0.777405193411333
40
0.838440343581292
40
0.838440343581292
40
0.96051064392121
40
0.96051064392121
40
1
40
1
40
1
40
1
41
1
10
14.2111883545143
20
1.00194092146981
30
0
41
1
10
14.3103225675749
20
0.963562864140926
30
-1E-16
41
1
10
14.4096267158418
20
0.92327043611138
30
-1E-16
41
1
10
14.6443560425502
20
0.824135942147393
30
-1E-16
41
1
10
14.7804130877498
20
0.763761921202331
30
0
41
1
10
15.1860750150911
20
0.576850958737225
30
0
41
1
10
15.4542304687737
20
0.443674414051884
30
0
41
1
10
15.9907261034774
20
0.169491363490636
30
0
41
1
10
16.2589548657272
20
0.0280347850539329
30
0
41
1
10
16.6647880595967
20
-0.183507330729355
30
0
41
1
10
16.8007734348744
20
-0.254052676158892
30
0
41
1
10
17.0704885120782
20
-0.391822517562787
30
0
41
1
10
17.2047486455402
20
-0.459317641092383
30
0
41
1
10
17.6065078556279
20
-0.656244123428394
30
0
41
1
10
17.8729114278145
20
-0.779886482602791
30
0
41
1
10
18.4074665751346
20
-1.00492319074851
30
1E-16
41
1
10
18.675548239471
20
-1.10601221699545
30
1E-16
41
1
10
19.0823698205406
20
-1.23538074917585
30
0
41
1
10
19.2177196855297
20
-1.27440699187784
30
0
41
1
10
19.4868782942287
20
-1.34326909285235
30
0
41
1
10
19.6209545665387
20
-1.37326613646934
30
0
41
1
10
20.0227054000345
20
-1.44971307939673
30
0
41
1
10
20.2898425403907
20
-1.48170615882978
30
0
41
1
10
20.6451932327081
20
-1.49871375318287
30
0
41
1
10
20.7322199276634
20
-1.50074294895219
30
0
41
1
10
20.8194796087928
20
-1.50066557816791
30
0
0
SPLINE
5
103
100
AcDbEntity
8
1
62
256
6
ByLayer
370
18
48
1
60
0
100
AcDbSpline
70
4
71
3
72
8
73
4
40
0
40
0
40
0
40
0
40
1
40
1
40
1
40
1
41
1
10
29.3122377095609
20
1.48276943419631
30
0
41
1
10
29.3494809685518
20
1.48619119038341
30
0
41
1
10
29.3867576853241
20
1.48923793571572
30
0
41
1
10
29.4240732968466
20
1.4919047616834
30
0
0
SPLINE
5
104
100
AcDbEntity
8
1
62
256
6
ByLayer
370
18
48
1
60
0
100
AcDbSpline
70
4
71
3
72
8
73
4
40
0
40
0
40
0
40
0
40
1
40
1
40
1
40
1
41
1
10
29.8567454394915
20
-0.518862880282313
30
0
41
1
10
29.9049608375245
20
-0.383857589562126
30
0
41
1
10
29.9519492671372
20
-0.248412268222609
30
0
41
1
10
29.9976929802011
20
-0.112520551209855
30
0
0
SPLINE
5
105
100
AcDbEntity
8
1
62
256
6
ByLayer
370
18
48
1
60
0
100
AcDbSpline
70
4
71
3
72
18
73
14
40
0
40
0
40
0
40
0
40
0.478935338634523
40
0.478935338634523
40
0.684431810054289
40
0.684431810054289
40
0.769439721124266
40
0.769439721124266
40
0.85547734396457
40
0.85547734396457
40
0.933417653555417
40
0.933417653555417
40
1
40
1
40
1
40
1
41
1
10
29.4093918105264
20
-1.5022591368627
30
0
41
1
10
29.4119664011813
20
-1.50074573061633
30
0
41
1
10
29.4147611137418
20
-1.49903269268836
30
0
41
1
10
29.4187784827313
20
-1.49636422753718
30
0
41
1
10
29.4200360439683
20
-1.49550013635675
30
0
41
1
10
29.4216353787776
20
-1.49431560960656
30
0
41
1
10
29.4220913150748
20
-1.49396538604452
30
0
41
1
10
29.4228911140035
20
-1.49331481891514
30
0
41
1
10
29.4232420696523
20
-1.49300751322693
30
0
41
1
10
29.4237324490975
20
-1.49252400861738
30
0
41
1
10
29.4238948666492
20
-1.49233228360416
30
0
41
1
10
29.4240611717065
20
-1.49206326475633
30
0
41
1
10
29.4240873139849
20
-1.49197032438937
30
0
41
1
10
29.4240732968259
20
-1.49190476168192
30
0
0
SPLINE
5
106
100
AcDbEntity
8
1
62
256
6
ByLayer
370
18
48
1
60
0
100
AcDbSpline
70
4
71
3
72
8
73
4
40
0
40
0
40
0
40
0
40
1
40
1
40
1
40
1
41
1
10
3.55405821965169
20
1.5135667570984
30
0
41
1
10
3.52940384706298
20
1.5171050489171
30
0
41
1
10
3.51127083902549
20
1.52320691027532
30
0
41
1
10
3.50483826425489
20
1.52921999377878
30
0
0
SPLINE
5
107
100
AcDbEntity
8
1
62
256
6
ByLayer
370
18
48
1
60
0
100
AcDbSpline
70
4
71
3
72
18
73
14
40
0
40
0
40
0
40
0
40
0.24999999999999
40
0.24999999999999
40
0.374999999999985
40
0.374999999999985
40
0.499999999999979
40
0.499999999999979
40
0.749999999999982
40
0.749999999999982
40
0.874999999999991
40
0.874999999999991
40
1
40
1
40
1
40
1
41
1
10
29.4674542625043
20
-1.47990272296158
30
0
41
1
10
29.4968280120787
20
-1.39762412679295
30
0
41
1
10
29.52601687076
20
-1.31499179212525
30
0
41
1
10
29.5700915663761
20
-1.190788022319
30
0
41
1
10
29.5848299028377
20
-1.14934390003103
30
0
41
1
10
29.6144451295959
20
-1.06640844543981
30
0
41
1
10
29.6292122751649
20
-1.02491266888748
30
0
41
1
10
29.6754780815699
20
-0.900422860097621
30
0
41
1
10
29.7080237852821
20
-0.819427355018462
30
0
41
1
10
29.7606760059605
20
-0.703070353457775
30
0
41
1
10
29.7788784756923
20
-0.665039046652794
30
0
41
1
10
29.8167753908091
20
-0.590494873584817
30
0
41
1
10
29.8365506392181
20
-0.553888865461744
30
0
41
1
10
29.8567454394915
20
-0.518862880282342
30
0
0
SPLINE
5
108
100
AcDbEntity
8
1
62
256
6
ByLayer
370
18
48
1
60
0
100
AcDbSpline
70
4
71
3
72
18
73
14
40
0
40
0
40
0
40
0
40
0.0798619719483439
40
0.0798619719483439
40
0.233218309956953
40
0.233218309956953
40
0.386574647965562
40
0.386574647965562
40
0.693287323982781
40
0.693287323982781
40
0.846643661991391
40
0.846643661991391
40
1
40
1
40
1
40
1
41
1
10
3.50435932734655
20
-1.56879909121659
30
0
41
1
10
3.50436205939076
20
-1.56891201846417
30
0
41
1
10
3.50436471483715
20
-1.56748109462887
30
0
41
1
10
3.5043722946107
20
-1.55880749543616
30
0
41
1
10
3.50437709459689
20
-1.54726819943875
30
0
41
1
10
3.50438624529178
20
-1.5129837763439
30
0
41
1
10
3.50439058602433
20
-1.49040807514569
30
0
41
1
10
3.50440316705774
20
-1.40676873681232
30
0
41
1
10
3.50441108839792
20
-1.32839094822245
30
0
41
1
10
3.50442181496399
20
-1.18546871000126
30
1E-16
41
1
10
3.50442521663385
20
-1.13346439677417
30
1E-16
41
1
10
3.504431621409
20
-1.02052342257897
30
1E-16
41
1
10
3.5044346149952
20
-0.959628392317484
30
1E-16
41
1
10
3.50443727073684
20
-0.895642535450662
30
1E-16
0
SPLINE
5
109
100
AcDbEntity
8
1
62
256
6
ByLayer
370
18
48
1
60
0
100
AcDbSpline
70
4
71
3
72
14
73
10
40
0
40
0
40
0
40
0
40
0.429882703951048
40
0.429882703951048
40
0.644824055926565
40
0.644824055926565
40
0.859765407902082
40
0.859765407902082
40
1
40
1
40
1
40
1
41
1
10
29.4611607401287
20
1.48418142381451
30
0
41
1
10
29.1430995960451
20
1.48844295250433
30
0
41
1
10
28.8281444930806
20
1.46736349196593
30
0
41
1
10
28.3542551471159
20
1.39381976022338
30
0
41
1
10
28.1960077194974
20
1.36279449469006
30
0
41
1
10
27.878605570816
20
1.28928583573972
30
0
41
1
10
27.7189997509602
20
1.24638132153674
30
0
41
1
10
27.4545107638003
20
1.16541360015429
30
0
41
1
10
27.3500436821481
20
1.13073060235658
30
0
41
1
10
27.2456127351056
20
1.09395613904525
30
0
0
SPLINE
5
10A
100
AcDbEntity
8
1
62
256
6
ByLayer
370
18
48
1
60
0
100
AcDbSpline
70
4
71
3
72
16
73
12
40
0
40
0
40
0
40
0
40
0.0340517740857798
40
0.0340517740857798
40
0.275538830564335
40
0.275538830564335
40
0.517025887042889
40
0.517025887042889
40
0.758512943521445
40
0.758512943521445
40
1
40
1
40
1
40
1
41
1
10
16.136015422031
20
-0.136029566710505
30
0
41
1
10
16.113453882993
20
-0.124381554520056
30
0
41
1
10
16.0909008670387
20
-0.11272232717468
30
0
41
1
10
15.9084932544953
20
-0.0183132742249654
30
0
41
1
10
15.7490943442653
20
0.0646416622114145
30
0
41
1
10
15.4303138779324
20
0.229192842878433
30
0
41
1
10
15.2708257727591
20
0.310484160368475
30
0
41
1
10
14.9509945581235
20
0.470130172610055
30
0
41
1
10
14.7907124719823
20
0.548717522457423
30
0
41
1
10
14.4703754689222
20
0.699786967344096
30
0
41
1
10
14.3102407259226
20
0.772250824627633
30
0
41
1
10
14.15
20
0.840382258411552
30
-1E-16
0
SPLINE
5
10B
100
AcDbEntity
8
1
62
256
6
ByLayer
370
18
48
1
60
0
100
AcDbSpline
70
4
71
3
72
20
73
16
40
0
40
0
40
0
40
0
40
0.277469561892242
40
0.277469561892242
40
0.416204342838361
40
0.416204342838361
40
0.554939123784479
40
0.554939123784479
40
0.693673904730598
40
0.693673904730598
40
0.832408685676716
40
0.832408685676716
40
0.971143466622835
40
0.971143466622835
40
1
40
1
40
1
40
1
41
1
10
3.65073207537216
20
-0.839060564154181
30
1E-16
41
1
10
3.91791279975615
20
-0.964792236463865
30
1E-16
41
1
10
4.18369677580995
20
-1.0763924885444
30
1E-16
41
1
10
4.58270207366616
20
-1.22095943978758
30
0
41
1
10
4.71569625976139
20
-1.26540827111449
30
0
41
1
10
4.98181389470741
20
-1.34649480850749
30
0
41
1
10
5.11501436933295
20
-1.38301941779582
30
0
41
1
10
5.38285376587211
20
-1.44679552619223
30
0
41
1
10
5.51775635327795
20
-1.47414737071918
30
0
41
1
10
5.78545569164723
20
-1.51875389269713
30
0
41
1
10
5.91868294603358
20
-1.53607932185778
30
0
41
1
10
6.18483452347317
20
-1.5605841946213
30
0
41
1
10
6.31773315627197
20
-1.56780583452121
30
0
41
1
10
6.478146255334
20
-1.5704422640955
30
0
41
1
10
6.50576314029522
20
-1.57067635621408
30
0
41
1
10
6.5333813437253
20
-1.57069069782634
30
0
0
SPLINE
5
10C
100
AcDbEntity
8
1
62
256
6
ByLayer
370
18
48
1
60
0
100
AcDbSpline
70
4
71
3
72
46
73
42
40
0
40
0
40
0
40
0
40
0.0095111705571193
40
0.0095111705571193
40
0.0503308045357443
40
0.0503308045357443
40
0.0911504385143695
40
0.0911504385143695
40
0.172789706471621
40
0.172789706471621
40
0.254428974428873
40
0.254428974428873
40
0.295248608407499
40
0.295248608407499
40
0.336068242386125
40
0.336068242386125
40
0.417707510343377
40
0.417707510343377
40
0.458527144322002
40
0.458527144322002
40
0.499346778300628
40
0.499346778300628
40
0.58098604625788
40
0.58098604625788
40
0.662625314215131
40
0.662625314215131
40
0.703444948193756
40
0.703444948193756
40
0.744264582172382
40
0.744264582172382
40
0.785084216151007
40
0.785084216151007
40
0.825903850129632
40
0.825903850129632
40
0.866723484108257
40
0.866723484108257
40
0.907543118086882
40
0.907543118086882
40
0.989182386044132
40
0.989182386044132
40
1
40
1
40
1
40
1
41
1
10
14.7497558829435
20
1.51721527631426
30
0
41
1
10
14.7806748158958
20
1.52182587584429
30
0
41
1
10
14.8116076510739
20
1.52617154841343
30
0
41
1
10
14.9753944899844
20
1.54774978591868
30
0
41
1
10
15.1084720606835
20
1.56039087135835
30
0
41
1
10
15.375530710466
20
1.57553404688173
30
0
41
1
10
15.5101743954288
20
1.57796589107434
30
0
41
1
10
15.9121032619001
20
1.56972210694198
30
0
41
1
10
16.1770726877064
20
1.54352775513942
30
0
41
1
10
16.7074385003122
20
1.45303916340558
30
0
41
1
10
16.9720377509914
20
1.38830143363816
30
0
41
1
10
17.3726731953965
20
1.26506339872992
30
0
41
1
10
17.5071836835569
20
1.21929257601829
30
-1E-16
41
1
10
17.7750412792596
20
1.1202719966177
30
-1E-16
41
1
10
17.9083913549428
20
1.06728019391306
30
-1E-16
41
1
10
18.3073908876354
20
0.899050928256628
30
-1E-16
41
1
10
18.5716743163689
20
0.774046421375459
30
0
41
1
10
18.969713409765
20
0.573912880661879
30
0
41
1
10
19.1024986197129
20
0.504821421205861
30
0
41
1
10
19.3692448124543
20
0.363479797250022
30
0
41
1
10
19.5036542650999
20
0.290993237299574
30
0
41
1
10
19.90600547015
20
0.0718590718404926
30
0
41
1
10
20.1711271556735
20
-0.0762662466985091
30
0
41
1
10
20.7013485231318
20
-0.365163655721545
30
0
41
1
10
20.9656848235154
20
-0.507333218033807
30
0
41
1
10
21.3658268755563
20
-0.708491264614906
30
0
41
1
10
21.499897153251
20
-0.774177553654596
30
0
41
1
10
21.7679686696617
20
-0.900069784489432
30
1E-16
41
1
10
21.9015212987773
20
-0.959555486856232
30
1E-16
41
1
10
22.1676688872495
20
-1.07189992608713
30
1E-16
41
1
10
22.3001400931001
20
-1.12490183476768
30
1E-16
41
1
10
22.5648611816533
20
-1.22321941568367
30
1E-16
41
1
10
22.6974070665031
20
-1.26820476671824
30
0
41
1
10
22.9627482896631
20
-1.35009799302387
30
0
41
1
10
23.095449007978
20
-1.38707256061235
30
0
41
1
10
23.3617662713841
20
-1.45205001109429
30
0
41
1
10
23.495848404172
20
-1.47992645111364
30
0
41
1
10
23.8985616364188
20
-1.54918868684382
30
0
41
1
10
24.1632464972732
20
-1.57528527549593
30
0
41
1
10
24.4635741037617
20
-1.58154099623809
30
0
41
1
10
24.4987087501014
20
-1.58192134749825
30
0
41
1
10
24.5338423404632
20
-1.58194924751433
30
0
0
SPLINE
5
10D
100
AcDbEntity
8
1
62
256
6
ByLayer
370
18
48
1
60
0
100
AcDbSpline
70
4
71
3
72
34
73
30
40
0
40
0
40
0
40
0
40
0.0868012770322734
40
0.0868012770322734
40
0.173602554064547
40
0.173602554064547
40
0.26040383109682
40
0.26040383109682
40
0.303804469612957
40
0.303804469612957
40
0.347205108129093
40
0.347205108129093
40
0.434006385161367
40
0.434006385161367
40
0.52080766219364
40
0.52080766219364
40
0.564208300709777
40
0.564208300709777
40
0.607608939225914
40
0.607608939225914
40
0.694410216258187
40
0.694410216258187
40
0.78121149329046
40
0.78121149329046
40
0.824612131806597
40
0.824612131806597
40
0.868012770322734
40
0.868012770322734
40
1
40
1
40
1
40
1
41
1
10
4.03814700516801
20
1.29626859826823
30
0
41
1
10
4.25121085008499
20
1.23101688430754
30
0
41
1
10
4.46225009409932
20
1.15554755732509
30
-1E-16
41
1
10
4.88226214839403
20
0.986828774653361
30
-1E-16
41
1
10
5.09158637576874
20
0.894028769293698
30
-1E-16
41
1
10
5.51169720374389
20
0.696017475815182
30
0
41
1
10
5.72214328304099
20
0.590282561260864
30
0
41
1
10
6.04008716835932
20
0.424072584903854
30
0
41
1
10
6.14658723807605
20
0.3674068207105
30
0
41
1
10
6.35822335591081
20
0.253530313518212
30
0
41
1
10
6.46377740482978
20
0.196375259832877
30
0
41
1
10
6.77964629534739
20
0.0242362651371195
30
0
41
1
10
6.98906804973532
20
-0.0916020997750309
30
0
41
1
10
7.40847024254876
20
-0.320078736619564
30
0
41
1
10
7.61864747811728
20
-0.432361624983059
30
0
41
1
10
7.93575574783074
20
-0.595755929020982
30
0
41
1
10
8.04201548672813
20
-0.649559546585039
30
0
41
1
10
8.25425222745011
20
-0.753980875191587
30
0
41
1
10
8.35991551506049
20
-0.804547775198898
30
0
41
1
10
8.67610171714702
20
-0.950530156914795
30
1E-16
41
1
10
8.88602797279543
20
-1.03996553317867
30
1E-16
41
1
10
9.30519222992675
20
-1.2018059785506
30
1E-16
41
1
10
9.51468577944144
20
-1.27377769294796
30
0
41
1
10
9.83110887906898
20
-1.36554274921917
30
0
41
1
10
9.93686595059759
20
-1.39352755172794
30
0
41
1
10
10.1491299002407
20
-1.44398498210114
30
0
41
1
10
10.2553585897535
20
-1.46635798170857
30
0
41
1
10
10.6822586893475
20
-1.54384102092897
30
0
41
1
10
11.0004393151318
20
-1.57341102565599
30
0
41
1
10
11.3193341794714
20
-1.57369432516208
30
0
0
SPLINE
5
10E
100
AcDbEntity
8
1
62
256
6
ByLayer
370
18
48
1
60
0
100
AcDbSpline
70
4
71
3
72
10
73
6
40
0
40
0
40
0
40
0
40
0.5
40
0.5
40
1
40
1
40
1
40
1
41
1
10
3.55548459774406
20
-1.45053040630407
30
0
41
1
10
3.54087856542159
20
-1.45973410464907
30
0
41
1
10
3.5295430970838
20
-1.47222110339769
30
0
41
1
10
3.512711289283
20
-1.49967693334855
30
0
41
1
10
3.50716897520874
20
-1.51478194899175
30
0
41
1
10
3.50433384474252
20
-1.53015973928234
30
0
0
SPLINE
5
10F
100
AcDbEntity
8
1
62
256
6
ByLayer
370
18
48
1
60
0
100
AcDbSpline
70
4
71
3
72
18
73
14
40
0
40
0
40
0
40
0
40
0.249999999999979
40
0.249999999999979
40
0.374999999999976
40
0.374999999999976
40
0.499999999999972
40
0.499999999999972
40
0.749999999999978
40
0.749999999999978
40
0.874999999999989
40
0.874999999999989
40
1
40
1
40
1
40
1
41
1
10
29.4674542625043
20
1.47990272296158
30
0
41
1
10
29.4968280120788
20
1.39762412679266
30
0
41
1
10
29.5260168707603
20
1.31499179212457
30
0
41
1
10
29.5700915663765
20
1.19078802231766
30
0
41
1
10
29.5848299028382
20
1.14934390002949
30
0
41
1
10
29.6144451295967
20
1.06640844543779
30
0
41
1
10
29.6292122751657
20
1.02491266888521
30
0
41
1
10
29.6754780815711
20
0.900422860094466
30
0
41
1
10
29.708023785282
20
0.819427355018576
30
0
41
1
10
29.7606760059604
20
0.703070353457946
30
0
41
1
10
29.7788784756923
20
0.665039046652737
30
0
41
1
10
29.8167753908096
20
0.590494873583907
30
0
41
1
10
29.8365506392184
20
0.553888865461175
30
0
41
1
10
29.8567454394915
20
0.518862880282342
30
0
0
SPLINE
5
110
100
AcDbEntity
8
1
62
256
6
ByLayer
370
18
48
1
60
0
100
AcDbSpline
70
4
71
3
72
36
73
32
40
0
40
0
40
0
40
0
40
0.0398433208705094
40
0.0398433208705094
40
0.202968785994057
40
0.202968785994057
40
0.243750152274945
40
0.243750152274945
40
0.284531518555833
40
0.284531518555833
40
0.366094251117609
40
0.366094251117609
40
0.406875617398497
40
0.406875617398497
40
0.447656983679385
40
0.447656983679385
40
0.529219716241162
40
0.529219716241162
40
0.61078244880294
40
0.61078244880294
40
0.651563815083828
40
0.651563815083828
40
0.692345181364716
40
0.692345181364716
40
0.773907913926492
40
0.773907913926492
40
0.81468928020738
40
0.81468928020738
40
0.855470646488268
40
0.855470646488268
40
1
40
1
40
1
40
1
41
1
10
21.6575577231901
20
-1.50853594204858
30
0
41
1
10
21.5256777853675
20
-1.53009916718804
30
0
41
1
10
21.3934832155615
20
-1.54689126349823
30
0
41
1
10
20.7249590666419
20
-1.60676706593426
30
0
41
1
10
20.1959340698896
20
-1.57171450493908
30
0
41
1
10
19.5213403212354
20
-1.42765737462327
30
0
41
1
10
19.3859551881355
20
-1.39384070080072
30
0
41
1
10
19.1171719411096
20
-1.31784224041613
30
0
41
1
10
18.9832869674875
20
-1.27555791286068
30
0
41
1
10
18.582312145296
20
-1.13697863742627
30
1E-16
41
1
10
18.3160505971706
20
-1.02874826449357
30
1E-16
41
1
10
17.9143670699802
20
-0.847716935757063
30
1E-16
41
1
10
17.7801203938082
20
-0.784219645495853
30
0
41
1
10
17.5102789346715
20
-0.65178844454806
30
0
41
1
10
17.3747727094957
20
-0.582917979948888
30
0
41
1
10
16.9714137520355
20
-0.372864655226778
30
0
41
1
10
16.7047341867111
20
-0.227165618926392
30
0
41
1
10
16.1708036384322
20
0.066276109034817
30
0
41
1
10
15.9036946632075
20
0.214282807426855
30
0
41
1
10
15.498925300142
20
0.431007650239735
30
0
41
1
10
15.3633597724298
20
0.502432918752646
30
0
41
1
10
15.0943631505034
20
0.640334088567528
30
0
41
1
10
14.9603951934514
20
0.707050709088207
30
0
41
1
10
14.5592780354695
20
0.899307098891228
30
-1E-16
41
1
10
14.2929248612554
20
1.01694522142412
30
-1E-16
41
1
10
13.8912462065745
20
1.17202394356633
30
-1E-16
41
1
10
13.7570344436793
20
1.22020757331953
30
0
41
1
10
13.4872822625247
20
1.30855204371741
30
0
41
1
10
13.3516190989891
20
1.34868234295786
30
0
41
1
10
12.7400211673671
20
1.50870000077316
30
0
41
1
10
12.2703538703332
20
1.57402331350269
30
0
41
1
10
11.7943133452036
20
1.57397036318909
30
0
0
SPLINE
5
111
100
AcDbEntity
8
1
62
256
6
ByLayer
370
18
48
1
60
0
100
AcDbSpline
70
4
71
3
72
8
73
4
40
0
40
0
40
0
40
0
40
1
40
1
40
1
40
1
41
1
10
3.66194347381392
20
-1.49701663099279
30
0
41
1
10
3.62602337963625
20
-1.50288089057216
30
0
41
1
10
3.59006346956329
20
-1.50839943512602
30
0
41
1
10
3.55405821965169
20
-1.5135667570984
30
0
0
SPLINE
5
112
100
AcDbEntity
8
1
62
256
6
ByLayer
370
18
48
1
60
0
100
AcDbSpline
70
4
71
1
72
4
73
2
40
0
40
0
40
1
40
1
41
1
10
29.4674486413634
20
1.48011530487202
30
0
41
1
10
29.4210319731461
20
1.51144481499276
30
0
0
SPLINE
5
113
100
AcDbEntity
8
1
62
256
6
ByLayer
370
18
48
1
60
0
100
AcDbSpline
70
4
71
1
72
4
73
2
40
0
40
0
40
1
40
1
41
1
10
29.4210319731458
20
-1.51144481499296
30
0
41
1
10
29.4674486413634
20
-1.48011530487204
30
0
0
SPLINE
5
114
100
AcDbEntity
8
1
62
256
6
ByLayer
370
18
48
1
60
0
100
AcDbSpline
70
4
71
3
72
10
73
6
40
0
40
0
40
0
40
0
40
0.176486510555057
40
0.539966321703087
40
1
40
1
40
1
40
1
41
1
10
29.5173450018612
20
0.207553685378457
30
0
41
1
10
29.3893305874367
20
0.253811272614513
30
0
41
1
10
28.9983057412773
20
0.397207249289892
30
0
41
1
10
28.2777428971555
20
0.674542548183325
30
0
41
1
10
27.6889398844338
20
0.914036146480782
30
-1E-16
41
1
10
27.3614470434172
20
1.05163957119675
30
-1E-16
0
SPLINE
5
115
100
AcDbEntity
8
1
62
256
6
ByLayer
370
18
48
1
60
0
100
AcDbSpline
70
4
71
3
72
12
73
8
40
0
40
0
40
0
40
0
40
0.26479784719752
40
0.447396051963351
40
0.665831941224039
40
0.830300423970376
40
1
40
1
40
1
40
1
41
1
10
6.53081078673713
20
1.49289711194615
30
0
41
1
10
6.27228286564156
20
1.49276687096366
30
0
41
1
10
5.83548374913298
20
1.49246744571113
30
0
41
1
10
5.18542540737246
20
1.49195844649347
30
0
41
1
10
4.63333691997411
20
1.49112014289398
30
0
41
1
10
4.09386513491944
20
1.49164223342058
30
0
41
1
10
3.76789411617773
20
1.49031387143259
30
0
41
1
10
3.60240251051493
20
1.48941536223762
30
0
0
SPLINE
5
116
100
AcDbEntity
8
1
62
256
6
ByLayer
370
18
48
1
60
0
100
AcDbSpline
70
4
71
3
72
21
73
17
40
0
40
0
40
0
40
0
40
0.0001191236404362
40
0.0002219385729549
40
0.0003109693974897
40
0.000442250912655
40
0.0021141195401876
40
0.0034476487111008
40
0.0058737028396847
40
0.0103484441357697
40
0.0199276247472081
40
0.045291275166675
40
0.141934643070759
40
0.289508875987104
40
0.638190884818711
40
1
40
1
40
1
40
1
41
1
10
21.1473708669937
20
-0.0155978044577409
30
0
41
1
10
21.1473781318811
20
-0.0155926542059035
30
0
41
1
10
21.1473601660189
20
-0.0155721000210178
30
0
41
1
10
21.1472378472889
20
-0.0155121699416441
30
0
41
1
10
21.1470408018335
20
-0.0154290795605903
30
0
41
1
10
21.1454364955698
20
-0.0148301024075579
30
0
41
1
10
21.142574793232
20
-0.0138329464668629
30
0
41
1
10
21.1377915387202
20
-0.0121180073927007
30
0
41
1
10
21.1304845566558
20
-0.0095275687121443
30
0
41
1
10
21.1159433500835
20
-0.0043912081113149
30
0
41
1
10
21.0809744268707
20
0.0077609445609141
30
0
41
1
10
20.9631404876449
20
0.0483845828330516
30
0
41
1
10
20.7209399135589
20
0.133093584185104
30
0
41
1
10
20.1886678911407
20
0.325998903863535
30
0
41
1
10
19.4223581071539
20
0.616518792883397
30
0
41
1
10
18.7935227236814
20
0.871753203077105
30
-1E-16
41
1
10
18.4746901502131
20
1.00542952883529
30
-1E-16
0
SPLINE
5
117
100
AcDbEntity
8
1
62
256
6
ByLayer
370
18
48
1
60
0
100
AcDbSpline
70
4
71
3
72
21
73
17
40
0
40
0
40
0
40
0
40
8.77791071473E-05
40
0.0001893357296581
40
0.0002810209673167
40
0.0003639661042724
40
0.0006148256373686
40
0.0041221712436213
40
0.0071132931261404
40
0.0129701134543894
40
0.0250717483115819
40
0.0519146955021629
40
0.116492891462421
40
0.344173606441275
40
0.657451146711445
40
1
40
1
40
1
40
1
41
1
10
12.1486804038773
20
-0.0166683821358617
30
0
41
1
10
12.1486904019542
20
-0.0166660154299336
30
0
41
1
10
12.148693618351
20
-0.0166544510226174
30
0
41
1
10
12.1486251943054
20
-0.016612685956062
30
0
41
1
10
12.1484885290241
20
-0.0165500717341729
30
0
41
1
10
12.148202113643
20
-0.0164317329912933
30
0
41
1
10
12.1447231021337
20
-0.0151518179922903
30
0
41
1
10
12.1387627575904
20
-0.0130224929544625
30
0
41
1
10
12.1277156820547
20
-0.0090348115706149
30
0
41
1
10
12.1090285553353
20
-0.0023417134318606
30
0
41
1
10
12.0689913534218
20
0.0119199000614572
30
0
41
1
10
11.9764016826269
20
0.0446186468993801
30
0
41
1
10
11.6906182221083
20
0.145163286552957
30
0
41
1
10
11.1479139522276
20
0.341680496745369
30
0
41
1
10
10.3605323133882
20
0.642345092185678
30
0
41
1
10
9.78093373824896
20
0.877688244177847
30
-1E-16
41
1
10
9.47945296701963
20
1.00396293178105
30
-1E-16
0
SPLINE
5
118
100
AcDbEntity
8
1
62
256
6
ByLayer
370
18
48
1
60
0
100
AcDbSpline
70
4
71
3
72
13
73
9
40
0
40
0
40
0
40
0
40
0.280176895058254
40
0.479586786695616
40
0.627051391382438
40
0.77475032388372
40
0.989037989572777
40
1
40
1
40
1
40
1
41
1
10
20.7932542290223
20
-1.50067216216209
30
0
41
1
10
21.0601917869723
20
-1.50085563656432
30
0
41
1
10
21.5171318097164
20
-1.50128508894861
30
0
41
1
10
22.1146713985714
20
-1.50091129749555
30
0
41
1
10
22.5858998449965
20
-1.50240135520588
30
0
41
1
10
23.0710302857053
20
-1.50130524363939
30
0
41
1
10
23.4264766315296
20
-1.50145986981792
30
0
41
1
10
23.6411106333324
20
-1.50167715350705
30
0
41
1
10
23.6515559183989
20
-1.50168802677382
30
0
0
SPLINE
5
119
100
AcDbEntity
8
1
62
256
6
ByLayer
370
18
48
1
60
0
100
AcDbSpline
70
4
71
3
72
13
73
9
40
0
40
0
40
0
40
0
40
0.277697500538229
40
0.47457121564564
40
0.620479778093685
40
0.766899852500166
40
0.978253310122361
40
1
40
1
40
1
40
1
41
1
10
15.532010197019
20
1.49808225257527
30
0
41
1
10
15.2636055925722
20
1.49793689674067
30
0
41
1
10
14.804903623086
20
1.49760841757802
30
0
41
1
10
14.2050841305993
20
1.49685976241631
30
0
41
1
10
13.732240277117
20
1.49636017193689
30
0
41
1
10
13.245653703597
20
1.49603396352325
30
0
41
1
10
12.8787094348306
20
1.49551944781959
30
0
41
1
10
12.6533890490839
20
1.49528963619844
30
0
41
1
10
12.6323686124406
20
1.49526891277347
30
0
0
SPLINE
5
11A
100
AcDbEntity
8
1
62
256
6
ByLayer
370
18
48
1
60
0
100
AcDbSpline
70
4
71
3
72
11
73
7
40
0
40
0
40
0
40
0
40
0.232271230082163
40
0.457382557352448
40
0.756360161655977
40
1
40
1
40
1
40
1
41
1
10
3.60240251051493
20
-1.48941536223765
30
0
41
1
10
3.76789411617796
20
-1.49031387143259
30
0
41
1
10
4.09386513492012
20
-1.49164223342058
30
0
41
1
10
4.63333691997548
20
-1.49112014289398
30
0
41
1
10
5.18094173208584
20
-1.49195163837987
30
0
41
1
10
5.56799134921022
20
-1.49225795994567
30
0
41
1
10
5.74178026786595
20
-1.49238750184034
30
0
0
SPLINE
5
11B
100
AcDbEntity
8
1
62
256
6
ByLayer
370
18
48
1
60
0
100
AcDbSpline
70
4
71
3
72
13
73
9
40
0
40
0
40
0
40
0
40
0.305693948020111
40
0.512764211598938
40
0.65621700268094
40
0.799168647875683
40
0.99205260888672
40
1
40
1
40
1
40
1
41
1
10
11.7908073804849
20
-1.49474162501795
30
0
41
1
10
12.0923100934148
20
-1.49485095716966
30
0
41
1
10
12.5980575103225
20
-1.49512592805453
30
0
41
1
10
13.245653703586
20
-1.49603396352327
30
0
41
1
10
13.7322402771043
20
-1.49636017193686
30
0
41
1
10
14.2050841305874
20
-1.49685976241631
30
0
41
1
10
14.5442943731096
20
-1.49728314228665
30
0
41
1
10
14.7424418510924
20
-1.49748492574383
30
0
41
1
10
14.7502830154311
20
-1.49749284040226
30
0
0
SPLINE
5
11C
100
AcDbEntity
8
1
62
256
6
ByLayer
370
18
48
1
60
0
100
AcDbSpline
70
4
71
3
72
12
73
8
40
0
40
0
40
0
40
0
40
0.317236468525736
40
0.530335070313833
40
0.677214434088892
40
0.823860770314367
40
1
40
1
40
1
40
1
41
1
10
24.5319671971027
20
1.50343490782768
30
0
41
1
10
24.2280806278463
20
1.50250316722924
30
0
41
1
10
23.7200648748747
20
1.50158758650048
30
0
41
1
10
23.0710302856834
20
1.50130524363937
30
0
41
1
10
22.5858998449727
20
1.50240135520585
30
0
41
1
10
22.1359071895905
20
1.50097844657029
30
0
41
1
10
21.8265998744593
20
1.50109666900292
30
0
41
1
10
21.657823252442
20
1.5011109966465
30
0
0
SPLINE
5
11D
100
AcDbEntity
8
1
62
256
6
ByLayer
370
18
48
1
60
0
100
AcDbSpline
70
4
71
3
72
8
73
4
40
0
40
0
40
0
40
0
40
1
40
1
40
1
40
1
41
1
10
21.017813169566
20
1.50083553957973
30
0
41
1
10
20.9429592369518
20
1.5007803592907
30
0
41
1
10
20.8681063795737
20
1.50072361034978
30
0
41
1
10
20.7932542290232
20
1.50067216216209
30
0
0
SPLINE
5
11E
100
AcDbEntity
8
1
62
256
6
ByLayer
370
18
48
1
60
0
100
AcDbSpline
70
4
71
1
72
4
73
2
40
0
40
0
40
1
40
1
41
1
10
7.28728552600256
20
0.0027110723371777
30
0
41
1
10
7.2872765936142
20
0.0027184545894272
30
0
0
LINE
5
84
100
AcDbEntity
8
SK1
62
256
6
ByLayer
370
18
48
1
60
0
100
AcDbLine
10
-35.75
20
0.550285
30
0
11
-35.75
21
0.943654
31
0
39
0
210
0
220
0
230
1
0
LINE
5
86
100
AcDbEntity
8
SK1
62
256
6
ByLayer
370
18
48
1
60
0
100
AcDbLine
10
-35.065
20
-3
30
0
11
-35.065
21
3
31
0
39
0
210
0
220
0
230
1
0
LINE
5
87
100
AcDbEntity
8
SK1
62
256
6
ByLayer
370
18
48
1
60
0
100
AcDbLine
10
0
20
3
30
0
11
0
21
-3
31
0
39
0
210
0
220
0
230
1
0
LINE
5
88
100
AcDbEntity
8
SK1
62
256
6
ByLayer
370
18
48
1
60
0
100
AcDbLine
10
-36
20
0.795134
30
0
11
-36
21
1.12322
31
0
39
0
210
0
220
0
230
1
0
LINE
5
89
100
AcDbEntity
8
SK1
62
256
6
ByLayer
370
18
48
1
60
0
100
AcDbLine
10
-36
20
-2.065
30
0
11
-36
21
-0.795134
31
0
39
0
210
0
220
0
230
1
0
LINE
5
8A
100
AcDbEntity
8
SK1
62
256
6
ByLayer
370
18
48
1
60
0
100
AcDbLine
10
-35.65
20
-0.438499
30
0
11
-35.65
21
0.856248
31
0
39
0
210
0
220
0
230
1
0
LINE
5
8B
100
AcDbEntity
8
SK1
62
256
6
ByLayer
370
18
48
1
60
0
100
AcDbLine
10
-36
20
1.12322
30
0
11
-36
21
2.065
31
0
39
0
210
0
220
0
230
1
0
LINE
5
8C
100
AcDbEntity
8
SK1
62
256
6
ByLayer
370
18
48
1
60
0
100
AcDbLine
10
-35.850962
20
0.559895
30
0
11
-35.850962
21
0.934045
31
0
39
0
210
0
220
0
230
1
0
LINE
5
8D
100
AcDbEntity
8
1
62
256
6
ByLayer
370
18
48
1
60
0
100
AcDbLine
10
0.795599
20
2.283802
30
0
11
0.795599
21
0
31
0
39
0
210
0
220
0
230
1
0
LINE
5
8E
100
AcDbEntity
8
1
62
256
6
ByLayer
370
18
48
1
60
0
100
AcDbLine
10
0.795599
20
0
30
0
11
0.795599
21
-2.283802
31
0
39
0
210
0
220
0
230
1
0
LINE
5
8F
100
AcDbEntity
8
1
62
256
6
ByLayer
370
18
48
1
60
0
100
AcDbLine
10
29.971518
20
0.024603
30
0
11
29.587227
21
0.448794
31
0
39
0
210
0
220
0
230
1
0
LINE
5
90
100
AcDbEntity
8
1
62
256
6
ByLayer
370
18
48
1
60
0
100
AcDbLine
10
1.591697
20
1.567604
30
0
11
1.591697
21
0
31
0
39
0
210
0
220
0
230
1
0
LINE
5
91
100
AcDbEntity
8
1
62
256
6
ByLayer
370
18
48
1
60
0
100
AcDbLine
10
1.591697
20
0
30
0
11
1.591697
21
-1.567604
31
0
39
0
210
0
220
0
230
1
0
LINE
5
92
100
AcDbEntity
8
1
62
256
6
ByLayer
370
18
48
1
60
0
100
AcDbLine
10
14.15
20
0.898126
30
0
11
14.15
21
0.867185
31
0
39
0
210
0
220
0
230
1
0
LINE
5
93
100
AcDbEntity
8
1
62
256
6
ByLayer
370
18
48
1
60
0
100
AcDbLine
10
0
20
3
30
0
11
0
21
0
31
0
39
0
210
0
220
0
230
1
0
LINE
5
94
100
AcDbEntity
8
1
62
256
6
ByLayer
370
18
48
1
60
0
100
AcDbLine
10
0
20
0
30
0
11
0
21
-3
31
0
39
0
210
0
220
0
230
1
0
LINE
5
95
100
AcDbEntity
8
1
62
256
6
ByLayer
370
18
48
1
60
0
100
AcDbLine
10
28.803964
20
0.122168
30
0
11
28.803811
21
0.126819
31
0
39
0
210
0
220
0
230
1
0
LINE
5
96
100
AcDbEntity
8
1
62
256
6
ByLayer
370
18
48
1
60
0
100
AcDbLine
10
1.591697
20
-1.567604
30
0
11
3.504345
21
-1.568799
31
0
39
0
210
0
220
0
230
1
0
LINE
5
97
100
AcDbEntity
8
1
62
256
6
ByLayer
370
18
48
1
60
0
100
AcDbLine
10
6.532214
20
-1.570692
30
0
11
6.96035
21
-1.570959
31
0
39
0
210
0
220
0
230
1
0
LINE
5
98
100
AcDbEntity
8
1
62
256
6
ByLayer
370
18
48
1
60
0
100
AcDbLine
10
11.320192
20
-1.573684
30
0
11
11.791198
21
-1.573979
31
0
39
0
210
0
220
0
230
1
0
LINE
5
99
100
AcDbEntity
8
1
62
256
6
ByLayer
370
18
48
1
60
0
100
AcDbLine
10
15.533196
20
-1.576317
30
0
11
15.952743
21
-1.57658
31
0
39
0
210
0
220
0
230
1
0
LINE
5
9A
100
AcDbEntity
8
1
62
256
6
ByLayer
370
18
48
1
60
0
100
AcDbLine
10
20.388
20
-1.579352
30
0
11
20.790709
21
-1.579603
31
0
39
0
210
0
220
0
230
1
0
LINE
5
9B
100
AcDbEntity
8
1
62
256
6
ByLayer
370
18
48
1
60
0
100
AcDbLine
10
24.535045
20
-1.581944
30
0
11
24.943533
21
-1.582199
31
0
39
0
210
0
220
0
230
1
0
LINE
5
9C
100
AcDbEntity
8
1
62
256
6
ByLayer
370
18
48
1
60
0
100
AcDbLine
10
24.943533
20
1.582199
30
0
11
24.535045
21
1.581944
31
0
39
0
210
0
220
0
230
1
0
LINE
5
9D
100
AcDbEntity
8
1
62
256
6
ByLayer
370
18
48
1
60
0
100
AcDbLine
10
20.790709
20
1.579603
30
0
11
20.388
21
1.579352
31
0
39
0
210
0
220
0
230
1
0
LINE
5
9E
100
AcDbEntity
8
1
62
256
6
ByLayer
370
18
48
1
60
0
100
AcDbLine
10
15.952743
20
1.57658
30
0
11
15.533196
21
1.576317
31
0
39
0
210
0
220
0
230
1
0
LINE
5
9F
100
AcDbEntity
8
1
62
256
6
ByLayer
370
18
48
1
60
0
100
AcDbLine
10
11.791198
20
1.573979
30
0
11
11.320192
21
1.573684
31
0
39
0
210
0
220
0
230
1
0
LINE
5
A0
100
AcDbEntity
8
1
62
256
6
ByLayer
370
18
48
1
60
0
100
AcDbLine
10
6.96035
20
1.570959
30
0
11
6.532214
21
1.570692
31
0
39
0
210
0
220
0
230
1
0
LINE
5
A1
100
AcDbEntity
8
1
62
256
6
ByLayer
370
18
48
1
60
0
100
AcDbLine
10
3.504345
20
1.568799
30
0
11
1.591697
21
1.567604
31
0
39
0
210
0
220
0
230
1
0
LINE
5
A2
100
AcDbEntity
8
SK1
62
256
6
ByLayer
370
18
48
1
60
0
100
AcDbLine
10
-36
20
-2.065
30
0
11
-35.065
21
-3
31
0
39
0
210
0
220
0
230
1
0
LINE
5
A3
100
AcDbEntity
8
SK1
62
256
6
ByLayer
370
18
48
1
60
0
100
AcDbLine
10
-35.065
20
3
30
0
11
-36
21
2.065
31
0
39
0
210
0
220
0
230
1
0
LINE
5
A4
100
AcDbEntity
8
SK1
62
256
6
ByLayer
370
18
48
1
60
0
100
AcDbLine
10
-35.065
20
-3
30
0
11
0
21
-3
31
0
39
0
210
0
220
0
230
1
0
LINE
5
A5
100
AcDbEntity
8
SK1
62
256
6
ByLayer
370
18
48
1
60
0
100
AcDbLine
10
0
20
3
30
0
11
-35.065
21
3
31
0
39
0
210
0
220
0
230
1
0
LINE
5
A6
100
AcDbEntity
8
SK4
62
256
6
ByLayer
370
18
48
0.05
60
0
100
AcDbLine
10
35
20
0
30
0
11
-41
21
0
31
0
39
0
210
0
220
0
230
1
0
LINE
5
A8
100
AcDbEntity
8
4
62
256
6
ByLayer
370
18
48
0.05
60
0
100
AcDbLine
10
-36
20
0
30
0
11
35
21
0
31
0
39
0
210
0
220
0
230
1
0
LINE
5
AA
100
AcDbEntity
8
80
62
256
6
ByLayer
370
18
48
1
60
0
100
AcDbLine
10
0
20
0
30
0
11
-6
21
0
31
0
39
0
210
0
220
0
230
1
0
LINE
5
AB
100
AcDbEntity
8
81
62
256
6
ByLayer
370
18
48
1
60
0
100
AcDbLine
10
30
20
0
30
0
11
36
21
0
31
0
39
0
210
0
220
0
230
1
0
LINE
5
AC
100
AcDbEntity
8
SK2
62
256
6
ByLayer
370
13
48
1
60
0
100
AcDbLine
10
30.542963
20
1.49176
30
0
11
37.926404
21
21.777345
31
0
39
0
210
0
220
0
230
1
0
LINE
5
AE
100
AcDbEntity
8
SK2
62
256
6
ByLayer
370
13
48
1
60
0
100
AcDbLine
10
30.542963
20
-1.49176
30
0
11
37.926404
21
-21.777345
31
0
39
0
210
0
220
0
230
1
0
LINE
5
AF
100
AcDbEntity
8
1
62
256
6
ByLayer
370
13
48
1
60
0
100
AcDbLine
10
36.840478
20
18.793825
30
0
11
39.937065
21
17.977441
31
0
39
0
210
0
220
0
230
1
0
LINE
5
B0
100
AcDbEntity
8
1
62
256
6
ByLayer
370
13
48
1
60
0
100
AcDbLine
10
36.840478
20
18.793825
30
0
11
39.620259
21
17.203801
31
0
39
0
210
0
220
0
230
1
0
LINE
5
B1
100
AcDbEntity
8
1
62
256
6
ByLayer
370
13
48
1
60
0
100
AcDbLine
10
39.937065
20
17.977441
30
0
11
39.620259
21
17.203801
31
0
39
0
210
0
220
0
230
1
0
LINE
5
B2
100
AcDbEntity
8
1
62
256
6
ByLayer
370
13
48
1
60
0
100
AcDbLine
10
36.840478
20
-18.793825
30
0
11
39.620256
21
-17.203802
31
0
39
0
210
0
220
0
230
1
0
LINE
5
B3
100
AcDbEntity
8
1
62
256
6
ByLayer
370
13
48
1
60
0
100
AcDbLine
10
36.840478
20
-18.793825
30
0
11
39.937068
21
-17.97744
31
0
39
0
210
0
220
0
230
1
0
LINE
5
B4
100
AcDbEntity
8
1
62
256
6
ByLayer
370
13
48
1
60
0
100
AcDbLine
10
39.620256
20
-17.203802
30
0
11
39.937068
21
-17.97744
31
0
39
0
210
0
220
0
230
1
0
MTEXT
5
11F
100
AcDbEntity
8
SK2
62
256
6
ByLayer
370
18
48
1
60
0
100
AcDbMText
10
43.717388
20
-2.467451
30
0
210
0
220
0
230
1
1
\W0.7237;140.00
40
3.50012
41
0
44
1.084337
50
0
71
7
72
5
7
iso_b_vert
0
MTEXT
5
122
100
AcDbEntity
8
SK6
62
256
6
ByLayer
370
18
48
1
60
0
100
AcDbMText
10
-42.331725
20
-93.459969
30
0
210
0
220
0
230
1
1
\W0.7241;860.1-0317-016A1-GM X1BM
40
3.175
41
0
44
1.084337
50
0
71
7
72
5
7
iso_b_vert
0
DIMENSION
5
125
100
AcDbEntity
8
SK2
62
256
6
ByLayer
370
18
48
1
60
0
100
AcDbDimension
2
_U0
10
30
20
-26.50012
30
0
11
15
21
-26.50012
31
0
70
32
71
2
72
1
41
1
210
0
220
0
230
1
3
Standard
100
AcDbAlignedDimension
13
0
23
-3
33
0
14
30
24
0
34
0
50
0
100
AcDbRotatedDimension
1001
ACAD
1000
DSTYLE
1002
{
1070
   371
1070
    13
1070
   372
1070
    13
1070
     3
1000

1070
   170
1070
     0
1070
   144
1040
1.0
1070
   277
1070
     2
1070
   284
1070
     8
1070
   278
1070
    46
1070
   146
1040
0.999966
1070
   345
1005
16
1070
   347
1005
16
1070
   346
1005
16
1070
   344
1005
126
1070
   343
1005
126
1070
   172
1070
     1
1070
    76
1070
     0
1070
    75
1070
     0
1070
   282
1070
     0
1070
   281
1070
     0
1070
    71
1070
     0
1070
    74
1070
     0
1070
   279
1070
     0
1070
   173
1070
     1
1070
   340
1005
120
1070
   271
1070
     1
1070
   272
1070
     2
1070
    77
1070
     1
1070
    73
1070
     1
1070
   171
1070
     3
1070
   274
1070
     4
1070
   177
1070
   150
1070
   176
1070
     9
1070
   178
1070
    43
1070
    78
1070
     8
1070
    48
1040
-0.1
1070
    41
1040
3.175
1070
   147
1040
1.75006
1070
    42
1040
1.5875
1070
    44
1040
3.175
1070
   140
1040
3.50012
1002
}
1001
ACAD_DSTYLE_DIM_LINETYPE
1070
   380
1005
16
1001
ACAD_DSTYLE_DIM_EXT1_LINETYPE
1070
   381
1005
16
1001
ACAD_DSTYLE_DIM_EXT2_LINETYPE
1070
   382
1005
16
0
DIMENSION
5
14B
100
AcDbEntity
8
2
62
256
6
ByLayer
370
18
48
1
60
0
100
AcDbDimension
2
_U1
10
36.75006
20
1.585
30
0
11
36.75006
21
17.158233
31
0
70
32
71
1
72
1
41
1
210
0
220
0
230
1
3
Standard
100
AcDbAlignedDimension
13
29.4231
23
-1.585
33
0
14
29.4231
24
1.585
34
0
50
90
100
AcDbRotatedDimension
1001
ACAD
1000
DSTYLE
1002
{
1070
   371
1070
    13
1070
   372
1070
    13
1070
     3
1000

1070
   170
1070
     0
1070
   144
1040
1.0
1070
   277
1070
     2
1070
   284
1070
     8
1070
   278
1070
    46
1070
   146
1040
0.999966
1070
   345
1005
16
1070
   347
1005
16
1070
   346
1005
16
1070
   344
1005
126
1070
   343
1005
126
1070
   172
1070
     1
1070
    76
1070
     0
1070
    75
1070
     0
1070
   282
1070
     0
1070
   281
1070
     0
1070
    71
1070
     0
1070
    74
1070
     0
1070
   279
1070
     0
1070
   173
1070
     1
1070
   340
1005
120
1070
   271
1070
     1
1070
   272
1070
     2
1070
    77
1070
     1
1070
    73
1070
     0
1070
   171
1070
     3
1070
   274
1070
     4
1070
   177
1070
   150
1070
   176
1070
     9
1070
   178
1070
    43
1070
    78
1070
     8
1070
    48
1040
-0.1
1070
    41
1040
3.175
1070
   147
1040
1.75006
1070
    42
1040
1.5875
1070
    44
1040
3.175
1070
   140
1040
3.50012
1002
}
1001
ACAD_DSTYLE_DIM_LINETYPE
1070
   380
1005
16
1001
ACAD_DSTYLE_DIM_EXT1_LINETYPE
1070
   381
1005
16
1001
ACAD_DSTYLE_DIM_EXT2_LINETYPE
1070
   382
1005
16
0
DIMENSION
5
16A
100
AcDbEntity
8
SK2
62
256
6
ByLayer
370
18
48
1
60
0
100
AcDbDimension
2
_U2
10
-39.24994
20
-3
30
0
11
-39.24994
21
17.10734
31
0
70
32
71
1
72
1
41
1
210
0
220
0
230
1
3
Standard
100
AcDbAlignedDimension
13
-36
23
3
33
0
14
-36
24
-3
34
0
50
90
100
AcDbRotatedDimension
1001
ACAD
1000
DSTYLE
1002
{
1070
   371
1070
    13
1070
   372
1070
    13
1070
     3
1000

1070
   170
1070
     0
1070
   144
1040
1.0
1070
   277
1070
     2
1070
   284
1070
     8
1070
   278
1070
    46
1070
   146
1040
0.999966
1070
   345
1005
16
1070
   347
1005
16
1070
   346
1005
16
1070
   344
1005
126
1070
   343
1005
126
1070
   172
1070
     1
1070
    76
1070
     0
1070
    75
1070
     0
1070
   282
1070
     0
1070
   281
1070
     0
1070
    71
1070
     0
1070
    74
1070
     0
1070
   279
1070
     0
1070
   173
1070
     1
1070
   340
1005
120
1070
   271
1070
     1
1070
   272
1070
     2
1070
    77
1070
     1
1070
    73
1070
     0
1070
   171
1070
     3
1070
   274
1070
     4
1070
   177
1070
   150
1070
   176
1070
     9
1070
   178
1070
    43
1070
    78
1070
     8
1070
    48
1040
-0.1
1070
    41
1040
3.175
1070
   147
1040
1.75006
1070
    42
1040
1.5875
1070
    44
1040
3.175
1070
   140
1040
3.50012
1002
}
1001
ACAD_DSTYLE_DIM_LINETYPE
1070
   380
1005
16
1001
ACAD_DSTYLE_DIM_EXT1_LINETYPE
1070
   381
1005
16
1001
ACAD_DSTYLE_DIM_EXT2_LINETYPE
1070
   382
1005
16
0
DIMENSION
5
188
100
AcDbEntity
8
SK2
62
256
6
ByLayer
370
18
48
1
60
0
100
AcDbDimension
2
_U3
10
0
20
-26.50012
30
0
11
-18
21
-26.50012
31
0
70
32
71
1
72
1
41
1
210
0
220
0
230
1
3
Standard
100
AcDbAlignedDimension
13
-36
23
-3
33
0
14
0
24
-3
34
0
50
0
100
AcDbRotatedDimension
1001
ACAD
1000
DSTYLE
1002
{
1070
   371
1070
    13
1070
   372
1070
    13
1070
     3
1000

1070
   170
1070
     0
1070
   144
1040
1.0
1070
   277
1070
     2
1070
   284
1070
     8
1070
   278
1070
    46
1070
   146
1040
0.999966
1070
   345
1005
16
1070
   347
1005
16
1070
   346
1005
16
1070
   344
1005
126
1070
   343
1005
126
1070
   172
1070
     1
1070
    76
1070
     0
1070
    75
1070
     0
1070
   282
1070
     0
1070
   281
1070
     0
1070
    71
1070
     0
1070
    74
1070
     0
1070
   279
1070
     0
1070
   173
1070
     1
1070
   340
1005
120
1070
   271
1070
     1
1070
   272
1070
     2
1070
    77
1070
     1
1070
    73
1070
     1
1070
   171
1070
     3
1070
   274
1070
     4
1070
   177
1070
   150
1070
   176
1070
     9
1070
   178
1070
    43
1070
    78
1070
     8
1070
    48
1040
-0.1
1070
    41
1040
3.175
1070
   147
1040
1.75006
1070
    42
1040
1.5875
1070
    44
1040
3.175
1070
   140
1040
3.50012
1002
}
1001
ACAD_DSTYLE_DIM_LINETYPE
1070
   380
1005
16
1001
ACAD_DSTYLE_DIM_EXT1_LINETYPE
1070
   381
1005
16
1001
ACAD_DSTYLE_DIM_EXT2_LINETYPE
1070
   382
1005
16
0
DIMENSION
5
1A4
100
AcDbEntity
8
SK2
62
256
6
ByLayer
370
18
48
1
60
0
100
AcDbDimension
2
_U4
10
30
20
-17.74982
30
0
11
16
21
-17.74982
31
0
70
32
71
1
72
1
41
1
210
0
220
0
230
1
3
Standard
100
AcDbAlignedDimension
13
2
23
2.085
33
0
14
30
24
0
34
0
50
0
100
AcDbRotatedDimension
1001
ACAD
1000
DSTYLE
1002
{
1070
   371
1070
    13
1070
   372
1070
    13
1070
     3
1000

1070
   170
1070
     0
1070
   144
1040
1.0
1070
   277
1070
     2
1070
   284
1070
     8
1070
   278
1070
    46
1070
   146
1040
0.999966
1070
   345
1005
16
1070
   347
1005
16
1070
   346
1005
16
1070
   344
1005
126
1070
   343
1005
126
1070
   172
1070
     1
1070
    76
1070
     0
1070
    75
1070
     0
1070
   282
1070
     0
1070
   281
1070
     0
1070
    71
1070
     0
1070
    74
1070
     0
1070
   279
1070
     0
1070
   173
1070
     1
1070
   340
1005
120
1070
   271
1070
     1
1070
   272
1070
     2
1070
    77
1070
     1
1070
    73
1070
     1
1070
   171
1070
     3
1070
   274
1070
     4
1070
   177
1070
   150
1070
   176
1070
     9
1070
   178
1070
    43
1070
    78
1070
     8
1070
    48
1040
-0.1
1070
    41
1040
3.175
1070
   147
1040
1.75006
1070
    42
1040
1.5875
1070
    44
1040
3.175
1070
   140
1040
3.50012
1002
}
1001
ACAD_DSTYLE_DIM_LINETYPE
1070
   380
1005
16
1001
ACAD_DSTYLE_DIM_EXT1_LINETYPE
1070
   381
1005
16
1001
ACAD_DSTYLE_DIM_EXT2_LINETYPE
1070
   382
1005
16
0
DIMENSION
5
1C0
100
AcDbEntity
8
SK2
62
256
6
ByLayer
370
18
48
1
60
0
100
AcDbDimension
2
_U5
10
30
20
-9.82
30
0
11
21.8
21
-9.82
31
0
70
32
71
1
72
1
41
1
210
0
220
0
230
1
3
Standard
100
AcDbAlignedDimension
13
13.6
23
-1.585
33
0
14
30
24
0
34
0
50
0
100
AcDbRotatedDimension
1001
ACAD
1000
DSTYLE
1002
{
1070
   371
1070
    13
1070
   372
1070
    13
1070
     3
1000

1070
   170
1070
     0
1070
   144
1040
1.0
1070
   277
1070
     2
1070
   284
1070
     8
1070
   278
1070
    46
1070
   146
1040
1.25
1070
   345
1005
16
1070
   347
1005
16
1070
   346
1005
16
1070
   344
1005
126
1070
   343
1005
126
1070
   172
1070
     1
1070
    76
1070
     0
1070
    75
1070
     0
1070
   282
1070
     0
1070
   281
1070
     0
1070
    71
1070
     0
1070
    74
1070
     0
1070
   279
1070
     0
1070
   173
1070
     1
1070
   340
1005
120
1070
   271
1070
     1
1070
   272
1070
     2
1070
    77
1070
     1
1070
    73
1070
     1
1070
   171
1070
     3
1070
   274
1070
     4
1070
   177
1070
   150
1070
   176
1070
     9
1070
   178
1070
    43
1070
    78
1070
     8
1070
    48
1040
-0.1
1070
    41
1040
3.175
1070
   147
1040
0.42
1070
    42
1040
1.5875
1070
    44
1040
0.5
1070
   140
1040
2.8
1002
}
1001
ACAD_DSTYLE_DIM_LINETYPE
1070
   380
1005
16
1001
ACAD_DSTYLE_DIM_EXT1_LINETYPE
1070
   381
1005
16
1001
ACAD_DSTYLE_DIM_EXT2_LINETYPE
1070
   382
1005
16
0
DIMENSION
5
1DC
100
AcDbEntity
8
SK2
62
256
6
ByLayer
370
18
48
1
60
0
100
AcDbDimension
2
_U6
10
30
20
-36.50012
30
0
11
-3
21
-36.50012
31
0
70
32
71
1
72
1
41
1
210
0
220
0
230
1
3
Standard
100
AcDbAlignedDimension
13
-36
23
0
33
0
14
30
24
0
34
0
50
0
100
AcDbRotatedDimension
1001
ACAD
1000
DSTYLE
1002
{
1070
   371
1070
    13
1070
   372
1070
    13
1070
     3
1000

1070
   170
1070
     0
1070
   144
1040
1.0
1070
   277
1070
     2
1070
   284
1070
     8
1070
   278
1070
    46
1070
   146
1040
0.999966
1070
   345
1005
16
1070
   347
1005
16
1070
   346
1005
16
1070
   344
1005
126
1070
   343
1005
126
1070
   172
1070
     1
1070
    76
1070
     0
1070
    75
1070
     0
1070
   282
1070
     0
1070
   281
1070
     0
1070
    71
1070
     0
1070
    74
1070
     0
1070
   279
1070
     0
1070
   173
1070
     1
1070
   340
1005
120
1070
   271
1070
     1
1070
   272
1070
     2
1070
    77
1070
     1
1070
    73
1070
     1
1070
   171
1070
     3
1070
   274
1070
     4
1070
   177
1070
   150
1070
   176
1070
     9
1070
   178
1070
    43
1070
    78
1070
     8
1070
    48
1040
-0.1
1070
    41
1040
3.175
1070
   147
1040
1.75006
1070
    42
1040
1.5875
1070
    44
1040
3.175
1070
   140
1040
3.50012
1002
}
1001
ACAD_DSTYLE_DIM_LINETYPE
1070
   380
1005
16
1001
ACAD_DSTYLE_DIM_EXT1_LINETYPE
1070
   381
1005
16
1001
ACAD_DSTYLE_DIM_EXT2_LINETYPE
1070
   382
1005
16
0
ENDSEC
0
SECTION
2
OBJECTS
0
DICTIONARY
5
268
330
0
100
AcDbDictionary
280
0
281
1
3
ACAD_GROUP
350
269
3
ACAD_MLINESTYLE
350
26a
0
DICTIONARY
5
269
330
0
100
AcDbDictionary
280
0
281
1
0
DICTIONARY
5
26a
330
0
100
AcDbDictionary
280
0
281
1
3
Standard
350
18
0
MLINESTYLE
5
18
330
26a
100
AcDbMlineStyle
2
Standard
70
0
3

62
256
51
90
52
90
71
2
49
-0.5
62
256
6
ByLayer
49
0.5
62
256
6
ByLayer
0
RASTERVARIABLES
5
256
330

100
AcDbRasterVariables
90
0
70
1
71
1
72
1
0
ENDSEC
0
EOF
