0
SECTION
2
HEADER
9
$ACADVER
1
AC1015
9
$DWGCODEPAGE
3
ANSI_1252
9
$HANDSEED
5
24a
9
$ANGBASE
50
0
9
$ANGDIR
70
0
9
$ATTMODE
70
1
9
$AUNITS
70
0
9
$AUPREC
70
0
9
$CECOLOR
62
256
9
$CELTSCALE
40
1
9
$CELTYPE
6
ByLayer
9
$CELWEIGHT
370
18
9
$CLAYER
8
0
9
$CMLJUST
70
0
9
$CMLSCALE
40
1
9
$CMLSTYLE
2
Standard
9
$DIMSTYLE
2
Standard
9
$TEXTSIZE
40
0.2
9
$TEXTSTYLE
7
Standard
9
$LUNITS
70
2
9
$LUPREC
70
4
9
$EXTNAMES
290
1
9
$INSUNITS
70
4
9
$LTSCALE
40
1
9
$LWDISPLAY
290
1
9
$PDMODE
70
0
9
$PDSIZE
40
0
9
$PLINEGEN
70
0
0
ENDSEC
0
SECTION
2
CLASSES
0
CLASS
1
RASTERVARIABLES
2
AcDbRasterVariables
3
ISM
90
0
280
0
281
0
0
ENDSEC
0
SECTION
2
TABLES
0
TABLE
2
VPORT
5
240
100
AcDbSymbolTable
0
VPORT
5
1
100
AcDbSymbolTableRecord
100
AcDbViewportTableRecord
2
*Active
70
0
10
0
20
0
11
1
21
1
12
-1
22
1
13
0
23
0
14
0.5
24
0.5
15
10
25
10
16
0
26
0
36
1
17
0
27
0
37
0
0
ENDTAB
0
TABLE
2
LTYPE
5
241
100
AcDbSymbolTable
0
LTYPE
5
14
100
AcDbSymbolTableRecord
100
AcDbLinetypeTableRecord
70
0
2
ByBlock
3

72
65
73
0
40
0
0
LTYPE
5
15
100
AcDbSymbolTableRecord
100
AcDbLinetypeTableRecord
70
0
2
ByLayer
3

72
65
73
0
40
0
0
LTYPE
5
16
100
AcDbSymbolTableRecord
100
AcDbLinetypeTableRecord
70
0
2
Continuous
3
Solid line
72
65
73
0
40
0
0
LTYPE
5
6E
100
AcDbSymbolTableRecord
100
AcDbLinetypeTableRecord
70
0
2
CENTER
3
____ _ ____ _ ____ _ ____
72
65
73
4
40
47.5
49
22
74
0
49
-8.5
74
0
49
8.5
74
0
49
-8.5
74
0
0
LTYPE
5
6F
100
AcDbSymbolTableRecord
100
AcDbLinetypeTableRecord
70
0
2
DASHED
3
__ __ __ __ __ __ __ __ __
72
65
73
2
40
25.72
49
12.86
74
0
49
-12.86
74
0
0
ENDTAB
0
TABLE
2
LAYER
5
242
100
AcDbSymbolTable
0
LAYER
5
10
100
AcDbSymbolTableRecord
100
AcDbLayerTableRecord
2
0
70
0
62
7
6
Continuous
290
1
370
-3
390
0
0
LAYER
5
71
100
AcDbSymbolTableRecord
100
AcDbLayerTableRecord
2
80
70
0
62
-6
6
Continuous
290
1
370
-3
390
0
0
LAYER
5
73
100
AcDbSymbolTableRecord
100
AcDbLayerTableRecord
2
81
70
0
62
-3
6
Continuous
290
1
370
-3
390
0
0
LAYER
5
75
100
AcDbSymbolTableRecord
100
AcDbLayerTableRecord
2
1
70
0
62
4
6
Continuous
290
1
370
-3
390
0
0
LAYER
5
A1
100
AcDbSymbolTableRecord
100
AcDbLayerTableRecord
2
4
70
0
62
-2
6
CENTER
290
1
370
-3
390
0
0
LAYER
5
104
100
AcDbSymbolTableRecord
100
AcDbLayerTableRecord
2
Defpoints
70
0
62
7
6
Continuous
290
0
370
-3
390
0
0
LAYER
5
131
100
AcDbSymbolTableRecord
100
AcDbLayerTableRecord
2
2
70
0
62
7
6
Continuous
290
1
370
-3
390
0
0
LAYER
5
22c
100
AcDbSymbolTableRecord
100
AcDbLayerTableRecord
2
SK1
70
0
62
4
6
Continuous
290
1
370
-3
390
0
0
LAYER
5
22d
100
AcDbSymbolTableRecord
100
AcDbLayerTableRecord
2
SK4
70
0
62
2
6
CENTER
290
1
370
-3
390
0
0
LAYER
5
22e
100
AcDbSymbolTableRecord
100
AcDbLayerTableRecord
2
SK2
70
0
62
7
6
Continuous
290
1
370
-3
390
0
0
LAYER
5
22f
100
AcDbSymbolTableRecord
100
AcDbLayerTableRecord
2
SK6
70
0
62
5
6
Continuous
290
1
370
-3
390
0
0
ENDTAB
0
TABLE
2
STYLE
5
243
100
AcDbSymbolTable
0
STYLE
5
11
100
AcDbSymbolTableRecord
100
AcDbTextStyleTableRecord
2
Standard
3
txt
70
0
71
0
40
0
41
1
42
0
50
0
0
STYLE
5
F5
100
AcDbSymbolTableRecord
100
AcDbTextStyleTableRecord
2
iso_b_vert
3
simplex.shx
70
0
71
0
40
0
41
1
42
0
50
0
0
STYLE
5
F6
100
AcDbSymbolTableRecord
100
AcDbTextStyleTableRecord
2
DWGDirectTextStyle
3
simplex
70
0
71
0
40
0
41
1
42
0
50
0
0
ENDTAB
0
TABLE
2
DIMSTYLE
5
244
100
AcDbSymbolTable
100
AcDbDimStyleTable
0
DIMSTYLE
105
27
100
AcDbSymbolTableRecord
100
AcDbDimStyleTableRecord
2
Standard
70
0
3
<>
41
0.18
42
0.0625
44
0.18
140
0.18
147
0.09
73
0
74
0
77
1
271
2
275
0
278
52
280
0
340
11
0
ENDTAB
0
TABLE
2
VIEW
5
245
100
AcDbSymbolTable
0
ENDTAB
0
TABLE
2
UCS
5
246
100
AcDbSymbolTable
0
ENDTAB
0
TABLE
2
APPID
5
247
100
AcDbSymbolTable
0
APPID
5
12
100
AcDbSymbolTableRecord
100
AcDbRegAppTableRecord
2
ACAD
70
0
0
APPID
5
F9
100
AcDbSymbolTableRecord
100
AcDbRegAppTableRecord
2
ACAD_DSTYLE_DIMBREAK
70
0
0
APPID
5
1EB
100
AcDbSymbolTableRecord
100
AcDbRegAppTableRecord
2
ACAD_DSTYLE_DIM_LINETYPE
70
0
0
APPID
5
1EC
100
AcDbSymbolTableRecord
100
AcDbRegAppTableRecord
2
ACAD_DSTYLE_DIM_EXT1_LINETYPE
70
0
0
APPID
5
1ED
100
AcDbSymbolTableRecord
100
AcDbRegAppTableRecord
2
ACAD_DSTYLE_DIM_EXT2_LINETYPE
70
0
0
APPID
5
228
100
AcDbSymbolTableRecord
100
AcDbRegAppTableRecord
2
ACAD_MLEADERVER
70
0
0
ENDTAB
0
TABLE
2
BLOCK_RECORD
5
248
100
AcDbSymbolTable
0
BLOCK_RECORD
5
1F
100
AcDbSymbolTableRecord
100
AcDbBlockTableRecord
2
*Model_Space
340
0
70
0
0
BLOCK_RECORD
5
1B
100
AcDbSymbolTableRecord
100
AcDbBlockTableRecord
2
*Paper_Space
340
0
70
0
0
BLOCK_RECORD
5
23
100
AcDbSymbolTableRecord
100
AcDbBlockTableRecord
2
*Paper_Space0
340
0
70
0
0
BLOCK_RECORD
5
FB
100
AcDbSymbolTableRecord
100
AcDbBlockTableRecord
2
_Closed
340
0
70
0
0
BLOCK_RECORD
5
105
100
AcDbSymbolTableRecord
100
AcDbBlockTableRecord
2
*D2
340
0
70
0
0
BLOCK_RECORD
5
111
100
AcDbSymbolTableRecord
100
AcDbBlockTableRecord
2
_U0
340
0
70
0
0
BLOCK_RECORD
5
123
100
AcDbSymbolTableRecord
100
AcDbBlockTableRecord
2
*D4
340
0
70
0
0
BLOCK_RECORD
5
132
100
AcDbSymbolTableRecord
100
AcDbBlockTableRecord
2
_U1
340
0
70
0
0
BLOCK_RECORD
5
142
100
AcDbSymbolTableRecord
100
AcDbBlockTableRecord
2
*D6
340
0
70
0
0
BLOCK_RECORD
5
150
100
AcDbSymbolTableRecord
100
AcDbBlockTableRecord
2
_U2
340
0
70
0
0
BLOCK_RECORD
5
160
100
AcDbSymbolTableRecord
100
AcDbBlockTableRecord
2
*D8
340
0
70
0
0
BLOCK_RECORD
5
16C
100
AcDbSymbolTableRecord
100
AcDbBlockTableRecord
2
_U3
340
0
70
0
0
BLOCK_RECORD
5
17C
100
AcDbSymbolTableRecord
100
AcDbBlockTableRecord
2
*D10
340
0
70
0
0
BLOCK_RECORD
5
188
100
AcDbSymbolTableRecord
100
AcDbBlockTableRecord
2
_U4
340
0
70
0
0
BLOCK_RECORD
5
198
100
AcDbSymbolTableRecord
100
AcDbBlockTableRecord
2
*D12
340
0
70
0
0
BLOCK_RECORD
5
1A4
100
AcDbSymbolTableRecord
100
AcDbBlockTableRecord
2
_U5
340
0
70
0
0
BLOCK_RECORD
5
1B4
100
AcDbSymbolTableRecord
100
AcDbBlockTableRecord
2
*D14
340
0
70
0
0
BLOCK_RECORD
5
1C0
100
AcDbSymbolTableRecord
100
AcDbBlockTableRecord
2
_U6
340
0
70
0
0
ENDTAB
0
ENDSEC
0
SECTION
2
BLOCKS
0
BLOCK
5
20
100
AcDbEntity
8
0
100
AcDbBlockBegin
2
*Model_Space
70
0
10
0
20
0
30
0
3
*Model_Space
0
ENDBLK
5
21
100
AcDbEntity
8
0
100
AcDbBlockEnd
0
BLOCK
5
1C
100
AcDbEntity
8
0
100
AcDbBlockBegin
2
*Paper_Space
70
0
10
0
20
0
30
0
3
*Paper_Space
0
ENDBLK
5
1D
100
AcDbEntity
8
0
100
AcDbBlockEnd
0
BLOCK
5
24
100
AcDbEntity
8
0
100
AcDbBlockBegin
2
*Paper_Space0
70
0
10
0
20
0
30
0
3
*Paper_Space0
0
ENDBLK
5
25
100
AcDbEntity
8
0
100
AcDbBlockEnd
0
BLOCK
5
FC
100
AcDbEntity
8
0
100
AcDbBlockBegin
2
_Closed
70
0
10
0
20
0
30
0
3
_Closed
0
LINE
5
FE
100
AcDbEntity
8
0
62
256
6
ByLayer
370
-2
48
1
60
0
100
AcDbLine
10
-1
20
0.166667
30
0
11
0
21
0
31
0
39
0
210
0
220
0
230
1
0
LINE
5
FF
100
AcDbEntity
8
0
62
256
6
ByLayer
370
-2
48
1
60
0
100
AcDbLine
10
0
20
0
30
0
11
-1
21
-0.166667
31
0
39
0
210
0
220
0
230
1
0
LINE
5
100
100
AcDbEntity
8
0
62
256
6
ByLayer
370
-2
48
1
60
0
100
AcDbLine
10
-1
20
0.166667
30
0
11
-1
21
-0.166667
31
0
39
0
210
0
220
0
230
1
0
LINE
5
101
100
AcDbEntity
8
0
62
256
6
ByLayer
370
-2
48
1
60
0
100
AcDbLine
10
0
20
0
30
0
11
-1
21
0
31
0
39
0
210
0
220
0
230
1
0
ENDBLK
5
FD
100
AcDbEntity
8
0
100
AcDbBlockEnd
0
BLOCK
5
106
100
AcDbEntity
8
0
100
AcDbBlockBegin
2
*D2
70
1
10
0
20
0
30
0
3
*D2
0
LINE
5
108
100
AcDbEntity
8
0
62
256
6
ByLayer
370
-2
48
1
60
0
100
AcDbLine
10
0
20
-7.5875
30
0
11
0
21
-32.67512
31
0
39
0
210
0
220
0
230
1
0
LINE
5
109
100
AcDbEntity
8
0
62
256
6
ByLayer
370
-2
48
1
60
0
100
AcDbLine
10
57
20
-1.5875
30
0
11
57
21
-32.67512
31
0
39
0
210
0
220
0
230
1
0
LINE
5
10A
100
AcDbEntity
8
0
62
256
6
ByLayer
370
-2
48
1
60
0
100
AcDbLine
10
3.175
20
-29.50012
30
0
11
53.825
21
-29.50012
31
0
39
0
210
0
220
0
230
1
0
SOLID
5
10B
100
AcDbEntity
8
0
62
256
6
ByLayer
370
-1
48
1
60
0
100
AcDbTrace
10
3.175
20
-28.970953
30
0
11
3.175
21
-30.029287
31
0
12
0
22
-29.50012
32
0
13
0
23
-29.50012
33
0
39
0
210
0
220
0
230
1
0
SOLID
5
10C
100
AcDbEntity
8
0
62
256
6
ByLayer
370
-1
48
1
60
0
100
AcDbTrace
10
53.825
20
-30.029287
30
0
11
53.825
21
-28.970953
31
0
12
57
22
-29.50012
32
0
13
57
23
-29.50012
33
0
39
0
210
0
220
0
230
1
0
MTEXT
5
10D
100
AcDbEntity
8
0
62
256
6
ByLayer
370
18
48
1
60
0
100
AcDbMText
10
28.5
20
-22.193619
30
0
210
0
220
0
230
1
1
\A1;57
40
3.50012
41
0
44
1
50
0
71
5
72
5
7
iso_b_vert
0
POINT
5
10E
100
AcDbEntity
8
Defpoints
62
0
6
ByLayer
370
-1
48
1
60
0
100
AcDbPoint
10
0
20
-6
30
0
39
0
210
0
220
0
230
1
50
360
0
POINT
5
10F
100
AcDbEntity
8
Defpoints
62
0
6
ByLayer
370
-1
48
1
60
0
100
AcDbPoint
10
57
20
0
30
0
39
0
210
0
220
0
230
1
50
360
0
POINT
5
110
100
AcDbEntity
8
Defpoints
62
0
6
ByLayer
370
-1
48
1
60
0
100
AcDbPoint
10
57
20
-29.50012
30
0
39
0
210
0
220
0
230
1
50
360
0
ENDBLK
5
107
100
AcDbEntity
8
0
100
AcDbBlockEnd
0
BLOCK
5
11E
100
AcDbEntity
8
0
100
AcDbBlockBegin
2
_U0
70
0
10
0
20
0
30
0
3
_U0
0
MTEXT
5
112
100
AcDbEntity
8
SK2
62
256
6
ByLayer
370
18
48
1
60
0
100
AcDbMText
10
23.270389
20
-28.467451
30
0
210
0
220
0
230
1
1
\W0.7468;57.00
40
3.50012
41
0
44
1.084337
50
0
71
7
72
5
7
iso_b_vert
0
MTEXT
5
113
100
AcDbEntity
8
SK2
62
256
6
ByLayer
370
18
48
1
60
0
100
AcDbMText
10
19.744329
20
-28.400814
30
0
210
0
220
0
230
1
1
\W0.1790;(
40
3.175
41
0
44
1.084337
50
0
71
7
72
5
7
iso_b_vert
0
MTEXT
5
114
100
AcDbEntity
8
SK2
62
256
6
ByLayer
370
18
48
1
60
0
100
AcDbMText
10
37.258393
20
-28.400814
30
0
210
0
220
0
230
1
1
\W0.1969;)
40
3.175
41
0
44
1.084337
50
0
71
7
72
5
7
iso_b_vert
0
LINE
5
115
100
AcDbEntity
8
SK2
62
256
6
ByLayer
370
13
48
1
60
0
100
AcDbLine
10
0
20
-7.5875
30
0
11
0
21
-32.67512
31
0
39
0
210
0
220
0
230
1
0
LINE
5
116
100
AcDbEntity
8
SK2
62
256
6
ByLayer
370
13
48
1
60
0
100
AcDbLine
10
57
20
-1.5875
30
0
11
57
21
-32.67512
31
0
39
0
210
0
220
0
230
1
0
LINE
5
117
100
AcDbEntity
8
SK2
62
256
6
ByLayer
370
13
48
1
60
0
100
AcDbLine
10
0
20
-29.50012
30
0
11
57
21
-29.50012
31
0
39
0
210
0
220
0
230
1
0
LINE
5
118
100
AcDbEntity
8
SK2
62
256
6
ByLayer
370
13
48
1
60
0
100
AcDbLine
10
0
20
-29.50012
30
0
11
3.174998
21
-29.082123
31
0
39
0
210
0
220
0
230
1
0
LINE
5
119
100
AcDbEntity
8
SK2
62
256
6
ByLayer
370
13
48
1
60
0
100
AcDbLine
10
0
20
-29.50012
30
0
11
3.175002
21
-29.918117
31
0
39
0
210
0
220
0
230
1
0
LINE
5
11A
100
AcDbEntity
8
SK2
62
256
6
ByLayer
370
13
48
1
60
0
100
AcDbLine
10
3.174998
20
-29.082123
30
0
11
3.175002
21
-29.918117
31
0
39
0
210
0
220
0
230
1
0
LINE
5
11B
100
AcDbEntity
8
SK2
62
256
6
ByLayer
370
13
48
1
60
0
100
AcDbLine
10
57
20
-29.50012
30
0
11
53.825002
21
-29.918117
31
0
39
0
210
0
220
0
230
1
0
LINE
5
11C
100
AcDbEntity
8
SK2
62
256
6
ByLayer
370
13
48
1
60
0
100
AcDbLine
10
57
20
-29.50012
30
0
11
53.824998
21
-29.082123
31
0
39
0
210
0
220
0
230
1
0
LINE
5
11D
100
AcDbEntity
8
SK2
62
256
6
ByLayer
370
13
48
1
60
0
100
AcDbLine
10
53.825002
20
-29.918117
30
0
11
53.824998
21
-29.082123
31
0
39
0
210
0
220
0
230
1
0
ENDBLK
5
11F
100
AcDbEntity
8
0
100
AcDbBlockEnd
0
BLOCK
5
124
100
AcDbEntity
8
0
100
AcDbBlockBegin
2
*D4
70
1
10
0
20
0
30
0
3
*D4
0
LINE
5
126
100
AcDbEntity
8
0
62
256
6
ByLayer
370
-2
48
1
60
0
100
AcDbLine
10
56.6767
20
-5.25
30
0
11
66.92506
21
-5.25
31
0
39
0
210
0
220
0
230
1
0
LINE
5
127
100
AcDbEntity
8
0
62
256
6
ByLayer
370
-2
48
1
60
0
100
AcDbLine
10
56.6767
20
5.25
30
0
11
66.92506
21
5.25
31
0
39
0
210
0
220
0
230
1
0
LINE
5
128
100
AcDbEntity
8
0
62
256
6
ByLayer
370
-2
48
1
60
0
100
AcDbLine
10
63.75006
20
5.25
30
0
11
63.75006
21
32.879896
31
0
39
0
210
0
220
0
230
1
0
LINE
5
129
100
AcDbEntity
8
0
62
256
6
ByLayer
370
-2
48
1
60
0
100
AcDbLine
10
63.75006
20
-8.425
30
0
11
63.75006
21
-11.6
31
0
39
0
210
0
220
0
230
1
0
LINE
5
12A
100
AcDbEntity
8
0
62
256
6
ByLayer
370
-2
48
1
60
0
100
AcDbLine
10
63.75006
20
8.425
30
0
11
63.75006
21
11.6
31
0
39
0
210
0
220
0
230
1
0
SOLID
5
12B
100
AcDbEntity
8
0
62
256
6
ByLayer
370
-1
48
1
60
0
100
AcDbTrace
10
64.279227
20
-8.425
30
0
11
63.220893
21
-8.425
31
0
12
63.75006
22
-5.25
32
0
13
63.75006
23
-5.25
33
0
39
0
210
0
220
0
230
1
0
SOLID
5
12C
100
AcDbEntity
8
0
62
256
6
ByLayer
370
-1
48
1
60
0
100
AcDbTrace
10
63.220893
20
8.425
30
0
11
64.279227
21
8.425
31
0
12
63.75006
22
5.25
32
0
13
63.75006
23
5.25
33
0
39
0
210
0
220
0
230
1
0
MTEXT
5
12D
100
AcDbEntity
8
0
62
256
6
ByLayer
370
18
48
1
60
0
100
AcDbMText
10
56.443559
20
22.239948
30
0
210
0
220
0
230
1
1
\A1;10.5
40
3.50012
41
0
44
1
50
90
71
5
72
5
7
iso_b_vert
0
POINT
5
12E
100
AcDbEntity
8
Defpoints
62
0
6
ByLayer
370
-1
48
1
60
0
100
AcDbPoint
10
55.0892
20
-5.25
30
0
39
0
210
0
220
0
230
1
50
360
0
POINT
5
12F
100
AcDbEntity
8
Defpoints
62
0
6
ByLayer
370
-1
48
1
60
0
100
AcDbPoint
10
55.0892
20
5.25
30
0
39
0
210
0
220
0
230
1
50
360
0
POINT
5
130
100
AcDbEntity
8
Defpoints
62
0
6
ByLayer
370
-1
48
1
60
0
100
AcDbPoint
10
63.75006
20
5.25
30
0
39
0
210
0
220
0
230
1
50
360
0
ENDBLK
5
125
100
AcDbEntity
8
0
100
AcDbBlockEnd
0
BLOCK
5
13D
100
AcDbEntity
8
0
100
AcDbBlockBegin
2
_U1
70
0
10
0
20
0
30
0
3
_U1
0
MTEXT
5
133
100
AcDbEntity
8
2
62
256
6
ByLayer
370
18
48
1
60
0
100
AcDbMText
10
63.060403
20
9.407505
30
0
210
0
220
0
230
1
1
\W0.6864;10.50
40
3.50012
41
0
44
1.084337
50
90
71
7
72
5
7
iso_b_vert
0
LINE
5
134
100
AcDbEntity
8
2
62
256
6
ByLayer
370
13
48
1
60
0
100
AcDbLine
10
56.6767
20
-5.25
30
0
11
66.92506
21
-5.25
31
0
39
0
210
0
220
0
230
1
0
LINE
5
135
100
AcDbEntity
8
2
62
256
6
ByLayer
370
13
48
1
60
0
100
AcDbLine
10
56.6767
20
5.25
30
0
11
66.92506
21
5.25
31
0
39
0
210
0
220
0
230
1
0
LINE
5
136
100
AcDbEntity
8
2
62
256
6
ByLayer
370
13
48
1
60
0
100
AcDbLine
10
63.75006
20
-5.25
30
0
11
63.75006
21
19.205339
31
0
39
0
210
0
220
0
230
1
0
LINE
5
137
100
AcDbEntity
8
2
62
256
6
ByLayer
370
13
48
1
60
0
100
AcDbLine
10
63.75006
20
-5.25
30
0
11
63.332063
21
-2.075002
31
0
39
0
210
0
220
0
230
1
0
LINE
5
138
100
AcDbEntity
8
2
62
256
6
ByLayer
370
13
48
1
60
0
100
AcDbLine
10
63.75006
20
-5.25
30
0
11
64.168057
21
-2.074998
31
0
39
0
210
0
220
0
230
1
0
LINE
5
139
100
AcDbEntity
8
2
62
256
6
ByLayer
370
13
48
1
60
0
100
AcDbLine
10
63.332063
20
-2.075002
30
0
11
64.168057
21
-2.074998
31
0
39
0
210
0
220
0
230
1
0
LINE
5
13A
100
AcDbEntity
8
2
62
256
6
ByLayer
370
13
48
1
60
0
100
AcDbLine
10
63.75006
20
5.25
30
0
11
64.168057
21
2.075002
31
0
39
0
210
0
220
0
230
1
0
LINE
5
13B
100
AcDbEntity
8
2
62
256
6
ByLayer
370
13
48
1
60
0
100
AcDbLine
10
63.75006
20
5.25
30
0
11
63.332063
21
2.074998
31
0
39
0
210
0
220
0
230
1
0
LINE
5
13C
100
AcDbEntity
8
2
62
256
6
ByLayer
370
13
48
1
60
0
100
AcDbLine
10
64.168057
20
2.075002
30
0
11
63.332063
21
2.074998
31
0
39
0
210
0
220
0
230
1
0
ENDBLK
5
13E
100
AcDbEntity
8
0
100
AcDbBlockEnd
0
BLOCK
5
143
100
AcDbEntity
8
0
100
AcDbBlockBegin
2
*D6
70
1
10
0
20
0
30
0
3
*D6
0
LINE
5
145
100
AcDbEntity
8
0
62
256
6
ByLayer
370
-2
48
1
60
0
100
AcDbLine
10
-46.5875
20
6
30
0
11
-51.42494
21
6
31
0
39
0
210
0
220
0
230
1
0
LINE
5
146
100
AcDbEntity
8
0
62
256
6
ByLayer
370
-2
48
1
60
0
100
AcDbLine
10
-46.5875
20
-6
30
0
11
-51.42494
21
-6
31
0
39
0
210
0
220
0
230
1
0
LINE
5
147
100
AcDbEntity
8
0
62
256
6
ByLayer
370
-2
48
1
60
0
100
AcDbLine
10
-48.24994
20
6
30
0
11
-48.24994
21
29.117532
31
0
39
0
210
0
220
0
230
1
0
LINE
5
148
100
AcDbEntity
8
0
62
256
6
ByLayer
370
-2
48
1
60
0
100
AcDbLine
10
-48.24994
20
9.175
30
0
11
-48.24994
21
12.35
31
0
39
0
210
0
220
0
230
1
0
LINE
5
149
100
AcDbEntity
8
0
62
256
6
ByLayer
370
-2
48
1
60
0
100
AcDbLine
10
-48.24994
20
-9.175
30
0
11
-48.24994
21
-12.35
31
0
39
0
210
0
220
0
230
1
0
SOLID
5
14A
100
AcDbEntity
8
0
62
256
6
ByLayer
370
-1
48
1
60
0
100
AcDbTrace
10
-48.779107
20
9.175
30
0
11
-47.720773
21
9.175
31
0
12
-48.24994
22
6
32
0
13
-48.24994
23
6
33
0
39
0
210
0
220
0
230
1
0
SOLID
5
14B
100
AcDbEntity
8
0
62
256
6
ByLayer
370
-1
48
1
60
0
100
AcDbTrace
10
-47.720773
20
-9.175
30
0
11
-48.779107
21
-9.175
31
0
12
-48.24994
22
-6
32
0
13
-48.24994
23
-6
33
0
39
0
210
0
220
0
230
1
0
MTEXT
5
14C
100
AcDbEntity
8
0
62
256
6
ByLayer
370
18
48
1
60
0
100
AcDbMText
10
-55.556441
20
20.97767
30
0
210
0
220
0
230
1
1
\A1;12
40
3.50012
41
0
44
1
50
90
71
5
72
5
7
iso_b_vert
0
POINT
5
14D
100
AcDbEntity
8
Defpoints
62
0
6
ByLayer
370
-1
48
1
60
0
100
AcDbPoint
10
-45
20
6
30
0
39
0
210
0
220
0
230
1
50
360
0
POINT
5
14E
100
AcDbEntity
8
Defpoints
62
0
6
ByLayer
370
-1
48
1
60
0
100
AcDbPoint
10
-45
20
-6
30
0
39
0
210
0
220
0
230
1
50
360
0
POINT
5
14F
100
AcDbEntity
8
Defpoints
62
0
6
ByLayer
370
-1
48
1
60
0
100
AcDbPoint
10
-48.24994
20
-6
30
0
39
0
210
0
220
0
230
1
50
360
0
ENDBLK
5
144
100
AcDbEntity
8
0
100
AcDbBlockEnd
0
BLOCK
5
15B
100
AcDbEntity
8
0
100
AcDbBlockBegin
2
_U2
70
0
10
0
20
0
30
0
3
_U2
0
MTEXT
5
151
100
AcDbEntity
8
SK2
62
256
6
ByLayer
370
18
48
1
60
0
100
AcDbMText
10
-48.939597
20
16.157505
30
0
210
0
220
0
230
1
1
\W0.6864;12.00
40
3.50012
41
0
44
1.084337
50
90
71
7
72
5
7
iso_b_vert
0
LINE
5
152
100
AcDbEntity
8
SK2
62
256
6
ByLayer
370
13
48
1
60
0
100
AcDbLine
10
-46.5875
20
6
30
0
11
-51.42494
21
6
31
0
39
0
210
0
220
0
230
1
0
LINE
5
153
100
AcDbEntity
8
SK2
62
256
6
ByLayer
370
13
48
1
60
0
100
AcDbLine
10
-46.5875
20
-6
30
0
11
-51.42494
21
-6
31
0
39
0
210
0
220
0
230
1
0
LINE
5
154
100
AcDbEntity
8
SK2
62
256
6
ByLayer
370
13
48
1
60
0
100
AcDbLine
10
-48.24994
20
-6
30
0
11
-48.24994
21
25.955339
31
0
39
0
210
0
220
0
230
1
0
LINE
5
155
100
AcDbEntity
8
SK2
62
256
6
ByLayer
370
13
48
1
60
0
100
AcDbLine
10
-48.24994
20
6
30
0
11
-47.831943
21
2.825002
31
0
39
0
210
0
220
0
230
1
0
LINE
5
156
100
AcDbEntity
8
SK2
62
256
6
ByLayer
370
13
48
1
60
0
100
AcDbLine
10
-48.24994
20
6
30
0
11
-48.667937
21
2.824998
31
0
39
0
210
0
220
0
230
1
0
LINE
5
157
100
AcDbEntity
8
SK2
62
256
6
ByLayer
370
13
48
1
60
0
100
AcDbLine
10
-47.831943
20
2.825002
30
0
11
-48.667937
21
2.824998
31
0
39
0
210
0
220
0
230
1
0
LINE
5
158
100
AcDbEntity
8
SK2
62
256
6
ByLayer
370
13
48
1
60
0
100
AcDbLine
10
-48.24994
20
-6
30
0
11
-48.667937
21
-2.825002
31
0
39
0
210
0
220
0
230
1
0
LINE
5
159
100
AcDbEntity
8
SK2
62
256
6
ByLayer
370
13
48
1
60
0
100
AcDbLine
10
-48.24994
20
-6
30
0
11
-47.831943
21
-2.824998
31
0
39
0
210
0
220
0
230
1
0
LINE
5
15A
100
AcDbEntity
8
SK2
62
256
6
ByLayer
370
13
48
1
60
0
100
AcDbLine
10
-48.667937
20
-2.825002
30
0
11
-47.831943
21
-2.824998
31
0
39
0
210
0
220
0
230
1
0
ENDBLK
5
15C
100
AcDbEntity
8
0
100
AcDbBlockEnd
0
BLOCK
5
161
100
AcDbEntity
8
0
100
AcDbBlockBegin
2
*D8
70
1
10
0
20
0
30
0
3
*D8
0
LINE
5
163
100
AcDbEntity
8
0
62
256
6
ByLayer
370
-2
48
1
60
0
100
AcDbLine
10
-45
20
-7.5875
30
0
11
-45
21
-32.67512
31
0
39
0
210
0
220
0
230
1
0
LINE
5
164
100
AcDbEntity
8
0
62
256
6
ByLayer
370
-2
48
1
60
0
100
AcDbLine
10
0
20
-7.5875
30
0
11
0
21
-32.67512
31
0
39
0
210
0
220
0
230
1
0
LINE
5
165
100
AcDbEntity
8
0
62
256
6
ByLayer
370
-2
48
1
60
0
100
AcDbLine
10
-41.825
20
-29.50012
30
0
11
-3.175
21
-29.50012
31
0
39
0
210
0
220
0
230
1
0
SOLID
5
166
100
AcDbEntity
8
0
62
256
6
ByLayer
370
-1
48
1
60
0
100
AcDbTrace
10
-41.825
20
-28.970953
30
0
11
-41.825
21
-30.029287
31
0
12
-45
22
-29.50012
32
0
13
-45
23
-29.50012
33
0
39
0
210
0
220
0
230
1
0
SOLID
5
167
100
AcDbEntity
8
0
62
256
6
ByLayer
370
-1
48
1
60
0
100
AcDbTrace
10
-3.175
20
-30.029287
30
0
11
-3.175
21
-28.970953
31
0
12
0
22
-29.50012
32
0
13
0
23
-29.50012
33
0
39
0
210
0
220
0
230
1
0
MTEXT
5
168
100
AcDbEntity
8
0
62
256
6
ByLayer
370
18
48
1
60
0
100
AcDbMText
10
-22.5
20
-22.193619
30
0
210
0
220
0
230
1
1
\A1;45
40
3.50012
41
0
44
1
50
0
71
5
72
5
7
iso_b_vert
0
POINT
5
169
100
AcDbEntity
8
Defpoints
62
0
6
ByLayer
370
-1
48
1
60
0
100
AcDbPoint
10
-45
20
-6
30
0
39
0
210
0
220
0
230
1
50
360
0
POINT
5
16A
100
AcDbEntity
8
Defpoints
62
0
6
ByLayer
370
-1
48
1
60
0
100
AcDbPoint
10
0
20
-6
30
0
39
0
210
0
220
0
230
1
50
360
0
POINT
5
16B
100
AcDbEntity
8
Defpoints
62
0
6
ByLayer
370
-1
48
1
60
0
100
AcDbPoint
10
0
20
-29.50012
30
0
39
0
210
0
220
0
230
1
50
360
0
ENDBLK
5
162
100
AcDbEntity
8
0
100
AcDbBlockEnd
0
BLOCK
5
177
100
AcDbEntity
8
0
100
AcDbBlockBegin
2
_U3
70
0
10
0
20
0
30
0
3
_U3
0
MTEXT
5
16D
100
AcDbEntity
8
SK2
62
256
6
ByLayer
370
18
48
1
60
0
100
AcDbMText
10
-27.913884
20
-28.467451
30
0
210
0
220
0
230
1
1
\W0.7694;45.00
40
3.50012
41
0
44
1.084337
50
0
71
7
72
5
7
iso_b_vert
0
LINE
5
16E
100
AcDbEntity
8
SK2
62
256
6
ByLayer
370
13
48
1
60
0
100
AcDbLine
10
-45
20
-7.5875
30
0
11
-45
21
-32.67512
31
0
39
0
210
0
220
0
230
1
0
LINE
5
16F
100
AcDbEntity
8
SK2
62
256
6
ByLayer
370
13
48
1
60
0
100
AcDbLine
10
0
20
-7.5875
30
0
11
0
21
-32.67512
31
0
39
0
210
0
220
0
230
1
0
LINE
5
170
100
AcDbEntity
8
SK2
62
256
6
ByLayer
370
13
48
1
60
0
100
AcDbLine
10
-45
20
-29.50012
30
0
11
0
21
-29.50012
31
0
39
0
210
0
220
0
230
1
0
LINE
5
171
100
AcDbEntity
8
SK2
62
256
6
ByLayer
370
13
48
1
60
0
100
AcDbLine
10
-45
20
-29.50012
30
0
11
-41.825002
21
-29.082123
31
0
39
0
210
0
220
0
230
1
0
LINE
5
172
100
AcDbEntity
8
SK2
62
256
6
ByLayer
370
13
48
1
60
0
100
AcDbLine
10
-45
20
-29.50012
30
0
11
-41.824998
21
-29.918117
31
0
39
0
210
0
220
0
230
1
0
LINE
5
173
100
AcDbEntity
8
SK2
62
256
6
ByLayer
370
13
48
1
60
0
100
AcDbLine
10
-41.825002
20
-29.082123
30
0
11
-41.824998
21
-29.918117
31
0
39
0
210
0
220
0
230
1
0
LINE
5
174
100
AcDbEntity
8
SK2
62
256
6
ByLayer
370
13
48
1
60
0
100
AcDbLine
10
0
20
-29.50012
30
0
11
-3.174998
21
-29.918117
31
0
39
0
210
0
220
0
230
1
0
LINE
5
175
100
AcDbEntity
8
SK2
62
256
6
ByLayer
370
13
48
1
60
0
100
AcDbLine
10
0
20
-29.50012
30
0
11
-3.175002
21
-29.082123
31
0
39
0
210
0
220
0
230
1
0
LINE
5
176
100
AcDbEntity
8
SK2
62
256
6
ByLayer
370
13
48
1
60
0
100
AcDbLine
10
-3.174998
20
-29.918117
30
0
11
-3.175002
21
-29.082123
31
0
39
0
210
0
220
0
230
1
0
ENDBLK
5
178
100
AcDbEntity
8
0
100
AcDbBlockEnd
0
BLOCK
5
17D
100
AcDbEntity
8
0
100
AcDbBlockBegin
2
*D10
70
1
10
0
20
0
30
0
3
*D10
0
LINE
5
17F
100
AcDbEntity
8
0
62
256
6
ByLayer
370
-2
48
1
60
0
100
AcDbLine
10
2
20
4.1625
30
0
11
2
21
-23.92482
31
0
39
0
210
0
220
0
230
1
0
LINE
5
180
100
AcDbEntity
8
0
62
256
6
ByLayer
370
-2
48
1
60
0
100
AcDbLine
10
57
20
-1.5875
30
0
11
57
21
-23.92482
31
0
39
0
210
0
220
0
230
1
0
LINE
5
181
100
AcDbEntity
8
0
62
256
6
ByLayer
370
-2
48
1
60
0
100
AcDbLine
10
5.175
20
-20.74982
30
0
11
53.825
21
-20.74982
31
0
39
0
210
0
220
0
230
1
0
SOLID
5
182
100
AcDbEntity
8
0
62
256
6
ByLayer
370
-1
48
1
60
0
100
AcDbTrace
10
5.175
20
-20.220653
30
0
11
5.175
21
-21.278987
31
0
12
2
22
-20.74982
32
0
13
2
23
-20.74982
33
0
39
0
210
0
220
0
230
1
0
SOLID
5
183
100
AcDbEntity
8
0
62
256
6
ByLayer
370
-1
48
1
60
0
100
AcDbTrace
10
53.825
20
-21.278987
30
0
11
53.825
21
-20.220653
31
0
12
57
22
-20.74982
32
0
13
57
23
-20.74982
33
0
39
0
210
0
220
0
230
1
0
MTEXT
5
184
100
AcDbEntity
8
0
62
256
6
ByLayer
370
18
48
1
60
0
100
AcDbMText
10
29.5
20
-13.44332
30
0
210
0
220
0
230
1
1
\A1;55
40
3.50012
41
0
44
1
50
0
71
5
72
5
7
iso_b_vert
0
POINT
5
185
100
AcDbEntity
8
Defpoints
62
0
6
ByLayer
370
-1
48
1
60
0
100
AcDbPoint
10
2
20
5.75
30
0
39
0
210
0
220
0
230
1
50
360
0
POINT
5
186
100
AcDbEntity
8
Defpoints
62
0
6
ByLayer
370
-1
48
1
60
0
100
AcDbPoint
10
57
20
0
30
0
39
0
210
0
220
0
230
1
50
360
0
POINT
5
187
100
AcDbEntity
8
Defpoints
62
0
6
ByLayer
370
-1
48
1
60
0
100
AcDbPoint
10
57
20
-20.74982
30
0
39
0
210
0
220
0
230
1
50
360
0
ENDBLK
5
17E
100
AcDbEntity
8
0
100
AcDbBlockEnd
0
BLOCK
5
193
100
AcDbEntity
8
0
100
AcDbBlockBegin
2
_U4
70
0
10
0
20
0
30
0
3
_U4
0
MTEXT
5
189
100
AcDbEntity
8
SK2
62
256
6
ByLayer
370
18
48
1
60
0
100
AcDbMText
10
24.270389
20
-19.717151
30
0
210
0
220
0
230
1
1
\W0.7468;55.00
40
3.50012
41
0
44
1.084337
50
0
71
7
72
5
7
iso_b_vert
0
LINE
5
18A
100
AcDbEntity
8
SK2
62
256
6
ByLayer
370
13
48
1
60
0
100
AcDbLine
10
2
20
4.1625
30
0
11
2
21
-23.92482
31
0
39
0
210
0
220
0
230
1
0
LINE
5
18B
100
AcDbEntity
8
SK2
62
256
6
ByLayer
370
13
48
1
60
0
100
AcDbLine
10
57
20
-1.5875
30
0
11
57
21
-23.92482
31
0
39
0
210
0
220
0
230
1
0
LINE
5
18C
100
AcDbEntity
8
SK2
62
256
6
ByLayer
370
13
48
1
60
0
100
AcDbLine
10
2
20
-20.74982
30
0
11
57
21
-20.74982
31
0
39
0
210
0
220
0
230
1
0
LINE
5
18D
100
AcDbEntity
8
SK2
62
256
6
ByLayer
370
13
48
1
60
0
100
AcDbLine
10
2
20
-20.74982
30
0
11
5.174998
21
-20.331823
31
0
39
0
210
0
220
0
230
1
0
LINE
5
18E
100
AcDbEntity
8
SK2
62
256
6
ByLayer
370
13
48
1
60
0
100
AcDbLine
10
2
20
-20.74982
30
0
11
5.175002
21
-21.167817
31
0
39
0
210
0
220
0
230
1
0
LINE
5
18F
100
AcDbEntity
8
SK2
62
256
6
ByLayer
370
13
48
1
60
0
100
AcDbLine
10
5.174998
20
-20.331823
30
0
11
5.175002
21
-21.167817
31
0
39
0
210
0
220
0
230
1
0
LINE
5
190
100
AcDbEntity
8
SK2
62
256
6
ByLayer
370
13
48
1
60
0
100
AcDbLine
10
57
20
-20.74982
30
0
11
53.825002
21
-21.167817
31
0
39
0
210
0
220
0
230
1
0
LINE
5
191
100
AcDbEntity
8
SK2
62
256
6
ByLayer
370
13
48
1
60
0
100
AcDbLine
10
57
20
-20.74982
30
0
11
53.824998
21
-20.331823
31
0
39
0
210
0
220
0
230
1
0
LINE
5
192
100
AcDbEntity
8
SK2
62
256
6
ByLayer
370
13
48
1
60
0
100
AcDbLine
10
53.825002
20
-21.167817
30
0
11
53.824998
21
-20.331823
31
0
39
0
210
0
220
0
230
1
0
ENDBLK
5
194
100
AcDbEntity
8
0
100
AcDbBlockEnd
0
BLOCK
5
199
100
AcDbEntity
8
0
100
AcDbBlockBegin
2
*D12
70
1
10
0
20
0
30
0
3
*D12
0
LINE
5
19B
100
AcDbEntity
8
0
62
256
6
ByLayer
370
-2
48
1
60
0
100
AcDbLine
10
23.6
20
-6.8375
30
0
11
23.6
21
-13.32
31
0
39
0
210
0
220
0
230
1
0
LINE
5
19C
100
AcDbEntity
8
0
62
256
6
ByLayer
370
-2
48
1
60
0
100
AcDbLine
10
57
20
-1.5875
30
0
11
57
21
-13.32
31
0
39
0
210
0
220
0
230
1
0
LINE
5
19D
100
AcDbEntity
8
0
62
256
6
ByLayer
370
-2
48
1
60
0
100
AcDbLine
10
26.775
20
-12.82
30
0
11
53.825
21
-12.82
31
0
39
0
210
0
220
0
230
1
0
SOLID
5
19E
100
AcDbEntity
8
0
62
256
6
ByLayer
370
-1
48
1
60
0
100
AcDbTrace
10
26.775
20
-12.290833
30
0
11
26.775
21
-13.349167
31
0
12
23.6
22
-12.82
32
0
13
23.6
23
-12.82
33
0
39
0
210
0
220
0
230
1
0
SOLID
5
19F
100
AcDbEntity
8
0
62
256
6
ByLayer
370
-1
48
1
60
0
100
AcDbTrace
10
53.825
20
-13.349167
30
0
11
53.825
21
-12.290833
31
0
12
57
22
-12.82
32
0
13
57
23
-12.82
33
0
39
0
210
0
220
0
230
1
0
MTEXT
5
1A0
100
AcDbEntity
8
0
62
256
6
ByLayer
370
18
48
1
60
0
100
AcDbMText
10
40.3
20
-6.975
30
0
210
0
220
0
230
1
1
\A1;33.4
40
2.8
41
0
44
1
50
0
71
5
72
5
7
iso_b_vert
0
POINT
5
1A1
100
AcDbEntity
8
Defpoints
62
0
6
ByLayer
370
-1
48
1
60
0
100
AcDbPoint
10
23.6
20
-5.25
30
0
39
0
210
0
220
0
230
1
50
360
0
POINT
5
1A2
100
AcDbEntity
8
Defpoints
62
0
6
ByLayer
370
-1
48
1
60
0
100
AcDbPoint
10
57
20
0
30
0
39
0
210
0
220
0
230
1
50
360
0
POINT
5
1A3
100
AcDbEntity
8
Defpoints
62
0
6
ByLayer
370
-1
48
1
60
0
100
AcDbPoint
10
57
20
-12.82
30
0
39
0
210
0
220
0
230
1
50
360
0
ENDBLK
5
19A
100
AcDbEntity
8
0
100
AcDbBlockEnd
0
BLOCK
5
1AF
100
AcDbEntity
8
0
100
AcDbBlockBegin
2
_U5
70
0
10
0
20
0
30
0
3
_U5
0
MTEXT
5
1A5
100
AcDbEntity
8
SK2
62
256
6
ByLayer
370
18
48
1
60
0
100
AcDbMText
10
35.969041
20
-12.973893
30
0
210
0
220
0
230
1
1
\W0.7694;33.40
40
2.8
41
0
44
1.084337
50
0
71
7
72
5
7
iso_b_vert
0
LINE
5
1A6
100
AcDbEntity
8
SK2
62
256
6
ByLayer
370
13
48
1
60
0
100
AcDbLine
10
23.6
20
-6.8375
30
0
11
23.6
21
-13.32
31
0
39
0
210
0
220
0
230
1
0
LINE
5
1A7
100
AcDbEntity
8
SK2
62
256
6
ByLayer
370
13
48
1
60
0
100
AcDbLine
10
57
20
-1.5875
30
0
11
57
21
-13.32
31
0
39
0
210
0
220
0
230
1
0
LINE
5
1A8
100
AcDbEntity
8
SK2
62
256
6
ByLayer
370
13
48
1
60
0
100
AcDbLine
10
23.6
20
-12.82
30
0
11
57
21
-12.82
31
0
39
0
210
0
220
0
230
1
0
LINE
5
1A9
100
AcDbEntity
8
SK2
62
256
6
ByLayer
370
13
48
1
60
0
100
AcDbLine
10
23.6
20
-12.82
30
0
11
26.774998
21
-12.402003
31
0
39
0
210
0
220
0
230
1
0
LINE
5
1AA
100
AcDbEntity
8
SK2
62
256
6
ByLayer
370
13
48
1
60
0
100
AcDbLine
10
23.6
20
-12.82
30
0
11
26.775002
21
-13.237997
31
0
39
0
210
0
220
0
230
1
0
LINE
5
1AB
100
AcDbEntity
8
SK2
62
256
6
ByLayer
370
13
48
1
60
0
100
AcDbLine
10
26.774998
20
-12.402003
30
0
11
26.775002
21
-13.237997
31
0
39
0
210
0
220
0
230
1
0
LINE
5
1AC
100
AcDbEntity
8
SK2
62
256
6
ByLayer
370
13
48
1
60
0
100
AcDbLine
10
57
20
-12.82
30
0
11
53.825002
21
-13.237997
31
0
39
0
210
0
220
0
230
1
0
LINE
5
1AD
100
AcDbEntity
8
SK2
62
256
6
ByLayer
370
13
48
1
60
0
100
AcDbLine
10
57
20
-12.82
30
0
11
53.824998
21
-12.402003
31
0
39
0
210
0
220
0
230
1
0
LINE
5
1AE
100
AcDbEntity
8
SK2
62
256
6
ByLayer
370
13
48
1
60
0
100
AcDbLine
10
53.825002
20
-13.237997
30
0
11
53.824998
21
-12.402003
31
0
39
0
210
0
220
0
230
1
0
ENDBLK
5
1B0
100
AcDbEntity
8
0
100
AcDbBlockEnd
0
BLOCK
5
1B5
100
AcDbEntity
8
0
100
AcDbBlockBegin
2
*D14
70
1
10
0
20
0
30
0
3
*D14
0
LINE
5
1B7
100
AcDbEntity
8
0
62
256
6
ByLayer
370
-2
48
1
60
0
100
AcDbLine
10
-45
20
-1.5875
30
0
11
-45
21
-42.67512
31
0
39
0
210
0
220
0
230
1
0
LINE
5
1B8
100
AcDbEntity
8
0
62
256
6
ByLayer
370
-2
48
1
60
0
100
AcDbLine
10
57
20
-1.5875
30
0
11
57
21
-42.67512
31
0
39
0
210
0
220
0
230
1
0
LINE
5
1B9
100
AcDbEntity
8
0
62
256
6
ByLayer
370
-2
48
1
60
0
100
AcDbLine
10
-41.825
20
-39.50012
30
0
11
53.825
21
-39.50012
31
0
39
0
210
0
220
0
230
1
0
SOLID
5
1BA
100
AcDbEntity
8
0
62
256
6
ByLayer
370
-1
48
1
60
0
100
AcDbTrace
10
-41.825
20
-38.970953
30
0
11
-41.825
21
-40.029287
31
0
12
-45
22
-39.50012
32
0
13
-45
23
-39.50012
33
0
39
0
210
0
220
0
230
1
0
SOLID
5
1BB
100
AcDbEntity
8
0
62
256
6
ByLayer
370
-1
48
1
60
0
100
AcDbTrace
10
53.825
20
-40.029287
30
0
11
53.825
21
-38.970953
31
0
12
57
22
-39.50012
32
0
13
57
23
-39.50012
33
0
39
0
210
0
220
0
230
1
0
MTEXT
5
1BC
100
AcDbEntity
8
0
62
256
6
ByLayer
370
18
48
1
60
0
100
AcDbMText
10
6
20
-32.19362
30
0
210
0
220
0
230
1
1
\A1;102
40
3.50012
41
0
44
1
50
0
71
5
72
5
7
iso_b_vert
0
POINT
5
1BD
100
AcDbEntity
8
Defpoints
62
0
6
ByLayer
370
-1
48
1
60
0
100
AcDbPoint
10
-45
20
0
30
0
39
0
210
0
220
0
230
1
50
360
0
POINT
5
1BE
100
AcDbEntity
8
Defpoints
62
0
6
ByLayer
370
-1
48
1
60
0
100
AcDbPoint
10
57
20
0
30
0
39
0
210
0
220
0
230
1
50
360
0
POINT
5
1BF
100
AcDbEntity
8
Defpoints
62
0
6
ByLayer
370
-1
48
1
60
0
100
AcDbPoint
10
57
20
-39.50012
30
0
39
0
210
0
220
0
230
1
50
360
0
ENDBLK
5
1B6
100
AcDbEntity
8
0
100
AcDbBlockEnd
0
BLOCK
5
1CB
100
AcDbEntity
8
0
100
AcDbBlockBegin
2
_U6
70
0
10
0
20
0
30
0
3
_U6
0
MTEXT
5
1C1
100
AcDbEntity
8
SK2
62
256
6
ByLayer
370
18
48
1
60
0
100
AcDbMText
10
-0.099941
20
-38.467451
30
0
210
0
220
0
230
1
1
\W0.7022;102.00
40
3.50012
41
0
44
1.084337
50
0
71
7
72
5
7
iso_b_vert
0
LINE
5
1C2
100
AcDbEntity
8
SK2
62
256
6
ByLayer
370
13
48
1
60
0
100
AcDbLine
10
-45
20
-1.5875
30
0
11
-45
21
-42.67512
31
0
39
0
210
0
220
0
230
1
0
LINE
5
1C3
100
AcDbEntity
8
SK2
62
256
6
ByLayer
370
13
48
1
60
0
100
AcDbLine
10
57
20
-1.5875
30
0
11
57
21
-42.67512
31
0
39
0
210
0
220
0
230
1
0
LINE
5
1C4
100
AcDbEntity
8
SK2
62
256
6
ByLayer
370
13
48
1
60
0
100
AcDbLine
10
-45
20
-39.50012
30
0
11
57
21
-39.50012
31
0
39
0
210
0
220
0
230
1
0
LINE
5
1C5
100
AcDbEntity
8
SK2
62
256
6
ByLayer
370
13
48
1
60
0
100
AcDbLine
10
-45
20
-39.50012
30
0
11
-41.825002
21
-39.082123
31
0
39
0
210
0
220
0
230
1
0
LINE
5
1C6
100
AcDbEntity
8
SK2
62
256
6
ByLayer
370
13
48
1
60
0
100
AcDbLine
10
-45
20
-39.50012
30
0
11
-41.824998
21
-39.918117
31
0
39
0
210
0
220
0
230
1
0
LINE
5
1C7
100
AcDbEntity
8
SK2
62
256
6
ByLayer
370
13
48
1
60
0
100
AcDbLine
10
-41.825002
20
-39.082123
30
0
11
-41.824998
21
-39.918117
31
0
39
0
210
0
220
0
230
1
0
LINE
5
1C8
100
AcDbEntity
8
SK2
62
256
6
ByLayer
370
13
48
1
60
0
100
AcDbLine
10
57
20
-39.50012
30
0
11
53.825002
21
-39.918117
31
0
39
0
210
0
220
0
230
1
0
LINE
5
1C9
100
AcDbEntity
8
SK2
62
256
6
ByLayer
370
13
48
1
60
0
100
AcDbLine
10
57
20
-39.50012
30
0
11
53.824998
21
-39.082123
31
0
39
0
210
0
220
0
230
1
0
LINE
5
1CA
100
AcDbEntity
8
SK2
62
256
6
ByLayer
370
13
48
1
60
0
100
AcDbLine
10
53.825002
20
-39.918117
30
0
11
53.824998
21
-39.082123
31
0
39
0
210
0
220
0
230
1
0
ENDBLK
5
1CC
100
AcDbEntity
8
0
100
AcDbBlockEnd
0
ENDSEC
0
SECTION
2
ENTITIES
0
ARC
5
AD
100
AcDbEntity
8
1
62
256
6
ByLayer
370
18
48
1
60
0
100
AcDbCircle
39
0
10
1.376025
20
6.016428
30
0
40
0.800000000000001
210
0
220
0
230
1
100
AcDbArc
50
210.681666
51
270.03581
0
ARC
5
AE
100
AcDbEntity
8
1
62
256
6
ByLayer
370
18
48
1
60
0
100
AcDbCircle
39
0
10
1.376025
20
-6.016428
30
0
40
0.800000000000001
210
0
220
0
230
1
100
AcDbArc
50
89.96419
51
149.318334
0
ARC
5
AF
100
AcDbEntity
8
1
62
256
6
ByLayer
370
18
48
1
60
0
100
AcDbCircle
39
0
10
0
20
5.2
30
0
40
0.800000000000001
210
0
220
0
230
1
100
AcDbArc
50
30.681666
51
90
0
ARC
5
B0
100
AcDbEntity
8
1
62
256
6
ByLayer
370
18
48
1
60
0
100
AcDbCircle
39
0
10
0
20
-5.2
30
0
40
0.800000000000001
210
0
220
0
230
1
100
AcDbArc
50
270
51
329.318334
0
ARC
5
B1
100
AcDbEntity
8
SK2
62
256
6
ByLayer
370
13
48
1
60
0
100
AcDbCircle
39
0
10
57
20
0
30
0
40
20
210
0
220
0
230
1
100
AcDbArc
50
9.606349
51
70.000421
0
ARC
5
B2
100
AcDbEntity
8
SK2
62
256
6
ByLayer
370
13
48
1
60
0
100
AcDbCircle
39
0
10
57
20
0
30
0
40
20
210
0
220
0
230
1
100
AcDbArc
50
289.999579
51
350.393651
0
ELLIPSE
5
B3
100
AcDbEntity
8
1
62
256
6
ByLayer
370
18
48
1
60
0
100
AcDbEllipse
10
3.601645
20
5.055656
30
0
11
-0.1
21
1.22460635382238E-17
31
0
210
0
220
0
230
1
40
1
41
0.000757172965196075
42
1.5945834288712
0
POINT
5
70
100
AcDbEntity
8
80
62
256
6
ByLayer
370
18
48
1
60
0
100
AcDbPoint
10
0
20
0
30
0
39
0
210
0
220
0
230
1
50
360
0
POINT
5
72
100
AcDbEntity
8
81
62
256
6
ByLayer
370
18
48
1
60
0
100
AcDbPoint
10
57
20
0
30
0
39
0
210
0
220
0
230
1
50
360
0
POINT
5
74
100
AcDbEntity
8
1
62
256
6
ByLayer
370
18
48
1
60
0
100
AcDbPoint
10
-45
20
0
30
0
39
0
210
0
220
0
230
1
50
360
0
POINT
5
76
100
AcDbEntity
8
1
62
256
6
ByLayer
370
18
48
1
60
1
100
AcDbPoint
10
0
20
-6
30
0
39
0
210
0
220
0
230
1
50
360
0
POINT
5
77
100
AcDbEntity
8
1
62
256
6
ByLayer
370
18
48
1
60
1
100
AcDbPoint
10
57
20
0
30
0
39
0
210
0
220
0
230
1
50
360
0
POINT
5
78
100
AcDbEntity
8
1
62
256
6
ByLayer
370
18
48
1
60
1
100
AcDbPoint
10
55.0892
20
-5.25
30
0
39
0
210
0
220
0
230
1
50
360
0
POINT
5
79
100
AcDbEntity
8
1
62
256
6
ByLayer
370
18
48
1
60
1
100
AcDbPoint
10
55.0892
20
5.25
30
0
39
0
210
0
220
0
230
1
50
360
0
POINT
5
7A
100
AcDbEntity
8
1
62
256
6
ByLayer
370
18
48
1
60
1
100
AcDbPoint
10
-45
20
6
30
0
39
0
210
0
220
0
230
1
50
360
0
POINT
5
7B
100
AcDbEntity
8
1
62
256
6
ByLayer
370
18
48
1
60
1
100
AcDbPoint
10
-45
20
-6
30
0
39
0
210
0
220
0
230
1
50
360
0
POINT
5
7C
100
AcDbEntity
8
1
62
256
6
ByLayer
370
18
48
1
60
1
100
AcDbPoint
10
-45
20
-6
30
0
39
0
210
0
220
0
230
1
50
360
0
POINT
5
7D
100
AcDbEntity
8
1
62
256
6
ByLayer
370
18
48
1
60
1
100
AcDbPoint
10
0
20
-6
30
0
39
0
210
0
220
0
230
1
50
360
0
POINT
5
7E
100
AcDbEntity
8
1
62
256
6
ByLayer
370
18
48
1
60
1
100
AcDbPoint
10
2
20
5.75
30
0
39
0
210
0
220
0
230
1
50
360
0
POINT
5
7F
100
AcDbEntity
8
1
62
256
6
ByLayer
370
18
48
1
60
1
100
AcDbPoint
10
57
20
0
30
0
39
0
210
0
220
0
230
1
50
360
0
POINT
5
80
100
AcDbEntity
8
1
62
256
6
ByLayer
370
18
48
1
60
1
100
AcDbPoint
10
23.6
20
-5.25
30
0
39
0
210
0
220
0
230
1
50
360
0
POINT
5
81
100
AcDbEntity
8
1
62
256
6
ByLayer
370
18
48
1
60
1
100
AcDbPoint
10
57
20
0
30
0
39
0
210
0
220
0
230
1
50
360
0
POINT
5
82
100
AcDbEntity
8
1
62
256
6
ByLayer
370
18
48
1
60
1
100
AcDbPoint
10
-45
20
0
30
0
39
0
210
0
220
0
230
1
50
360
0
POINT
5
83
100
AcDbEntity
8
1
62
256
6
ByLayer
370
18
48
1
60
1
100
AcDbPoint
10
57
20
0
30
0
39
0
210
0
220
0
230
1
50
360
0
SPLINE
5
B4
100
AcDbEntity
8
1
62
256
6
ByLayer
370
18
48
1
60
0
100
AcDbSpline
70
4
71
3
72
8
73
4
40
0
40
0
40
0
40
0
40
1
40
1
40
1
40
1
41
1
10
55.4033197065408
20
0.930827509931561
30
-1E-16
41
1
10
55.4265956243148
20
0.923650589367412
30
-1E-16
41
1
10
55.4510104739479
20
0.914920213981532
30
-1E-16
41
1
10
55.4760743638882
20
0.905304575103713
30
-1E-16
0
SPLINE
5
B5
100
AcDbEntity
8
1
62
256
6
ByLayer
370
18
48
1
60
0
100
AcDbSpline
70
4
71
3
72
10
73
6
40
0
40
0
40
0
40
0
40
0.716690901403333
40
0.716690901403333
40
1
40
1
40
1
40
1
41
1
10
37.4703735118075
20
4.9769667130748
30
0
41
1
10
37.6052269394305
20
4.98043713861733
30
0
41
1
10
37.7399767949913
20
4.98278949072423
30
0
41
1
10
37.9276089129712
20
4.98451049096593
30
0
41
1
10
37.9807429140094
20
4.98478472975211
30
0
41
1
10
38.0338547456705
20
4.98484424672554
30
0
0
SPLINE
5
B6
100
AcDbEntity
8
1
62
256
6
ByLayer
370
18
48
1
60
0
100
AcDbSpline
70
4
71
3
72
14
73
10
40
0
40
0
40
0
40
0
40
0.105727362482158
40
0.105727362482158
40
0.294870882292503
40
0.294870882292503
40
0.673157921913192
40
0.673157921913192
40
1
40
1
40
1
40
1
41
1
10
50.1108754313871
20
1.96080868561143
30
-1E-16
41
1
10
50.2578081152173
20
1.89584356289296
30
-1E-16
41
1
10
50.4047239166583
20
1.83025687081445
30
-1E-16
41
1
10
50.8146384777539
20
1.64581806856808
30
-1E-16
41
1
10
51.0779095018154
20
1.52584084770672
30
-1E-16
41
1
10
51.8688539251395
20
1.16172629265452
30
-1E-16
41
1
10
52.3976904752317
20
0.913479517336668
30
-1E-16
41
1
10
53.3870337834515
20
0.443361608770232
30
0
41
1
10
53.8477647998989
20
0.222099053347193
30
0
41
1
10
54.3081310714629
20
-0.0001780925801995
30
0
0
SPLINE
5
B7
100
AcDbEntity
8
1
62
256
6
ByLayer
370
18
48
1
60
0
100
AcDbSpline
70
4
71
3
72
38
73
34
40
0
40
0
40
0
40
0
40
0.0294526605414981
40
0.0294526605414981
40
0.0791198972309966
40
0.0791198972309966
40
0.178454370609994
40
0.178454370609994
40
0.228121607299493
40
0.228121607299493
40
0.277788843988993
40
0.277788843988993
40
0.327456080678492
40
0.327456080678492
40
0.377123317367991
40
0.377123317367991
40
0.42679055405749
40
0.42679055405749
40
0.476457790746989
40
0.476457790746989
40
0.575792264125988
40
0.575792264125988
40
0.625459500815487
40
0.625459500815487
40
0.675126737504986
40
0.675126737504986
40
0.774461210883985
40
0.774461210883985
40
0.824128447573485
40
0.824128447573485
40
0.873795684262985
40
0.873795684262985
40
1
40
1
40
1
40
1
41
1
10
5.56446928823846
20
4.96663863107881
30
0
41
1
10
5.7216238233319
20
4.96484862672929
30
0
41
1
10
5.8786795796575
20
4.96138294897076
30
0
41
1
10
6.30033016778893
20
4.94779539295999
30
0
41
1
10
6.56476578300999
20
4.934696721188
30
0
41
1
10
7.35814610938956
20
4.88059660277455
30
0
41
1
10
7.88707366860362
20
4.8250009369383
30
-1E-16
41
1
10
8.68199477625768
20
4.71369608777332
30
-1E-16
41
1
10
8.94724201771083
20
4.67189865062869
30
-1E-16
41
1
10
9.47820812867622
20
4.57956925643356
30
-1E-16
41
1
10
9.74391257031678
20
4.52906601810741
30
2E-16
41
1
10
10.2766796674322
20
4.41860310532823
30
2E-16
41
1
10
10.5442302448727
20
4.3584907157998
30
2E-16
41
1
10
11.0778591739482
20
4.22995612113706
30
2E-16
41
1
10
11.3440096398086
20
4.16154088615326
30
2E-16
41
1
10
11.8752182062615
20
4.01712585592063
30
2E-16
41
1
10
12.1402799222664
20
3.94112774218993
30
2E-16
41
1
10
12.6693660403778
20
3.78208920191716
30
2E-16
41
1
10
12.933372646777
20
3.69906885842406
30
2E-16
41
1
10
13.7249778593107
20
3.43946564676841
30
-2E-16
41
1
10
14.2522504487356
20
3.25222244644988
30
-2E-16
41
1
10
15.0429546593042
20
2.9539085025194
30
-2E-16
41
1
10
15.3064906798263
20
2.85157578589443
30
-2E-16
41
1
10
15.8335032001658
20
2.64140269574648
30
-2E-16
41
1
10
16.0969298780092
20
2.53355245317007
30
-2E-16
41
1
10
16.8887337669198
20
2.20264990151296
30
-1E-16
41
1
10
17.4188627802805
20
1.97228914727071
30
-1E-16
41
1
10
18.2170787622469
20
1.61502388921204
30
-1E-16
41
1
10
18.4836878024086
20
1.49397537896243
30
-1E-16
41
1
10
19.0177667195933
20
1.24804332006337
30
-1E-16
41
1
10
19.2840925540493
20
1.12363959380966
30
-1E-16
41
1
10
20.2251484395659
20
0.681847991687022
30
0
41
1
10
20.8969170796565
20
0.361133204369253
30
0
41
1
10
21.5671292260358
20
0.0407210425761093
30
0
0
SPLINE
5
B8
100
AcDbEntity
8
1
62
256
6
ByLayer
370
18
48
1
60
0
100
AcDbSpline
70
4
71
3
72
24
73
20
40
0
40
0
40
0
40
0
40
0.17584457623318
40
0.17584457623318
40
0.223810901183819
40
0.223810901183819
40
0.271777226134458
40
0.271777226134458
40
0.367709876035738
40
0.367709876035738
40
0.559575175838297
40
0.559575175838297
40
0.655507825739577
40
0.655507825739577
40
0.751440475640857
40
0.751440475640857
40
0.943305775443417
40
0.943305775443417
40
1
40
1
40
1
40
1
41
1
10
7.09240293257639
20
0.222734279804399
30
0
41
1
10
8.07312141661686
20
-0.244660666798495
30
0
41
1
10
9.05374528609602
20
-0.715174921126533
30
0
41
1
10
10.3110592607017
20
-1.29806229707049
30
1E-16
41
1
10
10.5813800001263
20
-1.42222795204577
30
1E-16
41
1
10
11.1218396277848
20
-1.66742216426144
30
1E-16
41
1
10
11.3913336528383
20
-1.78816059831581
30
1E-16
41
1
10
12.1980549229072
20
-2.14397997528258
30
1E-16
41
1
10
12.7336507271046
20
-2.37249825197844
30
1E-16
41
1
10
14.3372288550241
20
-3.02567788315287
30
2E-16
41
1
10
15.4015684155044
20
-3.41862625958748
30
2E-16
41
1
10
17.0054827252497
20
-3.92048275511078
30
-2E-16
41
1
10
17.5413237219655
20
-4.07324727177479
30
-2E-16
41
1
10
18.6176453573513
20
-4.34638146101432
30
-2E-16
41
1
10
19.1596112932518
20
-4.46677265024513
30
-2E-16
41
1
10
20.7740748069802
20
-4.77024827915099
30
1E-16
41
1
10
21.8407910191969
20
-4.89698346232333
30
0
41
1
10
23.2224772536361
20
-4.95983285876662
30
0
41
1
10
23.5376242848556
20
-4.96731834854208
30
0
41
1
10
23.8530012610006
20
-4.9679433570802
30
0
0
SPLINE
5
B9
100
AcDbEntity
8
1
62
256
6
ByLayer
370
18
48
1
60
0
100
AcDbSpline
70
4
71
3
72
8
73
4
40
0
40
0
40
0
40
0
40
1
40
1
40
1
40
1
41
1
10
55.1260825851339
20
-4.95322069627318
30
0
41
1
10
55.1180469615084
20
-4.97657669399842
30
0
41
1
10
55.1100458154365
20
-4.99993244811276
30
0
41
1
10
55.1020798520488
20
-5.02328815059687
30
0
0
SPLINE
5
BA
100
AcDbEntity
8
1
62
256
6
ByLayer
370
18
48
1
60
0
100
AcDbSpline
70
4
71
3
72
32
73
28
40
0
40
0
40
0
40
0
40
0.125000000000008
40
0.125000000000008
40
0.187500000000009
40
0.187500000000009
40
0.250000000000009
40
0.250000000000009
40
0.312500000000009
40
0.312500000000009
40
0.37500000000001
40
0.37500000000001
40
0.43750000000001
40
0.43750000000001
40
0.500000000000011
40
0.500000000000011
40
0.562500000000011
40
0.562500000000011
40
0.625000000000011
40
0.625000000000011
40
0.687500000000012
40
0.687500000000012
40
0.750000000000012
40
0.750000000000012
40
0.875000000000006
40
0.875000000000006
40
1
40
1
40
1
40
1
41
1
10
56.926788403174
20
0.0632012422883292
30
0
41
1
10
56.9013750549744
20
-0.020590119499758
30
0
41
1
10
56.872157211425
20
-0.102465825244877
30
0
41
1
10
56.8224088532535
20
-0.22219935517677
30
0
41
1
10
56.8046729292712
20
-0.261902110082446
30
0
41
1
10
56.768020702876
20
-0.338136425143887
30
0
41
1
10
56.7490954180215
20
-0.374748357428871
30
0
41
1
10
56.7100742104149
20
-0.444868258792582
30
0
41
1
10
56.689979091342
20
-0.478378265733539
30
0
41
1
10
56.6485581510394
20
-0.542019474001961
30
0
41
1
10
56.6272810825956
20
-0.572006371427619
30
0
41
1
10
56.5852106882737
20
-0.625967288666232
30
0
41
1
10
56.5642045164763
20
-0.650282181458209
30
0
41
1
10
56.5222222669527
20
-0.693470237359747
30
0
41
1
10
56.5010548651114
20
-0.71246171188821
30
0
41
1
10
56.4600810477101
20
-0.743602957928942
30
0
41
1
10
56.4401761360525
20
-0.755907984472827
30
0
41
1
10
56.4013776346491
20
-0.774242588055387
30
0
41
1
10
56.3823428074939
20
-0.78027388618986
30
0
41
1
10
56.3460629850425
20
-0.785916296212378
30
0
41
1
10
56.3287790763422
20
-0.785601482467342
30
0
41
1
10
56.29565109376
20
-0.779188943896571
30
0
41
1
10
56.2797132273279
20
-0.773024357305331
30
0
41
1
10
56.2345208428227
20
-0.746652999677053
30
0
41
1
10
56.2079898624332
20
-0.718979979624777
30
0
41
1
10
56.1599601750414
20
-0.647033667448568
30
0
41
1
10
56.138534010587
20
-0.602585333161983
30
0
41
1
10
56.1195881207423
20
-0.552011442486332
30
0
0
SPLINE
5
BB
100
AcDbEntity
8
1
62
256
6
ByLayer
370
18
48
1
60
0
100
AcDbSpline
70
4
71
3
72
14
73
10
40
0
40
0
40
0
40
0
40
0.216707168871499
40
0.216707168871499
40
0.477804779247666
40
0.477804779247666
40
0.738902389623833
40
0.738902389623833
40
1
40
1
40
1
40
1
41
1
10
47.2293056324802
20
3.82861568040622
30
1E-16
41
1
10
47.78002358116
20
4.01877850438584
30
2E-16
41
1
10
48.3307575044709
20
4.19282101623438
30
2E-16
41
1
10
49.5450239867051
20
4.53625675679965
30
2E-16
41
1
10
50.2076440624138
20
4.69714299357071
30
2E-16
41
1
10
51.5346813511849
20
4.96016527280909
30
-1E-16
41
1
10
52.1980131372172
20
5.06202365647414
30
-1E-16
41
1
10
53.5241129237362
20
5.20290639888466
30
0
41
1
10
54.187459568064
20
5.24196934006682
30
0
41
1
10
54.8505065022604
20
5.24886625916997
30
0
0
SPLINE
5
BC
100
AcDbEntity
8
1
62
256
6
ByLayer
370
18
48
1
60
0
100
AcDbSpline
70
4
71
3
72
10
73
6
40
0
40
0
40
0
40
0
40
0.5
40
0.5
40
1
40
1
40
1
40
1
41
1
10
3.50164460106453
20
-5.16341906516493
30
0
41
1
10
3.50164460106453
20
-5.15847981085307
30
0
41
1
10
3.52008340085786
20
-5.15335187058443
30
0
41
1
10
3.57847539956913
20
-5.14764233939454
30
0
41
1
10
3.61614455940415
20
-5.14739836701168
30
0
41
1
10
3.64676680825417
20
-5.14990769141332
30
0
0
SPLINE
5
BD
100
AcDbEntity
8
1
62
256
6
ByLayer
370
18
48
1
60
0
100
AcDbSpline
70
4
71
3
72
16
73
12
40
0
40
0
40
0
40
0
40
0.409690643853736
40
0.409690643853736
40
0.614535965780604
40
0.614535965780604
40
0.716958626744036
40
0.716958626744036
40
0.819381287707468
40
0.819381287707468
40
1
40
1
40
1
40
1
41
1
10
23.0000000000127
20
5.21592571740419
30
0
41
1
10
21.8468465288678
20
5.2576690532901
30
0
41
1
10
20.7006652718014
20
5.20263438134126
30
0
41
1
10
18.9729878961689
20
4.97886324850435
30
-1E-16
41
1
10
18.3955434777294
20
4.88087822055874
30
-1E-16
41
1
10
17.5250110551383
20
4.69941680802512
30
2E-16
41
1
10
17.2335372755618
20
4.63303840609458
30
2E-16
41
1
10
16.6514384300645
20
4.48980274865664
30
2E-16
41
1
10
16.3612344787556
20
4.41306749341297
30
2E-16
41
1
10
15.5611496353085
20
4.18757200451617
30
2E-16
41
1
10
15.0526865891342
20
4.02854003126689
30
1E-16
41
1
10
14.545213284546
20
3.85606434423641
30
0
0
SPLINE
5
BE
100
AcDbEntity
8
1
62
256
6
ByLayer
370
18
48
1
60
0
100
AcDbSpline
70
4
71
3
72
32
73
28
40
0
40
0
40
0
40
0
40
0.497601206891373
40
0.497601206891373
40
0.680414498240241
40
0.680414498240241
40
0.79685833192606
40
0.79685833192606
40
0.870969012499558
40
0.870969012499558
40
0.918173895838121
40
0.918173895838121
40
0.948289295377166
40
0.948289295377166
40
0.967546990501879
40
0.967546990501879
40
0.979955801791792
40
0.979955801791792
40
0.987859013087321
40
0.987859013087321
40
0.992763294352951
40
0.992763294352951
40
0.995763998099206
40
0.995763998099206
40
0.998796082342047
40
0.998796082342047
40
1
40
1
40
1
40
1
41
1
10
54.8505065022551
20
5.24886625916045
30
0
41
1
10
54.9029877564685
20
5.21456463692348
30
0
41
1
10
54.9555762440213
20
5.17993768832361
30
0
41
1
10
55.0275406136346
20
5.13222526726426
30
0
41
1
10
55.0468811128377
20
5.11937017081755
30
0
41
1
10
55.0785420235387
20
5.09827368278192
30
0
41
1
10
55.0908629711074
20
5.09005085036972
30
0
41
1
10
55.1110454315423
20
5.07655963700412
30
0
41
1
10
55.1188997733215
20
5.07130394536566
30
0
41
1
10
55.131769318125
20
5.06268366737007
30
0
41
1
10
55.1367800498357
20
5.05932522921307
30
0
41
1
10
55.1449935541816
20
5.05381666353566
30
0
41
1
10
55.1481957974999
20
5.051668120042
30
0
41
1
10
55.1534417165057
20
5.04814708725769
30
0
41
1
10
55.1554856135279
20
5.04677493684952
30
0
41
1
10
55.1588311208369
20
5.04452859466619
30
0
41
1
10
55.1601338182737
20
5.04365385671912
30
0
41
1
10
55.162282589736
20
5.04221053271721
30
0
41
1
10
55.1631240526497
20
5.04164519779948
30
0
41
1
10
55.1645015781776
20
5.04071944913409
30
0
41
1
10
55.1650339629331
20
5.04036158730051
30
0
41
1
10
55.1658828081763
20
5.03979108757281
30
0
41
1
10
55.1662034166374
20
5.03957562752828
30
0
41
1
10
55.1668280762904
20
5.03915600053296
30
0
41
1
10
55.1671404818239
20
5.03894620610797
30
0
41
1
10
55.1675011974089
20
5.03870445687892
30
0
41
1
10
55.1675962794139
20
5.03864080658204
30
0
41
1
10
55.1676669001334
20
5.03859368561868
30
0
0
SPLINE
5
BF
100
AcDbEntity
8
1
62
256
6
ByLayer
370
18
48
1
60
0
100
AcDbSpline
70
4
71
3
72
14
73
10
40
0
40
0
40
0
40
0
40
0.27057036341664
40
0.27057036341664
40
0.505875477209405
40
0.505875477209405
40
0.78103790457639
40
0.78103790457639
40
1
40
1
40
1
40
1
41
1
10
54.5254791881107
20
-0.105203688206984
30
0
41
1
10
54.526218476346
20
-0.105529983102827
30
0
41
1
10
54.5269443887298
20
-0.106227612618596
30
0
41
1
10
54.5281552048192
20
-0.107967062853163
30
0
41
1
10
54.5286758703422
20
-0.108975659654561
30
0
41
1
10
54.5296451446301
20
-0.111429909100849
30
0
41
1
10
54.5300821621664
20
-0.112958600792211
30
0
41
1
10
54.5306293648309
20
-0.115873847321154
30
0
41
1
10
54.5307934196155
20
-0.117260230901763
30
0
41
1
10
54.530847275962
20
-0.118642510306586
30
0
0
SPLINE
5
C0
100
AcDbEntity
8
1
62
256
6
ByLayer
370
18
48
1
60
0
100
AcDbSpline
70
4
71
3
72
10
73
6
40
0
40
0
40
0
40
0
40
0.5
40
0.5
40
1
40
1
40
1
40
1
41
1
10
54.3972835750236
20
-0.0454125787725843
30
0
41
1
10
54.3908054077732
20
0.0774946861692172
30
0
41
1
10
54.3863728642687
20
0.201714806116172
30
0
41
1
10
54.3825954313421
20
0.448864727801578
30
0
41
1
10
54.3832363844118
20
0.571311020719918
30
0
41
1
10
54.3866837150622
20
0.692635901517463
30
0
0
SPLINE
5
C1
100
AcDbEntity
8
1
62
256
6
ByLayer
370
18
48
1
60
0
100
AcDbSpline
70
4
71
3
72
8
73
4
40
0
40
0
40
0
40
0
40
1
40
1
40
1
40
1
41
1
10
55.1758024075681
20
5.03311830411999
30
0
41
1
10
55.1730905358276
20
5.03494360238025
30
0
41
1
10
55.1703787016134
20
5.03676872855874
30
0
41
1
10
55.1676669049317
20
5.03859368240251
30
0
0
SPLINE
5
C2
100
AcDbEntity
8
1
62
256
6
ByLayer
370
18
48
1
60
0
100
AcDbSpline
70
4
71
3
72
32
73
28
40
0
40
0
40
0
40
0
40
0.09594164328887
40
0.09594164328887
40
0.19188328657774
40
0.19188328657774
40
0.239854108222175
40
0.239854108222175
40
0.28782492986661
40
0.28782492986661
40
0.383766573155478
40
0.383766573155478
40
0.479708216444345
40
0.479708216444345
40
0.52767903808878
40
0.52767903808878
40
0.575649859733215
40
0.575649859733215
40
0.671591503022087
40
0.671591503022087
40
0.767533146310958
40
0.767533146310958
40
0.86347478959983
40
0.86347478959983
40
0.959416432888702
40
0.959416432888702
40
1
40
1
40
1
40
1
41
1
10
54.5308472759768
20
-0.118642510313805
30
0
41
1
10
53.9981361641676
20
0.138444189856273
30
0
41
1
10
53.4643853326786
20
0.394725056175389
30
0
41
1
10
52.4026205661083
20
0.898429506540282
30
-1E-16
41
1
10
51.8736621425159
20
1.14637541400344
30
-1E-16
41
1
10
51.0825347736894
20
1.51012829082606
30
-1E-16
41
1
10
50.8192022736781
20
1.62999948928524
30
-1E-16
41
1
10
50.2932061913889
20
1.86643746064493
30
-1E-16
41
1
10
50.0304080388032
20
1.98291938598302
30
-1E-16
41
1
10
49.2412651300178
20
2.32586344016045
30
-1E-16
41
1
10
48.7146141506157
20
2.54613036686257
30
-2E-16
41
1
10
47.6597204708747
20
2.96664420212562
30
-2E-16
41
1
10
47.131674107267
20
3.16650778764327
30
-2E-16
41
1
10
46.3356724906691
20
3.44802322926355
30
-2E-16
41
1
10
46.0697181430622
20
3.53881028303138
30
-2E-16
41
1
10
45.5363843294223
20
3.71372249981843
30
2E-16
41
1
10
45.2694586349209
20
3.79770384804209
30
2E-16
41
1
10
44.472075419382
20
4.03704671231202
30
2E-16
41
1
10
43.9438178719631
20
4.17959021367659
30
2E-16
41
1
10
42.888295621335
20
4.43274531545467
30
2E-16
41
1
10
42.361642331703
20
4.54273786170228
30
2E-16
41
1
10
41.3092948613339
20
4.72616698619305
30
-1E-16
41
1
10
40.7840403504894
20
4.79809163448761
30
-1E-16
41
1
10
39.7303195743021
20
4.90885077406429
30
0
41
1
10
39.2022027448035
20
4.94696685786201
30
0
41
1
10
38.4484021780476
20
4.97173377159592
30
0
41
1
10
38.2240557415155
20
4.97517267765318
30
0
41
1
10
37.9993058477123
20
4.97476920089389
30
0
0
SPLINE
5
C3
100
AcDbEntity
8
1
62
256
6
ByLayer
370
18
48
1
60
0
100
AcDbSpline
70
4
71
3
72
38
73
34
40
0
40
0
40
0
40
0
40
0.0490744447144224
40
0.0490744447144224
40
0.116997698663389
40
0.116997698663389
40
0.184920952612357
40
0.184920952612357
40
0.218882579586841
40
0.218882579586841
40
0.252844206561325
40
0.252844206561325
40
0.320767460510294
40
0.320767460510294
40
0.388690714459263
40
0.388690714459263
40
0.422652341433748
40
0.422652341433748
40
0.456613968408233
40
0.456613968408233
40
0.524537222357203
40
0.524537222357203
40
0.558498849331688
40
0.558498849331688
40
0.592460476306174
40
0.592460476306174
40
0.728306984204116
40
0.728306984204116
40
0.796230238153087
40
0.796230238153087
40
0.864153492102058
40
0.864153492102058
40
1
40
1
40
1
40
1
41
1
10
27.1531735254367
20
-4.97220995471127
30
0
41
1
10
26.7678082919422
20
-5.03241432299882
30
1E-16
41
1
10
26.3824623930722
20
-5.08238941364343
30
1E-16
41
1
10
25.4624712331205
20
-5.17631643678391
30
0
41
1
10
24.9267808379938
20
-5.21056429258539
30
0
41
1
10
23.8587478436261
20
-5.23737338479827
30
0
41
1
10
23.3257183555344
20
-5.23007334628497
30
0
41
1
10
22.5253835798154
20
-5.18820056390445
30
0
41
1
10
22.2584831842927
20
-5.16909445640522
30
0
41
1
10
21.7241027667907
20
-5.12064998905126
30
1E-16
41
1
10
21.4563758010227
20
-5.0912767036738
30
1E-16
41
1
10
20.6540357438502
20
-4.98814879030658
30
1E-16
41
1
10
20.1205052069489
20
-4.89946843822059
30
1E-16
41
1
10
19.0534730760301
20
-4.68435969295174
30
-2E-16
41
1
10
18.5201321773687
20
-4.55779206094493
30
-2E-16
41
1
10
17.7181888095751
20
-4.3412908892785
30
-2E-16
41
1
10
17.4503507845824
20
-4.26461998655162
30
-2E-16
41
1
10
16.9156431586471
20
-4.10325656854673
30
-2E-16
41
1
10
16.6485938241412
20
-4.0185219101927
30
-2E-16
41
1
10
15.8479342591063
20
-3.75274550993939
30
-2E-16
41
1
10
15.3147771752265
20
-3.56016494547563
30
2E-16
41
1
10
14.5139284345414
20
-3.25111073373279
30
2E-16
41
1
10
14.2467979964962
20
-3.14472414243971
30
2E-16
41
1
10
13.7118524949317
20
-2.92569326919215
30
2E-16
41
1
10
13.4440543930338
20
-2.8130503400136
30
2E-16
41
1
10
12.1076705719938
20
-2.23767356846304
30
1E-16
41
1
10
11.0431833212722
20
-1.73607670407912
30
1E-16
41
1
10
9.43730106983483
20
-0.95137681338187
30
1E-16
41
1
10
8.90271698505447
20
-0.685222469530999
30
0
41
1
10
7.8342761104584
20
-0.150117083325256
30
0
41
1
10
7.30006955631526
20
0.118942003856091
30
0
41
1
10
5.69387755383261
20
0.923426333026271
30
-1E-16
41
1
10
4.62762841985878
20
1.45086395431525
30
-1E-16
41
1
10
3.556772879558
20
1.9493615251551
30
-1E-16
0
SPLINE
5
C4
100
AcDbEntity
8
1
62
256
6
ByLayer
370
18
48
1
60
0
100
AcDbSpline
70
4
71
3
72
26
73
22
40
0
40
0
40
0
40
0
40
0.0316497024744498
40
0.0316497024744498
40
0.152693489665145
40
0.152693489665145
40
0.273737276855839
40
0.273737276855839
40
0.394781064046534
40
0.394781064046534
40
0.455302957641882
40
0.455302957641882
40
0.515824851237229
40
0.515824851237229
40
0.636868638427922
40
0.636868638427922
40
0.757912425618614
40
0.757912425618614
40
0.878956212809307
40
0.878956212809307
40
1
40
1
40
1
40
1
41
1
10
39.6095553181955
20
-0.445826978060524
30
0
41
1
10
39.4342404905774
20
-0.361159149078759
30
0
41
1
10
39.2589379035653
20
-0.276296593339595
30
0
41
1
10
38.4133053888071
20
0.133562411054584
30
0
41
1
10
37.7424615632132
20
0.459608573462617
30
0
41
1
10
36.4024556394229
20
1.10182731167069
30
-1E-16
41
1
10
35.7332934111613
20
1.41732625808703
30
-1E-16
41
1
10
34.3922130796751
20
2.02843836755841
30
-1E-16
41
1
10
33.7229610337375
20
2.32267248618092
30
-1E-16
41
1
10
32.7179309667073
20
2.73999772243101
30
-2E-16
41
1
10
32.3825987397057
20
2.87529701606562
30
-2E-16
41
1
10
31.712649187189
20
3.13596740550258
30
-2E-16
41
1
10
31.3778400489674
20
3.26145618760461
30
-2E-16
41
1
10
30.373166563715
20
3.62249535978714
30
-2E-16
41
1
10
29.7024912411526
20
3.84271628685482
30
2E-16
41
1
10
28.363007911482
20
4.23155486241907
30
2E-16
41
1
10
27.6928773798641
20
4.40076770877582
30
2E-16
41
1
10
26.3521401424286
20
4.68197075640242
30
-1E-16
41
1
10
25.6815638998518
20
4.79456575059879
30
-1E-16
41
1
10
24.340306638642
20
4.95858835332399
30
0
41
1
10
23.6705773254378
20
5.01010721079254
30
0
41
1
10
23
20
5.02992304905834
30
0
0
SPLINE
5
C5
100
AcDbEntity
8
1
62
256
6
ByLayer
370
18
48
1
60
0
100
AcDbSpline
70
4
71
3
72
8
73
4
40
0
40
0
40
0
40
0
40
1
40
1
40
1
40
1
41
1
10
54.3972835750236
20
-0.0454125787725843
30
0
41
1
10
54.4402736131047
20
-0.0665294628644801
30
0
41
1
10
54.4829884844135
20
-0.0864498394701343
30
0
41
1
10
54.5254791881106
20
-0.105203688206956
30
0
0
SPLINE
5
C6
100
AcDbEntity
8
1
62
256
6
ByLayer
370
18
48
1
60
0
100
AcDbSpline
70
4
71
3
72
8
73
4
40
0
40
0
40
0
40
0
40
1
40
1
40
1
40
1
41
1
10
56.1195881207424
20
-0.552011442486162
30
0
41
1
10
55.9481925481628
20
-0.0944905225929062
30
0
41
1
10
55.7333916598483
20
0.391475662453871
30
0
41
1
10
55.476074363882
20
0.905304575107806
30
-1E-16
0
SPLINE
5
C7
100
AcDbEntity
8
1
62
256
6
ByLayer
370
18
48
1
60
0
100
AcDbSpline
70
4
71
3
72
61
73
57
40
0
40
0
40
0
40
0
40
0.124999999999972
40
0.124999999999972
40
0.249999999999945
40
0.249999999999945
40
0.265624999999942
40
0.265624999999942
40
0.273437499999941
40
0.273437499999941
40
0.277343749999941
40
0.277343749999941
40
0.281249999999941
40
0.281249999999941
40
0.285156249999941
40
0.285156249999941
40
0.289062499999941
40
0.289062499999941
40
0.296874999999942
40
0.296874999999942
40
0.312499999999943
40
0.312499999999943
40
0.374999999999945
40
0.374999999999945
40
0.437499999999948
40
0.437499999999948
40
0.46874999999995
40
0.46874999999995
40
0.499999999999952
40
0.499999999999952
40
0.515624999999953
40
0.515624999999953
40
0.531249999999954
40
0.531249999999954
40
0.562499999999957
40
0.562499999999957
40
0.578124999999958
40
0.578124999999958
40
0.59374999999996
40
0.609374999999961
40
0.609374999999961
40
0.624999999999963
40
0.624999999999963
40
0.656249999999966
40
0.656249999999966
40
0.687499999999969
40
0.687499999999969
40
0.749999999999975
40
0.749999999999975
40
0.812499999999981
40
0.812499999999981
40
0.874999999999988
40
0.874999999999988
40
0.937499999999994
40
0.937499999999994
40
1
40
1
40
1
40
1
41
1
10
9.15000294053036
20
-1.59694477628753
30
1E-16
41
1
10
8.55580472994032
20
-1.31225750973743
30
1E-16
41
1
10
7.95366893086683
20
-1.03869488802957
30
1E-16
41
1
10
6.72394585407545
20
-0.539299775433307
30
0
41
1
10
6.09710723797639
20
-0.314005270298907
30
0
41
1
10
5.38075667719684
20
-0.0984523980329186
30
0
41
1
10
5.30099958513009
20
-0.0750166579782956
30
0
41
1
10
5.18111588317456
20
-0.0406493933680565
30
0
41
1
10
5.14111258995445
20
-0.0293245040505212
30
0
41
1
10
5.08105397963305
20
-0.0125379880616947
30
0
41
1
10
5.06107137106534
20
-0.0068097940341545
30
0
41
1
10
5.02088458033359
20
0.0038505422126605
30
0
41
1
10
5.00049867384033
20
0.0070749003068897
30
0
41
1
10
4.9592579454922
20
0.0052642832692413
30
0
41
1
10
4.93880660159724
20
4.72041535886E-05
30
0
41
1
10
4.90258414595556
20
-0.0211052473863447
30
0
41
1
10
4.88470934324081
20
-0.0320717707792824
30
0
41
1
10
4.8308463468324
20
-0.0645758898084807
30
0
41
1
10
4.79502884549819
20
-0.0863974050276965
30
0
41
1
10
4.68787186457266
20
-0.152325552477009
30
0
41
1
10
4.61684921685077
20
-0.196882072376269
30
0
41
1
10
4.26395759101845
20
-0.422894326933033
30
0
41
1
10
3.98806604656403
20
-0.614386419843896
30
0
41
1
10
3.46266442813516
20
-1.01986172828956
30
1E-16
41
1
10
3.21222994817765
20
-1.23404447753879
30
1E-16
41
1
10
2.86451857255128
20
-1.58099897544597
30
1E-16
41
1
10
2.75272661973159
20
-1.7017720446166
30
1E-16
41
1
10
2.54588575801819
20
-1.94962680857486
30
1E-16
41
1
10
2.45058808685502
20
-2.07679046746605
30
1E-16
41
1
10
2.32320429609308
20
-2.27363347812317
30
1E-16
41
1
10
2.28318806818331
20
-2.34058215822427
30
1E-16
41
1
10
2.21003323386881
20
-2.47529503070393
30
2E-16
41
1
10
2.17703488312847
20
-2.54274365090126
30
2E-16
41
1
10
2.08954975974805
20
-2.74535432993415
30
2E-16
41
1
10
2.04648134682486
20
-2.88077898909694
30
2E-16
41
1
10
2.00916030787687
20
-3.08442776135476
30
2E-16
41
1
10
2.00136461670752
20
-3.15263248454926
30
2E-16
41
1
10
1.99581049109202
20
-3.28472325375446
30
2E-16
41
1
10
2.000011379124
20
-3.41359587526128
30
2E-16
41
1
10
2.02308785196411
20
-3.53622114919676
30
2E-16
41
1
10
2.05538325600344
20
-3.65579066849202
30
-2E-16
41
1
10
2.07630821963716
20
-3.71430363421055
30
-2E-16
41
1
10
2.15052431430948
20
-3.88113462199857
30
-2E-16
41
1
10
2.21534153784083
20
-3.98222923247997
30
-2E-16
41
1
10
2.36946733874325
20
-4.16831029330405
30
-2E-16
41
1
10
2.45931952646578
20
-4.25342037025138
30
-2E-16
41
1
10
2.74994939920143
20
-4.48196860732617
30
-2E-16
41
1
10
2.97365402095872
20
-4.60268099540218
30
-2E-16
41
1
10
3.4594797463763
20
-4.80449101624657
30
-1E-16
41
1
10
3.71621878965803
20
-4.88296681532776
30
1E-16
41
1
10
4.24675398578844
20
-5.01067476568036
30
1E-16
41
1
10
4.52098444086368
20
-5.05975617371564
30
1E-16
41
1
10
5.083033139599
20
-5.13655738540319
30
0
41
1
10
5.37145314587446
20
-5.16420984049864
30
0
41
1
10
5.95538258114371
20
-5.20264876721418
30
0
41
1
10
6.25121299733544
20
-5.21348287494769
30
0
41
1
10
6.55029826829579
20
-5.2177427957925
30
0
0
SPLINE
5
C8
100
AcDbEntity
8
1
62
256
6
ByLayer
370
18
48
1
60
0
100
AcDbSpline
70
4
71
3
72
38
73
34
40
0
40
0
40
0
40
0
40
0.0625
40
0.0625
40
0.125
40
0.125
40
0.1875
40
0.1875
40
0.25
40
0.25
40
0.3125
40
0.3125
40
0.375
40
0.375
40
0.4375
40
0.4375
40
0.5
40
0.5
40
0.5625
40
0.5625
40
0.625
40
0.625
40
0.6875
40
0.6875
40
0.75
40
0.75
40
0.8125
40
0.8125
40
0.875
40
0.875
40
0.9375
40
0.9375
40
1
40
1
40
1
40
1
41
1
10
23.0000000000001
20
5.22118236959963
30
0
41
1
10
23.6638699659357
20
5.20226909741231
30
0
41
1
10
24.3280072929988
20
5.15127071319532
30
0
41
1
10
25.6551233535142
20
4.98714521940897
30
-1E-16
41
1
10
26.3186450179687
20
4.87396491233469
30
-1E-16
41
1
10
27.6462505003765
20
4.58937361767727
30
2E-16
41
1
10
28.3101299408078
20
4.41804334441079
30
2E-16
41
1
10
29.6378641133605
20
4.02353486233753
30
2E-16
41
1
10
30.3008529215446
20
3.80058484457885
30
2E-16
41
1
10
31.6284732112723
20
3.31022844250924
30
-2E-16
41
1
10
32.292108760905
20
3.04320909416066
30
-2E-16
41
1
10
33.6196837168208
20
2.47529865509026
30
-2E-16
41
1
10
34.2835981897284
20
2.17440320096998
30
-1E-16
41
1
10
35.6106765422152
20
1.54968213321413
30
-1E-16
41
1
10
36.2738399581001
20
1.22591466742986
30
-1E-16
41
1
10
37.6011016570941
20
0.566911328181135
30
0
41
1
10
38.2648637441482
20
0.231890579551845
30
0
41
1
10
39.5922528217816
20
-0.437158075709334
30
0
41
1
10
40.2557852620301
20
-0.771118281901835
30
0
41
1
10
41.5831472125755
20
-1.42573012948964
30
1E-16
41
1
10
42.2468236926438
20
-1.74634529110565
30
1E-16
41
1
10
43.5739331675487
20
-2.36245814242651
30
1E-16
41
1
10
44.2371333965034
20
-2.65783590243683
30
2E-16
41
1
10
45.5636567880279
20
-3.21295622028006
30
2E-16
41
1
10
46.227361169392
20
-3.47278195947519
30
2E-16
41
1
10
47.554397902532
20
-3.9467095921645
30
-2E-16
41
1
10
48.2179461061922
20
-4.16091412703096
30
-2E-16
41
1
10
49.5450239867041
20
-4.53625675679939
30
-2E-16
41
1
10
50.2076440624127
20
-4.69714299357045
30
-2E-16
41
1
10
51.5346813511838
20
-4.96016527280889
30
1E-16
41
1
10
52.198013137216
20
-5.062023656474
30
1E-16
41
1
10
53.5241129237351
20
-5.20290639888458
30
0
41
1
10
54.1874595680629
20
-5.24196934006679
30
0
41
1
10
54.8505065022592
20
-5.24886625916994
30
0
0
SPLINE
5
C9
100
AcDbEntity
8
1
62
256
6
ByLayer
370
18
48
1
60
0
100
AcDbSpline
70
4
71
3
72
48
73
44
40
0
40
0
40
0
40
0
40
0.0517263697727836
40
0.0517263697727836
40
0.103452739545567
40
0.103452739545567
40
0.155179109318351
40
0.155179109318351
40
0.206905479091134
40
0.206905479091134
40
0.310358218636703
40
0.310358218636703
40
0.362084588409487
40
0.362084588409487
40
0.413810958182272
40
0.413810958182272
40
0.439674143068665
40
0.439674143068665
40
0.465537327955057
40
0.465537327955057
40
0.517263697727842
40
0.517263697727842
40
0.568990067500626
40
0.568990067500626
40
0.594853252387018
40
0.594853252387018
40
0.62071643727341
40
0.62071643727341
40
0.672442807046194
40
0.672442807046194
40
0.698305991932585
40
0.698305991932585
40
0.724169176818976
40
0.724169176818976
40
0.827621916364541
40
0.827621916364541
40
0.879348286137324
40
0.879348286137324
40
0.931074655910107
40
0.931074655910107
40
0.98280102568289
40
0.98280102568289
40
1
40
1
40
1
40
1
41
1
10
54.8315538984342
20
-5.1813991090801
30
0
41
1
10
54.2971866717018
20
-5.13755810682122
30
1E-16
41
1
10
53.7632892773687
20
-5.07322121523268
30
1E-16
41
1
10
52.6940861288335
20
-4.90484893087199
30
1E-16
41
1
10
52.1593680311825
20
-4.80085111799383
30
-2E-16
41
1
10
51.0907988346963
20
-4.55582028059411
30
-2E-16
41
1
10
50.5557831032707
20
-4.41456881857701
30
-2E-16
41
1
10
49.4870171285456
20
-4.09844595972544
30
-2E-16
41
1
10
48.9529641709226
20
-3.92373356661932
30
-2E-16
41
1
10
47.348314364166
20
-3.35401874228506
30
2E-16
41
1
10
46.2841730772319
20
-2.91710657099884
30
2E-16
41
1
10
44.6825213827649
20
-2.20124578100848
30
1E-16
41
1
10
44.147095316895
20
-1.95232141507455
30
1E-16
41
1
10
43.0797143658473
20
-1.44270692748162
30
1E-16
41
1
10
42.5468280788631
20
-1.18160966154318
30
1E-16
41
1
10
41.7467668373189
20
-0.784289719816599
30
0
41
1
10
41.4799623499543
20
-0.650895671357262
30
0
41
1
10
40.9458219659558
20
-0.382776354469172
30
0
41
1
10
40.6782293397665
20
-0.247921177262299
30
0
41
1
10
39.8763696928279
20
0.156393085781872
30
0
41
1
10
39.3430814607732
20
0.425596796548774
30
0
41
1
10
38.276584654591
20
0.95840020808302
30
-1E-16
41
1
10
37.7434546071156
20
1.22215303048344
30
-1E-16
41
1
10
36.9418446081256
20
1.60968560640114
30
-1E-16
41
1
10
36.6741457433539
20
1.73759699586555
30
-1E-16
41
1
10
36.1397456816684
20
1.98919387094568
30
-1E-16
41
1
10
35.8728380014423
20
2.11298067532823
30
-1E-16
41
1
10
35.0725302543757
20
2.47749470947733
30
-2E-16
41
1
10
34.5395851970355
20
2.71144048643109
30
-2E-16
41
1
10
33.739043913759
20
3.04526089395438
30
-2E-16
41
1
10
33.4720126839106
20
3.15369195709874
30
-2E-16
41
1
10
32.9373007541116
20
3.36438216753956
30
-2E-16
41
1
10
32.6696854538987
20
3.46658852916738
30
-2E-16
41
1
10
31.3340979623789
20
3.95875168253295
30
2E-16
41
1
10
30.2698941143288
20
4.29414794814338
30
2E-16
41
1
10
28.6648282525429
20
4.69055890510384
30
2E-16
41
1
10
28.1307680547416
20
4.80419874506333
30
1E-16
41
1
10
27.0637402225256
20
4.99246442479949
30
-1E-16
41
1
10
26.5306767431791
20
5.06725738488245
30
-1E-16
41
1
10
25.4624712331205
20
5.17631643678391
30
0
41
1
10
24.9267808379938
20
5.21056429258539
30
0
41
1
10
24.2152043059511
20
5.22842583896519
30
0
41
1
10
24.0377533905625
20
5.23059382961924
30
0
41
1
10
23.8603559390965
20
5.23047609825096
30
0
0
SPLINE
5
CA
100
AcDbEntity
8
1
62
256
6
ByLayer
370
18
48
1
60
0
100
AcDbSpline
70
4
71
3
72
8
73
4
40
0
40
0
40
0
40
0
40
1
40
1
40
1
40
1
41
1
10
56.9951586284773
20
0.289849113452874
30
0
41
1
10
57.0016203517189
20
0.0964199615832797
30
0
41
1
10
57.0016072424551
20
-0.096812382246128
30
0
41
1
10
56.9951586284779
20
-0.289849113436958
30
0
0
SPLINE
5
CB
100
AcDbEntity
8
1
62
256
6
ByLayer
370
18
48
1
60
0
100
AcDbSpline
70
4
71
3
72
10
73
6
40
0
40
0
40
0
40
0
40
0.236619048617705
40
0.236619048617705
40
1
40
1
40
1
40
1
41
1
10
12.8595574340089
20
-3.19353314388613
30
0
41
1
10
12.3553343100564
20
-3.34435646038631
30
0
41
1
10
11.8525800197134
20
-3.49745341176083
30
0
41
1
10
9.73479206973428
20
-4.15336806562354
30
0
41
1
10
8.13371263995896
20
-4.67634634069321
30
0
41
1
10
6.55029792610486
20
-5.21774279777463
30
0
0
SPLINE
5
CC
100
AcDbEntity
8
1
62
256
6
ByLayer
370
18
48
1
60
0
100
AcDbSpline
70
4
71
3
72
8
73
4
40
0
40
0
40
0
40
0
40
1
40
1
40
1
40
1
41
1
10
56.5393758735202
20
1.61897129985311
30
0
41
1
10
56.6954779406825
20
1.17742440473415
30
0
41
1
10
56.8474262089199
20
0.734391077413477
30
0
41
1
10
56.9951586284743
20
0.289849113456
30
0
0
SPLINE
5
CD
100
AcDbEntity
8
1
62
256
6
ByLayer
370
18
48
1
60
0
100
AcDbSpline
70
4
71
3
72
10
73
6
40
0
40
0
40
0
40
0
40
0.5
40
0.5
40
1
40
1
40
1
40
1
41
1
10
55.1758024075681
20
-5.03311830411999
30
0
41
1
10
55.1590991884596
20
-5.04402402641861
30
0
41
1
10
55.1449402509906
20
-5.04853603366834
30
0
41
1
10
55.1206251653862
20
-5.04500015000062
30
0
41
1
10
55.1106252549455
20
-5.03700224794292
30
0
41
1
10
55.1020798520488
20
-5.02328815059684
30
0
0
SPLINE
5
CE
100
AcDbEntity
8
1
62
256
6
ByLayer
370
18
48
1
60
0
100
AcDbSpline
70
4
71
3
72
18
73
14
40
0
40
0
40
0
40
0
40
0.206493897244849
40
0.206493897244849
40
0.338744914370708
40
0.338744914370708
40
0.404870422933638
40
0.404870422933638
40
0.470995931496567
40
0.470995931496567
40
0.735497965748284
40
0.735497965748284
40
1
40
1
40
1
40
1
41
1
10
22.2421765535606
20
-5.22945351141303
30
0
41
1
10
21.3438372879387
20
-5.22900150088594
30
0
41
1
10
20.4480664686888
20
-5.16991743943819
30
0
41
1
10
18.972987896169
20
-4.97886324850438
30
1E-16
41
1
10
18.3955434777294
20
-4.88087822055874
30
1E-16
41
1
10
17.5250110551382
20
-4.69941680802509
30
-2E-16
41
1
10
17.2335372755617
20
-4.63303840609456
30
-2E-16
41
1
10
16.6514384300644
20
-4.48980274865662
30
-2E-16
41
1
10
16.3612344787555
20
-4.41306749341294
30
-2E-16
41
1
10
14.913622461479
20
-4.00507328849554
30
-2E-16
41
1
10
13.7663342594306
20
-3.60080645523155
30
2E-16
41
1
10
11.4674608556751
20
-2.67601288712328
30
2E-16
41
1
10
10.3159773893183
20
-2.15542084847562
30
1E-16
41
1
10
9.15000138960858
20
-1.59694435572573
30
1E-16
0
SPLINE
5
CF
100
AcDbEntity
8
1
62
256
6
ByLayer
370
18
48
1
60
0
100
AcDbSpline
70
4
71
3
72
24
73
20
40
0
40
0
40
0
40
0
40
0.053888028487229
40
0.053888028487229
40
0.107776056974458
40
0.107776056974458
40
0.215552113948918
40
0.215552113948918
40
0.431104227897838
40
0.431104227897838
40
0.538880284872298
40
0.538880284872298
40
0.592768313359526
40
0.592768313359526
40
0.646656341846754
40
0.646656341846754
40
0.862208455795672
40
0.862208455795672
40
1
40
1
40
1
40
1
41
1
10
55.1260825851338
20
-4.95322069627318
30
0
41
1
10
54.8560355492446
20
-4.93546515788424
30
0
41
1
10
54.5860522052318
20
-4.91357763685818
30
0
41
1
10
54.0459689202314
20
-4.85889499353192
30
1E-16
41
1
10
53.7755628593971
20
-4.8265145568181
30
1E-16
41
1
10
52.9665104724347
20
-4.71505914359361
30
1E-16
41
1
10
52.4298785954947
20
-4.62171435088172
30
1E-16
41
1
10
50.8247189147248
20
-4.28909766327067
30
-2E-16
41
1
10
49.760862650215
20
-3.99719662231186
30
-2E-16
41
1
10
48.1605228579369
20
-3.47088045219652
30
2E-16
41
1
10
47.6263352123957
20
-3.28087932531002
30
2E-16
41
1
10
46.822106062058
20
-2.97647095247274
30
2E-16
41
1
10
46.5535427784891
20
-2.87173326312689
30
2E-16
41
1
10
46.0151504404689
20
-2.65618109907177
30
2E-16
41
1
10
45.7448599289096
20
-2.54517347443021
30
2E-16
41
1
10
44.3954208125145
20
-1.9786573383079
30
1E-16
41
1
10
43.3270837075303
20
-1.49121057467823
30
1E-16
41
1
10
41.5787882729994
20
-0.668371457152574
30
0
41
1
10
40.8977857318346
20
-0.341484919830009
30
0
41
1
10
40.2151098668304
20
-0.013806708835375
30
0
0
SPLINE
5
D0
100
AcDbEntity
8
1
62
256
6
ByLayer
370
18
48
1
60
0
100
AcDbSpline
70
4
71
3
72
56
73
52
40
0
40
0
40
0
40
0
40
0.0670586566010814
40
0.0670586566010814
40
0.10406693677517
40
0.10406693677517
40
0.141075216949259
40
0.141075216949259
40
0.178083497123347
40
0.178083497123347
40
0.196587637210391
40
0.196587637210391
40
0.215091777297436
40
0.215091777297436
40
0.289108337645612
40
0.289108337645612
40
0.363124897993788
40
0.363124897993788
40
0.400133178167876
40
0.400133178167876
40
0.437141458341964
40
0.437141458341964
40
0.474149738516052
40
0.474149738516052
40
0.51115801869014
40
0.51115801869014
40
0.548166298864228
40
0.548166298864228
40
0.566670438951272
40
0.566670438951272
40
0.585174579038316
40
0.585174579038316
40
0.65919113938649
40
0.65919113938649
40
0.696199419560578
40
0.696199419560578
40
0.733207699734665
40
0.733207699734665
40
0.770215979908753
40
0.770215979908753
40
0.80722426008284
40
0.80722426008284
40
0.881240820431015
40
0.881240820431015
40
0.95525738077919
40
0.95525738077919
40
0.973761520866234
40
0.973761520866234
40
0.992265660953278
40
0.992265660953278
40
1
40
1
40
1
40
1
41
1
10
6.83390498111331
20
5.21983473747687
30
0
41
1
10
7.74411639875322
20
5.22029766815282
30
0
41
1
10
8.64586860193629
20
5.16057502821218
30
0
41
1
10
10.0424404104802
20
4.98004851309867
30
-1E-16
41
1
10
10.5383487817699
20
4.89854898234501
30
-1E-16
41
1
10
11.530988181476
20
4.70245574182283
30
2E-16
41
1
10
12.0278451711876
20
4.58800920342298
30
2E-16
41
1
10
13.0239561239162
20
4.32714955433747
30
2E-16
41
1
10
13.5235131565801
20
4.18104246414447
30
2E-16
41
1
10
14.2764812189197
20
3.93949632917392
30
2E-16
41
1
10
14.5283462986846
20
3.85510774567001
30
2E-16
41
1
10
15.0301012110166
20
3.68035318330914
30
2E-16
41
1
10
15.2803599811356
20
3.58986065418398
30
-2E-16
41
1
10
16.5294077407809
20
3.12326353714622
30
-2E-16
41
1
10
17.5211312323842
20
2.70422842619646
30
-2E-16
41
1
10
19.5056273592571
20
1.80334260480674
30
-1E-16
41
1
10
20.4985074864909
20
1.32171180978233
30
-1E-16
41
1
10
22.000551382883
20
0.57412505008466
30
0
41
1
10
22.5048776535331
20
0.320912841998933
30
0
41
1
10
23.5057494744492
20
-0.183258965159411
30
0
41
1
10
24.003955638372
20
-0.434653655584981
30
0
41
1
10
24.9983811974649
20
-0.931130938819337
30
1E-16
41
1
10
25.4942445825164
20
-1.17693416805628
30
1E-16
41
1
10
26.4861269402701
20
-1.65803047373925
30
1E-16
41
1
10
26.9819915827029
20
-1.89364093861465
30
1E-16
41
1
10
27.9753110416615
20
-2.35157887094889
30
1E-16
41
1
10
28.4728559872127
20
-2.57373054830097
30
2E-16
41
1
10
29.2221945920588
20
-2.89350950198309
30
2E-16
41
1
10
29.4724316486567
20
-2.99794452968055
30
2E-16
41
1
10
29.9740628079948
20
-3.20202688646049
30
2E-16
41
1
10
30.2258030766271
20
-3.30175849976337
30
2E-16
41
1
10
31.4800439139218
20
-3.7829973279008
30
-2E-16
41
1
10
32.473432052811
20
-4.11690087140968
30
-2E-16
41
1
10
33.9613837390907
20
-4.52663776921426
30
-2E-16
41
1
10
34.4567973851225
20
-4.64826889192454
30
-2E-16
41
1
10
35.4492656277078
20
-4.85886946561857
30
1E-16
41
1
10
35.9460549389829
20
-4.94809567046389
30
1E-16
41
1
10
36.9428475908468
20
-5.09235157177838
30
1E-16
41
1
10
37.4429943871384
20
-5.14731468107524
30
1E-16
41
1
10
38.4485227812057
20
-5.22126276788265
30
0
41
1
10
38.9488729192078
20
-5.2398185940348
30
0
41
1
10
40.4446182803973
20
-5.24103039667204
30
0
41
1
10
41.4348904980877
20
-5.16931032041137
30
1E-16
41
1
10
43.4180420919098
20
-4.88742071427708
30
1E-16
41
1
10
44.4110679349693
20
-4.67738243884807
30
-2E-16
41
1
10
45.6642348433116
20
-4.33415709802458
30
-2E-16
41
1
10
45.9159389122349
20
-4.26140478979721
30
-2E-16
41
1
10
46.4176737763436
20
-4.10901535360208
30
-2E-16
41
1
10
46.6678882160462
20
-4.02931277795244
30
-2E-16
41
1
10
47.021931100617
20
-3.91158848009587
30
-2E-16
41
1
10
47.126212158327
20
-3.87632466859983
30
-2E-16
41
1
10
47.2304204297586
20
-3.84051182267746
30
-2E-16
0
SPLINE
5
D1
100
AcDbEntity
8
1
62
256
6
ByLayer
370
18
48
1
60
0
100
AcDbSpline
70
4
71
3
72
8
73
4
40
0
40
0
40
0
40
0
40
1
40
1
40
1
40
1
41
1
10
56.5393758735202
20
-1.61897129985311
30
0
41
1
10
56.6954779406852
20
-1.17742440472659
30
0
41
1
10
56.8474262089251
20
-0.734391077398357
30
0
41
1
10
56.9951586284818
20
-0.289849113433235
30
0
0
SPLINE
5
D2
100
AcDbEntity
8
1
62
256
6
ByLayer
370
18
48
1
60
0
100
AcDbSpline
70
4
71
3
72
8
73
4
40
0
40
0
40
0
40
0
40
1
40
1
40
1
40
1
41
1
10
54.8315538984332
20
-5.18139910907863
30
0
41
1
10
54.9215079620583
20
-5.12964826747
30
0
41
1
10
55.0116709374761
20
-5.07693516024187
30
0
41
1
10
55.1020798520488
20
-5.02328815059684
30
0
0
SPLINE
5
D3
100
AcDbEntity
8
1
62
256
6
ByLayer
370
18
48
1
60
0
100
AcDbSpline
70
4
71
3
72
8
73
4
40
0
40
0
40
0
40
0
40
1
40
1
40
1
40
1
41
1
10
56.5393758735202
20
1.61897129985311
30
0
41
1
10
56.2527600946046
20
1.5476269805888
30
0
41
1
10
55.9596813026885
20
1.49526158699831
30
0
41
1
10
55.667258378122
20
1.4535038379164
30
0
0
SPLINE
5
D4
100
AcDbEntity
8
1
62
256
6
ByLayer
370
18
48
1
60
0
100
AcDbSpline
70
4
71
3
72
10
73
6
40
0
40
0
40
0
40
0
40
0.5
40
0.5
40
1
40
1
40
1
40
1
41
1
10
3.556772879558
20
1.9493615251551
30
-1E-16
41
1
10
3.54016115602786
20
1.95709450454919
30
-1E-16
41
1
10
3.52620643490957
20
1.96902027456017
30
-1E-16
41
1
10
3.50692671411974
20
1.99788585471632
30
-1E-16
41
1
10
3.50164460106447
20
2.01483837601469
30
-1E-16
41
1
10
3.50164460106447
20
2.03195906765819
30
-1E-16
0
SPLINE
5
D5
100
AcDbEntity
8
1
62
256
6
ByLayer
370
18
48
1
60
0
100
AcDbSpline
70
4
71
3
72
10
73
6
40
0
40
0
40
0
40
0
40
0.5
40
0.5
40
1
40
1
40
1
40
1
41
1
10
3.50164460106453
20
5.16341906516493
30
0
41
1
10
3.50164460106453
20
5.15847981085307
30
0
41
1
10
3.52008340085786
20
5.15335187058443
30
0
41
1
10
3.57847539956913
20
5.14764233939454
30
0
41
1
10
3.61614455940415
20
5.14739836701168
30
0
41
1
10
3.64676680825417
20
5.14990769141332
30
0
0
SPLINE
5
D6
100
AcDbEntity
8
1
62
256
6
ByLayer
370
18
48
1
60
0
100
AcDbSpline
70
4
71
3
72
24
73
20
40
0
40
0
40
0
40
0
40
0.165057671137133
40
0.165057671137133
40
0.373793253352846
40
0.373793253352846
40
0.425977148906774
40
0.425977148906774
40
0.478161044460703
40
0.478161044460703
40
0.582528835568562
40
0.582528835568562
40
0.791264417784281
40
0.791264417784281
40
0.89563220889214
40
0.89563220889214
40
0.94781610444607
40
0.94781610444607
40
1
40
1
40
1
40
1
41
1
10
39.7324293287066
20
0.228408551683856
30
0
41
1
10
40.5780342312418
20
-0.176177043890618
30
0
41
1
10
41.4202026901271
20
-0.58153869779926
30
0
41
1
10
43.3300494179877
20
-1.47896462534521
30
1E-16
41
1
10
44.3983637797199
20
-1.96576574155989
30
1E-16
41
1
10
45.747717891549
20
-2.5317284866496
30
2E-16
41
1
10
46.0179966098861
20
-2.64264114477552
30
2E-16
41
1
10
46.5563696759459
20
-2.85803278532589
30
2E-16
41
1
10
46.8249253714488
20
-2.96270481883497
30
2E-16
41
1
10
47.6291373857963
20
-3.26695819628574
30
2E-16
41
1
10
48.1633188776784
20
-3.45691453332259
30
2E-16
41
1
10
49.7636382548402
20
-3.98326895700595
30
-2E-16
41
1
10
50.8274931647475
20
-4.27541431175092
30
-2E-16
41
1
10
52.4326025441432
20
-4.60871766020426
30
1E-16
41
1
10
52.9692109726804
20
-4.70234295405513
30
1E-16
41
1
10
53.7782147275023
20
-4.81429880820045
30
1E-16
41
1
10
54.0486056511874
20
-4.84685988874628
30
1E-16
41
1
10
54.5886629772235
20
-4.90193045306683
30
0
41
1
10
54.8586137770879
20
-4.92404992127268
30
0
41
1
10
55.1286725102568
20
-4.94199757136477
30
0
0
SPLINE
5
D7
100
AcDbEntity
8
1
62
256
6
ByLayer
370
18
48
1
60
0
100
AcDbSpline
70
4
71
3
72
24
73
20
40
0
40
0
40
0
40
0
40
0.08858943509125
40
0.08858943509125
40
0.279310959325576
40
0.279310959325576
40
0.37467172144274
40
0.37467172144274
40
0.470032483559904
40
0.470032483559904
40
0.660754007794231
40
0.660754007794231
40
0.756114769911394
40
0.756114769911394
40
0.803795150969975
40
0.803795150969975
40
0.851475532028556
40
0.851475532028556
40
1
40
1
40
1
40
1
41
1
10
24.3907242549497
20
-4.97179706290558
30
0
41
1
10
23.8944244423483
20
-4.98362399169548
30
0
41
1
10
23.3990260680881
20
-4.97844946331657
30
0
41
1
10
21.8370745541993
20
-4.90865275657103
30
0
41
1
10
20.7703477704105
20
-4.78259651541131
30
1E-16
41
1
10
19.1558257197042
20
-4.47983524943629
30
-2E-16
41
1
10
18.6138288826794
20
-4.35962337722037
30
-2E-16
41
1
10
17.5374613371612
20
-4.08674192173072
30
-2E-16
41
1
10
17.0016049595476
20
-3.93404950061762
30
-2E-16
41
1
10
15.3976624865001
20
-3.43225378280391
30
2E-16
41
1
10
14.3333203609366
20
-3.03913168866549
30
2E-16
41
1
10
12.7297184074853
20
-2.38537236632058
30
1E-16
41
1
10
12.1941132423107
20
-2.15660381398652
30
1E-16
41
1
10
11.3873632051859
20
-1.80033201637948
30
1E-16
41
1
10
11.1178575438532
20
-1.67942934198862
30
1E-16
41
1
10
10.5773699506158
20
-1.4338792137562
30
1E-16
41
1
10
10.3070331710732
20
-1.30952238842605
30
1E-16
41
1
10
9.19814035192326
20
-0.794639714870499
30
0
41
1
10
8.36395495555246
20
-0.395720564579619
30
0
41
1
10
7.53049583877757
20
0.0027362826835429
30
0
0
SPLINE
5
D8
100
AcDbEntity
8
1
62
256
6
ByLayer
370
18
48
1
60
0
100
AcDbSpline
70
4
71
3
72
28
73
24
40
0
40
0
40
0
40
0
40
0.004005674385326
40
0.004005674385326
40
0.149374045052155
40
0.149374045052155
40
0.222058230385569
40
0.222058230385569
40
0.294742415718983
40
0.294742415718983
40
0.440110786385812
40
0.440110786385812
40
0.58547915705264
40
0.58547915705264
40
0.658163342386054
40
0.658163342386054
40
0.730847527719468
40
0.730847527719468
40
0.876215898386297
40
0.876215898386297
40
0.948900083719711
40
0.948900083719711
40
1
40
1
40
1
40
1
41
1
10
3.60202638765804
20
4.95563042940097
30
0
41
1
10
3.60202607529763
20
4.95560500877949
30
0
41
1
10
3.60202576238586
20
4.95556158928918
30
0
41
1
10
3.60201407401743
20
4.95327136553152
30
0
41
1
10
3.60200196230127
20
4.9276854879831
30
0
41
1
10
3.60198318637586
20
4.85496530470689
30
-1E-16
41
1
10
3.60197682299506
20
4.8249714091732
30
-1E-16
41
1
10
3.60196393206817
20
4.7532214847287
30
-1E-16
41
1
10
3.60195738732111
20
4.71130611964824
30
-1E-16
41
1
10
3.60193783063315
20
4.56946168819937
30
-1E-16
41
1
10
3.60192480396151
20
4.45296540682691
30
2E-16
41
1
10
3.60189884622125
20
4.17703429867893
30
2E-16
41
1
10
3.60188604293626
20
4.01895507500529
30
2E-16
41
1
10
3.6018668894078
20
3.75319637427401
30
2E-16
41
1
10
3.60186054177643
20
3.660263748071
30
2E-16
41
1
10
3.60184783297322
20
3.46576481115642
30
-2E-16
41
1
10
3.60184145242522
20
3.36387387556616
30
-2E-16
41
1
10
3.60182227390854
20
3.04742868720186
30
-2E-16
41
1
10
3.6018095276504
20
2.82368407203467
30
-2E-16
41
1
10
3.6017897407414
20
2.46953822131528
30
-2E-16
41
1
10
3.60178303284729
20
2.3483845830628
30
-1E-16
41
1
10
3.60177129937179
20
2.13668814518382
30
-1E-16
41
1
10
3.60176635818394
20
2.04760296186973
30
-1E-16
41
1
10
3.60176131048098
20
1.95711045741157
30
-1E-16
0
SPLINE
5
D9
100
AcDbEntity
8
1
62
256
6
ByLayer
370
18
48
1
60
0
100
AcDbSpline
70
4
71
3
72
18
73
14
40
0
40
0
40
0
40
0
40
0.250642492979179
40
0.250642492979179
40
0.375963739468768
40
0.375963739468768
40
0.501284985958358
40
0.501284985958358
40
0.626606232447947
40
0.626606232447947
40
0.751927478937537
40
0.751927478937537
40
1
40
1
40
1
40
1
41
1
10
55.667258378122
20
1.45350383791634
30
0
41
1
10
55.5843713471074
20
1.44166763920387
30
0
41
1
10
55.5040487306191
20
1.42304502990032
30
0
41
1
10
55.3875676688014
20
1.38570350113315
30
0
41
1
10
55.3491265194323
20
1.3715663786262
30
0
41
1
10
55.2754036562701
20
1.34115990812347
30
0
41
1
10
55.2400591093599
20
1.3249057196436
30
0
41
1
10
55.1722166549742
20
1.29085678787519
30
0
41
1
10
55.1397164712634
20
1.27306480319439
30
0
41
1
10
55.0774758251123
20
1.23641915178013
30
0
41
1
10
55.047822787
20
1.21759567528079
30
0
41
1
10
54.9659250439138
20
1.16229462248643
30
0
41
1
10
54.9186697740256
20
1.12590076471724
30
0
41
1
10
54.8790315526638
20
1.09172351522739
30
0
0
SPLINE
5
DA
100
AcDbEntity
8
1
62
256
6
ByLayer
370
18
48
1
60
0
100
AcDbSpline
70
4
71
3
72
30
73
26
40
0
40
0
40
0
40
0
40
0.125
40
0.125
40
0.1875
40
0.1875
40
0.249999999999999
40
0.249999999999999
40
0.374999999999999
40
0.374999999999999
40
0.437499999999999
40
0.437499999999999
40
0.499999999999999
40
0.499999999999999
40
0.625
40
0.625
40
0.6875
40
0.6875
40
0.749999999999999
40
0.749999999999999
40
0.875
40
0.875
40
0.9375
40
0.9375
40
1
40
1
40
1
40
1
41
1
10
54.5308472759623
20
-0.118642510315112
30
0
41
1
10
54.5424203514854
20
-0.415677586034036
30
0
41
1
10
54.5659793699863
20
-0.70660616798483
30
0
41
1
10
54.6107303851944
20
-1.13505762958016
30
1E-16
41
1
10
54.6272491139943
20
-1.27653966027967
30
1E-16
41
1
10
54.662365844932
20
-1.55691204347701
30
1E-16
41
1
10
54.6810526074259
20
-1.69642220521345
30
1E-16
41
1
10
54.7380754975825
20
-2.10628200322418
30
1E-16
41
1
10
54.7770077214081
20
-2.36649918428461
30
1E-16
41
1
10
54.8321491681057
20
-2.73833187899766
30
2E-16
41
1
10
54.8500113994909
20
-2.85917067607593
30
2E-16
41
1
10
54.8841862101673
20
-3.09454018959704
30
2E-16
41
1
10
54.9005567637702
20
-3.2095156495698
30
2E-16
41
1
10
54.9459996176384
20
-3.53855787080542
30
2E-16
41
1
10
54.9715746718367
20
-3.73855159498203
30
-2E-16
41
1
10
55.0034312710282
20
-4.009875092708
30
-2E-16
41
1
10
55.0129873101704
20
-4.09550967505143
30
-2E-16
41
1
10
55.0303472984673
20
-4.25687927672564
30
-2E-16
41
1
10
55.0381548720761
20
-4.33266996145574
30
-2E-16
41
1
10
55.0594432000775
20
-4.54048898389129
30
-2E-16
41
1
10
55.070905710567
20
-4.65481779676878
30
1E-16
41
1
10
55.0895998832449
20
-4.79035101053492
30
1E-16
41
1
10
55.0960987824309
20
-4.82950141320183
30
1E-16
41
1
10
55.1108250905042
20
-4.89540439004918
30
0
41
1
10
55.1190341523745
20
-4.92200073601862
30
0
41
1
10
55.1286725102562
20
-4.94199757136477
30
0
0
SPLINE
5
DB
100
AcDbEntity
8
1
62
256
6
ByLayer
370
18
48
1
60
0
100
AcDbSpline
70
4
71
3
72
38
73
34
40
0
40
0
40
0
40
0
40
0.151656908200803
40
0.151656908200803
40
0.19900540963819
40
0.19900540963819
40
0.246353911075577
40
0.246353911075577
40
0.341050913950351
40
0.341050913950351
40
0.388399415387739
40
0.388399415387739
40
0.435747916825127
40
0.435747916825127
40
0.530444919699903
40
0.530444919699903
40
0.577793421137291
40
0.577793421137291
40
0.625141922574679
40
0.625141922574679
40
0.672490424012067
40
0.672490424012067
40
0.719838925449455
40
0.719838925449455
40
0.767187426886843
40
0.767187426886843
40
0.814535928324231
40
0.814535928324231
40
0.909232931199007
40
0.909232931199007
40
0.956581432636395
40
0.956581432636395
40
1
40
1
40
1
40
1
41
1
10
22.0899139530247
20
-0.219843072894122
30
0
41
1
10
21.2457775262381
20
0.182737528724289
30
0
41
1
10
20.3999949903756
20
0.587545606915171
30
0
41
1
10
19.2828303497092
20
1.11119554093278
30
-1E-16
41
1
10
19.016472909067
20
1.23543085099556
30
-1E-16
41
1
10
18.4822946611348
20
1.4810513397081
30
-1E-16
41
1
10
18.2156354992268
20
1.60195901431567
30
-1E-16
41
1
10
17.41726732685
20
1.95884643751458
30
-1E-16
41
1
10
16.8870357897223
20
2.18901653714389
30
-1E-16
41
1
10
16.095069270123
20
2.51971494368243
30
-2E-16
41
1
10
15.8315848995652
20
2.62750271711039
30
-2E-16
41
1
10
15.3044583811954
20
2.83757256712045
30
-2E-16
41
1
10
15.0408665553712
20
2.9398672909723
30
-2E-16
41
1
10
14.2499978063966
20
3.23810654943924
30
-2E-16
41
1
10
13.7226214360326
20
3.42535707537985
30
-2E-16
41
1
10
12.9308625107214
20
3.68504534793519
30
2E-16
41
1
10
12.6668028967981
20
3.76810116845567
30
2E-16
41
1
10
12.1376137613403
20
3.92723039876759
30
2E-16
41
1
10
11.8725034339163
20
4.00328710279072
30
2E-16
41
1
10
11.3412026250505
20
4.14784448581483
30
2E-16
41
1
10
11.0750085869319
20
4.21634349093443
30
2E-16
41
1
10
10.5412975860616
20
4.34507050672229
30
2E-16
41
1
10
10.2737042858599
20
4.4052929744235
30
2E-16
41
1
10
9.74084311760157
20
4.51600014312436
30
2E-16
41
1
10
9.47508783863475
20
4.56663439070672
30
-1E-16
41
1
10
8.94401726117667
20
4.65924469685507
30
-1E-16
41
1
10
8.67871787096885
20
4.7011946034084
30
-1E-16
41
1
10
7.88363921424968
20
4.81298978809238
30
-1E-16
41
1
10
7.3546021907172
20
4.86895190378183
30
0
41
1
10
6.56105833452227
20
4.9236591977797
30
0
41
1
10
6.29656711597818
20
4.93696922254063
30
0
41
1
10
5.78904962105304
20
4.95373965706065
30
0
41
1
10
5.54605187041929
20
4.95796066520367
30
0
41
1
10
5.30281388494927
20
4.95807277165454
30
0
0
SPLINE
5
DC
100
AcDbEntity
8
1
62
256
6
ByLayer
370
18
48
1
60
0
100
AcDbSpline
70
4
71
3
72
8
73
4
40
0
40
0
40
0
40
0
40
1
40
1
40
1
40
1
41
1
10
56.99515862848
20
0.28984911345421
30
0
41
1
10
56.9724816031019
20
0.214264831459531
30
0
41
1
10
56.949691387811
20
0.138715584462744
30
0
41
1
10
56.926788403174
20
0.0632012422883008
30
0
0
SPLINE
5
DD
100
AcDbEntity
8
1
62
256
6
ByLayer
370
18
48
1
60
0
100
AcDbSpline
70
4
71
3
72
8
73
4
40
0
40
0
40
0
40
0
40
1
40
1
40
1
40
1
41
1
10
3.64676680825414
20
5.14990769141329
30
0
41
1
10
3.6463149497944
20
5.08513796564927
30
0
41
1
10
3.64585790791085
20
5.02036922829941
30
0
41
1
10
3.64539568847079
20
4.95560152920837
30
0
0
SPLINE
5
DE
100
AcDbEntity
8
1
62
256
6
ByLayer
370
18
48
1
60
0
100
AcDbSpline
70
4
71
3
72
18
73
14
40
0
40
0
40
0
40
0
40
0.25
40
0.25
40
0.5
40
0.5
40
0.625
40
0.625
40
0.75
40
0.75
40
0.875
40
0.875
40
1
40
1
40
1
40
1
41
1
10
54.3866837150622
20
0.692635901517519
30
0
41
1
10
54.4721559796552
20
0.745285164977503
30
0
41
1
10
54.5599748072868
20
0.788986382770503
30
0
41
1
10
54.7387231153985
20
0.859821731094911
30
-1E-16
41
1
10
54.8296550095146
20
0.887219447168832
30
-1E-16
41
1
10
54.9673846809472
20
0.914233151274829
30
-1E-16
41
1
10
55.0135219319479
20
0.920421105334611
30
-1E-16
41
1
10
55.1059730279649
20
0.93103965985145
30
-1E-16
41
1
10
55.1523270633973
20
0.93431484702981
30
-1E-16
41
1
10
55.2451088401684
20
0.935348267117149
30
-1E-16
41
1
10
55.2915331381263
20
0.932923738742574
30
-1E-16
41
1
10
55.3842040155326
20
0.92290833000942
30
-1E-16
41
1
10
55.4304570929808
20
0.915479543675843
30
-1E-16
41
1
10
55.4760743638811
20
0.905304575106129
30
-1E-16
0
SPLINE
5
DF
100
AcDbEntity
8
1
62
256
6
ByLayer
370
18
48
1
60
0
100
AcDbSpline
70
4
71
3
72
16
73
12
40
0
40
0
40
0
40
0
40
0.373969384273337
40
0.373969384273337
40
0.560954076410006
40
0.560954076410006
40
0.747938768546674
40
0.747938768546674
40
0.934923460683343
40
0.934923460683343
40
1
40
1
40
1
40
1
41
1
10
6.55029792611617
20
-5.2177427977727
30
0
41
1
10
7.55696784426453
20
-5.23208172815825
30
0
41
1
10
8.55249396710147
20
-5.17264501081075
30
0
41
1
10
10.0424404104801
20
-4.98004851309867
30
1E-16
41
1
10
10.5383487817699
20
-4.89854898234501
30
1E-16
41
1
10
11.530988181476
20
-4.70245574182283
30
-2E-16
41
1
10
12.0278451711876
20
-4.58800920342298
30
-2E-16
41
1
10
13.0239561239162
20
-4.32714955433747
30
-2E-16
41
1
10
13.5235131565801
20
-4.1810424641445
30
-2E-16
41
1
10
14.2001962043368
20
-3.96396795200931
30
-2E-16
41
1
10
14.3753248358783
20
-3.90604761563958
30
-2E-16
41
1
10
14.5502493547112
20
-3.84654899388485
30
-2E-16
0
SPLINE
5
E0
100
AcDbEntity
8
1
62
256
6
ByLayer
370
18
48
1
60
0
100
AcDbSpline
70
4
71
3
72
24
73
20
40
0
40
0
40
0
40
0
40
0.19959981905343
40
0.19959981905343
40
0.399699864290067
40
0.399699864290067
40
0.449724875599229
40
0.449724875599229
40
0.49974988690839
40
0.49974988690839
40
0.599799909526712
40
0.599799909526712
40
0.699849932145034
40
0.699849932145034
40
0.799899954763356
40
0.799899954763356
40
0.899949977381678
40
0.899949977381678
40
1
40
1
40
1
40
1
41
1
10
39.4549329462532
20
5.24022722725326
30
0
41
1
10
40.4495694127798
20
5.24067138083151
30
0
41
1
10
41.4373693189978
20
5.16895797525925
30
-1E-16
41
1
10
43.4180420919098
20
4.88742071427708
30
-1E-16
41
1
10
44.4110679349693
20
4.67738243884807
30
2E-16
41
1
10
45.6642348433117
20
4.3341570980246
30
2E-16
41
1
10
45.9159389122349
20
4.26140478979718
30
2E-16
41
1
10
46.4176737763437
20
4.10901535360208
30
2E-16
41
1
10
46.6678882160462
20
4.02931277795244
30
2E-16
41
1
10
47.4169322935845
20
3.78024496177895
30
2E-16
41
1
10
47.9144526587887
20
3.60132971732921
30
-2E-16
41
1
10
48.9074917353175
20
3.22062609499892
30
-2E-16
41
1
10
49.4029601176734
20
3.01873865644751
30
-2E-16
41
1
10
50.3942115315035
20
2.59593056698014
30
-2E-16
41
1
10
50.8900066279816
20
2.3750580867555
30
-1E-16
41
1
10
51.8833196563668
20
1.91665363124119
30
-1E-16
41
1
10
52.3813304681556
20
1.68005055997082
30
-1E-16
41
1
10
53.3812692676488
20
1.19405841400069
30
-1E-16
41
1
10
53.88426823398
20
0.944278862986863
30
-1E-16
41
1
10
54.3866837150622
20
0.692635901517406
30
0
0
SPLINE
5
E1
100
AcDbEntity
8
1
62
256
6
ByLayer
370
18
48
1
60
0
100
AcDbSpline
70
4
71
3
72
14
73
10
40
0
40
0
40
0
40
0
40
0.262035662027694
40
0.262035662027694
40
0.524071324055389
40
0.524071324055389
40
0.786106986083084
40
0.786106986083084
40
1
40
1
40
1
40
1
41
1
10
55.1676669049314
20
5.03859368240279
30
0
41
1
10
54.4972127208629
20
5.04320220701982
30
0
41
1
10
53.8269092420925
20
5.01649763742068
30
0
41
1
10
52.4861201855744
20
4.90118212005726
30
-1E-16
41
1
10
51.8158582226761
20
4.81245184621631
30
-1E-16
41
1
10
50.4746972411076
20
4.57581300027894
30
2E-16
41
1
10
49.8043253913038
20
4.42826104921534
30
2E-16
41
1
10
48.5863175606202
20
4.11214291555143
30
2E-16
41
1
10
48.0395845251798
20
3.95259935635255
30
2E-16
41
1
10
47.4932107431393
20
3.77720600754194
30
1E-16
0
SPLINE
5
E2
100
AcDbEntity
8
1
62
256
6
ByLayer
370
18
48
1
60
0
100
AcDbSpline
70
4
71
3
72
32
73
28
40
0
40
0
40
0
40
0
40
0.497601206810454
40
0.497601206810454
40
0.680414498133541
40
0.680414498133541
40
0.796858331803378
40
0.796858331803378
40
0.87096901236661
40
0.87096901236661
40
0.918173895698934
40
0.918173895698934
40
0.948289295233697
40
0.948289295233697
40
0.967546990355937
40
0.967546990355937
40
0.979955801644167
40
0.979955801644167
40
0.987859012938741
40
0.987859012938741
40
0.992763294203683
40
0.992763294203683
40
0.995763997949495
40
0.995763997949495
40
0.998796082191864
40
0.998796082191864
40
1
40
1
40
1
40
1
41
1
10
54.850506502259
20
-5.24886625915792
30
0
41
1
10
54.9029877564711
20
-5.21456463692178
30
0
41
1
10
54.9555762440226
20
-5.17993768832278
30
0
41
1
10
55.0275406136346
20
-5.13222526726432
30
0
41
1
10
55.0468811128376
20
-5.1193701708176
30
0
41
1
10
55.0785420235386
20
-5.09827368278201
30
0
41
1
10
55.0908629711073
20
-5.09005085036981
30
0
41
1
10
55.1110454315422
20
-5.07655963700421
30
0
41
1
10
55.1188997733214
20
-5.07130394536571
30
0
41
1
10
55.1317693181249
20
-5.06268366737012
30
0
41
1
10
55.1367800498356
20
-5.05932522921313
30
0
41
1
10
55.1449935541816
20
-5.05381666353571
30
0
41
1
10
55.1481957974998
20
-5.05166812004202
30
0
41
1
10
55.1534417165056
20
-5.04814708725772
30
0
41
1
10
55.1554856135278
20
-5.04677493684954
30
0
41
1
10
55.1588311208369
20
-5.04452859466622
30
0
41
1
10
55.1601338182737
20
-5.04365385671915
30
0
41
1
10
55.162282589736
20
-5.04221053271721
30
0
41
1
10
55.1631240526497
20
-5.04164519779951
30
0
41
1
10
55.1645015781777
20
-5.04071944913409
30
0
41
1
10
55.1650339629332
20
-5.04036158730048
30
0
41
1
10
55.1658828081763
20
-5.03979108757281
30
0
41
1
10
55.1662034166374
20
-5.03957562752828
30
0
41
1
10
55.1668280762904
20
-5.03915600053296
30
0
41
1
10
55.1671404818239
20
-5.03894620610797
30
0
41
1
10
55.1675011974218
20
-5.03870445687028
30
0
41
1
10
55.1675962794382
20
-5.03864080656578
30
0
41
1
10
55.1676669001604
20
-5.03859368560074
30
0
0
SPLINE
5
E3
100
AcDbEntity
8
1
62
256
6
ByLayer
370
18
48
1
60
0
100
AcDbSpline
70
4
71
3
72
8
73
4
40
0
40
0
40
0
40
0
40
1
40
1
40
1
40
1
41
1
10
23
20
5.2159257174047
30
0
41
1
10
23
20
5.15432135665753
30
0
41
1
10
23
20
5.09231800755896
30
0
41
1
10
23
20
5.02992304905834
30
0
0
SPLINE
5
E4
100
AcDbEntity
8
1
62
256
6
ByLayer
370
18
48
1
60
0
100
AcDbSpline
70
4
71
3
72
74
73
70
40
0
40
0
40
0
40
0
40
0.0462032834136152
40
0.0462032834136152
40
0.0693049251204228
40
0.0693049251204228
40
0.0924065668272303
40
0.0924065668272303
40
0.138609850240846
40
0.138609850240846
40
0.161711491947654
40
0.161711491947654
40
0.184813133654462
40
0.184813133654462
40
0.231016417068077
40
0.231016417068077
40
0.254118058774885
40
0.254118058774885
40
0.277219700481693
40
0.277219700481693
40
0.300321342188501
40
0.300321342188501
40
0.323422983895309
40
0.323422983895309
40
0.346524625602117
40
0.346524625602117
40
0.369626267308924
40
0.369626267308924
40
0.415829550722541
40
0.415829550722541
40
0.438931192429349
40
0.438931192429349
40
0.462032834136157
40
0.462032834136157
40
0.508236117549773
40
0.508236117549773
40
0.554439400963389
40
0.554439400963389
40
0.577541042670197
40
0.577541042670197
40
0.600642684377005
40
0.600642684377005
40
0.646845967790621
40
0.646845967790621
40
0.669947609497429
40
0.669947609497429
40
0.693049251204237
40
0.693049251204237
40
0.739252534617853
40
0.739252534617853
40
0.762354176324662
40
0.762354176324662
40
0.78545581803147
40
0.78545581803147
40
0.831659101445085
40
0.831659101445085
40
0.854760743151892
40
0.854760743151892
40
0.877862384858699
40
0.877862384858699
40
0.924065668272314
40
0.924065668272314
40
0.947167309979121
40
0.947167309979121
40
0.970268951685928
40
0.970268951685928
40
0.993370593392735
40
0.993370593392735
40
1
40
1
40
1
40
1
41
1
10
3.64676680825414
20
5.14990769141332
30
0
41
1
10
4.17598872910028
20
5.19327450899635
30
0
41
1
10
4.70522616310114
20
5.21606899313443
30
0
41
1
10
5.50000309064782
20
5.21994417348964
30
0
41
1
10
5.76527220890995
20
5.2161670840751
30
0
41
1
10
6.29491150640234
20
5.19844991524474
30
0
41
1
10
6.55930238801568
20
5.18450690986859
30
0
41
1
10
7.35218372290461
20
5.12770251317866
30
-1E-16
41
1
10
7.88025171032763
20
5.06987568173616
30
-1E-16
41
1
10
8.67315025075877
20
4.95401139759548
30
-1E-16
41
1
10
8.93760071819577
20
4.91055139909977
30
-1E-16
41
1
10
9.46680448593514
20
4.81384947494405
30
1E-16
41
1
10
9.73177247089086
20
4.76052926900365
30
2E-16
41
1
10
10.5256922891421
20
4.5873557969189
30
2E-16
41
1
10
11.0542691354241
20
4.45432836389179
30
2E-16
41
1
10
11.8469068080204
20
4.22962590034254
30
2E-16
41
1
10
12.1110940541504
20
4.15053850907407
30
2E-16
41
1
10
12.6394470476138
20
3.98393600744717
30
2E-16
41
1
10
12.903584456284
20
3.89636388831357
30
2E-16
41
1
10
13.4328156601458
20
3.71398990434318
30
2E-16
41
1
10
13.698041347408
20
3.61920797533759
30
-2E-16
41
1
10
14.2275409295846
20
3.42333043868447
30
-2E-16
41
1
10
14.4920480503906
20
3.32214676859076
30
-2E-16
41
1
10
15.0206509962174
20
3.11342108439564
30
-2E-16
41
1
10
15.2847515835177
20
3.00588639458795
30
-2E-16
41
1
10
15.8126375501087
20
2.78455538143231
30
-2E-16
41
1
10
16.0763775263569
20
2.67066764854374
30
-2E-16
41
1
10
16.8687613794004
20
2.32234161481426
30
-1E-16
41
1
10
17.3997006063098
20
2.08113083310408
30
-1E-16
41
1
10
18.1937468216614
20
1.70853845412108
30
-1E-16
41
1
10
18.458117432336
20
1.58259645419758
30
-1E-16
41
1
10
18.9861890859612
20
1.32711546680974
30
-1E-16
41
1
10
19.2498508635184
20
1.19749290459021
30
-1E-16
41
1
10
20.041730511363
20
0.806894020771097
30
0
41
1
10
20.5701942842757
20
0.542948411272107
30
0
41
1
10
21.6298791827321
20
0.0112757633246758
30
0
41
1
10
22.15904799599
20
-0.254980689351299
30
0
41
1
10
22.9512672414893
20
-0.651753169795541
30
0
41
1
10
23.2152714572558
20
-0.783432788713583
30
0
41
1
10
23.7431420650081
20
-1.04562929449688
30
1E-16
41
1
10
24.0069048977958
20
-1.17634487396646
30
1E-16
41
1
10
24.7998501829282
20
-1.56308777523984
30
1E-16
41
1
10
25.330752930975
20
-1.81541262101356
30
1E-16
41
1
10
26.1240889425424
20
-2.1818945422107
30
1E-16
41
1
10
26.3882208032382
20
-2.30214190609325
30
1E-16
41
1
10
26.915927949897
20
-2.53863047525982
30
2E-16
41
1
10
27.1795712216012
20
-2.65473830346289
30
2E-16
41
1
10
27.9715238043913
20
-2.99381747623798
30
2E-16
41
1
10
28.5009995146023
20
-3.20817011074962
30
2E-16
41
1
10
29.2956938400104
20
-3.51151205625055
30
2E-16
41
1
10
29.5601226429299
20
-3.60936323112478
30
2E-16
41
1
10
30.0881516827897
20
-3.79830954363706
30
-2E-16
41
1
10
30.3518596211705
20
-3.88923308711685
30
-2E-16
41
1
10
31.1436772339165
20
-4.14928738331662
30
-2E-16
41
1
10
31.6721085376735
20
-4.30632480639926
30
-2E-16
41
1
10
32.4658222178483
20
-4.51719399651066
30
-2E-16
41
1
10
32.7307360699173
20
-4.58348519423262
30
-2E-16
41
1
10
33.2599398345671
20
-4.70701355168359
30
-2E-16
41
1
10
33.5242069972321
20
-4.76417122392292
30
-2E-16
41
1
10
34.3164625720199
20
-4.92151461830545
30
1E-16
41
1
10
34.8436571388953
20
-5.0076774722466
30
1E-16
41
1
10
35.6361176363886
20
-5.10706092385834
30
1E-16
41
1
10
35.9004994897012
20
-5.1352635587522
30
1E-16
41
1
10
36.4298175157476
20
-5.18177141936886
30
0
41
1
10
36.6949796934862
20
-5.20008775808003
30
0
41
1
10
37.2242197330357
20
-5.22659216483538
30
0
41
1
10
37.4884178122666
20
-5.23479752564134
30
0
41
1
10
37.8279154870569
20
-5.23878962786588
30
0
41
1
10
37.9036014331918
20
-5.23925672221853
30
0
41
1
10
37.979284329949
20
-5.23930299582511
30
0
0
SPLINE
5
E5
100
AcDbEntity
8
1
62
256
6
ByLayer
370
18
48
1
60
0
100
AcDbSpline
70
4
71
3
72
20
73
16
40
0
40
0
40
0
40
0
40
0.124999999999995
40
0.124999999999995
40
0.249999999999991
40
0.249999999999991
40
0.374999999999986
40
0.374999999999986
40
0.437499999999986
40
0.437499999999986
40
0.499999999999986
40
0.499999999999986
40
0.749999999999993
40
0.749999999999993
40
1
40
1
40
1
40
1
41
1
10
56.5393758735202
20
1.61897129985314
30
0
41
1
10
56.4671688015453
20
1.73591443772798
30
0
41
1
10
56.3969293730814
20
1.85966086363581
30
0
41
1
10
56.2611950994281
20
2.1196994311104
30
0
41
1
10
56.1965061197689
20
2.25439471699426
30
0
41
1
10
56.0723520455644
20
2.53295672681153
30
0
41
1
10
56.0131725800962
20
2.67623131072503
30
0
41
1
10
55.9285190311864
20
2.89414324920017
30
0
41
1
10
55.9008979827062
20
2.96750583335876
30
0
41
1
10
55.8468871577776
20
3.11482452364996
30
0
41
1
10
55.8206350954979
20
3.18880077296907
30
0
41
1
10
55.6900727314296
20
3.55893381661286
30
0
41
1
10
55.5869348706344
20
3.8554448625199
30
0
41
1
10
55.381592514349
20
4.44622705550998
30
0
41
1
10
55.2793514928564
20
4.74058650038816
30
0
41
1
10
55.1758024075681
20
5.03311830411999
30
0
0
SPLINE
5
E6
100
AcDbEntity
8
1
62
256
6
ByLayer
370
18
48
1
60
0
100
AcDbSpline
70
4
71
3
72
20
73
16
40
0
40
0
40
0
40
0
40
0.124999999999999
40
0.124999999999999
40
0.249999999999997
40
0.249999999999997
40
0.374999999999995
40
0.374999999999995
40
0.437499999999997
40
0.437499999999997
40
0.499999999999998
40
0.499999999999998
40
0.749999999999999
40
0.749999999999999
40
1
40
1
40
1
40
1
41
1
10
56.5393758735202
20
-1.61897129985314
30
0
41
1
10
56.4671688015453
20
-1.73591443772798
30
0
41
1
10
56.3969293730813
20
-1.85966086363578
30
0
41
1
10
56.261195099428
20
-2.1196994311104
30
0
41
1
10
56.1965061197689
20
-2.25439471699426
30
0
41
1
10
56.0723520455644
20
-2.53295672681153
30
0
41
1
10
56.0131725800962
20
-2.676231310725
30
0
41
1
10
55.9285190311864
20
-2.89414324920017
30
0
41
1
10
55.9008979827063
20
-2.96750583335873
30
0
41
1
10
55.8468871577777
20
-3.11482452364993
30
0
41
1
10
55.820635095498
20
-3.18880077296907
30
0
41
1
10
55.6900727314296
20
-3.55893381661289
30
0
41
1
10
55.5869348706344
20
-3.85544486251993
30
0
41
1
10
55.381592514349
20
-4.44622705551001
30
0
41
1
10
55.2793514928564
20
-4.74058650038819
30
0
41
1
10
55.1758024075681
20
-5.03311830412005
30
0
0
SPLINE
5
E7
100
AcDbEntity
8
1
62
256
6
ByLayer
370
18
48
1
60
0
100
AcDbSpline
70
4
71
3
72
16
73
12
40
0
40
0
40
0
40
0
40
0.227850840400065
40
0.227850840400065
40
0.458083154037516
40
0.458083154037516
40
0.65551778165983
40
0.65551778165983
40
0.82876976734145
40
0.82876976734145
40
1
40
1
40
1
40
1
41
1
10
55.1286725102562
20
-4.94199757136471
30
0
41
1
10
55.1287529471287
20
-4.9421644548645
30
0
41
1
10
55.1287770841772
20
-4.94251149225235
30
0
41
1
10
55.128686551893
20
-4.94357970314871
30
0
41
1
10
55.1285676942802
20
-4.94432567691976
30
0
41
1
10
55.1282115715954
20
-4.94600698170856
30
0
41
1
10
55.1279874558965
20
-4.9469270558578
30
0
41
1
10
55.1274937299037
20
-4.94875305233396
30
0
41
1
10
55.127226686609
20
-4.94967062337065
30
0
41
1
10
55.1266706780803
20
-4.95146784057181
30
0
41
1
10
55.1263755399971
20
-4.95236920627855
30
0
41
1
10
55.1260825851339
20
-4.95322069627321
30
0
0
SPLINE
5
E8
100
AcDbEntity
8
1
62
256
6
ByLayer
370
18
48
1
60
0
100
AcDbSpline
70
4
71
3
72
10
73
6
40
0
40
0
40
0
40
0
40
0.945183403500712
40
0.945183403500712
40
1
40
1
40
1
40
1
41
1
10
3.6467668082542
20
-5.14990769141332
30
0
41
1
10
4.17598872910031
20
-5.19327450899635
30
0
41
1
10
4.70522616310114
20
-5.21606899313443
30
0
41
1
10
5.26580655741265
20
-5.21880227596671
30
0
41
1
10
5.29654028782133
20
-5.2188839092928
30
0
41
1
10
5.32727740192692
20
-5.21889732689695
30
0
0
SPLINE
5
E9
100
AcDbEntity
8
1
62
256
6
ByLayer
370
18
48
1
60
0
100
AcDbSpline
70
4
71
3
72
42
73
38
40
0
40
0
40
0
40
0
40
0.0354870547755254
40
0.0354870547755254
40
0.0756750941598789
40
0.0756750941598789
40
0.115863133544232
40
0.115863133544232
40
0.156051172928586
40
0.156051172928586
40
0.196239212312939
40
0.196239212312939
40
0.276615291081646
40
0.276615291081646
40
0.316803330466
40
0.316803330466
40
0.356991369850353
40
0.356991369850353
40
0.437367448619061
40
0.437367448619061
40
0.477555488003413
40
0.477555488003413
40
0.517743527387766
40
0.517743527387766
40
0.598119606156472
40
0.598119606156472
40
0.678495684925177
40
0.678495684925177
40
0.758871763693883
40
0.758871763693883
40
0.839247842462588
40
0.839247842462588
40
0.879435881846941
40
0.879435881846941
40
0.919623921231295
40
0.919623921231295
40
1
40
1
40
1
40
1
41
1
10
34.6726723075898
20
4.97463434173298
30
-1E-16
41
1
10
34.9056725515593
20
5.01154712423224
30
-1E-16
41
1
10
35.1387099193625
20
5.04468040655465
30
-1E-16
41
1
10
35.6361176363886
20
5.10706092385834
30
-1E-16
41
1
10
35.9004994897012
20
5.1352635587522
30
-1E-16
41
1
10
36.4298175157476
20
5.18177141936886
30
0
41
1
10
36.6949796934862
20
5.20008775808003
30
0
41
1
10
37.2242197330357
20
5.22659216483538
30
0
41
1
10
37.4884178122666
20
5.23479752564134
30
0
41
1
10
38.0160112936971
20
5.24100141823698
30
0
41
1
10
38.2796260315053
20
5.23896600506424
30
0
41
1
10
39.07143981267
20
5.2177321557451
30
0
41
1
10
39.5999580235838
20
5.18351638707318
30
0
41
1
10
40.3938220607272
20
5.10202877490661
30
-1E-16
41
1
10
40.6587064089435
20
5.06975264719981
30
-1E-16
41
1
10
41.1872205971358
20
4.9953422972265
30
-1E-16
41
1
10
41.4512134861006
20
4.9532666154974
30
-1E-16
41
1
10
42.2433569280404
20
4.81323885786426
30
1E-16
41
1
10
42.7711863089018
20
4.70121100542298
30
2E-16
41
1
10
43.5637009343529
20
4.50616914391509
30
2E-16
41
1
10
43.8278993869064
20
4.43654376405027
30
2E-16
41
1
10
44.3567856804152
20
4.28837487882905
30
2E-16
41
1
10
44.621535423739
20
4.20997444977166
30
2E-16
41
1
10
45.4147008272939
20
3.96376989447867
30
2E-16
41
1
10
45.9427629333765
20
3.78442872809779
30
2E-16
41
1
10
46.9984017862865
20
3.3967107141527
30
-2E-16
41
1
10
47.5257070609689
20
3.18778055876734
30
-2E-16
41
1
10
48.5847053702345
20
2.74803203282761
30
-2E-16
41
1
10
49.1139633218376
20
2.51762748101828
30
-2E-16
41
1
10
50.1701049640148
20
2.03749424844932
30
-1E-16
41
1
10
50.6971173187522
20
1.78706442387485
30
-1E-16
41
1
10
51.4906558282339
20
1.40440227879518
30
-1E-16
41
1
10
51.755707885675
20
1.2753376166705
30
-1E-16
41
1
10
52.2849693125439
20
1.01546213431493
30
-1E-16
41
1
10
52.5493398763912
20
0.884566273724261
30
-1E-16
41
1
10
53.3418946209259
20
0.489445372420533
30
0
41
1
10
53.8694805595788
20
0.22270596077152
30
0
41
1
10
54.3972835750236
20
-0.0454125787725843
30
0
0
SPLINE
5
EA
100
AcDbEntity
8
1
62
256
6
ByLayer
370
18
48
1
60
0
100
AcDbSpline
70
4
71
3
72
10
73
6
40
0
40
0
40
0
40
0
40
0.5
40
0.5
40
1
40
1
40
1
40
1
41
1
10
54.8315538984313
20
-5.18139910908101
30
0
41
1
10
54.8348593300811
20
-5.20131376707781
30
0
41
1
10
54.8380198388263
20
-5.21695029656524
30
0
41
1
10
54.8442760455883
20
-5.23951510679643
30
0
41
1
10
54.8473842824667
20
-5.24644518122889
30
0
41
1
10
54.8505065022412
20
-5.24886625917
30
0
0
SPLINE
5
EB
100
AcDbEntity
8
1
62
256
6
ByLayer
370
18
48
1
60
0
100
AcDbSpline
70
4
71
3
72
8
73
4
40
0
40
0
40
0
40
0
40
1
40
1
40
1
40
1
41
1
10
55.1758024075681
20
-5.03311830412005
30
0
41
1
10
55.1730905358446
20
-5.03494360236883
30
0
41
1
10
55.1703787016474
20
-5.03676872853583
30
0
41
1
10
55.1676669049827
20
-5.03859368236814
30
0
0
SPLINE
5
EC
100
AcDbEntity
8
1
62
256
6
ByLayer
370
18
48
1
60
0
100
AcDbSpline
70
4
71
2
72
6
73
3
40
0
40
0
40
0
40
1
40
1
40
1
41
1
10
5.32045493348022
20
4.95806975633241
30
0
41
1
10
4.46129400580961
20
4.95873172992086
30
0
41
1
10
3.60199488901111
20
4.95548268625245
30
0
0
SPLINE
5
ED
100
AcDbEntity
8
1
62
256
6
ByLayer
370
18
48
1
60
0
100
AcDbSpline
70
4
71
1
72
4
73
2
40
0
40
0
40
1
40
1
41
1
10
7.53224023094836
20
0.0019513539971854
30
0
41
1
10
7.53222647664387
20
0.0019585981387706
30
0
0
SPLINE
5
EE
100
AcDbEntity
8
1
62
256
6
ByLayer
370
18
48
1
60
0
100
AcDbSpline
70
4
71
2
72
6
73
3
40
0
40
0
40
0
40
1
40
1
40
1
41
1
10
40.1926718558481
20
-0.00309244476
30
0
41
1
10
40.1926651580351
20
-0.0030846970734046
30
0
41
1
10
40.1926584602205
20
-0.0030769223237144
30
0
0
SPLINE
5
EF
100
AcDbEntity
8
1
62
256
6
ByLayer
370
18
48
1
60
0
100
AcDbSpline
70
4
71
3
72
17
73
13
40
0
40
0
40
0
40
0
40
0.0486348329696918
40
0.192407213013396
40
0.334586202693122
40
0.415640887854268
40
0.496596056002599
40
0.576433402198275
40
0.654460739828227
40
0.740716096880535
40
0.864134328401644
40
1
40
1
40
1
40
1
41
1
10
55.4146306576857
20
0.928984756408852
30
-1E-16
41
1
10
55.3086858387809
20
0.960485992524781
30
-1E-16
41
1
10
54.8899537717946
20
1.08633753593242
30
-1E-16
41
1
10
54.1654236933553
20
1.31658405250417
30
-1E-16
41
1
10
53.3733443255437
20
1.57646780603383
30
-1E-16
41
1
10
52.7192224780097
20
1.79863051231067
30
-1E-16
41
1
10
52.2004501534847
20
1.97875137366717
30
-1E-16
41
1
10
51.6894259535309
20
2.16013890909383
30
-1E-16
41
1
10
51.168281500154
20
2.34903768024159
30
-1E-16
41
1
10
50.5556187748082
20
2.57599228491498
30
-2E-16
41
1
10
49.8220087710345
20
2.8548114350009
30
-2E-16
41
1
10
49.2741891583951
20
3.07079992160573
30
-2E-16
41
1
10
48.9878075412258
20
3.18575059633918
30
-2E-16
0
SPLINE
5
F0
100
AcDbEntity
8
1
62
256
6
ByLayer
370
18
48
1
60
0
100
AcDbSpline
70
4
71
3
72
31
73
27
40
0
40
0
40
0
40
0
40
1.03008385478E-05
40
2.16108998251E-05
40
3.13318412123E-05
40
4.03440812331E-05
40
6.44245628543E-05
40
0.0007599512399681
40
0.001315328693665
40
0.002328451613093
40
0.0042058064161616
40
0.00777591704807
40
0.0148461887709608
40
0.0296918022137483
40
0.0632939661522101
40
0.123006138491036
40
0.158735257003576
40
0.191836557125655
40
0.32385422868318
40
0.487975761436563
40
0.643119261993619
40
0.68683172637817
40
0.738125075156369
40
0.810948705458186
40
0.905377195763961
40
1
40
1
40
1
40
1
41
1
10
25.2611123805887
20
0.211451769497529
30
0
41
1
10
25.2611240764646
20
0.211450022266291
30
0
41
1
10
25.2611450244542
20
0.211447350443052
30
0
41
1
10
25.2611607925133
20
0.211447484023438
30
0
41
1
10
25.2611495036084
20
0.211454633194364
30
0
41
1
10
25.2610765946944
20
0.211478723175446
30
0
41
1
10
25.2592708649514
20
0.212011891943035
30
0
41
1
10
25.2550979293309
20
0.213113318539939
30
0
41
1
10
25.2485814753863
20
0.214919855535442
30
0
41
1
10
25.2383322985911
20
0.217724309138873
30
0
41
1
10
25.21929837534
20
0.222951126673536
30
0
41
1
10
25.1822016218291
20
0.233113694572381
30
0
41
1
10
25.1065394878465
20
0.253835000508758
30
0
41
1
10
24.9410350245957
20
0.299186728628001
30
0
41
1
10
24.6173720253073
20
0.388460461163277
30
0
41
1
10
24.2315456024158
20
0.496785523905345
30
0
41
1
10
23.8447378071141
20
0.607425714082979
30
0
41
1
10
23.239774275864
20
0.783152792537294
30
0
41
1
10
22.2515485252089
20
1.08090759441879
30
-1E-16
41
1
10
20.9041857317488
20
1.51298502789666
30
-1E-16
41
1
10
19.8274999740759
20
1.88085311157013
30
-1E-16
41
1
10
19.0886322577176
20
2.14295084255664
30
-1E-16
41
1
10
18.5939507373046
20
2.32151216243869
30
-1E-16
41
1
10
17.9515650460282
20
2.55872339073821
30
-2E-16
41
1
10
17.1845248990963
20
2.85003709232703
30
-2E-16
41
1
10
16.6335696031462
20
3.0672592747357
30
-2E-16
41
1
10
16.3584579163939
20
3.17761944817536
30
-2E-16
0
SPLINE
5
F1
100
AcDbEntity
8
1
62
256
6
ByLayer
370
18
48
1
60
0
100
AcDbSpline
70
4
71
3
72
8
73
4
40
0
40
0
40
0
40
0
40
1
40
1
40
1
40
1
41
1
10
35.3850301878419
20
1.57303328432394
30
-1E-16
41
1
10
35.3580083020492
20
1.58610341512735
30
-1E-16
41
1
10
35.33155758953
20
1.59899917377669
30
-1E-16
41
1
10
35.3056514117797
20
1.61175310073861
30
-1E-16
0
SPLINE
5
F2
100
AcDbEntity
8
1
62
256
6
ByLayer
370
18
48
1
60
0
100
AcDbSpline
70
4
71
3
72
21
73
17
40
0
40
0
40
0
40
0
40
0.104021295219174
40
0.1822991549354
40
0.246588723060982
40
0.303542618304594
40
0.351775498935235
40
0.396121529841264
40
0.466568882974582
40
0.544364775737896
40
0.601319670859457
40
0.657073237101768
40
0.749960415407591
40
0.858620625811926
40
0.953277742561679
40
1
40
1
40
1
40
1
41
1
10
23.8618870832297
20
-4.96793288519325
30
0
41
1
10
24.2361813954067
20
-4.96807149290387
30
0
41
1
10
24.8923014019095
20
-4.96831163046633
30
0
41
1
10
25.7815278092368
20
-4.96870825510345
30
0
41
1
10
26.4993022953735
20
-4.96890950892367
30
0
41
1
10
27.1104874570023
20
-4.96976273886355
30
0
41
1
10
27.6494359531512
20
-4.97039383631534
30
0
41
1
10
28.2371058367726
20
-4.97041186421586
30
0
41
1
10
28.9312137913589
20
-4.97004630594864
30
0
41
1
10
29.670884200002
20
-4.9698186420521
30
0
41
1
10
30.3575057064946
20
-4.97199020992232
30
0
41
1
10
31.0983054206727
20
-4.97248213445914
30
0
41
1
10
32.025900493725
20
-4.97106465398525
30
0
41
1
10
33.0933746641699
20
-4.97153871137965
30
0
41
1
10
33.9952627730054
20
-4.9725168854352
30
0
41
1
10
34.5040181784581
20
-4.97345157940592
30
0
41
1
10
34.6722661564877
20
-4.97368994106171
30
0
0
SPLINE
5
F3
100
AcDbEntity
8
1
62
256
6
ByLayer
370
18
48
1
60
0
100
AcDbSpline
70
4
71
3
72
20
73
16
40
0
40
0
40
0
40
0
40
0.104394718524159
40
0.206072423820528
40
0.279490951443101
40
0.352872169606061
40
0.44732246757562
40
0.555745263478623
40
0.648429490188492
40
0.704932262004434
40
0.763363227294355
40
0.842904914195207
40
0.913085801275278
40
0.965869905904964
40
1
40
1
40
1
40
1
41
1
10
37.9794557771308
20
4.97475761770019
30
0
41
1
10
37.6023959340769
20
4.97307362940904
30
0
41
1
10
36.8587481604475
20
4.97088387905364
30
0
41
1
10
35.8617216149395
20
4.97385322323959
30
0
41
1
10
34.9616544882344
20
4.97434408827436
30
0
41
1
10
34.0920007750989
20
4.97262168799355
30
0
41
1
10
33.0933744208552
20
4.97153933229387
30
0
41
1
10
32.0259014776294
20
4.97106214316241
30
0
41
1
10
31.0951558512302
20
4.97249350327945
30
0
41
1
10
30.3454417681564
20
4.97196506106056
30
0
41
1
10
29.6429511204663
20
4.96975526767167
30
0
41
1
10
28.8910012155715
20
4.97008161192281
30
0
41
1
10
28.1595442991308
20
4.97044128331575
30
0
41
1
10
27.5920026685155
20
4.97036402254977
30
0
41
1
10
27.2780550014783
20
4.96995043265338
30
0
41
1
10
27.1547562848078
20
4.9697852576183
30
0
0
LINE
5
84
100
AcDbEntity
8
SK1
62
256
6
ByLayer
370
18
48
1
60
0
100
AcDbLine
10
0
20
6
30
0
11
0
21
-6
31
0
39
0
210
0
220
0
230
1
0
LINE
5
86
100
AcDbEntity
8
SK1
62
256
6
ByLayer
370
18
48
1
60
0
100
AcDbLine
10
-45
20
-4.255
30
0
11
-45
21
4.255
31
0
39
0
210
0
220
0
230
1
0
LINE
5
87
100
AcDbEntity
8
SK1
62
256
6
ByLayer
370
18
48
1
60
0
100
AcDbLine
10
-43.255
20
-6
30
0
11
-43.255
21
6
31
0
39
0
210
0
220
0
230
1
0
LINE
5
88
100
AcDbEntity
8
1
62
256
6
ByLayer
370
18
48
1
60
0
100
AcDbLine
10
1.376525
20
5.216429
30
0
11
1.376525
21
0
31
0
39
0
210
0
220
0
230
1
0
LINE
5
89
100
AcDbEntity
8
1
62
256
6
ByLayer
370
18
48
1
60
0
100
AcDbLine
10
1.376525
20
0
30
0
11
1.376525
21
-5.216429
31
0
39
0
210
0
220
0
230
1
0
LINE
5
8A
100
AcDbEntity
8
1
62
256
6
ByLayer
370
18
48
1
60
0
100
AcDbLine
10
0.688012
20
5.608214
30
0
11
0.688012
21
0
31
0
39
0
210
0
220
0
230
1
0
LINE
5
8B
100
AcDbEntity
8
1
62
256
6
ByLayer
370
18
48
1
60
0
100
AcDbLine
10
0.688012
20
0
30
0
11
0.688012
21
-5.608214
31
0
39
0
210
0
220
0
230
1
0
LINE
5
8C
100
AcDbEntity
8
1
62
256
6
ByLayer
370
18
48
1
60
0
100
AcDbLine
10
23
20
5.221182
30
0
11
23
21
5.215926
31
0
39
0
210
0
220
0
230
1
0
LINE
5
8D
100
AcDbEntity
8
1
62
256
6
ByLayer
370
18
48
1
60
0
100
AcDbLine
10
56.926788
20
0.063201
30
0
11
55.667258
21
1.453504
31
0
39
0
210
0
220
0
230
1
0
LINE
5
8E
100
AcDbEntity
8
1
62
256
6
ByLayer
370
18
48
1
60
0
100
AcDbLine
10
3.501645
20
-5.163419
30
0
11
3.501645
21
-5.217757
31
0
39
0
210
0
220
0
230
1
0
LINE
5
8F
100
AcDbEntity
8
1
62
256
6
ByLayer
370
18
48
1
60
0
100
AcDbLine
10
0
20
6
30
0
11
0
21
0
31
0
39
0
210
0
220
0
230
1
0
LINE
5
90
100
AcDbEntity
8
1
62
256
6
ByLayer
370
18
48
1
60
0
100
AcDbLine
10
0
20
0
30
0
11
0
21
-6
31
0
39
0
210
0
220
0
230
1
0
LINE
5
91
100
AcDbEntity
8
1
62
256
6
ByLayer
370
18
48
1
60
0
100
AcDbLine
10
3.501645
20
5.217757
30
0
11
3.501645
21
2.031959
31
0
39
0
210
0
220
0
230
1
0
LINE
5
92
100
AcDbEntity
8
SK1
62
256
6
ByLayer
370
18
48
1
60
0
100
AcDbLine
10
-45
20
-4.255
30
0
11
-43.255
21
-6
31
0
39
0
210
0
220
0
230
1
0
LINE
5
93
100
AcDbEntity
8
SK1
62
256
6
ByLayer
370
18
48
1
60
0
100
AcDbLine
10
-43.255
20
6
30
0
11
-45
21
4.255
31
0
39
0
210
0
220
0
230
1
0
LINE
5
94
100
AcDbEntity
8
SK1
62
256
6
ByLayer
370
18
48
1
60
0
100
AcDbLine
10
-43.255
20
-6
30
0
11
0
21
-6
31
0
39
0
210
0
220
0
230
1
0
LINE
5
95
100
AcDbEntity
8
SK1
62
256
6
ByLayer
370
18
48
1
60
0
100
AcDbLine
10
0
20
6
30
0
11
-43.255
21
6
31
0
39
0
210
0
220
0
230
1
0
LINE
5
96
100
AcDbEntity
8
1
62
256
6
ByLayer
370
18
48
1
60
0
100
AcDbLine
10
1.376525
20
-5.216429
30
0
11
3.501645
21
-5.217757
31
0
39
0
210
0
220
0
230
1
0
LINE
5
97
100
AcDbEntity
8
1
62
256
6
ByLayer
370
18
48
1
60
0
100
AcDbLine
10
5.325125
20
-5.218896
30
0
11
6.831384
21
-5.219838
31
0
39
0
210
0
220
0
230
1
0
LINE
5
98
100
AcDbEntity
8
1
62
256
6
ByLayer
370
18
48
1
60
0
100
AcDbLine
10
22.240705
20
-5.229469
30
0
11
23.860652
21
-5.230481
31
0
39
0
210
0
220
0
230
1
0
LINE
5
99
100
AcDbEntity
8
1
62
256
6
ByLayer
370
18
48
1
60
0
100
AcDbLine
10
37.979025
20
-5.239305
30
0
11
39.45188
21
-5.240226
31
0
39
0
210
0
220
0
230
1
0
LINE
5
9A
100
AcDbEntity
8
1
62
256
6
ByLayer
370
18
48
1
60
0
100
AcDbLine
10
39.45188
20
5.240226
30
0
11
37.979025
21
5.239305
31
0
39
0
210
0
220
0
230
1
0
LINE
5
9B
100
AcDbEntity
8
1
62
256
6
ByLayer
370
18
48
1
60
0
100
AcDbLine
10
23.860652
20
5.230481
30
0
11
22.240705
21
5.229469
31
0
39
0
210
0
220
0
230
1
0
LINE
5
9C
100
AcDbEntity
8
1
62
256
6
ByLayer
370
18
48
1
60
0
100
AcDbLine
10
6.831384
20
5.219838
30
0
11
5.325125
21
5.218896
31
0
39
0
210
0
220
0
230
1
0
LINE
5
9D
100
AcDbEntity
8
1
62
256
6
ByLayer
370
18
48
1
60
0
100
AcDbLine
10
3.501645
20
5.217757
30
0
11
1.376525
21
5.216429
31
0
39
0
210
0
220
0
230
1
0
LINE
5
9E
100
AcDbEntity
8
SK4
62
256
6
ByLayer
370
18
48
0.05
60
0
100
AcDbLine
10
62
20
0
30
0
11
-50
21
0
31
0
39
0
210
0
220
0
230
1
0
LINE
5
A0
100
AcDbEntity
8
4
62
256
6
ByLayer
370
18
48
0.05
60
0
100
AcDbLine
10
-45
20
0
30
0
11
62
21
0
31
0
39
0
210
0
220
0
230
1
0
LINE
5
A2
100
AcDbEntity
8
80
62
256
6
ByLayer
370
18
48
1
60
0
100
AcDbLine
10
0
20
0
30
0
11
-6
21
0
31
0
39
0
210
0
220
0
230
1
0
LINE
5
A3
100
AcDbEntity
8
81
62
256
6
ByLayer
370
18
48
1
60
0
100
AcDbLine
10
57
20
0
30
0
11
63
21
0
31
0
39
0
210
0
220
0
230
1
0
LINE
5
A4
100
AcDbEntity
8
SK2
62
256
6
ByLayer
370
13
48
1
60
0
100
AcDbLine
10
57.542946
20
1.491766
30
0
11
64.926157
21
21.777435
31
0
39
0
210
0
220
0
230
1
0
LINE
5
A6
100
AcDbEntity
8
SK2
62
256
6
ByLayer
370
13
48
1
60
0
100
AcDbLine
10
57.542946
20
-1.491766
30
0
11
64.926157
21
-21.777435
31
0
39
0
210
0
220
0
230
1
0
LINE
5
A7
100
AcDbEntity
8
1
62
256
6
ByLayer
370
13
48
1
60
0
100
AcDbLine
10
63.840265
20
18.793903
30
0
11
66.936861
21
17.977554
31
0
39
0
210
0
220
0
230
1
0
LINE
5
A8
100
AcDbEntity
8
1
62
256
6
ByLayer
370
13
48
1
60
0
100
AcDbLine
10
63.840265
20
18.793903
30
0
11
66.620063
21
17.20391
31
0
39
0
210
0
220
0
230
1
0
LINE
5
A9
100
AcDbEntity
8
1
62
256
6
ByLayer
370
13
48
1
60
0
100
AcDbLine
10
66.936861
20
17.977554
30
0
11
66.620063
21
17.20391
31
0
39
0
210
0
220
0
230
1
0
LINE
5
AA
100
AcDbEntity
8
1
62
256
6
ByLayer
370
13
48
1
60
0
100
AcDbLine
10
63.840265
20
-18.793903
30
0
11
66.62006
21
-17.203911
31
0
39
0
210
0
220
0
230
1
0
LINE
5
AB
100
AcDbEntity
8
1
62
256
6
ByLayer
370
13
48
1
60
0
100
AcDbLine
10
63.840265
20
-18.793903
30
0
11
66.936864
21
-17.977552
31
0
39
0
210
0
220
0
230
1
0
LINE
5
AC
100
AcDbEntity
8
1
62
256
6
ByLayer
370
13
48
1
60
0
100
AcDbLine
10
66.62006
20
-17.203911
30
0
11
66.936864
21
-17.977552
31
0
39
0
210
0
220
0
230
1
0
MTEXT
5
F4
100
AcDbEntity
8
SK2
62
256
6
ByLayer
370
18
48
1
60
0
100
AcDbMText
10
70.717388
20
-2.467451
30
0
210
0
220
0
230
1
1
\W0.7237;140.00
40
3.50012
41
0
44
1.084337
50
0
71
7
72
5
7
iso_b_vert
0
MTEXT
5
F7
100
AcDbEntity
8
SK6
62
256
6
ByLayer
370
18
48
1
60
0
100
AcDbMText
10
-32.525833
20
-52.891719
30
0
210
0
220
0
230
1
1
\W0.7454;860.1-1050-033A0-GM X1BM
40
3.175
41
0
44
1.084337
50
0
71
7
72
5
7
iso_b_vert
0
DIMENSION
5
FA
100
AcDbEntity
8
SK2
62
256
6
ByLayer
370
18
48
1
60
0
100
AcDbDimension
2
_U0
10
57
20
-29.50012
30
0
11
28.5
21
-29.50012
31
0
70
32
71
2
72
1
41
1
210
0
220
0
230
1
3
Standard
100
AcDbAlignedDimension
13
0
23
-6
33
0
14
57
24
0
34
0
50
0
100
AcDbRotatedDimension
1001
ACAD
1000
DSTYLE
1002
{
1070
   371
1070
    13
1070
   372
1070
    13
1070
     3
1000

1070
   170
1070
     0
1070
   144
1040
1.0
1070
   277
1070
     2
1070
   284
1070
     8
1070
   278
1070
    46
1070
   146
1040
0.999966
1070
   345
1005
16
1070
   347
1005
16
1070
   346
1005
16
1070
   344
1005
FB
1070
   343
1005
FB
1070
   172
1070
     1
1070
    76
1070
     0
1070
    75
1070
     0
1070
   282
1070
     0
1070
   281
1070
     0
1070
    71
1070
     0
1070
    74
1070
     0
1070
   279
1070
     0
1070
   173
1070
     1
1070
   340
1005
F5
1070
   271
1070
     1
1070
   272
1070
     2
1070
    77
1070
     1
1070
    73
1070
     1
1070
   171
1070
     3
1070
   274
1070
     4
1070
   177
1070
   150
1070
   176
1070
     9
1070
   178
1070
    43
1070
    78
1070
     8
1070
    48
1040
-0.1
1070
    41
1040
3.175
1070
   147
1040
1.75006
1070
    42
1040
1.5875
1070
    44
1040
3.175
1070
   140
1040
3.50012
1002
}
1001
ACAD_DSTYLE_DIM_LINETYPE
1070
   380
1005
16
1001
ACAD_DSTYLE_DIM_EXT1_LINETYPE
1070
   381
1005
16
1001
ACAD_DSTYLE_DIM_EXT2_LINETYPE
1070
   382
1005
16
0
DIMENSION
5
120
100
AcDbEntity
8
2
62
256
6
ByLayer
370
18
48
1
60
0
100
AcDbDimension
2
_U1
10
63.75006
20
5.25
30
0
11
63.75006
21
22.239948
31
0
70
32
71
1
72
1
41
1
210
0
220
0
230
1
3
Standard
100
AcDbAlignedDimension
13
55.0892
23
-5.25
33
0
14
55.0892
24
5.25
34
0
50
90
100
AcDbRotatedDimension
1001
ACAD
1000
DSTYLE
1002
{
1070
   371
1070
    13
1070
   372
1070
    13
1070
     3
1000

1070
   170
1070
     0
1070
   144
1040
1.0
1070
   277
1070
     2
1070
   284
1070
     8
1070
   278
1070
    46
1070
   146
1040
0.999966
1070
   345
1005
16
1070
   347
1005
16
1070
   346
1005
16
1070
   344
1005
FB
1070
   343
1005
FB
1070
   172
1070
     1
1070
    76
1070
     0
1070
    75
1070
     0
1070
   282
1070
     0
1070
   281
1070
     0
1070
    71
1070
     0
1070
    74
1070
     0
1070
   279
1070
     0
1070
   173
1070
     1
1070
   340
1005
F5
1070
   271
1070
     1
1070
   272
1070
     2
1070
    77
1070
     1
1070
    73
1070
     0
1070
   171
1070
     3
1070
   274
1070
     4
1070
   177
1070
   150
1070
   176
1070
     9
1070
   178
1070
    43
1070
    78
1070
     8
1070
    48
1040
-0.1
1070
    41
1040
3.175
1070
   147
1040
1.75006
1070
    42
1040
1.5875
1070
    44
1040
3.175
1070
   140
1040
3.50012
1002
}
1001
ACAD_DSTYLE_DIM_LINETYPE
1070
   380
1005
16
1001
ACAD_DSTYLE_DIM_EXT1_LINETYPE
1070
   381
1005
16
1001
ACAD_DSTYLE_DIM_EXT2_LINETYPE
1070
   382
1005
16
0
DIMENSION
5
13F
100
AcDbEntity
8
SK2
62
256
6
ByLayer
370
18
48
1
60
0
100
AcDbDimension
2
_U2
10
-48.24994
20
-6
30
0
11
-48.24994
21
20.97767
31
0
70
32
71
1
72
1
41
1
210
0
220
0
230
1
3
Standard
100
AcDbAlignedDimension
13
-45
23
6
33
0
14
-45
24
-6
34
0
50
90
100
AcDbRotatedDimension
1001
ACAD
1000
DSTYLE
1002
{
1070
   371
1070
    13
1070
   372
1070
    13
1070
     3
1000

1070
   170
1070
     0
1070
   144
1040
1.0
1070
   277
1070
     2
1070
   284
1070
     8
1070
   278
1070
    46
1070
   146
1040
0.999966
1070
   345
1005
16
1070
   347
1005
16
1070
   346
1005
16
1070
   344
1005
FB
1070
   343
1005
FB
1070
   172
1070
     1
1070
    76
1070
     0
1070
    75
1070
     0
1070
   282
1070
     0
1070
   281
1070
     0
1070
    71
1070
     0
1070
    74
1070
     0
1070
   279
1070
     0
1070
   173
1070
     1
1070
   340
1005
F5
1070
   271
1070
     1
1070
   272
1070
     2
1070
    77
1070
     1
1070
    73
1070
     0
1070
   171
1070
     3
1070
   274
1070
     4
1070
   177
1070
   150
1070
   176
1070
     9
1070
   178
1070
    43
1070
    78
1070
     8
1070
    48
1040
-0.1
1070
    41
1040
3.175
1070
   147
1040
1.75006
1070
    42
1040
1.5875
1070
    44
1040
3.175
1070
   140
1040
3.50012
1002
}
1001
ACAD_DSTYLE_DIM_LINETYPE
1070
   380
1005
16
1001
ACAD_DSTYLE_DIM_EXT1_LINETYPE
1070
   381
1005
16
1001
ACAD_DSTYLE_DIM_EXT2_LINETYPE
1070
   382
1005
16
0
DIMENSION
5
15D
100
AcDbEntity
8
SK2
62
256
6
ByLayer
370
18
48
1
60
0
100
AcDbDimension
2
_U3
10
0
20
-29.50012
30
0
11
-22.5
21
-29.50012
31
0
70
32
71
1
72
1
41
1
210
0
220
0
230
1
3
Standard
100
AcDbAlignedDimension
13
-45
23
-6
33
0
14
0
24
-6
34
0
50
0
100
AcDbRotatedDimension
1001
ACAD
1000
DSTYLE
1002
{
1070
   371
1070
    13
1070
   372
1070
    13
1070
     3
1000

1070
   170
1070
     0
1070
   144
1040
1.0
1070
   277
1070
     2
1070
   284
1070
     8
1070
   278
1070
    46
1070
   146
1040
0.999966
1070
   345
1005
16
1070
   347
1005
16
1070
   346
1005
16
1070
   344
1005
FB
1070
   343
1005
FB
1070
   172
1070
     1
1070
    76
1070
     0
1070
    75
1070
     0
1070
   282
1070
     0
1070
   281
1070
     0
1070
    71
1070
     0
1070
    74
1070
     0
1070
   279
1070
     0
1070
   173
1070
     1
1070
   340
1005
F5
1070
   271
1070
     1
1070
   272
1070
     2
1070
    77
1070
     1
1070
    73
1070
     1
1070
   171
1070
     3
1070
   274
1070
     4
1070
   177
1070
   150
1070
   176
1070
     9
1070
   178
1070
    43
1070
    78
1070
     8
1070
    48
1040
-0.1
1070
    41
1040
3.175
1070
   147
1040
1.75006
1070
    42
1040
1.5875
1070
    44
1040
3.175
1070
   140
1040
3.50012
1002
}
1001
ACAD_DSTYLE_DIM_LINETYPE
1070
   380
1005
16
1001
ACAD_DSTYLE_DIM_EXT1_LINETYPE
1070
   381
1005
16
1001
ACAD_DSTYLE_DIM_EXT2_LINETYPE
1070
   382
1005
16
0
DIMENSION
5
179
100
AcDbEntity
8
SK2
62
256
6
ByLayer
370
18
48
1
60
0
100
AcDbDimension
2
_U4
10
57
20
-20.74982
30
0
11
29.5
21
-20.74982
31
0
70
32
71
1
72
1
41
1
210
0
220
0
230
1
3
Standard
100
AcDbAlignedDimension
13
2
23
5.75
33
0
14
57
24
0
34
0
50
0
100
AcDbRotatedDimension
1001
ACAD
1000
DSTYLE
1002
{
1070
   371
1070
    13
1070
   372
1070
    13
1070
     3
1000

1070
   170
1070
     0
1070
   144
1040
1.0
1070
   277
1070
     2
1070
   284
1070
     8
1070
   278
1070
    46
1070
   146
1040
0.999966
1070
   345
1005
16
1070
   347
1005
16
1070
   346
1005
16
1070
   344
1005
FB
1070
   343
1005
FB
1070
   172
1070
     1
1070
    76
1070
     0
1070
    75
1070
     0
1070
   282
1070
     0
1070
   281
1070
     0
1070
    71
1070
     0
1070
    74
1070
     0
1070
   279
1070
     0
1070
   173
1070
     1
1070
   340
1005
F5
1070
   271
1070
     1
1070
   272
1070
     2
1070
    77
1070
     1
1070
    73
1070
     1
1070
   171
1070
     3
1070
   274
1070
     4
1070
   177
1070
   150
1070
   176
1070
     9
1070
   178
1070
    43
1070
    78
1070
     8
1070
    48
1040
-0.1
1070
    41
1040
3.175
1070
   147
1040
1.75006
1070
    42
1040
1.5875
1070
    44
1040
3.175
1070
   140
1040
3.50012
1002
}
1001
ACAD_DSTYLE_DIM_LINETYPE
1070
   380
1005
16
1001
ACAD_DSTYLE_DIM_EXT1_LINETYPE
1070
   381
1005
16
1001
ACAD_DSTYLE_DIM_EXT2_LINETYPE
1070
   382
1005
16
0
DIMENSION
5
195
100
AcDbEntity
8
SK2
62
256
6
ByLayer
370
18
48
1
60
0
100
AcDbDimension
2
_U5
10
57
20
-12.82
30
0
11
40.3
21
-12.82
31
0
70
32
71
1
72
1
41
1
210
0
220
0
230
1
3
Standard
100
AcDbAlignedDimension
13
23.6
23
-5.25
33
0
14
57
24
0
34
0
50
0
100
AcDbRotatedDimension
1001
ACAD
1000
DSTYLE
1002
{
1070
   371
1070
    13
1070
   372
1070
    13
1070
     3
1000

1070
   170
1070
     0
1070
   144
1040
1.0
1070
   277
1070
     2
1070
   284
1070
     8
1070
   278
1070
    46
1070
   146
1040
1.25
1070
   345
1005
16
1070
   347
1005
16
1070
   346
1005
16
1070
   344
1005
FB
1070
   343
1005
FB
1070
   172
1070
     1
1070
    76
1070
     0
1070
    75
1070
     0
1070
   282
1070
     0
1070
   281
1070
     0
1070
    71
1070
     0
1070
    74
1070
     0
1070
   279
1070
     0
1070
   173
1070
     1
1070
   340
1005
F5
1070
   271
1070
     1
1070
   272
1070
     2
1070
    77
1070
     1
1070
    73
1070
     1
1070
   171
1070
     3
1070
   274
1070
     4
1070
   177
1070
   150
1070
   176
1070
     9
1070
   178
1070
    43
1070
    78
1070
     8
1070
    48
1040
-0.1
1070
    41
1040
3.175
1070
   147
1040
0.42
1070
    42
1040
1.5875
1070
    44
1040
0.5
1070
   140
1040
2.8
1002
}
1001
ACAD_DSTYLE_DIM_LINETYPE
1070
   380
1005
16
1001
ACAD_DSTYLE_DIM_EXT1_LINETYPE
1070
   381
1005
16
1001
ACAD_DSTYLE_DIM_EXT2_LINETYPE
1070
   382
1005
16
0
DIMENSION
5
1B1
100
AcDbEntity
8
SK2
62
256
6
ByLayer
370
18
48
1
60
0
100
AcDbDimension
2
_U6
10
57
20
-39.50012
30
0
11
6
21
-39.50012
31
0
70
32
71
1
72
1
41
1
210
0
220
0
230
1
3
Standard
100
AcDbAlignedDimension
13
-45
23
0
33
0
14
57
24
0
34
0
50
0
100
AcDbRotatedDimension
1001
ACAD
1000
DSTYLE
1002
{
1070
   371
1070
    13
1070
   372
1070
    13
1070
     3
1000

1070
   170
1070
     0
1070
   144
1040
1.0
1070
   277
1070
     2
1070
   284
1070
     8
1070
   278
1070
    46
1070
   146
1040
0.999966
1070
   345
1005
16
1070
   347
1005
16
1070
   346
1005
16
1070
   344
1005
FB
1070
   343
1005
FB
1070
   172
1070
     1
1070
    76
1070
     0
1070
    75
1070
     0
1070
   282
1070
     0
1070
   281
1070
     0
1070
    71
1070
     0
1070
    74
1070
     0
1070
   279
1070
     0
1070
   173
1070
     1
1070
   340
1005
F5
1070
   271
1070
     1
1070
   272
1070
     2
1070
    77
1070
     1
1070
    73
1070
     1
1070
   171
1070
     3
1070
   274
1070
     4
1070
   177
1070
   150
1070
   176
1070
     9
1070
   178
1070
    43
1070
    78
1070
     8
1070
    48
1040
-0.1
1070
    41
1040
3.175
1070
   147
1040
1.75006
1070
    42
1040
1.5875
1070
    44
1040
3.175
1070
   140
1040
3.50012
1002
}
1001
ACAD_DSTYLE_DIM_LINETYPE
1070
   380
1005
16
1001
ACAD_DSTYLE_DIM_EXT1_LINETYPE
1070
   381
1005
16
1001
ACAD_DSTYLE_DIM_EXT2_LINETYPE
1070
   382
1005
16
0
ENDSEC
0
SECTION
2
OBJECTS
0
DICTIONARY
5
23d
330
0
100
AcDbDictionary
280
0
281
1
3
ACAD_GROUP
350
23e
3
ACAD_MLINESTYLE
350
23f
0
DICTIONARY
5
23e
330
0
100
AcDbDictionary
280
0
281
1
0
DICTIONARY
5
23f
330
0
100
AcDbDictionary
280
0
281
1
3
Standard
350
18
0
MLINESTYLE
5
18
330
23f
100
AcDbMlineStyle
2
Standard
70
0
3

62
256
51
90
52
90
71
2
49
-0.5
62
256
6
ByLayer
49
0.5
62
256
6
ByLayer
0
RASTERVARIABLES
5
22b
330

100
AcDbRasterVariables
90
0
70
1
71
1
72
1
0
ENDSEC
0
EOF
