0
SECTION
2
HEADER
9
$ACADVER
1
AC1015
9
$DWGCODEPAGE
3
ANSI_1252
9
$HANDSEED
5
261
9
$ANGBASE
50
0
9
$ANGDIR
70
0
9
$ATTMODE
70
1
9
$AUNITS
70
0
9
$AUPREC
70
0
9
$CECOLOR
62
256
9
$CELTSCALE
40
1
9
$CELTYPE
6
ByLayer
9
$CELWEIGHT
370
18
9
$CLAYER
8
0
9
$CMLJUST
70
0
9
$CMLSCALE
40
1
9
$CMLSTYLE
2
Standard
9
$DIMSTYLE
2
Standard
9
$TEXTSIZE
40
0.2
9
$TEXTSTYLE
7
Standard
9
$LUNITS
70
2
9
$LUPREC
70
4
9
$EXTNAMES
290
1
9
$INSUNITS
70
4
9
$LTSCALE
40
1
9
$LWDISPLAY
290
1
9
$PDMODE
70
0
9
$PDSIZE
40
0
9
$PLINEGEN
70
0
0
ENDSEC
0
SECTION
2
CLASSES
0
CLASS
1
RASTERVARIABLES
2
AcDbRasterVariables
3
ISM
90
0
280
0
281
0
0
ENDSEC
0
SECTION
2
TABLES
0
TABLE
2
VPORT
5
257
100
AcDbSymbolTable
0
VPORT
5
1
100
AcDbSymbolTableRecord
100
AcDbViewportTableRecord
2
*Active
70
0
10
0
20
0
11
1
21
1
12
-1
22
1
13
0
23
0
14
0.5
24
0.5
15
10
25
10
16
0
26
0
36
1
17
0
27
0
37
0
0
ENDTAB
0
TABLE
2
LTYPE
5
258
100
AcDbSymbolTable
0
LTYPE
5
14
100
AcDbSymbolTableRecord
100
AcDbLinetypeTableRecord
70
0
2
ByBlock
3

72
65
73
0
40
0
0
LTYPE
5
15
100
AcDbSymbolTableRecord
100
AcDbLinetypeTableRecord
70
0
2
ByLayer
3

72
65
73
0
40
0
0
LTYPE
5
16
100
AcDbSymbolTableRecord
100
AcDbLinetypeTableRecord
70
0
2
Continuous
3
Solid line
72
65
73
0
40
0
0
LTYPE
5
6E
100
AcDbSymbolTableRecord
100
AcDbLinetypeTableRecord
70
0
2
CENTER
3
____ _ ____ _ ____ _ ____
72
65
73
4
40
47.5
49
22
74
0
49
-8.5
74
0
49
8.5
74
0
49
-8.5
74
0
0
LTYPE
5
6F
100
AcDbSymbolTableRecord
100
AcDbLinetypeTableRecord
70
0
2
DASHED
3
__ __ __ __ __ __ __ __ __
72
65
73
2
40
25.72
49
12.86
74
0
49
-12.86
74
0
0
ENDTAB
0
TABLE
2
LAYER
5
259
100
AcDbSymbolTable
0
LAYER
5
10
100
AcDbSymbolTableRecord
100
AcDbLayerTableRecord
2
0
70
0
62
7
6
Continuous
290
1
370
-3
390
0
0
LAYER
5
71
100
AcDbSymbolTableRecord
100
AcDbLayerTableRecord
2
80
70
0
62
-6
6
Continuous
290
1
370
-3
390
0
0
LAYER
5
73
100
AcDbSymbolTableRecord
100
AcDbLayerTableRecord
2
81
70
0
62
-3
6
Continuous
290
1
370
-3
390
0
0
LAYER
5
75
100
AcDbSymbolTableRecord
100
AcDbLayerTableRecord
2
1
70
0
62
4
6
Continuous
290
1
370
-3
390
0
0
LAYER
5
A5
100
AcDbSymbolTableRecord
100
AcDbLayerTableRecord
2
4
70
0
62
-2
6
CENTER
290
1
370
-3
390
0
0
LAYER
5
11B
100
AcDbSymbolTableRecord
100
AcDbLayerTableRecord
2
Defpoints
70
0
62
7
6
Continuous
290
0
370
-3
390
0
0
LAYER
5
148
100
AcDbSymbolTableRecord
100
AcDbLayerTableRecord
2
2
70
0
62
7
6
Continuous
290
1
370
-3
390
0
0
LAYER
5
243
100
AcDbSymbolTableRecord
100
AcDbLayerTableRecord
2
SK1
70
0
62
4
6
Continuous
290
1
370
-3
390
0
0
LAYER
5
244
100
AcDbSymbolTableRecord
100
AcDbLayerTableRecord
2
SK4
70
0
62
2
6
CENTER
290
1
370
-3
390
0
0
LAYER
5
245
100
AcDbSymbolTableRecord
100
AcDbLayerTableRecord
2
SK2
70
0
62
7
6
Continuous
290
1
370
-3
390
0
0
LAYER
5
246
100
AcDbSymbolTableRecord
100
AcDbLayerTableRecord
2
SK6
70
0
62
5
6
Continuous
290
1
370
-3
390
0
0
ENDTAB
0
TABLE
2
STYLE
5
25a
100
AcDbSymbolTable
0
STYLE
5
11
100
AcDbSymbolTableRecord
100
AcDbTextStyleTableRecord
2
Standard
3
txt
70
0
71
0
40
0
41
1
42
0
50
0
0
STYLE
5
10C
100
AcDbSymbolTableRecord
100
AcDbTextStyleTableRecord
2
iso_b_vert
3
simplex.shx
70
0
71
0
40
0
41
1
42
0
50
0
0
STYLE
5
10D
100
AcDbSymbolTableRecord
100
AcDbTextStyleTableRecord
2
DWGDirectTextStyle
3
simplex
70
0
71
0
40
0
41
1
42
0
50
0
0
ENDTAB
0
TABLE
2
DIMSTYLE
5
25b
100
AcDbSymbolTable
100
AcDbDimStyleTable
0
DIMSTYLE
105
27
100
AcDbSymbolTableRecord
100
AcDbDimStyleTableRecord
2
Standard
70
0
3
<>
41
0.18
42
0.0625
44
0.18
140
0.18
147
0.09
73
0
74
0
77
1
271
2
275
0
278
52
280
0
340
11
0
ENDTAB
0
TABLE
2
VIEW
5
25c
100
AcDbSymbolTable
0
ENDTAB
0
TABLE
2
UCS
5
25d
100
AcDbSymbolTable
0
ENDTAB
0
TABLE
2
APPID
5
25e
100
AcDbSymbolTable
0
APPID
5
12
100
AcDbSymbolTableRecord
100
AcDbRegAppTableRecord
2
ACAD
70
0
0
APPID
5
110
100
AcDbSymbolTableRecord
100
AcDbRegAppTableRecord
2
ACAD_DSTYLE_DIMBREAK
70
0
0
APPID
5
202
100
AcDbSymbolTableRecord
100
AcDbRegAppTableRecord
2
ACAD_DSTYLE_DIM_LINETYPE
70
0
0
APPID
5
203
100
AcDbSymbolTableRecord
100
AcDbRegAppTableRecord
2
ACAD_DSTYLE_DIM_EXT1_LINETYPE
70
0
0
APPID
5
204
100
AcDbSymbolTableRecord
100
AcDbRegAppTableRecord
2
ACAD_DSTYLE_DIM_EXT2_LINETYPE
70
0
0
APPID
5
23F
100
AcDbSymbolTableRecord
100
AcDbRegAppTableRecord
2
ACAD_MLEADERVER
70
0
0
ENDTAB
0
TABLE
2
BLOCK_RECORD
5
25f
100
AcDbSymbolTable
0
BLOCK_RECORD
5
1F
100
AcDbSymbolTableRecord
100
AcDbBlockTableRecord
2
*Model_Space
340
0
70
0
0
BLOCK_RECORD
5
1B
100
AcDbSymbolTableRecord
100
AcDbBlockTableRecord
2
*Paper_Space
340
0
70
0
0
BLOCK_RECORD
5
23
100
AcDbSymbolTableRecord
100
AcDbBlockTableRecord
2
*Paper_Space0
340
0
70
0
0
BLOCK_RECORD
5
112
100
AcDbSymbolTableRecord
100
AcDbBlockTableRecord
2
_Closed
340
0
70
0
0
BLOCK_RECORD
5
11C
100
AcDbSymbolTableRecord
100
AcDbBlockTableRecord
2
*D2
340
0
70
0
0
BLOCK_RECORD
5
128
100
AcDbSymbolTableRecord
100
AcDbBlockTableRecord
2
_U0
340
0
70
0
0
BLOCK_RECORD
5
13A
100
AcDbSymbolTableRecord
100
AcDbBlockTableRecord
2
*D4
340
0
70
0
0
BLOCK_RECORD
5
149
100
AcDbSymbolTableRecord
100
AcDbBlockTableRecord
2
_U1
340
0
70
0
0
BLOCK_RECORD
5
159
100
AcDbSymbolTableRecord
100
AcDbBlockTableRecord
2
*D6
340
0
70
0
0
BLOCK_RECORD
5
167
100
AcDbSymbolTableRecord
100
AcDbBlockTableRecord
2
_U2
340
0
70
0
0
BLOCK_RECORD
5
177
100
AcDbSymbolTableRecord
100
AcDbBlockTableRecord
2
*D8
340
0
70
0
0
BLOCK_RECORD
5
183
100
AcDbSymbolTableRecord
100
AcDbBlockTableRecord
2
_U3
340
0
70
0
0
BLOCK_RECORD
5
193
100
AcDbSymbolTableRecord
100
AcDbBlockTableRecord
2
*D10
340
0
70
0
0
BLOCK_RECORD
5
19F
100
AcDbSymbolTableRecord
100
AcDbBlockTableRecord
2
_U4
340
0
70
0
0
BLOCK_RECORD
5
1AF
100
AcDbSymbolTableRecord
100
AcDbBlockTableRecord
2
*D12
340
0
70
0
0
BLOCK_RECORD
5
1BB
100
AcDbSymbolTableRecord
100
AcDbBlockTableRecord
2
_U5
340
0
70
0
0
BLOCK_RECORD
5
1CB
100
AcDbSymbolTableRecord
100
AcDbBlockTableRecord
2
*D14
340
0
70
0
0
BLOCK_RECORD
5
1D7
100
AcDbSymbolTableRecord
100
AcDbBlockTableRecord
2
_U6
340
0
70
0
0
ENDTAB
0
ENDSEC
0
SECTION
2
BLOCKS
0
BLOCK
5
20
100
AcDbEntity
8
0
100
AcDbBlockBegin
2
*Model_Space
70
0
10
0
20
0
30
0
3
*Model_Space
0
ENDBLK
5
21
100
AcDbEntity
8
0
100
AcDbBlockEnd
0
BLOCK
5
1C
100
AcDbEntity
8
0
100
AcDbBlockBegin
2
*Paper_Space
70
0
10
0
20
0
30
0
3
*Paper_Space
0
ENDBLK
5
1D
100
AcDbEntity
8
0
100
AcDbBlockEnd
0
BLOCK
5
24
100
AcDbEntity
8
0
100
AcDbBlockBegin
2
*Paper_Space0
70
0
10
0
20
0
30
0
3
*Paper_Space0
0
ENDBLK
5
25
100
AcDbEntity
8
0
100
AcDbBlockEnd
0
BLOCK
5
113
100
AcDbEntity
8
0
100
AcDbBlockBegin
2
_Closed
70
0
10
0
20
0
30
0
3
_Closed
0
LINE
5
115
100
AcDbEntity
8
0
62
256
6
ByLayer
370
-2
48
1
60
0
100
AcDbLine
10
-1
20
0.166667
30
0
11
0
21
0
31
0
39
0
210
0
220
0
230
1
0
LINE
5
116
100
AcDbEntity
8
0
62
256
6
ByLayer
370
-2
48
1
60
0
100
AcDbLine
10
0
20
0
30
0
11
-1
21
-0.166667
31
0
39
0
210
0
220
0
230
1
0
LINE
5
117
100
AcDbEntity
8
0
62
256
6
ByLayer
370
-2
48
1
60
0
100
AcDbLine
10
-1
20
0.166667
30
0
11
-1
21
-0.166667
31
0
39
0
210
0
220
0
230
1
0
LINE
5
118
100
AcDbEntity
8
0
62
256
6
ByLayer
370
-2
48
1
60
0
100
AcDbLine
10
0
20
0
30
0
11
-1
21
0
31
0
39
0
210
0
220
0
230
1
0
ENDBLK
5
114
100
AcDbEntity
8
0
100
AcDbBlockEnd
0
BLOCK
5
11D
100
AcDbEntity
8
0
100
AcDbBlockBegin
2
*D2
70
1
10
0
20
0
30
0
3
*D2
0
LINE
5
11F
100
AcDbEntity
8
0
62
256
6
ByLayer
370
-2
48
1
60
0
100
AcDbLine
10
0
20
-7.5875
30
0
11
0
21
-32.67512
31
0
39
0
210
0
220
0
230
1
0
LINE
5
120
100
AcDbEntity
8
0
62
256
6
ByLayer
370
-2
48
1
60
0
100
AcDbLine
10
73
20
-1.5875
30
0
11
73
21
-32.67512
31
0
39
0
210
0
220
0
230
1
0
LINE
5
121
100
AcDbEntity
8
0
62
256
6
ByLayer
370
-2
48
1
60
0
100
AcDbLine
10
3.175
20
-29.50012
30
0
11
69.825
21
-29.50012
31
0
39
0
210
0
220
0
230
1
0
SOLID
5
122
100
AcDbEntity
8
0
62
256
6
ByLayer
370
-1
48
1
60
0
100
AcDbTrace
10
3.175
20
-28.970953
30
0
11
3.175
21
-30.029287
31
0
12
0
22
-29.50012
32
0
13
0
23
-29.50012
33
0
39
0
210
0
220
0
230
1
0
SOLID
5
123
100
AcDbEntity
8
0
62
256
6
ByLayer
370
-1
48
1
60
0
100
AcDbTrace
10
69.825
20
-30.029287
30
0
11
69.825
21
-28.970953
31
0
12
73
22
-29.50012
32
0
13
73
23
-29.50012
33
0
39
0
210
0
220
0
230
1
0
MTEXT
5
124
100
AcDbEntity
8
0
62
256
6
ByLayer
370
18
48
1
60
0
100
AcDbMText
10
36.5
20
-22.193619
30
0
210
0
220
0
230
1
1
\A1;73
40
3.50012
41
0
44
1
50
0
71
5
72
5
7
iso_b_vert
0
POINT
5
125
100
AcDbEntity
8
Defpoints
62
0
6
ByLayer
370
-1
48
1
60
0
100
AcDbPoint
10
0
20
-6
30
0
39
0
210
0
220
0
230
1
50
360
0
POINT
5
126
100
AcDbEntity
8
Defpoints
62
0
6
ByLayer
370
-1
48
1
60
0
100
AcDbPoint
10
73
20
0
30
0
39
0
210
0
220
0
230
1
50
360
0
POINT
5
127
100
AcDbEntity
8
Defpoints
62
0
6
ByLayer
370
-1
48
1
60
0
100
AcDbPoint
10
73
20
-29.50012
30
0
39
0
210
0
220
0
230
1
50
360
0
ENDBLK
5
11E
100
AcDbEntity
8
0
100
AcDbBlockEnd
0
BLOCK
5
135
100
AcDbEntity
8
0
100
AcDbBlockBegin
2
_U0
70
0
10
0
20
0
30
0
3
_U0
0
MTEXT
5
129
100
AcDbEntity
8
SK2
62
256
6
ByLayer
370
18
48
1
60
0
100
AcDbMText
10
31.270389
20
-28.467451
30
0
210
0
220
0
230
1
1
\W0.7468;73.00
40
3.50012
41
0
44
1.084337
50
0
71
7
72
5
7
iso_b_vert
0
MTEXT
5
12A
100
AcDbEntity
8
SK2
62
256
6
ByLayer
370
18
48
1
60
0
100
AcDbMText
10
27.744329
20
-28.400814
30
0
210
0
220
0
230
1
1
\W0.1790;(
40
3.175
41
0
44
1.084337
50
0
71
7
72
5
7
iso_b_vert
0
MTEXT
5
12B
100
AcDbEntity
8
SK2
62
256
6
ByLayer
370
18
48
1
60
0
100
AcDbMText
10
45.258393
20
-28.400814
30
0
210
0
220
0
230
1
1
\W0.1969;)
40
3.175
41
0
44
1.084337
50
0
71
7
72
5
7
iso_b_vert
0
LINE
5
12C
100
AcDbEntity
8
SK2
62
256
6
ByLayer
370
13
48
1
60
0
100
AcDbLine
10
0
20
-7.5875
30
0
11
0
21
-32.67512
31
0
39
0
210
0
220
0
230
1
0
LINE
5
12D
100
AcDbEntity
8
SK2
62
256
6
ByLayer
370
13
48
1
60
0
100
AcDbLine
10
73
20
-1.5875
30
0
11
73
21
-32.67512
31
0
39
0
210
0
220
0
230
1
0
LINE
5
12E
100
AcDbEntity
8
SK2
62
256
6
ByLayer
370
13
48
1
60
0
100
AcDbLine
10
0
20
-29.50012
30
0
11
73
21
-29.50012
31
0
39
0
210
0
220
0
230
1
0
LINE
5
12F
100
AcDbEntity
8
SK2
62
256
6
ByLayer
370
13
48
1
60
0
100
AcDbLine
10
0
20
-29.50012
30
0
11
3.174998
21
-29.082123
31
0
39
0
210
0
220
0
230
1
0
LINE
5
130
100
AcDbEntity
8
SK2
62
256
6
ByLayer
370
13
48
1
60
0
100
AcDbLine
10
0
20
-29.50012
30
0
11
3.175002
21
-29.918117
31
0
39
0
210
0
220
0
230
1
0
LINE
5
131
100
AcDbEntity
8
SK2
62
256
6
ByLayer
370
13
48
1
60
0
100
AcDbLine
10
3.174998
20
-29.082123
30
0
11
3.175002
21
-29.918117
31
0
39
0
210
0
220
0
230
1
0
LINE
5
132
100
AcDbEntity
8
SK2
62
256
6
ByLayer
370
13
48
1
60
0
100
AcDbLine
10
73
20
-29.50012
30
0
11
69.825002
21
-29.918117
31
0
39
0
210
0
220
0
230
1
0
LINE
5
133
100
AcDbEntity
8
SK2
62
256
6
ByLayer
370
13
48
1
60
0
100
AcDbLine
10
73
20
-29.50012
30
0
11
69.824998
21
-29.082123
31
0
39
0
210
0
220
0
230
1
0
LINE
5
134
100
AcDbEntity
8
SK2
62
256
6
ByLayer
370
13
48
1
60
0
100
AcDbLine
10
69.825002
20
-29.918117
30
0
11
69.824998
21
-29.082123
31
0
39
0
210
0
220
0
230
1
0
ENDBLK
5
136
100
AcDbEntity
8
0
100
AcDbBlockEnd
0
BLOCK
5
13B
100
AcDbEntity
8
0
100
AcDbBlockBegin
2
*D4
70
1
10
0
20
0
30
0
3
*D4
0
LINE
5
13D
100
AcDbEntity
8
0
62
256
6
ByLayer
370
-2
48
1
60
0
100
AcDbLine
10
72.4401
20
-5.9
30
0
11
82.92506
21
-5.9
31
0
39
0
210
0
220
0
230
1
0
LINE
5
13E
100
AcDbEntity
8
0
62
256
6
ByLayer
370
-2
48
1
60
0
100
AcDbLine
10
72.4401
20
5.9
30
0
11
82.92506
21
5.9
31
0
39
0
210
0
220
0
230
1
0
LINE
5
13F
100
AcDbEntity
8
0
62
256
6
ByLayer
370
-2
48
1
60
0
100
AcDbLine
10
79.75006
20
5.9
30
0
11
79.75006
21
33.529896
31
0
39
0
210
0
220
0
230
1
0
LINE
5
140
100
AcDbEntity
8
0
62
256
6
ByLayer
370
-2
48
1
60
0
100
AcDbLine
10
79.75006
20
-9.075
30
0
11
79.75006
21
-12.25
31
0
39
0
210
0
220
0
230
1
0
LINE
5
141
100
AcDbEntity
8
0
62
256
6
ByLayer
370
-2
48
1
60
0
100
AcDbLine
10
79.75006
20
9.075
30
0
11
79.75006
21
12.25
31
0
39
0
210
0
220
0
230
1
0
SOLID
5
142
100
AcDbEntity
8
0
62
256
6
ByLayer
370
-1
48
1
60
0
100
AcDbTrace
10
80.279227
20
-9.075
30
0
11
79.220893
21
-9.075
31
0
12
79.75006
22
-5.9
32
0
13
79.75006
23
-5.9
33
0
39
0
210
0
220
0
230
1
0
SOLID
5
143
100
AcDbEntity
8
0
62
256
6
ByLayer
370
-1
48
1
60
0
100
AcDbTrace
10
79.220893
20
9.075
30
0
11
80.279227
21
9.075
31
0
12
79.75006
22
5.9
32
0
13
79.75006
23
5.9
33
0
39
0
210
0
220
0
230
1
0
MTEXT
5
144
100
AcDbEntity
8
0
62
256
6
ByLayer
370
18
48
1
60
0
100
AcDbMText
10
72.44356
20
22.889948
30
0
210
0
220
0
230
1
1
\A1;11.8
40
3.50012
41
0
44
1
50
90
71
5
72
5
7
iso_b_vert
0
POINT
5
145
100
AcDbEntity
8
Defpoints
62
0
6
ByLayer
370
-1
48
1
60
0
100
AcDbPoint
10
70.8526
20
-5.9
30
0
39
0
210
0
220
0
230
1
50
360
0
POINT
5
146
100
AcDbEntity
8
Defpoints
62
0
6
ByLayer
370
-1
48
1
60
0
100
AcDbPoint
10
70.8526
20
5.9
30
0
39
0
210
0
220
0
230
1
50
360
0
POINT
5
147
100
AcDbEntity
8
Defpoints
62
0
6
ByLayer
370
-1
48
1
60
0
100
AcDbPoint
10
79.75006
20
5.9
30
0
39
0
210
0
220
0
230
1
50
360
0
ENDBLK
5
13C
100
AcDbEntity
8
0
100
AcDbBlockEnd
0
BLOCK
5
154
100
AcDbEntity
8
0
100
AcDbBlockBegin
2
_U1
70
0
10
0
20
0
30
0
3
_U1
0
MTEXT
5
14A
100
AcDbEntity
8
2
62
256
6
ByLayer
370
18
48
1
60
0
100
AcDbMText
10
79.060403
20
10.057505
30
0
210
0
220
0
230
1
1
\W0.6261;11.80
40
3.50012
41
0
44
1.084337
50
90
71
7
72
5
7
iso_b_vert
0
LINE
5
14B
100
AcDbEntity
8
2
62
256
6
ByLayer
370
13
48
1
60
0
100
AcDbLine
10
72.4401
20
-5.9
30
0
11
82.92506
21
-5.9
31
0
39
0
210
0
220
0
230
1
0
LINE
5
14C
100
AcDbEntity
8
2
62
256
6
ByLayer
370
13
48
1
60
0
100
AcDbLine
10
72.4401
20
5.9
30
0
11
82.92506
21
5.9
31
0
39
0
210
0
220
0
230
1
0
LINE
5
14D
100
AcDbEntity
8
2
62
256
6
ByLayer
370
13
48
1
60
0
100
AcDbLine
10
79.75006
20
-5.9
30
0
11
79.75006
21
18.980443
31
0
39
0
210
0
220
0
230
1
0
LINE
5
14E
100
AcDbEntity
8
2
62
256
6
ByLayer
370
13
48
1
60
0
100
AcDbLine
10
79.75006
20
-5.9
30
0
11
79.332063
21
-2.725002
31
0
39
0
210
0
220
0
230
1
0
LINE
5
14F
100
AcDbEntity
8
2
62
256
6
ByLayer
370
13
48
1
60
0
100
AcDbLine
10
79.75006
20
-5.9
30
0
11
80.168057
21
-2.724998
31
0
39
0
210
0
220
0
230
1
0
LINE
5
150
100
AcDbEntity
8
2
62
256
6
ByLayer
370
13
48
1
60
0
100
AcDbLine
10
79.332063
20
-2.725002
30
0
11
80.168057
21
-2.724998
31
0
39
0
210
0
220
0
230
1
0
LINE
5
151
100
AcDbEntity
8
2
62
256
6
ByLayer
370
13
48
1
60
0
100
AcDbLine
10
79.75006
20
5.9
30
0
11
80.168057
21
2.725002
31
0
39
0
210
0
220
0
230
1
0
LINE
5
152
100
AcDbEntity
8
2
62
256
6
ByLayer
370
13
48
1
60
0
100
AcDbLine
10
79.75006
20
5.9
30
0
11
79.332063
21
2.724998
31
0
39
0
210
0
220
0
230
1
0
LINE
5
153
100
AcDbEntity
8
2
62
256
6
ByLayer
370
13
48
1
60
0
100
AcDbLine
10
80.168057
20
2.725002
30
0
11
79.332063
21
2.724998
31
0
39
0
210
0
220
0
230
1
0
ENDBLK
5
155
100
AcDbEntity
8
0
100
AcDbBlockEnd
0
BLOCK
5
15A
100
AcDbEntity
8
0
100
AcDbBlockBegin
2
*D6
70
1
10
0
20
0
30
0
3
*D6
0
LINE
5
15C
100
AcDbEntity
8
0
62
256
6
ByLayer
370
-2
48
1
60
0
100
AcDbLine
10
-46.5875
20
6
30
0
11
-51.42494
21
6
31
0
39
0
210
0
220
0
230
1
0
LINE
5
15D
100
AcDbEntity
8
0
62
256
6
ByLayer
370
-2
48
1
60
0
100
AcDbLine
10
-46.5875
20
-6
30
0
11
-51.42494
21
-6
31
0
39
0
210
0
220
0
230
1
0
LINE
5
15E
100
AcDbEntity
8
0
62
256
6
ByLayer
370
-2
48
1
60
0
100
AcDbLine
10
-48.24994
20
6
30
0
11
-48.24994
21
29.117532
31
0
39
0
210
0
220
0
230
1
0
LINE
5
15F
100
AcDbEntity
8
0
62
256
6
ByLayer
370
-2
48
1
60
0
100
AcDbLine
10
-48.24994
20
9.175
30
0
11
-48.24994
21
12.35
31
0
39
0
210
0
220
0
230
1
0
LINE
5
160
100
AcDbEntity
8
0
62
256
6
ByLayer
370
-2
48
1
60
0
100
AcDbLine
10
-48.24994
20
-9.175
30
0
11
-48.24994
21
-12.35
31
0
39
0
210
0
220
0
230
1
0
SOLID
5
161
100
AcDbEntity
8
0
62
256
6
ByLayer
370
-1
48
1
60
0
100
AcDbTrace
10
-48.779107
20
9.175
30
0
11
-47.720773
21
9.175
31
0
12
-48.24994
22
6
32
0
13
-48.24994
23
6
33
0
39
0
210
0
220
0
230
1
0
SOLID
5
162
100
AcDbEntity
8
0
62
256
6
ByLayer
370
-1
48
1
60
0
100
AcDbTrace
10
-47.720773
20
-9.175
30
0
11
-48.779107
21
-9.175
31
0
12
-48.24994
22
-6
32
0
13
-48.24994
23
-6
33
0
39
0
210
0
220
0
230
1
0
MTEXT
5
163
100
AcDbEntity
8
0
62
256
6
ByLayer
370
18
48
1
60
0
100
AcDbMText
10
-55.556441
20
20.97767
30
0
210
0
220
0
230
1
1
\A1;12
40
3.50012
41
0
44
1
50
90
71
5
72
5
7
iso_b_vert
0
POINT
5
164
100
AcDbEntity
8
Defpoints
62
0
6
ByLayer
370
-1
48
1
60
0
100
AcDbPoint
10
-45
20
6
30
0
39
0
210
0
220
0
230
1
50
360
0
POINT
5
165
100
AcDbEntity
8
Defpoints
62
0
6
ByLayer
370
-1
48
1
60
0
100
AcDbPoint
10
-45
20
-6
30
0
39
0
210
0
220
0
230
1
50
360
0
POINT
5
166
100
AcDbEntity
8
Defpoints
62
0
6
ByLayer
370
-1
48
1
60
0
100
AcDbPoint
10
-48.24994
20
-6
30
0
39
0
210
0
220
0
230
1
50
360
0
ENDBLK
5
15B
100
AcDbEntity
8
0
100
AcDbBlockEnd
0
BLOCK
5
172
100
AcDbEntity
8
0
100
AcDbBlockBegin
2
_U2
70
0
10
0
20
0
30
0
3
_U2
0
MTEXT
5
168
100
AcDbEntity
8
SK2
62
256
6
ByLayer
370
18
48
1
60
0
100
AcDbMText
10
-48.939597
20
16.157505
30
0
210
0
220
0
230
1
1
\W0.6864;12.00
40
3.50012
41
0
44
1.084337
50
90
71
7
72
5
7
iso_b_vert
0
LINE
5
169
100
AcDbEntity
8
SK2
62
256
6
ByLayer
370
13
48
1
60
0
100
AcDbLine
10
-46.5875
20
6
30
0
11
-51.42494
21
6
31
0
39
0
210
0
220
0
230
1
0
LINE
5
16A
100
AcDbEntity
8
SK2
62
256
6
ByLayer
370
13
48
1
60
0
100
AcDbLine
10
-46.5875
20
-6
30
0
11
-51.42494
21
-6
31
0
39
0
210
0
220
0
230
1
0
LINE
5
16B
100
AcDbEntity
8
SK2
62
256
6
ByLayer
370
13
48
1
60
0
100
AcDbLine
10
-48.24994
20
-6
30
0
11
-48.24994
21
25.955339
31
0
39
0
210
0
220
0
230
1
0
LINE
5
16C
100
AcDbEntity
8
SK2
62
256
6
ByLayer
370
13
48
1
60
0
100
AcDbLine
10
-48.24994
20
6
30
0
11
-47.831943
21
2.825002
31
0
39
0
210
0
220
0
230
1
0
LINE
5
16D
100
AcDbEntity
8
SK2
62
256
6
ByLayer
370
13
48
1
60
0
100
AcDbLine
10
-48.24994
20
6
30
0
11
-48.667937
21
2.824998
31
0
39
0
210
0
220
0
230
1
0
LINE
5
16E
100
AcDbEntity
8
SK2
62
256
6
ByLayer
370
13
48
1
60
0
100
AcDbLine
10
-47.831943
20
2.825002
30
0
11
-48.667937
21
2.824998
31
0
39
0
210
0
220
0
230
1
0
LINE
5
16F
100
AcDbEntity
8
SK2
62
256
6
ByLayer
370
13
48
1
60
0
100
AcDbLine
10
-48.24994
20
-6
30
0
11
-48.667937
21
-2.825002
31
0
39
0
210
0
220
0
230
1
0
LINE
5
170
100
AcDbEntity
8
SK2
62
256
6
ByLayer
370
13
48
1
60
0
100
AcDbLine
10
-48.24994
20
-6
30
0
11
-47.831943
21
-2.824998
31
0
39
0
210
0
220
0
230
1
0
LINE
5
171
100
AcDbEntity
8
SK2
62
256
6
ByLayer
370
13
48
1
60
0
100
AcDbLine
10
-48.667937
20
-2.825002
30
0
11
-47.831943
21
-2.824998
31
0
39
0
210
0
220
0
230
1
0
ENDBLK
5
173
100
AcDbEntity
8
0
100
AcDbBlockEnd
0
BLOCK
5
178
100
AcDbEntity
8
0
100
AcDbBlockBegin
2
*D8
70
1
10
0
20
0
30
0
3
*D8
0
LINE
5
17A
100
AcDbEntity
8
0
62
256
6
ByLayer
370
-2
48
1
60
0
100
AcDbLine
10
-45
20
-7.5875
30
0
11
-45
21
-32.67512
31
0
39
0
210
0
220
0
230
1
0
LINE
5
17B
100
AcDbEntity
8
0
62
256
6
ByLayer
370
-2
48
1
60
0
100
AcDbLine
10
0
20
-7.5875
30
0
11
0
21
-32.67512
31
0
39
0
210
0
220
0
230
1
0
LINE
5
17C
100
AcDbEntity
8
0
62
256
6
ByLayer
370
-2
48
1
60
0
100
AcDbLine
10
-41.825
20
-29.50012
30
0
11
-3.175
21
-29.50012
31
0
39
0
210
0
220
0
230
1
0
SOLID
5
17D
100
AcDbEntity
8
0
62
256
6
ByLayer
370
-1
48
1
60
0
100
AcDbTrace
10
-41.825
20
-28.970953
30
0
11
-41.825
21
-30.029287
31
0
12
-45
22
-29.50012
32
0
13
-45
23
-29.50012
33
0
39
0
210
0
220
0
230
1
0
SOLID
5
17E
100
AcDbEntity
8
0
62
256
6
ByLayer
370
-1
48
1
60
0
100
AcDbTrace
10
-3.175
20
-30.029287
30
0
11
-3.175
21
-28.970953
31
0
12
0
22
-29.50012
32
0
13
0
23
-29.50012
33
0
39
0
210
0
220
0
230
1
0
MTEXT
5
17F
100
AcDbEntity
8
0
62
256
6
ByLayer
370
18
48
1
60
0
100
AcDbMText
10
-22.5
20
-22.193619
30
0
210
0
220
0
230
1
1
\A1;45
40
3.50012
41
0
44
1
50
0
71
5
72
5
7
iso_b_vert
0
POINT
5
180
100
AcDbEntity
8
Defpoints
62
0
6
ByLayer
370
-1
48
1
60
0
100
AcDbPoint
10
-45
20
-6
30
0
39
0
210
0
220
0
230
1
50
360
0
POINT
5
181
100
AcDbEntity
8
Defpoints
62
0
6
ByLayer
370
-1
48
1
60
0
100
AcDbPoint
10
0
20
-6
30
0
39
0
210
0
220
0
230
1
50
360
0
POINT
5
182
100
AcDbEntity
8
Defpoints
62
0
6
ByLayer
370
-1
48
1
60
0
100
AcDbPoint
10
0
20
-29.50012
30
0
39
0
210
0
220
0
230
1
50
360
0
ENDBLK
5
179
100
AcDbEntity
8
0
100
AcDbBlockEnd
0
BLOCK
5
18E
100
AcDbEntity
8
0
100
AcDbBlockBegin
2
_U3
70
0
10
0
20
0
30
0
3
_U3
0
MTEXT
5
184
100
AcDbEntity
8
SK2
62
256
6
ByLayer
370
18
48
1
60
0
100
AcDbMText
10
-27.913884
20
-28.467451
30
0
210
0
220
0
230
1
1
\W0.7694;45.00
40
3.50012
41
0
44
1.084337
50
0
71
7
72
5
7
iso_b_vert
0
LINE
5
185
100
AcDbEntity
8
SK2
62
256
6
ByLayer
370
13
48
1
60
0
100
AcDbLine
10
-45
20
-7.5875
30
0
11
-45
21
-32.67512
31
0
39
0
210
0
220
0
230
1
0
LINE
5
186
100
AcDbEntity
8
SK2
62
256
6
ByLayer
370
13
48
1
60
0
100
AcDbLine
10
0
20
-7.5875
30
0
11
0
21
-32.67512
31
0
39
0
210
0
220
0
230
1
0
LINE
5
187
100
AcDbEntity
8
SK2
62
256
6
ByLayer
370
13
48
1
60
0
100
AcDbLine
10
-45
20
-29.50012
30
0
11
0
21
-29.50012
31
0
39
0
210
0
220
0
230
1
0
LINE
5
188
100
AcDbEntity
8
SK2
62
256
6
ByLayer
370
13
48
1
60
0
100
AcDbLine
10
-45
20
-29.50012
30
0
11
-41.825002
21
-29.082123
31
0
39
0
210
0
220
0
230
1
0
LINE
5
189
100
AcDbEntity
8
SK2
62
256
6
ByLayer
370
13
48
1
60
0
100
AcDbLine
10
-45
20
-29.50012
30
0
11
-41.824998
21
-29.918117
31
0
39
0
210
0
220
0
230
1
0
LINE
5
18A
100
AcDbEntity
8
SK2
62
256
6
ByLayer
370
13
48
1
60
0
100
AcDbLine
10
-41.825002
20
-29.082123
30
0
11
-41.824998
21
-29.918117
31
0
39
0
210
0
220
0
230
1
0
LINE
5
18B
100
AcDbEntity
8
SK2
62
256
6
ByLayer
370
13
48
1
60
0
100
AcDbLine
10
0
20
-29.50012
30
0
11
-3.174998
21
-29.918117
31
0
39
0
210
0
220
0
230
1
0
LINE
5
18C
100
AcDbEntity
8
SK2
62
256
6
ByLayer
370
13
48
1
60
0
100
AcDbLine
10
0
20
-29.50012
30
0
11
-3.175002
21
-29.082123
31
0
39
0
210
0
220
0
230
1
0
LINE
5
18D
100
AcDbEntity
8
SK2
62
256
6
ByLayer
370
13
48
1
60
0
100
AcDbLine
10
-3.174998
20
-29.918117
30
0
11
-3.175002
21
-29.082123
31
0
39
0
210
0
220
0
230
1
0
ENDBLK
5
18F
100
AcDbEntity
8
0
100
AcDbBlockEnd
0
BLOCK
5
194
100
AcDbEntity
8
0
100
AcDbBlockBegin
2
*D10
70
1
10
0
20
0
30
0
3
*D10
0
LINE
5
196
100
AcDbEntity
8
0
62
256
6
ByLayer
370
-2
48
1
60
0
100
AcDbLine
10
2
20
4.8125
30
0
11
2
21
-23.92482
31
0
39
0
210
0
220
0
230
1
0
LINE
5
197
100
AcDbEntity
8
0
62
256
6
ByLayer
370
-2
48
1
60
0
100
AcDbLine
10
73
20
-1.5875
30
0
11
73
21
-23.92482
31
0
39
0
210
0
220
0
230
1
0
LINE
5
198
100
AcDbEntity
8
0
62
256
6
ByLayer
370
-2
48
1
60
0
100
AcDbLine
10
5.175
20
-20.74982
30
0
11
69.825
21
-20.74982
31
0
39
0
210
0
220
0
230
1
0
SOLID
5
199
100
AcDbEntity
8
0
62
256
6
ByLayer
370
-1
48
1
60
0
100
AcDbTrace
10
5.175
20
-20.220653
30
0
11
5.175
21
-21.278987
31
0
12
2
22
-20.74982
32
0
13
2
23
-20.74982
33
0
39
0
210
0
220
0
230
1
0
SOLID
5
19A
100
AcDbEntity
8
0
62
256
6
ByLayer
370
-1
48
1
60
0
100
AcDbTrace
10
69.825
20
-21.278987
30
0
11
69.825
21
-20.220653
31
0
12
73
22
-20.74982
32
0
13
73
23
-20.74982
33
0
39
0
210
0
220
0
230
1
0
MTEXT
5
19B
100
AcDbEntity
8
0
62
256
6
ByLayer
370
18
48
1
60
0
100
AcDbMText
10
37.5
20
-13.443319
30
0
210
0
220
0
230
1
1
\A1;71
40
3.50012
41
0
44
1
50
0
71
5
72
5
7
iso_b_vert
0
POINT
5
19C
100
AcDbEntity
8
Defpoints
62
0
6
ByLayer
370
-1
48
1
60
0
100
AcDbPoint
10
2
20
6.4
30
0
39
0
210
0
220
0
230
1
50
360
0
POINT
5
19D
100
AcDbEntity
8
Defpoints
62
0
6
ByLayer
370
-1
48
1
60
0
100
AcDbPoint
10
73
20
0
30
0
39
0
210
0
220
0
230
1
50
360
0
POINT
5
19E
100
AcDbEntity
8
Defpoints
62
0
6
ByLayer
370
-1
48
1
60
0
100
AcDbPoint
10
73
20
-20.74982
30
0
39
0
210
0
220
0
230
1
50
360
0
ENDBLK
5
195
100
AcDbEntity
8
0
100
AcDbBlockEnd
0
BLOCK
5
1AA
100
AcDbEntity
8
0
100
AcDbBlockBegin
2
_U4
70
0
10
0
20
0
30
0
3
_U4
0
MTEXT
5
1A0
100
AcDbEntity
8
SK2
62
256
6
ByLayer
370
18
48
1
60
0
100
AcDbMText
10
32.707837
20
-19.717151
30
0
210
0
220
0
230
1
1
\W0.6864;71.00
40
3.50012
41
0
44
1.084337
50
0
71
7
72
5
7
iso_b_vert
0
LINE
5
1A1
100
AcDbEntity
8
SK2
62
256
6
ByLayer
370
13
48
1
60
0
100
AcDbLine
10
2
20
4.8125
30
0
11
2
21
-23.92482
31
0
39
0
210
0
220
0
230
1
0
LINE
5
1A2
100
AcDbEntity
8
SK2
62
256
6
ByLayer
370
13
48
1
60
0
100
AcDbLine
10
73
20
-1.5875
30
0
11
73
21
-23.92482
31
0
39
0
210
0
220
0
230
1
0
LINE
5
1A3
100
AcDbEntity
8
SK2
62
256
6
ByLayer
370
13
48
1
60
0
100
AcDbLine
10
2
20
-20.74982
30
0
11
73
21
-20.74982
31
0
39
0
210
0
220
0
230
1
0
LINE
5
1A4
100
AcDbEntity
8
SK2
62
256
6
ByLayer
370
13
48
1
60
0
100
AcDbLine
10
2
20
-20.74982
30
0
11
5.174998
21
-20.331823
31
0
39
0
210
0
220
0
230
1
0
LINE
5
1A5
100
AcDbEntity
8
SK2
62
256
6
ByLayer
370
13
48
1
60
0
100
AcDbLine
10
2
20
-20.74982
30
0
11
5.175002
21
-21.167817
31
0
39
0
210
0
220
0
230
1
0
LINE
5
1A6
100
AcDbEntity
8
SK2
62
256
6
ByLayer
370
13
48
1
60
0
100
AcDbLine
10
5.174998
20
-20.331823
30
0
11
5.175002
21
-21.167817
31
0
39
0
210
0
220
0
230
1
0
LINE
5
1A7
100
AcDbEntity
8
SK2
62
256
6
ByLayer
370
13
48
1
60
0
100
AcDbLine
10
73
20
-20.74982
30
0
11
69.825002
21
-21.167817
31
0
39
0
210
0
220
0
230
1
0
LINE
5
1A8
100
AcDbEntity
8
SK2
62
256
6
ByLayer
370
13
48
1
60
0
100
AcDbLine
10
73
20
-20.74982
30
0
11
69.824998
21
-20.331823
31
0
39
0
210
0
220
0
230
1
0
LINE
5
1A9
100
AcDbEntity
8
SK2
62
256
6
ByLayer
370
13
48
1
60
0
100
AcDbLine
10
69.825002
20
-21.167817
30
0
11
69.824998
21
-20.331823
31
0
39
0
210
0
220
0
230
1
0
ENDBLK
5
1AB
100
AcDbEntity
8
0
100
AcDbBlockEnd
0
BLOCK
5
1B0
100
AcDbEntity
8
0
100
AcDbBlockBegin
2
*D12
70
1
10
0
20
0
30
0
3
*D12
0
LINE
5
1B2
100
AcDbEntity
8
0
62
256
6
ByLayer
370
-2
48
1
60
0
100
AcDbLine
10
17
20
-7.4875
30
0
11
17
21
-13.32
31
0
39
0
210
0
220
0
230
1
0
LINE
5
1B3
100
AcDbEntity
8
0
62
256
6
ByLayer
370
-2
48
1
60
0
100
AcDbLine
10
73
20
-1.5875
30
0
11
73
21
-13.32
31
0
39
0
210
0
220
0
230
1
0
LINE
5
1B4
100
AcDbEntity
8
0
62
256
6
ByLayer
370
-2
48
1
60
0
100
AcDbLine
10
20.175
20
-12.82
30
0
11
69.825
21
-12.82
31
0
39
0
210
0
220
0
230
1
0
SOLID
5
1B5
100
AcDbEntity
8
0
62
256
6
ByLayer
370
-1
48
1
60
0
100
AcDbTrace
10
20.175
20
-12.290833
30
0
11
20.175
21
-13.349167
31
0
12
17
22
-12.82
32
0
13
17
23
-12.82
33
0
39
0
210
0
220
0
230
1
0
SOLID
5
1B6
100
AcDbEntity
8
0
62
256
6
ByLayer
370
-1
48
1
60
0
100
AcDbTrace
10
69.825
20
-13.349167
30
0
11
69.825
21
-12.290833
31
0
12
73
22
-12.82
32
0
13
73
23
-12.82
33
0
39
0
210
0
220
0
230
1
0
MTEXT
5
1B7
100
AcDbEntity
8
0
62
256
6
ByLayer
370
18
48
1
60
0
100
AcDbMText
10
45
20
-6.975
30
0
210
0
220
0
230
1
1
\A1;56
40
2.8
41
0
44
1
50
0
71
5
72
5
7
iso_b_vert
0
POINT
5
1B8
100
AcDbEntity
8
Defpoints
62
0
6
ByLayer
370
-1
48
1
60
0
100
AcDbPoint
10
17
20
-5.9
30
0
39
0
210
0
220
0
230
1
50
360
0
POINT
5
1B9
100
AcDbEntity
8
Defpoints
62
0
6
ByLayer
370
-1
48
1
60
0
100
AcDbPoint
10
73
20
0
30
0
39
0
210
0
220
0
230
1
50
360
0
POINT
5
1BA
100
AcDbEntity
8
Defpoints
62
0
6
ByLayer
370
-1
48
1
60
0
100
AcDbPoint
10
73
20
-12.82
30
0
39
0
210
0
220
0
230
1
50
360
0
ENDBLK
5
1B1
100
AcDbEntity
8
0
100
AcDbBlockEnd
0
BLOCK
5
1C6
100
AcDbEntity
8
0
100
AcDbBlockBegin
2
_U5
70
0
10
0
20
0
30
0
3
_U5
0
MTEXT
5
1BC
100
AcDbEntity
8
SK2
62
256
6
ByLayer
370
18
48
1
60
0
100
AcDbMText
10
40.816454
20
-12.973893
30
0
210
0
220
0
230
1
1
\W0.7468;56.00
40
2.8
41
0
44
1.084337
50
0
71
7
72
5
7
iso_b_vert
0
LINE
5
1BD
100
AcDbEntity
8
SK2
62
256
6
ByLayer
370
13
48
1
60
0
100
AcDbLine
10
17
20
-7.4875
30
0
11
17
21
-13.32
31
0
39
0
210
0
220
0
230
1
0
LINE
5
1BE
100
AcDbEntity
8
SK2
62
256
6
ByLayer
370
13
48
1
60
0
100
AcDbLine
10
73
20
-1.5875
30
0
11
73
21
-13.32
31
0
39
0
210
0
220
0
230
1
0
LINE
5
1BF
100
AcDbEntity
8
SK2
62
256
6
ByLayer
370
13
48
1
60
0
100
AcDbLine
10
17
20
-12.82
30
0
11
73
21
-12.82
31
0
39
0
210
0
220
0
230
1
0
LINE
5
1C0
100
AcDbEntity
8
SK2
62
256
6
ByLayer
370
13
48
1
60
0
100
AcDbLine
10
17
20
-12.82
30
0
11
20.174998
21
-12.402003
31
0
39
0
210
0
220
0
230
1
0
LINE
5
1C1
100
AcDbEntity
8
SK2
62
256
6
ByLayer
370
13
48
1
60
0
100
AcDbLine
10
17
20
-12.82
30
0
11
20.175002
21
-13.237997
31
0
39
0
210
0
220
0
230
1
0
LINE
5
1C2
100
AcDbEntity
8
SK2
62
256
6
ByLayer
370
13
48
1
60
0
100
AcDbLine
10
20.174998
20
-12.402003
30
0
11
20.175002
21
-13.237997
31
0
39
0
210
0
220
0
230
1
0
LINE
5
1C3
100
AcDbEntity
8
SK2
62
256
6
ByLayer
370
13
48
1
60
0
100
AcDbLine
10
73
20
-12.82
30
0
11
69.825002
21
-13.237997
31
0
39
0
210
0
220
0
230
1
0
LINE
5
1C4
100
AcDbEntity
8
SK2
62
256
6
ByLayer
370
13
48
1
60
0
100
AcDbLine
10
73
20
-12.82
30
0
11
69.824998
21
-12.402003
31
0
39
0
210
0
220
0
230
1
0
LINE
5
1C5
100
AcDbEntity
8
SK2
62
256
6
ByLayer
370
13
48
1
60
0
100
AcDbLine
10
69.825002
20
-13.237997
30
0
11
69.824998
21
-12.402003
31
0
39
0
210
0
220
0
230
1
0
ENDBLK
5
1C7
100
AcDbEntity
8
0
100
AcDbBlockEnd
0
BLOCK
5
1CC
100
AcDbEntity
8
0
100
AcDbBlockBegin
2
*D14
70
1
10
0
20
0
30
0
3
*D14
0
LINE
5
1CE
100
AcDbEntity
8
0
62
256
6
ByLayer
370
-2
48
1
60
0
100
AcDbLine
10
-45
20
-1.5875
30
0
11
-45
21
-42.67512
31
0
39
0
210
0
220
0
230
1
0
LINE
5
1CF
100
AcDbEntity
8
0
62
256
6
ByLayer
370
-2
48
1
60
0
100
AcDbLine
10
73
20
-1.5875
30
0
11
73
21
-42.67512
31
0
39
0
210
0
220
0
230
1
0
LINE
5
1D0
100
AcDbEntity
8
0
62
256
6
ByLayer
370
-2
48
1
60
0
100
AcDbLine
10
-41.825
20
-39.50012
30
0
11
69.825
21
-39.50012
31
0
39
0
210
0
220
0
230
1
0
SOLID
5
1D1
100
AcDbEntity
8
0
62
256
6
ByLayer
370
-1
48
1
60
0
100
AcDbTrace
10
-41.825
20
-38.970953
30
0
11
-41.825
21
-40.029287
31
0
12
-45
22
-39.50012
32
0
13
-45
23
-39.50012
33
0
39
0
210
0
220
0
230
1
0
SOLID
5
1D2
100
AcDbEntity
8
0
62
256
6
ByLayer
370
-1
48
1
60
0
100
AcDbTrace
10
69.825
20
-40.029287
30
0
11
69.825
21
-38.970953
31
0
12
73
22
-39.50012
32
0
13
73
23
-39.50012
33
0
39
0
210
0
220
0
230
1
0
MTEXT
5
1D3
100
AcDbEntity
8
0
62
256
6
ByLayer
370
18
48
1
60
0
100
AcDbMText
10
14
20
-32.19362
30
0
210
0
220
0
230
1
1
\A1;118
40
3.50012
41
0
44
1
50
0
71
5
72
5
7
iso_b_vert
0
POINT
5
1D4
100
AcDbEntity
8
Defpoints
62
0
6
ByLayer
370
-1
48
1
60
0
100
AcDbPoint
10
-45
20
0
30
0
39
0
210
0
220
0
230
1
50
360
0
POINT
5
1D5
100
AcDbEntity
8
Defpoints
62
0
6
ByLayer
370
-1
48
1
60
0
100
AcDbPoint
10
73
20
0
30
0
39
0
210
0
220
0
230
1
50
360
0
POINT
5
1D6
100
AcDbEntity
8
Defpoints
62
0
6
ByLayer
370
-1
48
1
60
0
100
AcDbPoint
10
73
20
-39.50012
30
0
39
0
210
0
220
0
230
1
50
360
0
ENDBLK
5
1CD
100
AcDbEntity
8
0
100
AcDbBlockEnd
0
BLOCK
5
1E2
100
AcDbEntity
8
0
100
AcDbBlockBegin
2
_U6
70
0
10
0
20
0
30
0
3
_U6
0
MTEXT
5
1D8
100
AcDbEntity
8
SK2
62
256
6
ByLayer
370
18
48
1
60
0
100
AcDbMText
10
8.337507
20
-38.467451
30
0
210
0
220
0
230
1
1
\W0.6532;118.00
40
3.50012
41
0
44
1.084337
50
0
71
7
72
5
7
iso_b_vert
0
LINE
5
1D9
100
AcDbEntity
8
SK2
62
256
6
ByLayer
370
13
48
1
60
0
100
AcDbLine
10
-45
20
-1.5875
30
0
11
-45
21
-42.67512
31
0
39
0
210
0
220
0
230
1
0
LINE
5
1DA
100
AcDbEntity
8
SK2
62
256
6
ByLayer
370
13
48
1
60
0
100
AcDbLine
10
73
20
-1.5875
30
0
11
73
21
-42.67512
31
0
39
0
210
0
220
0
230
1
0
LINE
5
1DB
100
AcDbEntity
8
SK2
62
256
6
ByLayer
370
13
48
1
60
0
100
AcDbLine
10
-45
20
-39.50012
30
0
11
73
21
-39.50012
31
0
39
0
210
0
220
0
230
1
0
LINE
5
1DC
100
AcDbEntity
8
SK2
62
256
6
ByLayer
370
13
48
1
60
0
100
AcDbLine
10
-45
20
-39.50012
30
0
11
-41.825002
21
-39.082123
31
0
39
0
210
0
220
0
230
1
0
LINE
5
1DD
100
AcDbEntity
8
SK2
62
256
6
ByLayer
370
13
48
1
60
0
100
AcDbLine
10
-45
20
-39.50012
30
0
11
-41.824998
21
-39.918117
31
0
39
0
210
0
220
0
230
1
0
LINE
5
1DE
100
AcDbEntity
8
SK2
62
256
6
ByLayer
370
13
48
1
60
0
100
AcDbLine
10
-41.825002
20
-39.082123
30
0
11
-41.824998
21
-39.918117
31
0
39
0
210
0
220
0
230
1
0
LINE
5
1DF
100
AcDbEntity
8
SK2
62
256
6
ByLayer
370
13
48
1
60
0
100
AcDbLine
10
73
20
-39.50012
30
0
11
69.825002
21
-39.918117
31
0
39
0
210
0
220
0
230
1
0
LINE
5
1E0
100
AcDbEntity
8
SK2
62
256
6
ByLayer
370
13
48
1
60
0
100
AcDbLine
10
73
20
-39.50012
30
0
11
69.824998
21
-39.082123
31
0
39
0
210
0
220
0
230
1
0
LINE
5
1E1
100
AcDbEntity
8
SK2
62
256
6
ByLayer
370
13
48
1
60
0
100
AcDbLine
10
69.825002
20
-39.918117
30
0
11
69.824998
21
-39.082123
31
0
39
0
210
0
220
0
230
1
0
ENDBLK
5
1E3
100
AcDbEntity
8
0
100
AcDbBlockEnd
0
ENDSEC
0
SECTION
2
ENTITIES
0
ARC
5
B1
100
AcDbEntity
8
1
62
256
6
ByLayer
370
18
48
1
60
0
100
AcDbCircle
39
0
10
0.307426
20
6.055908
30
0
40
0.200000000000003
210
0
220
0
230
1
100
AcDbArc
50
219.774721
51
270.03581
0
ARC
5
B2
100
AcDbEntity
8
1
62
256
6
ByLayer
370
18
48
1
60
0
100
AcDbCircle
39
0
10
0.307426
20
-6.055908
30
0
40
0.200000000000003
210
0
220
0
230
1
100
AcDbArc
50
89.96419
51
140.225279
0
ARC
5
B3
100
AcDbEntity
8
1
62
256
6
ByLayer
370
18
48
1
60
0
100
AcDbCircle
39
0
10
0
20
5.8
30
0
40
0.199999999999997
210
0
220
0
230
1
100
AcDbArc
50
39.774721
51
90
0
ARC
5
B4
100
AcDbEntity
8
1
62
256
6
ByLayer
370
18
48
1
60
0
100
AcDbCircle
39
0
10
0
20
-5.8
30
0
40
0.199999999999997
210
0
220
0
230
1
100
AcDbArc
50
270
51
320.225279
0
ARC
5
B5
100
AcDbEntity
8
SK2
62
256
6
ByLayer
370
13
48
1
60
0
100
AcDbCircle
39
0
10
73
20
0
30
0
40
20
210
0
220
0
230
1
100
AcDbArc
50
9.606349
51
70.000209
0
ARC
5
B6
100
AcDbEntity
8
SK2
62
256
6
ByLayer
370
13
48
1
60
0
100
AcDbCircle
39
0
10
73
20
0
30
0
40
20
210
0
220
0
230
1
100
AcDbArc
50
289.999791
51
350.393651
0
ELLIPSE
5
B7
100
AcDbEntity
8
1
62
256
6
ByLayer
370
18
48
1
60
0
100
AcDbEllipse
10
3.60178
20
-5.277768
30
0
11
-0.00170899076715124
21
-0.00985288539250264
31
0
210
0
220
0
230
1
40
0.447256
41
-2.77439866512784
42
-1.20441263255884
0
ELLIPSE
5
B8
100
AcDbEntity
8
1
62
256
6
ByLayer
370
18
48
1
60
0
100
AcDbEllipse
10
3.644629
20
0.53316
30
0
11
-0.00475297032712779
21
-0.00879825397845748
31
0
210
0
220
0
230
1
40
0.051185
41
1.48960687997929
42
3.05599735587094
0
ELLIPSE
5
B9
100
AcDbEntity
8
1
62
256
6
ByLayer
370
18
48
1
60
0
100
AcDbEllipse
10
3.602248
20
0.543999
30
0
11
5.84219613187457E-05
21
0.00999982934226558
31
0
210
0
220
0
230
1
40
0.007109
41
-1.66847742836595
42
-0.0973209360255046
0
ELLIPSE
5
BA
100
AcDbEntity
8
1
62
256
6
ByLayer
370
18
48
1
60
0
100
AcDbEllipse
10
3.559057
20
-5.280512
30
0
11
-0.00316689941523509
21
0.00948529114438685
31
0
210
0
220
0
230
1
40
0.54322
41
0.347927017065053
42
1.691463116073
0
POINT
5
70
100
AcDbEntity
8
80
62
256
6
ByLayer
370
18
48
1
60
0
100
AcDbPoint
10
0
20
0
30
0
39
0
210
0
220
0
230
1
50
360
0
POINT
5
72
100
AcDbEntity
8
81
62
256
6
ByLayer
370
18
48
1
60
0
100
AcDbPoint
10
73
20
0
30
0
39
0
210
0
220
0
230
1
50
360
0
POINT
5
74
100
AcDbEntity
8
1
62
256
6
ByLayer
370
18
48
1
60
0
100
AcDbPoint
10
-45
20
0
30
0
39
0
210
0
220
0
230
1
50
360
0
POINT
5
76
100
AcDbEntity
8
1
62
256
6
ByLayer
370
18
48
1
60
1
100
AcDbPoint
10
0
20
-6
30
0
39
0
210
0
220
0
230
1
50
360
0
POINT
5
77
100
AcDbEntity
8
1
62
256
6
ByLayer
370
18
48
1
60
1
100
AcDbPoint
10
73
20
0
30
0
39
0
210
0
220
0
230
1
50
360
0
POINT
5
78
100
AcDbEntity
8
1
62
256
6
ByLayer
370
18
48
1
60
1
100
AcDbPoint
10
70.8526
20
-5.9
30
0
39
0
210
0
220
0
230
1
50
360
0
POINT
5
79
100
AcDbEntity
8
1
62
256
6
ByLayer
370
18
48
1
60
1
100
AcDbPoint
10
70.8526
20
5.9
30
0
39
0
210
0
220
0
230
1
50
360
0
POINT
5
7A
100
AcDbEntity
8
1
62
256
6
ByLayer
370
18
48
1
60
1
100
AcDbPoint
10
-45
20
6
30
0
39
0
210
0
220
0
230
1
50
360
0
POINT
5
7B
100
AcDbEntity
8
1
62
256
6
ByLayer
370
18
48
1
60
1
100
AcDbPoint
10
-45
20
-6
30
0
39
0
210
0
220
0
230
1
50
360
0
POINT
5
7C
100
AcDbEntity
8
1
62
256
6
ByLayer
370
18
48
1
60
1
100
AcDbPoint
10
-45
20
-6
30
0
39
0
210
0
220
0
230
1
50
360
0
POINT
5
7D
100
AcDbEntity
8
1
62
256
6
ByLayer
370
18
48
1
60
1
100
AcDbPoint
10
0
20
-6
30
0
39
0
210
0
220
0
230
1
50
360
0
POINT
5
7E
100
AcDbEntity
8
1
62
256
6
ByLayer
370
18
48
1
60
1
100
AcDbPoint
10
2
20
6.4
30
0
39
0
210
0
220
0
230
1
50
360
0
POINT
5
7F
100
AcDbEntity
8
1
62
256
6
ByLayer
370
18
48
1
60
1
100
AcDbPoint
10
73
20
0
30
0
39
0
210
0
220
0
230
1
50
360
0
POINT
5
80
100
AcDbEntity
8
1
62
256
6
ByLayer
370
18
48
1
60
1
100
AcDbPoint
10
17
20
-5.9
30
0
39
0
210
0
220
0
230
1
50
360
0
POINT
5
81
100
AcDbEntity
8
1
62
256
6
ByLayer
370
18
48
1
60
1
100
AcDbPoint
10
73
20
0
30
0
39
0
210
0
220
0
230
1
50
360
0
POINT
5
82
100
AcDbEntity
8
1
62
256
6
ByLayer
370
18
48
1
60
1
100
AcDbPoint
10
-45
20
0
30
0
39
0
210
0
220
0
230
1
50
360
0
POINT
5
83
100
AcDbEntity
8
1
62
256
6
ByLayer
370
18
48
1
60
1
100
AcDbPoint
10
73
20
0
30
0
39
0
210
0
220
0
230
1
50
360
0
SPLINE
5
BB
100
AcDbEntity
8
1
62
256
6
ByLayer
370
18
48
1
60
0
100
AcDbSpline
70
4
71
3
72
8
73
4
40
0
40
0
40
0
40
0
40
1
40
1
40
1
40
1
41
1
10
70.8944872131145
20
-5.56532356193381
30
0
41
1
10
70.8853023277601
20
-5.59183387974082
30
0
41
1
10
70.8761601234696
20
-5.61834286995858
30
0
41
1
10
70.8670614795544
20
-5.64485081629857
30
0
0
SPLINE
5
BC
100
AcDbEntity
8
1
62
256
6
ByLayer
370
18
48
1
60
0
100
AcDbSpline
70
4
71
3
72
12
73
8
40
0
40
0
40
0
40
0
40
0.499999999999996
40
0.499999999999996
40
0.749999999999998
40
0.749999999999998
40
1
40
1
40
1
40
1
41
1
10
3.50166215220452
20
0.463102950483091
30
0
41
1
10
3.50166215220449
20
0.481580086051963
30
0
41
1
10
3.50936106324099
20
0.500149304777125
30
0
41
1
10
3.53466975530867
20
0.523366931141027
30
0
41
1
10
3.54542508130643
20
0.530222560973243
30
0
41
1
10
3.57148086637403
20
0.540176779931386
30
0
41
1
10
3.58666682709958
20
0.543104480473801
30
0
41
1
10
3.60231268326569
20
0.543023370251575
30
0
0
SPLINE
5
BD
100
AcDbEntity
8
1
62
256
6
ByLayer
370
18
48
1
60
0
100
AcDbSpline
70
4
71
3
72
24
73
20
40
0
40
0
40
0
40
0
40
0.0351666988392519
40
0.0351666988392519
40
0.0703333976785037
40
0.0703333976785037
40
0.140666795357004
40
0.140666795357004
40
0.281333590714007
40
0.281333590714007
40
0.562667181428011
40
0.562667181428011
40
0.633000579106511
40
0.633000579106511
40
0.703333976785012
40
0.703333976785012
40
0.844000772142015
40
0.844000772142015
40
1
40
1
40
1
40
1
41
1
10
70.8944872131148
20
-5.56532356193389
30
0
41
1
10
70.7180300530055
20
-5.55218522993033
30
0
41
1
10
70.5416174736644
20
-5.5374083424845
30
0
41
1
10
70.1888532409197
20
-5.50236722996621
30
-1E-16
41
1
10
70.0124916765829
20
-5.48245881880382
30
-1E-16
41
1
10
69.4833267600316
20
-5.41561028447734
30
1E-16
41
1
10
69.1300970812506
20
-5.36147076267503
30
1E-16
41
1
10
68.0712806686037
20
-5.1716555130611
30
-1E-16
41
1
10
67.3708389312563
20
-5.00944296022033
30
-1E-16
41
1
10
65.2768434377251
20
-4.42761528376525
30
-2E-16
41
1
10
63.8897072525223
20
-3.91164557656055
30
2E-16
41
1
10
62.1361511195854
20
-3.14533108219922
30
2E-16
41
1
10
61.7844150068107
20
-2.98602030652577
30
2E-16
41
1
10
61.0781245337026
20
-2.65629999066337
30
2E-16
41
1
10
60.7259028840871
20
-2.48695360221174
30
2E-16
41
1
10
59.6731266148636
20
-1.96900118797808
30
1E-16
41
1
10
58.9753548156406
20
-1.6100601670756
30
1E-16
41
1
10
57.505621183613
20
-0.836947954413716
30
1E-16
41
1
10
56.7340663909541
20
-0.420651567298108
30
0
41
1
10
55.9594175461692
20
-0.0028018338171307
30
0
0
SPLINE
5
BE
100
AcDbEntity
8
1
62
256
6
ByLayer
370
18
48
1
60
0
100
AcDbSpline
70
4
71
3
72
12
73
8
40
0
40
0
40
0
40
0
40
0.409503107395222
40
0.409503107395222
40
0.70475155369761
40
0.70475155369761
40
1
40
1
40
1
40
1
41
1
10
7.17733650000128
20
-5.57431101440537
30
0
41
1
10
6.69230782155026
20
-5.57895567662396
30
0
41
1
10
6.20614783220594
20
-5.56540752806535
30
0
41
1
10
5.36560092057007
20
-5.51047372141952
30
0
41
1
10
5.01169081062778
20
-5.4777539886513
30
-1E-16
41
1
10
4.30433968894337
20
-5.39332751001155
30
1E-16
41
1
10
3.95080380216723
20
-5.34165407082656
30
1E-16
41
1
10
3.59705308883227
20
-5.28058395441997
30
1E-16
0
SPLINE
5
BF
100
AcDbEntity
8
1
62
256
6
ByLayer
370
18
48
1
60
0
100
AcDbSpline
70
4
71
3
72
8
73
4
40
0
40
0
40
0
40
0
40
1
40
1
40
1
40
1
41
1
10
70.5625934876942
20
-5.81951744642001
30
0
41
1
10
70.6637891256995
20
-5.76260491708703
30
0
41
1
10
70.7652617238909
20
-5.70436998963376
30
0
41
1
10
70.8670614795544
20
-5.64485081629857
30
0
0
SPLINE
5
C0
100
AcDbEntity
8
1
62
256
6
ByLayer
370
18
48
1
60
0
100
AcDbSpline
70
4
71
3
72
10
73
6
40
0
40
0
40
0
40
0
40
0.5
40
0.5
40
1
40
1
40
1
40
1
41
1
10
72.4970163090893
20
1.77788514188941
30
0
41
1
10
72.3391730057827
20
1.73567800135558
30
0
41
1
10
72.1801789529623
20
1.70090462579972
30
0
41
1
10
71.860776473413
20
1.64049463564135
30
0
41
1
10
71.7003586224862
20
1.61491890072873
30
0
41
1
10
71.5394708916587
20
1.59237855858169
30
0
0
SPLINE
5
C1
100
AcDbEntity
8
1
62
256
6
ByLayer
370
18
48
1
60
0
100
AcDbSpline
70
4
71
3
72
74
73
70
40
0
40
0
40
0
40
0
40
0.0114041586071089
40
0.0114041586071089
40
0.0403519361657745
40
0.0403519361657745
40
0.06929971372444
40
0.06929971372444
40
0.0982474912831055
40
0.0982474912831055
40
0.127195268841771
40
0.127195268841771
40
0.156143046400436
40
0.156143046400436
40
0.185090823959102
40
0.185090823959102
40
0.214038601517767
40
0.214038601517767
40
0.242986379076433
40
0.242986379076433
40
0.271934156635099
40
0.271934156635099
40
0.300881934193764
40
0.300881934193764
40
0.32982971175243
40
0.32982971175243
40
0.358777489311095
40
0.358777489311095
40
0.387725266869761
40
0.387725266869761
40
0.416673044428426
40
0.416673044428426
40
0.445620821987092
40
0.445620821987092
40
0.474568599545757
40
0.474568599545757
40
0.503516377104423
40
0.503516377104423
40
0.532464154663089
40
0.532464154663089
40
0.561411932221754
40
0.561411932221754
40
0.59035970978042
40
0.59035970978042
40
0.648255264897751
40
0.648255264897751
40
0.677203042456416
40
0.677203042456416
40
0.706150820015081
40
0.706150820015081
40
0.735098597573746
40
0.735098597573746
40
0.749572486353079
40
0.749572486353079
40
0.764046375132412
40
0.764046375132412
40
0.821941930249742
40
0.821941930249742
40
0.879837485367072
40
0.879837485367072
40
0.908785262925737
40
0.908785262925737
40
0.937733040484403
40
0.937733040484403
40
0.966680818043068
40
0.966680818043068
40
0.995628595601733
40
0.995628595601733
40
1
40
1
40
1
40
1
41
1
10
17.7589355750981
20
5.58691576301482
30
1E-16
41
1
10
17.8945513854522
20
5.61035432855323
30
1E-16
41
1
10
18.0302347723643
20
5.63238380300413
30
1E-16
41
1
10
18.5106415628967
20
5.70529085332555
30
1E-16
41
1
10
18.8560830002253
20
5.74829815731957
30
1E-16
41
1
10
19.5488160988028
20
5.81537982859473
30
0
41
1
10
19.8964179853962
20
5.8394592542777
30
0
41
1
10
20.5932170742316
20
5.86776468867447
30
0
41
1
10
20.9411371639969
20
5.87203359576111
30
0
41
1
10
21.6360686526683
20
5.86094460591553
30
0
41
1
10
21.9829670838499
20
5.84551899205655
30
0
41
1
10
22.6777509008427
20
5.79521567584413
30
0
41
1
10
23.0254963736744
20
5.76036625132679
30
1E-16
41
1
10
23.7217790466287
20
5.67115467113558
30
1E-16
41
1
10
24.0700694503858
20
5.61668245945231
30
1E-16
41
1
10
24.7655531563097
20
5.48967475802399
30
1E-16
41
1
10
25.1130314365112
20
5.41703419305421
30
1E-16
41
1
10
25.8075549617369
20
5.25356279361694
30
1E-16
41
1
10
26.1545042320456
20
5.1625993286884
30
1E-16
41
1
10
26.8501359494239
20
4.96414590340484
30
1E-16
41
1
10
27.1992347674077
20
4.85620416261875
30
1E-16
41
1
10
27.8943168041494
20
4.62466810108756
30
2E-16
41
1
10
28.2401871362793
20
4.5008993533001
30
2E-16
41
1
10
28.9311726325505
20
4.24065446990906
30
-3E-16
41
1
10
29.2759702263673
20
4.10383427220052
30
-3E-16
41
1
10
29.9641752628462
20
3.81690164295253
30
-2E-16
41
1
10
30.3074709592641
20
3.66659825372855
30
-2E-16
41
1
10
30.9947522466582
20
3.35558768946285
30
-2E-16
41
1
10
31.3384750357769
20
3.19453887531464
30
-2E-16
41
1
10
32.0261910368008
20
2.86145134910089
30
-2E-16
41
1
10
32.3702826676417
20
2.68954154806585
30
-2E-16
41
1
10
33.0603920599529
20
2.33724315183827
30
-1E-16
41
1
10
33.4063601039621
20
2.15679846474168
30
-1E-16
41
1
10
34.1001687102435
20
1.78716184661943
30
-1E-16
41
1
10
34.4487793634617
20
1.59781620032476
30
-1E-16
41
1
10
35.1446147347669
20
1.21614306144178
30
-1E-16
41
1
10
35.4921390880151
20
1.02346919249706
30
-1E-16
41
1
10
36.1864181730541
20
0.634480754289086
30
0
41
1
10
36.5333191659892
20
0.438417931584354
30
0
41
1
10
37.2283006786566
20
0.0460931095747981
30
0
41
1
10
37.5763213667595
20
-0.150644112539737
30
0
41
1
10
38.2727209816093
20
-0.544258141138727
30
0
41
1
10
38.6194616556905
20
-0.739773493309229
30
0
41
1
10
39.6572638975939
20
-1.31907727650503
30
1E-16
41
1
10
40.3447704231501
20
-1.69768107881225
30
1E-16
41
1
10
41.3757079457659
20
-2.2436971476167
30
1E-16
41
1
10
41.7192639345209
20
-2.42213416715174
30
1E-16
41
1
10
42.406286743824
20
-2.77167354012101
30
2E-16
41
1
10
42.7501026104743
20
-2.94220092738155
30
2E-16
41
1
10
43.4392635544471
20
-3.27329339720797
30
2E-16
41
1
10
43.7845493419436
20
-3.43395992828212
30
2E-16
41
1
10
44.303653794471
20
-3.6673408135629
30
2E-16
41
1
10
44.4769424536275
20
-3.74377602587967
30
2E-16
41
1
10
44.8242917893569
20
-3.89353038604645
30
2E-16
41
1
10
44.9985624475826
20
-3.96698224734658
30
2E-16
41
1
10
45.8685672363889
20
-4.32511401185917
30
3E-16
41
1
10
46.558547855051
20
-4.58289842144657
30
-2E-16
41
1
10
47.9352287931213
20
-5.03269181422601
30
-1E-16
41
1
10
48.6207718860233
20
-5.22588269872784
30
-1E-16
41
1
10
49.6517727258395
20
-5.46227216858725
30
-1E-16
41
1
10
49.9957378297912
20
-5.53233420582842
30
-1E-16
41
1
10
50.6843725035747
20
-5.65463320868412
30
-1E-16
41
1
10
51.0294820016418
20
-5.70659850036731
30
-1E-16
41
1
10
51.7221672451227
20
-5.79158599979007
30
-1E-16
41
1
10
52.0701887598625
20
-5.82472911897781
30
0
41
1
10
52.7657122211046
20
-5.87137888558067
30
0
41
1
10
53.1130093706043
20
-5.88474923143681
30
0
41
1
10
53.5127658797977
20
-5.88882104769726
30
0
41
1
10
53.5652053024678
20
-5.88913071935732
30
0
41
1
10
53.6176387920462
20
-5.88921596123927
30
0
0
SPLINE
5
C2
100
AcDbEntity
8
1
62
256
6
ByLayer
370
18
48
1
60
0
100
AcDbSpline
70
4
71
3
72
52
73
48
40
0
40
0
40
0
40
0
40
0.0223585197233168
40
0.0223585197233168
40
0.0572742868760565
40
0.0572742868760565
40
0.0921900540287963
40
0.0921900540287963
40
0.162021588334275
40
0.162021588334275
40
0.196937355487014
40
0.196937355487014
40
0.231853122639753
40
0.231853122639753
40
0.266768889792492
40
0.266768889792492
40
0.301684656945231
40
0.301684656945231
40
0.371516191250708
40
0.371516191250708
40
0.406431958403447
40
0.406431958403447
40
0.441347725556185
40
0.441347725556185
40
0.476263492708924
40
0.476263492708924
40
0.511179259861663
40
0.511179259861663
40
0.546095027014401
40
0.546095027014401
40
0.58101079416714
40
0.58101079416714
40
0.650842328472617
40
0.650842328472617
40
0.720673862778094
40
0.720673862778094
40
0.755589629930833
40
0.755589629930833
40
0.790505397083572
40
0.790505397083572
40
0.860336931389048
40
0.860336931389048
40
0.895252698541786
40
0.895252698541786
40
0.930168465694524
40
0.930168465694524
40
1
40
1
40
1
40
1
41
1
10
30.3247726171408
20
4.28097993479616
30
-2E-16
41
1
10
30.6248828780599
20
4.39732818643975
30
-1E-16
41
1
10
30.9250072511215
20
4.50833630439459
30
-1E-16
41
1
10
31.6938941734354
20
4.77781489511045
30
2E-16
41
1
10
32.1630263352524
20
4.92813601582102
30
1E-16
41
1
10
33.1008005788976
20
5.19771066749706
30
1E-16
41
1
10
33.5691021453372
20
5.31689008782723
30
1E-16
41
1
10
34.9753208667872
20
5.62519069105375
30
1E-16
41
1
10
35.9124903400305
20
5.76425376189246
30
1E-16
41
1
10
37.3190492786252
20
5.86551089949029
30
0
41
1
10
37.788044600909
20
5.88144063777392
30
0
41
1
10
38.7254915541256
20
5.87735647987822
30
0
41
1
10
39.1937180264967
20
5.85738327501554
30
0
41
1
10
40.1312027346718
20
5.78182715167259
30
1E-16
41
1
10
40.5997615578857
20
5.72627335276306
30
1E-16
41
1
10
41.5367101753686
20
5.58064966526319
30
1E-16
41
1
10
42.0056445304619
20
5.49047355762011
30
1E-16
41
1
10
43.4109357470904
20
5.1709005216041
30
1E-16
41
1
10
44.3485779004414
20
4.89156663843784
30
1E-16
41
1
10
45.7550334011464
20
4.38848653008878
30
2E-16
41
1
10
46.2239215374113
20
4.2068104473463
30
-3E-16
41
1
10
47.1609708385481
20
3.8191887056926
30
-2E-16
41
1
10
47.6291169611151
20
3.61328427929513
30
-2E-16
41
1
10
48.5667153669993
20
3.18007103328685
30
-2E-16
41
1
10
49.0355374969009
20
2.95301697449125
30
-2E-16
41
1
10
49.9724225032061
20
2.48257674666033
30
-2E-16
41
1
10
50.4405852928451
20
2.23916500916809
30
-1E-16
41
1
10
51.3780459657222
20
1.73954959816092
30
-1E-16
41
1
10
51.8461186394968
20
1.48399394273034
30
-1E-16
41
1
10
52.7830187229513
20
0.964919740290014
30
-1E-16
41
1
10
53.2516986687058
20
0.701487951983637
30
0
41
1
10
54.6566269659026
20
-0.0922199889291448
30
0
41
1
10
55.5944603969363
20
-0.62754989997174
30
0
41
1
10
57.467494882307
20
-1.66912279535038
30
1E-16
41
1
10
58.4052160070959
20
-2.17653770195105
30
1E-16
41
1
10
59.8099515751597
20
-2.88821783710236
30
2E-16
41
1
10
60.2787018304926
20
-3.1176152076271
30
2E-16
41
1
10
61.2151842315753
20
-3.55564674681153
30
2E-16
41
1
10
61.683511521796
20
-3.76458419607289
30
2E-16
41
1
10
63.0891307280247
20
-4.35548501890494
30
3E-16
41
1
10
64.0257098797278
20
-4.70066581969013
30
-2E-16
41
1
10
65.4307154289158
20
-5.12713245466898
30
-1E-16
41
1
10
65.8985906750951
20
-5.25398995382218
30
-1E-16
41
1
10
66.8355444492629
20
-5.47529235049024
30
-1E-16
41
1
10
67.3041315429534
20
-5.56959504495956
30
-1E-16
41
1
10
68.7095422924307
20
-5.80078003864287
30
-1E-16
41
1
10
69.6464235571232
20
-5.88568797481085
30
0
41
1
10
70.5829560115846
20
-5.89831649446774
30
0
0
SPLINE
5
C3
100
AcDbEntity
8
1
62
256
6
ByLayer
370
18
48
1
60
0
100
AcDbSpline
70
4
71
3
72
8
73
4
40
0
40
0
40
0
40
0
40
1
40
1
40
1
40
1
41
1
10
72.9945592206246
20
0.325735194142794
30
0
41
1
10
73.0018194432082
20
0.108403277521575
30
0
41
1
10
73.0018077524231
20
-0.108753236581663
30
0
41
1
10
72.994559220625
20
-0.325735194131255
30
0
0
SPLINE
5
C4
100
AcDbEntity
8
1
62
256
6
ByLayer
370
18
48
1
60
0
100
AcDbSpline
70
2053
71
3
72
62
73
58
40
0
40
0
40
0
40
0
40
0.0625000000000001
40
0.0625000000000001
40
0.125
40
0.125
40
0.1875
40
0.1875
40
0.250000000000001
40
0.250000000000001
40
0.281250000000001
40
0.281250000000001
40
0.312500000000001
40
0.312500000000001
40
0.343750000000001
40
0.343750000000001
40
0.375000000000001
40
0.375000000000001
40
0.40625
40
0.40625
40
0.4375
40
0.4375
40
0.46875
40
0.46875
40
0.5
40
0.5
40
0.53125
40
0.53125
40
0.5625
40
0.5625
40
0.59375
40
0.59375
40
0.625
40
0.625
40
0.65625
40
0.65625
40
0.6875
40
0.6875
40
0.71875
40
0.71875
40
0.75
40
0.75
40
0.78125
40
0.78125
40
0.8125
40
0.8125
40
0.84375
40
0.84375
40
0.875
40
0.875
40
0.90625
40
0.90625
40
0.9375
40
0.9375
40
0.96875
40
0.96875
40
1
40
1
40
1
40
1
41
1
10
71.4026151454195
20
-2.41410830176279
30
1E-16
41
1
10
71.3599894617356
20
-2.46226471620904
30
2E-16
41
1
10
71.3203108485365
20
-2.49129314104556
30
2E-16
41
1
10
71.2446867407299
20
-2.5125942440946
30
2E-16
41
1
10
71.2107672904355
20
-2.50423689418986
30
2E-16
41
1
10
71.1484804795329
20
-2.44881134656998
30
1E-16
41
1
10
71.1217827679393
20
-2.40328286533867
30
1E-16
41
1
10
71.076187039584
20
-2.27443097587442
30
1E-16
41
1
10
71.058525126512
20
-2.19471078546496
30
1E-16
41
1
10
71.0410956193811
20
-2.05047300610343
30
1E-16
41
1
10
71.0370478755287
20
-1.99974426560956
30
1E-16
41
1
10
71.0328468510409
20
-1.89346715010333
30
1E-16
41
1
10
71.0327023456856
20
-1.83716708583401
30
1E-16
41
1
10
71.0371867085532
20
-1.72187220011776
30
1E-16
41
1
10
71.0417246187099
20
-1.66401106100184
30
1E-16
41
1
10
71.0559918301897
20
-1.54789451638635
30
1E-16
41
1
10
71.0658899151665
20
-1.48927045159005
30
1E-16
41
1
10
71.0903838389391
20
-1.37867421976276
30
1E-16
41
1
10
71.1052478923442
20
-1.32525800389263
30
1E-16
41
1
10
71.1393073452751
20
-1.22614362788696
30
1E-16
41
1
10
71.1582123854319
20
-1.18103804302845
30
1E-16
41
1
10
71.1995898922181
20
-1.09899466599839
30
1E-16
41
1
10
71.2217652137933
20
-1.06276201659824
30
1E-16
41
1
10
71.2676682173104
20
-1.00037630157831
30
1E-16
41
1
10
71.2917666898053
20
-0.973768191849814
30
1E-16
41
1
10
71.3401976880737
20
-0.930645658510116
30
1E-16
41
1
10
71.3646086735008
20
-0.913932740288828
30
1E-16
41
1
10
71.4136057857598
20
-0.889353170858129
30
1E-16
41
1
10
71.4381175438762
20
-0.881604198201245
30
1E-16
41
1
10
71.4856811417526
20
-0.874886193843878
30
1E-16
41
1
10
71.5089187902142
20
-0.875816842715864
30
1E-16
41
1
10
71.554075132544
20
-0.886170046601023
30
1E-16
41
1
10
71.5759138980129
20
-0.895657983239346
30
1E-16
41
1
10
71.6166599628336
20
-0.922678840294822
30
1E-16
41
1
10
71.6357478857199
20
-0.940235244353232
30
1E-16
41
1
10
71.6709799052414
20
-0.983967442334603
30
1E-16
41
1
10
71.6872299808914
20
-1.01044814673128
30
1E-16
41
1
10
71.7151409122451
20
-1.07128080884564
30
1E-16
41
1
10
71.726934676161
20
-1.10567606786952
30
1E-16
41
1
10
71.7455826307721
20
-1.18346665812751
30
1E-16
41
1
10
71.7523498737586
20
-1.22696198165244
30
1E-16
41
1
10
71.7596626241454
20
-1.32014996192132
30
1E-16
41
1
10
71.7602982642269
20
-1.37091877948384
30
1E-16
41
1
10
71.7549987254251
20
-1.47750015062843
30
1E-16
41
1
10
71.7491863645789
20
-1.53249178618253
30
1E-16
41
1
10
71.7313830226623
20
-1.64606793837709
30
1E-16
41
1
10
71.7193212326129
20
-1.70446968559801
30
1E-16
41
1
10
71.6907689581273
20
-1.81812412040378
30
-1E-16
41
1
10
71.6739001708773
20
-1.87494142947122
30
-1E-16
41
1
10
71.6373382947898
20
-1.9828336501848
30
-1E-16
41
1
10
71.6176588405954
20
-2.03411975270976
30
-1E-16
41
1
10
71.5759879239759
20
-2.13163120578895
30
-1E-16
41
1
10
71.5546634163796
20
-2.17630511100538
30
-1E-16
41
1
10
71.5112845976608
20
-2.25839581337428
30
-1E-16
41
1
10
71.489096126307
20
-2.29593772823253
30
1E-16
41
1
10
71.4455368717998
20
-2.36153395123907
30
1E-16
41
1
10
71.4239279872615
20
-2.39003009453967
30
1E-16
41
1
10
71.4026151454196
20
-2.41410830176279
30
1E-16
0
SPLINE
5
C5
100
AcDbEntity
8
1
62
256
6
ByLayer
370
18
48
1
60
0
100
AcDbSpline
70
4
71
3
72
40
73
36
40
0
40
0
40
0
40
0
40
0.0423034181871403
40
0.0423034181871403
40
0.103871817042101
40
0.103871817042101
40
0.165440215897063
40
0.165440215897063
40
0.227008614752024
40
0.227008614752024
40
0.288577013606985
40
0.288577013606985
40
0.350145412461947
40
0.350145412461947
40
0.411713811316908
40
0.411713811316908
40
0.473282210171869
40
0.473282210171869
40
0.534850609026831
40
0.534850609026831
40
0.596419007881792
40
0.596419007881792
40
0.657987406736753
40
0.657987406736753
40
0.719555805591715
40
0.719555805591715
40
0.781124204446676
40
0.781124204446676
40
0.842692603301637
40
0.842692603301637
40
0.904261002156598
40
0.904261002156598
40
0.96582940101156
40
0.96582940101156
40
1
40
1
40
1
40
1
41
1
10
37.6946306635983
20
-0.217917472118501
30
0
41
1
10
37.4548686581227
20
-0.0891932053092148
30
0
41
1
10
37.2144761763094
20
0.0398983218082378
30
0
41
1
10
36.6240389358108
20
0.356659919816764
30
0
41
1
10
36.2746198103046
20
0.54424469283461
30
0
41
1
10
35.5756467572971
20
0.916910758822809
30
-1E-16
41
1
10
35.2257195351465
20
1.101675018745
30
-1E-16
41
1
10
34.5256625104762
20
1.46736321320526
30
-1E-16
41
1
10
34.1772521293137
20
1.64745810922403
30
-1E-16
41
1
10
33.4821343901682
20
2.0003881251902
30
-1E-16
41
1
10
33.1352644721688
20
2.1731574265373
30
-1E-16
41
1
10
32.4429336832904
20
2.51044851996747
30
-2E-16
41
1
10
32.0975365775408
20
2.67495561347639
30
-2E-16
41
1
10
31.4069214993744
20
2.99432334323583
30
-2E-16
41
1
10
31.0616206234625
20
3.1492001155909
30
-2E-16
41
1
10
30.3708144769331
20
3.44818500358002
30
-2E-16
41
1
10
30.0255260338124
20
3.59215110524116
30
-2E-16
41
1
10
29.3333204345754
20
3.86835514859624
30
-2E-16
41
1
10
28.9864808712165
20
4.00059067214218
30
2E-16
41
1
10
28.2911105050531
20
4.25176486927293
30
2E-16
41
1
10
27.9427381325549
20
4.37032505534049
30
2E-16
41
1
10
27.2429004748309
20
4.59370266907547
30
2E-16
41
1
10
26.8935085741996
20
4.69785430044766
30
2E-16
41
1
10
26.1975618457526
20
4.88896318121115
30
1E-16
41
1
10
25.8510536826231
20
4.97545199496096
30
1E-16
41
1
10
25.1585808561763
20
5.13235412041425
30
1E-16
41
1
10
24.8127146189894
20
5.20263711652913
30
1E-16
41
1
10
24.121712103889
20
5.32520474101014
30
-1E-16
41
1
10
23.7767205397709
20
5.37701119364573
30
-1E-16
41
1
10
23.0859528025869
20
5.46389434960329
30
1E-16
41
1
10
22.7402475023549
20
5.49882055903103
30
0
41
1
10
22.0480408498967
20
5.54963339379148
30
0
41
1
10
21.7016106348353
20
5.5650538305905
30
0
41
1
10
21.1611905584614
20
5.57573168652542
30
0
41
1
10
20.9679843674557
20
5.57684722051084
30
0
41
1
10
20.7744278789169
20
5.57505888930694
30
0
0
SPLINE
5
C6
100
AcDbEntity
8
1
62
256
6
ByLayer
370
18
48
1
60
0
100
AcDbSpline
70
4
71
3
72
32
73
28
40
0
40
0
40
0
40
0
40
0.0441205160390465
40
0.0441205160390465
40
0.106702651166024
40
0.106702651166024
40
0.169284786293002
40
0.169284786293002
40
0.294449056546959
40
0.294449056546959
40
0.357031191673937
40
0.357031191673937
40
0.419613326800915
40
0.419613326800915
40
0.544777597054872
40
0.544777597054872
40
0.669941867308829
40
0.669941867308829
40
0.732524002435808
40
0.732524002435808
40
0.763815069999297
40
0.763815069999297
40
0.795106137562786
40
0.795106137562786
40
0.920270407816746
40
0.920270407816746
40
1
40
1
40
1
40
1
41
1
10
40.1258754370828
20
-5.58953991494755
30
0
41
1
10
39.8786018684462
20
-5.59576637008078
30
0
41
1
10
39.6308467451004
20
-5.59724576542541
30
0
41
1
10
39.0301305663873
20
-5.58908583103522
30
0
41
1
10
38.6762590546541
20
-5.57461191482989
30
0
41
1
10
37.9697992844283
20
-5.5266139502867
30
0
41
1
10
37.6166534151935
20
-5.49297003995804
30
-1E-16
41
1
10
36.5561850028071
20
-5.36329539927482
30
1E-16
41
1
10
35.8508153898519
20
-5.23949976418172
30
1E-16
41
1
10
34.7907453342264
20
-5.00018436708265
30
-1E-16
41
1
10
34.4375354108288
20
-4.91163931879512
30
-1E-16
41
1
10
33.7343993190761
20
-4.71896911520423
30
-2E-16
41
1
10
33.3839067034377
20
-4.61463167301139
30
-2E-16
41
1
10
32.3344299229468
20
-4.27928655910105
30
-2E-16
41
1
10
31.6376303152614
20
-4.02622507398056
30
-2E-16
41
1
10
30.2429012180238
20
-3.46898961153067
30
2E-16
41
1
10
29.5453785225511
20
-3.16502113631961
30
2E-16
41
1
10
28.493444206509
20
-2.67750116916312
30
2E-16
41
1
10
28.1419366501661
20
-2.50979096624539
30
2E-16
41
1
10
27.6127422428376
20
-2.2512373446707
30
1E-16
41
1
10
27.4357828257493
20
-2.16377019050654
30
1E-16
41
1
10
27.0827326406305
20
-1.98744270876475
30
1E-16
41
1
10
26.9065447555882
20
-1.89854074150392
30
1E-16
41
1
10
26.0269493798548
20
-1.45097513683638
30
1E-16
41
1
10
25.3278331645023
20
-1.08270132419014
30
1E-16
41
1
10
24.1852160916571
20
-0.473706735203422
30
0
41
1
10
23.7412016306029
20
-0.234941816828467
30
0
41
1
10
23.2968765482723
20
0.0038798057864824
30
0
0
SPLINE
5
C7
100
AcDbEntity
8
1
62
256
6
ByLayer
370
18
48
1
60
0
100
AcDbSpline
70
4
71
3
72
30
73
26
40
0
40
0
40
0
40
0
40
0.125
40
0.125
40
0.1875
40
0.1875
40
0.25
40
0.25
40
0.375
40
0.375
40
0.4375
40
0.4375
40
0.5
40
0.5
40
0.625
40
0.625
40
0.6875
40
0.6875
40
0.75
40
0.75
40
0.875
40
0.875
40
0.9375
40
0.9375
40
1
40
1
40
1
40
1
41
1
10
70.224659411951
20
-0.152150107976496
30
0
41
1
10
70.2382521938378
20
-0.485253490810578
30
0
41
1
10
70.2651396683507
20
-0.811393325467719
30
0
41
1
10
70.3158452858516
20
-1.2915484708349
30
1E-16
41
1
10
70.3345132382168
20
-1.45007787926426
30
1E-16
41
1
10
70.3741274223974
20
-1.76418185958605
30
1E-16
41
1
10
70.3951710980274
20
-1.9204346215258
30
1E-16
41
1
10
70.4593395395503
20
-2.37961127282054
30
1E-16
41
1
10
70.5030556930674
20
-2.67105447533618
30
2E-16
41
1
10
70.5648979624351
20
-3.08739342260051
30
2E-16
41
1
10
70.584917514701
20
-3.2226759696112
30
2E-16
41
1
10
70.6232008499849
20
-3.48614083049321
30
2E-16
41
1
10
70.6415339399875
20
-3.61485072029663
30
2E-16
41
1
10
70.6924252087696
20
-3.98329596494824
30
-2E-16
41
1
10
70.7210405889537
20
-4.20717585601918
30
-2E-16
41
1
10
70.7566792023536
20
-4.51083313508067
30
-2E-16
41
1
10
70.7673685979167
20
-4.60665958137466
30
-2E-16
41
1
10
70.7867900003213
20
-4.78721268265363
30
-2E-16
41
1
10
70.795532482804
20
-4.87206304782498
30
-1E-16
41
1
10
70.8193820592521
20
-5.10473436766216
30
-1E-16
41
1
10
70.8322372515237
20
-5.23268821470674
30
-1E-16
41
1
10
70.8532172766141
20
-5.38434514561683
30
1E-16
41
1
10
70.8605127282247
20
-5.42814725402292
30
1E-16
41
1
10
70.8770373946727
20
-5.50188476727959
30
-1E-16
41
1
10
70.8862558084609
20
-5.53167966752946
30
0
41
1
10
70.8970701168649
20
-5.55408082093246
30
0
0
SPLINE
5
C8
100
AcDbEntity
8
1
62
256
6
ByLayer
370
18
48
1
60
0
100
AcDbSpline
70
4
71
3
72
18
73
14
40
0
40
0
40
0
40
0
40
0.236376872778632
40
0.236376872778632
40
0.432330549657355
40
0.432330549657355
40
0.630071841770718
40
0.630071841770718
40
0.801766254946577
40
0.801766254946577
40
0.966766191564697
40
0.966766191564697
40
1
40
1
40
1
40
1
41
1
10
70.8970701168649
20
-5.5540808209324
30
0
41
1
10
70.8971543810395
20
-5.55425536882132
30
0
41
1
10
70.8971804694351
20
-5.55461628428822
30
0
41
1
10
70.8970937375511
20
-5.55563718193997
30
0
41
1
10
70.89700210977
20
-5.55624903490653
30
0
41
1
10
70.8967087665018
20
-5.55772618469504
30
0
41
1
10
70.8965004995962
20
-5.55861901517238
30
0
41
1
10
70.8960285629866
20
-5.56041455588564
30
0
41
1
10
70.8957694209998
20
-5.5613245852048
30
0
41
1
10
70.8952305145688
20
-5.56309557147813
30
0
41
1
10
70.8949455600998
20
-5.56397857489546
30
0
41
1
10
70.8946033193871
20
-5.56498674808506
30
0
41
1
10
70.8945452674108
20
-5.56515599992466
30
0
41
1
10
70.8944872131145
20
-5.56532356193387
30
0
0
SPLINE
5
C9
100
AcDbEntity
8
1
62
256
6
ByLayer
370
18
48
1
60
0
100
AcDbSpline
70
4
71
3
72
8
73
4
40
0
40
0
40
0
40
0
40
1
40
1
40
1
40
1
41
1
10
70.9508979943539
20
5.65462224282533
30
0
41
1
10
70.9466074744657
20
5.65751392390396
30
0
41
1
10
70.9423170157958
20
5.66040511966941
30
0
41
1
10
70.9380266180164
20
5.66329582973995
30
0
0
SPLINE
5
CA
100
AcDbEntity
8
1
62
256
6
ByLayer
370
18
48
1
60
0
100
AcDbSpline
70
4
71
3
72
54
73
50
40
0
40
0
40
0
40
0
40
0.0436810841868825
40
0.0436810841868825
40
0.0728994893630854
40
0.0728994893630854
40
0.102117894539288
40
0.102117894539288
40
0.160554704891694
40
0.160554704891694
40
0.189773110067897
40
0.189773110067897
40
0.218991515244099
40
0.218991515244099
40
0.248209920420302
40
0.248209920420302
40
0.277428325596504
40
0.277428325596504
40
0.335865135948909
40
0.335865135948909
40
0.365083541125112
40
0.365083541125112
40
0.394301946301314
40
0.394301946301314
40
0.511175567006127
40
0.511175567006127
40
0.540393972182329
40
0.540393972182329
40
0.569612377358532
40
0.569612377358532
40
0.628049187710937
40
0.628049187710937
40
0.65726759288714
40
0.65726759288714
40
0.686485998063342
40
0.686485998063342
40
0.744922808415746
40
0.744922808415746
40
0.774141213591948
40
0.774141213591948
40
0.803359618768151
40
0.803359618768151
40
0.832578023944353
40
0.832578023944353
40
0.861796429120554
40
0.861796429120554
40
0.978670049825364
40
0.978670049825364
40
1
40
1
40
1
40
1
41
1
10
42.829568323476
20
-5.60572798228989
30
-1E-16
41
1
10
42.3116890202531
20
-5.6942720110456
30
-1E-16
41
1
10
41.7927714902617
20
-5.76209854384521
30
0
41
1
10
40.9226878239596
20
-5.83904759705868
30
0
41
1
10
40.5723315268959
20
-5.8601963720993
30
0
41
1
10
39.8711973563621
20
-5.88238121569552
30
0
41
1
10
39.521253558798
20
-5.88342770708044
30
0
41
1
10
38.4720763927062
20
-5.85666509473518
30
0
41
1
10
37.7735677762441
20
-5.79891864250035
30
-1E-16
41
1
10
36.7218024780676
20
-5.65343394371962
30
-1E-16
41
1
10
36.3710468452865
20
-5.59515833313961
30
-1E-16
41
1
10
35.6711095202353
20
-5.46005509433479
30
-1E-16
41
1
10
35.3215159109887
20
-5.38317649362179
30
-1E-16
41
1
10
34.6221774653793
20
-5.21144691694423
30
-1E-16
41
1
10
34.2724663641381
20
-5.11657032206634
30
-1E-16
41
1
10
33.5720697318768
20
-4.90946284175382
30
-1E-16
41
1
10
33.2209274805732
20
-4.79710489118287
30
-2E-16
41
1
10
32.1699148051964
20
-4.43688548743694
30
-2E-16
41
1
10
31.4714400135664
20
-4.16549877745092
30
3E-16
41
1
10
30.4214931430111
20
-3.71845480778103
30
2E-16
41
1
10
30.0708744416413
20
-3.56247690446014
30
2E-16
41
1
10
29.3696581108607
20
-3.23895618637025
30
2E-16
41
1
10
29.0204283783285
20
-3.07208369097441
30
2E-16
41
1
10
27.2789906189841
20
-2.21593478227658
30
1E-16
41
1
10
25.9013957381896
20
-1.46047087156819
30
1E-16
41
1
10
24.1651091449261
20
-0.486440338999756
30
0
41
1
10
23.8172294389496
20
-0.28998333606313
30
0
41
1
10
23.1191526404654
20
0.104347451936434
30
0
41
1
10
22.7682679530795
20
0.30259583756839
30
0
41
1
10
21.7162890603267
20
0.894345046222497
30
-1E-16
41
1
10
21.017566346144
20
1.28419874013366
30
-1E-16
41
1
10
19.9677931800969
20
1.85232957205031
30
-1E-16
41
1
10
19.6176878292982
20
2.03910435220115
30
-1E-16
41
1
10
18.9160687738359
20
2.40564242037288
30
-1E-16
41
1
10
18.5653539219672
20
2.58498715268064
30
-2E-16
41
1
10
17.515093917851
20
3.10787080579613
30
-2E-16
41
1
10
16.8163330722378
20
3.43699621114052
30
-2E-16
41
1
10
15.7650061905564
20
3.89356115621652
30
-2E-16
41
1
10
15.4137062403031
20
4.03968472632766
30
-2E-16
41
1
10
14.7129078212578
20
4.31693756831586
30
2E-16
41
1
10
14.3630055955227
20
4.44823182150966
30
2E-16
41
1
10
13.6632939592636
20
4.695171273461
30
2E-16
41
1
10
13.3134954432574
20
4.81083051127698
30
1E-16
41
1
10
12.6131934887879
20
5.02563142986691
30
1E-16
41
1
10
12.2621342627214
20
5.12489680443286
30
1E-16
41
1
10
10.5091138845158
20
5.57585326415415
30
1E-16
41
1
10
9.12844477787561
20
5.78821793961671
30
1E-16
41
1
10
7.48965065302488
20
5.85504428265259
30
0
41
1
10
7.23657617557024
20
5.86017234683828
30
0
41
1
10
6.98318093563171
20
5.8600752198586
30
0
0
SPLINE
5
CB
100
AcDbEntity
8
1
62
256
6
ByLayer
370
18
48
1
60
0
100
AcDbSpline
70
4
71
3
72
10
73
6
40
0
40
0
40
0
40
0
40
0.975610559953494
40
0.975610559953494
40
1
40
1
40
1
40
1
41
1
10
3.64940284845849
20
0.541905066829372
30
0
41
1
10
3.99850705483516
20
0.353342051369083
30
0
41
1
10
4.34775836206609
20
0.164657276361027
30
0
41
1
10
4.70623023175787
20
-0.0282301014978543
30
0
41
1
10
4.71497366709374
20
-0.0329343235964927
30
0
41
1
10
4.7237175711428
20
-0.0376383238474887
30
0
0
SPLINE
5
CC
100
AcDbEntity
8
1
62
256
6
ByLayer
370
18
48
1
60
0
100
AcDbSpline
70
4
71
3
72
34
73
30
40
0
40
0
40
0
40
0
40
0.0196041938824593
40
0.0196041938824593
40
0.0818396933514064
40
0.0818396933514064
40
0.144075192820353
40
0.144075192820353
40
0.2063106922893
40
0.2063106922893
40
0.268546191758247
40
0.268546191758247
40
0.393017190696141
40
0.393017190696141
40
0.455252690165088
40
0.455252690165088
40
0.517488189634034
40
0.517488189634034
40
0.641959188571924
40
0.641959188571924
40
0.766430187509815
40
0.766430187509815
40
0.82866568697876
40
0.82866568697876
40
0.890901186447705
40
0.890901186447705
40
0.95313668591665
40
0.95313668591665
40
1
40
1
40
1
40
1
41
1
10
53.2795775294032
20
5.60108396928712
30
0
41
1
10
53.3894971073739
20
5.60306941249513
30
0
41
1
10
53.4992893422489
20
5.60406723693569
30
0
41
1
10
53.9571225001569
20
5.6043344955435
30
0
41
1
10
54.3040202134133
20
5.59541440941504
30
0
41
1
10
54.9959618173613
20
5.55986945780069
30
0
41
1
10
55.3412676705395
20
5.53228832933723
30
0
41
1
10
56.0308306997414
20
5.45938448370856
30
1E-16
41
1
10
56.3749297812238
20
5.41457335547693
30
-1E-16
41
1
10
57.0626683857893
20
5.30791174044859
30
-1E-16
41
1
10
57.4067072373026
20
5.24511384278938
30
-1E-16
41
1
10
58.4401951576886
20
5.03015133872458
30
1E-16
41
1
10
59.1310371140429
20
4.85171072781867
30
1E-16
41
1
10
60.1722582472886
20
4.53714249391524
30
2E-16
41
1
10
60.5200425188757
20
4.42460393635844
30
2E-16
41
1
10
61.218708741263
20
4.18371583692533
30
2E-16
41
1
10
61.5676838884949
20
4.0558462861182
30
2E-16
41
1
10
62.6096852082615
20
3.65412440090418
30
-2E-16
41
1
10
63.299885602543
20
3.36182893863492
30
-2E-16
41
1
10
64.6770888140786
20
2.73840028679237
30
-2E-16
41
1
10
65.3639487181306
20
2.40735991830675
30
-1E-16
41
1
10
66.396702552854
20
1.88903891898107
30
-1E-16
41
1
10
66.7412093605504
20
1.71266556426286
30
-1E-16
41
1
10
67.4319664075913
20
1.35403497114749
30
-1E-16
41
1
10
67.7782043935531
20
1.17178265704783
30
-1E-16
41
1
10
68.4729249319218
20
0.802741184871309
30
0
41
1
10
68.8217123716236
20
0.615767798766967
30
0
41
1
10
69.4344811228126
20
0.285843857004153
30
0
41
1
10
69.697483618841
20
0.143766196992345
30
0
41
1
10
69.9604598544922
20
0.0016737959323905
30
0
0
SPLINE
5
CD
100
AcDbEntity
8
1
62
256
6
ByLayer
370
18
48
1
60
0
100
AcDbSpline
70
4
71
3
72
8
73
4
40
0
40
0
40
0
40
0
40
1
40
1
40
1
40
1
41
1
10
72.0105847452482
20
-0.620355716354197
30
0
41
1
10
71.8005519508849
20
-0.0596971425028414
30
0
41
1
10
71.5325108673867
20
0.538914958827974
30
0
41
1
10
71.2079285981516
20
1.17452069466503
30
-1E-16
0
SPLINE
5
CE
100
AcDbEntity
8
1
62
256
6
ByLayer
370
18
48
1
60
0
100
AcDbSpline
70
4
71
3
72
42
73
38
40
0
40
0
40
0
40
0
40
0.0013670410303385
40
0.0013670410303385
40
0.0583256911217493
40
0.0583256911217493
40
0.172242991304571
40
0.172242991304571
40
0.229201641395981
40
0.229201641395981
40
0.286160291487391
40
0.286160291487391
40
0.343118941578801
40
0.343118941578801
40
0.400077591670211
40
0.400077591670211
40
0.457036241761621
40
0.457036241761621
40
0.513994891853031
40
0.513994891853031
40
0.570953541944442
40
0.570953541944442
40
0.627912192035852
40
0.627912192035852
40
0.684870842127262
40
0.684870842127262
40
0.741829492218672
40
0.741829492218672
40
0.798788142310082
40
0.798788142310082
40
0.855746792401492
40
0.855746792401492
40
0.912705442492902
40
0.912705442492902
40
0.969664092584312
40
0.969664092584312
40
1
40
1
40
1
40
1
41
1
10
55.3849745625353
20
-0.505525556887363
30
0
41
1
10
55.3736292621266
20
-0.499368386153066
30
0
41
1
10
55.362283770043
20
-0.493210153667064
30
0
41
1
10
54.8782125647687
20
-0.23042100089495
30
0
41
1
10
54.4051840290807
20
0.0280875041888748
30
0
41
1
10
52.9886405967918
20
0.799094609553578
30
0
41
1
10
52.0484587746276
20
1.30735470514497
30
-1E-16
41
1
10
50.6323920797819
20
2.03919628220979
30
-1E-16
41
1
10
50.1594361397056
20
2.2779578308446
30
-1E-16
41
1
10
49.2165008973985
20
2.73875636470905
30
-2E-16
41
1
10
48.7456619155086
20
2.96121412805945
30
-2E-16
41
1
10
47.8031044370045
20
3.38665471263565
30
-2E-16
41
1
10
47.3310412982094
20
3.58981988959036
30
-2E-16
41
1
10
46.3858751223499
20
3.97338165128878
30
-2E-16
41
1
10
45.913836047732
20
4.15329449120645
30
2E-16
41
1
10
44.968721889106
20
4.48656568285978
30
2E-16
41
1
10
44.4961345950244
20
4.63975814823968
30
2E-16
41
1
10
43.5515213583119
20
4.91645421971575
30
1E-16
41
1
10
43.0787409985489
20
5.04010104792636
30
1E-16
41
1
10
42.1341048140212
20
5.2548489103431
30
1E-16
41
1
10
41.661658921739
20
5.34609619213677
30
-1E-16
41
1
10
40.7164702647052
20
5.49524576665522
30
1E-16
41
1
10
40.2435361083248
20
5.55304287874625
30
1E-16
41
1
10
39.2989005424371
20
5.6339363967906
30
0
41
1
10
38.8272077029643
20
5.65709459294828
30
0
41
1
10
37.8833318240098
20
5.66828039106164
30
0
41
1
10
37.4105810402804
20
5.65630703788375
30
0
41
1
10
36.4654900188929
20
5.59737015167289
30
0
41
1
10
35.9927711978015
20
5.55033183878609
30
1E-16
41
1
10
35.0473680549379
20
5.42211499386832
30
-1E-16
41
1
10
34.5751467700901
20
5.34107555264438
30
-1E-16
41
1
10
33.6307789076705
20
5.14665889255073
30
1E-16
41
1
10
33.1579634629344
20
5.03304864072149
30
1E-16
41
1
10
32.2133539726097
20
4.77543968224819
30
2E-16
41
1
10
31.7414436683423
20
4.63160971548217
30
2E-16
41
1
10
31.0173128296962
20
4.38962435215169
30
2E-16
41
1
10
30.7656432036642
20
4.30155780495332
30
2E-16
41
1
10
30.5140337974844
20
4.20978909361301
30
2E-16
0
SPLINE
5
CF
100
AcDbEntity
8
1
62
256
6
ByLayer
370
18
48
1
60
0
100
AcDbSpline
70
4
71
3
72
8
73
4
40
0
40
0
40
0
40
0
40
1
40
1
40
1
40
1
41
1
10
3.64469217032817
20
0.532203799888464
30
0
41
1
10
3.6316478757505
20
0.539238138208589
30
0
41
1
10
3.61715140456133
20
0.542936896184756
30
0
41
1
10
3.60231268326569
20
0.543023370251575
30
0
0
SPLINE
5
D0
100
AcDbEntity
8
1
62
256
6
ByLayer
370
18
48
1
60
0
100
AcDbSpline
70
4
71
3
72
10
73
6
40
0
40
0
40
0
40
0
40
0.5
40
0.5
40
1
40
1
40
1
40
1
41
1
10
70.5625934876973
20
-5.81951744641646
30
0
41
1
10
70.5661722483562
20
-5.84242046612053
30
0
41
1
10
70.5695814835765
20
-5.86050117615346
30
0
41
1
10
70.5762975710151
20
-5.88685124551102
30
0
41
1
10
70.579617334942
20
-5.89512591198829
30
0
41
1
10
70.5829560115653
20
-5.89831649446779
30
0
0
SPLINE
5
D1
100
AcDbEntity
8
1
62
256
6
ByLayer
370
18
48
1
60
0
100
AcDbSpline
70
4
71
3
72
8
73
4
40
0
40
0
40
0
40
0
40
1
40
1
40
1
40
1
41
1
10
3.65125547901104
20
0.568461483851678
30
0
41
1
10
3.65064875616164
20
0.559620571010043
30
0
41
1
10
3.65003124239647
20
0.550768711874838
30
0
41
1
10
3.64940284845864
20
0.541905066829287
30
0
0
SPLINE
5
D2
100
AcDbEntity
8
1
62
256
6
ByLayer
370
18
48
1
60
0
100
AcDbSpline
70
4
71
3
72
36
73
32
40
0
40
0
40
0
40
0
40
0.119839415914539
40
0.119839415914539
40
0.179759123871809
40
0.179759123871809
40
0.239678831829079
40
0.239678831829079
40
0.299598539786348
40
0.299598539786348
40
0.359518247743618
40
0.359518247743618
40
0.419437955700887
40
0.419437955700887
40
0.479357663658157
40
0.479357663658157
40
0.539277371615427
40
0.539277371615427
40
0.599197079572696
40
0.599197079572696
40
0.659116787529966
40
0.659116787529966
40
0.719036495487236
40
0.719036495487236
40
0.838875911401775
40
0.838875911401775
40
0.898795619359046
40
0.898795619359046
40
0.958715327316316
40
0.958715327316316
40
1
40
1
40
1
40
1
41
1
10
3.6512554790111
20
0.568461483851678
30
0
41
1
10
4.34610897623006
20
0.173535664457546
30
0
41
1
10
5.04155821247446
20
-0.220475017543464
30
0
41
1
10
6.08808098340259
20
-0.805764701932048
30
0
41
1
10
6.43576955836863
20
-0.998992760122604
30
1E-16
41
1
10
7.12862307028973
20
-1.38086235547604
30
1E-16
41
1
10
7.47371268525939
20
-1.56985697682308
30
1E-16
41
1
10
8.16264933338303
20
-1.94144718331731
30
1E-16
41
1
10
8.50682702128455
20
-2.1234856056623
30
1E-16
41
1
10
9.19456639143667
20
-2.48021477466648
30
2E-16
41
1
10
9.53806599406627
20
-2.6549900031728
30
2E-16
41
1
10
10.2257233859904
20
-2.99507530466823
30
2E-16
41
1
10
10.5699527875222
20
-3.16028805469034
30
2E-16
41
1
10
11.2593651301428
20
-3.48077364878637
30
2E-16
41
1
10
11.6044649504019
20
-3.63615495384192
30
2E-16
41
1
10
12.2968938427474
20
-3.93492547675922
30
2E-16
41
1
10
12.6445650102265
20
-4.07830168979982
30
2E-16
41
1
10
13.3415811099709
20
-4.35182662826219
30
-2E-16
41
1
10
13.6885054643059
20
-4.48115904181395
30
-2E-16
41
1
10
14.3805411100525
20
-4.72361679026201
30
-2E-16
41
1
10
14.7257437697008
20
-4.83666664549392
30
-1E-16
41
1
10
15.414833185317
20
-5.04635706419188
30
-1E-16
41
1
10
15.7586286028112
20
-5.14305910694605
30
-1E-16
41
1
10
16.7897301973091
20
-5.40706154711847
30
-1E-16
41
1
10
17.4767351213665
20
-5.54838410170214
30
-1E-16
41
1
10
18.5106415628968
20
-5.70529085332555
30
-1E-16
41
1
10
18.8560830002253
20
-5.7482981573196
30
-1E-16
41
1
10
19.5488160988028
20
-5.81537982859473
30
0
41
1
10
19.8964179853962
20
-5.8394592542777
30
0
41
1
10
20.4848647804561
20
-5.86336319218526
30
0
41
1
10
20.7246844239736
20
-5.86842236206064
30
0
41
1
10
20.9642846731567
20
-5.86881251036917
30
0
0
SPLINE
5
D3
100
AcDbEntity
8
1
62
256
6
ByLayer
370
18
48
1
60
0
100
AcDbSpline
70
4
71
3
72
36
73
32
40
0
40
0
40
0
40
0
40
0.0014190293374086
40
0.0014190293374086
40
0.0539759225301776
40
0.0539759225301776
40
0.106532815722947
40
0.106532815722947
40
0.159089708915716
40
0.159089708915716
40
0.264203495301254
40
0.264203495301254
40
0.316760388494022
40
0.316760388494022
40
0.36931728168679
40
0.36931728168679
40
0.421874174879558
40
0.421874174879558
40
0.474431068072327
40
0.474431068072327
40
0.579544854457862
40
0.579544854457862
40
0.684658640843397
40
0.684658640843397
40
0.789772427228932
40
0.789772427228932
40
0.842329320421698
40
0.842329320421698
40
0.894886213614465
40
0.894886213614465
40
1
40
1
40
1
40
1
41
1
10
50.3121663648868
20
5.58851113327736
30
1E-16
41
1
10
50.3214623760864
20
5.59017515277677
30
1E-16
41
1
10
50.330758642997
20
5.59183267860479
30
1E-16
41
1
10
50.6843725035747
20
5.65463320868415
30
1E-16
41
1
10
51.0294820016418
20
5.70659850036733
30
1E-16
41
1
10
51.7221672451227
20
5.79158599979007
30
1E-16
41
1
10
52.0701887598626
20
5.82472911897781
30
0
41
1
10
52.7657122211047
20
5.87137888558067
30
0
41
1
10
53.1130093706044
20
5.88474923143684
30
0
41
1
10
54.1549373375679
20
5.89536203983531
30
0
41
1
10
54.8481940819324
20
5.86305090081177
30
0
41
1
10
55.8924171979368
20
5.75589503997028
30
1E-16
41
1
10
56.2404962124249
20
5.71036626091231
30
1E-16
41
1
10
56.9344568454587
20
5.60011875750595
30
1E-16
41
1
10
57.2812784176468
20
5.53562134621652
30
1E-16
41
1
10
57.9755038595655
20
5.38868303936172
30
1E-16
41
1
10
58.3228276952292
20
5.30620098916404
30
1E-16
41
1
10
59.0183469006689
20
5.1235292069845
30
1E-16
41
1
10
59.3671863587454
20
5.02310363463201
30
1E-16
41
1
10
60.4083578650854
20
4.69790318048155
30
2E-16
41
1
10
61.0966646773263
20
4.4487548204514
30
2E-16
41
1
10
62.4718047163688
20
3.89900835580602
30
-2E-16
41
1
10
63.1578368086595
20
3.59753930961614
30
-2E-16
41
1
10
64.5328416535458
20
2.94976525402774
30
-2E-16
41
1
10
65.2215784696357
20
2.60304561536245
30
-2E-16
41
1
10
66.2623672077247
20
2.05702017250746
30
-1E-16
41
1
10
66.6109203970418
20
1.87018768433415
30
-1E-16
41
1
10
67.3053857409522
20
1.49254987446764
30
-1E-16
41
1
10
67.6520121879377
20
1.30145824825723
30
-1E-16
41
1
10
68.6909516913634
20
0.722930042499911
30
0
41
1
10
69.3822543041355
20
0.330110504084615
30
0
41
1
10
70.0757172724368
20
-0.0637133312260119
30
0
0
SPLINE
5
D4
100
AcDbEntity
8
1
62
256
6
ByLayer
370
18
48
1
60
0
100
AcDbSpline
70
4
71
3
72
23
73
19
40
0
40
0
40
0
40
0
40
0.0624999999999959
40
0.0624999999999959
40
0.124999999999992
40
0.124999999999992
40
0.249999999999984
40
0.249999999999984
40
0.374999999999976
40
0.374999999999976
40
0.406249999999976
40
0.406249999999976
40
0.437499999999977
40
0.499999999999978
40
0.499999999999978
40
0.749999999999989
40
0.749999999999989
40
1
40
1
40
1
40
1
41
1
10
72.4970163090893
20
1.77788514188941
30
0
41
1
10
72.4560180049082
20
1.84338588045094
30
0
41
1
10
72.4155976333004
20
1.911139233131
30
0
41
1
10
72.3358529665954
20
2.05136715934049
30
0
41
1
10
72.2963563229008
20
2.12420039062607
30
0
41
1
10
72.1815923416907
20
2.34577787090643
30
0
41
1
10
72.1094698980752
20
2.49839597656103
30
0
41
1
10
71.9723297705058
20
2.812914806397
30
0
41
1
10
71.9073358835699
20
2.97485531354971
30
0
41
1
10
71.8292627849719
20
3.18268816314051
30
0
41
1
10
71.813823897076
20
3.22456819871388
30
0
41
1
10
71.7829786201078
20
3.30823303745467
30
0
41
1
10
71.7368394921472
20
3.43378553136733
30
0
41
1
10
71.6910706644489
20
3.55949901197658
30
0
41
1
10
71.5392556762656
20
3.97888067874643
30
0
41
1
10
71.420342884265
20
4.31531945185779
30
0
41
1
10
71.1849269029865
20
4.98701250780346
30
0
41
1
10
71.0682979233989
20
5.32248695102405
30
0
41
1
10
70.9508979943539
20
5.65462224282535
30
0
0
SPLINE
5
D5
100
AcDbEntity
8
1
62
256
6
ByLayer
370
18
48
1
60
0
100
AcDbSpline
70
4
71
3
72
18
73
14
40
0
40
0
40
0
40
0
40
0.182218860969135
40
0.182218860969135
40
0.36443772193827
40
0.36443772193827
40
0.546656582907405
40
0.546656582907405
40
0.72887544387654
40
0.72887544387654
40
0.911094304845675
40
0.911094304845675
40
1
40
1
40
1
40
1
41
1
10
70.9380266180164
20
5.66329582973998
30
0
41
1
10
70.4654725106268
20
5.6670912155667
30
0
41
1
10
69.9930261640034
20
5.65333285707192
30
0
41
1
10
69.0477837940915
20
5.59112058632289
30
0
41
1
10
68.574744128834
20
5.54252437775571
30
1E-16
41
1
10
67.6306095231361
20
5.41143063023108
30
-1E-16
41
1
10
67.1591790970393
20
5.32903978937097
30
-1E-16
41
1
10
66.215714694209
20
5.13166812328723
30
1E-16
41
1
10
65.743060643827
20
5.01643081804846
30
1E-16
41
1
10
64.798616526815
20
4.75609024628875
30
2E-16
41
1
10
64.3271193008586
20
4.61113082594548
30
2E-16
41
1
10
63.6252934197953
20
4.37479248253021
30
2E-16
41
1
10
63.39503053489
20
4.29391292699628
30
2E-16
41
1
10
63.1646609460196
20
4.20988087315001
30
2E-16
0
SPLINE
5
D6
100
AcDbEntity
8
1
62
256
6
ByLayer
370
18
48
1
60
0
100
AcDbSpline
70
4
71
3
72
22
73
18
40
0
40
0
40
0
40
0
40
0.250000000000002
40
0.250000000000002
40
0.312500000000002
40
0.312500000000002
40
0.375000000000003
40
0.375000000000003
40
0.500000000000004
40
0.500000000000004
40
0.750000000000002
40
0.750000000000002
40
0.812500000000002
40
0.812500000000002
40
0.875000000000001
40
0.875000000000001
40
1
40
1
40
1
40
1
41
1
10
25.6000000000091
20
-2.16617380758112
30
1E-16
41
1
10
24.368186433706
20
-1.51889550439796
30
1E-16
41
1
10
23.1417815076884
20
-0.828905473553704
30
1E-16
41
1
10
21.592299357348
20
0.0465445211448241
30
0
41
1
10
21.2815822707382
20
0.222288914587722
30
0
41
1
10
20.6578055440792
20
0.573844617944474
30
0
41
1
10
20.3466538079582
20
0.748609761914565
30
0
41
1
10
19.4163583748303
20
1.26739529115056
30
-1E-16
41
1
10
18.7996613800638
20
1.60648788404725
30
-1E-16
41
1
10
16.9525513125642
20
2.59093935318495
30
-2E-16
41
1
10
15.7254540999735
20
3.2040362370476
30
-2E-16
41
1
10
14.1734580374587
20
3.87779157851637
30
-2E-16
41
1
10
13.8616988045225
20
4.00808291494567
30
-2E-16
41
1
10
13.23797719727
20
4.25764830400124
30
-3E-16
41
1
10
12.9265502454317
20
4.37667091935253
30
2E-16
41
1
10
11.9925362386682
20
4.71532296690924
30
2E-16
41
1
10
11.3702468604323
20
4.9165978843601
30
1E-16
41
1
10
10.746163575459
20
5.09096886888375
30
1E-16
0
SPLINE
5
D7
100
AcDbEntity
8
1
62
256
6
ByLayer
370
18
48
1
60
0
100
AcDbSpline
70
4
71
3
72
20
73
16
40
0
40
0
40
0
40
0
40
0.111919450233968
40
0.111919450233968
40
0.223838900467936
40
0.223838900467936
40
0.447677800935873
40
0.447677800935873
40
0.559597251169842
40
0.559597251169842
40
0.671516701403811
40
0.671516701403811
40
0.89535560187175
40
0.89535560187175
40
1
40
1
40
1
40
1
41
1
10
25.6
20
-2.07909085904814
30
1E-16
41
1
10
26.0690159600832
20
-2.32687647263907
30
1E-16
41
1
10
26.5380366202426
20
-2.56830210602487
30
2E-16
41
1
10
27.4753721583472
20
-3.03384797188593
30
2E-16
41
1
10
27.9444793292821
20
-3.25834305016522
30
2E-16
41
1
10
29.3505358556448
20
-3.89973607551619
30
2E-16
41
1
10
30.2876989219225
20
-4.28497322535151
30
3E-16
41
1
10
31.6938941734355
20
-4.77781489511045
30
-2E-16
41
1
10
32.1630263352524
20
-4.92813601582102
30
-1E-16
41
1
10
33.1008005788977
20
-5.19771066749706
30
-1E-16
41
1
10
33.5691021453373
20
-5.31689008782723
30
-1E-16
41
1
10
34.9753208667873
20
-5.62519069105377
30
-1E-16
41
1
10
35.9124903400306
20
-5.76425376189246
30
-1E-16
41
1
10
37.2885726291343
20
-5.86331690803615
30
0
41
1
10
37.7270733980828
20
-5.8792943832423
30
0
41
1
10
38.1653600509568
20
-5.87956901013919
30
0
0
SPLINE
5
D8
100
AcDbEntity
8
1
62
256
6
ByLayer
370
18
48
1
60
0
100
AcDbSpline
70
4
71
3
72
14
73
10
40
0
40
0
40
0
40
0
40
0.263813278262327
40
0.263813278262327
40
0.447859958696747
40
0.447859958696747
40
0.631906639131166
40
0.631906639131166
40
1
40
1
40
1
40
1
41
1
10
62.9483622314606
20
4.28433915637203
30
-2E-16
41
1
10
63.6197998953248
20
4.54617775939889
30
-1E-16
41
1
10
64.2910666439035
20
4.78121055942609
30
2E-16
41
1
10
65.4307154289161
20
5.12713245466907
30
1E-16
41
1
10
65.8985906750954
20
5.25398995382227
30
1E-16
41
1
10
66.8355444492633
20
5.47529235049032
30
1E-16
41
1
10
67.3041315429538
20
5.56959504495961
30
1E-16
41
1
10
68.7095422924311
20
5.80078003864293
30
1E-16
41
1
10
69.6464235571236
20
5.88568797481088
30
0
41
1
10
70.582956011585
20
5.89831649446774
30
0
0
SPLINE
5
D9
100
AcDbEntity
8
1
62
256
6
ByLayer
370
18
48
1
60
0
100
AcDbSpline
70
4
71
3
72
32
73
28
40
0
40
0
40
0
40
0
40
0.102020244200261
40
0.102020244200261
40
0.227893471202028
40
0.227893471202028
40
0.259361777952469
40
0.259361777952469
40
0.29083008470291
40
0.29083008470291
40
0.353766698203793
40
0.353766698203793
40
0.479639925205559
40
0.479639925205559
40
0.605513152207325
40
0.605513152207325
40
0.668449765708209
40
0.668449765708209
40
0.731386379209094
40
0.731386379209094
40
0.857259606210864
40
0.857259606210864
40
0.920196219711749
40
0.920196219711749
40
0.983132833212634
40
0.983132833212634
40
1
40
1
40
1
40
1
41
1
10
22.9378382911583
20
0.207774214590387
30
0
41
1
10
23.5034764807639
20
-0.0954045461970736
30
0
41
1
10
24.0682104722142
20
-0.399292739211319
30
0
41
1
10
25.3319005049305
20
-1.07176076370723
30
1E-16
41
1
10
26.0310019756467
20
-1.43949893535381
30
1E-16
41
1
10
26.9105536823518
20
-1.88649969039409
30
1E-16
41
1
10
27.0867323012196
20
-1.97529268701058
30
1E-16
41
1
10
27.4397622525626
20
-2.15141080285966
30
1E-16
41
1
10
27.6167116066123
20
-2.23877895462505
30
1E-16
41
1
10
28.1458823782006
20
-2.49705547339494
30
2E-16
41
1
10
28.4973799999887
20
-2.66460110814458
30
2E-16
41
1
10
29.5492809438356
20
-3.15171761749499
30
2E-16
41
1
10
30.246796870138
20
-3.45549960412001
30
2E-16
41
1
10
31.6414990138162
20
-4.01256996614876
30
-2E-16
41
1
10
32.3382900067518
20
-4.26563306333966
30
-2E-16
41
1
10
33.3877339798759
20
-4.60112676252933
30
-2E-16
41
1
10
33.7382128341165
20
-4.70553721075325
30
-2E-16
41
1
10
34.4413179175829
20
-4.89839490032529
30
-1E-16
41
1
10
34.7945062076593
20
-4.98705621137674
30
-1E-16
41
1
10
35.8545185045901
20
-5.2267986624434
30
1E-16
41
1
10
36.5598527775305
20
-5.35096840935006
30
1E-16
41
1
10
37.620261870208
20
-5.48134126961264
30
-1E-16
41
1
10
37.9733886388854
20
-5.51523915365087
30
0
41
1
10
38.6798111166948
20
-5.56378367655904
30
0
41
1
10
39.0336627136139
20
-5.57855196248153
30
0
41
1
10
39.4803948724024
20
-5.58501661126547
30
0
41
1
10
39.5747237762586
20
-5.585682793432
30
0
41
1
10
39.6689695721922
20
-5.58565462034662
30
0
0
SPLINE
5
DA
100
AcDbEntity
8
1
62
256
6
ByLayer
370
18
48
1
60
0
100
AcDbSpline
70
4
71
3
72
10
73
6
40
0
40
0
40
0
40
0
40
0.5
40
0.5
40
1
40
1
40
1
40
1
41
1
10
3.50166215220452
20
0.481963757447914
30
0
41
1
10
3.50166215220452
20
0.516997542131776
30
0
41
1
10
3.52120343157239
20
0.550620554082315
30
0
41
1
10
3.58169964944275
20
0.585582744290576
30
0
41
1
10
3.62073000668465
20
0.585810892351674
30
0
41
1
10
3.6512554790111
20
0.568461483851678
30
0
0
SPLINE
5
DB
100
AcDbEntity
8
1
62
256
6
ByLayer
370
18
48
1
60
0
100
AcDbSpline
70
4
71
3
72
8
73
4
40
0
40
0
40
0
40
0
40
1
40
1
40
1
40
1
41
1
10
72.4970163090892
20
1.77788514188941
30
0
41
1
10
72.6672983414202
20
1.29542220667
30
0
41
1
10
72.8331673413737
20
0.811379869715779
30
0
41
1
10
72.9945592206246
20
0.325735194142794
30
0
0
SPLINE
5
DC
100
AcDbEntity
8
1
62
256
6
ByLayer
370
18
48
1
60
0
100
AcDbSpline
70
4
71
3
72
10
73
6
40
0
40
0
40
0
40
0
40
0.5
40
0.5
40
1
40
1
40
1
40
1
41
1
10
70.0757172724368
20
-0.0637133312259834
30
0
41
1
10
70.0682854353705
20
0.0745579704217505
30
0
41
1
10
70.0631594078824
20
0.213483213235406
30
0
41
1
10
70.058552603387
20
0.49276114009885
30
0
41
1
10
70.0591190813388
20
0.632618423495472
30
0
41
1
10
70.0629042485533
20
0.770307412265169
30
0
0
SPLINE
5
DD
100
AcDbEntity
8
1
62
256
6
ByLayer
370
18
48
1
60
0
100
AcDbSpline
70
4
71
3
72
8
73
4
40
0
40
0
40
0
40
0
40
1
40
1
40
1
40
1
41
1
10
3.55252403786435
20
-5.54247355723675
30
-1E-16
41
1
10
3.52155119580146
20
-5.5367980782847
30
-1E-16
41
1
10
3.50166215220452
20
-5.52564707984948
30
-1E-16
41
1
10
3.50166215220452
20
-5.51363531473407
30
-1E-16
0
SPLINE
5
DE
100
AcDbEntity
8
1
62
256
6
ByLayer
370
18
48
1
60
0
100
AcDbSpline
70
4
71
3
72
65
73
61
40
0
40
0
40
0
40
0
40
0.124999999999974
40
0.124999999999974
40
0.249999999999947
40
0.249999999999947
40
0.312499999999935
40
0.312499999999935
40
0.328124999999931
40
0.33593749999993
40
0.33984374999993
40
0.33984374999993
40
0.343749999999929
40
0.343749999999929
40
0.347656249999929
40
0.347656249999929
40
0.349609374999929
40
0.349609374999929
40
0.351562499999929
40
0.35937499999993
40
0.374999999999933
40
0.374999999999933
40
0.406249999999936
40
0.406249999999936
40
0.437499999999939
40
0.437499999999939
40
0.499999999999945
40
0.499999999999945
40
0.531249999999948
40
0.531249999999948
40
0.562499999999951
40
0.562499999999951
40
0.578124999999953
40
0.578124999999953
40
0.593749999999955
40
0.593749999999955
40
0.624999999999958
40
0.624999999999958
40
0.640624999999959
40
0.640624999999959
40
0.656249999999961
40
0.671874999999962
40
0.671874999999962
40
0.687499999999964
40
0.687499999999964
40
0.718749999999967
40
0.718749999999967
40
0.734374999999968
40
0.734374999999968
40
0.749999999999969
40
0.749999999999969
40
0.812499999999976
40
0.812499999999976
40
0.84374999999998
40
0.84374999999998
40
0.874999999999984
40
0.874999999999984
40
0.937499999999992
40
0.937499999999992
40
1
40
1
40
1
40
1
41
1
10
10.7461218685566
20
5.09098050782765
30
1E-16
41
1
10
10.1013907222979
20
5.27114411508481
30
1E-16
41
1
10
9.44841570191034
20
5.41203405851806
30
1E-16
41
1
10
8.11056160869998
20
5.62513665479813
30
1E-16
41
1
10
7.42967274261105
20
5.69694318941924
30
1E-16
41
1
10
6.38351332592873
20
5.76969785368928
30
1E-16
41
1
10
6.03142997784724
20
5.78814402648459
30
0
41
1
10
5.58728195115643
20
5.80594424560476
30
0
41
1
10
5.45374106433019
20
5.81088959308423
30
0
41
1
10
5.29746139216226
20
5.816030827932
30
0
41
1
10
5.23038098132534
20
5.81810625287446
30
0
41
1
10
5.18563765583903
20
5.81946218394378
30
0
41
1
10
5.16297157353611
20
5.82014605197023
30
0
41
1
10
5.11732538033019
20
5.82022159543155
30
0
41
1
10
5.09367671634752
20
5.81977400231145
30
0
41
1
10
5.06323010505
20
5.81776859852283
30
0
41
1
10
5.05354830831476
20
5.81699161076807
30
0
41
1
10
5.03382836348302
20
5.81549499236945
30
0
41
1
10
4.98456293872721
20
5.81169846038478
30
0
41
1
10
4.85693798836931
20
5.80110638339767
30
0
41
1
10
4.74019819522252
20
5.78966303756951
30
0
41
1
10
4.50844621189665
20
5.76437526330741
30
1E-16
41
1
10
4.35617651317014
20
5.74432347424116
30
1E-16
41
1
10
4.05683995359945
20
5.696521901209
30
1E-16
41
1
10
3.90987233814909
20
5.66877142709652
30
1E-16
41
1
10
3.48161554748705
20
5.57216781424103
30
1E-16
41
1
10
3.21150385336216
20
5.49036307582514
30
1E-16
41
1
10
2.84134267400145
20
5.32594928051643
30
1E-16
41
1
10
2.7233498420818
20
5.26364450434167
30
1E-16
41
1
10
2.50806398269151
20
5.12341652753892
30
1E-16
41
1
10
2.41021335509907
20
5.04539256092116
30
1E-16
41
1
10
2.28209634720375
20
4.91301064697109
30
1E-16
41
1
10
2.24238010236914
20
4.86606407834543
30
1E-16
41
1
10
2.17148802262068
20
4.76817469454693
30
2E-16
41
1
10
2.14014541744828
20
4.71711375039826
30
2E-16
41
1
10
2.05922798773426
20
4.55712058578234
30
2E-16
41
1
10
2.02266686755675
20
4.44142613143947
30
2E-16
41
1
10
1.99840527534931
20
4.25181055575334
30
-3E-16
41
1
10
1.99561106244275
20
4.18690238371477
30
-3E-16
41
1
10
2.00033855088319
20
4.05525203734348
30
-2E-16
41
1
10
2.01531846286812
20
3.92129781602156
30
-2E-16
41
1
10
2.0500994716451
20
3.78287593549552
30
-2E-16
41
1
10
2.09453070576646
20
3.64227410388429
30
-2E-16
41
1
10
2.12146012851511
20
3.57137797357311
30
-2E-16
41
1
10
2.21359638407546
20
3.36063517362339
30
-2E-16
41
1
10
2.29052210593815
20
3.22121870401773
30
-2E-16
41
1
10
2.424725094596
20
3.01344822003088
30
-2E-16
41
1
10
2.47282164980061
20
2.94415199114854
30
-2E-16
41
1
10
2.57371219404516
20
2.80745080245632
30
-2E-16
41
1
10
2.6264185474343
20
2.7401186784476
30
-2E-16
41
1
10
2.89977490032058
20
2.40790662121637
30
-1E-16
41
1
10
3.14912915720049
20
2.15603049659157
30
-1E-16
41
1
10
3.55338550122164
20
1.7923270593262
30
-1E-16
41
1
10
3.69231309857585
20
1.67443485337742
30
-1E-16
41
1
10
3.97506007520494
20
1.44573848294371
30
-1E-16
41
1
10
4.11921848614008
20
1.33464389502311
30
-1E-16
41
1
10
4.55870750792238
20
1.00960118827351
30
-1E-16
41
1
10
4.86098370274377
20
0.803816146005261
30
0
41
1
10
5.47973202674487
20
0.409143033312489
30
0
41
1
10
5.79625074402028
20
0.220308293427564
30
0
41
1
10
6.11864692019867
20
0.0385638218749875
30
0
0
SPLINE
5
DF
100
AcDbEntity
8
1
62
256
6
ByLayer
370
18
48
1
60
0
100
AcDbSpline
70
4
71
3
72
14
73
10
40
0
40
0
40
0
40
0
40
0.229698313308412
40
0.229698313308412
40
0.422273734981318
40
0.422273734981318
40
0.614849156654223
40
0.614849156654223
40
1
40
1
40
1
40
1
41
1
10
70.7946139666578
20
1.36370513706959
30
-1E-16
41
1
10
70.8229241765439
20
1.35465805279486
30
-1E-16
41
1
10
70.852541695298
20
1.34378636090875
30
-1E-16
41
1
10
70.9081428736718
20
1.32149291176918
30
-1E-16
41
1
10
70.9340235559519
20
1.31044344590055
30
-1E-16
41
1
10
70.9862541211194
20
1.28755429671122
30
-1E-16
41
1
10
71.0127585222597
20
1.27545437711154
30
-1E-16
41
1
10
71.0938493140222
20
1.23649767835883
30
-1E-16
41
1
10
71.1500112214026
20
1.20698744816792
30
-1E-16
41
1
10
71.207928598155
20
1.17452069466279
30
-1E-16
0
SPLINE
5
E0
100
AcDbEntity
8
1
62
256
6
ByLayer
370
18
48
1
60
0
100
AcDbSpline
70
4
71
3
72
32
73
28
40
0
40
0
40
0
40
0
40
0.0625899750158089
40
0.0625899750158089
40
0.125179950031618
40
0.125179950031618
40
0.187769925047427
40
0.187769925047427
40
0.250359900063236
40
0.250359900063236
40
0.375539850094853
40
0.375539850094853
40
0.500719800126471
40
0.500719800126471
40
0.56330977514228
40
0.56330977514228
40
0.625899750158089
40
0.625899750158089
40
0.751079700189709
40
0.751079700189709
40
0.813669675205521
40
0.813669675205521
40
0.876259650221332
40
0.876259650221332
40
0.938849625237143
40
0.938849625237143
40
1
40
1
40
1
40
1
41
1
10
70.2246594119663
20
-0.152150107975046
30
0
41
1
10
69.8753715724054
20
0.0361903353078787
30
0
41
1
10
69.5261482437644
20
0.224726488120837
30
0
41
1
10
68.8269626199281
20
0.600576535665795
30
0
41
1
10
68.4780800955398
20
0.78732591630046
30
0
41
1
10
67.7832165422472
20
1.155949748815
30
-1E-16
41
1
10
67.4369073681295
20
1.33801903943711
30
-1E-16
41
1
10
66.7460110908286
20
1.69634210119588
30
-1E-16
41
1
10
66.4014368836494
20
1.87258282887382
30
-1E-16
41
1
10
65.3684886613162
20
2.39058210962239
30
-1E-16
41
1
10
64.6815073500558
20
2.72151188140273
30
-2E-16
41
1
10
63.3040976094484
20
3.34489792038872
30
-2E-16
41
1
10
62.6138111721647
20
3.6372736328685
30
-2E-16
41
1
10
61.5717185232395
20
4.03926735393065
30
2E-16
41
1
10
61.2227590445658
20
4.1672476976693
30
2E-16
41
1
10
60.5239514324226
20
4.40845683929828
30
2E-16
41
1
10
60.1760985543186
20
4.52116720535847
30
2E-16
41
1
10
59.1346767484311
20
4.83632369223076
30
1E-16
41
1
10
58.4437030323628
20
5.01525737258288
30
1E-16
41
1
10
57.4100242418305
20
5.23109263102847
30
1E-16
41
1
10
57.0659234331073
20
5.29421362320312
30
-1E-16
41
1
10
56.378066077629
20
5.40154094093353
30
-1E-16
41
1
10
56.0339121215806
20
5.44667086385437
30
1E-16
41
1
10
55.3442487942544
20
5.52028796634585
30
0
41
1
10
54.9988979788143
20
5.54826332679727
30
0
41
1
10
54.3148306159781
20
5.58418740961832
30
0
41
1
10
53.97589509032
20
5.59348926113117
30
0
41
1
10
53.635767533064
20
5.59411902541001
30
0
0
SPLINE
5
E1
100
AcDbEntity
8
1
62
256
6
ByLayer
370
18
48
1
60
0
100
AcDbSpline
70
4
71
3
72
10
73
6
40
0
40
0
40
0
40
0
40
0.301687571410949
40
0.301687571410949
40
1
40
1
40
1
40
1
41
1
10
5.14649950581054
20
-0.275514212748078
30
0
41
1
10
4.99528558999685
20
-0.194618400107402
30
0
41
1
10
4.84402471158475
20
-0.113513481922865
30
0
41
1
10
4.34314206806806
20
0.155526231501227
30
0
41
1
10
3.9938446643352
20
0.343917898068014
30
0
41
1
10
3.64469217032817
20
0.532203799888435
30
0
0
SPLINE
5
E2
100
AcDbEntity
8
1
62
256
6
ByLayer
370
18
48
1
60
0
100
AcDbSpline
70
4
71
3
72
39
73
35
40
0
40
0
40
0
40
0
40
0.165186876763298
40
0.165186876763298
40
0.247780315144947
40
0.247780315144947
40
0.289077034335772
40
0.289077034335772
40
0.309725393931184
40
0.309725393931184
40
0.330373753526597
40
0.330373753526597
40
0.412967191908244
40
0.412967191908244
40
0.495560630289892
40
0.495560630289892
40
0.57815406867154
40
0.57815406867154
40
0.598802428266951
40
0.598802428266951
40
0.619450787862363
40
0.660747507053186
40
0.660747507053186
40
0.743340945434833
40
0.743340945434833
40
0.825934383816479
40
0.825934383816479
40
0.867231103007302
40
0.867231103007302
40
0.908527822198126
40
0.908527822198126
40
0.991121260579772
40
0.991121260579772
40
1
40
1
40
1
40
1
41
1
10
6.11863609471175
20
0.0385595646705781
30
0
41
1
10
7.46528171568687
20
-0.720534389883255
30
0
41
1
10
8.78994503580091
20
-1.46989551610821
30
1E-16
41
1
10
10.7815169011521
20
-2.51472666070768
30
2E-16
41
1
10
11.4456672915099
20
-2.85060201347497
30
2E-16
41
1
10
12.447628092771
20
-3.326872175044
30
2E-16
41
1
10
12.782525322055
20
-3.48111680106251
30
2E-16
41
1
10
13.2867241065425
20
-3.70487523255207
30
2E-16
41
1
10
13.4550687244291
20
-3.7781703426152
30
2E-16
41
1
10
13.7906883622036
20
-3.92132925980516
30
2E-16
41
1
10
13.9581823104192
20
-3.99129554095475
30
2E-16
41
1
10
14.7943398768137
20
-4.33277557152255
30
-2E-16
41
1
10
15.4595150059042
20
-4.57867866192808
30
-2E-16
41
1
10
16.7874227806356
20
-5.01142406904924
30
-1E-16
41
1
10
17.4501029076643
20
-5.19823288506825
30
-1E-16
41
1
10
18.7796292523818
20
-5.50653542199905
30
-1E-16
41
1
10
19.4460133291031
20
-5.62838911361672
30
-1E-16
41
1
10
20.2851328030974
20
-5.73662355387114
30
-1E-16
41
1
10
20.4535040359741
20
-5.75607917946698
30
-1E-16
41
1
10
20.7894979904084
20
-5.79036870503487
30
0
41
1
10
21.2925375391206
20
-5.83491225067215
30
0
41
1
10
21.7931213609002
20
-5.85889209077703
30
0
41
1
10
22.7920096141538
20
-5.87965687427217
30
0
41
1
10
23.4552106073723
20
-5.85721114499219
30
0
41
1
10
24.7819510163854
20
-5.74132774467628
30
-1E-16
41
1
10
25.4451531788798
20
-5.64772411500871
30
-1E-16
41
1
10
26.4449810519116
20
-5.45543767600677
30
-1E-16
41
1
10
26.7790268736437
20
-5.38267309444097
30
-1E-16
41
1
10
27.4493363248789
20
-5.21995661727891
30
-1E-16
41
1
10
27.7862693610736
20
-5.12975896645051
30
-1E-16
41
1
10
28.791510693685
20
-4.83679389931262
30
-1E-16
41
1
10
29.4574322569935
20
-4.61170983333659
30
-2E-16
41
1
10
30.1929010615276
20
-4.33316920596315
30
1E-16
41
1
10
30.2642691576981
20
-4.30582792998081
30
1E-16
41
1
10
30.3356211536361
20
-4.27818731626155
30
1E-16
0
SPLINE
5
E3
100
AcDbEntity
8
1
62
256
6
ByLayer
370
18
48
1
60
0
100
AcDbSpline
70
4
71
3
72
25
73
21
40
0
40
0
40
0
40
0
40
0.0649801631118748
40
0.0649801631118748
40
0.0983737287150219
40
0.0983737287150219
40
0.131767294318169
40
0.198554425524466
40
0.198554425524466
40
0.332128687937057
40
0.332128687937057
40
0.465702950349648
40
0.465702950349648
40
0.532490081555942
40
0.532490081555942
40
0.599277212762237
40
0.599277212762237
40
0.732851475174824
40
0.732851475174824
40
1
40
1
40
1
40
1
41
1
10
55.1181931123842
20
5.89015972001229
30
0
41
1
10
55.4426000771008
20
5.89028635905635
30
0
41
1
10
55.7678169430261
20
5.88178665928848
30
0
41
1
10
56.2619531945332
20
5.85564582871211
30
0
41
1
10
56.4301961337961
20
5.84444503979583
30
0
41
1
10
56.765730552066
20
5.81754098723715
30
0
41
1
10
57.2681001032533
20
5.77041427439272
30
1E-16
41
1
10
57.7680717599477
20
5.70330332751573
30
1E-16
41
1
10
58.7658106192855
20
5.54320718564483
30
1E-16
41
1
10
59.4282995089853
20
5.40210255102087
30
1E-16
41
1
10
60.7538612024913
20
5.05594425189966
30
1E-16
41
1
10
61.4165751855619
20
4.8505376925707
30
1E-16
41
1
10
62.4158060296301
20
4.49835226196322
30
2E-16
41
1
10
62.7496854438933
20
4.37356305602034
30
2E-16
41
1
10
63.4197269096141
20
4.10971582511891
30
-3E-16
41
1
10
63.7563419538033
20
3.97040930607883
30
-2E-16
41
1
10
64.7598851877237
20
3.53686761575725
30
-2E-16
41
1
10
65.4244181939073
20
3.22653585500089
30
-2E-16
41
1
10
67.4119346626972
20
2.24416312748193
30
-1E-16
41
1
10
68.729377451086
20
1.52145202121565
30
-1E-16
41
1
10
70.0629042485533
20
0.770307412265169
30
0
0
SPLINE
5
E4
100
AcDbEntity
8
1
62
256
6
ByLayer
370
18
48
1
60
0
100
AcDbSpline
70
4
71
3
72
30
73
26
40
0
40
0
40
0
40
0
40
0.0625
40
0.0625
40
0.125
40
0.125
40
0.25
40
0.25
40
0.3125
40
0.3125
40
0.375
40
0.375
40
0.4375
40
0.4375
40
0.5
40
0.5
40
0.625
40
0.625
40
0.6875
40
0.6875
40
0.75
40
0.75
40
0.875
40
0.875
40
1
40
1
40
1
40
1
41
1
10
3.60231268326572
20
0.543023370251575
30
0
41
1
10
3.60230743850161
20
0.387069642632383
30
0
41
1
10
3.60230153585798
20
0.230842475277086
30
0
41
1
10
3.60228853521417
20
-0.0821567693537588
30
0
41
1
10
3.60228142911527
20
-0.239006534060394
30
0
41
1
10
3.60225875982465
20
-0.704403431947213
30
0
41
1
10
3.60224178464185
20
-1.00984696175266
30
1E-16
41
1
10
3.6022140312127
20
-1.46089434884152
30
1E-16
41
1
10
3.60220439381013
20
-1.61005100168583
30
1E-16
41
1
10
3.60218437839004
20
-1.90592233557726
30
1E-16
41
1
10
3.60217398429728
20
-2.05280283062757
30
1E-16
41
1
10
3.60215279170217
20
-2.3396250594551
30
1E-16
41
1
10
3.60214195665085
20
-2.48012984863385
30
2E-16
41
1
10
3.60211981802357
20
-2.75534222278463
30
2E-16
41
1
10
3.60210848456484
20
-2.89038860913752
30
2E-16
41
1
10
3.60207395014098
20
-3.2843609663984
30
2E-16
41
1
10
3.60205049324279
20
-3.52930320599424
30
2E-16
41
1
10
3.60201441273929
20
-3.87111771475767
30
-2E-16
41
1
10
3.60200223379715
20
-3.98076618839789
30
-2E-16
41
1
10
3.60197749383971
20
-4.19137049217224
30
-2E-16
41
1
10
3.60196489875821
20
-4.29258277466542
30
-2E-16
41
1
10
3.6019266066692
20
-4.58103464215611
30
-2E-16
41
1
10
3.60190084337125
20
-4.7500633947553
30
-2E-16
41
1
10
3.60184799921564
20
-5.04331589033975
30
-1E-16
41
1
10
3.60182089116881
20
-5.16765425833563
30
-1E-16
41
1
10
3.60179264744591
20
-5.26829738863137
30
1E-16
0
SPLINE
5
E5
100
AcDbEntity
8
1
62
256
6
ByLayer
370
18
48
1
60
0
100
AcDbSpline
70
4
71
3
72
8
73
4
40
0
40
0
40
0
40
0
40
1
40
1
40
1
40
1
41
1
10
70.0757172724368
20
-0.0637133312260119
30
0
41
1
10
70.1238626459308
20
-0.0900219804285314
30
0
41
1
10
70.1716839451767
20
-0.114819607886204
30
0
41
1
10
70.2192436883443
20
-0.138146995113118
30
0
0
SPLINE
5
E6
100
AcDbEntity
8
1
62
256
6
ByLayer
370
18
48
1
60
0
100
AcDbSpline
70
4
71
3
72
61
73
57
40
0
40
0
40
0
40
0
40
0.0399591842138158
40
0.0399591842138158
40
0.0893516223023634
40
0.0893516223023634
40
0.114047841346637
40
0.114047841346637
40
0.13874406039091
40
0.13874406039091
40
0.188136498479457
40
0.188136498479457
40
0.237528936568004
40
0.237528936568004
40
0.28692137465655
40
0.28692137465655
40
0.299269484178687
40
0.299269484178687
40
0.311617593700824
40
0.311617593700824
40
0.336313812745098
40
0.336313812745098
40
0.385706250833646
40
0.385706250833646
40
0.435098688922194
40
0.435098688922194
40
0.459794907966467
40
0.459794907966467
40
0.48449112701074
40
0.48449112701074
40
0.533883565099287
40
0.533883565099287
40
0.583276003187834
40
0.583276003187834
40
0.632668441276381
40
0.632668441276381
40
0.657364660320654
40
0.657364660320654
40
0.682060879364928
40
0.682060879364928
40
0.731453317453474
40
0.731453317453474
40
0.780845755542021
40
0.780845755542021
40
0.830238193630568
40
0.830238193630568
40
0.842586303152705
40
0.842586303152705
40
0.854934412674841
40
0.879630631719114
40
0.879630631719114
40
0.929023069807659
40
0.929023069807659
40
0.978415507896205
40
0.978415507896205
40
1
40
1
40
1
40
1
41
1
10
22.5073530635064
20
5.8697797892053
30
0
41
1
10
23.0453397192519
20
5.86978850767548
30
0
41
1
10
23.5819048908338
20
5.84614510353572
30
0
41
1
10
24.7819510163854
20
5.74132774467628
30
1E-16
41
1
10
25.4451531788798
20
5.64772411500871
30
1E-16
41
1
10
26.4449810519116
20
5.45543767600677
30
1E-16
41
1
10
26.7790268736438
20
5.38267309444097
30
1E-16
41
1
10
27.4493363248789
20
5.21995661727891
30
1E-16
41
1
10
27.7862693610736
20
5.12975896645054
30
1E-16
41
1
10
28.7915106936849
20
4.83679389931254
30
1E-16
41
1
10
29.4574322569935
20
4.61170983333656
30
2E-16
41
1
10
30.7855934279341
20
4.10870162479515
30
-3E-16
41
1
10
31.4479326921673
20
3.83082593204208
30
-2E-16
41
1
10
32.7756048654973
20
3.23104948493463
30
-2E-16
41
1
10
33.4404699124066
20
2.90846156842702
30
-2E-16
41
1
10
34.277126337209
20
2.48275023483933
30
-2E-16
41
1
10
34.444743188757
20
2.39649840565733
30
-1E-16
41
1
10
34.7806020322197
20
2.22183741481342
30
-1E-16
41
1
10
34.948918853686
20
2.13339262051994
30
-1E-16
41
1
10
35.4522831697414
20
1.86644255700509
30
-1E-16
41
1
10
35.7866105880294
20
1.68587143078298
30
-1E-16
41
1
10
36.7868841489649
20
1.13821047343711
30
-1E-16
41
1
10
37.4505272758634
20
0.765897476393889
30
0
41
1
10
38.7768738545383
20
0.0167157925887977
30
0
41
1
10
39.4393586324337
20
-0.360549532464091
30
0
41
1
10
40.4372351074689
20
-0.921125189491079
30
1E-16
41
1
10
40.7704836591189
20
-1.10722005442977
30
1E-16
41
1
10
41.4388999445622
20
-1.4766721127271
30
1E-16
41
1
10
41.7745452149106
20
-1.66037359937209
30
1E-16
41
1
10
42.7822800101954
20
-2.20313675317624
30
1E-16
41
1
10
43.4492471918448
20
-2.55006537823277
30
2E-16
41
1
10
44.7783189981849
20
-3.20740035727394
30
2E-16
41
1
10
45.4406358839762
20
-3.51741281342419
30
2E-16
41
1
10
46.7670526688209
20
-4.09123974408283
30
3E-16
41
1
10
47.4307206212514
20
-4.35562329775257
30
-2E-16
41
1
10
48.432159478215
20
-4.71105161672563
30
-2E-16
41
1
10
48.7669268080576
20
-4.8227228314453
30
-1E-16
41
1
10
49.439023329434
20
-5.03149829610626
30
-1E-16
41
1
10
49.7743712049442
20
-5.12796676953286
30
-1E-16
41
1
10
50.7762971290475
20
-5.39211785155356
30
-1E-16
41
1
10
51.4405634896163
20
-5.53459243676602
30
-1E-16
41
1
10
52.7669226807856
20
-5.75041265851229
30
-1E-16
41
1
10
53.4289224254903
20
-5.82371269516719
30
0
41
1
10
54.7573087424999
20
-5.89846138995986
30
0
41
1
10
55.4232652873483
20
-5.90001415510244
30
0
41
1
10
56.2619531945332
20
-5.85564582871211
30
0
41
1
10
56.4301961337961
20
-5.84444503979583
30
0
41
1
10
56.7657305520659
20
-5.81754098723715
30
0
41
1
10
57.2681001032533
20
-5.77041427439272
30
-1E-16
41
1
10
57.7680717599477
20
-5.70330332751573
30
-1E-16
41
1
10
58.7658106192855
20
-5.54320718564483
30
-1E-16
41
1
10
59.4282995089853
20
-5.40210255102085
30
-1E-16
41
1
10
60.7538612024913
20
-5.05594425189966
30
-1E-16
41
1
10
61.4165751855619
20
-4.85053769257073
30
-1E-16
41
1
10
62.3738382891206
20
-4.51314406592991
30
-2E-16
41
1
10
62.6655604811461
20
-4.40489258129401
30
-2E-16
41
1
10
62.9581218847725
20
-4.29116630295897
30
0
0
SPLINE
5
E7
100
AcDbEntity
8
1
62
256
6
ByLayer
370
18
48
1
60
0
100
AcDbSpline
70
4
71
3
72
8
73
4
40
0
40
0
40
0
40
0
40
1
40
1
40
1
40
1
41
1
10
70.9508979943539
20
-5.65462224282535
30
0
41
1
10
70.9466074744657
20
-5.65751392390399
30
0
41
1
10
70.9423170157958
20
-5.66040511966946
30
0
41
1
10
70.9380266180163
20
-5.66329582973998
30
0
0
SPLINE
5
E8
100
AcDbEntity
8
1
62
256
6
ByLayer
370
18
48
1
60
0
100
AcDbSpline
70
4
71
3
72
8
73
4
40
0
40
0
40
0
40
0
40
1
40
1
40
1
40
1
41
1
10
3.60179264744591
20
-5.26829738863137
30
1E-16
41
1
10
3.58530793180299
20
-5.26572657783962
30
1E-16
41
1
10
3.56916475659295
20
-5.26696400467469
30
1E-16
41
1
10
3.554322933522
20
-5.27218180126727
30
1E-16
0
SPLINE
5
E9
100
AcDbEntity
8
1
62
256
6
ByLayer
370
18
48
1
60
0
100
AcDbSpline
70
4
71
3
72
12
73
8
40
0
40
0
40
0
40
0
40
0.310080200286199
40
0.310080200286199
40
0.620160400572404
40
0.620160400572404
40
1
40
1
40
1
40
1
41
1
10
3.60179264744599
20
-5.2682973886314
30
1E-16
41
1
10
3.95552199793431
20
-5.32954190614751
30
1E-16
41
1
10
4.30903764125407
20
-5.38141134719154
30
1E-16
41
1
10
5.01634840330749
20
-5.46627101550038
30
-1E-16
41
1
10
5.37023835043988
20
-5.49922819920991
30
0
41
1
10
6.15370206802555
20
-5.55100227202433
30
0
41
1
10
6.58329408320375
20
-5.56520423318509
30
0
41
1
10
7.01190507171773
20
-5.56522474102005
30
0
0
SPLINE
5
EA
100
AcDbEntity
8
1
62
256
6
ByLayer
370
18
48
1
60
0
100
AcDbSpline
70
4
71
3
72
24
73
20
40
0
40
0
40
0
40
0
40
0.1788133852709
40
0.1788133852709
40
0.31567782105908
40
0.31567782105908
40
0.384110038953171
40
0.384110038953171
40
0.452542256847262
40
0.452542256847262
40
0.72627112842363
40
0.72627112842363
40
0.863135564211815
40
0.863135564211815
40
0.931567782105908
40
0.931567782105908
40
0.965783891052954
40
0.965783891052954
40
1
40
1
40
1
40
1
41
1
10
55.54827343539
20
0.229844960854621
30
0
41
1
10
56.4623244456088
20
-0.261841224822206
30
0
41
1
10
57.3710087378222
20
-0.753518001095927
30
0
41
1
10
58.9783447095887
20
-1.59784715810966
30
1E-16
41
1
10
59.6760967701153
20
-1.95635012363633
30
1E-16
41
1
10
60.7288264736705
20
-2.47376004272999
30
2E-16
41
1
10
61.0810198765805
20
-2.64294100090942
30
2E-16
41
1
10
61.7872825488123
20
-2.97239512143403
30
2E-16
41
1
10
62.1390075538952
20
-3.13159935828975
30
2E-16
41
1
10
63.8925210444783
20
-3.89750088040634
30
2E-16
41
1
10
65.2796534014021
20
-4.41354469250368
30
-2E-16
41
1
10
67.3735962004604
20
-4.99601538896457
30
-1E-16
41
1
10
68.0740068231596
20
-5.1585396420366
30
-1E-16
41
1
10
69.1327504665516
20
-5.34895699977187
30
1E-16
41
1
10
69.4859669405687
20
-5.40332277879688
30
1E-16
41
1
10
70.0151079671962
20
-5.47054145533758
30
-1E-16
41
1
10
70.1914618227974
20
-5.49057857357445
30
-1E-16
41
1
10
70.5442107083259
20
-5.52588775231828
30
0
41
1
10
70.7205998619201
20
-5.54082279279447
30
0
41
1
10
70.8970701168656
20
-5.55408082093246
30
0
0
SPLINE
5
EB
100
AcDbEntity
8
1
62
256
6
ByLayer
370
18
48
1
60
0
100
AcDbSpline
70
4
71
3
72
23
73
19
40
0
40
0
40
0
40
0
40
0.0625000000000013
40
0.0625000000000013
40
0.125000000000003
40
0.125000000000003
40
0.250000000000005
40
0.250000000000005
40
0.375000000000007
40
0.375000000000007
40
0.406250000000007
40
0.406250000000007
40
0.437500000000007
40
0.500000000000006
40
0.500000000000006
40
0.750000000000003
40
0.750000000000003
40
1
40
1
40
1
40
1
41
1
10
72.4970163090893
20
-1.77788514188941
30
0
41
1
10
72.4560180049081
20
-1.84338588045108
30
0
41
1
10
72.4155976333003
20
-1.91113923313125
30
0
41
1
10
72.3358529665952
20
-2.051367159341
30
0
41
1
10
72.2963563229005
20
-2.1242003906267
30
0
41
1
10
72.1815923416902
20
-2.34577787090748
30
0
41
1
10
72.1094698980747
20
-2.49839597656236
30
0
41
1
10
71.972329770505
20
-2.81291480639894
30
0
41
1
10
71.907335883569
20
-2.9748553135519
30
0
41
1
10
71.8292627849709
20
-3.18268816314318
30
0
41
1
10
71.8138238970751
20
-3.22456819871655
30
0
41
1
10
71.7829786201069
20
-3.30823303745726
30
0
41
1
10
71.7368394921463
20
-3.43378553136978
30
0
41
1
10
71.6910706644481
20
-3.55949901197889
30
0
41
1
10
71.539255676265
20
-3.97888067874825
30
0
41
1
10
71.4203428842646
20
-4.31531945185927
30
0
41
1
10
71.1849269029862
20
-4.98701250780411
30
0
41
1
10
71.0682979233988
20
-5.32248695102439
30
0
41
1
10
70.9508979943539
20
-5.65462224282535
30
0
0
SPLINE
5
EC
100
AcDbEntity
8
1
62
256
6
ByLayer
370
18
48
1
60
0
100
AcDbSpline
70
4
71
3
72
46
73
42
40
0
40
0
40
0
40
0
40
0.0338317905031118
40
0.0338317905031118
40
0.0676635810062235
40
0.0676635810062235
40
0.135327162012446
40
0.135327162012446
40
0.169158952515557
40
0.169158952515557
40
0.202990743018668
40
0.202990743018668
40
0.270654324024888
40
0.270654324024888
40
0.304486114527998
40
0.304486114527998
40
0.338317905031108
40
0.338317905031108
40
0.405981486037327
40
0.405981486037327
40
0.473645067043547
40
0.473645067043547
40
0.507476857546656
40
0.507476857546656
40
0.541308648049766
40
0.541308648049766
40
0.608972229055985
40
0.608972229055985
40
0.642804019559094
40
0.642804019559094
40
0.676635810062203
40
0.676635810062203
40
0.744299391068423
40
0.744299391068423
40
0.811962972074642
40
0.811962972074642
40
0.947290134087082
40
0.947290134087082
40
0.981121924590192
40
0.981121924590192
40
1
40
1
40
1
40
1
41
1
10
70.5625934876929
20
-5.81951744641771
30
0
41
1
10
70.2124630561106
20
-5.78658216203465
30
-1E-16
41
1
10
69.8625326103919
20
-5.74377305273845
30
-1E-16
41
1
10
69.1623034493447
20
-5.63878259005679
30
-1E-16
41
1
10
68.8116295890998
20
-5.57651450909864
30
-1E-16
41
1
10
67.7609440818676
20
-5.36177190593406
30
-1E-16
41
1
10
67.0628682761781
20
-5.18168687361438
30
-1E-16
41
1
10
66.0144017172464
20
-4.86038633244922
30
-1E-16
41
1
10
65.664637233206
20
-4.74480189471615
30
-2E-16
41
1
10
64.9637061659671
20
-4.49741758354045
30
-2E-16
41
1
10
64.6135259566149
20
-4.36595874423841
30
-2E-16
41
1
10
63.564551101459
20
-3.9507746497984
30
2E-16
41
1
10
62.8665608403772
20
-3.64580643150154
30
2E-16
41
1
10
61.816344259526
20
-3.15301975207692
30
2E-16
41
1
10
61.4653544656223
20
-2.98269686883373
30
2E-16
41
1
10
60.7671524166689
20
-2.63426731130093
30
2E-16
41
1
10
60.4192732531425
20
-2.45586382009617
30
2E-16
41
1
10
59.37781839342
20
-1.91067283695773
30
1E-16
41
1
10
58.6864405933885
20
-1.53388478500162
30
1E-16
41
1
10
57.30310803285
20
-0.764991994234265
30
0
41
1
10
56.6113333720734
20
-0.372562157419765
30
0
41
1
10
55.5682286802692
20
0.218762087624839
30
0
41
1
10
55.219600063633
20
0.416278352491844
30
0
41
1
10
54.5196891752137
20
0.810718550636636
30
0
41
1
10
54.1687347317167
20
1.00745136112431
30
-1E-16
41
1
10
53.1191455024304
20
1.58955084851897
30
-1E-16
41
1
10
52.4210516286113
20
1.96847803323755
30
-1E-16
41
1
10
51.3711640897444
20
2.51436870469755
30
-2E-16
41
1
10
51.0202557543554
20
2.69280578832152
30
-2E-16
41
1
10
50.3197457924928
20
3.03922915303744
30
-2E-16
41
1
10
49.9700474116007
20
3.20725258537016
30
-2E-16
41
1
10
48.921376930219
20
3.69398750282963
30
-2E-16
41
1
10
48.2226383735058
20
3.99531779675829
30
-2E-16
41
1
10
46.8197661716383
20
4.54158365381468
30
2E-16
41
1
10
46.1240864663669
20
4.78326372943164
30
2E-16
41
1
10
44.0438661327948
20
5.40599035477854
30
1E-16
41
1
10
42.6663527879616
20
5.68484016471865
30
1E-16
41
1
10
40.9226878239596
20
5.83904759705868
30
0
41
1
10
40.5723315268959
20
5.8601963720993
30
0
41
1
10
40.0261486680194
20
5.8774783443784
30
0
41
1
10
39.8307269624526
20
5.88053997488825
30
0
41
1
10
39.6354289236282
20
5.88048733582329
30
0
0
SPLINE
5
ED
100
AcDbEntity
8
1
62
256
6
ByLayer
370
18
48
1
60
0
100
AcDbSpline
70
4
71
3
72
14
73
10
40
0
40
0
40
0
40
0
40
0.375978103237056
40
0.375978103237056
40
0.687989051618528
40
0.687989051618528
40
0.843994525809264
40
0.843994525809264
40
1
40
1
40
1
40
1
41
1
10
10.2477977550822
20
-5.57448222125015
30
-1E-16
41
1
10
9.41068236684532
20
-5.72005520455241
30
-1E-16
41
1
10
8.57757345070215
20
-5.8106812348654
30
-1E-16
41
1
10
7.04964390020353
20
-5.87298676960455
30
0
41
1
10
6.35560239466466
20
-5.86232035601685
30
0
41
1
10
5.30753729874496
20
-5.78671939247442
30
0
41
1
10
4.95642486551225
20
-5.75151311878059
30
-1E-16
41
1
10
4.25440396406984
20
-5.6615255745071
30
-1E-16
41
1
10
3.90355841771318
20
-5.60679727122579
30
-1E-16
41
1
10
3.5525240378644
20
-5.54247355723678
30
-1E-16
0
SPLINE
5
EE
100
AcDbEntity
8
1
62
256
6
ByLayer
370
18
48
1
60
0
100
AcDbSpline
70
4
71
3
72
12
73
8
40
0
40
0
40
0
40
0
40
0.500000000000004
40
0.500000000000004
40
0.750000000000002
40
0.750000000000002
40
1
40
1
40
1
40
1
41
1
10
70.0629042485533
20
0.770307412265197
30
0
41
1
10
70.238074618638
20
0.906340799755498
30
-1E-16
41
1
10
70.4247754961265
20
1.00648736231372
30
-1E-16
41
1
10
70.7136978589465
20
1.10695541295507
30
-1E-16
41
1
10
70.8115409986352
20
1.13126589995736
30
-1E-16
41
1
10
71.0087662847825
20
1.16612921846755
30
-1E-16
41
1
10
71.108240407506
20
1.17573636047646
30
-1E-16
41
1
10
71.2079285981509
20
1.17452069466461
30
-1E-16
0
SPLINE
5
EF
100
AcDbEntity
8
1
62
256
6
ByLayer
370
18
48
1
60
0
100
AcDbSpline
70
4
71
3
72
8
73
4
40
0
40
0
40
0
40
0
40
1
40
1
40
1
40
1
41
1
10
3.59705308883227
20
-5.28058395441997
30
1E-16
41
1
10
3.58223791097487
20
-5.27802632102939
30
1E-16
41
1
10
3.56771433273548
20
-5.27888233585045
30
1E-16
41
1
10
3.554322933522
20
-5.28336180274445
30
1E-16
0
SPLINE
5
F0
100
AcDbEntity
8
1
62
256
6
ByLayer
370
18
48
1
60
0
100
AcDbSpline
70
4
71
3
72
10
73
6
40
0
40
0
40
0
40
0
40
0.5
40
0.5
40
1
40
1
40
1
40
1
41
1
10
70.9508979943539
20
-5.65462224282533
30
0
41
1
10
70.9319082579054
20
-5.66724836931431
30
0
41
1
10
70.9158520371583
20
-5.67261798137824
30
0
41
1
10
70.8882380481209
20
-5.6691473221677
30
0
41
1
10
70.876780347692
20
-5.66025600950454
30
0
41
1
10
70.8670614795544
20
-5.64485081629857
30
0
0
SPLINE
5
F1
100
AcDbEntity
8
1
62
256
6
ByLayer
370
18
48
1
60
0
100
AcDbSpline
70
4
71
3
72
32
73
28
40
0
40
0
40
0
40
0
40
0.124999999999993
40
0.124999999999993
40
0.187499999999992
40
0.187499999999992
40
0.249999999999992
40
0.249999999999992
40
0.312499999999992
40
0.312499999999992
40
0.374999999999992
40
0.374999999999992
40
0.437499999999991
40
0.437499999999991
40
0.499999999999991
40
0.499999999999991
40
0.562499999999991
40
0.562499999999991
40
0.62499999999999
40
0.62499999999999
40
0.68749999999999
40
0.68749999999999
40
0.749999999999989
40
0.749999999999989
40
0.874999999999995
40
0.874999999999995
40
1
40
1
40
1
40
1
41
1
10
72.9177241102718
20
0.0710261579580163
30
0
41
1
10
72.889164347532
20
-0.023139372431757
30
0
41
1
10
72.856329056685
20
-0.115152070316043
30
0
41
1
10
72.8004213779764
20
-0.249709751571658
30
0
41
1
10
72.7804895776909
20
-0.294328085655735
30
0
41
1
10
72.7392994565982
20
-0.380000934961998
30
0
41
1
10
72.7180310412374
20
-0.421145773148453
30
0
41
1
10
72.6741786364978
20
-0.49994718610867
30
0
41
1
10
72.6515955503012
20
-0.537606051051398
30
0
41
1
10
72.6050463031032
20
-0.609126647009305
30
0
41
1
10
72.581134930947
20
-0.642826207925282
30
0
41
1
10
72.5338558211372
20
-0.703468000630636
30
0
41
1
10
72.5102488852122
20
-0.730793308720251
30
0
41
1
10
72.4630688333665
20
-0.779328457256526
30
0
41
1
10
72.4392807055828
20
-0.800671257202481
30
0
41
1
10
72.3932339393604
20
-0.83566808608586
30
1E-16
41
1
10
72.370864610069
20
-0.849496592106476
30
1E-16
41
1
10
72.3272624846823
20
-0.870101194227658
30
1E-16
41
1
10
72.3058709646412
20
-0.876879224512066
30
1E-16
41
1
10
72.2650993546484
20
-0.883220218632687
30
1E-16
41
1
10
72.2456755334425
20
-0.882866427947846
30
1E-16
41
1
10
72.2084459911123
20
-0.875659956030546
30
1E-16
41
1
10
72.1905348650268
20
-0.86873213490918
30
1E-16
41
1
10
72.1397472329168
20
-0.839095752051406
30
1E-16
41
1
10
72.1099314644794
20
-0.80799654856466
30
0
41
1
10
72.0559552443639
20
-0.727142597739345
30
0
41
1
10
72.031876316692
20
-0.677191136351212
30
0
41
1
10
72.0105847452481
20
-0.620355716354396
30
0
0
SPLINE
5
F2
100
AcDbEntity
8
1
62
256
6
ByLayer
370
18
48
1
60
0
100
AcDbSpline
70
4
71
3
72
8
73
4
40
0
40
0
40
0
40
0
40
1
40
1
40
1
40
1
41
1
10
72.4970163090893
20
-1.77788514188941
30
0
41
1
10
72.6672983414222
20
-1.2954222066646
30
0
41
1
10
72.8331673413774
20
-0.81137986970495
30
0
41
1
10
72.99455922063
20
-0.32573519412648
30
0
0
SPLINE
5
F3
100
AcDbEntity
8
1
62
256
6
ByLayer
370
18
48
1
60
0
100
AcDbSpline
70
4
71
3
72
78
73
74
40
0
40
0
40
0
40
0
40
0.0045911133709852
40
0.0045911133709852
40
0.0208378494060794
40
0.0208378494060794
40
0.0533313214762679
40
0.0533313214762679
40
0.0695780575113622
40
0.0695780575113622
40
0.0858247935464563
40
0.0858247935464563
40
0.10207152958155
40
0.10207152958155
40
0.118318265616645
40
0.118318265616645
40
0.126441633634192
40
0.126441633634192
40
0.126949344135289
40
0.126949344135289
40
0.127076271760563
40
0.127076271760563
40
0.127203199385837
40
0.127203199385837
40
0.127457054636385
40
0.127457054636385
40
0.128472475638579
40
0.128472475638579
40
0.130503317642966
40
0.130503317642966
40
0.13456500165174
40
0.13456500165174
40
0.150811737686836
40
0.150811737686836
40
0.183305209757027
40
0.183305209757027
40
0.248292153897411
40
0.248292153897411
40
0.378266042178177
40
0.378266042178177
40
0.44325298631856
40
0.44325298631856
40
0.475746458388752
40
0.475746458388752
40
0.491993194423848
40
0.491993194423848
40
0.500116562441396
40
0.500116562441396
40
0.50417824645017
40
0.50417824645017
40
0.508239930458944
40
0.508239930458944
40
0.50874764096004
40
0.50874764096004
40
0.508811104772677
40
0.508811104772677
40
0.508874568585314
40
0.508874568585314
40
0.509001496210588
40
0.509001496210588
40
0.509255351461137
40
0.510270772463329
40
0.512301614467714
40
0.516363298476484
40
0.524486666494025
40
0.540733402529106
40
0.573226874599268
40
0.573226874599268
40
0.638213818739592
40
0.638213818739592
40
0.768187707020241
40
0.768187707020241
40
1
40
1
40
1
40
1
41
1
10
10.7461605273427
20
5.09096326671147
30
1E-16
41
1
10
10.7360066345697
20
5.07230128119318
30
1E-16
41
1
10
10.7257858934461
20
5.05337259291912
30
1E-16
41
1
10
10.6790187388602
20
4.96630045757769
30
1E-16
41
1
10
10.639964266721
20
4.89621823331331
30
1E-16
41
1
10
10.5169458650223
20
4.67824436475593
30
2E-16
41
1
10
10.4272345632669
20
4.52262175183208
30
2E-16
41
1
10
10.2853371611409
20
4.27020943450265
30
0
41
1
10
10.2372470449665
20
4.1825930119401
30
0
41
1
10
10.1376373652808
20
4.00403600951441
30
0
41
1
10
10.0856756622501
20
3.91308332955225
30
0
41
1
10
9.97836481774578
20
3.72727971342627
30
0
41
1
10
9.92324751389148
20
3.63220655229895
30
0
41
1
10
9.80886959008842
20
3.43890277619747
30
0
41
1
10
9.74977890967054
20
3.34094161218653
30
0
41
1
10
9.65889314549588
20
3.19166935566435
30
0
41
1
10
9.62821747560901
20
3.14151735228779
30
0
41
1
10
9.59530473739201
20
3.08784346749476
30
0
41
1
10
9.59336748780964
20
3.08468470853251
30
0
41
1
10
9.59094443086886
20
3.08073441191331
30
0
41
1
10
9.59008924515186
20
3.07998260425288
30
0
41
1
10
9.5905940508114
20
3.07806724672298
30
0
41
1
10
9.59141637751625
20
3.07731214234514
30
0
41
1
10
9.59359673662041
20
3.07515041995805
30
0
41
1
10
9.59520049292072
20
3.0738615390897
30
0
41
1
10
9.60323574630428
20
3.06752753115907
30
0
41
1
10
9.60999064434876
20
3.06288992585627
30
0
41
1
10
9.63020376356607
20
3.04898535504361
30
0
41
1
10
9.64384594105883
20
3.03997140281382
30
0
41
1
10
9.68483968898431
20
3.01305661188621
30
0
41
1
10
9.71231679580936
20
2.99536316999809
30
0
41
1
10
9.84986101301567
20
2.90717388449892
30
0
41
1
10
9.96037401222802
20
2.83747318389126
30
0
41
1
10
10.2918505283621
20
2.62845314220775
30
0
41
1
10
10.513071497439
20
2.48969598641486
30
0
41
1
10
11.1766648621602
20
2.07423973317918
30
1E-16
41
1
10
11.6191956085241
20
1.79868489842909
30
-1E-16
41
1
10
12.9461256549125
20
0.974426101824065
30
-1E-16
41
1
10
13.829680814342
20
0.427739199293939
30
0
41
1
10
15.1533368417838
20
-0.383921213584245
30
0
41
1
10
15.594492485304
20
-0.653058971271747
30
0
41
1
10
16.2553502886616
20
-1.05513007265716
30
1E-16
41
1
10
16.4754884991379
20
-1.18886679509939
30
1E-16
41
1
10
16.8054494111029
20
-1.38906264858326
30
1E-16
41
1
10
16.9154012133758
20
-1.4557226624425
30
1E-16
41
1
10
17.0801245115838
20
-1.55576796075621
30
1E-16
41
1
10
17.1350023576557
20
-1.58911875285619
30
1E-16
41
1
10
17.2171547504977
20
-1.63927702284243
30
1E-16
41
1
10
17.244513091044
20
-1.65601684942317
30
1E-16
41
1
10
17.2990615411256
20
-1.68966145331268
30
1E-16
41
1
10
17.3266329196896
20
-1.70622788253488
30
1E-16
41
1
10
17.3561742194605
20
-1.7262297933263
30
1E-16
41
1
10
17.359634009162
20
-1.72836930341387
30
1E-16
41
1
10
17.3627233979296
20
-1.73131904893751
30
1E-16
41
1
10
17.3631075833317
20
-1.73166225103782
30
1E-16
41
1
10
17.3632912414614
20
-1.73242037913482
30
1E-16
41
1
10
17.3626237016345
20
-1.7324493925222
30
1E-16
41
1
10
17.361142886216
20
-1.7323472356222
30
1E-16
41
1
10
17.3601487023153
20
-1.73224114329298
30
1E-16
41
1
10
17.3571758078277
20
-1.73197528752667
30
1E-16
41
1
10
17.3472662542063
20
-1.7310887721205
30
1E-16
41
1
10
17.321502647782
20
-1.72877954828357
30
1E-16
41
1
10
17.2660181661092
20
-1.72378368845526
30
1E-16
41
1
10
17.1550748629915
20
-1.7137033808865
30
1E-16
41
1
10
16.9332908478742
20
-1.69318825490407
30
1E-16
41
1
10
16.4901421848156
20
-1.65073968013178
30
1E-16
41
1
10
16.1110177978253
20
-1.61191930262643
30
1E-16
41
1
10
15.3538411656728
20
-1.53103309781409
30
1E-16
41
1
10
14.8504436937053
20
-1.47277779350037
30
1E-16
41
1
10
13.3443368472027
20
-1.28493564564135
30
1E-16
41
1
10
12.3458309293568
20
-1.14226725127622
30
1E-16
41
1
10
9.58768533143567
20
-0.697051105495547
30
0
41
1
10
7.84270368251714
20
-0.356669230703517
30
0
41
1
10
6.1186360946397
20
0.0385595646870911
30
0
0
SPLINE
5
F4
100
AcDbEntity
8
1
62
256
6
ByLayer
370
18
48
1
60
0
100
AcDbSpline
70
4
71
3
72
12
73
8
40
0
40
0
40
0
40
0
40
0.250000000000017
40
0.250000000000017
40
0.500000000000035
40
0.500000000000035
40
1
40
1
40
1
40
1
41
1
10
3.60231268326569
20
0.553951495658396
30
0
41
1
10
3.58666335428617
20
0.554043913223637
30
0
41
1
10
3.57147542023651
20
0.550706704576442
30
0
41
1
10
3.54542067152667
20
0.539370969705999
30
0
41
1
10
3.53466772755672
20
0.531567879489415
30
0
41
1
10
3.50936334987202
20
0.505162304411812
30
0
41
1
10
3.50166215220449
20
0.484067539090177
30
0
41
1
10
3.50166215220452
20
0.463102950483062
30
0
0
SPLINE
5
F5
100
AcDbEntity
8
1
62
256
6
ByLayer
370
18
48
1
60
0
100
AcDbSpline
70
4
71
3
72
8
73
4
40
0
40
0
40
0
40
0
40
1
40
1
40
1
40
1
41
1
10
3.55432293352203
20
-5.28336180274448
30
1E-16
41
1
10
3.55371313929479
20
-5.36973578289522
30
1E-16
41
1
10
3.5531135333903
20
-5.45610628608225
30
-1E-16
41
1
10
3.55252403786437
20
-5.54247355723675
30
-1E-16
0
SPLINE
5
F6
100
AcDbEntity
8
1
62
256
6
ByLayer
370
18
48
1
60
0
100
AcDbSpline
70
4
71
3
72
14
73
10
40
0
40
0
40
0
40
0
40
0.338639636321795
40
0.338639636321795
40
0.677279272643589
40
0.677279272643589
40
0.846599090804487
40
0.846599090804487
40
1
40
1
40
1
40
1
41
1
10
71.5394708916587
20
1.59237855858174
30
0
41
1
10
71.4453767173355
20
1.57919598168556
30
0
41
1
10
71.3540473406153
20
1.55900034336352
30
0
41
1
10
71.1768459412351
20
1.50691678547898
30
0
41
1
10
71.090520497199
20
1.47471844769211
30
0
41
1
10
70.9713350182676
20
1.42412227899936
30
0
41
1
10
70.933021235351
20
1.4067921943215
30
0
41
1
10
70.8625124170339
20
1.37351869353898
30
0
41
1
10
70.8298947780242
20
1.35750369551673
30
0
41
1
10
70.7987715790681
20
1.34185192722967
30
0
0
SPLINE
5
F7
100
AcDbEntity
8
1
62
256
6
ByLayer
370
18
48
1
60
0
100
AcDbSpline
70
4
71
3
72
8
73
4
40
0
40
0
40
0
40
0
40
1
40
1
40
1
40
1
41
1
10
3.64940284845864
20
0.541905066829287
30
0
41
1
10
3.63491221934524
20
0.549733929967232
30
0
41
1
10
3.61880351797023
20
0.553854108556749
30
0
41
1
10
3.60231268326569
20
0.553951495658396
30
0
0
SPLINE
5
F8
100
AcDbEntity
8
1
62
256
6
ByLayer
370
18
48
1
60
0
100
AcDbSpline
70
4
71
3
72
8
73
4
40
0
40
0
40
0
40
0
40
1
40
1
40
1
40
1
41
1
10
20.5871271908884
20
5.58198630122152
30
0
41
1
10
20.6496205975249
20
5.58324429500573
30
0
41
1
10
20.7120764731725
20
5.58419260653213
30
0
41
1
10
20.7744957402217
20
5.5848382206633
30
0
0
SPLINE
5
F9
100
AcDbEntity
8
1
62
256
6
ByLayer
370
18
48
1
60
0
100
AcDbSpline
70
4
71
3
72
38
73
34
40
0
40
0
40
0
40
0
40
0.0060271409983089
40
0.0060271409983089
40
0.0753024027940063
40
0.0753024027940063
40
0.144577664589704
40
0.144577664589704
40
0.213852926385401
40
0.213852926385401
40
0.283128188181098
40
0.283128188181098
40
0.352403449976796
40
0.352403449976796
40
0.421678711772493
40
0.421678711772493
40
0.490953973568191
40
0.490953973568191
40
0.560229235363888
40
0.560229235363888
40
0.629504497159586
40
0.629504497159586
40
0.698779758955283
40
0.698779758955283
40
0.768055020750981
40
0.768055020750981
40
0.837330282546678
40
0.837330282546678
40
0.906605544342376
40
0.906605544342376
40
0.975880806138073
40
0.975880806138073
40
1
40
1
40
1
40
1
41
1
10
22.3057538084532
20
5.5418598501746
30
0
41
1
10
22.3358668425478
20
5.53982599165161
30
0
41
1
10
22.3659768758071
20
5.53771736021824
30
0
41
1
10
22.7421370706423
20
5.51042631109243
30
0
41
1
10
23.0877890913501
20
5.47578089539169
30
1E-16
41
1
10
23.7784442628736
20
5.38942042402525
30
-1E-16
41
1
10
24.1233794178197
20
5.33786543993264
30
-1E-16
41
1
10
24.8142684796506
20
5.2157597613365
30
1E-16
41
1
10
25.1600769704769
20
5.14568571501033
30
1E-16
41
1
10
25.8524329162626
20
4.98915896040049
30
1E-16
41
1
10
26.1988837925648
20
4.90284881211971
30
1E-16
41
1
10
26.8947199019326
20
4.71204870708584
30
2E-16
41
1
10
27.24404324746
20
4.60802886423704
30
2E-16
41
1
10
27.9438078849923
20
4.38484468781007
30
2E-16
41
1
10
28.2921417439328
20
4.26637127870902
30
2E-16
41
1
10
28.9874281027742
20
4.0153198488587
30
2E-16
41
1
10
29.3342200512821
20
3.88311709331072
30
-2E-16
41
1
10
30.0263238946937
20
3.6069360710172
30
-2E-16
41
1
10
30.371559988825
20
3.46296873313568
30
-2E-16
41
1
10
31.062258314051
20
3.16393206314996
30
-2E-16
41
1
10
31.4075017863828
20
3.00899994414598
30
-2E-16
41
1
10
32.0980009484395
20
2.68948546323733
30
-2E-16
41
1
10
32.4433395472005
20
2.52488743294353
30
-2E-16
41
1
10
33.1355531210217
20
2.187365245813
30
-1E-16
41
1
10
33.4823639791224
20
2.01445246745962
30
-1E-16
41
1
10
34.1773644038622
20
1.6611943144577
30
-1E-16
41
1
10
34.5257168886821
20
1.48091767635626
30
-1E-16
41
1
10
35.225662124196
20
1.11481244535943
30
-1E-16
41
1
10
35.5755624214269
20
0.929799490953371
30
-1E-16
41
1
10
36.2744447365906
20
0.556611820509374
30
0
41
1
10
36.6238188528689
20
0.368753123956878
30
0
41
1
10
37.0955759718548
20
0.115225279650019
30
0
41
1
10
37.2173916006784
20
0.0497255064234707
30
0
41
1
10
37.3391172011038
20
-0.0157402997230918
30
0
0
SPLINE
5
FA
100
AcDbEntity
8
1
62
256
6
ByLayer
370
18
48
1
60
0
100
AcDbSpline
70
4
71
3
72
36
73
32
40
0
40
0
40
0
40
0
40
0.344990069927626
40
0.344990069927626
40
0.572690019545264
40
0.572690019545264
40
0.721536955475293
40
0.721536955475293
40
0.818566617984897
40
0.818566617984897
40
0.881904195282277
40
0.881904195282277
40
0.923278806819161
40
0.923278806819161
40
0.950262967512849
40
0.950262967512849
40
0.967859138638924
40
0.967859138638924
40
0.979444597161038
40
0.979444597161038
40
0.987063787555214
40
0.987063787555214
40
0.991903429333351
40
0.991903429333351
40
0.994992071048468
40
0.994992071048468
40
0.997097976319517
40
0.997097976319517
40
0.999241839741625
40
0.999241839741625
40
1
40
1
40
1
40
1
41
1
10
70.5829560115797
20
5.89831649445784
30
0
41
1
10
70.623662654414
20
5.87184799059023
30
0
41
1
10
70.6644130469775
20
5.84518262220755
30
0
41
1
10
70.7321473284815
20
5.80058657827863
30
0
41
1
10
70.7591028082406
20
5.7827674420744
30
0
41
1
10
70.803726373726
20
5.75315234668193
30
0
41
1
10
70.8213806231016
20
5.74140574038543
30
0
41
1
10
70.8505527440354
20
5.72194716531018
30
0
41
1
10
70.8620666437161
20
5.71425468568134
30
0
41
1
10
70.8810921743522
20
5.70152337364868
30
0
41
1
10
70.8886052808558
20
5.69649059568761
30
0
41
1
10
70.9010223563781
20
5.68816416038774
30
0
41
1
10
70.9059275135583
20
5.68487269481366
30
0
41
1
10
70.9140505590942
20
5.67941798607077
30
0
41
1
10
70.9172636072379
20
5.677259355036
30
0
41
1
10
70.9225784484858
20
5.67368707910359
30
0
41
1
10
70.9246757457354
20
5.67227704256598
30
0
41
1
10
70.9281310935139
20
5.6699535233943
30
0
41
1
10
70.9294918737356
20
5.66903840017491
30
0
41
1
10
70.9317496888417
20
5.66751968160281
30
0
41
1
10
70.9326510467496
20
5.66691325709985
30
0
41
1
10
70.9341486109844
20
5.66590540830993
30
0
41
1
10
70.9347370328764
20
5.66550932677663
30
0
41
1
10
70.9357063877285
20
5.66485674835911
30
0
41
1
10
70.9360846760378
20
5.66460206873012
30
0
41
1
10
70.9367108309449
20
5.66418056773142
30
0
41
1
10
70.9369626733612
20
5.66401105098529
30
0
41
1
10
70.9374485817357
20
5.66368408454744
30
0
41
1
10
70.9376939621156
20
5.66351901199428
30
0
41
1
10
70.9379333274154
20
5.66335831403234
30
0
41
1
10
70.9379873680849
20
5.66332208001589
30
0
41
1
10
70.9380266180164
20
5.66329582973995
30
0
0
SPLINE
5
FB
100
AcDbEntity
8
1
62
256
6
ByLayer
370
18
48
1
60
0
100
AcDbSpline
70
4
71
3
72
8
73
4
40
0
40
0
40
0
40
0
40
1
40
1
40
1
40
1
41
1
10
72.9945592206246
20
0.325735194142794
30
0
41
1
10
72.9690746287961
20
0.240793075717761
30
0
41
1
10
72.9434627683684
20
0.15589011195064
30
0
41
1
10
72.9177241102718
20
0.0710261579580163
30
0
0
SPLINE
5
FC
100
AcDbEntity
8
1
62
256
6
ByLayer
370
18
48
1
60
0
100
AcDbSpline
70
4
71
3
72
36
73
32
40
0
40
0
40
0
40
0
40
0.344990069919516
40
0.344990069919516
40
0.572690019540091
40
0.572690019540091
40
0.721536955472067
40
0.721536955472067
40
0.818566617982848
40
0.818566617982848
40
0.881904195281051
40
0.881904195281051
40
0.923278806818478
40
0.923278806818478
40
0.950262967512557
40
0.950262967512557
40
0.967859138638827
40
0.967859138638827
40
0.979444597161047
40
0.979444597161047
40
0.987063787555355
40
0.987063787555355
40
0.991903429333553
40
0.991903429333553
40
0.994992071048714
40
0.994992071048714
40
0.997097976319641
40
0.997097976319641
40
0.999241839741663
40
0.999241839741663
40
1
40
1
40
1
40
1
41
1
10
70.5829560115842
20
-5.89831649445495
30
0
41
1
10
70.623662654417
20
-5.87184799058829
30
0
41
1
10
70.664413046979
20
-5.84518262220655
30
0
41
1
10
70.7321473284815
20
-5.80058657827863
30
0
41
1
10
70.7591028082406
20
-5.7827674420744
30
0
41
1
10
70.8037263737261
20
-5.75315234668193
30
0
41
1
10
70.8213806231016
20
-5.7414057403854
30
0
41
1
10
70.8505527440354
20
-5.72194716531018
30
0
41
1
10
70.862066643716
20
-5.71425468568134
30
0
41
1
10
70.8810921743522
20
-5.70152337364868
30
0
41
1
10
70.8886052808558
20
-5.69649059568761
30
0
41
1
10
70.9010223563781
20
-5.68816416038774
30
0
41
1
10
70.9059275135583
20
-5.68487269481366
30
0
41
1
10
70.9140505590942
20
-5.67941798607077
30
0
41
1
10
70.9172636072379
20
-5.677259355036
30
0
41
1
10
70.9225784484858
20
-5.67368707910362
30
0
41
1
10
70.9246757457354
20
-5.67227704256598
30
0
41
1
10
70.9281310935139
20
-5.6699535233943
30
0
41
1
10
70.9294918737356
20
-5.66903840017491
30
0
41
1
10
70.9317496888417
20
-5.66751968160281
30
0
41
1
10
70.9326510467496
20
-5.66691325709988
30
0
41
1
10
70.9341486109844
20
-5.66590540830995
30
0
41
1
10
70.9347370328764
20
-5.66550932677663
30
0
41
1
10
70.9357063877285
20
-5.66485674835909
30
0
41
1
10
70.9360846760378
20
-5.66460206873012
30
0
41
1
10
70.9367108309449
20
-5.66418056773142
30
0
41
1
10
70.9369626733611
20
-5.66401105098532
30
0
41
1
10
70.9374485817357
20
-5.6636840845475
30
0
41
1
10
70.9376939621155
20
-5.66351901199434
30
0
41
1
10
70.9379333274153
20
-5.66335831403239
30
0
41
1
10
70.9379873680849
20
-5.66332208001594
30
0
41
1
10
70.9380266180163
20
-5.66329582974001
30
0
0
SPLINE
5
FD
100
AcDbEntity
8
1
62
256
6
ByLayer
370
18
48
1
60
0
100
AcDbSpline
70
4
71
3
72
14
73
10
40
0
40
0
40
0
40
0
40
0.263880908988144
40
0.263880908988144
40
0.495769753222712
40
0.495769753222712
40
0.77553816171178
40
0.77553816171178
40
1
40
1
40
1
40
1
41
1
10
70.2192436883447
20
-0.138146995113402
30
0
41
1
10
70.2199788322123
20
-0.138507572873607
30
0
41
1
10
70.2206965250645
20
-0.139239173286796
30
0
41
1
10
70.2218988137788
20
-0.141030285302833
30
0
41
1
10
70.2224174574544
20
-0.142063155379873
30
0
41
1
10
70.2234037824264
20
-0.144600024127584
30
0
41
1
10
70.2238546493456
20
-0.146195738789743
30
0
41
1
10
70.2244262186692
20
-0.149244252672588
30
0
41
1
10
70.2246001784143
20
-0.150698536668358
30
0
41
1
10
70.2246594119523
20
-0.152150108009152
30
0
0
SPLINE
5
FE
100
AcDbEntity
8
SK1
62
256
6
ByLayer
370
18
48
1
60
0
100
AcDbSpline
70
4
71
3
72
12
73
8
40
0
40
0
40
0
40
0
40
0.249999999999999
40
0.249999999999999
40
0.499999999999999
40
0.499999999999999
40
1
40
1
40
1
40
1
41
1
10
-44.15
20
4.92111147632824
30
-1E-16
41
1
10
-44.15
20
4.92559481965651
30
-1E-16
41
1
10
-44.1541964903379
20
4.92584403304929
30
-1E-16
41
1
10
-44.1670510016405
20
4.92074311936631
30
-1E-16
41
1
10
-44.1755314964661
20
4.91558137068554
30
-1E-16
41
1
10
-44.2039103264456
20
4.89568286718432
30
-1E-16
41
1
10
-44.2265803533262
20
4.87674439147332
30
-1E-16
41
1
10
-44.25
20
4.85518544422621
30
-1E-16
0
SPLINE
5
FF
100
AcDbEntity
8
SK1
62
256
6
ByLayer
370
18
48
1
60
0
100
AcDbSpline
70
4
71
3
72
8
73
4
40
0
40
0
40
0
40
0
40
1
40
1
40
1
40
1
41
1
10
-44.25
20
4.85518544422618
30
-1E-16
41
1
10
-44.3060037825405
20
4.80363118253101
30
-1E-16
41
1
10
-44.3619875814463
20
4.75205938263704
30
-1E-16
41
1
10
-44.4179491924311
20
4.70046811000091
30
-1E-16
0
SPLINE
5
100
100
AcDbEntity
8
SK1
62
256
6
ByLayer
370
18
48
1
60
0
100
AcDbSpline
70
4
71
3
72
8
73
4
40
0
40
0
40
0
40
0
40
1
40
1
40
1
40
1
41
1
10
-44.4179491924311
20
3.83694708630205
30
2E-16
41
1
10
-44.3619874070337
20
3.88853851972999
30
2E-16
41
1
10
-44.3060036139756
20
3.94011031400456
30
2E-16
41
1
10
-44.25
20
3.99166442052731
30
2E-16
0
SPLINE
5
101
100
AcDbEntity
8
SK1
62
256
6
ByLayer
370
18
48
1
60
0
100
AcDbSpline
70
4
71
3
72
10
73
6
40
0
40
0
40
0
40
0
40
0.5
40
0.5
40
1
40
1
40
1
40
1
41
1
10
-45.0000000000001
20
4.24931215608189
30
0
41
1
10
-44.892418923189
20
4.35019920603651
30
0
41
1
10
-44.7890116623726
20
4.44089184139409
30
0
41
1
10
-44.5927829535177
20
4.59535006767803
30
1E-16
41
1
10
-44.4993017440334
20
4.65945103723269
30
0
41
1
10
-44.4179491924311
20
4.70046811000091
30
-1E-16
0
SPLINE
5
102
100
AcDbEntity
8
SK1
62
256
6
ByLayer
370
18
48
1
60
0
100
AcDbSpline
70
4
71
3
72
12
73
8
40
0
40
0
40
0
40
0
40
0.500000000000005
40
0.500000000000005
40
0.750000000000002
40
0.750000000000002
40
1
40
1
40
1
40
1
41
1
10
-44.25
20
3.99166442052731
30
2E-16
41
1
10
-44.2265754814923
20
4.01322785253939
30
2E-16
41
1
10
-44.2038494963526
20
4.03902944121856
30
2E-16
41
1
10
-44.1756806214309
20
4.07956080895366
30
2E-16
41
1
10
-44.1670810890644
20
4.09373639572169
30
2E-16
41
1
10
-44.1542487488419
20
4.12087384103822
30
2E-16
41
1
10
-44.15
20
4.13411575483579
30
2E-16
41
1
10
-44.15
20
4.14394255499926
30
2E-16
0
SPLINE
5
103
100
AcDbEntity
8
SK1
62
256
6
ByLayer
370
18
48
1
60
0
100
AcDbSpline
70
4
71
3
72
12
73
8
40
0
40
0
40
0
40
0
40
0.25
40
0.25
40
0.5
40
0.5
40
1
40
1
40
1
40
1
41
1
10
-44.4179491924311
20
3.83694708630205
30
2E-16
41
1
10
-44.4585118025587
20
3.755827892708
30
2E-16
41
1
10
-44.5017617157541
20
3.6735945448082
30
2E-16
41
1
10
-44.5926945369118
20
3.50731744644568
30
-2E-16
41
1
10
-44.6405857309338
20
3.4229311018039
30
-2E-16
41
1
10
-44.7885787506849
20
3.17001976504855
30
-2E-16
41
1
10
-44.8923167485562
20
3.00266097695703
30
-2E-16
41
1
10
-45.0000000000001
20
2.83632681821189
30
-2E-16
0
SPLINE
5
104
100
AcDbEntity
8
1
62
256
6
ByLayer
370
18
48
1
60
0
100
AcDbSpline
70
4
71
3
72
15
73
11
40
0
40
0
40
0
40
0
40
0.142239753743687
40
0.351620577730506
40
0.433271828131214
40
0.510015355004547
40
0.582699080275655
40
0.685029290277957
40
0.831695522504756
40
1
40
1
40
1
40
1
41
1
10
70.7958065873577
20
1.36685328868526
30
-1E-16
41
1
10
70.460451670502
20
1.47176621369365
30
-1E-16
41
1
10
69.6335894226795
20
1.73732481657223
30
-1E-16
41
1
10
68.6221114289063
20
2.08604476955358
30
-1E-16
41
1
10
67.7671075776383
20
2.39230270734606
30
-1E-16
41
1
10
67.2313475473078
20
2.58876914864152
30
-2E-16
41
1
10
66.6490875404965
20
2.80677970656237
30
-2E-16
41
1
10
65.9071591904173
20
3.09144383242008
30
-2E-16
41
1
10
64.9487015300138
20
3.47131596622384
30
-2E-16
41
1
10
64.2298716647045
20
3.76924774646258
30
-2E-16
41
1
10
63.8470079631333
20
3.93154891592826
30
-2E-16
0
SPLINE
5
105
100
AcDbEntity
8
1
62
256
6
ByLayer
370
18
48
1
60
0
100
AcDbSpline
70
4
71
3
72
22
73
18
40
0
40
0
40
0
40
0
40
0.0888946831679626
40
0.155607011536921
40
0.201517852708932
40
0.251376148552255
40
0.3144651601714
40
0.381730240761397
40
0.47282768108307
40
0.549263570800628
40
0.617075532480111
40
0.679717310529893
40
0.753561015041367
40
0.843807012683754
40
0.92570387603475
40
0.990035556240639
40
1
40
1
40
1
40
1
41
1
10
39.6284246561208
20
-5.58564362737062
30
0
41
1
10
39.9457861907125
20
-5.58582697189743
30
0
41
1
10
40.5013189217619
20
-5.58615250281127
30
0
41
1
10
41.22092702439
20
-5.58664068000516
30
0
41
1
10
41.8009196693149
20
-5.58696388459387
30
0
41
1
10
42.3679619348204
20
-5.58745303293861
30
0
41
1
10
43.0114848922816
20
-5.58798328869267
30
0
41
1
10
43.8022040561764
20
-5.58790820955886
30
0
41
1
10
44.6405921327992
20
-5.58919754208051
30
0
41
1
10
45.4809338262698
20
-5.58914793430642
30
0
41
1
10
46.2196722144711
20
-5.58931914968161
30
0
41
1
10
46.9491533418621
20
-5.59073034097906
30
0
41
1
10
47.7587368205734
20
-5.58989726334363
30
0
41
1
10
48.6370771557561
20
-5.59184810180955
30
0
41
1
10
49.4814455328999
20
-5.59161450815904
30
0
41
1
10
50.039179956286
20
-5.5912143686491
30
0
41
1
10
50.3044511654268
20
-5.5916053738882
30
0
41
1
10
50.3400277527577
20
-5.59166454335536
30
0
0
SPLINE
5
106
100
AcDbEntity
8
1
62
256
6
ByLayer
370
18
48
1
60
0
100
AcDbSpline
70
4
71
3
72
26
73
22
40
0
40
0
40
0
40
0
40
6.86003439787E-05
40
0.0002124149922888
40
0.0003728086645096
40
0.0007716311821917
40
0.0013029122920651
40
0.004951282156749
40
0.0293076138585938
40
0.0684349620597267
40
0.115732185638425
40
0.142451697894283
40
0.167477564364464
40
0.323873914966742
40
0.465502383398534
40
0.605444705000221
40
0.671351250632871
40
0.735783072280537
40
0.799910978694809
40
0.891096777652977
40
1
40
1
40
1
40
1
41
1
10
41.5373899764777
20
0.368130481928063
30
0
41
1
10
41.5373862380986
20
0.368131550827371
30
0
41
1
10
41.5373484397468
20
0.368141736779251
30
0
41
1
10
41.5370869003384
20
0.36821113567521
30
0
41
1
10
41.5359165770461
20
0.368522209836385
30
0
41
1
10
41.5331752151902
20
0.369251215220373
30
0
41
1
10
41.5196509406629
20
0.372851404534572
30
0
41
1
10
41.4216893655737
20
0.399011535359619
30
0
41
1
10
41.187404460808
20
0.462378677063583
30
0
41
1
10
40.7985758351757
20
0.569621115510131
30
0
41
1
10
40.4028477550069
20
0.681326181677235
30
0
41
1
10
40.0567056790821
20
0.780999303058991
30
0
41
1
10
39.3300439305465
20
0.99310979964639
30
-1E-16
41
1
10
38.2061256500952
20
1.3367741201312
30
-1E-16
41
1
10
36.6921548826173
20
1.83416987874162
30
-1E-16
41
1
10
35.4987155554634
20
2.25199688382151
30
-1E-16
41
1
10
34.5750764630244
20
2.58992895194473
30
-2E-16
41
1
10
33.9126796591804
20
2.83889234699788
30
-2E-16
41
1
10
33.1666697126731
20
3.12672914456408
30
-2E-16
41
1
10
32.2731949256138
20
3.48172291852197
30
-2E-16
41
1
10
31.6007344484138
20
3.76059341711644
30
-2E-16
41
1
10
31.2358958660304
20
3.91522356313865
30
-2E-16
0
SPLINE
5
107
100
AcDbEntity
8
1
62
256
6
ByLayer
370
18
48
1
60
0
100
AcDbSpline
70
4
71
3
72
23
73
19
40
0
40
0
40
0
40
0
40
0.0995841862383953
40
0.174850127277788
40
0.230313171478697
40
0.263233802410204
40
0.295780137762087
40
0.329284607835288
40
0.364623891057777
40
0.405555073602914
40
0.45250131497644
40
0.544733769773343
40
0.620554688111859
40
0.684354416579028
40
0.748398037398963
40
0.819884175088623
40
0.904193319862982
40
1
40
1
40
1
40
1
41
1
10
53.6356423302905
20
5.59413001135621
30
0
41
1
10
53.2770092775212
20
5.59404001824149
30
0
41
1
10
52.6471801465825
20
5.59387651776265
30
0
41
1
10
51.8172653139113
20
5.59208368834524
30
0
41
1
10
51.2273662137806
20
5.59273420905006
30
0
41
1
10
50.7921040301233
20
5.59262785640516
30
0
41
1
10
50.435543165659
20
5.59183908471601
30
0
41
1
10
50.0701828397326
20
5.59122699685045
30
0
41
1
10
49.674585240559
20
5.59141946401252
30
0
41
1
10
49.2305547451171
20
5.59177545891262
30
0
41
1
10
48.5814969219281
20
5.5916967499758
30
0
41
1
10
47.8067118187432
20
5.58984408795388
30
0
41
1
10
46.9711925326015
20
5.59075521107948
30
0
41
1
10
46.2372544091083
20
5.58935491495484
30
0
41
1
10
45.5189359860831
20
5.58911854363663
30
0
41
1
10
44.726711018725
20
5.58927162646918
30
0
41
1
10
43.8200226222579
20
5.58781890191838
30
0
41
1
10
43.1709617212864
20
5.58794463634788
30
0
41
1
10
42.8256945711274
20
5.58777861165416
30
0
0
SPLINE
5
108
100
AcDbEntity
8
1
62
256
6
ByLayer
370
18
48
1
60
0
100
AcDbSpline
70
4
71
3
72
22
73
18
40
0
40
0
40
0
40
0
40
0.0953374545343657
40
0.167515318993568
40
0.227087819943899
40
0.265855189624
40
0.307895691599456
40
0.353458691396941
40
0.404712119817108
40
0.462438919243851
40
0.554462703215114
40
0.623880293174487
40
0.682701218998461
40
0.770305936817706
40
0.875368284200204
40
0.993426681877857
40
1
40
1
40
1
40
1
41
1
10
20.980487339621
20
5.57588810555288
30
0
41
1
10
20.6401688106455
20
5.57604326963101
30
0
41
1
10
20.0421120685015
20
5.57610052631418
30
0
41
1
10
19.2310803083063
20
5.57431281622965
30
0
41
1
10
18.6220617749733
20
5.57452100097569
30
0
41
1
10
18.1210161971279
20
5.57408435331564
30
0
41
1
10
17.6696876417907
20
5.57344066344774
30
0
41
1
10
17.173775309002
20
5.57304210866712
30
0
41
1
10
16.621836547518
20
5.57309262070336
30
0
41
1
10
15.9039663525089
20
5.57244613860706
30
0
41
1
10
15.1212397226184
20
5.57142644489949
30
0
41
1
10
14.3345584869853
20
5.57149211903217
30
0
41
1
10
13.5638157629256
20
5.57046192384209
30
0
41
1
10
12.666873975518
20
5.56952178720402
30
0
41
1
10
11.5573580551532
20
5.56899744709446
30
0
41
1
10
10.7371576101522
20
5.56842888128904
30
0
41
1
10
10.2920594944313
20
5.5681301413407
30
0
41
1
10
10.2685840497962
20
5.56811433815525
30
0
0
SPLINE
5
109
100
AcDbEntity
8
1
62
256
6
ByLayer
370
18
48
1
60
0
100
AcDbSpline
70
4
71
3
72
23
73
19
40
0
40
0
40
0
40
0
40
0.089706193895235
40
0.155388708673167
40
0.198380712485242
40
0.239119904695258
40
0.285777902086083
40
0.3373555728429
40
0.387859336304475
40
0.475061262287338
40
0.552349901481219
40
0.619354606677588
40
0.6761408389247
40
0.74233280631967
40
0.830261469009122
40
0.916451267843753
40
0.988256915813799
40
1
40
1
40
1
40
1
41
1
10
6.97465457231348
20
-5.56515587879184
30
0
41
1
10
7.2978179623891
20
-5.56548446986639
30
0
41
1
10
7.85760026067578
20
-5.56602591415844
30
0
41
1
10
8.57222581534572
20
-5.56666587387303
30
0
41
1
10
9.11050000396804
20
-5.56710302416585
30
0
41
1
10
9.58010929646403
20
-5.56756959582967
30
0
41
1
10
10.0807675606136
20
-5.568048364053
30
0
41
1
10
10.6165935980631
20
-5.56829483731511
30
0
41
1
10
11.2985468342071
20
-5.56858406986331
30
0
41
1
10
12.0722409200818
20
-5.56957245355608
30
0
41
1
10
12.9068535564366
20
-5.56959336931939
30
0
41
1
10
13.629675289394
20
-5.57058506683703
30
0
41
1
10
14.3141388115214
20
-5.57146069110277
30
0
41
1
10
15.0739349203016
20
-5.571431481476
30
0
41
1
10
15.9396748215337
20
-5.57251001293605
30
0
41
1
10
16.8256367644973
20
-5.5730982501787
30
0
41
1
10
17.4371324968821
20
-5.5732242817862
30
0
41
1
10
17.7381249403083
20
-5.5735597944352
30
0
41
1
10
17.7804299006594
20
-5.5736101140331
30
0
0
SPLINE
5
10A
100
AcDbEntity
8
1
62
256
6
ByLayer
370
18
48
1
60
0
100
AcDbSpline
70
4
71
2
72
6
73
3
40
0
40
0
40
0
40
1
40
1
40
1
41
1
10
55.9548078325763
20
-0.0004068052527657
30
0
41
1
10
55.9547921402791
20
-0.0003874201546239
30
0
41
1
10
55.9547764478526
20
-0.000367750318361
30
0
0
LINE
5
84
100
AcDbEntity
8
1
62
256
6
ByLayer
370
18
48
1
60
0
100
AcDbLine
10
3.501662
20
-5.513635
30
0
11
3.501662
21
0.481964
31
0
39
0
210
0
220
0
230
1
0
LINE
5
85
100
AcDbEntity
8
1
62
256
6
ByLayer
370
18
48
1
60
0
100
AcDbLine
10
0
20
6
30
0
11
0
21
0
31
0
39
0
210
0
220
0
230
1
0
LINE
5
86
100
AcDbEntity
8
1
62
256
6
ByLayer
370
18
48
1
60
0
100
AcDbLine
10
0
20
0
30
0
11
0
21
-6
31
0
39
0
210
0
220
0
230
1
0
LINE
5
87
100
AcDbEntity
8
1
62
256
6
ByLayer
370
18
48
1
60
0
100
AcDbLine
10
25.6
20
-2.079091
30
0
11
25.6
21
-2.166174
31
0
39
0
210
0
220
0
230
1
0
LINE
5
88
100
AcDbEntity
8
1
62
256
6
ByLayer
370
18
48
1
60
0
100
AcDbLine
10
72.917724
20
0.071026
30
0
11
71.539471
21
1.592379
31
0
39
0
210
0
220
0
230
1
0
LINE
5
89
100
AcDbEntity
8
1
62
256
6
ByLayer
370
18
48
1
60
0
100
AcDbLine
10
0.307551
20
5.855908
30
0
11
0.307551
21
0
31
0
39
0
210
0
220
0
230
1
0
LINE
5
8A
100
AcDbEntity
8
1
62
256
6
ByLayer
370
18
48
1
60
0
100
AcDbLine
10
0.307551
20
0
30
0
11
0.307551
21
-5.855908
31
0
39
0
210
0
220
0
230
1
0
LINE
5
8B
100
AcDbEntity
8
1
62
256
6
ByLayer
370
18
48
1
60
0
100
AcDbLine
10
0.153713
20
5.927954
30
0
11
0.153713
21
0
31
0
39
0
210
0
220
0
230
1
0
LINE
5
8C
100
AcDbEntity
8
1
62
256
6
ByLayer
370
18
48
1
60
0
100
AcDbLine
10
0.153713
20
0
30
0
11
0.153713
21
-5.927954
31
0
39
0
210
0
220
0
230
1
0
LINE
5
8D
100
AcDbEntity
8
SK1
62
256
6
ByLayer
370
18
48
1
60
0
100
AcDbLine
10
-44.25
20
3.99165
30
0
11
-44.25
21
4.855185
31
0
39
0
210
0
220
0
230
1
0
LINE
5
8F
100
AcDbEntity
8
SK1
62
256
6
ByLayer
370
18
48
1
60
0
100
AcDbLine
10
-43.255
20
-6
30
0
11
-43.255
21
6
31
0
39
0
210
0
220
0
230
1
0
LINE
5
90
100
AcDbEntity
8
SK1
62
256
6
ByLayer
370
18
48
1
60
0
100
AcDbLine
10
0
20
6
30
0
11
0
21
-6
31
0
39
0
210
0
220
0
230
1
0
LINE
5
91
100
AcDbEntity
8
SK1
62
256
6
ByLayer
370
18
48
1
60
0
100
AcDbLine
10
-45
20
2.836281
30
0
11
-45
21
4.249312
31
0
39
0
210
0
220
0
230
1
0
LINE
5
92
100
AcDbEntity
8
SK1
62
256
6
ByLayer
370
18
48
1
60
0
100
AcDbLine
10
-44.417949
20
3.836855
30
0
11
-44.417949
21
4.700468
31
0
39
0
210
0
220
0
230
1
0
LINE
5
93
100
AcDbEntity
8
SK1
62
256
6
ByLayer
370
18
48
1
60
0
100
AcDbLine
10
-45
20
4.249312
30
0
11
-45
21
4.255
31
0
39
0
210
0
220
0
230
1
0
LINE
5
94
100
AcDbEntity
8
SK1
62
256
6
ByLayer
370
18
48
1
60
0
100
AcDbLine
10
-45
20
-4.255
30
0
11
-45
21
2.836327
31
0
39
0
210
0
220
0
230
1
0
LINE
5
95
100
AcDbEntity
8
SK1
62
256
6
ByLayer
370
18
48
1
60
0
100
AcDbLine
10
-44.15
20
4.143943
30
0
11
-44.15
21
4.921111
31
0
39
0
210
0
220
0
230
1
0
LINE
5
96
100
AcDbEntity
8
SK1
62
256
6
ByLayer
370
18
48
1
60
0
100
AcDbLine
10
-45
20
-4.255
30
0
11
-43.255
21
-6
31
0
39
0
210
0
220
0
230
1
0
LINE
5
97
100
AcDbEntity
8
SK1
62
256
6
ByLayer
370
18
48
1
60
0
100
AcDbLine
10
-43.255
20
6
30
0
11
-45
21
4.255
31
0
39
0
210
0
220
0
230
1
0
LINE
5
98
100
AcDbEntity
8
SK1
62
256
6
ByLayer
370
18
48
1
60
0
100
AcDbLine
10
-43.255
20
-6
30
0
11
0
21
-6
31
0
39
0
210
0
220
0
230
1
0
LINE
5
99
100
AcDbEntity
8
SK1
62
256
6
ByLayer
370
18
48
1
60
0
100
AcDbLine
10
0
20
6
30
0
11
-43.255
21
6
31
0
39
0
210
0
220
0
230
1
0
LINE
5
9A
100
AcDbEntity
8
1
62
256
6
ByLayer
370
18
48
1
60
0
100
AcDbLine
10
0.307551
20
-5.855908
30
0
11
6.9782
21
-5.860077
31
0
39
0
210
0
220
0
230
1
0
LINE
5
9B
100
AcDbEntity
8
1
62
256
6
ByLayer
370
18
48
1
60
0
100
AcDbLine
10
20.982183
20
-5.86883
30
0
11
22.495808
21
-5.869776
31
0
39
0
210
0
220
0
230
1
0
LINE
5
9C
100
AcDbEntity
8
1
62
256
6
ByLayer
370
18
48
1
60
0
100
AcDbLine
10
38.164902
20
-5.879569
30
0
11
39.628878
21
-5.880484
31
0
39
0
210
0
220
0
230
1
0
LINE
5
9D
100
AcDbEntity
8
1
62
256
6
ByLayer
370
18
48
1
60
0
100
AcDbLine
10
53.637417
20
-5.889239
30
0
11
55.113421
21
-5.890162
31
0
39
0
210
0
220
0
230
1
0
LINE
5
9E
100
AcDbEntity
8
1
62
256
6
ByLayer
370
18
48
1
60
0
100
AcDbLine
10
55.113421
20
5.890162
30
0
11
53.637417
21
5.889239
31
0
39
0
210
0
220
0
230
1
0
LINE
5
9F
100
AcDbEntity
8
1
62
256
6
ByLayer
370
18
48
1
60
0
100
AcDbLine
10
39.628878
20
5.880484
30
0
11
38.164902
21
5.879569
31
0
39
0
210
0
220
0
230
1
0
LINE
5
A0
100
AcDbEntity
8
1
62
256
6
ByLayer
370
18
48
1
60
0
100
AcDbLine
10
22.495808
20
5.869776
30
0
11
20.982183
21
5.86883
31
0
39
0
210
0
220
0
230
1
0
LINE
5
A1
100
AcDbEntity
8
1
62
256
6
ByLayer
370
18
48
1
60
0
100
AcDbLine
10
6.9782
20
5.860077
30
0
11
0.307551
21
5.855908
31
0
39
0
210
0
220
0
230
1
0
LINE
5
A2
100
AcDbEntity
8
SK4
62
256
6
ByLayer
370
18
48
0.05
60
0
100
AcDbLine
10
78
20
0
30
0
11
-50
21
0
31
0
39
0
210
0
220
0
230
1
0
LINE
5
A4
100
AcDbEntity
8
4
62
256
6
ByLayer
370
18
48
0.05
60
0
100
AcDbLine
10
-45
20
0
30
0
11
78
21
0
31
0
39
0
210
0
220
0
230
1
0
LINE
5
A6
100
AcDbEntity
8
80
62
256
6
ByLayer
370
18
48
1
60
0
100
AcDbLine
10
0
20
0
30
0
11
-6
21
0
31
0
39
0
210
0
220
0
230
1
0
LINE
5
A7
100
AcDbEntity
8
81
62
256
6
ByLayer
370
18
48
1
60
0
100
AcDbLine
10
73
20
0
30
0
11
79
21
0
31
0
39
0
210
0
220
0
230
1
0
LINE
5
A8
100
AcDbEntity
8
SK2
62
256
6
ByLayer
370
13
48
1
60
0
100
AcDbLine
10
73.542952
20
1.491764
30
0
11
80.926237
21
21.777405
31
0
39
0
210
0
220
0
230
1
0
LINE
5
AA
100
AcDbEntity
8
SK2
62
256
6
ByLayer
370
13
48
1
60
0
100
AcDbLine
10
73.542952
20
-1.491764
30
0
11
80.926237
21
-21.777405
31
0
39
0
210
0
220
0
230
1
0
LINE
5
AB
100
AcDbEntity
8
1
62
256
6
ByLayer
370
13
48
1
60
0
100
AcDbLine
10
79.840334
20
18.793877
30
0
11
82.936928
21
17.977517
31
0
39
0
210
0
220
0
230
1
0
LINE
5
AC
100
AcDbEntity
8
1
62
256
6
ByLayer
370
13
48
1
60
0
100
AcDbLine
10
79.840334
20
18.793877
30
0
11
82.620127
21
17.203875
31
0
39
0
210
0
220
0
230
1
0
LINE
5
AD
100
AcDbEntity
8
1
62
256
6
ByLayer
370
13
48
1
60
0
100
AcDbLine
10
82.936928
20
17.977517
30
0
11
82.620127
21
17.203875
31
0
39
0
210
0
220
0
230
1
0
LINE
5
AE
100
AcDbEntity
8
1
62
256
6
ByLayer
370
13
48
1
60
0
100
AcDbLine
10
79.840334
20
-18.793877
30
0
11
82.620124
21
-17.203876
31
0
39
0
210
0
220
0
230
1
0
LINE
5
AF
100
AcDbEntity
8
1
62
256
6
ByLayer
370
13
48
1
60
0
100
AcDbLine
10
79.840334
20
-18.793877
30
0
11
82.936931
21
-17.977516
31
0
39
0
210
0
220
0
230
1
0
LINE
5
B0
100
AcDbEntity
8
1
62
256
6
ByLayer
370
13
48
1
60
0
100
AcDbLine
10
82.620124
20
-17.203876
30
0
11
82.936931
21
-17.977516
31
0
39
0
210
0
220
0
230
1
0
MTEXT
5
10B
100
AcDbEntity
8
SK2
62
256
6
ByLayer
370
18
48
1
60
0
100
AcDbMText
10
86.717388
20
-2.467451
30
0
210
0
220
0
230
1
1
\W0.7237;140.00
40
3.50012
41
0
44
1.084337
50
0
71
7
72
5
7
iso_b_vert
0
MTEXT
5
10E
100
AcDbEntity
8
SK6
62
256
6
ByLayer
370
18
48
1
60
0
100
AcDbMText
10
-23.932131
20
-96.437421
30
0
210
0
220
0
230
1
1
\W0.7135;860.1-1180-051A1-GM X1BM
40
3.175
41
0
44
1.084337
50
0
71
7
72
5
7
iso_b_vert
0
DIMENSION
5
111
100
AcDbEntity
8
SK2
62
256
6
ByLayer
370
18
48
1
60
0
100
AcDbDimension
2
_U0
10
73
20
-29.50012
30
0
11
36.5
21
-29.50012
31
0
70
32
71
2
72
1
41
1
210
0
220
0
230
1
3
Standard
100
AcDbAlignedDimension
13
0
23
-6
33
0
14
73
24
0
34
0
50
0
100
AcDbRotatedDimension
1001
ACAD
1000
DSTYLE
1002
{
1070
   371
1070
    13
1070
   372
1070
    13
1070
     3
1000

1070
   170
1070
     0
1070
   144
1040
1.0
1070
   277
1070
     2
1070
   284
1070
     8
1070
   278
1070
    46
1070
   146
1040
0.999966
1070
   345
1005
16
1070
   347
1005
16
1070
   346
1005
16
1070
   344
1005
112
1070
   343
1005
112
1070
   172
1070
     1
1070
    76
1070
     0
1070
    75
1070
     0
1070
   282
1070
     0
1070
   281
1070
     0
1070
    71
1070
     0
1070
    74
1070
     0
1070
   279
1070
     0
1070
   173
1070
     1
1070
   340
1005
10C
1070
   271
1070
     1
1070
   272
1070
     2
1070
    77
1070
     1
1070
    73
1070
     1
1070
   171
1070
     3
1070
   274
1070
     4
1070
   177
1070
   150
1070
   176
1070
     9
1070
   178
1070
    43
1070
    78
1070
     8
1070
    48
1040
-0.1
1070
    41
1040
3.175
1070
   147
1040
1.75006
1070
    42
1040
1.5875
1070
    44
1040
3.175
1070
   140
1040
3.50012
1002
}
1001
ACAD_DSTYLE_DIM_LINETYPE
1070
   380
1005
16
1001
ACAD_DSTYLE_DIM_EXT1_LINETYPE
1070
   381
1005
16
1001
ACAD_DSTYLE_DIM_EXT2_LINETYPE
1070
   382
1005
16
0
DIMENSION
5
137
100
AcDbEntity
8
2
62
256
6
ByLayer
370
18
48
1
60
0
100
AcDbDimension
2
_U1
10
79.75006
20
5.9
30
0
11
79.75006
21
22.889948
31
0
70
32
71
1
72
1
41
1
210
0
220
0
230
1
3
Standard
100
AcDbAlignedDimension
13
70.8526
23
-5.9
33
0
14
70.8526
24
5.9
34
0
50
90
100
AcDbRotatedDimension
1001
ACAD
1000
DSTYLE
1002
{
1070
   371
1070
    13
1070
   372
1070
    13
1070
     3
1000

1070
   170
1070
     0
1070
   144
1040
1.0
1070
   277
1070
     2
1070
   284
1070
     8
1070
   278
1070
    46
1070
   146
1040
0.999966
1070
   345
1005
16
1070
   347
1005
16
1070
   346
1005
16
1070
   344
1005
112
1070
   343
1005
112
1070
   172
1070
     1
1070
    76
1070
     0
1070
    75
1070
     0
1070
   282
1070
     0
1070
   281
1070
     0
1070
    71
1070
     0
1070
    74
1070
     0
1070
   279
1070
     0
1070
   173
1070
     1
1070
   340
1005
10C
1070
   271
1070
     1
1070
   272
1070
     2
1070
    77
1070
     1
1070
    73
1070
     0
1070
   171
1070
     3
1070
   274
1070
     4
1070
   177
1070
   150
1070
   176
1070
     9
1070
   178
1070
    43
1070
    78
1070
     8
1070
    48
1040
-0.1
1070
    41
1040
3.175
1070
   147
1040
1.75006
1070
    42
1040
1.5875
1070
    44
1040
3.175
1070
   140
1040
3.50012
1002
}
1001
ACAD_DSTYLE_DIM_LINETYPE
1070
   380
1005
16
1001
ACAD_DSTYLE_DIM_EXT1_LINETYPE
1070
   381
1005
16
1001
ACAD_DSTYLE_DIM_EXT2_LINETYPE
1070
   382
1005
16
0
DIMENSION
5
156
100
AcDbEntity
8
SK2
62
256
6
ByLayer
370
18
48
1
60
0
100
AcDbDimension
2
_U2
10
-48.24994
20
-6
30
0
11
-48.24994
21
20.97767
31
0
70
32
71
1
72
1
41
1
210
0
220
0
230
1
3
Standard
100
AcDbAlignedDimension
13
-45
23
6
33
0
14
-45
24
-6
34
0
50
90
100
AcDbRotatedDimension
1001
ACAD
1000
DSTYLE
1002
{
1070
   371
1070
    13
1070
   372
1070
    13
1070
     3
1000

1070
   170
1070
     0
1070
   144
1040
1.0
1070
   277
1070
     2
1070
   284
1070
     8
1070
   278
1070
    46
1070
   146
1040
0.999966
1070
   345
1005
16
1070
   347
1005
16
1070
   346
1005
16
1070
   344
1005
112
1070
   343
1005
112
1070
   172
1070
     1
1070
    76
1070
     0
1070
    75
1070
     0
1070
   282
1070
     0
1070
   281
1070
     0
1070
    71
1070
     0
1070
    74
1070
     0
1070
   279
1070
     0
1070
   173
1070
     1
1070
   340
1005
10C
1070
   271
1070
     1
1070
   272
1070
     2
1070
    77
1070
     1
1070
    73
1070
     0
1070
   171
1070
     3
1070
   274
1070
     4
1070
   177
1070
   150
1070
   176
1070
     9
1070
   178
1070
    43
1070
    78
1070
     8
1070
    48
1040
-0.1
1070
    41
1040
3.175
1070
   147
1040
1.75006
1070
    42
1040
1.5875
1070
    44
1040
3.175
1070
   140
1040
3.50012
1002
}
1001
ACAD_DSTYLE_DIM_LINETYPE
1070
   380
1005
16
1001
ACAD_DSTYLE_DIM_EXT1_LINETYPE
1070
   381
1005
16
1001
ACAD_DSTYLE_DIM_EXT2_LINETYPE
1070
   382
1005
16
0
DIMENSION
5
174
100
AcDbEntity
8
SK2
62
256
6
ByLayer
370
18
48
1
60
0
100
AcDbDimension
2
_U3
10
0
20
-29.50012
30
0
11
-22.5
21
-29.50012
31
0
70
32
71
1
72
1
41
1
210
0
220
0
230
1
3
Standard
100
AcDbAlignedDimension
13
-45
23
-6
33
0
14
0
24
-6
34
0
50
0
100
AcDbRotatedDimension
1001
ACAD
1000
DSTYLE
1002
{
1070
   371
1070
    13
1070
   372
1070
    13
1070
     3
1000

1070
   170
1070
     0
1070
   144
1040
1.0
1070
   277
1070
     2
1070
   284
1070
     8
1070
   278
1070
    46
1070
   146
1040
0.999966
1070
   345
1005
16
1070
   347
1005
16
1070
   346
1005
16
1070
   344
1005
112
1070
   343
1005
112
1070
   172
1070
     1
1070
    76
1070
     0
1070
    75
1070
     0
1070
   282
1070
     0
1070
   281
1070
     0
1070
    71
1070
     0
1070
    74
1070
     0
1070
   279
1070
     0
1070
   173
1070
     1
1070
   340
1005
10C
1070
   271
1070
     1
1070
   272
1070
     2
1070
    77
1070
     1
1070
    73
1070
     1
1070
   171
1070
     3
1070
   274
1070
     4
1070
   177
1070
   150
1070
   176
1070
     9
1070
   178
1070
    43
1070
    78
1070
     8
1070
    48
1040
-0.1
1070
    41
1040
3.175
1070
   147
1040
1.75006
1070
    42
1040
1.5875
1070
    44
1040
3.175
1070
   140
1040
3.50012
1002
}
1001
ACAD_DSTYLE_DIM_LINETYPE
1070
   380
1005
16
1001
ACAD_DSTYLE_DIM_EXT1_LINETYPE
1070
   381
1005
16
1001
ACAD_DSTYLE_DIM_EXT2_LINETYPE
1070
   382
1005
16
0
DIMENSION
5
190
100
AcDbEntity
8
SK2
62
256
6
ByLayer
370
18
48
1
60
0
100
AcDbDimension
2
_U4
10
73
20
-20.74982
30
0
11
37.5
21
-20.74982
31
0
70
32
71
1
72
1
41
1
210
0
220
0
230
1
3
Standard
100
AcDbAlignedDimension
13
2
23
6.4
33
0
14
73
24
0
34
0
50
0
100
AcDbRotatedDimension
1001
ACAD
1000
DSTYLE
1002
{
1070
   371
1070
    13
1070
   372
1070
    13
1070
     3
1000

1070
   170
1070
     0
1070
   144
1040
1.0
1070
   277
1070
     2
1070
   284
1070
     8
1070
   278
1070
    46
1070
   146
1040
0.999966
1070
   345
1005
16
1070
   347
1005
16
1070
   346
1005
16
1070
   344
1005
112
1070
   343
1005
112
1070
   172
1070
     1
1070
    76
1070
     0
1070
    75
1070
     0
1070
   282
1070
     0
1070
   281
1070
     0
1070
    71
1070
     0
1070
    74
1070
     0
1070
   279
1070
     0
1070
   173
1070
     1
1070
   340
1005
10C
1070
   271
1070
     1
1070
   272
1070
     2
1070
    77
1070
     1
1070
    73
1070
     1
1070
   171
1070
     3
1070
   274
1070
     4
1070
   177
1070
   150
1070
   176
1070
     9
1070
   178
1070
    43
1070
    78
1070
     8
1070
    48
1040
-0.1
1070
    41
1040
3.175
1070
   147
1040
1.75006
1070
    42
1040
1.5875
1070
    44
1040
3.175
1070
   140
1040
3.50012
1002
}
1001
ACAD_DSTYLE_DIM_LINETYPE
1070
   380
1005
16
1001
ACAD_DSTYLE_DIM_EXT1_LINETYPE
1070
   381
1005
16
1001
ACAD_DSTYLE_DIM_EXT2_LINETYPE
1070
   382
1005
16
0
DIMENSION
5
1AC
100
AcDbEntity
8
SK2
62
256
6
ByLayer
370
18
48
1
60
0
100
AcDbDimension
2
_U5
10
73
20
-12.82
30
0
11
45
21
-12.82
31
0
70
32
71
1
72
1
41
1
210
0
220
0
230
1
3
Standard
100
AcDbAlignedDimension
13
17
23
-5.9
33
0
14
73
24
0
34
0
50
0
100
AcDbRotatedDimension
1001
ACAD
1000
DSTYLE
1002
{
1070
   371
1070
    13
1070
   372
1070
    13
1070
     3
1000

1070
   170
1070
     0
1070
   144
1040
1.0
1070
   277
1070
     2
1070
   284
1070
     8
1070
   278
1070
    46
1070
   146
1040
1.25
1070
   345
1005
16
1070
   347
1005
16
1070
   346
1005
16
1070
   344
1005
112
1070
   343
1005
112
1070
   172
1070
     1
1070
    76
1070
     0
1070
    75
1070
     0
1070
   282
1070
     0
1070
   281
1070
     0
1070
    71
1070
     0
1070
    74
1070
     0
1070
   279
1070
     0
1070
   173
1070
     1
1070
   340
1005
10C
1070
   271
1070
     1
1070
   272
1070
     2
1070
    77
1070
     1
1070
    73
1070
     1
1070
   171
1070
     3
1070
   274
1070
     4
1070
   177
1070
   150
1070
   176
1070
     9
1070
   178
1070
    43
1070
    78
1070
     8
1070
    48
1040
-0.1
1070
    41
1040
3.175
1070
   147
1040
0.42
1070
    42
1040
1.5875
1070
    44
1040
0.5
1070
   140
1040
2.8
1002
}
1001
ACAD_DSTYLE_DIM_LINETYPE
1070
   380
1005
16
1001
ACAD_DSTYLE_DIM_EXT1_LINETYPE
1070
   381
1005
16
1001
ACAD_DSTYLE_DIM_EXT2_LINETYPE
1070
   382
1005
16
0
DIMENSION
5
1C8
100
AcDbEntity
8
SK2
62
256
6
ByLayer
370
18
48
1
60
0
100
AcDbDimension
2
_U6
10
73
20
-39.50012
30
0
11
14
21
-39.50012
31
0
70
32
71
1
72
1
41
1
210
0
220
0
230
1
3
Standard
100
AcDbAlignedDimension
13
-45
23
0
33
0
14
73
24
0
34
0
50
0
100
AcDbRotatedDimension
1001
ACAD
1000
DSTYLE
1002
{
1070
   371
1070
    13
1070
   372
1070
    13
1070
     3
1000

1070
   170
1070
     0
1070
   144
1040
1.0
1070
   277
1070
     2
1070
   284
1070
     8
1070
   278
1070
    46
1070
   146
1040
0.999966
1070
   345
1005
16
1070
   347
1005
16
1070
   346
1005
16
1070
   344
1005
112
1070
   343
1005
112
1070
   172
1070
     1
1070
    76
1070
     0
1070
    75
1070
     0
1070
   282
1070
     0
1070
   281
1070
     0
1070
    71
1070
     0
1070
    74
1070
     0
1070
   279
1070
     0
1070
   173
1070
     1
1070
   340
1005
10C
1070
   271
1070
     1
1070
   272
1070
     2
1070
    77
1070
     1
1070
    73
1070
     1
1070
   171
1070
     3
1070
   274
1070
     4
1070
   177
1070
   150
1070
   176
1070
     9
1070
   178
1070
    43
1070
    78
1070
     8
1070
    48
1040
-0.1
1070
    41
1040
3.175
1070
   147
1040
1.75006
1070
    42
1040
1.5875
1070
    44
1040
3.175
1070
   140
1040
3.50012
1002
}
1001
ACAD_DSTYLE_DIM_LINETYPE
1070
   380
1005
16
1001
ACAD_DSTYLE_DIM_EXT1_LINETYPE
1070
   381
1005
16
1001
ACAD_DSTYLE_DIM_EXT2_LINETYPE
1070
   382
1005
16
0
ENDSEC
0
SECTION
2
OBJECTS
0
DICTIONARY
5
254
330
0
100
AcDbDictionary
280
0
281
1
3
ACAD_GROUP
350
255
3
ACAD_MLINESTYLE
350
256
0
DICTIONARY
5
255
330
0
100
AcDbDictionary
280
0
281
1
0
DICTIONARY
5
256
330
0
100
AcDbDictionary
280
0
281
1
3
Standard
350
18
0
MLINESTYLE
5
18
330
256
100
AcDbMlineStyle
2
Standard
70
0
3

62
256
51
90
52
90
71
2
49
-0.5
62
256
6
ByLayer
49
0.5
62
256
6
ByLayer
0
RASTERVARIABLES
5
242
330

100
AcDbRasterVariables
90
0
70
1
71
1
72
1
0
ENDSEC
0
EOF
