0
SECTION
2
HEADER
9
$ACADVER
1
AC1015
9
$DWGCODEPAGE
3
ANSI_1252
9
$HANDSEED
5
257
9
$ANGBASE
50
0
9
$ANGDIR
70
0
9
$ATTMODE
70
1
9
$AUNITS
70
0
9
$AUPREC
70
0
9
$CECOLOR
62
256
9
$CELTSCALE
40
1
9
$CELTYPE
6
ByLayer
9
$CELWEIGHT
370
18
9
$CLAYER
8
0
9
$CMLJUST
70
0
9
$CMLSCALE
40
1
9
$CMLSTYLE
2
Standard
9
$DIMSTYLE
2
Standard
9
$TEXTSIZE
40
0.2
9
$TEXTSTYLE
7
Standard
9
$LUNITS
70
2
9
$LUPREC
70
4
9
$EXTNAMES
290
1
9
$INSUNITS
70
4
9
$LTSCALE
40
1
9
$LWDISPLAY
290
1
9
$PDMODE
70
0
9
$PDSIZE
40
0
9
$PLINEGEN
70
0
0
ENDSEC
0
SECTION
2
CLASSES
0
CLASS
1
RASTERVARIABLES
2
AcDbRasterVariables
3
ISM
90
0
280
0
281
0
0
ENDSEC
0
SECTION
2
TABLES
0
TABLE
2
VPORT
5
24d
100
AcDbSymbolTable
0
VPORT
5
1
100
AcDbSymbolTableRecord
100
AcDbViewportTableRecord
2
*Active
70
0
10
0
20
0
11
1
21
1
12
-1
22
1
13
0
23
0
14
0.5
24
0.5
15
10
25
10
16
0
26
0
36
1
17
0
27
0
37
0
0
ENDTAB
0
TABLE
2
LTYPE
5
24e
100
AcDbSymbolTable
0
LTYPE
5
14
100
AcDbSymbolTableRecord
100
AcDbLinetypeTableRecord
70
0
2
ByBlock
3

72
65
73
0
40
0
0
LTYPE
5
15
100
AcDbSymbolTableRecord
100
AcDbLinetypeTableRecord
70
0
2
ByLayer
3

72
65
73
0
40
0
0
LTYPE
5
16
100
AcDbSymbolTableRecord
100
AcDbLinetypeTableRecord
70
0
2
Continuous
3
Solid line
72
65
73
0
40
0
0
LTYPE
5
6E
100
AcDbSymbolTableRecord
100
AcDbLinetypeTableRecord
70
0
2
CENTER
3
____ _ ____ _ ____ _ ____
72
65
73
4
40
47.5
49
22
74
0
49
-8.5
74
0
49
8.5
74
0
49
-8.5
74
0
0
LTYPE
5
6F
100
AcDbSymbolTableRecord
100
AcDbLinetypeTableRecord
70
0
2
DASHED
3
__ __ __ __ __ __ __ __ __
72
65
73
2
40
25.72
49
12.86
74
0
49
-12.86
74
0
0
ENDTAB
0
TABLE
2
LAYER
5
24f
100
AcDbSymbolTable
0
LAYER
5
10
100
AcDbSymbolTableRecord
100
AcDbLayerTableRecord
2
0
70
0
62
7
6
Continuous
290
1
370
-3
390
0
0
LAYER
5
71
100
AcDbSymbolTableRecord
100
AcDbLayerTableRecord
2
80
70
0
62
-6
6
Continuous
290
1
370
-3
390
0
0
LAYER
5
73
100
AcDbSymbolTableRecord
100
AcDbLayerTableRecord
2
81
70
0
62
-3
6
Continuous
290
1
370
-3
390
0
0
LAYER
5
75
100
AcDbSymbolTableRecord
100
AcDbLayerTableRecord
2
1
70
0
62
4
6
Continuous
290
1
370
-3
390
0
0
LAYER
5
A6
100
AcDbSymbolTableRecord
100
AcDbLayerTableRecord
2
4
70
0
62
-2
6
CENTER
290
1
370
-3
390
0
0
LAYER
5
111
100
AcDbSymbolTableRecord
100
AcDbLayerTableRecord
2
Defpoints
70
0
62
7
6
Continuous
290
0
370
-3
390
0
0
LAYER
5
13E
100
AcDbSymbolTableRecord
100
AcDbLayerTableRecord
2
2
70
0
62
7
6
Continuous
290
1
370
-3
390
0
0
LAYER
5
239
100
AcDbSymbolTableRecord
100
AcDbLayerTableRecord
2
SK1
70
0
62
4
6
Continuous
290
1
370
-3
390
0
0
LAYER
5
23a
100
AcDbSymbolTableRecord
100
AcDbLayerTableRecord
2
SK4
70
0
62
2
6
CENTER
290
1
370
-3
390
0
0
LAYER
5
23b
100
AcDbSymbolTableRecord
100
AcDbLayerTableRecord
2
SK2
70
0
62
7
6
Continuous
290
1
370
-3
390
0
0
LAYER
5
23c
100
AcDbSymbolTableRecord
100
AcDbLayerTableRecord
2
SK6
70
0
62
5
6
Continuous
290
1
370
-3
390
0
0
ENDTAB
0
TABLE
2
STYLE
5
250
100
AcDbSymbolTable
0
STYLE
5
11
100
AcDbSymbolTableRecord
100
AcDbTextStyleTableRecord
2
Standard
3
txt
70
0
71
0
40
0
41
1
42
0
50
0
0
STYLE
5
102
100
AcDbSymbolTableRecord
100
AcDbTextStyleTableRecord
2
iso_b_vert
3
simplex.shx
70
0
71
0
40
0
41
1
42
0
50
0
0
STYLE
5
103
100
AcDbSymbolTableRecord
100
AcDbTextStyleTableRecord
2
DWGDirectTextStyle
3
simplex
70
0
71
0
40
0
41
1
42
0
50
0
0
ENDTAB
0
TABLE
2
DIMSTYLE
5
251
100
AcDbSymbolTable
100
AcDbDimStyleTable
0
DIMSTYLE
105
27
100
AcDbSymbolTableRecord
100
AcDbDimStyleTableRecord
2
Standard
70
0
3
<>
41
0.18
42
0.0625
44
0.18
140
0.18
147
0.09
73
0
74
0
77
1
271
2
275
0
278
52
280
0
340
11
0
ENDTAB
0
TABLE
2
VIEW
5
252
100
AcDbSymbolTable
0
ENDTAB
0
TABLE
2
UCS
5
253
100
AcDbSymbolTable
0
ENDTAB
0
TABLE
2
APPID
5
254
100
AcDbSymbolTable
0
APPID
5
12
100
AcDbSymbolTableRecord
100
AcDbRegAppTableRecord
2
ACAD
70
0
0
APPID
5
106
100
AcDbSymbolTableRecord
100
AcDbRegAppTableRecord
2
ACAD_DSTYLE_DIMBREAK
70
0
0
APPID
5
1F8
100
AcDbSymbolTableRecord
100
AcDbRegAppTableRecord
2
ACAD_DSTYLE_DIM_LINETYPE
70
0
0
APPID
5
1F9
100
AcDbSymbolTableRecord
100
AcDbRegAppTableRecord
2
ACAD_DSTYLE_DIM_EXT1_LINETYPE
70
0
0
APPID
5
1FA
100
AcDbSymbolTableRecord
100
AcDbRegAppTableRecord
2
ACAD_DSTYLE_DIM_EXT2_LINETYPE
70
0
0
APPID
5
235
100
AcDbSymbolTableRecord
100
AcDbRegAppTableRecord
2
ACAD_MLEADERVER
70
0
0
ENDTAB
0
TABLE
2
BLOCK_RECORD
5
255
100
AcDbSymbolTable
0
BLOCK_RECORD
5
1F
100
AcDbSymbolTableRecord
100
AcDbBlockTableRecord
2
*Model_Space
340
0
70
0
0
BLOCK_RECORD
5
1B
100
AcDbSymbolTableRecord
100
AcDbBlockTableRecord
2
*Paper_Space
340
0
70
0
0
BLOCK_RECORD
5
23
100
AcDbSymbolTableRecord
100
AcDbBlockTableRecord
2
*Paper_Space0
340
0
70
0
0
BLOCK_RECORD
5
108
100
AcDbSymbolTableRecord
100
AcDbBlockTableRecord
2
_Closed
340
0
70
0
0
BLOCK_RECORD
5
112
100
AcDbSymbolTableRecord
100
AcDbBlockTableRecord
2
*D2
340
0
70
0
0
BLOCK_RECORD
5
11E
100
AcDbSymbolTableRecord
100
AcDbBlockTableRecord
2
_U0
340
0
70
0
0
BLOCK_RECORD
5
130
100
AcDbSymbolTableRecord
100
AcDbBlockTableRecord
2
*D4
340
0
70
0
0
BLOCK_RECORD
5
13F
100
AcDbSymbolTableRecord
100
AcDbBlockTableRecord
2
_U1
340
0
70
0
0
BLOCK_RECORD
5
14F
100
AcDbSymbolTableRecord
100
AcDbBlockTableRecord
2
*D6
340
0
70
0
0
BLOCK_RECORD
5
15D
100
AcDbSymbolTableRecord
100
AcDbBlockTableRecord
2
_U2
340
0
70
0
0
BLOCK_RECORD
5
16D
100
AcDbSymbolTableRecord
100
AcDbBlockTableRecord
2
*D8
340
0
70
0
0
BLOCK_RECORD
5
179
100
AcDbSymbolTableRecord
100
AcDbBlockTableRecord
2
_U3
340
0
70
0
0
BLOCK_RECORD
5
189
100
AcDbSymbolTableRecord
100
AcDbBlockTableRecord
2
*D10
340
0
70
0
0
BLOCK_RECORD
5
195
100
AcDbSymbolTableRecord
100
AcDbBlockTableRecord
2
_U4
340
0
70
0
0
BLOCK_RECORD
5
1A5
100
AcDbSymbolTableRecord
100
AcDbBlockTableRecord
2
*D12
340
0
70
0
0
BLOCK_RECORD
5
1B1
100
AcDbSymbolTableRecord
100
AcDbBlockTableRecord
2
_U5
340
0
70
0
0
BLOCK_RECORD
5
1C1
100
AcDbSymbolTableRecord
100
AcDbBlockTableRecord
2
*D14
340
0
70
0
0
BLOCK_RECORD
5
1CD
100
AcDbSymbolTableRecord
100
AcDbBlockTableRecord
2
_U6
340
0
70
0
0
ENDTAB
0
ENDSEC
0
SECTION
2
BLOCKS
0
BLOCK
5
20
100
AcDbEntity
8
0
100
AcDbBlockBegin
2
*Model_Space
70
0
10
0
20
0
30
0
3
*Model_Space
0
ENDBLK
5
21
100
AcDbEntity
8
0
100
AcDbBlockEnd
0
BLOCK
5
1C
100
AcDbEntity
8
0
100
AcDbBlockBegin
2
*Paper_Space
70
0
10
0
20
0
30
0
3
*Paper_Space
0
ENDBLK
5
1D
100
AcDbEntity
8
0
100
AcDbBlockEnd
0
BLOCK
5
24
100
AcDbEntity
8
0
100
AcDbBlockBegin
2
*Paper_Space0
70
0
10
0
20
0
30
0
3
*Paper_Space0
0
ENDBLK
5
25
100
AcDbEntity
8
0
100
AcDbBlockEnd
0
BLOCK
5
109
100
AcDbEntity
8
0
100
AcDbBlockBegin
2
_Closed
70
0
10
0
20
0
30
0
3
_Closed
0
LINE
5
10B
100
AcDbEntity
8
0
62
256
6
ByLayer
370
-2
48
1
60
0
100
AcDbLine
10
-1
20
0.166667
30
0
11
0
21
0
31
0
39
0
210
0
220
0
230
1
0
LINE
5
10C
100
AcDbEntity
8
0
62
256
6
ByLayer
370
-2
48
1
60
0
100
AcDbLine
10
0
20
0
30
0
11
-1
21
-0.166667
31
0
39
0
210
0
220
0
230
1
0
LINE
5
10D
100
AcDbEntity
8
0
62
256
6
ByLayer
370
-2
48
1
60
0
100
AcDbLine
10
-1
20
0.166667
30
0
11
-1
21
-0.166667
31
0
39
0
210
0
220
0
230
1
0
LINE
5
10E
100
AcDbEntity
8
0
62
256
6
ByLayer
370
-2
48
1
60
0
100
AcDbLine
10
0
20
0
30
0
11
-1
21
0
31
0
39
0
210
0
220
0
230
1
0
ENDBLK
5
10A
100
AcDbEntity
8
0
100
AcDbBlockEnd
0
BLOCK
5
113
100
AcDbEntity
8
0
100
AcDbBlockBegin
2
*D2
70
1
10
0
20
0
30
0
3
*D2
0
LINE
5
115
100
AcDbEntity
8
0
62
256
6
ByLayer
370
-2
48
1
60
0
100
AcDbLine
10
0
20
-8.5875
30
0
11
0
21
-33.67512
31
0
39
0
210
0
220
0
230
1
0
LINE
5
116
100
AcDbEntity
8
0
62
256
6
ByLayer
370
-2
48
1
60
0
100
AcDbLine
10
79
20
-1.5875
30
0
11
79
21
-33.67512
31
0
39
0
210
0
220
0
230
1
0
LINE
5
117
100
AcDbEntity
8
0
62
256
6
ByLayer
370
-2
48
1
60
0
100
AcDbLine
10
3.175
20
-30.50012
30
0
11
75.825
21
-30.50012
31
0
39
0
210
0
220
0
230
1
0
SOLID
5
118
100
AcDbEntity
8
0
62
256
6
ByLayer
370
-1
48
1
60
0
100
AcDbTrace
10
3.175
20
-29.970953
30
0
11
3.175
21
-31.029287
31
0
12
0
22
-30.50012
32
0
13
0
23
-30.50012
33
0
39
0
210
0
220
0
230
1
0
SOLID
5
119
100
AcDbEntity
8
0
62
256
6
ByLayer
370
-1
48
1
60
0
100
AcDbTrace
10
75.825
20
-31.029287
30
0
11
75.825
21
-29.970953
31
0
12
79
22
-30.50012
32
0
13
79
23
-30.50012
33
0
39
0
210
0
220
0
230
1
0
MTEXT
5
11A
100
AcDbEntity
8
0
62
256
6
ByLayer
370
18
48
1
60
0
100
AcDbMText
10
39.5
20
-23.193619
30
0
210
0
220
0
230
1
1
\A1;79
40
3.50012
41
0
44
1
50
0
71
5
72
5
7
iso_b_vert
0
POINT
5
11B
100
AcDbEntity
8
Defpoints
62
0
6
ByLayer
370
-1
48
1
60
0
100
AcDbPoint
10
0
20
-7
30
0
39
0
210
0
220
0
230
1
50
360
0
POINT
5
11C
100
AcDbEntity
8
Defpoints
62
0
6
ByLayer
370
-1
48
1
60
0
100
AcDbPoint
10
79
20
0
30
0
39
0
210
0
220
0
230
1
50
360
0
POINT
5
11D
100
AcDbEntity
8
Defpoints
62
0
6
ByLayer
370
-1
48
1
60
0
100
AcDbPoint
10
79
20
-30.50012
30
0
39
0
210
0
220
0
230
1
50
360
0
ENDBLK
5
114
100
AcDbEntity
8
0
100
AcDbBlockEnd
0
BLOCK
5
12B
100
AcDbEntity
8
0
100
AcDbBlockBegin
2
_U0
70
0
10
0
20
0
30
0
3
_U0
0
MTEXT
5
11F
100
AcDbEntity
8
SK2
62
256
6
ByLayer
370
18
48
1
60
0
100
AcDbMText
10
34.270389
20
-29.467451
30
0
210
0
220
0
230
1
1
\W0.7468;79.00
40
3.50012
41
0
44
1.084337
50
0
71
7
72
5
7
iso_b_vert
0
MTEXT
5
120
100
AcDbEntity
8
SK2
62
256
6
ByLayer
370
18
48
1
60
0
100
AcDbMText
10
30.744329
20
-29.400814
30
0
210
0
220
0
230
1
1
\W0.1790;(
40
3.175
41
0
44
1.084337
50
0
71
7
72
5
7
iso_b_vert
0
MTEXT
5
121
100
AcDbEntity
8
SK2
62
256
6
ByLayer
370
18
48
1
60
0
100
AcDbMText
10
48.258393
20
-29.400814
30
0
210
0
220
0
230
1
1
\W0.1969;)
40
3.175
41
0
44
1.084337
50
0
71
7
72
5
7
iso_b_vert
0
LINE
5
122
100
AcDbEntity
8
SK2
62
256
6
ByLayer
370
13
48
1
60
0
100
AcDbLine
10
0
20
-8.5875
30
0
11
0
21
-33.67512
31
0
39
0
210
0
220
0
230
1
0
LINE
5
123
100
AcDbEntity
8
SK2
62
256
6
ByLayer
370
13
48
1
60
0
100
AcDbLine
10
79
20
-1.5875
30
0
11
79
21
-33.67512
31
0
39
0
210
0
220
0
230
1
0
LINE
5
124
100
AcDbEntity
8
SK2
62
256
6
ByLayer
370
13
48
1
60
0
100
AcDbLine
10
0
20
-30.50012
30
0
11
79
21
-30.50012
31
0
39
0
210
0
220
0
230
1
0
LINE
5
125
100
AcDbEntity
8
SK2
62
256
6
ByLayer
370
13
48
1
60
0
100
AcDbLine
10
0
20
-30.50012
30
0
11
3.174998
21
-30.082123
31
0
39
0
210
0
220
0
230
1
0
LINE
5
126
100
AcDbEntity
8
SK2
62
256
6
ByLayer
370
13
48
1
60
0
100
AcDbLine
10
0
20
-30.50012
30
0
11
3.175002
21
-30.918117
31
0
39
0
210
0
220
0
230
1
0
LINE
5
127
100
AcDbEntity
8
SK2
62
256
6
ByLayer
370
13
48
1
60
0
100
AcDbLine
10
3.174998
20
-30.082123
30
0
11
3.175002
21
-30.918117
31
0
39
0
210
0
220
0
230
1
0
LINE
5
128
100
AcDbEntity
8
SK2
62
256
6
ByLayer
370
13
48
1
60
0
100
AcDbLine
10
79
20
-30.50012
30
0
11
75.825002
21
-30.918117
31
0
39
0
210
0
220
0
230
1
0
LINE
5
129
100
AcDbEntity
8
SK2
62
256
6
ByLayer
370
13
48
1
60
0
100
AcDbLine
10
79
20
-30.50012
30
0
11
75.824998
21
-30.082123
31
0
39
0
210
0
220
0
230
1
0
LINE
5
12A
100
AcDbEntity
8
SK2
62
256
6
ByLayer
370
13
48
1
60
0
100
AcDbLine
10
75.825002
20
-30.918117
30
0
11
75.824998
21
-30.082123
31
0
39
0
210
0
220
0
230
1
0
ENDBLK
5
12C
100
AcDbEntity
8
0
100
AcDbBlockEnd
0
BLOCK
5
131
100
AcDbEntity
8
0
100
AcDbBlockBegin
2
*D4
70
1
10
0
20
0
30
0
3
*D4
0
LINE
5
133
100
AcDbEntity
8
0
62
256
6
ByLayer
370
-2
48
1
60
0
100
AcDbLine
10
78.3127
20
-6.25
30
0
11
88.92506
21
-6.25
31
0
39
0
210
0
220
0
230
1
0
LINE
5
134
100
AcDbEntity
8
0
62
256
6
ByLayer
370
-2
48
1
60
0
100
AcDbLine
10
78.3127
20
6.25
30
0
11
88.92506
21
6.25
31
0
39
0
210
0
220
0
230
1
0
LINE
5
135
100
AcDbEntity
8
0
62
256
6
ByLayer
370
-2
48
1
60
0
100
AcDbLine
10
85.75006
20
6.25
30
0
11
85.75006
21
33.879896
31
0
39
0
210
0
220
0
230
1
0
LINE
5
136
100
AcDbEntity
8
0
62
256
6
ByLayer
370
-2
48
1
60
0
100
AcDbLine
10
85.75006
20
-9.425
30
0
11
85.75006
21
-12.6
31
0
39
0
210
0
220
0
230
1
0
LINE
5
137
100
AcDbEntity
8
0
62
256
6
ByLayer
370
-2
48
1
60
0
100
AcDbLine
10
85.75006
20
9.425
30
0
11
85.75006
21
12.6
31
0
39
0
210
0
220
0
230
1
0
SOLID
5
138
100
AcDbEntity
8
0
62
256
6
ByLayer
370
-1
48
1
60
0
100
AcDbTrace
10
86.279227
20
-9.425
30
0
11
85.220893
21
-9.425
31
0
12
85.75006
22
-6.25
32
0
13
85.75006
23
-6.25
33
0
39
0
210
0
220
0
230
1
0
SOLID
5
139
100
AcDbEntity
8
0
62
256
6
ByLayer
370
-1
48
1
60
0
100
AcDbTrace
10
85.220893
20
9.425
30
0
11
86.279227
21
9.425
31
0
12
85.75006
22
6.25
32
0
13
85.75006
23
6.25
33
0
39
0
210
0
220
0
230
1
0
MTEXT
5
13A
100
AcDbEntity
8
0
62
256
6
ByLayer
370
18
48
1
60
0
100
AcDbMText
10
78.44356
20
23.239948
30
0
210
0
220
0
230
1
1
\A1;12.5
40
3.50012
41
0
44
1
50
90
71
5
72
5
7
iso_b_vert
0
POINT
5
13B
100
AcDbEntity
8
Defpoints
62
0
6
ByLayer
370
-1
48
1
60
0
100
AcDbPoint
10
76.7252
20
-6.25
30
0
39
0
210
0
220
0
230
1
50
360
0
POINT
5
13C
100
AcDbEntity
8
Defpoints
62
0
6
ByLayer
370
-1
48
1
60
0
100
AcDbPoint
10
76.7252
20
6.25
30
0
39
0
210
0
220
0
230
1
50
360
0
POINT
5
13D
100
AcDbEntity
8
Defpoints
62
0
6
ByLayer
370
-1
48
1
60
0
100
AcDbPoint
10
85.75006
20
6.25
30
0
39
0
210
0
220
0
230
1
50
360
0
ENDBLK
5
132
100
AcDbEntity
8
0
100
AcDbBlockEnd
0
BLOCK
5
14A
100
AcDbEntity
8
0
100
AcDbBlockBegin
2
_U1
70
0
10
0
20
0
30
0
3
_U1
0
MTEXT
5
140
100
AcDbEntity
8
2
62
256
6
ByLayer
370
18
48
1
60
0
100
AcDbMText
10
85.060403
20
10.407505
30
0
210
0
220
0
230
1
1
\W0.6864;12.50
40
3.50012
41
0
44
1.084337
50
90
71
7
72
5
7
iso_b_vert
0
LINE
5
141
100
AcDbEntity
8
2
62
256
6
ByLayer
370
13
48
1
60
0
100
AcDbLine
10
78.3127
20
-6.25
30
0
11
88.92506
21
-6.25
31
0
39
0
210
0
220
0
230
1
0
LINE
5
142
100
AcDbEntity
8
2
62
256
6
ByLayer
370
13
48
1
60
0
100
AcDbLine
10
78.3127
20
6.25
30
0
11
88.92506
21
6.25
31
0
39
0
210
0
220
0
230
1
0
LINE
5
143
100
AcDbEntity
8
2
62
256
6
ByLayer
370
13
48
1
60
0
100
AcDbLine
10
85.75006
20
-6.25
30
0
11
85.75006
21
20.205339
31
0
39
0
210
0
220
0
230
1
0
LINE
5
144
100
AcDbEntity
8
2
62
256
6
ByLayer
370
13
48
1
60
0
100
AcDbLine
10
85.75006
20
-6.25
30
0
11
85.332063
21
-3.075002
31
0
39
0
210
0
220
0
230
1
0
LINE
5
145
100
AcDbEntity
8
2
62
256
6
ByLayer
370
13
48
1
60
0
100
AcDbLine
10
85.75006
20
-6.25
30
0
11
86.168057
21
-3.074998
31
0
39
0
210
0
220
0
230
1
0
LINE
5
146
100
AcDbEntity
8
2
62
256
6
ByLayer
370
13
48
1
60
0
100
AcDbLine
10
85.332063
20
-3.075002
30
0
11
86.168057
21
-3.074998
31
0
39
0
210
0
220
0
230
1
0
LINE
5
147
100
AcDbEntity
8
2
62
256
6
ByLayer
370
13
48
1
60
0
100
AcDbLine
10
85.75006
20
6.25
30
0
11
86.168057
21
3.075002
31
0
39
0
210
0
220
0
230
1
0
LINE
5
148
100
AcDbEntity
8
2
62
256
6
ByLayer
370
13
48
1
60
0
100
AcDbLine
10
85.75006
20
6.25
30
0
11
85.332063
21
3.074998
31
0
39
0
210
0
220
0
230
1
0
LINE
5
149
100
AcDbEntity
8
2
62
256
6
ByLayer
370
13
48
1
60
0
100
AcDbLine
10
86.168057
20
3.075002
30
0
11
85.332063
21
3.074998
31
0
39
0
210
0
220
0
230
1
0
ENDBLK
5
14B
100
AcDbEntity
8
0
100
AcDbBlockEnd
0
BLOCK
5
150
100
AcDbEntity
8
0
100
AcDbBlockBegin
2
*D6
70
1
10
0
20
0
30
0
3
*D6
0
LINE
5
152
100
AcDbEntity
8
0
62
256
6
ByLayer
370
-2
48
1
60
0
100
AcDbLine
10
-46.5875
20
7
30
0
11
-51.42494
21
7
31
0
39
0
210
0
220
0
230
1
0
LINE
5
153
100
AcDbEntity
8
0
62
256
6
ByLayer
370
-2
48
1
60
0
100
AcDbLine
10
-46.5875
20
-7
30
0
11
-51.42494
21
-7
31
0
39
0
210
0
220
0
230
1
0
LINE
5
154
100
AcDbEntity
8
0
62
256
6
ByLayer
370
-2
48
1
60
0
100
AcDbLine
10
-48.24994
20
7
30
0
11
-48.24994
21
30.385141
31
0
39
0
210
0
220
0
230
1
0
LINE
5
155
100
AcDbEntity
8
0
62
256
6
ByLayer
370
-2
48
1
60
0
100
AcDbLine
10
-48.24994
20
10.175
30
0
11
-48.24994
21
13.35
31
0
39
0
210
0
220
0
230
1
0
LINE
5
156
100
AcDbEntity
8
0
62
256
6
ByLayer
370
-2
48
1
60
0
100
AcDbLine
10
-48.24994
20
-10.175
30
0
11
-48.24994
21
-13.35
31
0
39
0
210
0
220
0
230
1
0
SOLID
5
157
100
AcDbEntity
8
0
62
256
6
ByLayer
370
-1
48
1
60
0
100
AcDbTrace
10
-48.779107
20
10.175
30
0
11
-47.720773
21
10.175
31
0
12
-48.24994
22
7
32
0
13
-48.24994
23
7
33
0
39
0
210
0
220
0
230
1
0
SOLID
5
158
100
AcDbEntity
8
0
62
256
6
ByLayer
370
-1
48
1
60
0
100
AcDbTrace
10
-47.720773
20
-10.175
30
0
11
-48.779107
21
-10.175
31
0
12
-48.24994
22
-7
32
0
13
-48.24994
23
-7
33
0
39
0
210
0
220
0
230
1
0
MTEXT
5
159
100
AcDbEntity
8
0
62
256
6
ByLayer
370
18
48
1
60
0
100
AcDbMText
10
-55.556441
20
22.161943
30
0
210
0
220
0
230
1
1
\A1;14
40
3.50012
41
0
44
1
50
90
71
5
72
5
7
iso_b_vert
0
POINT
5
15A
100
AcDbEntity
8
Defpoints
62
0
6
ByLayer
370
-1
48
1
60
0
100
AcDbPoint
10
-45
20
7
30
0
39
0
210
0
220
0
230
1
50
360
0
POINT
5
15B
100
AcDbEntity
8
Defpoints
62
0
6
ByLayer
370
-1
48
1
60
0
100
AcDbPoint
10
-45
20
-7
30
0
39
0
210
0
220
0
230
1
50
360
0
POINT
5
15C
100
AcDbEntity
8
Defpoints
62
0
6
ByLayer
370
-1
48
1
60
0
100
AcDbPoint
10
-48.24994
20
-7
30
0
39
0
210
0
220
0
230
1
50
360
0
ENDBLK
5
151
100
AcDbEntity
8
0
100
AcDbBlockEnd
0
BLOCK
5
168
100
AcDbEntity
8
0
100
AcDbBlockBegin
2
_U2
70
0
10
0
20
0
30
0
3
_U2
0
MTEXT
5
15E
100
AcDbEntity
8
SK2
62
256
6
ByLayer
370
18
48
1
60
0
100
AcDbMText
10
-48.939597
20
17.157505
30
0
210
0
220
0
230
1
1
\W0.7091;14.00
40
3.50012
41
0
44
1.084337
50
90
71
7
72
5
7
iso_b_vert
0
LINE
5
15F
100
AcDbEntity
8
SK2
62
256
6
ByLayer
370
13
48
1
60
0
100
AcDbLine
10
-46.5875
20
7
30
0
11
-51.42494
21
7
31
0
39
0
210
0
220
0
230
1
0
LINE
5
160
100
AcDbEntity
8
SK2
62
256
6
ByLayer
370
13
48
1
60
0
100
AcDbLine
10
-46.5875
20
-7
30
0
11
-51.42494
21
-7
31
0
39
0
210
0
220
0
230
1
0
LINE
5
161
100
AcDbEntity
8
SK2
62
256
6
ByLayer
370
13
48
1
60
0
100
AcDbLine
10
-48.24994
20
-7
30
0
11
-48.24994
21
27.323885
31
0
39
0
210
0
220
0
230
1
0
LINE
5
162
100
AcDbEntity
8
SK2
62
256
6
ByLayer
370
13
48
1
60
0
100
AcDbLine
10
-48.24994
20
7
30
0
11
-47.831943
21
3.825002
31
0
39
0
210
0
220
0
230
1
0
LINE
5
163
100
AcDbEntity
8
SK2
62
256
6
ByLayer
370
13
48
1
60
0
100
AcDbLine
10
-48.24994
20
7
30
0
11
-48.667937
21
3.824998
31
0
39
0
210
0
220
0
230
1
0
LINE
5
164
100
AcDbEntity
8
SK2
62
256
6
ByLayer
370
13
48
1
60
0
100
AcDbLine
10
-47.831943
20
3.825002
30
0
11
-48.667937
21
3.824998
31
0
39
0
210
0
220
0
230
1
0
LINE
5
165
100
AcDbEntity
8
SK2
62
256
6
ByLayer
370
13
48
1
60
0
100
AcDbLine
10
-48.24994
20
-7
30
0
11
-48.667937
21
-3.825002
31
0
39
0
210
0
220
0
230
1
0
LINE
5
166
100
AcDbEntity
8
SK2
62
256
6
ByLayer
370
13
48
1
60
0
100
AcDbLine
10
-48.24994
20
-7
30
0
11
-47.831943
21
-3.824998
31
0
39
0
210
0
220
0
230
1
0
LINE
5
167
100
AcDbEntity
8
SK2
62
256
6
ByLayer
370
13
48
1
60
0
100
AcDbLine
10
-48.667937
20
-3.825002
30
0
11
-47.831943
21
-3.824998
31
0
39
0
210
0
220
0
230
1
0
ENDBLK
5
169
100
AcDbEntity
8
0
100
AcDbBlockEnd
0
BLOCK
5
16E
100
AcDbEntity
8
0
100
AcDbBlockBegin
2
*D8
70
1
10
0
20
0
30
0
3
*D8
0
LINE
5
170
100
AcDbEntity
8
0
62
256
6
ByLayer
370
-2
48
1
60
0
100
AcDbLine
10
-45
20
-8.5875
30
0
11
-45
21
-33.67512
31
0
39
0
210
0
220
0
230
1
0
LINE
5
171
100
AcDbEntity
8
0
62
256
6
ByLayer
370
-2
48
1
60
0
100
AcDbLine
10
0
20
-8.5875
30
0
11
0
21
-33.67512
31
0
39
0
210
0
220
0
230
1
0
LINE
5
172
100
AcDbEntity
8
0
62
256
6
ByLayer
370
-2
48
1
60
0
100
AcDbLine
10
-41.825
20
-30.50012
30
0
11
-3.175
21
-30.50012
31
0
39
0
210
0
220
0
230
1
0
SOLID
5
173
100
AcDbEntity
8
0
62
256
6
ByLayer
370
-1
48
1
60
0
100
AcDbTrace
10
-41.825
20
-29.970953
30
0
11
-41.825
21
-31.029287
31
0
12
-45
22
-30.50012
32
0
13
-45
23
-30.50012
33
0
39
0
210
0
220
0
230
1
0
SOLID
5
174
100
AcDbEntity
8
0
62
256
6
ByLayer
370
-1
48
1
60
0
100
AcDbTrace
10
-3.175
20
-31.029287
30
0
11
-3.175
21
-29.970953
31
0
12
0
22
-30.50012
32
0
13
0
23
-30.50012
33
0
39
0
210
0
220
0
230
1
0
MTEXT
5
175
100
AcDbEntity
8
0
62
256
6
ByLayer
370
18
48
1
60
0
100
AcDbMText
10
-22.5
20
-23.193619
30
0
210
0
220
0
230
1
1
\A1;45
40
3.50012
41
0
44
1
50
0
71
5
72
5
7
iso_b_vert
0
POINT
5
176
100
AcDbEntity
8
Defpoints
62
0
6
ByLayer
370
-1
48
1
60
0
100
AcDbPoint
10
-45
20
-7
30
0
39
0
210
0
220
0
230
1
50
360
0
POINT
5
177
100
AcDbEntity
8
Defpoints
62
0
6
ByLayer
370
-1
48
1
60
0
100
AcDbPoint
10
0
20
-7
30
0
39
0
210
0
220
0
230
1
50
360
0
POINT
5
178
100
AcDbEntity
8
Defpoints
62
0
6
ByLayer
370
-1
48
1
60
0
100
AcDbPoint
10
0
20
-30.50012
30
0
39
0
210
0
220
0
230
1
50
360
0
ENDBLK
5
16F
100
AcDbEntity
8
0
100
AcDbBlockEnd
0
BLOCK
5
184
100
AcDbEntity
8
0
100
AcDbBlockBegin
2
_U3
70
0
10
0
20
0
30
0
3
_U3
0
MTEXT
5
17A
100
AcDbEntity
8
SK2
62
256
6
ByLayer
370
18
48
1
60
0
100
AcDbMText
10
-27.913884
20
-29.467451
30
0
210
0
220
0
230
1
1
\W0.7694;45.00
40
3.50012
41
0
44
1.084337
50
0
71
7
72
5
7
iso_b_vert
0
LINE
5
17B
100
AcDbEntity
8
SK2
62
256
6
ByLayer
370
13
48
1
60
0
100
AcDbLine
10
-45
20
-8.5875
30
0
11
-45
21
-33.67512
31
0
39
0
210
0
220
0
230
1
0
LINE
5
17C
100
AcDbEntity
8
SK2
62
256
6
ByLayer
370
13
48
1
60
0
100
AcDbLine
10
0
20
-8.5875
30
0
11
0
21
-33.67512
31
0
39
0
210
0
220
0
230
1
0
LINE
5
17D
100
AcDbEntity
8
SK2
62
256
6
ByLayer
370
13
48
1
60
0
100
AcDbLine
10
-45
20
-30.50012
30
0
11
0
21
-30.50012
31
0
39
0
210
0
220
0
230
1
0
LINE
5
17E
100
AcDbEntity
8
SK2
62
256
6
ByLayer
370
13
48
1
60
0
100
AcDbLine
10
-45
20
-30.50012
30
0
11
-41.825002
21
-30.082123
31
0
39
0
210
0
220
0
230
1
0
LINE
5
17F
100
AcDbEntity
8
SK2
62
256
6
ByLayer
370
13
48
1
60
0
100
AcDbLine
10
-45
20
-30.50012
30
0
11
-41.824998
21
-30.918117
31
0
39
0
210
0
220
0
230
1
0
LINE
5
180
100
AcDbEntity
8
SK2
62
256
6
ByLayer
370
13
48
1
60
0
100
AcDbLine
10
-41.825002
20
-30.082123
30
0
11
-41.824998
21
-30.918117
31
0
39
0
210
0
220
0
230
1
0
LINE
5
181
100
AcDbEntity
8
SK2
62
256
6
ByLayer
370
13
48
1
60
0
100
AcDbLine
10
0
20
-30.50012
30
0
11
-3.174998
21
-30.918117
31
0
39
0
210
0
220
0
230
1
0
LINE
5
182
100
AcDbEntity
8
SK2
62
256
6
ByLayer
370
13
48
1
60
0
100
AcDbLine
10
0
20
-30.50012
30
0
11
-3.175002
21
-30.082123
31
0
39
0
210
0
220
0
230
1
0
LINE
5
183
100
AcDbEntity
8
SK2
62
256
6
ByLayer
370
13
48
1
60
0
100
AcDbLine
10
-3.174998
20
-30.918117
30
0
11
-3.175002
21
-30.082123
31
0
39
0
210
0
220
0
230
1
0
ENDBLK
5
185
100
AcDbEntity
8
0
100
AcDbBlockEnd
0
BLOCK
5
18A
100
AcDbEntity
8
0
100
AcDbBlockBegin
2
*D10
70
1
10
0
20
0
30
0
3
*D10
0
LINE
5
18C
100
AcDbEntity
8
0
62
256
6
ByLayer
370
-2
48
1
60
0
100
AcDbLine
10
2
20
5.1625
30
0
11
2
21
-24.92482
31
0
39
0
210
0
220
0
230
1
0
LINE
5
18D
100
AcDbEntity
8
0
62
256
6
ByLayer
370
-2
48
1
60
0
100
AcDbLine
10
79
20
-1.5875
30
0
11
79
21
-24.92482
31
0
39
0
210
0
220
0
230
1
0
LINE
5
18E
100
AcDbEntity
8
0
62
256
6
ByLayer
370
-2
48
1
60
0
100
AcDbLine
10
5.175
20
-21.74982
30
0
11
75.825
21
-21.74982
31
0
39
0
210
0
220
0
230
1
0
SOLID
5
18F
100
AcDbEntity
8
0
62
256
6
ByLayer
370
-1
48
1
60
0
100
AcDbTrace
10
5.175
20
-21.220653
30
0
11
5.175
21
-22.278987
31
0
12
2
22
-21.74982
32
0
13
2
23
-21.74982
33
0
39
0
210
0
220
0
230
1
0
SOLID
5
190
100
AcDbEntity
8
0
62
256
6
ByLayer
370
-1
48
1
60
0
100
AcDbTrace
10
75.825
20
-22.278987
30
0
11
75.825
21
-21.220653
31
0
12
79
22
-21.74982
32
0
13
79
23
-21.74982
33
0
39
0
210
0
220
0
230
1
0
MTEXT
5
191
100
AcDbEntity
8
0
62
256
6
ByLayer
370
18
48
1
60
0
100
AcDbMText
10
40.5
20
-14.443319
30
0
210
0
220
0
230
1
1
\A1;77
40
3.50012
41
0
44
1
50
0
71
5
72
5
7
iso_b_vert
0
POINT
5
192
100
AcDbEntity
8
Defpoints
62
0
6
ByLayer
370
-1
48
1
60
0
100
AcDbPoint
10
2
20
6.75
30
0
39
0
210
0
220
0
230
1
50
360
0
POINT
5
193
100
AcDbEntity
8
Defpoints
62
0
6
ByLayer
370
-1
48
1
60
0
100
AcDbPoint
10
79
20
0
30
0
39
0
210
0
220
0
230
1
50
360
0
POINT
5
194
100
AcDbEntity
8
Defpoints
62
0
6
ByLayer
370
-1
48
1
60
0
100
AcDbPoint
10
79
20
-21.74982
30
0
39
0
210
0
220
0
230
1
50
360
0
ENDBLK
5
18B
100
AcDbEntity
8
0
100
AcDbBlockEnd
0
BLOCK
5
1A0
100
AcDbEntity
8
0
100
AcDbBlockBegin
2
_U4
70
0
10
0
20
0
30
0
3
_U4
0
MTEXT
5
196
100
AcDbEntity
8
SK2
62
256
6
ByLayer
370
18
48
1
60
0
100
AcDbMText
10
35.270389
20
-20.717151
30
0
210
0
220
0
230
1
1
\W0.7468;77.00
40
3.50012
41
0
44
1.084337
50
0
71
7
72
5
7
iso_b_vert
0
LINE
5
197
100
AcDbEntity
8
SK2
62
256
6
ByLayer
370
13
48
1
60
0
100
AcDbLine
10
2
20
5.1625
30
0
11
2
21
-24.92482
31
0
39
0
210
0
220
0
230
1
0
LINE
5
198
100
AcDbEntity
8
SK2
62
256
6
ByLayer
370
13
48
1
60
0
100
AcDbLine
10
79
20
-1.5875
30
0
11
79
21
-24.92482
31
0
39
0
210
0
220
0
230
1
0
LINE
5
199
100
AcDbEntity
8
SK2
62
256
6
ByLayer
370
13
48
1
60
0
100
AcDbLine
10
2
20
-21.74982
30
0
11
79
21
-21.74982
31
0
39
0
210
0
220
0
230
1
0
LINE
5
19A
100
AcDbEntity
8
SK2
62
256
6
ByLayer
370
13
48
1
60
0
100
AcDbLine
10
2
20
-21.74982
30
0
11
5.174998
21
-21.331823
31
0
39
0
210
0
220
0
230
1
0
LINE
5
19B
100
AcDbEntity
8
SK2
62
256
6
ByLayer
370
13
48
1
60
0
100
AcDbLine
10
2
20
-21.74982
30
0
11
5.175002
21
-22.167817
31
0
39
0
210
0
220
0
230
1
0
LINE
5
19C
100
AcDbEntity
8
SK2
62
256
6
ByLayer
370
13
48
1
60
0
100
AcDbLine
10
5.174998
20
-21.331823
30
0
11
5.175002
21
-22.167817
31
0
39
0
210
0
220
0
230
1
0
LINE
5
19D
100
AcDbEntity
8
SK2
62
256
6
ByLayer
370
13
48
1
60
0
100
AcDbLine
10
79
20
-21.74982
30
0
11
75.825002
21
-22.167817
31
0
39
0
210
0
220
0
230
1
0
LINE
5
19E
100
AcDbEntity
8
SK2
62
256
6
ByLayer
370
13
48
1
60
0
100
AcDbLine
10
79
20
-21.74982
30
0
11
75.824998
21
-21.331823
31
0
39
0
210
0
220
0
230
1
0
LINE
5
19F
100
AcDbEntity
8
SK2
62
256
6
ByLayer
370
13
48
1
60
0
100
AcDbLine
10
75.825002
20
-22.167817
30
0
11
75.824998
21
-21.331823
31
0
39
0
210
0
220
0
230
1
0
ENDBLK
5
1A1
100
AcDbEntity
8
0
100
AcDbBlockEnd
0
BLOCK
5
1A6
100
AcDbEntity
8
0
100
AcDbBlockBegin
2
*D12
70
1
10
0
20
0
30
0
3
*D12
0
LINE
5
1A8
100
AcDbEntity
8
0
62
256
6
ByLayer
370
-2
48
1
60
0
100
AcDbLine
10
17
20
-7.8375
30
0
11
17
21
-14.32
31
0
39
0
210
0
220
0
230
1
0
LINE
5
1A9
100
AcDbEntity
8
0
62
256
6
ByLayer
370
-2
48
1
60
0
100
AcDbLine
10
79
20
-1.5875
30
0
11
79
21
-14.32
31
0
39
0
210
0
220
0
230
1
0
LINE
5
1AA
100
AcDbEntity
8
0
62
256
6
ByLayer
370
-2
48
1
60
0
100
AcDbLine
10
20.175
20
-13.82
30
0
11
75.825
21
-13.82
31
0
39
0
210
0
220
0
230
1
0
SOLID
5
1AB
100
AcDbEntity
8
0
62
256
6
ByLayer
370
-1
48
1
60
0
100
AcDbTrace
10
20.175
20
-13.290833
30
0
11
20.175
21
-14.349167
31
0
12
17
22
-13.82
32
0
13
17
23
-13.82
33
0
39
0
210
0
220
0
230
1
0
SOLID
5
1AC
100
AcDbEntity
8
0
62
256
6
ByLayer
370
-1
48
1
60
0
100
AcDbTrace
10
75.825
20
-14.349167
30
0
11
75.825
21
-13.290833
31
0
12
79
22
-13.82
32
0
13
79
23
-13.82
33
0
39
0
210
0
220
0
230
1
0
MTEXT
5
1AD
100
AcDbEntity
8
0
62
256
6
ByLayer
370
18
48
1
60
0
100
AcDbMText
10
48
20
-7.975
30
0
210
0
220
0
230
1
1
\A1;62
40
2.8
41
0
44
1
50
0
71
5
72
5
7
iso_b_vert
0
POINT
5
1AE
100
AcDbEntity
8
Defpoints
62
0
6
ByLayer
370
-1
48
1
60
0
100
AcDbPoint
10
17
20
-6.25
30
0
39
0
210
0
220
0
230
1
50
360
0
POINT
5
1AF
100
AcDbEntity
8
Defpoints
62
0
6
ByLayer
370
-1
48
1
60
0
100
AcDbPoint
10
79
20
0
30
0
39
0
210
0
220
0
230
1
50
360
0
POINT
5
1B0
100
AcDbEntity
8
Defpoints
62
0
6
ByLayer
370
-1
48
1
60
0
100
AcDbPoint
10
79
20
-13.82
30
0
39
0
210
0
220
0
230
1
50
360
0
ENDBLK
5
1A7
100
AcDbEntity
8
0
100
AcDbBlockEnd
0
BLOCK
5
1BC
100
AcDbEntity
8
0
100
AcDbBlockBegin
2
_U5
70
0
10
0
20
0
30
0
3
_U5
0
MTEXT
5
1B2
100
AcDbEntity
8
SK2
62
256
6
ByLayer
370
18
48
1
60
0
100
AcDbMText
10
43.816454
20
-13.973893
30
0
210
0
220
0
230
1
1
\W0.7468;62.00
40
2.8
41
0
44
1.084337
50
0
71
7
72
5
7
iso_b_vert
0
LINE
5
1B3
100
AcDbEntity
8
SK2
62
256
6
ByLayer
370
13
48
1
60
0
100
AcDbLine
10
17
20
-7.8375
30
0
11
17
21
-14.32
31
0
39
0
210
0
220
0
230
1
0
LINE
5
1B4
100
AcDbEntity
8
SK2
62
256
6
ByLayer
370
13
48
1
60
0
100
AcDbLine
10
79
20
-1.5875
30
0
11
79
21
-14.32
31
0
39
0
210
0
220
0
230
1
0
LINE
5
1B5
100
AcDbEntity
8
SK2
62
256
6
ByLayer
370
13
48
1
60
0
100
AcDbLine
10
17
20
-13.82
30
0
11
79
21
-13.82
31
0
39
0
210
0
220
0
230
1
0
LINE
5
1B6
100
AcDbEntity
8
SK2
62
256
6
ByLayer
370
13
48
1
60
0
100
AcDbLine
10
17
20
-13.82
30
0
11
20.174998
21
-13.402003
31
0
39
0
210
0
220
0
230
1
0
LINE
5
1B7
100
AcDbEntity
8
SK2
62
256
6
ByLayer
370
13
48
1
60
0
100
AcDbLine
10
17
20
-13.82
30
0
11
20.175002
21
-14.237997
31
0
39
0
210
0
220
0
230
1
0
LINE
5
1B8
100
AcDbEntity
8
SK2
62
256
6
ByLayer
370
13
48
1
60
0
100
AcDbLine
10
20.174998
20
-13.402003
30
0
11
20.175002
21
-14.237997
31
0
39
0
210
0
220
0
230
1
0
LINE
5
1B9
100
AcDbEntity
8
SK2
62
256
6
ByLayer
370
13
48
1
60
0
100
AcDbLine
10
79
20
-13.82
30
0
11
75.825002
21
-14.237997
31
0
39
0
210
0
220
0
230
1
0
LINE
5
1BA
100
AcDbEntity
8
SK2
62
256
6
ByLayer
370
13
48
1
60
0
100
AcDbLine
10
79
20
-13.82
30
0
11
75.824998
21
-13.402003
31
0
39
0
210
0
220
0
230
1
0
LINE
5
1BB
100
AcDbEntity
8
SK2
62
256
6
ByLayer
370
13
48
1
60
0
100
AcDbLine
10
75.825002
20
-14.237997
30
0
11
75.824998
21
-13.402003
31
0
39
0
210
0
220
0
230
1
0
ENDBLK
5
1BD
100
AcDbEntity
8
0
100
AcDbBlockEnd
0
BLOCK
5
1C2
100
AcDbEntity
8
0
100
AcDbBlockBegin
2
*D14
70
1
10
0
20
0
30
0
3
*D14
0
LINE
5
1C4
100
AcDbEntity
8
0
62
256
6
ByLayer
370
-2
48
1
60
0
100
AcDbLine
10
-45
20
-1.5875
30
0
11
-45
21
-43.67512
31
0
39
0
210
0
220
0
230
1
0
LINE
5
1C5
100
AcDbEntity
8
0
62
256
6
ByLayer
370
-2
48
1
60
0
100
AcDbLine
10
79
20
-1.5875
30
0
11
79
21
-43.67512
31
0
39
0
210
0
220
0
230
1
0
LINE
5
1C6
100
AcDbEntity
8
0
62
256
6
ByLayer
370
-2
48
1
60
0
100
AcDbLine
10
-41.825
20
-40.50012
30
0
11
75.825
21
-40.50012
31
0
39
0
210
0
220
0
230
1
0
SOLID
5
1C7
100
AcDbEntity
8
0
62
256
6
ByLayer
370
-1
48
1
60
0
100
AcDbTrace
10
-41.825
20
-39.970953
30
0
11
-41.825
21
-41.029287
31
0
12
-45
22
-40.50012
32
0
13
-45
23
-40.50012
33
0
39
0
210
0
220
0
230
1
0
SOLID
5
1C8
100
AcDbEntity
8
0
62
256
6
ByLayer
370
-1
48
1
60
0
100
AcDbTrace
10
75.825
20
-41.029287
30
0
11
75.825
21
-39.970953
31
0
12
79
22
-40.50012
32
0
13
79
23
-40.50012
33
0
39
0
210
0
220
0
230
1
0
MTEXT
5
1C9
100
AcDbEntity
8
0
62
256
6
ByLayer
370
18
48
1
60
0
100
AcDbMText
10
17
20
-33.19362
30
0
210
0
220
0
230
1
1
\A1;124
40
3.50012
41
0
44
1
50
0
71
5
72
5
7
iso_b_vert
0
POINT
5
1CA
100
AcDbEntity
8
Defpoints
62
0
6
ByLayer
370
-1
48
1
60
0
100
AcDbPoint
10
-45
20
0
30
0
39
0
210
0
220
0
230
1
50
360
0
POINT
5
1CB
100
AcDbEntity
8
Defpoints
62
0
6
ByLayer
370
-1
48
1
60
0
100
AcDbPoint
10
79
20
0
30
0
39
0
210
0
220
0
230
1
50
360
0
POINT
5
1CC
100
AcDbEntity
8
Defpoints
62
0
6
ByLayer
370
-1
48
1
60
0
100
AcDbPoint
10
79
20
-40.50012
30
0
39
0
210
0
220
0
230
1
50
360
0
ENDBLK
5
1C3
100
AcDbEntity
8
0
100
AcDbBlockEnd
0
BLOCK
5
1D8
100
AcDbEntity
8
0
100
AcDbBlockBegin
2
_U6
70
0
10
0
20
0
30
0
3
_U6
0
MTEXT
5
1CE
100
AcDbEntity
8
SK2
62
256
6
ByLayer
370
18
48
1
60
0
100
AcDbMText
10
10.715786
20
-39.467451
30
0
210
0
220
0
230
1
1
\W0.7237;124.00
40
3.50012
41
0
44
1.084337
50
0
71
7
72
5
7
iso_b_vert
0
LINE
5
1CF
100
AcDbEntity
8
SK2
62
256
6
ByLayer
370
13
48
1
60
0
100
AcDbLine
10
-45
20
-1.5875
30
0
11
-45
21
-43.67512
31
0
39
0
210
0
220
0
230
1
0
LINE
5
1D0
100
AcDbEntity
8
SK2
62
256
6
ByLayer
370
13
48
1
60
0
100
AcDbLine
10
79
20
-1.5875
30
0
11
79
21
-43.67512
31
0
39
0
210
0
220
0
230
1
0
LINE
5
1D1
100
AcDbEntity
8
SK2
62
256
6
ByLayer
370
13
48
1
60
0
100
AcDbLine
10
-45
20
-40.50012
30
0
11
79
21
-40.50012
31
0
39
0
210
0
220
0
230
1
0
LINE
5
1D2
100
AcDbEntity
8
SK2
62
256
6
ByLayer
370
13
48
1
60
0
100
AcDbLine
10
-45
20
-40.50012
30
0
11
-41.825002
21
-40.082123
31
0
39
0
210
0
220
0
230
1
0
LINE
5
1D3
100
AcDbEntity
8
SK2
62
256
6
ByLayer
370
13
48
1
60
0
100
AcDbLine
10
-45
20
-40.50012
30
0
11
-41.824998
21
-40.918117
31
0
39
0
210
0
220
0
230
1
0
LINE
5
1D4
100
AcDbEntity
8
SK2
62
256
6
ByLayer
370
13
48
1
60
0
100
AcDbLine
10
-41.825002
20
-40.082123
30
0
11
-41.824998
21
-40.918117
31
0
39
0
210
0
220
0
230
1
0
LINE
5
1D5
100
AcDbEntity
8
SK2
62
256
6
ByLayer
370
13
48
1
60
0
100
AcDbLine
10
79
20
-40.50012
30
0
11
75.825002
21
-40.918117
31
0
39
0
210
0
220
0
230
1
0
LINE
5
1D6
100
AcDbEntity
8
SK2
62
256
6
ByLayer
370
13
48
1
60
0
100
AcDbLine
10
79
20
-40.50012
30
0
11
75.824998
21
-40.082123
31
0
39
0
210
0
220
0
230
1
0
LINE
5
1D7
100
AcDbEntity
8
SK2
62
256
6
ByLayer
370
13
48
1
60
0
100
AcDbLine
10
75.825002
20
-40.918117
30
0
11
75.824998
21
-40.082123
31
0
39
0
210
0
220
0
230
1
0
ENDBLK
5
1D9
100
AcDbEntity
8
0
100
AcDbBlockEnd
0
ENDSEC
0
SECTION
2
ENTITIES
0
ARC
5
B2
100
AcDbEntity
8
1
62
256
6
ByLayer
370
18
48
1
60
0
100
AcDbCircle
39
0
10
1.383956
20
7.002911
30
0
40
0.799999999999998
210
0
220
0
230
1
100
AcDbArc
50
210.120435
51
270.03581
0
ARC
5
B3
100
AcDbEntity
8
1
62
256
6
ByLayer
370
18
48
1
60
0
100
AcDbCircle
39
0
10
1.383956
20
-7.002911
30
0
40
0.799999999999998
210
0
220
0
230
1
100
AcDbArc
50
89.96419
51
149.879565
0
ARC
5
B4
100
AcDbEntity
8
1
62
256
6
ByLayer
370
18
48
1
60
0
100
AcDbCircle
39
0
10
0
20
6.2
30
0
40
0.800000000000004
210
0
220
0
230
1
100
AcDbArc
50
30.120435
51
90
0
ARC
5
B5
100
AcDbEntity
8
1
62
256
6
ByLayer
370
18
48
1
60
0
100
AcDbCircle
39
0
10
0
20
-6.2
30
0
40
0.800000000000004
210
0
220
0
230
1
100
AcDbArc
50
270
51
329.879565
0
ARC
5
B6
100
AcDbEntity
8
SK2
62
256
6
ByLayer
370
13
48
1
60
0
100
AcDbCircle
39
0
10
79
20
0
30
0
40
20
210
0
220
0
230
1
100
AcDbArc
50
9.606349
51
70.000113
0
ARC
5
B7
100
AcDbEntity
8
SK2
62
256
6
ByLayer
370
13
48
1
60
0
100
AcDbCircle
39
0
10
79
20
0
30
0
40
20
210
0
220
0
230
1
100
AcDbArc
50
289.999887
51
350.393651
0
ELLIPSE
5
B8
100
AcDbEntity
8
1
62
256
6
ByLayer
370
18
48
1
60
0
100
AcDbEllipse
10
3.601672
20
-5.991916
30
0
11
0.1
21
0
31
0
210
0
220
0
230
1
40
1
41
1.60153587335588
42
3.13687460592188
0
POINT
5
70
100
AcDbEntity
8
80
62
256
6
ByLayer
370
18
48
1
60
0
100
AcDbPoint
10
0
20
0
30
0
39
0
210
0
220
0
230
1
50
360
0
POINT
5
72
100
AcDbEntity
8
81
62
256
6
ByLayer
370
18
48
1
60
0
100
AcDbPoint
10
79
20
0
30
0
39
0
210
0
220
0
230
1
50
360
0
POINT
5
74
100
AcDbEntity
8
1
62
256
6
ByLayer
370
18
48
1
60
0
100
AcDbPoint
10
-45
20
0
30
0
39
0
210
0
220
0
230
1
50
360
0
POINT
5
76
100
AcDbEntity
8
1
62
256
6
ByLayer
370
18
48
1
60
1
100
AcDbPoint
10
0
20
-7
30
0
39
0
210
0
220
0
230
1
50
360
0
POINT
5
77
100
AcDbEntity
8
1
62
256
6
ByLayer
370
18
48
1
60
1
100
AcDbPoint
10
79
20
0
30
0
39
0
210
0
220
0
230
1
50
360
0
POINT
5
78
100
AcDbEntity
8
1
62
256
6
ByLayer
370
18
48
1
60
1
100
AcDbPoint
10
76.7252
20
-6.25
30
0
39
0
210
0
220
0
230
1
50
360
0
POINT
5
79
100
AcDbEntity
8
1
62
256
6
ByLayer
370
18
48
1
60
1
100
AcDbPoint
10
76.7252
20
6.25
30
0
39
0
210
0
220
0
230
1
50
360
0
POINT
5
7A
100
AcDbEntity
8
1
62
256
6
ByLayer
370
18
48
1
60
1
100
AcDbPoint
10
-45
20
7
30
0
39
0
210
0
220
0
230
1
50
360
0
POINT
5
7B
100
AcDbEntity
8
1
62
256
6
ByLayer
370
18
48
1
60
1
100
AcDbPoint
10
-45
20
-7
30
0
39
0
210
0
220
0
230
1
50
360
0
POINT
5
7C
100
AcDbEntity
8
1
62
256
6
ByLayer
370
18
48
1
60
1
100
AcDbPoint
10
-45
20
-7
30
0
39
0
210
0
220
0
230
1
50
360
0
POINT
5
7D
100
AcDbEntity
8
1
62
256
6
ByLayer
370
18
48
1
60
1
100
AcDbPoint
10
0
20
-7
30
0
39
0
210
0
220
0
230
1
50
360
0
POINT
5
7E
100
AcDbEntity
8
1
62
256
6
ByLayer
370
18
48
1
60
1
100
AcDbPoint
10
2
20
6.75
30
0
39
0
210
0
220
0
230
1
50
360
0
POINT
5
7F
100
AcDbEntity
8
1
62
256
6
ByLayer
370
18
48
1
60
1
100
AcDbPoint
10
79
20
0
30
0
39
0
210
0
220
0
230
1
50
360
0
POINT
5
80
100
AcDbEntity
8
1
62
256
6
ByLayer
370
18
48
1
60
1
100
AcDbPoint
10
17
20
-6.25
30
0
39
0
210
0
220
0
230
1
50
360
0
POINT
5
81
100
AcDbEntity
8
1
62
256
6
ByLayer
370
18
48
1
60
1
100
AcDbPoint
10
79
20
0
30
0
39
0
210
0
220
0
230
1
50
360
0
POINT
5
82
100
AcDbEntity
8
1
62
256
6
ByLayer
370
18
48
1
60
1
100
AcDbPoint
10
-45
20
0
30
0
39
0
210
0
220
0
230
1
50
360
0
POINT
5
83
100
AcDbEntity
8
1
62
256
6
ByLayer
370
18
48
1
60
1
100
AcDbPoint
10
79
20
0
30
0
39
0
210
0
220
0
230
1
50
360
0
SPLINE
5
B9
100
AcDbEntity
8
1
62
256
6
ByLayer
370
18
48
1
60
0
100
AcDbSpline
70
4
71
3
72
28
73
24
40
0
40
0
40
0
40
0
40
0.0553990333655203
40
0.0553990333655203
40
0.290140837576197
40
0.290140837576197
40
0.348826288628866
40
0.348826288628866
40
0.378169014155201
40
0.378169014155201
40
0.407511739681536
40
0.407511739681536
40
0.524882641786872
40
0.524882641786872
40
0.759624445997545
40
0.759624445997545
40
0.818309897050214
40
0.818309897050214
40
0.876995348102882
40
0.876995348102882
40
0.994366250208218
40
0.994366250208218
40
1
40
1
40
1
40
1
41
1
10
20.8449676824012
20
0.204255617229791
30
0
41
1
10
21.2047740520262
20
0.029244144278266
30
0
41
1
10
21.5638593787566
20
-0.145704888546931
30
0
41
1
10
23.44215026067
20
-1.05863663933747
30
1E-16
41
1
10
24.9534889960584
20
-1.78628017267511
30
1E-16
41
1
10
26.8578991266568
20
-2.62965802075928
30
2E-16
41
1
10
27.2394871980635
20
-2.79511371563854
30
2E-16
41
1
10
27.8134833141258
20
-3.03734385990569
30
2E-16
41
1
10
28.0050847944863
20
-3.11709413497175
30
2E-16
41
1
10
28.3889299687544
20
-3.27444451692
30
2E-16
41
1
10
28.5812548012325
20
-3.35207432645714
30
2E-16
41
1
10
29.5402527211815
20
-3.73282288676279
30
2E-16
41
1
10
30.3023645420904
20
-4.01489050844688
30
2E-16
41
1
10
32.5826142432539
20
-4.78373079271219
30
-2E-16
41
1
10
34.0933112950219
20
-5.19201304713744
30
-1E-16
41
1
10
35.9958497554131
20
-5.54385157290869
30
-1E-16
41
1
10
36.3770269145127
20
-5.60621542148382
30
-1E-16
41
1
10
37.1414020207344
20
-5.71429198687056
30
-1E-16
41
1
10
37.5249312002425
20
-5.76013040190045
30
-1E-16
41
1
10
38.6774255816324
20
-5.87166913165865
30
0
41
1
10
39.4446843918133
20
-5.91083847313413
30
0
41
1
10
40.2499056697229
20
-5.91474779836116
30
0
41
1
10
40.2867815732732
20
-5.91484430302881
30
0
41
1
10
40.3236536441136
20
-5.91485835769885
30
0
0
SPLINE
5
BA
100
AcDbEntity
8
1
62
256
6
ByLayer
370
18
48
1
60
0
100
AcDbSpline
70
4
71
3
72
28
73
24
40
0
40
0
40
0
40
0
40
0.0327847327568599
40
0.0327847327568599
40
0.0655694655137198
40
0.0655694655137198
40
0.13113893102744
40
0.13113893102744
40
0.19670839654116
40
0.19670839654116
40
0.262277862054881
40
0.262277862054881
40
0.52455572410976
40
0.52455572410976
40
0.786833586164639
40
0.786833586164639
40
0.819618318921497
40
0.819618318921497
40
0.852403051678355
40
0.852403051678355
40
0.91797251719207
40
0.91797251719207
40
1
40
1
40
1
40
1
41
1
10
76.7695735077566
20
-5.894436678153
30
0
41
1
10
76.5777728098109
20
-5.88149138186967
30
0
41
1
10
76.3860560582355
20
-5.86700386972012
30
0
41
1
10
76.0028283885888
20
-5.83299509929293
30
-1E-16
41
1
10
75.8112999208382
20
-5.81379300326563
30
-1E-16
41
1
10
75.2368592916827
20
-5.74967493566186
30
-1E-16
41
1
10
74.8540930281049
20
-5.69824752800167
30
-1E-16
41
1
10
74.088330080029
20
-5.57845367576289
30
-1E-16
41
1
10
73.7053350494163
20
-5.51008135256262
30
-1E-16
41
1
10
72.9384324356423
20
-5.35691388191987
30
-1E-16
41
1
10
72.5539653360711
20
-5.27198363334645
30
-1E-16
41
1
10
70.640191564107
20
-4.81074805292562
30
-1E-16
41
1
10
69.1287485773355
20
-4.32247286794538
30
3E-16
41
1
10
66.1048842523964
20
-3.1715022121808
30
2E-16
41
1
10
64.5925511327232
20
-2.50798576766078
30
2E-16
41
1
10
62.8674417369884
20
-1.70238812636043
30
1E-16
41
1
10
62.6752301653719
20
-1.61197027254329
30
1E-16
41
1
10
62.2917454471269
20
-1.43045401857734
30
1E-16
41
1
10
62.1003308552716
20
-1.33929006233183
30
1E-16
41
1
10
61.5269561113776
20
-1.0648196073976
30
1E-16
41
1
10
61.1458667545205
20
-0.880530514406757
30
1E-16
41
1
10
60.2899619359187
20
-0.464220555880786
30
0
41
1
10
59.8156017211445
20
-0.231872611911456
30
0
41
1
10
59.3418943841772
20
6.81386515282E-05
30
0
0
SPLINE
5
BB
100
AcDbEntity
8
1
62
256
6
ByLayer
370
18
48
1
60
0
100
AcDbSpline
70
4
71
3
72
10
73
6
40
0
40
0
40
0
40
0
40
0.5
40
0.5
40
1
40
1
40
1
40
1
41
1
10
76.8285661803488
20
-5.99052917109114
30
0
41
1
10
76.8086282189248
20
-6.0036363963394
30
0
41
1
10
76.7917678401339
20
-6.00912729302578
30
0
41
1
10
76.7627595003979
20
-6.00523409587623
30
0
41
1
10
76.750670822801
20
-5.99576767345786
30
0
41
1
10
76.7404272380239
20
-5.97945525907141
30
0
0
SPLINE
5
BC
100
AcDbEntity
8
1
62
256
6
ByLayer
370
18
48
1
60
0
100
AcDbSpline
70
4
71
3
72
10
73
6
40
0
40
0
40
0
40
0
40
0.5
40
0.5
40
1
40
1
40
1
40
1
41
1
10
76.4183191979357
20
-6.16722763470955
30
-1E-16
41
1
10
76.4220911193951
20
-6.19110131354495
30
0
41
1
10
76.4256890703396
20
-6.20988064794653
30
0
41
1
10
76.4327854370295
20
-6.23706865189624
30
0
41
1
10
76.4362981880525
20
-6.24547969706666
30
0
41
1
10
76.4398304471144
20
-6.24851897935147
30
0
0
SPLINE
5
BD
100
AcDbEntity
8
1
62
256
6
ByLayer
370
18
48
1
60
0
100
AcDbSpline
70
4
71
3
72
8
73
4
40
0
40
0
40
0
40
0
40
1
40
1
40
1
40
1
41
1
10
78.4567134851013
20
1.91298630278257
30
0
41
1
10
78.6407677329202
20
1.3920900957466
30
0
41
1
10
78.8199660196822
20
0.869456059315439
30
0
41
1
10
78.9942364625242
20
0.345058468374845
30
0
0
SPLINE
5
BE
100
AcDbEntity
8
1
62
256
6
ByLayer
370
18
48
1
60
0
100
AcDbSpline
70
4
71
3
72
74
73
70
40
0
40
0
40
0
40
0
40
0.0074093333288177
40
0.0074093333288177
40
0.0343394078191762
40
0.0343394078191762
40
0.0612694823095348
40
0.0612694823095348
40
0.115129631290252
40
0.115129631290252
40
0.142059705780611
40
0.142059705780611
40
0.168989780270969
40
0.168989780270969
40
0.195919854761328
40
0.195919854761328
40
0.222849929251686
40
0.222849929251686
40
0.249780003742044
40
0.249780003742044
40
0.276710078232403
40
0.276710078232403
40
0.303640152722761
40
0.303640152722761
40
0.330570227213119
40
0.330570227213119
40
0.357500301703478
40
0.357500301703478
40
0.384430376193836
40
0.384430376193836
40
0.411360450684195
40
0.411360450684195
40
0.438290525174553
40
0.438290525174553
40
0.465220599664911
40
0.465220599664911
40
0.49215067415527
40
0.49215067415527
40
0.519080748645628
40
0.519080748645628
40
0.546010823135986
40
0.546010823135986
40
0.572940897626345
40
0.572940897626345
40
0.599870972116703
40
0.599870972116703
40
0.626801046607062
40
0.626801046607062
40
0.65373112109742
40
0.65373112109742
40
0.707591270078137
40
0.707591270078137
40
0.734521344568495
40
0.734521344568495
40
0.761451419058853
40
0.761451419058853
40
0.81531156803957
40
0.81531156803957
40
0.842241642529928
40
0.842241642529928
40
0.869171717020286
40
0.869171717020286
40
0.923031866001002
40
0.923031866001002
40
0.94996194049136
40
0.94996194049136
40
0.976892014981717
40
0.976892014981717
40
1
40
1
40
1
40
1
41
1
10
14.6461816761624
20
5.90697310723945
30
1E-16
41
1
10
14.7500131993694
20
5.92348575500662
30
1E-16
41
1
10
14.85383206479
20
5.93934564433218
30
1E-16
41
1
10
15.3348046729478
20
6.00975373005053
30
1E-16
41
1
10
15.7108827316351
20
6.05607742247315
30
1E-16
41
1
10
16.4610223341747
20
6.1311817774947
30
1E-16
41
1
10
16.8350277930546
20
6.15995439071793
30
0
41
1
10
17.9555303591293
20
6.21969251072841
30
0
41
1
10
18.7003897002768
20
6.22420291374982
30
0
41
1
10
19.8177132107552
20
6.17834494453956
30
0
41
1
10
20.1903336996948
20
6.15431916389946
30
0
41
1
10
20.9361859989466
20
6.08880980537489
30
1E-16
41
1
10
21.3093493423277
20
6.04727452675905
30
1E-16
41
1
10
22.0573102685428
20
5.94697236933672
30
1E-16
41
1
10
22.432201502554
20
5.88829470110477
30
1E-16
41
1
10
23.1837572224399
20
5.75362268118994
30
1E-16
41
1
10
23.5608457691723
20
5.67736679733048
30
1E-16
41
1
10
24.3157185288889
20
5.50887081711085
30
1E-16
41
1
10
24.6927141980569
20
5.41679336746816
30
1E-16
41
1
10
25.4458332281906
20
5.21709055180042
30
1E-16
41
1
10
25.8218575029007
20
5.10932042206176
30
1E-16
41
1
10
26.5745921165768
20
4.87989174555872
30
1E-16
41
1
10
26.9511760559606
20
4.75812864203846
30
-3E-16
41
1
10
27.7047927602672
20
4.50045208208627
30
-3E-16
41
1
10
28.0821234364433
20
4.36420181658005
30
-3E-16
41
1
10
28.8369203344415
20
4.08050128959576
30
-2E-16
41
1
10
29.2138765559117
20
3.93296373450025
30
-2E-16
41
1
10
29.9668858669069
20
3.62653423132014
30
-2E-16
41
1
10
30.3428232045327
20
3.4674266888218
30
-2E-16
41
1
10
31.0956085827217
20
3.14074884973144
30
-2E-16
41
1
10
31.4722283587011
20
2.97283321881037
30
-2E-16
41
1
10
32.225943297908
20
2.62782729719751
30
-2E-16
41
1
10
32.6033836854473
20
2.45032278919081
30
-2E-16
41
1
10
33.3579095680388
20
2.09028228027231
30
-1E-16
41
1
10
33.7347064964859
20
1.90740537703394
30
-1E-16
41
1
10
34.4875545403144
20
1.53630334120385
30
-1E-16
41
1
10
34.8635367212114
20
1.3479382401066
30
-1E-16
41
1
10
35.6162850371078
20
0.968769198240182
30
-1E-16
41
1
10
35.992883632386
20
0.777653277452771
30
0
41
1
10
36.7465769706539
20
0.392420303719916
30
0
41
1
10
37.1242040872422
20
0.19827226856242
30
0
41
1
10
37.8784667663833
20
-0.18868115263075
30
0
41
1
10
38.2551863780076
20
-0.381666166254632
30
0
41
1
10
39.0078112809348
20
-0.766642373135682
30
0
41
1
10
39.3837845754313
20
-0.958494310158812
30
1E-16
41
1
10
40.1365334729101
20
-1.33806312447868
30
1E-16
41
1
10
40.5131634331071
20
-1.5260674644903
30
1E-16
41
1
10
41.2668574442909
20
-1.89863770268244
30
1E-16
41
1
10
41.6445563397639
20
-2.08286236911658
30
1E-16
41
1
10
42.775599903427
20
-2.6239248084934
30
2E-16
41
1
10
43.5273144685453
20
-2.97110278687626
30
2E-16
41
1
10
44.6563842407174
20
-3.46301049527082
30
2E-16
41
1
10
45.0329829654854
20
-3.62220197790867
30
2E-16
41
1
10
45.7867389495757
20
-3.93081650313704
30
2E-16
41
1
10
46.1644186037114
20
-4.07987774065191
30
2E-16
41
1
10
47.2951805378111
20
-4.50721674218025
30
3E-16
41
1
10
48.0466954157316
20
-4.7675172930235
30
3E-16
41
1
10
49.175805791006
20
-5.11427580678469
30
-1E-16
41
1
10
49.5524248704962
20
-5.22268293590142
30
-1E-16
41
1
10
50.3062623465441
20
-5.42486238218439
30
-1E-16
41
1
10
50.6838578362025
20
-5.51829568220771
30
-1E-16
41
1
10
51.8143104563838
20
-5.77333878286186
30
-1E-16
41
1
10
52.5656161323845
20
-5.9109168508611
30
-1E-16
41
1
10
53.6948301224967
20
-6.06484548246502
30
-1E-16
41
1
10
54.0714784157132
20
-6.10753451272723
30
-1E-16
41
1
10
54.8254181156967
20
-6.17537074054661
30
0
41
1
10
55.2028801261628
20
-6.20034382797044
30
0
41
1
10
55.9028503528237
20
-6.22992140724258
30
0
41
1
10
56.2256544497139
20
-6.23694287231004
30
0
41
1
10
56.5483515916038
20
-6.23734536967044
30
0
0
SPLINE
5
BF
100
AcDbEntity
8
1
62
256
6
ByLayer
370
18
48
1
60
0
100
AcDbSpline
70
4
71
3
72
42
73
38
40
0
40
0
40
0
40
0
40
0.0180988384089953
40
0.0180988384089953
40
0.076086239752686
40
0.076086239752686
40
0.134073641096377
40
0.134073641096377
40
0.192061042440067
40
0.192061042440067
40
0.250048443783758
40
0.250048443783758
40
0.308035845127448
40
0.308035845127448
40
0.366023246471139
40
0.366023246471139
40
0.424010647814829
40
0.424010647814829
40
0.48199804915852
40
0.48199804915852
40
0.53998545050221
40
0.53998545050221
40
0.597972851845901
40
0.597972851845901
40
0.655960253189591
40
0.655960253189591
40
0.713947654533282
40
0.713947654533282
40
0.771935055876972
40
0.771935055876972
40
0.829922457220663
40
0.829922457220663
40
0.887909858564353
40
0.887909858564353
40
0.945897259908044
40
0.945897259908044
40
1
40
1
40
1
40
1
41
1
10
37.954709940645
20
-0.227320414933615
30
0
41
1
10
37.8360038461512
20
-0.169545852622434
30
0
41
1
10
37.7173162604124
20
-0.111749547830527
30
0
41
1
10
37.2185982692842
20
0.131251796307538
30
0
41
1
10
36.8399518198438
20
0.316186108111424
30
0
41
1
10
36.0843062173187
20
0.683429905522047
30
0
41
1
10
35.7071910352299
20
0.865601507860788
30
-1E-16
41
1
10
34.9543136657631
20
1.2265048765268
30
-1E-16
41
1
10
34.5787573969539
20
1.40544269580039
30
-1E-16
41
1
10
33.8278655853245
20
1.75805573316168
30
-1E-16
41
1
10
33.452583366996
20
1.93180141055692
30
-1E-16
41
1
10
32.7021274948123
20
2.27336384600861
30
-1E-16
41
1
10
32.3271457774718
20
2.44129199524602
30
-1E-16
41
1
10
31.5761680502519
20
2.76963536854032
30
-2E-16
41
1
10
31.2002257634847
20
2.9301021735765
30
-2E-16
41
1
10
30.4472707353762
20
3.24271945139256
30
-2E-16
41
1
10
30.070392754418
20
3.39482292431165
30
-2E-16
41
1
10
29.3144694331181
20
3.68940834450908
30
-2E-16
41
1
10
28.9354646560273
20
3.83191212275244
30
-2E-16
41
1
10
28.1751031485358
20
4.10610323422245
30
-3E-16
41
1
10
27.795462613043
20
4.23698859136294
30
-3E-16
41
1
10
27.0386388530565
20
4.48539571154848
30
2E-16
41
1
10
26.6610005299608
20
4.60307163195239
30
2E-16
41
1
10
25.9074081880465
20
4.82411006474376
30
1E-16
41
1
10
25.5315869658619
20
4.92720411491521
30
1E-16
41
1
10
24.7802158232449
20
5.11939980259353
30
1E-16
41
1
10
24.4047307433335
20
5.20842730767598
30
1E-16
41
1
10
23.6542159418125
20
5.37077162582014
30
1E-16
41
1
10
23.2792534991863
20
5.44381333729308
30
1E-16
41
1
10
22.5284503118443
20
5.5751670004496
30
1E-16
41
1
10
22.1526677078695
20
5.63334238554711
30
1E-16
41
1
10
21.4003424123319
20
5.73249194401052
30
1E-16
41
1
10
21.0237402586138
20
5.77366373178572
30
1E-16
41
1
10
20.2686591409073
20
5.83996735945837
30
0
41
1
10
19.8902179538023
20
5.86494946780851
30
0
41
1
10
19.1565660191388
20
5.89598644201504
30
0
41
1
10
18.8012729305231
20
5.90329832636604
30
0
41
1
10
18.4473411125382
20
5.90334370170734
30
0
0
SPLINE
5
C0
100
AcDbEntity
8
1
62
256
6
ByLayer
370
18
48
1
60
0
100
AcDbSpline
70
4
71
3
72
54
73
50
40
0
40
0
40
0
40
0
40
0.0432263050761439
40
0.0432263050761439
40
0.0995071106599024
40
0.0995071106599024
40
0.127647513451782
40
0.127647513451782
40
0.155787916243661
40
0.155787916243661
40
0.21206872182742
40
0.21206872182742
40
0.240209124619298
40
0.240209124619298
40
0.268349527411177
40
0.268349527411177
40
0.324630332994935
40
0.324630332994935
40
0.352770735786814
40
0.352770735786814
40
0.380911138578692
40
0.380911138578692
40
0.437191944162448
40
0.437191944162448
40
0.465332346954326
40
0.465332346954326
40
0.493472749746203
40
0.493472749746203
40
0.549753555329959
40
0.549753555329959
40
0.577893958121836
40
0.577893958121836
40
0.606034360913714
40
0.606034360913714
40
0.662315166497469
40
0.662315166497469
40
0.690455569289347
40
0.690455569289347
40
0.718595972081224
40
0.718595972081224
40
0.77487677766498
40
0.77487677766498
40
0.803017180456857
40
0.803017180456857
40
0.831157583248735
40
0.831157583248735
40
0.88743838883249
40
0.88743838883249
40
1
40
1
40
1
40
1
41
1
10
44.033148727836
20
-5.93542052641618
30
-1E-16
41
1
10
43.4487444295153
20
-6.02618138431529
30
-1E-16
41
1
10
42.8635059812956
20
-6.09639858106735
30
-1E-16
41
1
10
41.5198733753578
20
-6.20818566229971
30
0
41
1
10
40.7612068315857
20
-6.23508343257927
30
0
41
1
10
39.6208882087276
20
-6.22034761698205
30
0
41
1
10
39.240112496293
20
-6.20624114342166
30
0
41
1
10
38.4784527944687
20
-6.15969294334414
30
0
41
1
10
38.0982469867114
20
-6.12731173963346
30
-1E-16
41
1
10
36.9584209200846
20
-6.00340542151775
30
-1E-16
41
1
10
36.1996907640128
20
-5.88504985753204
30
-1E-16
41
1
10
35.0589456617337
20
-5.65641224438701
30
-1E-16
41
1
10
34.6778971009575
20
-5.5715239251013
30
-1E-16
41
1
10
33.9164810944814
20
-5.38570227788435
30
-1E-16
41
1
10
33.5363324800924
20
-5.28486400439192
30
-1E-16
41
1
10
32.396504127659
20
-4.95982676008293
30
-1E-16
41
1
10
31.6377454253357
20
-4.71272564612147
30
3E-16
41
1
10
30.4965301395669
20
-4.30222731929263
30
3E-16
41
1
10
30.1152744634309
20
-4.15843471099711
30
3E-16
41
1
10
29.3540682112024
20
-3.85949514598491
30
2E-16
41
1
10
28.9739847699577
20
-3.70435948091807
30
2E-16
41
1
10
27.8342027772549
20
-3.22377421323191
30
2E-16
41
1
10
27.0753010911097
20
-2.88258628503451
30
2E-16
41
1
10
25.933635257182
20
-2.34759587050937
30
1E-16
41
1
10
25.552275738059
20
-2.16507082819936
30
1E-16
41
1
10
24.7912449481627
20
-1.79496185960764
30
1E-16
41
1
10
24.4112185592346
20
-1.60726193657013
30
1E-16
41
1
10
23.2715121928032
20
-1.03833167340636
30
1E-16
41
1
10
22.5123946593717
20
-0.650902431749216
30
0
41
1
10
21.3703101918309
20
-0.0661229992617791
30
0
41
1
10
20.9889473408495
20
0.129508593425385
30
0
41
1
10
20.2280500802473
20
0.518915710928695
30
0
41
1
10
19.8480655119428
20
0.712902055859161
30
0
41
1
10
18.7083783401339
20
1.29052883251424
30
-1E-16
41
1
10
17.9490292316552
20
1.67000387266722
30
-1E-16
41
1
10
16.8064409380406
20
2.2226601757049
30
-1E-16
41
1
10
16.4252030765035
20
2.40400324832126
30
-1E-16
41
1
10
15.6644406815702
20
2.75827771168022
30
-2E-16
41
1
10
15.2844776559973
20
2.9314015102596
30
-2E-16
41
1
10
14.1447420255186
20
3.43686768578812
30
-2E-16
41
1
10
13.3851975686611
20
3.75542458551416
30
-2E-16
41
1
10
12.2420625930522
20
4.19858857055812
30
-3E-16
41
1
10
11.8613922295736
20
4.34012478791254
30
-3E-16
41
1
10
11.103038721742
20
4.6089957648922
30
-3E-16
41
1
10
10.7249035529375
20
4.73649235592231
30
-3E-16
41
1
10
9.59254965029194
20
5.09706138745946
30
1E-16
41
1
10
8.84039284611933
20
5.30822061112261
30
1E-16
41
1
10
6.58421902016204
20
5.84650594940734
30
1E-16
41
1
10
5.08058843122913
20
6.07835611284
30
1E-16
41
1
10
3.55610526177517
20
6.16503329485397
30
0
0
SPLINE
5
C1
100
AcDbEntity
8
1
62
256
6
ByLayer
370
18
48
1
60
0
100
AcDbSpline
70
4
71
3
72
40
73
36
40
0
40
0
40
0
40
0
40
0.0182638690349182
40
0.0182638690349182
40
0.0719092879565464
40
0.0719092879565464
40
0.125554706878175
40
0.125554706878175
40
0.232845544721431
40
0.232845544721431
40
0.286490963643059
40
0.286490963643059
40
0.340136382564687
40
0.340136382564687
40
0.393781801486315
40
0.393781801486315
40
0.447427220407944
40
0.447427220407944
40
0.501072639329572
40
0.501072639329572
40
0.5547180582512
40
0.5547180582512
40
0.662008896094456
40
0.662008896094456
40
0.715654315016084
40
0.715654315016084
40
0.769299733937713
40
0.769299733937713
40
0.876590571780969
40
0.876590571780969
40
0.930235990702597
40
0.930235990702597
40
0.983881409624225
40
0.983881409624225
40
1
40
1
40
1
40
1
41
1
10
58.6627265594491
20
-0.528312892563633
30
0
41
1
10
58.4859461148595
20
-0.441154142650731
30
0
41
1
10
58.3091873808332
20
-0.353837659085656
30
0
41
1
10
57.6134465205745
20
-0.0098846179486429
30
0
41
1
10
57.0942437336913
20
0.247381022476304
30
0
41
1
10
56.0553728324668
20
0.759448651187483
30
0
41
1
10
55.5357292008526
20
1.01443540996061
30
-1E-16
41
1
10
53.9799285338366
20
1.7668633301324
30
-1E-16
41
1
10
52.9461705659535
20
2.25292983916296
30
-1E-16
41
1
10
51.3907813480485
20
2.93945004185281
30
-2E-16
41
1
10
50.8708411871273
20
3.16131647145332
30
-2E-16
41
1
10
49.8338362260258
20
3.5855996870109
30
-2E-16
41
1
10
49.3162222614342
20
3.78843499769198
30
-2E-16
41
1
10
48.2808143571042
20
4.17179661837017
30
-3E-16
41
1
10
47.7630515779848
20
4.35245778965975
30
-3E-16
41
1
10
46.7259218779816
20
4.68984994476017
30
2E-16
41
1
10
46.2062165396991
20
4.84672212266079
30
1E-16
41
1
10
45.1683734440203
20
5.13185342321427
30
1E-16
41
1
10
44.6496970848631
20
5.26045077727369
30
1E-16
41
1
10
43.6113247623972
20
5.48874933191308
30
1E-16
41
1
10
43.0920508998996
20
5.58830860020362
30
1E-16
41
1
10
41.5354794906633
20
5.83943068992377
30
1E-16
41
1
10
40.4967835772879
20
5.94463970775124
30
0
41
1
10
38.940210066358
20
6.00259103468801
30
0
41
1
10
38.4207448358952
20
6.00534197595042
30
0
41
1
10
37.3825027500507
20
5.97823892904637
30
0
41
1
10
36.8638981198101
20
5.94827674976156
30
0
41
1
10
35.3069848233931
20
5.80939669284661
30
1E-16
41
1
10
34.2672422584312
20
5.65141349448643
30
1E-16
41
1
10
32.7105134561119
20
5.32450286992429
30
1E-16
41
1
10
32.1918290240228
20
5.20060115024376
30
1E-16
41
1
10
31.1533991869652
20
4.92478030374664
30
1E-16
41
1
10
30.6341764139209
20
4.77296496982368
30
2E-16
41
1
10
29.9594209496737
20
4.55926811594472
30
0
41
1
10
29.8035017308017
20
4.50873709916701
30
-1E-16
41
1
10
29.6475637661894
20
4.45709094901267
30
-1E-16
0
SPLINE
5
C2
100
AcDbEntity
8
1
62
256
6
ByLayer
370
18
48
1
60
0
100
AcDbSpline
70
4
71
3
72
8
73
4
40
0
40
0
40
0
40
0
40
1
40
1
40
1
40
1
41
1
10
77.9518906199652
20
-0.657156479187506
30
0
41
1
10
77.7457981086382
20
-0.107016041206123
30
0
41
1
10
77.4870305039652
20
0.477554119253966
30
0
41
1
10
77.1767551039939
20
1.09579102779102
30
-1E-16
0
SPLINE
5
C3
100
AcDbEntity
8
1
62
256
6
ByLayer
370
18
48
1
60
0
100
AcDbSpline
70
4
71
3
72
27
73
23
40
0
40
0
40
0
40
0
40
0.100083588045864
40
0.100083588045864
40
0.164363331756874
40
0.164363331756874
40
0.196503203612379
40
0.196503203612379
40
0.228643075467883
40
0.228643075467883
40
0.485762050311923
40
0.485762050311923
40
0.742881025155962
40
0.742881025155962
40
0.807160768866972
40
0.807160768866972
40
0.871440512577981
40
0.871440512577981
40
0.93572025628899
40
0.967860128144496
40
0.967860128144496
40
1
40
1
40
1
40
1
41
1
10
58.9973882688168
20
0.179533398885098
30
0
41
1
10
59.5866129556661
20
-0.108288437435135
30
0
41
1
10
60.1765965774809
20
-0.397297905061237
30
0
41
1
10
61.1488294378829
20
-0.869482624113346
30
1E-16
41
1
10
61.5299076306283
20
-1.0535036310315
30
1E-16
41
1
10
62.1032590786344
20
-1.32759667502498
30
1E-16
41
1
10
62.2946647876638
20
-1.41863898859339
30
1E-16
41
1
10
62.6781295204158
20
-1.59991997459235
30
1E-16
41
1
10
62.8703318698572
20
-1.69022502665004
30
1E-16
41
1
10
64.5953830649112
20
-2.49486256032142
30
2E-16
41
1
10
66.1077219577568
20
-3.15784956195688
30
2E-16
41
1
10
69.1315793735136
20
-4.30840918945907
30
3E-16
41
1
10
70.6430116015542
20
-4.7968036072588
30
-2E-16
41
1
10
72.5567000354935
20
-5.25858094241033
30
-1E-16
41
1
10
72.9411476753037
20
-5.34364157477367
30
-1E-16
41
1
10
73.7080205173971
20
-5.49711401093256
30
-1E-16
41
1
10
74.0910018314417
20
-5.56565883956449
30
-1E-16
41
1
10
74.8567389836078
20
-5.68583605080266
30
-1E-16
41
1
10
75.4308702695634
20
-5.76329336426187
30
-1E-16
41
1
10
76.0054381418082
20
-5.82125822023713
30
-1E-16
41
1
10
76.3886535634484
20
-5.85551526161839
30
0
41
1
10
76.5803522975916
20
-5.87014549848558
30
0
41
1
10
76.7721620803979
20
-5.88320593698074
30
0
0
SPLINE
5
C4
100
AcDbEntity
8
1
62
256
6
ByLayer
370
18
48
1
60
0
100
AcDbSpline
70
4
71
3
72
30
73
26
40
0
40
0
40
0
40
0
40
0.125
40
0.125
40
0.187499999999999
40
0.187499999999999
40
0.249999999999999
40
0.249999999999999
40
0.374999999999999
40
0.374999999999999
40
0.437499999999999
40
0.437499999999999
40
0.499999999999999
40
0.499999999999999
40
0.624999999999999
40
0.624999999999999
40
0.687499999999999
40
0.687499999999999
40
0.749999999999999
40
0.749999999999999
40
0.875
40
0.875
40
0.9375
40
0.9375
40
1
40
1
40
1
40
1
41
1
10
76.0632580724867
20
-0.23003086431433
30
0
41
1
10
76.0793666545767
20
-0.579683284653584
30
0
41
1
10
76.1088454664482
20
-0.921723950672714
30
1E-16
41
1
10
76.1633279978538
20
-1.42485864466011
30
1E-16
41
1
10
76.1832374757203
20
-1.59090154306662
30
1E-16
41
1
10
76.2252720621073
20
-1.91974483073355
30
1E-16
41
1
10
76.2474880600643
20
-2.08317552649615
30
1E-16
41
1
10
76.3151321034745
20
-2.56407741839632
30
2E-16
41
1
10
76.3609409924192
20
-2.86906466839977
30
2E-16
41
1
10
76.4255396424989
20
-3.30439269670575
30
2E-16
41
1
10
76.4464150227197
20
-3.44578257906701
30
2E-16
41
1
10
76.4862859201587
20
-3.72101865308738
30
2E-16
41
1
10
76.5053654616372
20
-3.85549417609795
30
2E-16
41
1
10
76.5583850018818
20
-4.24103676780774
30
3E-16
41
1
10
76.5881306892313
20
-4.47506073908363
30
-2E-16
41
1
10
76.6251812168594
20
-4.79222687588242
30
-2E-16
41
1
10
76.6362945008552
20
-4.89227045762041
30
-1E-16
41
1
10
76.6565000661494
20
-5.08070379001336
30
-1E-16
41
1
10
76.665622312221
20
-5.16940498799798
30
-1E-16
41
1
10
76.6905718992092
20
-5.41290777839347
30
-1E-16
41
1
10
76.7040676102299
20
-5.54669399665858
30
-1E-16
41
1
10
76.7261149128765
20
-5.70528903337663
30
-1E-16
41
1
10
76.7337835292356
20
-5.75110081979668
30
-1E-16
41
1
10
76.7511260233748
20
-5.8282832998018
30
-1E-16
41
1
10
76.7608159403517
20
-5.8596110803241
30
0
41
1
10
76.7721620803975
20
-5.88320593698074
30
0
0
SPLINE
5
C5
100
AcDbEntity
8
1
62
256
6
ByLayer
370
18
48
1
60
0
100
AcDbSpline
70
4
71
3
72
8
73
4
40
0
40
0
40
0
40
0
40
1
40
1
40
1
40
1
41
1
10
76.8285661803488
20
-5.99052917109111
30
0
41
1
10
76.8243537780641
20
-5.99336719683817
30
0
41
1
10
76.8201414547661
20
-5.99620483707449
30
0
41
1
10
76.8159292101993
20
-5.99904209126186
30
0
0
SPLINE
5
C6
100
AcDbEntity
8
1
62
256
6
ByLayer
370
18
48
1
60
0
100
AcDbSpline
70
4
71
3
72
38
73
34
40
0
40
0
40
0
40
0
40
0.0579341027453134
40
0.0579341027453134
40
0.115868205490626
40
0.115868205490626
40
0.173802308235939
40
0.173802308235939
40
0.231736410981252
40
0.231736410981252
40
0.347604616471877
40
0.347604616471877
40
0.463472821962502
40
0.463472821962502
40
0.521406924707813
40
0.521406924707813
40
0.550373976080469
40
0.550373976080469
40
0.579341027453124
40
0.579341027453124
40
0.695209232943745
40
0.695209232943745
40
0.753143335689055
40
0.753143335689055
40
0.811077438434365
40
0.811077438434365
40
0.869011541179674
40
0.869011541179674
40
0.926945643924984
40
0.926945643924984
40
0.984879746670294
40
0.984879746670294
40
1
40
1
40
1
40
1
41
1
10
76.0632580724867
20
-0.230030864314301
30
0
41
1
10
75.6835078535936
20
-0.0439050588203713
30
0
41
1
10
75.3035822754099
20
0.142370086491013
30
0
41
1
10
74.5468068217186
20
0.512117968787379
30
0
41
1
10
74.1694511874475
20
0.695816514009067
30
0
41
1
10
73.4163521036897
20
1.05979229920368
30
-1E-16
41
1
10
73.0406222380923
20
1.2400916159371
30
-1E-16
41
1
10
72.2905059408173
20
1.59629887923813
30
-1E-16
41
1
10
71.9161118643442
20
1.77218419876851
30
-1E-16
41
1
10
70.7932097469862
20
2.29086651349914
30
-1E-16
41
1
10
70.0457038627524
20
2.62503863239672
30
-2E-16
41
1
10
68.5471306155639
20
3.26079481603335
30
-2E-16
41
1
10
67.7962661940709
20
3.56244139637892
30
-2E-16
41
1
10
66.6641612771653
20
3.98368594931173
30
-2E-16
41
1
10
66.2858321600851
20
4.11880962536307
30
-3E-16
41
1
10
65.71645580485
20
4.31251999559694
30
-3E-16
41
1
10
65.5263198803788
20
4.37562037599099
30
-3E-16
41
1
10
65.1470573572961
20
4.49827609061052
30
2E-16
41
1
10
64.957685068019
20
4.55792272029757
30
2E-16
41
1
10
64.0118553875526
20
4.84762276805699
30
1E-16
41
1
10
63.2586568999713
20
5.05195311423248
30
1E-16
41
1
10
62.1326859021101
20
5.31188814501812
30
1E-16
41
1
10
61.7580593486796
20
5.39057493531084
30
1E-16
41
1
10
61.0095504931803
20
5.53132168439032
30
1E-16
41
1
10
60.6353779375815
20
5.59394568974648
30
1E-16
41
1
10
59.8863127604196
20
5.70423751411531
30
1E-16
41
1
10
59.5115396216573
20
5.75157562872584
30
1E-16
41
1
10
58.7613834384978
20
5.82901903391857
30
1E-16
41
1
10
58.3859068324639
20
5.85945167242454
30
0
41
1
10
57.6332990240994
20
5.90416493954254
30
0
41
1
10
57.2562727602985
20
5.91797788948074
30
0
41
1
10
56.7797279146813
20
5.92353615987295
30
0
41
1
10
56.6810198468851
20
5.92412315620405
30
0
41
1
10
56.5822301709539
20
5.92414582697609
30
0
0
SPLINE
5
C7
100
AcDbEntity
8
1
62
256
6
ByLayer
370
18
48
1
60
0
100
AcDbSpline
70
4
71
3
72
60
73
56
40
0
40
0
40
0
40
0
40
0.0406806726946475
40
0.0406806726946475
40
0.0861848615252978
40
0.0861848615252978
40
0.0975609087329604
40
0.0975609087329604
40
0.108936955940623
40
0.108936955940623
40
0.131689050355947
40
0.131689050355947
40
0.177193239186596
40
0.177193239186596
40
0.268201616847894
40
0.268201616847894
40
0.290953711263219
40
0.290953711263219
40
0.313705805678544
40
0.313705805678544
40
0.359209994509193
40
0.359209994509193
40
0.404714183339842
40
0.404714183339842
40
0.450218372170491
40
0.450218372170491
40
0.472970466585816
40
0.472970466585816
40
0.49572256100114
40
0.49572256100114
40
0.541226749831789
40
0.541226749831789
40
0.586730938662439
40
0.586730938662439
40
0.632235127493088
40
0.632235127493088
40
0.677739316323737
40
0.677739316323737
40
0.723243505154386
40
0.723243505154386
40
0.768747693985036
40
0.768747693985036
40
0.814251882815685
40
0.814251882815685
40
0.859756071646334
40
0.859756071646334
40
0.882508166061659
40
0.882508166061659
40
0.905260260476983
40
0.905260260476983
40
0.950764449307631
40
0.950764449307631
40
0.99626863813828
40
0.99626863813828
40
1
40
1
40
1
40
1
41
1
10
20.2235788374458
20
6.21468534859622
30
0
41
1
10
20.8615432076855
20
6.21506781662211
30
0
41
1
10
21.4991437957988
20
6.18962676817716
30
0
41
1
10
22.8524719797405
20
6.08108761266084
30
1E-16
41
1
10
23.5689879989635
20
5.99172385052594
30
1E-16
41
1
10
24.4692872973334
20
5.84009938625516
30
1E-16
41
1
10
24.6495829002322
20
5.80777670474282
30
1E-16
41
1
10
25.010723015766
20
5.73914592948353
30
1E-16
41
1
10
25.1916961218497
20
5.70280754034985
30
1E-16
41
1
10
25.7333093392428
20
5.58846202924806
30
1E-16
41
1
10
26.0933234734261
20
5.50499804045748
30
1E-16
41
1
10
27.1707400976273
20
5.23377635604359
30
1E-16
41
1
10
27.8853474028004
20
5.02494580028704
30
1E-16
41
1
10
30.0265397610954
20
4.32524347522553
30
-3E-16
41
1
10
31.4495301846542
20
3.75992714758257
30
-2E-16
41
1
10
33.245841065845
20
2.96270576531541
30
-2E-16
41
1
10
33.6059382789566
20
2.79866617966573
30
-2E-16
41
1
10
34.3283960039061
20
2.46224731486888
30
-2E-16
41
1
10
34.6897872898118
20
2.29056710679058
30
-1E-16
41
1
10
35.7693532971119
20
1.76956609095558
30
-1E-16
41
1
10
36.4850928644298
20
1.41274599445478
30
-1E-16
41
1
10
37.913167176573
20
0.689129774164883
30
0
41
1
10
38.6259643645177
20
0.323251419771424
30
0
41
1
10
40.0524486978051
20
-0.409937262151203
30
0
41
1
10
40.7662950192638
20
-0.776935160263292
30
0
41
1
10
41.8418478159126
20
-1.32030320882791
30
1E-16
41
1
10
42.201102245633
20
-1.5003586275825
30
1E-16
41
1
10
42.9215947224097
20
-1.85732094973454
30
1E-16
41
1
10
43.2835901264426
20
-2.03462130117398
30
1E-16
41
1
10
44.3655463739135
20
-2.55492602238823
30
2E-16
41
1
10
45.0825707923567
20
-2.88773438664049
30
2E-16
41
1
10
46.5119407786479
20
-3.51911694677733
30
2E-16
41
1
10
47.2247497219818
20
-3.81687801386801
30
2E-16
41
1
10
48.6507074296365
20
-4.37033693039808
30
3E-16
41
1
10
49.3636437157284
20
-4.62629385999159
30
3E-16
41
1
10
50.7951129611643
20
-5.08830020775571
30
-1E-16
41
1
10
51.5132818496883
20
-5.2948576386465
30
-1E-16
41
1
10
52.9591805119913
20
-5.65216590397534
30
-1E-16
41
1
10
53.6776691239002
20
-5.80010389330096
30
-1E-16
41
1
10
55.1088838418483
20
-6.03364162545381
30
-1E-16
41
1
10
55.8218556935133
20
-6.11904633613796
30
-1E-16
41
1
10
57.2476389631693
20
-6.22560598402498
30
0
41
1
10
57.9599916180579
20
-6.24686375159359
30
0
41
1
10
59.3892020006745
20
-6.22414412913142
30
0
41
1
10
60.1059620988448
20
-6.18026824224486
30
0
41
1
10
61.1872694235072
20
-6.0649151355542
30
-1E-16
41
1
10
61.5491899789696
20
-6.01812673255421
30
-1E-16
41
1
10
62.2695623439941
20
-5.90927692200628
30
-1E-16
41
1
10
62.6287120498191
20
-5.84712356719629
30
-1E-16
41
1
10
63.7037748614477
20
-5.63828393388522
30
-1E-16
41
1
10
64.4171914273653
20
-5.46906094203285
30
-1E-16
41
1
10
65.843126386378
20
-5.07670480356302
30
-1E-16
41
1
10
66.5552781093406
20
-4.85323470845816
30
-1E-16
41
1
10
67.3273939934533
20
-4.58467111542359
30
1E-16
41
1
10
67.3859221429579
20
-4.56415569383435
30
1E-16
41
1
10
67.4444638886423
20
-4.54347930607059
30
1E-16
0
SPLINE
5
C8
100
AcDbEntity
8
1
62
256
6
ByLayer
370
18
48
1
60
0
100
AcDbSpline
70
4
71
3
72
30
73
26
40
0
40
0
40
0
40
0
40
0.316178058938385
40
0.316178058938385
40
0.568114143911787
40
0.568114143911787
40
0.727793565020824
40
0.727793565020824
40
0.828630003916026
40
0.828630003916026
40
0.892412247056045
40
0.892412247056045
40
0.93285138325348
40
0.93285138325348
40
0.958532372502427
40
0.958532372502427
40
0.974680039009795
40
0.974680039009795
40
0.984850199523853
40
0.984850199523853
40
0.991313507914219
40
0.991313507914219
40
0.997790547500465
40
0.997790547500465
40
1
40
1
40
1
40
1
41
1
10
76.4398304471337
20
-6.24851897933837
30
0
41
1
10
76.4793771619302
20
-6.22267245614458
30
0
41
1
10
76.5189623003579
20
-6.19667487656227
30
0
41
1
10
76.5901586141796
20
-6.14969618762689
30
0
41
1
10
76.6217560799219
20
-6.12876891161392
30
0
41
1
10
76.6734187074755
20
-6.09442808759792
30
0
41
1
10
76.693470009802
20
-6.08106920571962
30
0
41
1
10
76.7261989466671
20
-6.05921495239213
30
0
41
1
10
76.7388709778164
20
-6.05074140235609
30
0
41
1
10
76.7595646424788
20
-6.0368845362695
30
0
41
1
10
76.7675873344549
20
-6.03150757178952
30
0
41
1
10
76.7806821941042
20
-6.02272376080859
30
0
41
1
10
76.7857535120163
20
-6.01932029251245
30
0
41
1
10
76.7940471085055
20
-6.01375107215006
30
0
41
1
10
76.7972724237434
20
-6.01158439188052
30
0
41
1
10
76.8025501644738
20
-6.00803738689004
30
0
41
1
10
76.8045935609813
20
-6.00666370987341
30
0
41
1
10
76.8079363234317
20
-6.00441592945623
30
0
41
1
10
76.8092317519055
20
-6.00354468939781
30
0
41
1
10
76.8113502457982
20
-6.00211972939485
30
0
41
1
10
76.8121752513127
20
-6.00156475582469
30
0
41
1
10
76.813782870243
20
-6.00048363907982
30
0
41
1
10
76.8145762085118
20
-5.99995028897496
30
0
41
1
10
76.8155049430289
20
-5.99932667420143
30
0
41
1
10
76.8157305356614
20
-5.99917527778055
30
0
41
1
10
76.8159292101993
20
-5.99904209126186
30
0
0
SPLINE
5
C9
100
AcDbEntity
8
1
62
256
6
ByLayer
370
18
48
1
60
0
100
AcDbSpline
70
4
71
3
72
40
73
36
40
0
40
0
40
0
40
0
40
0.0502994827643001
40
0.0502994827643001
40
0.109752377695783
40
0.109752377695783
40
0.169205272627265
40
0.169205272627265
40
0.228658167558747
40
0.228658167558747
40
0.28811106249023
40
0.28811106249023
40
0.347563957421712
40
0.347563957421712
40
0.407016852353194
40
0.407016852353194
40
0.466469747284676
40
0.466469747284676
40
0.525922642216159
40
0.525922642216159
40
0.585375537147641
40
0.585375537147641
40
0.644828432079123
40
0.644828432079123
40
0.704281327010606
40
0.704281327010606
40
0.763734221942088
40
0.763734221942088
40
0.82318711687357
40
0.82318711687357
40
0.882640011805053
40
0.882640011805053
40
0.942092906736535
40
0.942092906736535
40
1
40
1
40
1
40
1
41
1
10
18.548702112816
20
5.91321622798839
30
0
41
1
10
18.8698119294915
20
5.91220448710695
30
0
41
1
10
19.1918498766901
20
5.90517885394536
30
0
41
1
10
19.8924205144894
20
5.87606892089531
30
0
41
1
10
20.2708191167403
20
5.85135935714223
30
0
41
1
10
21.0258065365293
20
5.78556637788802
30
1E-16
41
1
10
21.4023585324631
20
5.74463498821959
30
1E-16
41
1
10
22.1545836410471
20
5.64594099354139
30
1E-16
41
1
10
22.5303150218602
20
5.58797727959546
30
1E-16
41
1
10
23.2810080142399
20
5.45700550428433
30
1E-16
41
1
10
23.6559147404139
20
5.38414370213127
30
1E-16
41
1
10
24.4063182782257
20
5.22212364515826
30
1E-16
41
1
10
24.781747336434
20
5.13323937269595
30
1E-16
41
1
10
25.53300445948
20
4.94128960068107
30
1E-16
41
1
10
25.9087693727749
20
4.83830711710792
30
1E-16
41
1
10
26.6622515536253
20
4.617450014968
30
2E-16
41
1
10
27.0398357158033
20
4.49984319509983
30
2E-16
41
1
10
27.7965529919024
20
4.25153129063284
30
-3E-16
41
1
10
28.1761330735373
20
4.12068513302583
30
-3E-16
41
1
10
28.9364257198309
20
3.84650632674789
30
-2E-16
41
1
10
29.3153910802676
20
3.70398634118081
30
-2E-16
41
1
10
30.0712274288821
20
3.40933027399984
30
-2E-16
41
1
10
30.4480603684774
20
3.25718070311871
30
-2E-16
41
1
10
31.2009198086459
20
2.94442651554826
30
-2E-16
41
1
10
31.5768110124994
20
2.78386916896753
30
-2E-16
41
1
10
32.3276824274243
20
2.45530911328817
30
-2E-16
41
1
10
32.7026099217965
20
2.28725998331618
30
-1E-16
41
1
10
33.4529552972618
20
1.94541284208103
30
-1E-16
41
1
10
33.8281806241053
20
1.77150325148088
30
-1E-16
41
1
10
34.5789581653656
20
1.41852883349242
30
-1E-16
41
1
10
34.9544570397914
20
1.23939593034581
30
-1E-16
41
1
10
35.7072207583457
20
0.878060934762885
30
-1E-16
41
1
10
36.084279234096
20
0.695651493756685
30
0
41
1
10
36.8299912260679
20
0.332681170723731
30
0
41
1
10
37.1987183240731
20
0.152326061295128
30
0
41
1
10
37.5687984972572
20
-0.028323750141567
30
0
0
SPLINE
5
CA
100
AcDbEntity
8
1
62
256
6
ByLayer
370
18
48
1
60
0
100
AcDbSpline
70
4
71
3
72
14
73
10
40
0
40
0
40
0
40
0
40
0.499999999999996
40
0.499999999999996
40
0.749999999999994
40
0.749999999999994
40
0.874999999999997
40
0.874999999999997
40
1
40
1
40
1
40
1
41
1
10
75.8868175679123
20
0.736309780046867
30
0
41
1
10
76.0853554506794
20
0.877181706590449
30
-1E-16
41
1
10
76.2969457434591
20
0.976387054764643
30
-1E-16
41
1
10
76.6233419454343
20
1.06739034573877
30
-1E-16
41
1
10
76.7336100232336
20
1.08915789108696
30
-1E-16
41
1
10
76.9001550243061
20
1.10519636309925
30
-1E-16
41
1
10
76.9559948230354
20
1.10772095534205
30
-1E-16
41
1
10
77.0669550985344
20
1.10638410961766
30
-1E-16
41
1
10
77.1220588266142
20
1.10234484406746
30
-1E-16
41
1
10
77.176755103994
20
1.09579102779102
30
-1E-16
0
SPLINE
5
CB
100
AcDbEntity
8
1
62
256
6
ByLayer
370
18
48
1
60
0
100
AcDbSpline
70
4
71
3
72
8
73
4
40
0
40
0
40
0
40
0
40
1
40
1
40
1
40
1
41
1
10
78.4567134851012
20
-1.91298630278257
30
0
41
1
10
78.6407677329219
20
-1.39209009574182
30
0
41
1
10
78.8199660196856
20
-0.869456059305833
30
0
41
1
10
78.994236462529
20
-0.345058468360378
30
0
0
SPLINE
5
CC
100
AcDbEntity
8
1
62
256
6
ByLayer
370
18
48
1
60
0
100
AcDbSpline
70
4
71
3
72
14
73
10
40
0
40
0
40
0
40
0
40
0.269040286204673
40
0.269040286204673
40
0.502389646635501
40
0.502389646635501
40
0.777901097762571
40
0.777901097762571
40
1
40
1
40
1
40
1
41
1
10
76.0578414451926
20
-0.216639058212678
30
0
41
1
10
76.0585747371797
20
-0.216944767994505
30
0
41
1
10
76.0592966437513
20
-0.217624947232281
30
0
41
1
10
76.0605025156083
20
-0.219331890194098
30
0
41
1
10
76.0610219123369
20
-0.220323663963455
30
0
41
1
10
76.06199953225
20
-0.222754684496238
30
0
41
1
10
76.0624453636716
20
-0.224279609030646
30
0
41
1
10
76.0630166309954
20
-0.227213038143361
30
0
41
1
10
76.0631931608905
20
-0.228621895071086
30
0
41
1
10
76.0632580724867
20
-0.230030864314358
30
0
0
SPLINE
5
CD
100
AcDbEntity
8
1
62
256
6
ByLayer
370
18
48
1
60
0
100
AcDbSpline
70
2053
71
3
72
68
73
64
40
0
40
0
40
0
40
0
40
0.0625000000000009
40
0.0625000000000009
40
0.125000000000002
40
0.125000000000002
40
0.187500000000003
40
0.187500000000003
40
0.250000000000003
40
0.250000000000003
40
0.281250000000004
40
0.281250000000004
40
0.296875000000004
40
0.296875000000004
40
0.312500000000004
40
0.312500000000004
40
0.343750000000004
40
0.343750000000004
40
0.375000000000004
40
0.375000000000004
40
0.406250000000004
40
0.406250000000004
40
0.437500000000004
40
0.437500000000004
40
0.468750000000004
40
0.468750000000004
40
0.500000000000004
40
0.500000000000004
40
0.531250000000004
40
0.531250000000004
40
0.562500000000004
40
0.562500000000004
40
0.593750000000004
40
0.593750000000004
40
0.625000000000004
40
0.625000000000004
40
0.656250000000004
40
0.656250000000004
40
0.687500000000004
40
0.687500000000004
40
0.718750000000004
40
0.718750000000004
40
0.750000000000004
40
0.750000000000004
40
0.765625000000004
40
0.765625000000004
40
0.781250000000003
40
0.781250000000003
40
0.812500000000003
40
0.812500000000003
40
0.828125000000003
40
0.828125000000003
40
0.843750000000003
40
0.843750000000003
40
0.875000000000002
40
0.875000000000002
40
0.906250000000002
40
0.906250000000002
40
0.937500000000001
40
0.937500000000001
40
0.968750000000001
40
0.968750000000001
40
1
40
1
40
1
40
1
41
1
10
77.3129413606059
20
-2.62991672345624
30
2E-16
41
1
10
77.2679274641037
20
-2.68495774575794
30
2E-16
41
1
10
77.2258986754523
20
-2.71993529458317
30
2E-16
41
1
10
77.1458055053326
20
-2.7510131378657
30
2E-16
41
1
10
77.1098415466462
20
-2.74622097172437
30
2E-16
41
1
10
77.0439097265275
20
-2.69515283960394
30
2E-16
41
1
10
77.015671588023
20
-2.6503250212601
30
2E-16
41
1
10
76.9673566093311
20
-2.5195044188215
30
2E-16
41
1
10
76.9486689645042
20
-2.43731266981698
30
1E-16
41
1
10
76.9300596117501
20
-2.28756841619739
30
1E-16
41
1
10
76.9256902739813
20
-2.23482554052515
30
1E-16
41
1
10
76.9221235749367
20
-2.15138112471328
30
1E-16
41
1
10
76.9214373074217
20
-2.12283921697164
30
1E-16
41
1
10
76.9211784971127
20
-2.06421010852364
30
1E-16
41
1
10
76.9216180613389
20
-2.0339508761603
30
1E-16
41
1
10
76.9247341713213
20
-1.94323913000198
30
1E-16
41
1
10
76.9291571739366
20
-1.88220818239515
30
1E-16
41
1
10
76.9433590154028
20
-1.7590341162618
30
1E-16
41
1
10
76.9532564806543
20
-1.69685535087245
30
1E-16
41
1
10
76.9779202659676
20
-1.57878030745812
30
1E-16
41
1
10
76.9929996927458
20
-1.52125661335657
30
1E-16
41
1
10
77.0275955051481
20
-1.41420186348219
30
1E-16
41
1
10
77.0468968450682
20
-1.36502787844171
30
1E-16
41
1
10
77.0893849369137
20
-1.27478314689225
30
1E-16
41
1
10
77.1122127776651
20
-1.23458335671057
30
1E-16
41
1
10
77.1597230872536
20
-1.16452772526486
30
1E-16
41
1
10
77.1847745344133
20
-1.13419819377242
30
1E-16
41
1
10
77.2352831410874
20
-1.08422475080346
30
1E-16
41
1
10
77.2608324236217
20
-1.06434703136023
30
1E-16
41
1
10
77.312291181553
20
-1.03397004271264
30
1E-16
41
1
10
77.3380978901131
20
-1.02361554814391
30
1E-16
41
1
10
77.3883141872695
20
-1.01236422194853
30
1E-16
41
1
10
77.4129191708337
20
-1.01134577901186
30
1E-16
41
1
10
77.460871134254
20
-1.01845542241818
30
1E-16
41
1
10
77.4840725228914
20
-1.02664229215279
30
1E-16
41
1
10
77.5275031587347
20
-1.05177381721856
30
1E-16
41
1
10
77.5479141148927
20
-1.06873102675715
30
1E-16
41
1
10
77.5857194182168
20
-1.11201933638861
30
1E-16
41
1
10
77.6031836468829
20
-1.13861444164661
30
1E-16
41
1
10
77.6332714294256
20
-1.20028372370473
30
1E-16
41
1
10
77.6460753221898
20
-1.23546824401922
30
1E-16
41
1
10
77.6665284770722
20
-1.31570155453096
30
1E-16
41
1
10
77.6740369660298
20
-1.36060286068687
30
1E-16
41
1
10
77.6804343964156
20
-1.43320468456173
30
1E-16
41
1
10
77.6817816613976
20
-1.45838864702972
30
1E-16
41
1
10
77.6828192418813
20
-1.51086452994062
30
1E-16
41
1
10
77.6824940687179
20
-1.53830977028372
30
1E-16
41
1
10
77.6789793504219
20
-1.62176466247817
30
1E-16
41
1
10
77.6733183504255
20
-1.67944193210863
30
1E-16
41
1
10
77.6599274887223
20
-1.76919594524205
30
1E-16
41
1
10
77.6545980665893
20
-1.7998396798325
30
1E-16
41
1
10
77.6426149919682
20
-1.86054361778082
30
-1E-16
41
1
10
77.6359446972935
20
-1.89077160935795
30
-1E-16
41
1
10
77.6140438348649
20
-1.98111517051046
30
-1E-16
41
1
10
77.5966801904331
20
-2.04161471718916
30
-1E-16
41
1
10
77.5589037199946
20
-2.15692591419611
30
-1E-16
41
1
10
77.5384689436298
20
-2.21207060686783
30
-1E-16
41
1
10
77.4950811275744
20
-2.31741252201857
30
-1E-16
41
1
10
77.4728019007117
20
-2.36598944355134
30
-1E-16
41
1
10
77.4273660972236
20
-2.45583808206786
30
2E-16
41
1
10
77.4040623021685
20
-2.49726673447799
30
2E-16
41
1
10
77.3582221482056
20
-2.57031149796788
30
2E-16
41
1
10
77.3354483088571
20
-2.60239621230539
30
2E-16
41
1
10
77.3129413606059
20
-2.62991672345624
30
2E-16
0
SPLINE
5
CE
100
AcDbEntity
8
1
62
256
6
ByLayer
370
18
48
1
60
0
100
AcDbSpline
70
4
71
3
72
24
73
20
40
0
40
0
40
0
40
0
40
0.124999999999998
40
0.124999999999998
40
0.187499999999998
40
0.187499999999998
40
0.249999999999998
40
0.249999999999998
40
0.374999999999997
40
0.374999999999997
40
0.437499999999997
40
0.437499999999997
40
0.499999999999997
40
0.499999999999997
40
0.749999999999998
40
0.749999999999998
40
0.874999999999999
40
0.874999999999999
40
1
40
1
40
1
40
1
41
1
10
27
20
-3.6660678253362
30
2E-16
41
1
10
26.321762393261
20
-3.38486018910797
30
2E-16
41
1
10
25.6439963957266
20
-3.08639255764791
30
2E-16
41
1
10
24.6247110647083
20
-2.6182598704095
30
2E-16
41
1
10
24.2841985054425
20
-2.45867067642985
30
2E-16
41
1
10
23.6044810270646
20
-2.13469114814603
30
1E-16
41
1
10
23.2650428263971
20
-1.97021603627712
30
1E-16
41
1
10
22.2474078300405
20
-1.47043709397426
30
1E-16
41
1
10
21.569618270093
20
-1.12928729585872
30
1E-16
41
1
10
20.5509305001067
20
-0.611281290514199
30
0
41
1
10
20.2107430519963
20
-0.43738305285973
30
0
41
1
10
19.5306689970305
20
-0.0888900670302633
30
0
41
1
10
19.1917063174801
20
0.0851103173965839
30
0
41
1
10
17.5007796908239
20
0.950972022455403
30
-1E-16
41
1
10
16.1611628526233
20
1.63178988846198
30
-1E-16
41
1
10
14.1482367839716
20
2.59095751885295
30
-2E-16
41
1
10
13.4768809390588
20
2.90072138984203
30
-2E-16
41
1
10
12.1290417983779
20
3.49218799266731
30
-2E-16
41
1
10
11.4525804848183
20
3.77395208395171
30
-2E-16
41
1
10
10.7719307536744
20
4.03864363537772
30
-2E-16
0
SPLINE
5
CF
100
AcDbEntity
8
1
62
256
6
ByLayer
370
18
48
1
60
0
100
AcDbSpline
70
4
71
3
72
22
73
18
40
0
40
0
40
0
40
0
40
0.0624999999999998
40
0.0624999999999998
40
0.125
40
0.125
40
0.249999999999999
40
0.249999999999999
40
0.374999999999999
40
0.374999999999999
40
0.437499999999999
40
0.437499999999999
40
0.499999999999999
40
0.499999999999999
40
0.75
40
0.75
40
1
40
1
40
1
40
1
41
1
10
78.4567134851013
20
-1.91298630278257
30
0
41
1
10
78.4134805206228
20
-1.98282254498801
30
0
41
1
10
78.3708973051696
20
-2.05473697700867
30
0
41
1
10
78.2869683896028
20
-2.20288265179403
30
0
41
1
10
78.2454501747858
20
-2.27945689174712
30
0
41
1
10
78.1243007747935
20
-2.51264372323558
30
0
41
1
10
78.0479012579629
20
-2.67288205756165
30
0
41
1
10
77.902226221746
20
-3.00238725976055
30
0
41
1
10
77.8329613903491
20
-3.17167050556657
30
0
41
1
10
77.7329905430504
20
-3.43194404790293
30
0
41
1
10
77.7002277675296
20
-3.52001829686694
30
0
41
1
10
77.6363172968695
20
-3.6964709981217
30
0
41
1
10
77.604831228949
20
-3.78482195664682
30
0
41
1
10
77.4472602984519
20
-4.22652831780553
30
0
41
1
10
77.3230603537071
20
-4.58055054429352
30
0
41
1
10
77.0758195490864
20
-5.28745784081002
30
0
41
1
10
76.9527751863454
20
-5.64034201230163
30
0
41
1
10
76.8285661803487
20
-5.99052917109114
30
0
0
SPLINE
5
D0
100
AcDbEntity
8
1
62
256
6
ByLayer
370
18
48
1
60
0
100
AcDbSpline
70
4
71
3
72
8
73
4
40
0
40
0
40
0
40
0
40
1
40
1
40
1
40
1
41
1
10
3.5561052617752
20
-6.16503329485397
30
0
41
1
10
3.52324472350159
20
-6.16690163877149
30
0
41
1
10
3.50167173339477
20
-6.17074160203563
30
0
41
1
10
3.50167173339477
20
-6.17435992395286
30
0
0
SPLINE
5
D1
100
AcDbEntity
8
1
62
256
6
ByLayer
370
18
48
1
60
0
100
AcDbSpline
70
4
71
3
72
14
73
10
40
0
40
0
40
0
40
0
40
0.266863998658054
40
0.266863998658054
40
0.533727997316109
40
0.533727997316109
40
0.800591995974164
40
0.800591995974164
40
1
40
1
40
1
40
1
41
1
10
27
20
-3.59214951785091
30
2E-16
41
1
10
28.0307732028856
20
-4.02397327854013
30
2E-16
41
1
10
29.061288779486
20
-4.41652473580592
30
3E-16
41
1
10
31.1222362629972
20
-5.09846464735335
30
-1E-16
41
1
10
32.1528623199864
20
-5.38792460677342
30
-1E-16
41
1
10
34.2134517135455
20
-5.84441192789672
30
-1E-16
41
1
10
35.2441980247475
20
-6.01161235198427
30
-1E-16
41
1
10
37.0442554780669
20
-6.18749857803607
30
0
41
1
10
37.8143057327997
20
-6.22560879614605
30
0
41
1
10
38.5842108826293
20
-6.22611598500441
30
0
0
SPLINE
5
D2
100
AcDbEntity
8
1
62
256
6
ByLayer
370
18
48
1
60
0
100
AcDbSpline
70
4
71
3
72
12
73
8
40
0
40
0
40
0
40
0
40
0.311412819098694
40
0.311412819098694
40
0.655706409549347
40
0.655706409549347
40
1
40
1
40
1
40
1
41
1
10
67.4681165747544
20
4.52556208447083
30
-3E-16
41
1
10
68.3993681816775
20
4.85636781364045
30
-2E-16
41
1
10
69.3308834787094
20
5.14720471512547
30
1E-16
41
1
10
71.2915865889471
20
5.65837860741766
30
1E-16
41
1
10
72.3215983279405
20
5.86835894152901
30
1E-16
41
1
10
74.3803999886162
20
6.15768521411226
30
1E-16
41
1
10
75.4102911759321
20
6.23705136353348
30
0
41
1
10
76.4398304471268
20
6.24851897935133
30
0
0
SPLINE
5
D3
100
AcDbEntity
8
1
62
256
6
ByLayer
370
18
48
1
60
0
100
AcDbSpline
70
4
71
3
72
10
73
6
40
0
40
0
40
0
40
0
40
0.5
40
0.5
40
1
40
1
40
1
40
1
41
1
10
75.9069270361554
20
-0.149825523922743
30
0
41
1
10
75.8981310721105
20
-0.0032354874479097
30
0
41
1
10
75.8917012592506
20
0.14395397003932
30
0
41
1
10
75.8846273132631
20
0.439637824641892
30
0
41
1
10
75.8840126875405
20
0.588925218165258
30
0
41
1
10
75.8868175679123
20
0.736309780046838
30
0
0
SPLINE
5
D4
100
AcDbEntity
8
1
62
256
6
ByLayer
370
18
48
1
60
0
100
AcDbSpline
70
4
71
3
72
18
73
14
40
0
40
0
40
0
40
0
40
0.258733630445446
40
0.258733630445446
40
0.388100445668186
40
0.388100445668186
40
0.517467260890927
40
0.517467260890927
40
0.646834076113667
40
0.646834076113667
40
0.776200891336407
40
0.776200891336407
40
1
40
1
40
1
40
1
41
1
10
77.4245561862684
20
1.71805034301235
30
0
41
1
10
77.3258406238886
20
1.70413276945155
30
0
41
1
10
77.2301233827507
20
1.68232450098816
30
0
41
1
10
77.091170471181
20
1.63891912566322
30
0
41
1
10
77.0452940662803
20
1.62253388197655
30
0
41
1
10
76.9569797931146
20
1.58729537127442
30
0
41
1
10
76.9145839859018
20
1.56850392893244
30
0
41
1
10
76.833073379368
20
1.52928117356836
30
0
41
1
10
76.7939572216596
20
1.50885091010255
30
0
41
1
10
76.7188561380828
20
1.46699577776255
30
0
41
1
10
76.6828032365397
20
1.4455072790191
30
0
41
1
10
76.5911805228206
20
1.38795584065358
30
0
41
1
10
76.5396278454798
20
1.35230390968556
30
0
41
1
10
76.4942283605184
20
1.3185209356181
30
0
0
SPLINE
5
D5
100
AcDbEntity
8
1
62
256
6
ByLayer
370
18
48
1
60
0
100
AcDbSpline
70
4
71
3
72
30
73
26
40
0
40
0
40
0
40
0
40
0.0536325538736105
40
0.0536325538736105
40
0.122880398559994
40
0.122880398559994
40
0.261376087932762
40
0.261376087932762
40
0.330623932619146
40
0.330623932619146
40
0.399871777305529
40
0.399871777305529
40
0.469119621991913
40
0.469119621991913
40
0.538367466678297
40
0.538367466678297
40
0.676863156051064
40
0.676863156051064
40
0.746111000737448
40
0.746111000737448
40
0.815358845423832
40
0.815358845423832
40
0.953854534796599
40
0.953854534796599
40
1
40
1
40
1
40
1
41
1
10
3.60229625511994
20
-2.11983621382657
30
1E-16
41
1
10
3.6022909082624
20
-2.23918611110079
30
1E-16
41
1
10
3.60228519979509
20
-2.35689577221734
30
1E-16
41
1
10
3.60227138487866
20
-2.62283838310097
30
2E-16
41
1
10
3.60226306014539
20
-2.76995629579929
30
2E-16
41
1
10
3.60223703716909
20
-3.197683540437
30
2E-16
41
1
10
3.60221821266049
20
-3.4667024333755
30
2E-16
41
1
10
3.60218848249204
20
-3.84639125134456
30
2E-16
41
1
10
3.60217831870253
20
-3.96896050407449
30
2E-16
41
1
10
3.60215754914009
20
-4.20591908729244
30
3E-16
41
1
10
3.60214693066598
20
-4.32038374014573
30
3E-16
41
1
10
3.60212561792781
20
-4.53754673982971
30
-2E-16
41
1
10
3.60211488475889
20
-4.64071004605094
30
-2E-16
41
1
10
3.60209328184135
20
-4.83622983553101
30
-1E-16
41
1
10
3.60208238674318
20
-4.92878584593387
30
-1E-16
41
1
10
3.60204963927058
20
-5.18861120065745
30
-1E-16
41
1
10
3.6020280167275
20
-5.33607872153937
30
-1E-16
41
1
10
3.60199552868309
20
-5.5200835390518
30
-1E-16
41
1
10
3.60198468713352
20
-5.57518550525623
30
-1E-16
41
1
10
3.60196287728229
20
-5.67276736217121
30
-1E-16
41
1
10
3.60195188768094
20
-5.71531683045345
30
-1E-16
41
1
10
3.60191866420661
20
-5.82294794697918
30
0
41
1
10
3.60189663076508
20
-5.86680677448942
30
0
41
1
10
3.60186658566806
20
-5.88953385183052
30
0
41
1
10
3.60185902056037
20
-5.89223566637187
30
0
41
1
10
3.60185137211914
20
-5.89191635084083
30
0
0
SPLINE
5
D6
100
AcDbEntity
8
1
62
256
6
ByLayer
370
18
48
1
60
0
100
AcDbSpline
70
4
71
3
72
8
73
4
40
0
40
0
40
0
40
0
40
1
40
1
40
1
40
1
41
1
10
78.9942364625241
20
0.345058468374816
30
0
41
1
10
79.0019266383144
20
0.114856071077668
30
0
41
1
10
79.0019157277018
20
-0.115182675981941
30
0
41
1
10
78.9942364625245
20
-0.34505846836467
30
0
0
SPLINE
5
D7
100
AcDbEntity
8
1
62
256
6
ByLayer
370
18
48
1
60
0
100
AcDbSpline
70
4
71
3
72
32
73
28
40
0
40
0
40
0
40
0
40
0.19278017048672
40
0.19278017048672
40
0.289170255730079
40
0.289170255730079
40
0.385560340973438
40
0.385560340973438
40
0.433755383595118
40
0.433755383595118
40
0.481950426216797
40
0.481950426216797
40
0.578340511460156
40
0.578340511460156
40
0.674730596703514
40
0.674730596703514
40
0.771120681946873
40
0.771120681946873
40
0.795218203257714
40
0.795218203257714
40
0.819315724568555
40
0.819315724568555
40
0.867510767190238
40
0.867510767190238
40
0.963900852433603
40
0.963900852433603
40
1
40
1
40
1
40
1
41
1
10
7.08930719911208
20
-2.90338358285754
30
2E-16
41
1
10
8.53695909386809
20
-3.5588726225476
30
2E-16
41
1
10
9.96476797150299
20
-4.14396249711365
30
3E-16
41
1
10
12.1059270327156
20
-4.87537662165241
30
-1E-16
41
1
10
12.8191566677746
20
-5.09537859796165
30
-1E-16
41
1
10
14.2501140258882
20
-5.48075792385271
30
-1E-16
41
1
10
14.9678156723593
20
-5.64624507574666
30
-1E-16
41
1
10
16.0505656363532
20
-5.8499138006265
30
-1E-16
41
1
10
16.412705670553
20
-5.91030445928095
30
-1E-16
41
1
10
17.1335204067426
20
-6.0145121785788
30
-1E-16
41
1
10
17.4929244114553
20
-6.05855246867196
30
-1E-16
41
1
10
18.5688320984574
20
-6.16649668090392
30
0
41
1
10
19.2829012663988
20
-6.20618187105438
30
0
41
1
10
20.7103590955803
20
-6.22073832176031
30
0
41
1
10
21.4234019518771
20
-6.1957013891562
30
0
41
1
10
22.8524719797687
20
-6.08108761265771
30
-1E-16
41
1
10
23.5689879989913
20
-5.99172385052205
30
-1E-16
41
1
10
24.469287297361
20
-5.84009938625033
30
-1E-16
41
1
10
24.6495829002596
20
-5.80777670473779
30
-1E-16
41
1
10
25.0107230157933
20
-5.73914592947813
30
-1E-16
41
1
10
25.1916961218769
20
-5.70280754034431
30
-1E-16
41
1
10
25.7333093392696
20
-5.58846202924201
30
-1E-16
41
1
10
26.0933234734528
20
-5.50499804045114
30
-1E-16
41
1
10
27.1707400976532
20
-5.23377635603637
30
-1E-16
41
1
10
27.8853474028258
20
-5.02494580027928
30
-1E-16
41
1
10
28.8663782219612
20
-4.70436295191988
30
0
41
1
10
29.1335214758574
20
-4.61354814017412
30
1E-16
41
1
10
29.4006296156573
20
-4.51944051706434
30
1E-16
0
SPLINE
5
D8
100
AcDbEntity
8
1
62
256
6
ByLayer
370
18
48
1
60
0
100
AcDbSpline
70
4
71
3
72
28
73
24
40
0
40
0
40
0
40
0
40
0.0232578847090533
40
0.0232578847090533
40
0.145350649120422
40
0.145350649120422
40
0.206397031326106
40
0.206397031326106
40
0.26744341353179
40
0.26744341353179
40
0.389536177943158
40
0.389536177943158
40
0.511628942354527
40
0.511628942354527
40
0.633721706765895
40
0.633721706765895
40
0.694768088971579
40
0.694768088971579
40
0.755814471177263
40
0.755814471177263
40
0.877907235588631
40
0.877907235588631
40
1
40
1
40
1
40
1
41
1
10
58.2664396819708
20
6.23844910945328
30
0
41
1
10
58.402423182601
20
6.23864826201509
30
0
41
1
10
58.5384691261989
20
6.23766791118575
30
0
41
1
10
59.3892020006833
20
6.22414412913102
30
0
41
1
10
60.1059620988533
20
6.18026824224421
30
0
41
1
10
61.1872694235152
20
6.06491513555326
30
1E-16
41
1
10
61.5491899789773
20
6.01812673255318
30
1E-16
41
1
10
62.2695623440014
20
5.90927692200506
30
1E-16
41
1
10
62.6287120498263
20
5.84712356719501
30
1E-16
41
1
10
63.7037748614542
20
5.63828393388377
30
1E-16
41
1
10
64.4171914273714
20
5.46906094203129
30
1E-16
41
1
10
65.8431263863834
20
5.07670480356146
30
1E-16
41
1
10
66.5552781093455
20
4.85323470845645
30
1E-16
41
1
10
67.982478841163
20
4.35681420422225
30
-3E-16
41
1
10
68.6979577282564
20
4.0844993900422
30
-3E-16
41
1
10
69.7766187612877
20
3.64290227756925
30
-2E-16
41
1
10
70.1375846353879
20
3.48988632759668
30
-2E-16
41
1
10
70.8597911860696
20
3.17517369375608
30
-2E-16
41
1
10
71.2200897723315
20
3.01387363113847
30
-2E-16
41
1
10
72.2991812108556
20
2.5193094042119
30
-2E-16
41
1
10
73.0159815874824
20
2.17501863618176
30
-1E-16
41
1
10
74.4501645329784
20
1.46797591143493
30
-1E-16
41
1
10
75.1674264715598
20
1.10502963854387
30
-1E-16
41
1
10
75.8868175679124
20
0.73630978004681
30
0
0
SPLINE
5
D9
100
AcDbEntity
8
1
62
256
6
ByLayer
370
18
48
1
60
0
100
AcDbSpline
70
4
71
3
72
29
73
25
40
0
40
0
40
0
40
0
40
0.0057560385133752
40
0.0057560385133752
40
0.125674502355076
40
0.125674502355076
40
0.185633734275927
40
0.185633734275927
40
0.245592966196777
40
0.245592966196777
40
0.365511430038478
40
0.365511430038478
40
0.485429893880179
40
0.485429893880179
40
0.60534835772188
40
0.60534835772188
40
0.635327973682305
40
0.635327973682305
40
0.665307589642731
40
0.725266821563581
40
0.725266821563581
40
0.965103749246976
40
0.965103749246976
40
1
40
1
40
1
40
1
41
1
10
40.3202541956507
20
-5.92483598374758
30
0
41
1
10
40.2833804017095
20
-5.92485076774955
30
0
41
1
10
40.2465027613137
20
-5.92478295998646
30
0
41
1
10
39.4412441552149
20
-5.92149707489696
30
0
41
1
10
38.6739518787876
20
-5.88285657743739
30
0
41
1
10
37.5214039580461
20
-5.7720040612904
30
-1E-16
41
1
10
37.1378557966364
20
-5.72637473107122
30
-1E-16
41
1
10
36.3734539295012
20
-5.61867820910183
30
-1E-16
41
1
10
35.99226547546
20
-5.55648642724279
30
-1E-16
41
1
10
34.8507143780782
20
-5.34584363437415
30
-1E-16
41
1
10
34.0925976454604
20
-5.17388634087914
30
-1E-16
41
1
10
32.5764951939661
20
-4.77129253006049
30
-2E-16
41
1
10
31.8188939718168
20
-4.54113859535306
30
-2E-16
41
1
10
30.2987017413769
20
-4.02856123953993
30
2E-16
41
1
10
29.5365771908634
20
-3.74639062485045
30
2E-16
41
1
10
28.5775405828646
20
-3.36541749441255
30
2E-16
41
1
10
28.3852064187624
20
-3.28773660327971
30
2E-16
41
1
10
28.0013441235487
20
-3.13027083434517
30
2E-16
41
1
10
27.4265180640786
20
-2.89083089754234
30
2E-16
41
1
10
26.8541181857581
20
-2.64242398337748
30
2E-16
41
1
10
24.9496586906948
20
-1.79821673144238
30
1E-16
41
1
10
23.438324118973
20
-1.06961641436018
30
1E-16
41
1
10
21.6975382480667
20
-0.222160360014556
30
0
41
1
10
21.4762554410807
20
-0.114270830729254
30
0
41
1
10
21.254737859003
20
-0.0062689332000616
30
0
0
SPLINE
5
DA
100
AcDbEntity
8
1
62
256
6
ByLayer
370
18
48
1
60
0
100
AcDbSpline
70
4
71
3
72
8
73
4
40
0
40
0
40
0
40
0
40
1
40
1
40
1
40
1
41
1
10
78.9942364625241
20
0.345058468374873
30
0
41
1
10
78.9672401055414
20
0.255077519599183
30
0
41
1
10
78.9401088977463
20
0.165137939102635
30
0
41
1
10
78.9128433371506
20
0.0752395741099008
30
0
0
SPLINE
5
DB
100
AcDbEntity
8
1
62
256
6
ByLayer
370
18
48
1
60
0
100
AcDbSpline
70
4
71
3
72
48
73
44
40
0
40
0
40
0
40
0
40
0.0315010229985359
40
0.0315010229985359
40
0.0630020459970718
40
0.0630020459970718
40
0.126004091994144
40
0.126004091994144
40
0.15750511499268
40
0.15750511499268
40
0.189006137991215
40
0.189006137991215
40
0.252008183988286
40
0.252008183988286
40
0.378012275982428
40
0.378012275982428
40
0.409513298980964
40
0.409513298980964
40
0.441014321979499
40
0.441014321979499
40
0.504016367976571
40
0.504016367976571
40
0.535517390975107
40
0.535517390975107
40
0.567018413973644
40
0.567018413973644
40
0.630020459970717
40
0.630020459970717
40
0.661521482969254
40
0.661521482969254
40
0.693022505967791
40
0.693022505967791
40
0.756024551964864
40
0.756024551964864
40
0.787525574963402
40
0.787525574963402
40
0.819026597961939
40
0.819026597961939
40
0.882028643959013
40
0.882028643959013
40
0.945030689956088
40
0.945030689956088
40
1
40
1
40
1
40
1
41
1
10
76.4183191979373
20
-6.16722763470904
30
-1E-16
41
1
10
76.0379379692342
20
-6.13519429683203
30
-1E-16
41
1
10
75.6576960027081
20
-6.09408494631708
30
-1E-16
41
1
10
74.8968815475505
20
-5.99402842896225
30
-1E-16
41
1
10
74.5159637668689
20
-5.93501199404636
30
-1E-16
41
1
10
73.3750140316846
20
-5.73229163270381
30
-1E-16
41
1
10
72.6165459886105
20
-5.56298616280444
30
-1E-16
41
1
10
71.4781139086317
20
-5.26140180516654
30
-1E-16
41
1
10
71.098477061146
20
-5.15297295136779
30
-1E-16
41
1
10
70.3381837195613
20
-4.92100242590243
30
-1E-16
41
1
10
69.9569843048655
20
-4.79725839319244
30
3E-16
41
1
10
68.8182918861033
20
-4.407124673883
30
3E-16
41
1
10
68.0638877559073
20
-4.12124333827563
30
3E-16
41
1
10
65.8065065013674
20
-3.20015156521688
30
2E-16
41
1
10
64.3095575864731
20
-2.5010273248987
30
2E-16
41
1
10
62.4210280792111
20
-1.56839845976012
30
1E-16
41
1
10
62.042464950893
20
-1.37892956469682
30
1E-16
41
1
10
61.2829953367102
20
-0.9952126201525
30
1E-16
41
1
10
60.9017346704983
20
-0.800786744814189
30
0
41
1
10
59.7612783719925
20
-0.216499451105108
30
0
41
1
10
59.0028509676858
20
0.17542483468219
30
0
41
1
10
57.8638167016394
20
0.75868991659064
30
0
41
1
10
57.4839263721525
20
0.952380452505849
30
-1E-16
41
1
10
56.7230470188282
20
1.33698253444797
30
-1E-16
41
1
10
56.3420076242594
20
1.52788038257913
30
-1E-16
41
1
10
55.2016134332179
20
2.09161497050803
30
-1E-16
41
1
10
54.4431076454021
20
2.4563046128826
30
-2E-16
41
1
10
53.3038065529019
20
2.97911667575306
30
-2E-16
41
1
10
52.9238092914766
20
3.14939772552751
30
-2E-16
41
1
10
52.1625848808569
20
3.48061266431085
30
-2E-16
41
1
10
51.7816814158509
20
3.64136630500897
30
-2E-16
41
1
10
50.6414402391751
20
4.10583858225385
30
-3E-16
41
1
10
49.8829155016131
20
4.39241591184779
30
-3E-16
41
1
10
48.7433177529265
20
4.78164956486881
30
-3E-16
41
1
10
48.3631716816153
20
4.90465293209607
30
1E-16
41
1
10
47.6015754286888
20
5.13615922826503
30
1E-16
41
1
10
47.2209409964362
20
5.24438549245559
30
1E-16
41
1
10
46.0808709843421
20
5.54494119497789
30
1E-16
41
1
10
45.3222875632602
20
5.71340496570818
30
1E-16
41
1
10
43.8023748609448
20
5.98179448989472
30
1E-16
41
1
10
43.039779339249
20
6.08173305114678
30
1E-16
41
1
10
41.6167670800649
20
6.20012433333884
30
0
41
1
10
40.954687112814
20
6.22763396034017
30
0
41
1
10
40.2917052440378
20
6.22722713389203
30
0
0
SPLINE
5
DC
100
AcDbEntity
8
1
62
256
6
ByLayer
370
18
48
1
60
0
100
AcDbSpline
70
4
71
3
72
8
73
4
40
0
40
0
40
0
40
0
40
1
40
1
40
1
40
1
41
1
10
5.99851797654009
20
-5.9024295265132
30
-1E-16
41
1
10
5.18819349218199
20
-6.02999085693958
30
-1E-16
41
1
10
4.37515898070745
20
-6.11846454965715
30
0
41
1
10
3.5561052617752
20
-6.16503329485397
30
0
0
SPLINE
5
DD
100
AcDbEntity
8
1
62
256
6
ByLayer
370
18
48
1
60
0
100
AcDbSpline
70
4
71
3
72
8
73
4
40
0
40
0
40
0
40
0
40
1
40
1
40
1
40
1
41
1
10
76.8285661803488
20
5.99052917109114
30
0
41
1
10
76.824353778549
20
5.99336719651154
30
0
41
1
10
76.8201414557357
20
5.99620483642133
30
0
41
1
10
76.8159292116537
20
5.99904209028225
30
0
0
SPLINE
5
DE
100
AcDbEntity
8
1
62
256
6
ByLayer
370
18
48
1
60
0
100
AcDbSpline
70
4
71
3
72
30
73
26
40
0
40
0
40
0
40
0
40
0.316178057764005
40
0.316178057764005
40
0.568114141779012
40
0.568114141779012
40
0.727793562280831
40
0.727793562280831
40
0.828630000792728
40
0.828630000792728
40
0.892412243690364
40
0.892412243690364
40
0.932851379733364
40
0.932851379733364
40
0.958532368884973
40
0.958532368884973
40
0.974680035331214
40
0.974680035331214
40
0.984850195806902
40
0.984850195806902
40
0.99131350417281
40
0.99131350417281
40
0.99779054373431
40
0.99779054373431
40
1
40
1
40
1
40
1
41
1
10
76.4398304471233
20
6.24851897934513
30
0
41
1
10
76.4793771619233
20
6.22267245614913
30
0
41
1
10
76.5189623003544
20
6.19667487656454
30
0
41
1
10
76.5901586141796
20
6.14969618762692
30
0
41
1
10
76.6217560799218
20
6.12876891161403
30
0
41
1
10
76.6734187074753
20
6.09442808759809
30
0
41
1
10
76.6934700098018
20
6.08106920571978
30
0
41
1
10
76.7261989466669
20
6.0592149523923
30
0
41
1
10
76.7388709778161
20
6.05074140235621
30
0
41
1
10
76.7595646424786
20
6.03688453626961
30
0
41
1
10
76.7675873344547
20
6.03150757178963
30
0
41
1
10
76.7806821941038
20
6.02272376080876
30
0
41
1
10
76.7857535120159
20
6.0193202925127
30
0
41
1
10
76.7940471085051
20
6.01375107215034
30
0
41
1
10
76.797272423743
20
6.01158439188077
30
0
41
1
10
76.8025501644734
20
6.00803738689026
30
0
41
1
10
76.804593560981
20
6.00666370987361
30
0
41
1
10
76.8079363234315
20
6.0044159294564
30
0
41
1
10
76.8092317519053
20
6.00354468939796
30
0
41
1
10
76.8113502457981
20
6.00211972939496
30
0
41
1
10
76.8121752513126
20
6.00156475582475
30
0
41
1
10
76.8137828702429
20
6.00048363907987
30
0
41
1
10
76.8145762085117
20
5.99995028897504
30
0
41
1
10
76.8155049434331
20
5.99932667393
30
0
41
1
10
76.8157305364367
20
5.99917527726026
30
0
41
1
10
76.8159292112206
20
5.99904209057718
30
0
0
SPLINE
5
DF
100
AcDbEntity
8
1
62
256
6
ByLayer
370
18
48
1
60
0
100
AcDbSpline
70
4
71
3
72
8
73
4
40
0
40
0
40
0
40
0
40
1
40
1
40
1
40
1
41
1
10
3.55786467876646
20
-5.87348181862734
30
0
41
1
10
3.55726958733808
20
-5.97066447491304
30
0
41
1
10
3.5566831139574
20
-6.06784832530417
30
0
41
1
10
3.5561052617752
20
-6.16503329485397
30
0
0
SPLINE
5
E0
100
AcDbEntity
8
1
62
256
6
ByLayer
370
18
48
1
60
0
100
AcDbSpline
70
4
71
3
72
10
73
6
40
0
40
0
40
0
40
0
40
0.325777632296963
40
0.325777632296963
40
1
40
1
40
1
40
1
41
1
10
76.961038928138
20
1.18074260810113
30
-1E-16
41
1
10
76.9825352462044
20
1.17425749884882
30
-1E-16
41
1
10
77.0048231854371
20
1.166688365097
30
-1E-16
41
1
10
77.0752934564013
20
1.14063930517926
30
-1E-16
41
1
10
77.1256407598273
20
1.11912534882762
30
-1E-16
41
1
10
77.176755103994
20
1.095791027791
30
-1E-16
0
SPLINE
5
E1
100
AcDbEntity
8
1
62
256
6
ByLayer
370
18
48
1
60
0
100
AcDbSpline
70
4
71
3
72
125
73
121
40
0
40
0
40
0
40
0
40
0.0051819121893626
40
0.0214030389882708
40
0.0376241657871788
40
0.0538452925860869
40
0.0700664193849951
40
0.0781769827844491
40
0.0862875461839031
40
0.09034282788363
40
0.094398109583357
40
0.0984533912830841
40
0.102508672982811
40
0.104536313832675
40
0.106563954682538
40
0.108591595532402
40
0.110619236382265
40
0.111633056807197
40
0.112646877232129
40
0.11366069765706
40
0.114167607869526
40
0.114674518081992
40
0.115181428294458
40
0.115434883400691
40
0.115561610953808
40
0.115688338506924
40
0.115815066060041
40
0.115941793613157
40
0.11619524871939
40
0.116448703825623
40
0.116702158931856
40
0.117209069144322
40
0.117715979356788
40
0.118729799781719
40
0.119743620206651
40
0.120757440631583
40
0.122785081481446
40
0.126840363181173
40
0.1308956448809
40
0.134950926580627
40
0.139006208280354
40
0.143061489980081
40
0.151172053379535
40
0.15928261677899
40
0.167393180178444
40
0.175503743577898
40
0.183614306977352
40
0.19983543377626
40
0.216056560575168
40
0.232277687374076
40
0.248498814172984
40
0.264719940971892
40
0.2809410677708
40
0.313383321368617
40
0.345825574966433
40
0.378267828564249
40
0.394488955363157
40
0.410710082162065
40
0.426931208960973
40
0.443152335759881
40
0.459373462558789
40
0.467484025958244
40
0.475594589357698
40
0.483705152757151
40
0.491815716156606
40
0.49992627955606
40
0.503981561255787
40
0.508036842955514
40
0.512092124655241
40
0.516147406354968
40
0.518175047204831
40
0.520202688054695
40
0.522230328904558
40
0.524257969754422
40
0.525271790179354
40
0.526285610604285
40
0.527299431029217
40
0.527806341241683
40
0.528313251454149
40
0.528820161666615
40
0.529073616772848
40
0.529200344325964
40
0.529263708102523
40
0.529327071879081
40
0.529453799432197
40
0.529580526985314
40
0.529833982091547
40
0.53008743719778
40
0.530340892304013
40
0.530847802516479
40
0.531354712728944
40
0.53186162294141
40
0.532368533153876
40
0.533382353578808
40
0.53439617400374
40
0.536423814853603
40
0.54047909655333
40
0.544534378253057
40
0.548589659952784
40
0.552644941652511
40
0.556700223352238
40
0.560755505051965
40
0.564810786751692
40
0.572921350151146
40
0.5810319135506
40
0.589142476950054
40
0.605363603748962
40
0.621584730547871
40
0.637805857346779
40
0.654026984145687
40
0.670248110944595
40
0.686469237743503
40
0.702690364542411
40
0.735132618140227
40
0.767574871738043
40
0.80001712533586
40
0.832459378933676
40
0.897343886129308
40
0.962228393324941
40
1
40
1
40
1
40
1
41
1
10
10.7719307536702
20
4.03864363537417
30
-2E-16
41
1
10
10.7598722732436
20
4.02825494042074
30
-2E-16
41
1
10
10.7091247905527
20
3.98414625189312
30
-2E-16
41
1
10
10.6136789275288
20
3.89754790064839
30
-2E-16
41
1
10
10.4803280209735
20
3.76647713228067
30
2E-16
41
1
10
10.3396865742776
20
3.61344325937961
30
-2E-16
41
1
10
10.2113016316995
20
3.47330834597329
30
-2E-16
41
1
10
10.1037618493106
20
3.35301329456013
30
-2E-16
41
1
10
10.0346839800921
20
3.27428072040962
30
-2E-16
41
1
10
9.97810491005137
20
3.20928596853688
30
-2E-16
41
1
10
9.93507753239433
20
3.15949590482307
30
-2E-16
41
1
10
9.89147311944339
20
3.10864091156418
30
-2E-16
41
1
10
9.85469653409291
20
3.0653739618412
30
-2E-16
41
1
10
9.82505963539967
20
3.03025928698835
30
-2E-16
41
1
10
9.8027225081062
20
3.00366470271544
30
-2E-16
41
1
10
9.78028112854071
20
2.97681101635945
30
-2E-16
41
1
10
9.76149426899789
20
2.95421511328072
30
-2E-16
41
1
10
9.74641798400407
20
2.93600629871176
30
-2E-16
41
1
10
9.73508035486071
20
2.9222845302632
30
-2E-16
41
1
10
9.72563592270072
20
2.91079547259181
30
-2E-16
41
1
10
9.71801887474612
20
2.90157168227208
30
-2E-16
41
1
10
9.71243811999116
20
2.89463706695602
30
-2E-16
41
1
10
9.70734539984528
20
2.88884585815833
30
-2E-16
41
1
10
9.70463687984065
20
2.884782421149
30
-2E-16
41
1
10
9.70174765691223
20
2.88246222303243
30
-2E-16
41
1
10
9.70477541700339
20
2.88015470785885
30
-2E-16
41
1
10
9.70710943230156
20
2.87833795372009
30
-2E-16
41
1
10
9.71062236291331
20
2.87587234950155
30
-2E-16
41
1
10
9.71499144871694
20
2.87291026910035
30
-2E-16
41
1
10
9.72033484382342
20
2.86939190757798
30
-2E-16
41
1
10
9.72748803398471
20
2.86475204094029
30
-2E-16
41
1
10
9.73648704816029
20
2.85900434022778
30
-2E-16
41
1
10
9.75094187721041
20
2.84987237076419
30
-2E-16
41
1
10
9.76908121582346
20
2.83853380484098
30
-2E-16
41
1
10
9.79090480097298
20
2.82498810147436
30
-2E-16
41
1
10
9.82004998635543
20
2.80697587980174
30
-2E-16
41
1
10
9.87113742233555
20
2.77553900311196
30
-2E-16
41
1
10
9.94424950671058
20
2.73075448852259
30
-2E-16
41
1
10
10.0320883622615
20
2.67709103703953
30
-2E-16
41
1
10
10.1199918984244
20
2.6234678576345
30
-2E-16
41
1
10
10.2079393663776
20
2.56985926793485
30
-2E-16
41
1
10
10.3252399660198
20
2.49837478164039
30
-2E-16
41
1
10
10.4719133273344
20
2.40897969517471
30
-1E-16
41
1
10
10.6479584508137
20
2.30159389543775
30
-1E-16
41
1
10
10.8240167513132
20
2.19406594044247
30
-1E-16
41
1
10
11.0000797883905
20
2.0863839572763
30
-1E-16
41
1
10
11.2348377027141
20
1.94260757118218
30
1E-16
41
1
10
11.5283120756538
20
1.76250261723308
30
-1E-16
41
1
10
11.8803800747297
20
1.54585308916103
30
-1E-16
41
1
10
12.2323432489262
20
1.32865065572648
30
-1E-16
41
1
10
12.5841855086498
20
1.11087862843951
30
-1E-16
41
1
10
12.9358929839595
20
0.892513857403259
30
-1E-16
41
1
10
13.4046451233532
20
0.60055192183907
30
0
41
1
10
13.9902677916132
20
0.234139566118756
30
0
41
1
10
14.6926000233058
20
-0.207755209224871
30
0
41
1
10
15.2775674010514
20
-0.57778047665542
30
0
41
1
10
15.7454117502594
20
-0.874778941314901
30
1E-16
41
1
10
16.0962480332825
20
-1.0979890246071
30
1E-16
41
1
10
16.4470151296215
20
-1.32168753632814
30
1E-16
41
1
10
16.7977042036639
20
-1.54591549706413
30
1E-16
41
1
10
17.0898198392907
20
-1.73322885960258
30
1E-16
41
1
10
17.3233674902529
20
-1.88333853494802
30
-1E-16
41
1
10
17.4984648232864
20
-1.99605570427107
30
-1E-16
41
1
10
17.6734944333162
20
-2.10890944634215
30
-1E-16
41
1
10
17.848457707183
20
-2.22189902424117
30
-1E-16
41
1
10
17.9941930166355
20
-2.31618929072923
30
-1E-16
41
1
10
18.1107230437982
20
-2.39172885944925
30
-1E-16
41
1
10
18.1980848663461
20
-2.44844857223168
30
-1E-16
41
1
10
18.2853988204423
20
-2.50524924032516
30
-1E-16
41
1
10
18.3581039827606
20
-2.55267233281327
30
-1E-16
41
1
10
18.4162150596841
20
-2.59069464854744
30
-1E-16
41
1
10
18.4597617330504
20
-2.61926889150237
30
-1E-16
41
1
10
18.5032587925519
20
-2.64792054031685
30
-1E-16
41
1
10
18.5394471182721
20
-2.67188980864961
30
-1E-16
41
1
10
18.5683332192015
20
-2.69116407154368
30
-1E-16
41
1
10
18.5899469972331
20
-2.70569121117705
30
-1E-16
41
1
10
18.6078947958032
20
-2.71790330875115
30
-1E-16
41
1
10
18.6221737480045
20
-2.72776437760541
30
-1E-16
41
1
10
18.6328248889039
20
-2.7353177347311
30
-1E-16
41
1
10
18.6415727087403
20
-2.74155617145718
30
-1E-16
41
1
10
18.6475712175698
20
-2.74653716445272
30
-1E-16
41
1
10
18.6503150661577
20
-2.74872602165928
30
-1E-16
41
1
10
18.6516874610839
20
-2.75109153581087
30
-1E-16
41
1
10
18.6489238028935
20
-2.75117683083934
30
-1E-16
41
1
10
18.6465911675203
20
-2.75129639135486
30
-1E-16
41
1
10
18.6422319482851
20
-2.75148036796406
30
-1E-16
41
1
10
18.6369981320639
20
-2.75171269727571
30
-1E-16
41
1
10
18.6306255840347
20
-2.75199022062529
30
-1E-16
41
1
10
18.6221611756632
20
-2.75236034778501
30
-1E-16
41
1
10
18.6115699190538
20
-2.75282236175309
30
-1E-16
41
1
10
18.5988656090405
20
-2.75337600535599
30
-1E-16
41
1
10
18.5861605012165
20
-2.75392880639595
30
-1E-16
41
1
10
18.5692214238912
20
-2.75466477549057
30
-1E-16
41
1
10
18.5480485963851
20
-2.75558266490913
30
-1E-16
41
1
10
18.5141746529224
20
-2.75704687206141
30
-1E-16
41
1
10
18.4549017718049
20
-2.75959763792812
30
-1E-16
41
1
10
18.3702452079195
20
-2.76320843973326
30
-1E-16
41
1
10
18.2686875872948
20
-2.76748833907519
30
-1E-16
41
1
10
18.1671602775552
20
-2.77171514731018
30
-1E-16
41
1
10
18.0656631032405
20
-2.77588884423784
30
-1E-16
41
1
10
17.9641989532908
20
-2.78000928620202
30
-1E-16
41
1
10
17.8627674223519
20
-2.78407646656325
30
-1E-16
41
1
10
17.727568993727
20
-2.78942832144497
30
-1E-16
41
1
10
17.5586526336852
20
-2.79598486135274
30
-1E-16
41
1
10
17.3560835940468
20
-2.80363927195634
30
-1E-16
41
1
10
17.0861655221546
20
-2.8135603105284
30
0
41
1
10
16.7490938536247
20
-2.82542703681099
30
0
41
1
10
16.345128701372
20
-2.8388101588375
30
2E-16
41
1
10
15.9416830136468
20
-2.85133465576825
30
2E-16
41
1
10
15.5387583481143
20
-2.86299871397955
30
2E-16
41
1
10
15.1363454505531
20
-2.87380075310094
30
2E-16
41
1
10
14.7344755692076
20
-2.88373804139252
30
2E-16
41
1
10
14.1994999071936
20
-2.89582969454426
30
2E-16
41
1
10
13.5323189398644
20
-2.9087710550657
30
2E-16
41
1
10
12.734172177737
20
-2.9208119407933
30
2E-16
41
1
10
11.9384827592012
20
-2.92935221663171
30
2E-16
41
1
10
10.8808354781811
20
-2.93605434370767
30
2E-16
41
1
10
9.56486978842869
20
-2.9356155789504
30
2E-16
41
1
10
8.21412216097164
20
-2.92291375957797
30
2E-16
41
1
10
7.39130270666362
20
-2.90915685177987
30
2E-16
41
1
10
7.08918778162268
20
-2.90328378562572
30
2E-16
0
SPLINE
5
E2
100
AcDbEntity
8
1
62
256
6
ByLayer
370
18
48
1
60
0
100
AcDbSpline
70
4
71
3
72
8
73
4
40
0
40
0
40
0
40
0
40
1
40
1
40
1
40
1
41
1
10
76.4183191979368
20
-6.16722763470818
30
-1E-16
41
1
10
76.5254226957612
20
-6.10581038031549
30
0
41
1
10
76.6327777069689
20
-6.04320774481658
30
0
41
1
10
76.7404272380238
20
-5.97945525907144
30
0
0
SPLINE
5
E3
100
AcDbEntity
8
1
62
256
6
ByLayer
370
18
48
1
60
0
100
AcDbSpline
70
4
71
3
72
42
73
38
40
0
40
0
40
0
40
0
40
0.014615602298596
40
0.014615602298596
40
0.0803078954786893
40
0.0803078954786893
40
0.146000188658783
40
0.146000188658783
40
0.211692481838876
40
0.211692481838876
40
0.277384775018969
40
0.277384775018969
40
0.343077068199062
40
0.343077068199062
40
0.408769361379156
40
0.408769361379156
40
0.441615507969202
40
0.441615507969202
40
0.474461654559249
40
0.474461654559249
40
0.507307801149296
40
0.507307801149296
40
0.540153947739342
40
0.540153947739342
40
0.605846240919436
40
0.605846240919436
40
0.67153853409953
40
0.67153853409953
40
0.737230827279624
40
0.737230827279624
40
0.802923120459718
40
0.802923120459718
40
0.868615413639812
40
0.868615413639812
40
0.934307706819906
40
0.934307706819906
40
1
40
1
40
1
40
1
41
1
10
29.4039566126843
20
4.52238749240101
30
-2E-16
41
1
10
29.6332289040374
20
4.60321946514173
30
-1E-16
41
1
10
29.8624967480507
20
4.68163371873027
30
-1E-16
41
1
10
31.1222362629978
20
5.09846464735355
30
1E-16
41
1
10
32.1528623199872
20
5.38792460677362
30
1E-16
41
1
10
34.2134517135466
20
5.84441192789694
30
1E-16
41
1
10
35.2441980247488
20
6.01161235198444
30
1E-16
41
1
10
37.3046714267204
20
6.21294419830102
30
0
41
1
10
38.3353191657644
20
6.24714607904883
30
0
41
1
10
40.3956409593523
20
6.18025872046866
30
0
41
1
10
41.4261499275417
20
6.07918386587309
30
1E-16
41
1
10
43.4867774258607
20
5.74820392978307
30
1E-16
41
1
10
44.5169025610721
20
5.51829527209509
30
1E-16
41
1
10
46.5771697924468
20
4.94453349148856
30
1E-16
41
1
10
47.6074778455469
20
4.60062067613995
30
-3E-16
41
1
10
49.1524931957305
20
4.01600252179938
30
-2E-16
41
1
10
49.6677006229935
20
3.8096152056344
30
-2E-16
41
1
10
50.6964686900974
20
3.3779918927259
30
-2E-16
41
1
10
51.2104865924997
20
3.1525930944083
30
-2E-16
41
1
10
52.2395522648271
20
2.68553047736768
30
-2E-16
41
1
10
52.7548821019829
20
2.44372823993834
30
-1E-16
41
1
10
53.7847681139209
20
1.9485043191365
30
-1E-16
41
1
10
54.2999478078987
20
1.69478272859828
30
-1E-16
41
1
10
55.844682289734
20
0.922141366110168
30
-1E-16
41
1
10
56.8748620181505
20
0.390918140404494
30
0
41
1
10
58.9343997677871
20
-0.668181317870278
30
0
41
1
10
59.9646080454712
20
-1.19628127139134
30
1E-16
41
1
10
62.0241306233843
20
-2.2159107154643
30
1E-16
41
1
10
63.0538970132041
20
-2.70750597415716
30
2E-16
41
1
10
65.1135450235236
20
-3.6217127243772
30
2E-16
41
1
10
66.1436355056943
20
-4.04448393002278
30
2E-16
41
1
10
68.2026549952848
20
-4.79441545755987
30
3E-16
41
1
10
69.2325629045716
20
-5.121571609169
30
-1E-16
41
1
10
71.2915865889537
20
-5.65837860741911
30
-1E-16
41
1
10
72.3215983279472
20
-5.86835894153026
30
-1E-16
41
1
10
74.3803999886232
20
-6.15768521411295
30
-1E-16
41
1
10
75.4102911759393
20
-6.23705136353388
30
0
41
1
10
76.4398304471341
20
-6.24851897935142
30
0
0
SPLINE
5
E4
100
AcDbEntity
8
1
62
256
6
ByLayer
370
18
48
1
60
0
100
AcDbSpline
70
4
71
3
72
8
73
4
40
0
40
0
40
0
40
0
40
1
40
1
40
1
40
1
41
1
10
75.9069270361627
20
-0.149825523920981
30
0
41
1
10
75.9575266871629
20
-0.173522873046892
30
0
41
1
10
76.0078106527052
20
-0.195781196780928
30
0
41
1
10
76.0578414451926
20
-0.216639058212678
30
0
0
SPLINE
5
E5
100
AcDbEntity
8
1
62
256
6
ByLayer
370
18
48
1
60
0
100
AcDbSpline
70
4
71
3
72
30
73
26
40
0
40
0
40
0
40
0
40
0.152530948362481
40
0.152530948362481
40
0.228796422543722
40
0.228796422543722
40
0.305061896724962
40
0.305061896724962
40
0.381327370906203
40
0.381327370906203
40
0.457592845087443
40
0.457592845087443
40
0.533858319268684
40
0.533858319268684
40
0.610123793449924
40
0.610123793449924
40
0.686389267631164
40
0.686389267631164
40
0.762654741812405
40
0.762654741812405
40
0.838920215993646
40
0.838920215993646
40
0.915185690174886
40
0.915185690174886
40
1
40
1
40
1
40
1
41
1
10
3.64765298692035
20
-2.12301943193927
30
1E-16
41
1
10
4.40120985216387
20
-2.48981594374718
30
2E-16
41
1
10
5.15564098248402
20
-2.84009055281055
30
2E-16
41
1
10
6.28932555089017
20
-3.33794973797248
30
2E-16
41
1
10
6.66666509558752
20
-3.49888334549533
30
2E-16
41
1
10
7.4204829386033
20
-3.81037575414649
30
2E-16
41
1
10
7.79679115595459
20
-3.96118525170815
30
2E-16
41
1
10
8.54946622807248
20
-4.2509181283661
30
3E-16
41
1
10
8.92609492316868
20
-4.38948212339938
30
3E-16
41
1
10
9.67986898030958
20
-4.65411515337286
30
3E-16
41
1
10
10.0572545229418
20
-4.78028543689055
30
-2E-16
41
1
10
10.8124723944709
20
-5.01812150520615
30
-1E-16
41
1
10
11.1896177010218
20
-5.12954712917454
30
-1E-16
41
1
10
11.9430807623721
20
-5.33742805894573
30
-1E-16
41
1
10
12.3193511116741
20
-5.43390280654358
30
-1E-16
41
1
10
13.0722013169832
20
-5.61070588642465
30
-1E-16
41
1
10
13.4488329252159
20
-5.69101611525471
30
-1E-16
41
1
10
14.202686338461
20
-5.83527892037424
30
-1E-16
41
1
10
14.5804161154224
20
-5.89932113301219
30
-1E-16
41
1
10
15.3348046729489
20
-6.00975373005068
30
-1E-16
41
1
10
15.7108827316362
20
-6.05607742247327
30
-1E-16
41
1
10
16.461022334176
20
-6.13118177749482
30
-1E-16
41
1
10
16.8350277930558
20
-6.15995439071801
30
0
41
1
10
17.6238963833739
20
-6.20201188165797
30
0
41
1
10
18.0386017238386
20
-6.21323769621765
30
0
41
1
10
18.4530169460737
20
-6.21358453509501
30
0
0
SPLINE
5
E6
100
AcDbEntity
8
1
62
256
6
ByLayer
370
18
48
1
60
0
100
AcDbSpline
70
4
71
3
72
36
73
32
40
0
40
0
40
0
40
0
40
0.0249144243853507
40
0.0249144243853507
40
0.0736687031660823
40
0.0736687031660823
40
0.122422981946814
40
0.122422981946814
40
0.219931539508278
40
0.219931539508278
40
0.26868581828901
40
0.26868581828901
40
0.317440097069743
40
0.317440097069743
40
0.414948654631209
40
0.414948654631209
40
0.463702933411942
40
0.463702933411942
40
0.512457212192675
40
0.512457212192675
40
0.60996576975414
40
0.60996576975414
40
0.707474327315606
40
0.707474327315606
40
0.804982884877072
40
0.804982884877072
40
0.853737163657804
40
0.853737163657804
40
0.902491442438536
40
0.902491442438536
40
1
40
1
40
1
40
1
41
1
10
52.7416047883645
20
5.92807019423844
30
1E-16
41
1
10
52.933822805156
20
5.95881319338292
30
1E-16
41
1
10
53.1260750489027
20
5.9873157219744
30
1E-16
41
1
10
53.6948301225015
20
6.06484548246559
30
1E-16
41
1
10
54.071478415718
20
6.10753451272774
30
1E-16
41
1
10
54.8254181157016
20
6.17537074054698
30
0
41
1
10
55.2028801261678
20
6.20034382797076
30
0
41
1
10
56.3330348841729
20
6.24809906193832
30
0
41
1
10
57.0840382343417
20
6.24387563280771
30
0
41
1
10
58.213368870699
20
6.18380596018986
30
0
41
1
10
58.5899750447029
20
6.15481229183069
30
1E-16
41
1
10
59.3443019976877
20
6.07891694041527
30
1E-16
41
1
10
59.7217148628439
20
6.03212010539389
30
1E-16
41
1
10
60.8515021848123
20
5.86602588694998
30
1E-16
41
1
10
61.6018880431947
20
5.71999596683679
30
1E-16
41
1
10
62.7311174351522
20
5.45386282041088
30
1E-16
41
1
10
63.1079777616731
20
5.35724627551775
30
1E-16
41
1
10
63.862876753365
20
5.14841531903974
30
1E-16
41
1
10
64.240090082738
20
5.03641349433121
30
1E-16
41
1
10
65.3693943648616
20
4.67895214028152
30
-3E-16
41
1
10
66.1199104061392
20
4.41138440444325
30
-3E-16
41
1
10
67.6253872303715
20
3.83006621448604
30
-2E-16
41
1
10
68.3808754988074
20
3.51457243359934
30
-2E-16
41
1
10
69.8865095189477
20
2.8484767614427
30
-2E-16
41
1
10
70.6376089849854
20
2.49685474964628
30
-2E-16
41
1
10
71.7667884631595
20
1.95050925320456
30
-1E-16
41
1
10
72.1436786363661
20
1.76480665093635
30
-1E-16
41
1
10
72.8978972479385
20
1.38887731055928
30
-1E-16
41
1
10
73.2745119476958
20
1.19921767866583
30
-1E-16
41
1
10
74.4033859620902
20
0.626167427023859
30
0
41
1
10
75.1545650454259
20
0.238489454276532
30
0
41
1
10
75.906927036162
20
-0.149825523920981
30
0
0
SPLINE
5
E7
100
AcDbEntity
8
1
62
256
6
ByLayer
370
18
48
1
60
0
100
AcDbSpline
70
4
71
3
72
32
73
28
40
0
40
0
40
0
40
0
40
0.125000000000006
40
0.125000000000006
40
0.187500000000005
40
0.187500000000005
40
0.250000000000005
40
0.250000000000005
40
0.312500000000004
40
0.312500000000004
40
0.375000000000004
40
0.375000000000004
40
0.437500000000004
40
0.437500000000004
40
0.500000000000003
40
0.500000000000003
40
0.562500000000003
40
0.562500000000003
40
0.625000000000002
40
0.625000000000002
40
0.687500000000002
40
0.687500000000002
40
0.750000000000002
40
0.750000000000002
40
0.875000000000001
40
0.875000000000001
40
1
40
1
40
1
40
1
41
1
10
78.9128433371506
20
0.0752395741099008
30
0
41
1
10
78.8825893511976
20
-0.0245120470658264
30
0
41
1
10
78.8478062041141
20
-0.12198312533323
30
0
41
1
10
78.7885819681943
20
-0.264523041917812
30
0
41
1
10
78.7674677729768
20
-0.311788226328957
30
0
41
1
10
78.7238341701245
20
-0.402543363306108
30
0
41
1
10
78.7013040691068
20
-0.446128996978302
30
0
41
1
10
78.6548502505269
20
-0.529605070029533
30
0
41
1
10
78.6309274897254
20
-0.569497935435038
30
0
41
1
10
78.5816168465073
20
-0.645261278610974
30
0
41
1
10
78.5562870031216
20
-0.680959966022016
30
0
41
1
10
78.506203200357
20
-0.745199153209995
30
0
41
1
10
78.4811958529791
20
-0.774145454151864
30
0
41
1
10
78.4312169844984
20
-0.825559806415015
30
1E-16
41
1
10
78.4060176965918
20
-0.848168704663465
30
1E-16
41
1
10
78.3572393425426
20
-0.88524161661627
30
1E-16
41
1
10
78.3335430191406
20
-0.899890457739758
30
1E-16
41
1
10
78.2873543269938
20
-0.921717366766416
30
-1E-16
41
1
10
78.2646938184756
20
-0.928897483593175
30
-1E-16
41
1
10
78.2215035536526
20
-0.935614638381878
30
1E-16
41
1
10
78.2009274718667
20
-0.935239860114052
30
1E-16
41
1
10
78.1614893973643
20
-0.927605885625269
30
1E-16
41
1
10
78.14251574685
20
-0.920267092064449
30
1E-16
41
1
10
78.0887152891063
20
-0.888872618698002
30
1E-16
41
1
10
78.0571307886428
20
-0.855928547207668
30
1E-16
41
1
10
77.9999525893677
20
-0.770278175570354
30
0
41
1
10
77.974445250732
20
-0.71736349189635
30
0
41
1
10
77.9518906199651
20
-0.657156479187734
30
0
0
SPLINE
5
E8
100
AcDbEntity
8
1
62
256
6
ByLayer
370
18
48
1
60
0
100
AcDbSpline
70
4
71
3
72
10
73
6
40
0
40
0
40
0
40
0
40
0.5
40
0.5
40
1
40
1
40
1
40
1
41
1
10
78.4567134851016
20
1.91298630278209
30
0
41
1
10
78.2864623898135
20
1.87002600137191
30
0
41
1
10
78.1140377261931
20
1.8335362618505
30
0
41
1
10
77.7697182656907
20
1.76977531347572
30
0
41
1
10
77.5972433520026
20
1.74239692296558
30
0
41
1
10
77.4245561862684
20
1.71805034301235
30
0
0
SPLINE
5
E9
100
AcDbEntity
8
1
62
256
6
ByLayer
370
18
48
1
60
0
100
AcDbSpline
70
4
71
3
72
8
73
4
40
0
40
0
40
0
40
0
40
1
40
1
40
1
40
1
41
1
10
76.7695735077561
20
-5.8944366781528
30
0
41
1
10
76.7598145258465
20
-5.92277643508041
30
0
41
1
10
76.750098805521
20
-5.95111587829524
30
0
41
1
10
76.7404272380238
20
-5.97945525907144
30
0
0
SPLINE
5
EA
100
AcDbEntity
8
1
62
256
6
ByLayer
370
18
48
1
60
0
100
AcDbSpline
70
4
71
3
72
38
73
34
40
0
40
0
40
0
40
0
40
0.0351119706517165
40
0.0351119706517165
40
0.093245087487226
40
0.093245087487226
40
0.151378204322735
40
0.151378204322735
40
0.209511321158245
40
0.209511321158245
40
0.267644437993755
40
0.267644437993755
40
0.325777554829264
40
0.325777554829264
40
0.442043788500283
40
0.442043788500283
40
0.471110346918038
40
0.471110346918038
40
0.500176905335793
40
0.500176905335793
40
0.558310022171301
40
0.558310022171301
40
0.674576255842316
40
0.674576255842316
40
0.790842489513332
40
0.790842489513332
40
0.84897560634884
40
0.84897560634884
40
0.907108723184348
40
0.907108723184348
40
0.965241840019855
40
0.965241840019855
40
1
40
1
40
1
40
1
41
1
10
56.1896871694096
20
5.93092351988281
30
0
41
1
10
56.418808692302
20
5.93454228974173
30
0
41
1
10
56.6474538313368
20
5.93512684109294
30
0
41
1
10
57.2535666073726
20
5.92866954945157
30
0
41
1
10
57.6305548077433
20
5.91523731932458
30
0
41
1
10
58.3830769833935
20
5.87122014428087
30
0
41
1
10
58.7585059244234
20
5.84111424717227
30
1E-16
41
1
10
59.5085617486515
20
5.76431283809353
30
1E-16
41
1
10
59.8832827103165
20
5.71728414612051
30
1E-16
41
1
10
60.6322378941142
20
5.60755635633725
30
1E-16
41
1
10
61.0063525042503
20
5.54518889778669
30
1E-16
41
1
10
61.7547393467424
20
5.40495426409518
30
1E-16
41
1
10
62.1293026884466
20
5.32651910212905
30
1E-16
41
1
10
63.2550859103075
20
5.06724848146871
30
1E-16
41
1
10
64.0081598414465
20
4.86327576281695
30
1E-16
41
1
10
64.9538360992376
20
4.5739120269391
30
2E-16
41
1
10
65.1431779588964
20
4.51432619409783
30
2E-16
41
1
10
65.5223783197121
20
4.39178523872098
30
2E-16
41
1
10
65.7124839675088
20
4.32873825324734
30
-3E-16
41
1
10
66.2818238137538
20
4.13515757789961
30
-3E-16
41
1
10
66.6601247364935
20
4.00010455112104
30
-2E-16
41
1
10
67.7921277411515
20
3.57898830512104
30
-2E-16
41
1
10
68.5429041444681
20
3.27733888064651
30
-2E-16
41
1
10
70.0412756166737
20
2.64140583968114
30
-2E-16
41
1
10
70.7886653429428
20
2.30706609921674
30
-1E-16
41
1
10
71.9113856200132
20
1.78800414960034
30
-1E-16
41
1
10
72.2857172496989
20
1.61197081234099
30
-1E-16
41
1
10
73.0357039126719
20
1.25542914961471
30
-1E-16
41
1
10
73.4113680867356
20
1.07493805215017
30
-1E-16
41
1
10
74.1643362863522
20
0.710537450269101
30
0
41
1
10
74.5416265258633
20
0.526604806855744
30
0
41
1
10
75.1461500564668
20
0.230785985366396
30
0
41
1
10
75.3729017348666
20
0.119587262430542
30
0
41
1
10
75.5998419545046
20
0.0082094084366702
30
0
0
SPLINE
5
EB
100
AcDbEntity
8
1
62
256
6
ByLayer
370
18
48
1
60
0
100
AcDbSpline
70
4
71
3
72
16
73
12
40
0
40
0
40
0
40
0
40
0.229104054317635
40
0.229104054317635
40
0.460681205256645
40
0.460681205256645
40
0.658177507972034
40
0.658177507972034
40
0.830578603984313
40
0.830578603984313
40
1
40
1
40
1
40
1
41
1
10
76.7721620803975
20
-5.88320593698071
30
0
41
1
10
76.77224303558
20
-5.88337428726726
30
0
41
1
10
76.7722674198282
20
-5.88372374292311
30
0
41
1
10
76.7721761866244
20
-5.88480033219622
30
0
41
1
10
76.7720562492322
20
-5.88555286893606
30
0
41
1
10
76.7716970774572
20
-5.88724613605791
30
0
41
1
10
76.7714717496518
20
-5.88817012298696
30
0
41
1
10
76.7709767653935
20
-5.88999829046253
30
0
41
1
10
76.770709988331
20
-5.89091383479084
30
0
41
1
10
76.7701565305719
20
-5.89270059675951
30
0
41
1
10
76.7698638911715
20
-5.89359341443057
30
0
41
1
10
76.769573507756
20
-5.89443667815297
30
0
0
SPLINE
5
EC
100
AcDbEntity
8
1
62
256
6
ByLayer
370
18
48
1
60
0
100
AcDbSpline
70
4
71
3
72
16
73
12
40
0
40
0
40
0
40
0
40
0.171115296019986
40
0.171115296019986
40
0.342230592039973
40
0.342230592039973
40
0.684461184079942
40
0.684461184079942
40
0.855576480099927
40
0.855576480099927
40
1
40
1
40
1
40
1
41
1
10
76.8159292118013
20
5.99904209125017
30
0
41
1
10
76.2969816013671
20
6.00282763243339
30
0
41
1
10
75.7773792218534
20
5.99014009299464
30
0
41
1
10
74.7391663608336
20
5.93183337681165
30
0
41
1
10
74.2203984638876
20
5.88624522785344
30
1E-16
41
1
10
72.662757459608
20
5.70158065158248
30
1E-16
41
1
10
71.6248258063303
20
5.51400054343574
30
1E-16
41
1
10
70.0669626994005
20
5.14432432968982
30
1E-16
41
1
10
69.5475652419455
20
5.00648285564137
30
1E-16
41
1
10
68.5896385306822
20
4.72778725364304
30
2E-16
41
1
10
68.1510181857857
20
4.59073197678606
30
2E-16
41
1
10
67.7130831362076
20
4.44528678725831
30
1E-16
0
SPLINE
5
ED
100
AcDbEntity
8
1
62
256
6
ByLayer
370
18
48
1
60
0
100
AcDbSpline
70
4
71
3
72
67
73
63
40
0
40
0
40
0
40
0
40
0.124999999999964
40
0.124999999999964
40
0.187499999999946
40
0.187499999999946
40
0.249999999999927
40
0.249999999999927
40
0.281249999999918
40
0.281249999999918
40
0.296874999999914
40
0.296874999999914
40
0.300781249999913
40
0.300781249999913
40
0.304687499999913
40
0.304687499999913
40
0.306640624999912
40
0.306640624999912
40
0.308593749999912
40
0.308593749999912
40
0.312499999999912
40
0.312499999999912
40
0.37499999999992
40
0.37499999999992
40
0.406249999999925
40
0.406249999999925
40
0.437499999999929
40
0.437499999999929
40
0.468749999999933
40
0.468749999999933
40
0.499999999999938
40
0.499999999999938
40
0.531249999999942
40
0.531249999999942
40
0.562499999999946
40
0.562499999999946
40
0.578124999999948
40
0.578124999999948
40
0.59374999999995
40
0.609374999999952
40
0.609374999999952
40
0.624999999999954
40
0.624999999999954
40
0.656249999999958
40
0.656249999999958
40
0.67187499999996
40
0.67187499999996
40
0.687499999999962
40
0.687499999999962
40
0.718749999999966
40
0.718749999999966
40
0.74999999999997
40
0.74999999999997
40
0.812499999999978
40
0.812499999999978
40
0.843749999999982
40
0.843749999999982
40
0.874999999999986
40
0.874999999999986
40
0.937499999999993
40
0.937499999999993
40
1
40
1
40
1
40
1
41
1
10
10.7719336523025
20
4.03864721716153
30
-2E-16
41
1
10
10.070597469988
20
4.31139205452004
30
-3E-16
41
1
10
9.35973789350717
20
4.54580088361075
30
-3E-16
41
1
10
8.26989019675526
20
4.84002462040499
30
1E-16
41
1
10
7.90316777119568
20
4.92847918321857
30
1E-16
41
1
10
7.16377114090608
20
5.08709631024632
30
1E-16
41
1
10
6.7908233081975
20
5.15734031724378
30
1E-16
41
1
10
6.22603462328834
20
5.25045992082102
30
1E-16
41
1
10
6.03681866335606
20
5.27946925336732
30
1E-16
41
1
10
5.75188610824802
20
5.32006392743079
30
1E-16
41
1
10
5.65672335545102
20
5.33310937428249
30
1E-16
41
1
10
5.53755094567751
20
5.34882644120285
30
1E-16
41
1
10
5.51381606312694
20
5.35221906498799
30
1E-16
41
1
10
5.4658459864379
20
5.35772917055581
30
1E-16
41
1
10
5.44057436143635
20
5.35844663297382
30
1E-16
41
1
10
5.40422076705744
20
5.35454865815686
30
1E-16
41
1
10
5.39242239337688
20
5.35226031840187
30
1E-16
41
1
10
5.37086274439039
20
5.34584612778687
30
1E-16
41
1
10
5.36038155751748
20
5.34237902885221
30
1E-16
41
1
10
5.32857196455134
20
5.33225933510136
30
1E-16
41
1
10
5.30739462521854
20
5.3254530428076
30
1E-16
41
1
10
4.94788295345168
20
5.20870837435481
30
1E-16
41
1
10
4.61722628797034
20
5.08349310695098
30
1E-16
41
1
10
4.13982592658476
20
4.86494792026747
30
1E-16
41
1
10
3.98369753734605
20
4.78690277565633
30
2E-16
41
1
10
3.67863530344985
20
4.61811200535755
30
-3E-16
41
1
10
3.53056196421554
20
4.52780923163616
30
-3E-16
41
1
10
3.24672783367092
20
4.33408806235329
30
-3E-16
41
1
10
3.11069591330778
20
4.2305488605235
30
-3E-16
41
1
10
2.85301850628949
20
4.00690099308281
30
-2E-16
41
1
10
2.73133876823948
20
3.88683325785479
30
-2E-16
41
1
10
2.50647591401744
20
3.62512405449144
30
-2E-16
41
1
10
2.40261816523739
20
3.48203944938615
30
-2E-16
41
1
10
2.22690678858473
20
3.17839166456324
30
-2E-16
41
1
10
2.15413827967743
20
3.01720582215745
30
-2E-16
41
1
10
2.07307897179785
20
2.75785671092007
30
-2E-16
41
1
10
2.05107134758774
20
2.66920658652754
30
-2E-16
41
1
10
2.01806599945644
20
2.49006380619147
30
-2E-16
41
1
10
1.99581309147513
20
2.3082886376983
30
-1E-16
41
1
10
1.99555305669298
20
2.12111446668291
30
-1E-16
41
1
10
2.00665164034297
20
1.93114889136322
30
-1E-16
41
1
10
2.01797494607158
20
1.83487805627988
30
-1E-16
41
1
10
2.06758466558588
20
1.55004082014437
30
-1E-16
41
1
10
2.12150512358724
20
1.36267263041009
30
-1E-16
41
1
10
2.22969968606626
20
1.08495353040573
30
-1E-16
41
1
10
2.27003187506347
20
0.993782645042643
30
-1E-16
41
1
10
2.357383171647
20
0.815699616870745
30
0
41
1
10
2.40452477339997
20
0.728477257604993
30
0
41
1
10
2.55512811422221
20
0.471632642705629
30
0
41
1
10
2.66771032286437
20
0.306802424966975
30
0
41
1
10
2.91272825168366
20
-0.0123990323171768
30
0
41
1
10
3.04335111170823
20
-0.164366050055634
30
0
41
1
10
3.45162090974011
20
-0.599701729928768
30
0
41
1
10
3.74658563750978
20
-0.864323073043522
30
1E-16
41
1
10
4.21247178015082
20
-1.23505053675982
30
1E-16
41
1
10
4.37203059094577
20
-1.35431337528891
30
1E-16
41
1
10
4.69482115685648
20
-1.58286195994336
30
1E-16
41
1
10
4.85843443657834
20
-1.6924662307726
30
1E-16
41
1
10
5.35499519450468
20
-2.00935356280886
30
1E-16
41
1
10
5.69361730019776
20
-2.20481351437383
30
1E-16
41
1
10
6.38282367954261
20
-2.57133312635367
30
2E-16
41
1
10
6.73343708210405
20
-2.74232850707867
30
2E-16
41
1
10
7.08908219062062
20
-2.90328175309136
30
2E-16
0
SPLINE
5
EE
100
AcDbEntity
8
1
62
256
6
ByLayer
370
18
48
1
60
0
100
AcDbSpline
70
4
71
3
72
10
73
6
40
0
40
0
40
0
40
0
40
0.5
40
0.5
40
1
40
1
40
1
40
1
41
1
10
3.50167173339477
20
-2.20621164322461
30
1E-16
41
1
10
3.50167173339477
20
-2.17398542411337
30
1E-16
41
1
10
3.52032813394479
20
-2.14292825262263
30
1E-16
41
1
10
3.57913465782533
20
-2.10936117092706
30
1E-16
41
1
10
3.61703430442555
20
-2.1081156782171
30
1E-16
41
1
10
3.64765298692038
20
-2.12301943193927
30
1E-16
0
SPLINE
5
EF
100
AcDbEntity
8
1
62
256
6
ByLayer
370
18
48
1
60
0
100
AcDbSpline
70
4
71
3
72
8
73
4
40
0
40
0
40
0
40
0
40
1
40
1
40
1
40
1
41
1
10
3.5561052617752
20
6.16503329485397
30
0
41
1
10
3.52324472350162
20
6.16690163877149
30
0
41
1
10
3.50167173339477
20
6.17074160203563
30
0
41
1
10
3.50167173339477
20
6.17435992395286
30
0
0
SPLINE
5
F0
100
AcDbEntity
8
1
62
256
6
ByLayer
370
18
48
1
60
0
100
AcDbSpline
70
4
71
3
72
22
73
18
40
0
40
0
40
0
40
0
40
0.0624999999999986
40
0.0624999999999986
40
0.124999999999997
40
0.124999999999997
40
0.249999999999998
40
0.249999999999998
40
0.375
40
0.375
40
0.437499999999998
40
0.437499999999998
40
0.499999999999997
40
0.499999999999997
40
0.749999999999999
40
0.749999999999999
40
1
40
1
40
1
40
1
41
1
10
78.4567134851012
20
1.91298630278254
30
0
41
1
10
78.4134805206228
20
1.98282254498798
30
0
41
1
10
78.3708973051696
20
2.05473697700867
30
0
41
1
10
78.2869683896028
20
2.20288265179406
30
0
41
1
10
78.2454501747858
20
2.27945689174715
30
0
41
1
10
78.1243007747934
20
2.51264372323561
30
0
41
1
10
78.0479012579628
20
2.67288205756168
30
0
41
1
10
77.902226221746
20
3.00238725976058
30
0
41
1
10
77.8329613903491
20
3.17167050556662
30
0
41
1
10
77.7329905430504
20
3.43194404790299
30
0
41
1
10
77.7002277675296
20
3.52001829686699
30
0
41
1
10
77.6363172968696
20
3.69647099812173
30
0
41
1
10
77.604831228949
20
3.78482195664688
30
0
41
1
10
77.4472602984518
20
4.22652831780556
30
0
41
1
10
77.3230603537071
20
4.58055054429354
30
0
41
1
10
77.0758195490864
20
5.28745784081005
30
0
41
1
10
76.9527751863454
20
5.64034201230166
30
0
41
1
10
76.8285661803487
20
5.99052917109117
30
0
0
SPLINE
5
F1
100
AcDbEntity
8
SK1
62
256
6
ByLayer
370
18
48
1
60
0
100
AcDbSpline
70
4
71
3
72
8
73
4
40
0
40
0
40
0
40
0
40
1
40
1
40
1
40
1
41
1
10
-44.2349364905389
20
-1.40870106899646
30
1E-16
41
1
10
-44.1566626903063
20
-1.41094556119631
30
1E-16
41
1
10
-44.0783490059861
20
-1.41318901086836
30
1E-16
41
1
10
-44
20
-1.41543153726948
30
1E-16
0
SPLINE
5
F2
100
AcDbEntity
8
SK1
62
256
6
ByLayer
370
18
48
1
60
0
100
AcDbSpline
70
4
71
3
72
12
73
8
40
0
40
0
40
0
40
0
40
0.5
40
0.5
40
0.75
40
0.75
40
1
40
1
40
1
40
1
41
1
10
-45.0000000000001
20
-1.94127955731548
30
1E-16
41
1
10
-44.8589376336119
20
-1.84043897312492
30
1E-16
41
1
10
-44.7230043382194
20
-1.72275861752635
30
1E-16
41
1
10
-44.5291776283623
20
-1.51267781129474
30
1E-16
41
1
10
-44.4659484350319
20
-1.43654035819421
30
1E-16
41
1
10
-44.3454672939691
20
-1.2724881627606
30
1E-16
41
1
10
-44.2883170750271
20
-1.18484005317706
30
1E-16
41
1
10
-44.2349364905389
20
-1.09031833829562
30
1E-16
0
SPLINE
5
F3
100
AcDbEntity
8
SK1
62
256
6
ByLayer
370
18
48
1
60
0
100
AcDbSpline
70
4
71
3
72
8
73
4
40
0
40
0
40
0
40
0
40
1
40
1
40
1
40
1
41
1
10
-44
20
-1.08358787002263
30
1E-16
41
1
10
-44.0783485597851
20
-1.08583038365245
30
1E-16
41
1
10
-44.1566622261272
20
-1.08807383278551
30
1E-16
41
1
10
-44.2349364905389
20
-1.09031833829565
30
1E-16
0
SPLINE
5
F4
100
AcDbEntity
8
SK1
62
256
6
ByLayer
370
18
48
1
60
0
100
AcDbSpline
70
4
71
3
72
12
73
8
40
0
40
0
40
0
40
0
40
0.499999999999994
40
0.499999999999994
40
0.749999999999997
40
0.749999999999997
40
1
40
1
40
1
40
1
41
1
10
-44
20
-1.41543153726948
30
1E-16
41
1
10
-43.9765248999532
20
-1.41610344792056
30
1E-16
41
1
10
-43.9537854542544
20
-1.40885789787907
30
1E-16
41
1
10
-43.9256353463776
20
-1.38574399129965
30
1E-16
41
1
10
-43.9170526263112
20
-1.37571015655163
30
1E-16
41
1
10
-43.904247046487
20
-1.35074776685207
30
1E-16
41
1
10
-43.9
20
-1.33536989605375
30
1E-16
41
1
10
-43.9
20
-1.3188886653227
30
1E-16
0
SPLINE
5
F5
100
AcDbEntity
8
SK1
62
256
6
ByLayer
370
18
48
1
60
0
100
AcDbSpline
70
4
71
3
72
12
73
8
40
0
40
0
40
0
40
0
40
0.25
40
0.25
40
0.5
40
0.5
40
1
40
1
40
1
40
1
41
1
10
-44.2349364905389
20
-1.40870106899649
30
1E-16
41
1
10
-44.2882414346081
20
-1.49889460641606
30
1E-16
41
1
10
-44.3455955480674
20
-1.58239195892003
30
1E-16
41
1
10
-44.4667731477622
20
-1.73775833894229
30
1E-16
41
1
10
-44.5295259166669
20
-1.80828802701626
30
1E-16
41
1
10
-44.7229964079586
20
-2.00272695002727
30
1E-16
41
1
10
-44.8588527397963
20
-2.10972445493113
30
1E-16
41
1
10
-45.0000000000001
20
-2.19955865050818
30
1E-16
0
SPLINE
5
F6
100
AcDbEntity
8
SK1
62
256
6
ByLayer
370
18
48
1
60
0
100
AcDbSpline
70
4
71
3
72
12
73
8
40
0
40
0
40
0
40
0
40
0.25
40
0.25
40
0.500000000000001
40
0.500000000000001
40
1
40
1
40
1
40
1
41
1
10
-43.9
20
0.980209189386045
30
-1E-16
41
1
10
-43.9
20
0.996890409131339
30
-1E-16
41
1
10
-43.90420173444
20
1.01253881374396
30
-1E-16
41
1
10
-43.9170234326704
20
1.03860120007042
30
-1E-16
41
1
10
-43.9254955616214
20
1.04913524388874
30
-1E-16
41
1
10
-43.9538427112007
20
1.07435724877854
30
-1E-16
41
1
10
-43.9765305969278
20
1.08291612243193
30
-1E-16
41
1
10
-44
20
1.08358787002265
30
-1E-16
0
SPLINE
5
F7
100
AcDbEntity
8
SK1
62
256
6
ByLayer
370
18
48
1
60
0
100
AcDbSpline
70
4
71
3
72
12
73
8
40
0
40
0
40
0
40
0
40
0.5
40
0.5
40
0.75
40
0.75
40
1
40
1
40
1
40
1
41
1
10
-45.0000000000001
20
1.94127955731548
30
-1E-16
41
1
10
-44.8589376336119
20
1.84043897312492
30
-1E-16
41
1
10
-44.7230043382194
20
1.72275861752635
30
-1E-16
41
1
10
-44.5291776283623
20
1.51267781129474
30
-1E-16
41
1
10
-44.4659484350319
20
1.43654035819421
30
-1E-16
41
1
10
-44.3454672939691
20
1.2724881627606
30
-1E-16
41
1
10
-44.2883170750271
20
1.18484005317706
30
-1E-16
41
1
10
-44.2349364905389
20
1.09031833829562
30
-1E-16
0
SPLINE
5
F8
100
AcDbEntity
8
SK1
62
256
6
ByLayer
370
18
48
1
60
0
100
AcDbSpline
70
4
71
3
72
8
73
4
40
0
40
0
40
0
40
0
40
1
40
1
40
1
40
1
41
1
10
-44
20
1.08358787002263
30
-1E-16
41
1
10
-44.0783485597851
20
1.08583038365245
30
-1E-16
41
1
10
-44.1566622261272
20
1.08807383278551
30
-1E-16
41
1
10
-44.2349364905389
20
1.09031833829565
30
-1E-16
0
SPLINE
5
F9
100
AcDbEntity
8
SK1
62
256
6
ByLayer
370
18
48
1
60
0
100
AcDbSpline
70
4
71
3
72
12
73
8
40
0
40
0
40
0
40
0
40
0.25
40
0.25
40
0.499999999999999
40
0.499999999999999
40
1
40
1
40
1
40
1
41
1
10
-43.9
20
-0.980209189386017
30
1E-16
41
1
10
-43.9
20
-0.996890409131339
30
1E-16
41
1
10
-43.90420173444
20
-1.01253881374396
30
1E-16
41
1
10
-43.9170234326704
20
-1.03860120007039
30
1E-16
41
1
10
-43.9254955616214
20
-1.04913524388874
30
1E-16
41
1
10
-43.9538427112007
20
-1.07435724877854
30
1E-16
41
1
10
-43.9765305969278
20
-1.0829161224319
30
1E-16
41
1
10
-44
20
-1.08358787002265
30
1E-16
0
SPLINE
5
FA
100
AcDbEntity
8
1
62
256
6
ByLayer
370
18
48
1
60
0
100
AcDbSpline
70
4
71
3
72
14
73
10
40
0
40
0
40
0
40
0
40
0.0079651300061725
40
0.0925230740782343
40
0.204803647696966
40
0.353745627267053
40
0.540195711661027
40
0.764227308863902
40
1
40
1
40
1
40
1
41
1
10
76.9772574811769
20
1.17620486724058
30
-1E-16
41
1
10
76.9561930017421
20
1.18234101068885
30
-1E-16
41
1
10
76.7115524161598
20
1.25376263292674
30
-1E-16
41
1
10
76.1717609735258
20
1.41748245941301
30
-1E-16
41
1
10
75.2622541095183
20
1.69965879985799
30
-1E-16
41
1
10
74.0897564457176
20
2.08048325689353
30
-1E-16
41
1
10
72.6324443649865
20
2.57911584345504
30
-2E-16
41
1
10
70.9603838400303
20
3.1868266171229
30
-2E-16
41
1
10
69.7815988492056
20
3.64639973024777
30
-2E-16
41
1
10
69.1798640822012
20
3.88903633011128
30
-2E-16
0
SPLINE
5
FB
100
AcDbEntity
8
1
62
256
6
ByLayer
370
18
48
1
60
0
100
AcDbSpline
70
4
71
3
72
31
73
27
40
0
40
0
40
0
40
0
40
1.55338381721E-05
40
2.86717933293E-05
40
3.96000793437E-05
40
4.93007097471E-05
40
5.9150581203E-05
40
8.19737485188E-05
40
0.0002877734913072
40
0.0004324471404111
40
0.0007081166323519
40
0.0011994374565455
40
0.0021030448270889
40
0.0549396988289147
40
0.121172144508708
40
0.190576667981342
40
0.264561692548183
40
0.34357921032003
40
0.426148528534116
40
0.487995794233461
40
0.53845306515179
40
0.579390644277977
40
0.641771611057636
40
0.736592866999932
40
0.863885371282704
40
1
40
1
40
1
40
1
41
1
10
42.064010206494
20
0.297386449723007
30
0
41
1
10
42.0640399421966
20
0.297379924238015
30
0
41
1
10
42.0640898708634
20
0.297369174512767
30
0
41
1
10
42.0641389029439
20
0.297359513140492
30
0
41
1
10
42.0641491183234
20
0.297359371411574
30
0
41
1
10
42.0641118791446
20
0.297370826588889
30
0
41
1
10
42.0640070775441
20
0.297399496046012
30
0
41
1
10
42.0631801152931
20
0.297614680468996
30
0
41
1
10
42.0617586318258
20
0.297973590198325
30
0
41
1
10
42.0594748885951
20
0.29855771132469
30
0
41
1
10
42.0561073894762
20
0.299416070447762
30
0
41
1
10
42.0499661601443
20
0.300983861435725
30
0
41
1
10
41.8501320528062
20
0.351988164844983
30
0
41
1
10
41.4041721242415
20
0.46736212716354
30
0
41
1
10
40.7061264389248
20
0.653935829379918
30
0
41
1
10
39.9301412377431
20
0.86883475723306
30
-1E-16
41
1
10
39.1092325312364
20
1.10460936935479
30
-1E-16
41
1
10
38.242395930016
20
1.36309547947514
30
-1E-16
41
1
10
37.4230211400871
20
1.61697923414195
30
-1E-16
41
1
10
36.7106357670343
20
1.84516337470572
30
-1E-16
41
1
10
36.1518452490312
20
2.02871110043725
30
-1E-16
41
1
10
35.5922854359699
20
2.21624448635018
30
-1E-16
41
1
10
34.8728732527455
20
2.46276931714047
30
-2E-16
41
1
10
33.8437890598985
20
2.82744401481281
30
-2E-16
41
1
10
32.5546921101317
20
3.30463848538261
30
-2E-16
41
1
10
31.6141423883874
20
3.67357796301283
30
-2E-16
41
1
10
31.1299446975279
20
3.86884256988066
30
-2E-16
0
SPLINE
5
FC
100
AcDbEntity
8
1
62
256
6
ByLayer
370
18
48
1
60
0
100
AcDbSpline
70
4
71
3
72
23
73
19
40
0
40
0
40
0
40
0
40
0.0857571762594249
40
0.15030559246623
40
0.193685920486147
40
0.232550040143426
40
0.283491217042452
40
0.344640319016844
40
0.400844786733044
40
0.483741890360619
40
0.553666463005675
40
0.626651354002899
40
0.726348872729041
40
0.828674780875749
40
0.916065774418691
40
0.95275086387422
40
0.98848128504847
40
1
40
1
40
1
40
1
41
1
10
40.2913196675717
20
-5.91483522263795
30
0
41
1
10
40.6478356361386
20
-5.91506108045289
30
0
41
1
10
41.2726983878286
20
-5.91544966815695
30
0
41
1
10
42.0778705498872
20
-5.91605392380552
30
0
41
1
10
42.6881534341676
20
-5.91635095853431
30
0
41
1
10
43.2417190210178
20
-5.91668313805158
30
0
41
1
10
43.8692902656821
20
-5.91724173868062
30
0
41
1
10
44.5689356734997
20
-5.91755532315736
30
0
41
1
10
45.4014298260171
20
-5.91770544885492
30
0
41
1
10
46.2704033347571
20
-5.91896627854922
30
0
41
1
10
47.2091454941932
20
-5.91858108962756
30
0
41
1
10
48.2177297997321
20
-5.92017248608414
30
0
41
1
10
49.3610151155865
20
-5.91959843549918
30
0
41
1
10
50.5641900772798
20
-5.92164518088669
30
0
41
1
10
51.5054066829032
20
-5.92107193754086
30
0
41
1
10
52.1697667790083
20
-5.92155817502919
30
0
41
1
10
52.5187040308795
20
-5.92230295262917
30
0
41
1
10
52.7151312088222
20
-5.9225010328808
30
0
41
1
10
52.7630174233309
20
-5.92253812434964
30
0
0
SPLINE
5
FD
100
AcDbEntity
8
1
62
256
6
ByLayer
370
18
48
1
60
0
100
AcDbSpline
70
4
71
3
72
22
73
18
40
0
40
0
40
0
40
0
40
0.100506818458135
40
0.170189750067392
40
0.211394354084866
40
0.251601881622764
40
0.32838058623496
40
0.405278259920502
40
0.48519396730593
40
0.554779761351668
40
0.622674263849308
40
0.713199639727621
40
0.816305155428879
40
0.912768857017552
40
0.952546062232381
40
0.988731120735732
40
1
40
1
40
1
40
1
41
1
10
56.5631926374879
20
5.9240960370058
30
0
41
1
10
56.143201959879
20
5.92414687113677
30
0
41
1
10
55.4320229210694
20
5.92398725737144
30
0
41
1
10
54.548659568052
20
5.92287223847839
30
0
41
1
10
53.9172648283669
20
5.92228957988152
30
0
41
1
10
53.2562268059513
20
5.92274984449188
30
0
41
1
10
52.4460262059253
20
5.9222421760013
30
0
41
1
10
51.4698997944441
20
5.9209540621045
30
0
41
1
10
50.5238328122961
20
5.92157881709775
30
0
41
1
10
49.6153838504993
20
5.91966865386678
30
0
41
1
10
48.6625978738211
20
5.92046278380062
30
0
41
1
10
47.5697437119549
20
5.91868767239046
30
0
41
1
10
46.3575040108084
20
5.91907004613353
30
0
41
1
10
45.3573275183722
20
5.91767585975532
30
0
41
1
10
44.636800044528
20
5.91756715142176
30
0
41
1
10
44.2722789864799
20
5.91742023296732
30
0
41
1
10
44.0739812196472
20
5.91731356509231
30
0
41
1
10
44.026891667847
20
5.91728672692241
30
0
0
SPLINE
5
FE
100
AcDbEntity
8
1
62
256
6
ByLayer
370
18
48
1
60
0
100
AcDbSpline
70
4
71
3
72
20
73
16
40
0
40
0
40
0
40
0
40
0.111556269450037
40
0.205545414428982
40
0.277260249893732
40
0.34573122918589
40
0.41352113477645
40
0.494245816247941
40
0.564295069102374
40
0.638797439670188
40
0.714455895090015
40
0.810311931152195
40
0.899447997207484
40
0.964395565373955
40
1
40
1
40
1
40
1
41
1
10
3.60182333473065
20
-5.89067854360468
30
0
41
1
10
4.01214577258358
20
-5.89164115889858
30
0
41
1
10
4.76801621252764
20
-5.89311619520242
30
0
41
1
10
5.78785982833222
20
-5.89415644554643
30
0
41
1
10
6.64799027056355
20
-5.89483835157276
30
0
41
1
10
7.41225127925836
20
-5.89493771978368
30
0
41
1
10
8.20950215355134
20
-5.89611025091671
30
0
41
1
10
9.01411678365795
20
-5.89654921263454
30
0
41
1
10
9.84142115941989
20
-5.89742707340858
30
0
41
1
10
10.651588671846
20
-5.89838103258077
30
0
41
1
10
11.5565585115306
20
-5.8982620200095
30
0
41
1
10
12.5153980943049
20
-5.89956707992573
30
0
41
1
10
13.4348294561019
20
-5.90008123177415
30
0
41
1
10
14.1326129286446
20
-5.90034030986774
30
0
41
1
10
14.5025125992726
20
-5.90078948364609
30
0
41
1
10
14.633451450596
20
-5.90093963290755
30
0
0
SPLINE
5
FF
100
AcDbEntity
8
1
62
256
6
ByLayer
370
18
48
1
60
0
100
AcDbSpline
70
4
71
3
72
22
73
18
40
0
40
0
40
0
40
0
40
0.0927824706522573
40
0.161312014329648
40
0.213228930449034
40
0.273859721981257
40
0.34439882973987
40
0.426512328343357
40
0.492922486158039
40
0.559391273234286
40
0.651033218546666
40
0.748525118666994
40
0.83423424361302
40
0.870569911506072
40
0.901927758229173
40
0.940203105240797
40
1
40
1
40
1
40
1
41
1
10
18.4556575808308
20
5.90335053033434
30
0
41
1
10
18.0707827084912
20
5.90331695932366
30
0
41
1
10
17.4015875296699
20
5.90313801475239
30
0
41
1
10
16.5158604971111
20
5.90169933975923
30
0
41
1
10
15.7651700682466
20
5.90168255833464
30
0
41
1
10
15.0050777375461
20
5.90152247555977
30
0
41
1
10
14.1196109112181
20
5.90015095792197
30
0
41
1
10
13.2101585304172
20
5.90017824938158
30
0
41
1
10
12.3175920453744
20
5.89916826091317
30
0
41
1
10
11.3855321547417
20
5.89823817023964
30
0
41
1
10
10.3243442775762
20
5.89817306422336
30
0
41
1
10
9.18333290411695
20
5.89684015466187
30
0
41
1
10
8.27189802855528
20
5.89638624892012
30
0
41
1
10
7.63503323828348
20
5.89523026836994
30
0
41
1
10
7.19509161290171
20
5.89498320016878
30
0
41
1
10
6.65775550118971
20
5.89479626334781
30
0
41
1
10
6.25068743658412
20
5.89466982563002
30
0
41
1
10
6.00251444947045
20
5.89454973840702
30
0
0
SPLINE
5
100
100
AcDbEntity
8
1
62
256
6
ByLayer
370
18
48
1
60
0
100
AcDbSpline
70
4
71
2
72
6
73
3
40
0
40
0
40
0
40
1
40
1
40
1
41
1
10
59.343367884324
20
0.00060256539021
30
0
41
1
10
59.3434022453008
20
0.000616815500905
30
0
41
1
10
59.3434366061657
20
0.0006300892812305
30
0
0
LINE
5
84
100
AcDbEntity
8
1
62
256
6
ByLayer
370
18
48
1
60
0
100
AcDbLine
10
0
20
7
30
0
11
0
21
0
31
0
39
0
210
0
220
0
230
1
0
LINE
5
85
100
AcDbEntity
8
1
62
256
6
ByLayer
370
18
48
1
60
0
100
AcDbLine
10
0
20
0
30
0
11
0
21
-7
31
0
39
0
210
0
220
0
230
1
0
LINE
5
86
100
AcDbEntity
8
1
62
256
6
ByLayer
370
18
48
1
60
0
100
AcDbLine
10
0.691978
20
6.601455
30
0
11
0.691978
21
0
31
0
39
0
210
0
220
0
230
1
0
LINE
5
87
100
AcDbEntity
8
1
62
256
6
ByLayer
370
18
48
1
60
0
100
AcDbLine
10
0.691978
20
0
30
0
11
0.691978
21
-6.601455
31
0
39
0
210
0
220
0
230
1
0
LINE
5
88
100
AcDbEntity
8
1
62
256
6
ByLayer
370
18
48
1
60
0
100
AcDbLine
10
78.912843
20
0.07524
30
0
11
77.424556
21
1.71805
31
0
39
0
210
0
220
0
230
1
0
LINE
5
89
100
AcDbEntity
8
1
62
256
6
ByLayer
370
18
48
1
60
0
100
AcDbLine
10
1.384456
20
6.202911
30
0
11
1.384456
21
0
31
0
39
0
210
0
220
0
230
1
0
LINE
5
8A
100
AcDbEntity
8
1
62
256
6
ByLayer
370
18
48
1
60
0
100
AcDbLine
10
1.384456
20
0
30
0
11
1.384456
21
-6.202911
31
0
39
0
210
0
220
0
230
1
0
LINE
5
8B
100
AcDbEntity
8
1
62
256
6
ByLayer
370
18
48
1
60
0
100
AcDbLine
10
3.501672
20
-6.204234
30
0
11
3.501672
21
-2.206212
31
0
39
0
210
0
220
0
230
1
0
LINE
5
8C
100
AcDbEntity
8
1
62
256
6
ByLayer
370
18
48
1
60
0
100
AcDbLine
10
27
20
-3.59215
30
0
11
27
21
-3.666068
31
0
39
0
210
0
220
0
230
1
0
LINE
5
8D
100
AcDbEntity
8
1
62
256
6
ByLayer
370
18
48
1
60
0
100
AcDbLine
10
3.501672
20
6.204234
30
0
11
3.501672
21
6.17436
31
0
39
0
210
0
220
0
230
1
0
LINE
5
8E
100
AcDbEntity
8
SK1
62
256
6
ByLayer
370
18
48
1
60
0
100
AcDbLine
10
-45
20
-2.199559
30
0
11
-45
21
-1.94128
31
0
39
0
210
0
220
0
230
1
0
LINE
5
90
100
AcDbEntity
8
SK1
62
256
6
ByLayer
370
18
48
1
60
0
100
AcDbLine
10
-45
20
-5.055
30
0
11
-45
21
-2.199559
31
0
39
0
210
0
220
0
230
1
0
LINE
5
91
100
AcDbEntity
8
SK1
62
256
6
ByLayer
370
18
48
1
60
0
100
AcDbLine
10
-43.055
20
-7
30
0
11
-43.055
21
7
31
0
39
0
210
0
220
0
230
1
0
LINE
5
92
100
AcDbEntity
8
SK1
62
256
6
ByLayer
370
18
48
1
60
0
100
AcDbLine
10
-44
20
-1.415432
30
0
11
-44
21
-1.083588
31
0
39
0
210
0
220
0
230
1
0
LINE
5
93
100
AcDbEntity
8
SK1
62
256
6
ByLayer
370
18
48
1
60
0
100
AcDbLine
10
-43.9
20
-1.318889
30
0
11
-43.9
21
0.980209
31
0
39
0
210
0
220
0
230
1
0
LINE
5
94
100
AcDbEntity
8
SK1
62
256
6
ByLayer
370
18
48
1
60
0
100
AcDbLine
10
0
20
7
30
0
11
0
21
-7
31
0
39
0
210
0
220
0
230
1
0
LINE
5
95
100
AcDbEntity
8
SK1
62
256
6
ByLayer
370
18
48
1
60
0
100
AcDbLine
10
-45
20
5.055
30
0
11
-45
21
1.94128
31
0
39
0
210
0
220
0
230
1
0
LINE
5
96
100
AcDbEntity
8
SK1
62
256
6
ByLayer
370
18
48
1
60
0
100
AcDbLine
10
-44.234936
20
-1.408701
30
0
11
-44.234936
21
-1.090318
31
0
39
0
210
0
220
0
230
1
0
LINE
5
97
100
AcDbEntity
8
SK1
62
256
6
ByLayer
370
18
48
1
60
0
100
AcDbLine
10
-45
20
-5.055
30
0
11
-43.055
21
-7
31
0
39
0
210
0
220
0
230
1
0
LINE
5
98
100
AcDbEntity
8
SK1
62
256
6
ByLayer
370
18
48
1
60
0
100
AcDbLine
10
-43.055
20
7
30
0
11
-45
21
5.055
31
0
39
0
210
0
220
0
230
1
0
LINE
5
99
100
AcDbEntity
8
SK1
62
256
6
ByLayer
370
18
48
1
60
0
100
AcDbLine
10
-43.055
20
-7
30
0
11
0
21
-7
31
0
39
0
210
0
220
0
230
1
0
LINE
5
9A
100
AcDbEntity
8
SK1
62
256
6
ByLayer
370
18
48
1
60
0
100
AcDbLine
10
0
20
7
30
0
11
-43.055
21
7
31
0
39
0
210
0
220
0
230
1
0
LINE
5
9B
100
AcDbEntity
8
1
62
256
6
ByLayer
370
18
48
1
60
0
100
AcDbLine
10
1.384456
20
-6.202911
30
0
11
3.501672
21
-6.204234
31
0
39
0
210
0
220
0
230
1
0
LINE
5
9C
100
AcDbEntity
8
1
62
256
6
ByLayer
370
18
48
1
60
0
100
AcDbLine
10
18.458624
20
-6.213582
30
0
11
20.223697
21
-6.214686
31
0
39
0
210
0
220
0
230
1
0
LINE
5
9D
100
AcDbEntity
8
1
62
256
6
ByLayer
370
18
48
1
60
0
100
AcDbLine
10
38.583311
20
-6.22616
30
0
11
40.291604
21
-6.227228
31
0
39
0
210
0
220
0
230
1
0
LINE
5
9E
100
AcDbEntity
8
1
62
256
6
ByLayer
370
18
48
1
60
0
100
AcDbLine
10
56.563544
20
-6.237398
30
0
11
58.286369
21
-6.238475
31
0
39
0
210
0
220
0
230
1
0
LINE
5
9F
100
AcDbEntity
8
1
62
256
6
ByLayer
370
18
48
1
60
0
100
AcDbLine
10
58.286369
20
6.238475
30
0
11
56.563544
21
6.237398
31
0
39
0
210
0
220
0
230
1
0
LINE
5
A0
100
AcDbEntity
8
1
62
256
6
ByLayer
370
18
48
1
60
0
100
AcDbLine
10
40.291604
20
6.227228
30
0
11
38.583311
21
6.22616
31
0
39
0
210
0
220
0
230
1
0
LINE
5
A1
100
AcDbEntity
8
1
62
256
6
ByLayer
370
18
48
1
60
0
100
AcDbLine
10
20.223697
20
6.214686
30
0
11
18.458624
21
6.213582
31
0
39
0
210
0
220
0
230
1
0
LINE
5
A2
100
AcDbEntity
8
1
62
256
6
ByLayer
370
18
48
1
60
0
100
AcDbLine
10
3.501672
20
6.204234
30
0
11
1.384456
21
6.202911
31
0
39
0
210
0
220
0
230
1
0
LINE
5
A3
100
AcDbEntity
8
SK4
62
256
6
ByLayer
370
18
48
0.05
60
0
100
AcDbLine
10
84
20
0
30
0
11
-50
21
0
31
0
39
0
210
0
220
0
230
1
0
LINE
5
A5
100
AcDbEntity
8
4
62
256
6
ByLayer
370
18
48
0.05
60
0
100
AcDbLine
10
-45
20
0
30
0
11
84
21
0
31
0
39
0
210
0
220
0
230
1
0
LINE
5
A7
100
AcDbEntity
8
80
62
256
6
ByLayer
370
18
48
1
60
0
100
AcDbLine
10
0
20
0
30
0
11
-6
21
0
31
0
39
0
210
0
220
0
230
1
0
LINE
5
A8
100
AcDbEntity
8
81
62
256
6
ByLayer
370
18
48
1
60
0
100
AcDbLine
10
79
20
0
30
0
11
85
21
0
31
0
39
0
210
0
220
0
230
1
0
LINE
5
A9
100
AcDbEntity
8
SK2
62
256
6
ByLayer
370
13
48
1
60
0
100
AcDbLine
10
79.542954
20
1.491763
30
0
11
86.926274
21
21.777392
31
0
39
0
210
0
220
0
230
1
0
LINE
5
AB
100
AcDbEntity
8
SK2
62
256
6
ByLayer
370
13
48
1
60
0
100
AcDbLine
10
79.542954
20
-1.491763
30
0
11
86.926274
21
-21.777392
31
0
39
0
210
0
220
0
230
1
0
LINE
5
AC
100
AcDbEntity
8
1
62
256
6
ByLayer
370
13
48
1
60
0
100
AcDbLine
10
85.840366
20
18.793866
30
0
11
88.936958
21
17.9775
31
0
39
0
210
0
220
0
230
1
0
LINE
5
AD
100
AcDbEntity
8
1
62
256
6
ByLayer
370
13
48
1
60
0
100
AcDbLine
10
85.840366
20
18.793866
30
0
11
88.620156
21
17.203859
31
0
39
0
210
0
220
0
230
1
0
LINE
5
AE
100
AcDbEntity
8
1
62
256
6
ByLayer
370
13
48
1
60
0
100
AcDbLine
10
88.936958
20
17.9775
30
0
11
88.620156
21
17.203859
31
0
39
0
210
0
220
0
230
1
0
LINE
5
AF
100
AcDbEntity
8
1
62
256
6
ByLayer
370
13
48
1
60
0
100
AcDbLine
10
85.840366
20
-18.793866
30
0
11
88.620153
21
-17.20386
31
0
39
0
210
0
220
0
230
1
0
LINE
5
B0
100
AcDbEntity
8
1
62
256
6
ByLayer
370
13
48
1
60
0
100
AcDbLine
10
85.840366
20
-18.793866
30
0
11
88.936961
21
-17.977499
31
0
39
0
210
0
220
0
230
1
0
LINE
5
B1
100
AcDbEntity
8
1
62
256
6
ByLayer
370
13
48
1
60
0
100
AcDbLine
10
88.620153
20
-17.20386
30
0
11
88.936961
21
-17.977499
31
0
39
0
210
0
220
0
230
1
0
MTEXT
5
101
100
AcDbEntity
8
SK2
62
256
6
ByLayer
370
18
48
1
60
0
100
AcDbMText
10
92.717388
20
-2.467451
30
0
210
0
220
0
230
1
1
\W0.7237;140.00
40
3.50012
41
0
44
1.084337
50
0
71
7
72
5
7
iso_b_vert
0
MTEXT
5
104
100
AcDbEntity
8
SK6
62
256
6
ByLayer
370
18
48
1
60
0
100
AcDbMText
10
-20.842035
20
-78.749295
30
0
210
0
220
0
230
1
1
\W0.7348;860.1-1250-056A1-GM X1BM
40
3.175
41
0
44
1.084337
50
0
71
7
72
5
7
iso_b_vert
0
DIMENSION
5
107
100
AcDbEntity
8
SK2
62
256
6
ByLayer
370
18
48
1
60
0
100
AcDbDimension
2
_U0
10
79
20
-30.50012
30
0
11
39.5
21
-30.50012
31
0
70
32
71
2
72
1
41
1
210
0
220
0
230
1
3
Standard
100
AcDbAlignedDimension
13
0
23
-7
33
0
14
79
24
0
34
0
50
0
100
AcDbRotatedDimension
1001
ACAD
1000
DSTYLE
1002
{
1070
   371
1070
    13
1070
   372
1070
    13
1070
     3
1000

1070
   170
1070
     0
1070
   144
1040
1.0
1070
   277
1070
     2
1070
   284
1070
     8
1070
   278
1070
    46
1070
   146
1040
0.999966
1070
   345
1005
16
1070
   347
1005
16
1070
   346
1005
16
1070
   344
1005
108
1070
   343
1005
108
1070
   172
1070
     1
1070
    76
1070
     0
1070
    75
1070
     0
1070
   282
1070
     0
1070
   281
1070
     0
1070
    71
1070
     0
1070
    74
1070
     0
1070
   279
1070
     0
1070
   173
1070
     1
1070
   340
1005
102
1070
   271
1070
     1
1070
   272
1070
     2
1070
    77
1070
     1
1070
    73
1070
     1
1070
   171
1070
     3
1070
   274
1070
     4
1070
   177
1070
   150
1070
   176
1070
     9
1070
   178
1070
    43
1070
    78
1070
     8
1070
    48
1040
-0.1
1070
    41
1040
3.175
1070
   147
1040
1.75006
1070
    42
1040
1.5875
1070
    44
1040
3.175
1070
   140
1040
3.50012
1002
}
1001
ACAD_DSTYLE_DIM_LINETYPE
1070
   380
1005
16
1001
ACAD_DSTYLE_DIM_EXT1_LINETYPE
1070
   381
1005
16
1001
ACAD_DSTYLE_DIM_EXT2_LINETYPE
1070
   382
1005
16
0
DIMENSION
5
12D
100
AcDbEntity
8
2
62
256
6
ByLayer
370
18
48
1
60
0
100
AcDbDimension
2
_U1
10
85.75006
20
6.25
30
0
11
85.75006
21
23.239948
31
0
70
32
71
1
72
1
41
1
210
0
220
0
230
1
3
Standard
100
AcDbAlignedDimension
13
76.7252
23
-6.25
33
0
14
76.7252
24
6.25
34
0
50
90
100
AcDbRotatedDimension
1001
ACAD
1000
DSTYLE
1002
{
1070
   371
1070
    13
1070
   372
1070
    13
1070
     3
1000

1070
   170
1070
     0
1070
   144
1040
1.0
1070
   277
1070
     2
1070
   284
1070
     8
1070
   278
1070
    46
1070
   146
1040
0.999966
1070
   345
1005
16
1070
   347
1005
16
1070
   346
1005
16
1070
   344
1005
108
1070
   343
1005
108
1070
   172
1070
     1
1070
    76
1070
     0
1070
    75
1070
     0
1070
   282
1070
     0
1070
   281
1070
     0
1070
    71
1070
     0
1070
    74
1070
     0
1070
   279
1070
     0
1070
   173
1070
     1
1070
   340
1005
102
1070
   271
1070
     1
1070
   272
1070
     2
1070
    77
1070
     1
1070
    73
1070
     0
1070
   171
1070
     3
1070
   274
1070
     4
1070
   177
1070
   150
1070
   176
1070
     9
1070
   178
1070
    43
1070
    78
1070
     8
1070
    48
1040
-0.1
1070
    41
1040
3.175
1070
   147
1040
1.75006
1070
    42
1040
1.5875
1070
    44
1040
3.175
1070
   140
1040
3.50012
1002
}
1001
ACAD_DSTYLE_DIM_LINETYPE
1070
   380
1005
16
1001
ACAD_DSTYLE_DIM_EXT1_LINETYPE
1070
   381
1005
16
1001
ACAD_DSTYLE_DIM_EXT2_LINETYPE
1070
   382
1005
16
0
DIMENSION
5
14C
100
AcDbEntity
8
SK2
62
256
6
ByLayer
370
18
48
1
60
0
100
AcDbDimension
2
_U2
10
-48.24994
20
-7
30
0
11
-48.24994
21
22.161943
31
0
70
32
71
1
72
1
41
1
210
0
220
0
230
1
3
Standard
100
AcDbAlignedDimension
13
-45
23
7
33
0
14
-45
24
-7
34
0
50
90
100
AcDbRotatedDimension
1001
ACAD
1000
DSTYLE
1002
{
1070
   371
1070
    13
1070
   372
1070
    13
1070
     3
1000

1070
   170
1070
     0
1070
   144
1040
1.0
1070
   277
1070
     2
1070
   284
1070
     8
1070
   278
1070
    46
1070
   146
1040
0.999966
1070
   345
1005
16
1070
   347
1005
16
1070
   346
1005
16
1070
   344
1005
108
1070
   343
1005
108
1070
   172
1070
     1
1070
    76
1070
     0
1070
    75
1070
     0
1070
   282
1070
     0
1070
   281
1070
     0
1070
    71
1070
     0
1070
    74
1070
     0
1070
   279
1070
     0
1070
   173
1070
     1
1070
   340
1005
102
1070
   271
1070
     1
1070
   272
1070
     2
1070
    77
1070
     1
1070
    73
1070
     0
1070
   171
1070
     3
1070
   274
1070
     4
1070
   177
1070
   150
1070
   176
1070
     9
1070
   178
1070
    43
1070
    78
1070
     8
1070
    48
1040
-0.1
1070
    41
1040
3.175
1070
   147
1040
1.75006
1070
    42
1040
1.5875
1070
    44
1040
3.175
1070
   140
1040
3.50012
1002
}
1001
ACAD_DSTYLE_DIM_LINETYPE
1070
   380
1005
16
1001
ACAD_DSTYLE_DIM_EXT1_LINETYPE
1070
   381
1005
16
1001
ACAD_DSTYLE_DIM_EXT2_LINETYPE
1070
   382
1005
16
0
DIMENSION
5
16A
100
AcDbEntity
8
SK2
62
256
6
ByLayer
370
18
48
1
60
0
100
AcDbDimension
2
_U3
10
0
20
-30.50012
30
0
11
-22.5
21
-30.50012
31
0
70
32
71
1
72
1
41
1
210
0
220
0
230
1
3
Standard
100
AcDbAlignedDimension
13
-45
23
-7
33
0
14
0
24
-7
34
0
50
0
100
AcDbRotatedDimension
1001
ACAD
1000
DSTYLE
1002
{
1070
   371
1070
    13
1070
   372
1070
    13
1070
     3
1000

1070
   170
1070
     0
1070
   144
1040
1.0
1070
   277
1070
     2
1070
   284
1070
     8
1070
   278
1070
    46
1070
   146
1040
0.999966
1070
   345
1005
16
1070
   347
1005
16
1070
   346
1005
16
1070
   344
1005
108
1070
   343
1005
108
1070
   172
1070
     1
1070
    76
1070
     0
1070
    75
1070
     0
1070
   282
1070
     0
1070
   281
1070
     0
1070
    71
1070
     0
1070
    74
1070
     0
1070
   279
1070
     0
1070
   173
1070
     1
1070
   340
1005
102
1070
   271
1070
     1
1070
   272
1070
     2
1070
    77
1070
     1
1070
    73
1070
     1
1070
   171
1070
     3
1070
   274
1070
     4
1070
   177
1070
   150
1070
   176
1070
     9
1070
   178
1070
    43
1070
    78
1070
     8
1070
    48
1040
-0.1
1070
    41
1040
3.175
1070
   147
1040
1.75006
1070
    42
1040
1.5875
1070
    44
1040
3.175
1070
   140
1040
3.50012
1002
}
1001
ACAD_DSTYLE_DIM_LINETYPE
1070
   380
1005
16
1001
ACAD_DSTYLE_DIM_EXT1_LINETYPE
1070
   381
1005
16
1001
ACAD_DSTYLE_DIM_EXT2_LINETYPE
1070
   382
1005
16
0
DIMENSION
5
186
100
AcDbEntity
8
SK2
62
256
6
ByLayer
370
18
48
1
60
0
100
AcDbDimension
2
_U4
10
79
20
-21.74982
30
0
11
40.5
21
-21.74982
31
0
70
32
71
1
72
1
41
1
210
0
220
0
230
1
3
Standard
100
AcDbAlignedDimension
13
2
23
6.75
33
0
14
79
24
0
34
0
50
0
100
AcDbRotatedDimension
1001
ACAD
1000
DSTYLE
1002
{
1070
   371
1070
    13
1070
   372
1070
    13
1070
     3
1000

1070
   170
1070
     0
1070
   144
1040
1.0
1070
   277
1070
     2
1070
   284
1070
     8
1070
   278
1070
    46
1070
   146
1040
0.999966
1070
   345
1005
16
1070
   347
1005
16
1070
   346
1005
16
1070
   344
1005
108
1070
   343
1005
108
1070
   172
1070
     1
1070
    76
1070
     0
1070
    75
1070
     0
1070
   282
1070
     0
1070
   281
1070
     0
1070
    71
1070
     0
1070
    74
1070
     0
1070
   279
1070
     0
1070
   173
1070
     1
1070
   340
1005
102
1070
   271
1070
     1
1070
   272
1070
     2
1070
    77
1070
     1
1070
    73
1070
     1
1070
   171
1070
     3
1070
   274
1070
     4
1070
   177
1070
   150
1070
   176
1070
     9
1070
   178
1070
    43
1070
    78
1070
     8
1070
    48
1040
-0.1
1070
    41
1040
3.175
1070
   147
1040
1.75006
1070
    42
1040
1.5875
1070
    44
1040
3.175
1070
   140
1040
3.50012
1002
}
1001
ACAD_DSTYLE_DIM_LINETYPE
1070
   380
1005
16
1001
ACAD_DSTYLE_DIM_EXT1_LINETYPE
1070
   381
1005
16
1001
ACAD_DSTYLE_DIM_EXT2_LINETYPE
1070
   382
1005
16
0
DIMENSION
5
1A2
100
AcDbEntity
8
SK2
62
256
6
ByLayer
370
18
48
1
60
0
100
AcDbDimension
2
_U5
10
79
20
-13.82
30
0
11
48
21
-13.82
31
0
70
32
71
1
72
1
41
1
210
0
220
0
230
1
3
Standard
100
AcDbAlignedDimension
13
17
23
-6.25
33
0
14
79
24
0
34
0
50
0
100
AcDbRotatedDimension
1001
ACAD
1000
DSTYLE
1002
{
1070
   371
1070
    13
1070
   372
1070
    13
1070
     3
1000

1070
   170
1070
     0
1070
   144
1040
1.0
1070
   277
1070
     2
1070
   284
1070
     8
1070
   278
1070
    46
1070
   146
1040
1.25
1070
   345
1005
16
1070
   347
1005
16
1070
   346
1005
16
1070
   344
1005
108
1070
   343
1005
108
1070
   172
1070
     1
1070
    76
1070
     0
1070
    75
1070
     0
1070
   282
1070
     0
1070
   281
1070
     0
1070
    71
1070
     0
1070
    74
1070
     0
1070
   279
1070
     0
1070
   173
1070
     1
1070
   340
1005
102
1070
   271
1070
     1
1070
   272
1070
     2
1070
    77
1070
     1
1070
    73
1070
     1
1070
   171
1070
     3
1070
   274
1070
     4
1070
   177
1070
   150
1070
   176
1070
     9
1070
   178
1070
    43
1070
    78
1070
     8
1070
    48
1040
-0.1
1070
    41
1040
3.175
1070
   147
1040
0.42
1070
    42
1040
1.5875
1070
    44
1040
0.5
1070
   140
1040
2.8
1002
}
1001
ACAD_DSTYLE_DIM_LINETYPE
1070
   380
1005
16
1001
ACAD_DSTYLE_DIM_EXT1_LINETYPE
1070
   381
1005
16
1001
ACAD_DSTYLE_DIM_EXT2_LINETYPE
1070
   382
1005
16
0
DIMENSION
5
1BE
100
AcDbEntity
8
SK2
62
256
6
ByLayer
370
18
48
1
60
0
100
AcDbDimension
2
_U6
10
79
20
-40.50012
30
0
11
17
21
-40.50012
31
0
70
32
71
1
72
1
41
1
210
0
220
0
230
1
3
Standard
100
AcDbAlignedDimension
13
-45
23
0
33
0
14
79
24
0
34
0
50
0
100
AcDbRotatedDimension
1001
ACAD
1000
DSTYLE
1002
{
1070
   371
1070
    13
1070
   372
1070
    13
1070
     3
1000

1070
   170
1070
     0
1070
   144
1040
1.0
1070
   277
1070
     2
1070
   284
1070
     8
1070
   278
1070
    46
1070
   146
1040
0.999966
1070
   345
1005
16
1070
   347
1005
16
1070
   346
1005
16
1070
   344
1005
108
1070
   343
1005
108
1070
   172
1070
     1
1070
    76
1070
     0
1070
    75
1070
     0
1070
   282
1070
     0
1070
   281
1070
     0
1070
    71
1070
     0
1070
    74
1070
     0
1070
   279
1070
     0
1070
   173
1070
     1
1070
   340
1005
102
1070
   271
1070
     1
1070
   272
1070
     2
1070
    77
1070
     1
1070
    73
1070
     1
1070
   171
1070
     3
1070
   274
1070
     4
1070
   177
1070
   150
1070
   176
1070
     9
1070
   178
1070
    43
1070
    78
1070
     8
1070
    48
1040
-0.1
1070
    41
1040
3.175
1070
   147
1040
1.75006
1070
    42
1040
1.5875
1070
    44
1040
3.175
1070
   140
1040
3.50012
1002
}
1001
ACAD_DSTYLE_DIM_LINETYPE
1070
   380
1005
16
1001
ACAD_DSTYLE_DIM_EXT1_LINETYPE
1070
   381
1005
16
1001
ACAD_DSTYLE_DIM_EXT2_LINETYPE
1070
   382
1005
16
0
ENDSEC
0
SECTION
2
OBJECTS
0
DICTIONARY
5
24a
330
0
100
AcDbDictionary
280
0
281
1
3
ACAD_GROUP
350
24b
3
ACAD_MLINESTYLE
350
24c
0
DICTIONARY
5
24b
330
0
100
AcDbDictionary
280
0
281
1
0
DICTIONARY
5
24c
330
0
100
AcDbDictionary
280
0
281
1
3
Standard
350
18
0
MLINESTYLE
5
18
330
24c
100
AcDbMlineStyle
2
Standard
70
0
3

62
256
51
90
52
90
71
2
49
-0.5
62
256
6
ByLayer
49
0.5
62
256
6
ByLayer
0
RASTERVARIABLES
5
238
330

100
AcDbRasterVariables
90
0
70
1
71
1
72
1
0
ENDSEC
0
EOF
