0
SECTION
2
HEADER
9
$ACADVER
1
AC1015
9
$DWGCODEPAGE
3
ANSI_1252
9
$HANDSEED
5
25e
9
$ANGBASE
50
0
9
$ANGDIR
70
0
9
$ATTMODE
70
1
9
$AUNITS
70
0
9
$AUPREC
70
0
9
$CECOLOR
62
256
9
$CELTSCALE
40
1
9
$CELTYPE
6
ByLayer
9
$CELWEIGHT
370
18
9
$CLAYER
8
0
9
$CMLJUST
70
0
9
$CMLSCALE
40
1
9
$CMLSTYLE
2
Standard
9
$DIMSTYLE
2
Standard
9
$TEXTSIZE
40
0.2
9
$TEXTSTYLE
7
Standard
9
$LUNITS
70
2
9
$LUPREC
70
4
9
$EXTNAMES
290
1
9
$INSUNITS
70
4
9
$LTSCALE
40
1
9
$LWDISPLAY
290
1
9
$PDMODE
70
0
9
$PDSIZE
40
0
9
$PLINEGEN
70
0
0
ENDSEC
0
SECTION
2
CLASSES
0
CLASS
1
RASTERVARIABLES
2
AcDbRasterVariables
3
ISM
90
0
280
0
281
0
0
ENDSEC
0
SECTION
2
TABLES
0
TABLE
2
VPORT
5
254
100
AcDbSymbolTable
0
VPORT
5
1
100
AcDbSymbolTableRecord
100
AcDbViewportTableRecord
2
*Active
70
0
10
0
20
0
11
1
21
1
12
-1
22
1
13
0
23
0
14
0.5
24
0.5
15
10
25
10
16
0
26
0
36
1
17
0
27
0
37
0
0
ENDTAB
0
TABLE
2
LTYPE
5
255
100
AcDbSymbolTable
0
LTYPE
5
14
100
AcDbSymbolTableRecord
100
AcDbLinetypeTableRecord
70
0
2
ByBlock
3

72
65
73
0
40
0
0
LTYPE
5
15
100
AcDbSymbolTableRecord
100
AcDbLinetypeTableRecord
70
0
2
ByLayer
3

72
65
73
0
40
0
0
LTYPE
5
16
100
AcDbSymbolTableRecord
100
AcDbLinetypeTableRecord
70
0
2
Continuous
3
Solid line
72
65
73
0
40
0
0
LTYPE
5
6E
100
AcDbSymbolTableRecord
100
AcDbLinetypeTableRecord
70
0
2
CENTER
3
____ _ ____ _ ____ _ ____
72
65
73
4
40
47.5
49
22
74
0
49
-8.5
74
0
49
8.5
74
0
49
-8.5
74
0
0
LTYPE
5
6F
100
AcDbSymbolTableRecord
100
AcDbLinetypeTableRecord
70
0
2
DASHED
3
__ __ __ __ __ __ __ __ __
72
65
73
2
40
25.72
49
12.86
74
0
49
-12.86
74
0
0
ENDTAB
0
TABLE
2
LAYER
5
256
100
AcDbSymbolTable
0
LAYER
5
10
100
AcDbSymbolTableRecord
100
AcDbLayerTableRecord
2
0
70
0
62
7
6
Continuous
290
1
370
-3
390
0
0
LAYER
5
71
100
AcDbSymbolTableRecord
100
AcDbLayerTableRecord
2
80
70
0
62
-6
6
Continuous
290
1
370
-3
390
0
0
LAYER
5
73
100
AcDbSymbolTableRecord
100
AcDbLayerTableRecord
2
81
70
0
62
-3
6
Continuous
290
1
370
-3
390
0
0
LAYER
5
75
100
AcDbSymbolTableRecord
100
AcDbLayerTableRecord
2
1
70
0
62
4
6
Continuous
290
1
370
-3
390
0
0
LAYER
5
A5
100
AcDbSymbolTableRecord
100
AcDbLayerTableRecord
2
4
70
0
62
-2
6
CENTER
290
1
370
-3
390
0
0
LAYER
5
118
100
AcDbSymbolTableRecord
100
AcDbLayerTableRecord
2
Defpoints
70
0
62
7
6
Continuous
290
0
370
-3
390
0
0
LAYER
5
145
100
AcDbSymbolTableRecord
100
AcDbLayerTableRecord
2
2
70
0
62
7
6
Continuous
290
1
370
-3
390
0
0
LAYER
5
240
100
AcDbSymbolTableRecord
100
AcDbLayerTableRecord
2
SK1
70
0
62
4
6
Continuous
290
1
370
-3
390
0
0
LAYER
5
241
100
AcDbSymbolTableRecord
100
AcDbLayerTableRecord
2
SK4
70
0
62
2
6
CENTER
290
1
370
-3
390
0
0
LAYER
5
242
100
AcDbSymbolTableRecord
100
AcDbLayerTableRecord
2
SK2
70
0
62
7
6
Continuous
290
1
370
-3
390
0
0
LAYER
5
243
100
AcDbSymbolTableRecord
100
AcDbLayerTableRecord
2
SK6
70
0
62
5
6
Continuous
290
1
370
-3
390
0
0
ENDTAB
0
TABLE
2
STYLE
5
257
100
AcDbSymbolTable
0
STYLE
5
11
100
AcDbSymbolTableRecord
100
AcDbTextStyleTableRecord
2
Standard
3
txt
70
0
71
0
40
0
41
1
42
0
50
0
0
STYLE
5
109
100
AcDbSymbolTableRecord
100
AcDbTextStyleTableRecord
2
iso_b_vert
3
simplex.shx
70
0
71
0
40
0
41
1
42
0
50
0
0
STYLE
5
10A
100
AcDbSymbolTableRecord
100
AcDbTextStyleTableRecord
2
DWGDirectTextStyle
3
simplex
70
0
71
0
40
0
41
1
42
0
50
0
0
ENDTAB
0
TABLE
2
DIMSTYLE
5
258
100
AcDbSymbolTable
100
AcDbDimStyleTable
0
DIMSTYLE
105
27
100
AcDbSymbolTableRecord
100
AcDbDimStyleTableRecord
2
Standard
70
0
3
<>
41
0.18
42
0.0625
44
0.18
140
0.18
147
0.09
73
0
74
0
77
1
271
2
275
0
278
52
280
0
340
11
0
ENDTAB
0
TABLE
2
VIEW
5
259
100
AcDbSymbolTable
0
ENDTAB
0
TABLE
2
UCS
5
25a
100
AcDbSymbolTable
0
ENDTAB
0
TABLE
2
APPID
5
25b
100
AcDbSymbolTable
0
APPID
5
12
100
AcDbSymbolTableRecord
100
AcDbRegAppTableRecord
2
ACAD
70
0
0
APPID
5
10D
100
AcDbSymbolTableRecord
100
AcDbRegAppTableRecord
2
ACAD_DSTYLE_DIMBREAK
70
0
0
APPID
5
1FF
100
AcDbSymbolTableRecord
100
AcDbRegAppTableRecord
2
ACAD_DSTYLE_DIM_LINETYPE
70
0
0
APPID
5
200
100
AcDbSymbolTableRecord
100
AcDbRegAppTableRecord
2
ACAD_DSTYLE_DIM_EXT1_LINETYPE
70
0
0
APPID
5
201
100
AcDbSymbolTableRecord
100
AcDbRegAppTableRecord
2
ACAD_DSTYLE_DIM_EXT2_LINETYPE
70
0
0
APPID
5
23C
100
AcDbSymbolTableRecord
100
AcDbRegAppTableRecord
2
ACAD_MLEADERVER
70
0
0
ENDTAB
0
TABLE
2
BLOCK_RECORD
5
25c
100
AcDbSymbolTable
0
BLOCK_RECORD
5
1F
100
AcDbSymbolTableRecord
100
AcDbBlockTableRecord
2
*Model_Space
340
0
70
0
0
BLOCK_RECORD
5
1B
100
AcDbSymbolTableRecord
100
AcDbBlockTableRecord
2
*Paper_Space
340
0
70
0
0
BLOCK_RECORD
5
23
100
AcDbSymbolTableRecord
100
AcDbBlockTableRecord
2
*Paper_Space0
340
0
70
0
0
BLOCK_RECORD
5
10F
100
AcDbSymbolTableRecord
100
AcDbBlockTableRecord
2
_Closed
340
0
70
0
0
BLOCK_RECORD
5
119
100
AcDbSymbolTableRecord
100
AcDbBlockTableRecord
2
*D2
340
0
70
0
0
BLOCK_RECORD
5
125
100
AcDbSymbolTableRecord
100
AcDbBlockTableRecord
2
_U0
340
0
70
0
0
BLOCK_RECORD
5
137
100
AcDbSymbolTableRecord
100
AcDbBlockTableRecord
2
*D4
340
0
70
0
0
BLOCK_RECORD
5
146
100
AcDbSymbolTableRecord
100
AcDbBlockTableRecord
2
_U1
340
0
70
0
0
BLOCK_RECORD
5
156
100
AcDbSymbolTableRecord
100
AcDbBlockTableRecord
2
*D6
340
0
70
0
0
BLOCK_RECORD
5
164
100
AcDbSymbolTableRecord
100
AcDbBlockTableRecord
2
_U2
340
0
70
0
0
BLOCK_RECORD
5
174
100
AcDbSymbolTableRecord
100
AcDbBlockTableRecord
2
*D8
340
0
70
0
0
BLOCK_RECORD
5
180
100
AcDbSymbolTableRecord
100
AcDbBlockTableRecord
2
_U3
340
0
70
0
0
BLOCK_RECORD
5
190
100
AcDbSymbolTableRecord
100
AcDbBlockTableRecord
2
*D10
340
0
70
0
0
BLOCK_RECORD
5
19C
100
AcDbSymbolTableRecord
100
AcDbBlockTableRecord
2
_U4
340
0
70
0
0
BLOCK_RECORD
5
1AC
100
AcDbSymbolTableRecord
100
AcDbBlockTableRecord
2
*D12
340
0
70
0
0
BLOCK_RECORD
5
1B8
100
AcDbSymbolTableRecord
100
AcDbBlockTableRecord
2
_U5
340
0
70
0
0
BLOCK_RECORD
5
1C8
100
AcDbSymbolTableRecord
100
AcDbBlockTableRecord
2
*D14
340
0
70
0
0
BLOCK_RECORD
5
1D4
100
AcDbSymbolTableRecord
100
AcDbBlockTableRecord
2
_U6
340
0
70
0
0
ENDTAB
0
ENDSEC
0
SECTION
2
BLOCKS
0
BLOCK
5
20
100
AcDbEntity
8
0
100
AcDbBlockBegin
2
*Model_Space
70
0
10
0
20
0
30
0
3
*Model_Space
0
ENDBLK
5
21
100
AcDbEntity
8
0
100
AcDbBlockEnd
0
BLOCK
5
1C
100
AcDbEntity
8
0
100
AcDbBlockBegin
2
*Paper_Space
70
0
10
0
20
0
30
0
3
*Paper_Space
0
ENDBLK
5
1D
100
AcDbEntity
8
0
100
AcDbBlockEnd
0
BLOCK
5
24
100
AcDbEntity
8
0
100
AcDbBlockBegin
2
*Paper_Space0
70
0
10
0
20
0
30
0
3
*Paper_Space0
0
ENDBLK
5
25
100
AcDbEntity
8
0
100
AcDbBlockEnd
0
BLOCK
5
110
100
AcDbEntity
8
0
100
AcDbBlockBegin
2
_Closed
70
0
10
0
20
0
30
0
3
_Closed
0
LINE
5
112
100
AcDbEntity
8
0
62
256
6
ByLayer
370
-2
48
1
60
0
100
AcDbLine
10
-1
20
0.166667
30
0
11
0
21
0
31
0
39
0
210
0
220
0
230
1
0
LINE
5
113
100
AcDbEntity
8
0
62
256
6
ByLayer
370
-2
48
1
60
0
100
AcDbLine
10
0
20
0
30
0
11
-1
21
-0.166667
31
0
39
0
210
0
220
0
230
1
0
LINE
5
114
100
AcDbEntity
8
0
62
256
6
ByLayer
370
-2
48
1
60
0
100
AcDbLine
10
-1
20
0.166667
30
0
11
-1
21
-0.166667
31
0
39
0
210
0
220
0
230
1
0
LINE
5
115
100
AcDbEntity
8
0
62
256
6
ByLayer
370
-2
48
1
60
0
100
AcDbLine
10
0
20
0
30
0
11
-1
21
0
31
0
39
0
210
0
220
0
230
1
0
ENDBLK
5
111
100
AcDbEntity
8
0
100
AcDbBlockEnd
0
BLOCK
5
11A
100
AcDbEntity
8
0
100
AcDbBlockBegin
2
*D2
70
1
10
0
20
0
30
0
3
*D2
0
LINE
5
11C
100
AcDbEntity
8
0
62
256
6
ByLayer
370
-2
48
1
60
0
100
AcDbLine
10
0
20
-7.5875
30
0
11
0
21
-32.67512
31
0
39
0
210
0
220
0
230
1
0
LINE
5
11D
100
AcDbEntity
8
0
62
256
6
ByLayer
370
-2
48
1
60
0
100
AcDbLine
10
73
20
-1.5875
30
0
11
73
21
-32.67512
31
0
39
0
210
0
220
0
230
1
0
LINE
5
11E
100
AcDbEntity
8
0
62
256
6
ByLayer
370
-2
48
1
60
0
100
AcDbLine
10
3.175
20
-29.50012
30
0
11
69.825
21
-29.50012
31
0
39
0
210
0
220
0
230
1
0
SOLID
5
11F
100
AcDbEntity
8
0
62
256
6
ByLayer
370
-1
48
1
60
0
100
AcDbTrace
10
3.175
20
-28.970953
30
0
11
3.175
21
-30.029287
31
0
12
0
22
-29.50012
32
0
13
0
23
-29.50012
33
0
39
0
210
0
220
0
230
1
0
SOLID
5
120
100
AcDbEntity
8
0
62
256
6
ByLayer
370
-1
48
1
60
0
100
AcDbTrace
10
69.825
20
-30.029287
30
0
11
69.825
21
-28.970953
31
0
12
73
22
-29.50012
32
0
13
73
23
-29.50012
33
0
39
0
210
0
220
0
230
1
0
MTEXT
5
121
100
AcDbEntity
8
0
62
256
6
ByLayer
370
18
48
1
60
0
100
AcDbMText
10
36.5
20
-22.193619
30
0
210
0
220
0
230
1
1
\A1;73
40
3.50012
41
0
44
1
50
0
71
5
72
5
7
iso_b_vert
0
POINT
5
122
100
AcDbEntity
8
Defpoints
62
0
6
ByLayer
370
-1
48
1
60
0
100
AcDbPoint
10
0
20
-6
30
0
39
0
210
0
220
0
230
1
50
360
0
POINT
5
123
100
AcDbEntity
8
Defpoints
62
0
6
ByLayer
370
-1
48
1
60
0
100
AcDbPoint
10
73
20
0
30
0
39
0
210
0
220
0
230
1
50
360
0
POINT
5
124
100
AcDbEntity
8
Defpoints
62
0
6
ByLayer
370
-1
48
1
60
0
100
AcDbPoint
10
73
20
-29.50012
30
0
39
0
210
0
220
0
230
1
50
360
0
ENDBLK
5
11B
100
AcDbEntity
8
0
100
AcDbBlockEnd
0
BLOCK
5
132
100
AcDbEntity
8
0
100
AcDbBlockBegin
2
_U0
70
0
10
0
20
0
30
0
3
_U0
0
MTEXT
5
126
100
AcDbEntity
8
SK2
62
256
6
ByLayer
370
18
48
1
60
0
100
AcDbMText
10
31.270389
20
-28.467451
30
0
210
0
220
0
230
1
1
\W0.7468;73.00
40
3.50012
41
0
44
1.084337
50
0
71
7
72
5
7
iso_b_vert
0
MTEXT
5
127
100
AcDbEntity
8
SK2
62
256
6
ByLayer
370
18
48
1
60
0
100
AcDbMText
10
27.744329
20
-28.400814
30
0
210
0
220
0
230
1
1
\W0.1790;(
40
3.175
41
0
44
1.084337
50
0
71
7
72
5
7
iso_b_vert
0
MTEXT
5
128
100
AcDbEntity
8
SK2
62
256
6
ByLayer
370
18
48
1
60
0
100
AcDbMText
10
45.258393
20
-28.400814
30
0
210
0
220
0
230
1
1
\W0.1969;)
40
3.175
41
0
44
1.084337
50
0
71
7
72
5
7
iso_b_vert
0
LINE
5
129
100
AcDbEntity
8
SK2
62
256
6
ByLayer
370
13
48
1
60
0
100
AcDbLine
10
0
20
-7.5875
30
0
11
0
21
-32.67512
31
0
39
0
210
0
220
0
230
1
0
LINE
5
12A
100
AcDbEntity
8
SK2
62
256
6
ByLayer
370
13
48
1
60
0
100
AcDbLine
10
73
20
-1.5875
30
0
11
73
21
-32.67512
31
0
39
0
210
0
220
0
230
1
0
LINE
5
12B
100
AcDbEntity
8
SK2
62
256
6
ByLayer
370
13
48
1
60
0
100
AcDbLine
10
0
20
-29.50012
30
0
11
73
21
-29.50012
31
0
39
0
210
0
220
0
230
1
0
LINE
5
12C
100
AcDbEntity
8
SK2
62
256
6
ByLayer
370
13
48
1
60
0
100
AcDbLine
10
0
20
-29.50012
30
0
11
3.174998
21
-29.082123
31
0
39
0
210
0
220
0
230
1
0
LINE
5
12D
100
AcDbEntity
8
SK2
62
256
6
ByLayer
370
13
48
1
60
0
100
AcDbLine
10
0
20
-29.50012
30
0
11
3.175002
21
-29.918117
31
0
39
0
210
0
220
0
230
1
0
LINE
5
12E
100
AcDbEntity
8
SK2
62
256
6
ByLayer
370
13
48
1
60
0
100
AcDbLine
10
3.174998
20
-29.082123
30
0
11
3.175002
21
-29.918117
31
0
39
0
210
0
220
0
230
1
0
LINE
5
12F
100
AcDbEntity
8
SK2
62
256
6
ByLayer
370
13
48
1
60
0
100
AcDbLine
10
73
20
-29.50012
30
0
11
69.825002
21
-29.918117
31
0
39
0
210
0
220
0
230
1
0
LINE
5
130
100
AcDbEntity
8
SK2
62
256
6
ByLayer
370
13
48
1
60
0
100
AcDbLine
10
73
20
-29.50012
30
0
11
69.824998
21
-29.082123
31
0
39
0
210
0
220
0
230
1
0
LINE
5
131
100
AcDbEntity
8
SK2
62
256
6
ByLayer
370
13
48
1
60
0
100
AcDbLine
10
69.825002
20
-29.918117
30
0
11
69.824998
21
-29.082123
31
0
39
0
210
0
220
0
230
1
0
ENDBLK
5
133
100
AcDbEntity
8
0
100
AcDbBlockEnd
0
BLOCK
5
138
100
AcDbEntity
8
0
100
AcDbBlockBegin
2
*D4
70
1
10
0
20
0
30
0
3
*D4
0
LINE
5
13A
100
AcDbEntity
8
0
62
256
6
ByLayer
370
-2
48
1
60
0
100
AcDbLine
10
72.6767
20
-5.25
30
0
11
82.92506
21
-5.25
31
0
39
0
210
0
220
0
230
1
0
LINE
5
13B
100
AcDbEntity
8
0
62
256
6
ByLayer
370
-2
48
1
60
0
100
AcDbLine
10
72.6767
20
5.25
30
0
11
82.92506
21
5.25
31
0
39
0
210
0
220
0
230
1
0
LINE
5
13C
100
AcDbEntity
8
0
62
256
6
ByLayer
370
-2
48
1
60
0
100
AcDbLine
10
79.75006
20
5.25
30
0
11
79.75006
21
32.879896
31
0
39
0
210
0
220
0
230
1
0
LINE
5
13D
100
AcDbEntity
8
0
62
256
6
ByLayer
370
-2
48
1
60
0
100
AcDbLine
10
79.75006
20
-8.425
30
0
11
79.75006
21
-11.6
31
0
39
0
210
0
220
0
230
1
0
LINE
5
13E
100
AcDbEntity
8
0
62
256
6
ByLayer
370
-2
48
1
60
0
100
AcDbLine
10
79.75006
20
8.425
30
0
11
79.75006
21
11.6
31
0
39
0
210
0
220
0
230
1
0
SOLID
5
13F
100
AcDbEntity
8
0
62
256
6
ByLayer
370
-1
48
1
60
0
100
AcDbTrace
10
80.279227
20
-8.425
30
0
11
79.220893
21
-8.425
31
0
12
79.75006
22
-5.25
32
0
13
79.75006
23
-5.25
33
0
39
0
210
0
220
0
230
1
0
SOLID
5
140
100
AcDbEntity
8
0
62
256
6
ByLayer
370
-1
48
1
60
0
100
AcDbTrace
10
79.220893
20
8.425
30
0
11
80.279227
21
8.425
31
0
12
79.75006
22
5.25
32
0
13
79.75006
23
5.25
33
0
39
0
210
0
220
0
230
1
0
MTEXT
5
141
100
AcDbEntity
8
0
62
256
6
ByLayer
370
18
48
1
60
0
100
AcDbMText
10
72.44356
20
22.239948
30
0
210
0
220
0
230
1
1
\A1;10.5
40
3.50012
41
0
44
1
50
90
71
5
72
5
7
iso_b_vert
0
POINT
5
142
100
AcDbEntity
8
Defpoints
62
0
6
ByLayer
370
-1
48
1
60
0
100
AcDbPoint
10
71.0892
20
-5.25
30
0
39
0
210
0
220
0
230
1
50
360
0
POINT
5
143
100
AcDbEntity
8
Defpoints
62
0
6
ByLayer
370
-1
48
1
60
0
100
AcDbPoint
10
71.0892
20
5.25
30
0
39
0
210
0
220
0
230
1
50
360
0
POINT
5
144
100
AcDbEntity
8
Defpoints
62
0
6
ByLayer
370
-1
48
1
60
0
100
AcDbPoint
10
79.75006
20
5.25
30
0
39
0
210
0
220
0
230
1
50
360
0
ENDBLK
5
139
100
AcDbEntity
8
0
100
AcDbBlockEnd
0
BLOCK
5
151
100
AcDbEntity
8
0
100
AcDbBlockBegin
2
_U1
70
0
10
0
20
0
30
0
3
_U1
0
MTEXT
5
147
100
AcDbEntity
8
2
62
256
6
ByLayer
370
18
48
1
60
0
100
AcDbMText
10
79.060403
20
9.407505
30
0
210
0
220
0
230
1
1
\W0.6864;10.50
40
3.50012
41
0
44
1.084337
50
90
71
7
72
5
7
iso_b_vert
0
LINE
5
148
100
AcDbEntity
8
2
62
256
6
ByLayer
370
13
48
1
60
0
100
AcDbLine
10
72.6767
20
-5.25
30
0
11
82.92506
21
-5.25
31
0
39
0
210
0
220
0
230
1
0
LINE
5
149
100
AcDbEntity
8
2
62
256
6
ByLayer
370
13
48
1
60
0
100
AcDbLine
10
72.6767
20
5.25
30
0
11
82.92506
21
5.25
31
0
39
0
210
0
220
0
230
1
0
LINE
5
14A
100
AcDbEntity
8
2
62
256
6
ByLayer
370
13
48
1
60
0
100
AcDbLine
10
79.75006
20
-5.25
30
0
11
79.75006
21
19.205339
31
0
39
0
210
0
220
0
230
1
0
LINE
5
14B
100
AcDbEntity
8
2
62
256
6
ByLayer
370
13
48
1
60
0
100
AcDbLine
10
79.75006
20
-5.25
30
0
11
79.332063
21
-2.075002
31
0
39
0
210
0
220
0
230
1
0
LINE
5
14C
100
AcDbEntity
8
2
62
256
6
ByLayer
370
13
48
1
60
0
100
AcDbLine
10
79.75006
20
-5.25
30
0
11
80.168057
21
-2.074998
31
0
39
0
210
0
220
0
230
1
0
LINE
5
14D
100
AcDbEntity
8
2
62
256
6
ByLayer
370
13
48
1
60
0
100
AcDbLine
10
79.332063
20
-2.075002
30
0
11
80.168057
21
-2.074998
31
0
39
0
210
0
220
0
230
1
0
LINE
5
14E
100
AcDbEntity
8
2
62
256
6
ByLayer
370
13
48
1
60
0
100
AcDbLine
10
79.75006
20
5.25
30
0
11
80.168057
21
2.075002
31
0
39
0
210
0
220
0
230
1
0
LINE
5
14F
100
AcDbEntity
8
2
62
256
6
ByLayer
370
13
48
1
60
0
100
AcDbLine
10
79.75006
20
5.25
30
0
11
79.332063
21
2.074998
31
0
39
0
210
0
220
0
230
1
0
LINE
5
150
100
AcDbEntity
8
2
62
256
6
ByLayer
370
13
48
1
60
0
100
AcDbLine
10
80.168057
20
2.075002
30
0
11
79.332063
21
2.074998
31
0
39
0
210
0
220
0
230
1
0
ENDBLK
5
152
100
AcDbEntity
8
0
100
AcDbBlockEnd
0
BLOCK
5
157
100
AcDbEntity
8
0
100
AcDbBlockBegin
2
*D6
70
1
10
0
20
0
30
0
3
*D6
0
LINE
5
159
100
AcDbEntity
8
0
62
256
6
ByLayer
370
-2
48
1
60
0
100
AcDbLine
10
-46.5875
20
6
30
0
11
-51.42494
21
6
31
0
39
0
210
0
220
0
230
1
0
LINE
5
15A
100
AcDbEntity
8
0
62
256
6
ByLayer
370
-2
48
1
60
0
100
AcDbLine
10
-46.5875
20
-6
30
0
11
-51.42494
21
-6
31
0
39
0
210
0
220
0
230
1
0
LINE
5
15B
100
AcDbEntity
8
0
62
256
6
ByLayer
370
-2
48
1
60
0
100
AcDbLine
10
-48.24994
20
6
30
0
11
-48.24994
21
29.117532
31
0
39
0
210
0
220
0
230
1
0
LINE
5
15C
100
AcDbEntity
8
0
62
256
6
ByLayer
370
-2
48
1
60
0
100
AcDbLine
10
-48.24994
20
9.175
30
0
11
-48.24994
21
12.35
31
0
39
0
210
0
220
0
230
1
0
LINE
5
15D
100
AcDbEntity
8
0
62
256
6
ByLayer
370
-2
48
1
60
0
100
AcDbLine
10
-48.24994
20
-9.175
30
0
11
-48.24994
21
-12.35
31
0
39
0
210
0
220
0
230
1
0
SOLID
5
15E
100
AcDbEntity
8
0
62
256
6
ByLayer
370
-1
48
1
60
0
100
AcDbTrace
10
-48.779107
20
9.175
30
0
11
-47.720773
21
9.175
31
0
12
-48.24994
22
6
32
0
13
-48.24994
23
6
33
0
39
0
210
0
220
0
230
1
0
SOLID
5
15F
100
AcDbEntity
8
0
62
256
6
ByLayer
370
-1
48
1
60
0
100
AcDbTrace
10
-47.720773
20
-9.175
30
0
11
-48.779107
21
-9.175
31
0
12
-48.24994
22
-6
32
0
13
-48.24994
23
-6
33
0
39
0
210
0
220
0
230
1
0
MTEXT
5
160
100
AcDbEntity
8
0
62
256
6
ByLayer
370
18
48
1
60
0
100
AcDbMText
10
-55.556441
20
20.97767
30
0
210
0
220
0
230
1
1
\A1;12
40
3.50012
41
0
44
1
50
90
71
5
72
5
7
iso_b_vert
0
POINT
5
161
100
AcDbEntity
8
Defpoints
62
0
6
ByLayer
370
-1
48
1
60
0
100
AcDbPoint
10
-45
20
6
30
0
39
0
210
0
220
0
230
1
50
360
0
POINT
5
162
100
AcDbEntity
8
Defpoints
62
0
6
ByLayer
370
-1
48
1
60
0
100
AcDbPoint
10
-45
20
-6
30
0
39
0
210
0
220
0
230
1
50
360
0
POINT
5
163
100
AcDbEntity
8
Defpoints
62
0
6
ByLayer
370
-1
48
1
60
0
100
AcDbPoint
10
-48.24994
20
-6
30
0
39
0
210
0
220
0
230
1
50
360
0
ENDBLK
5
158
100
AcDbEntity
8
0
100
AcDbBlockEnd
0
BLOCK
5
16F
100
AcDbEntity
8
0
100
AcDbBlockBegin
2
_U2
70
0
10
0
20
0
30
0
3
_U2
0
MTEXT
5
165
100
AcDbEntity
8
SK2
62
256
6
ByLayer
370
18
48
1
60
0
100
AcDbMText
10
-48.939597
20
16.157505
30
0
210
0
220
0
230
1
1
\W0.6864;12.00
40
3.50012
41
0
44
1.084337
50
90
71
7
72
5
7
iso_b_vert
0
LINE
5
166
100
AcDbEntity
8
SK2
62
256
6
ByLayer
370
13
48
1
60
0
100
AcDbLine
10
-46.5875
20
6
30
0
11
-51.42494
21
6
31
0
39
0
210
0
220
0
230
1
0
LINE
5
167
100
AcDbEntity
8
SK2
62
256
6
ByLayer
370
13
48
1
60
0
100
AcDbLine
10
-46.5875
20
-6
30
0
11
-51.42494
21
-6
31
0
39
0
210
0
220
0
230
1
0
LINE
5
168
100
AcDbEntity
8
SK2
62
256
6
ByLayer
370
13
48
1
60
0
100
AcDbLine
10
-48.24994
20
-6
30
0
11
-48.24994
21
25.955339
31
0
39
0
210
0
220
0
230
1
0
LINE
5
169
100
AcDbEntity
8
SK2
62
256
6
ByLayer
370
13
48
1
60
0
100
AcDbLine
10
-48.24994
20
6
30
0
11
-47.831943
21
2.825002
31
0
39
0
210
0
220
0
230
1
0
LINE
5
16A
100
AcDbEntity
8
SK2
62
256
6
ByLayer
370
13
48
1
60
0
100
AcDbLine
10
-48.24994
20
6
30
0
11
-48.667937
21
2.824998
31
0
39
0
210
0
220
0
230
1
0
LINE
5
16B
100
AcDbEntity
8
SK2
62
256
6
ByLayer
370
13
48
1
60
0
100
AcDbLine
10
-47.831943
20
2.825002
30
0
11
-48.667937
21
2.824998
31
0
39
0
210
0
220
0
230
1
0
LINE
5
16C
100
AcDbEntity
8
SK2
62
256
6
ByLayer
370
13
48
1
60
0
100
AcDbLine
10
-48.24994
20
-6
30
0
11
-48.667937
21
-2.825002
31
0
39
0
210
0
220
0
230
1
0
LINE
5
16D
100
AcDbEntity
8
SK2
62
256
6
ByLayer
370
13
48
1
60
0
100
AcDbLine
10
-48.24994
20
-6
30
0
11
-47.831943
21
-2.824998
31
0
39
0
210
0
220
0
230
1
0
LINE
5
16E
100
AcDbEntity
8
SK2
62
256
6
ByLayer
370
13
48
1
60
0
100
AcDbLine
10
-48.667937
20
-2.825002
30
0
11
-47.831943
21
-2.824998
31
0
39
0
210
0
220
0
230
1
0
ENDBLK
5
170
100
AcDbEntity
8
0
100
AcDbBlockEnd
0
BLOCK
5
175
100
AcDbEntity
8
0
100
AcDbBlockBegin
2
*D8
70
1
10
0
20
0
30
0
3
*D8
0
LINE
5
177
100
AcDbEntity
8
0
62
256
6
ByLayer
370
-2
48
1
60
0
100
AcDbLine
10
-45
20
-7.5875
30
0
11
-45
21
-32.67512
31
0
39
0
210
0
220
0
230
1
0
LINE
5
178
100
AcDbEntity
8
0
62
256
6
ByLayer
370
-2
48
1
60
0
100
AcDbLine
10
0
20
-7.5875
30
0
11
0
21
-32.67512
31
0
39
0
210
0
220
0
230
1
0
LINE
5
179
100
AcDbEntity
8
0
62
256
6
ByLayer
370
-2
48
1
60
0
100
AcDbLine
10
-41.825
20
-29.50012
30
0
11
-3.175
21
-29.50012
31
0
39
0
210
0
220
0
230
1
0
SOLID
5
17A
100
AcDbEntity
8
0
62
256
6
ByLayer
370
-1
48
1
60
0
100
AcDbTrace
10
-41.825
20
-28.970953
30
0
11
-41.825
21
-30.029287
31
0
12
-45
22
-29.50012
32
0
13
-45
23
-29.50012
33
0
39
0
210
0
220
0
230
1
0
SOLID
5
17B
100
AcDbEntity
8
0
62
256
6
ByLayer
370
-1
48
1
60
0
100
AcDbTrace
10
-3.175
20
-30.029287
30
0
11
-3.175
21
-28.970953
31
0
12
0
22
-29.50012
32
0
13
0
23
-29.50012
33
0
39
0
210
0
220
0
230
1
0
MTEXT
5
17C
100
AcDbEntity
8
0
62
256
6
ByLayer
370
18
48
1
60
0
100
AcDbMText
10
-22.5
20
-22.193619
30
0
210
0
220
0
230
1
1
\A1;45
40
3.50012
41
0
44
1
50
0
71
5
72
5
7
iso_b_vert
0
POINT
5
17D
100
AcDbEntity
8
Defpoints
62
0
6
ByLayer
370
-1
48
1
60
0
100
AcDbPoint
10
-45
20
-6
30
0
39
0
210
0
220
0
230
1
50
360
0
POINT
5
17E
100
AcDbEntity
8
Defpoints
62
0
6
ByLayer
370
-1
48
1
60
0
100
AcDbPoint
10
0
20
-6
30
0
39
0
210
0
220
0
230
1
50
360
0
POINT
5
17F
100
AcDbEntity
8
Defpoints
62
0
6
ByLayer
370
-1
48
1
60
0
100
AcDbPoint
10
0
20
-29.50012
30
0
39
0
210
0
220
0
230
1
50
360
0
ENDBLK
5
176
100
AcDbEntity
8
0
100
AcDbBlockEnd
0
BLOCK
5
18B
100
AcDbEntity
8
0
100
AcDbBlockBegin
2
_U3
70
0
10
0
20
0
30
0
3
_U3
0
MTEXT
5
181
100
AcDbEntity
8
SK2
62
256
6
ByLayer
370
18
48
1
60
0
100
AcDbMText
10
-27.913884
20
-28.467451
30
0
210
0
220
0
230
1
1
\W0.7694;45.00
40
3.50012
41
0
44
1.084337
50
0
71
7
72
5
7
iso_b_vert
0
LINE
5
182
100
AcDbEntity
8
SK2
62
256
6
ByLayer
370
13
48
1
60
0
100
AcDbLine
10
-45
20
-7.5875
30
0
11
-45
21
-32.67512
31
0
39
0
210
0
220
0
230
1
0
LINE
5
183
100
AcDbEntity
8
SK2
62
256
6
ByLayer
370
13
48
1
60
0
100
AcDbLine
10
0
20
-7.5875
30
0
11
0
21
-32.67512
31
0
39
0
210
0
220
0
230
1
0
LINE
5
184
100
AcDbEntity
8
SK2
62
256
6
ByLayer
370
13
48
1
60
0
100
AcDbLine
10
-45
20
-29.50012
30
0
11
0
21
-29.50012
31
0
39
0
210
0
220
0
230
1
0
LINE
5
185
100
AcDbEntity
8
SK2
62
256
6
ByLayer
370
13
48
1
60
0
100
AcDbLine
10
-45
20
-29.50012
30
0
11
-41.825002
21
-29.082123
31
0
39
0
210
0
220
0
230
1
0
LINE
5
186
100
AcDbEntity
8
SK2
62
256
6
ByLayer
370
13
48
1
60
0
100
AcDbLine
10
-45
20
-29.50012
30
0
11
-41.824998
21
-29.918117
31
0
39
0
210
0
220
0
230
1
0
LINE
5
187
100
AcDbEntity
8
SK2
62
256
6
ByLayer
370
13
48
1
60
0
100
AcDbLine
10
-41.825002
20
-29.082123
30
0
11
-41.824998
21
-29.918117
31
0
39
0
210
0
220
0
230
1
0
LINE
5
188
100
AcDbEntity
8
SK2
62
256
6
ByLayer
370
13
48
1
60
0
100
AcDbLine
10
0
20
-29.50012
30
0
11
-3.174998
21
-29.918117
31
0
39
0
210
0
220
0
230
1
0
LINE
5
189
100
AcDbEntity
8
SK2
62
256
6
ByLayer
370
13
48
1
60
0
100
AcDbLine
10
0
20
-29.50012
30
0
11
-3.175002
21
-29.082123
31
0
39
0
210
0
220
0
230
1
0
LINE
5
18A
100
AcDbEntity
8
SK2
62
256
6
ByLayer
370
13
48
1
60
0
100
AcDbLine
10
-3.174998
20
-29.918117
30
0
11
-3.175002
21
-29.082123
31
0
39
0
210
0
220
0
230
1
0
ENDBLK
5
18C
100
AcDbEntity
8
0
100
AcDbBlockEnd
0
BLOCK
5
191
100
AcDbEntity
8
0
100
AcDbBlockBegin
2
*D10
70
1
10
0
20
0
30
0
3
*D10
0
LINE
5
193
100
AcDbEntity
8
0
62
256
6
ByLayer
370
-2
48
1
60
0
100
AcDbLine
10
2
20
4.1625
30
0
11
2
21
-23.92482
31
0
39
0
210
0
220
0
230
1
0
LINE
5
194
100
AcDbEntity
8
0
62
256
6
ByLayer
370
-2
48
1
60
0
100
AcDbLine
10
73
20
-1.5875
30
0
11
73
21
-23.92482
31
0
39
0
210
0
220
0
230
1
0
LINE
5
195
100
AcDbEntity
8
0
62
256
6
ByLayer
370
-2
48
1
60
0
100
AcDbLine
10
5.175
20
-20.74982
30
0
11
69.825
21
-20.74982
31
0
39
0
210
0
220
0
230
1
0
SOLID
5
196
100
AcDbEntity
8
0
62
256
6
ByLayer
370
-1
48
1
60
0
100
AcDbTrace
10
5.175
20
-20.220653
30
0
11
5.175
21
-21.278987
31
0
12
2
22
-20.74982
32
0
13
2
23
-20.74982
33
0
39
0
210
0
220
0
230
1
0
SOLID
5
197
100
AcDbEntity
8
0
62
256
6
ByLayer
370
-1
48
1
60
0
100
AcDbTrace
10
69.825
20
-21.278987
30
0
11
69.825
21
-20.220653
31
0
12
73
22
-20.74982
32
0
13
73
23
-20.74982
33
0
39
0
210
0
220
0
230
1
0
MTEXT
5
198
100
AcDbEntity
8
0
62
256
6
ByLayer
370
18
48
1
60
0
100
AcDbMText
10
37.5
20
-13.443319
30
0
210
0
220
0
230
1
1
\A1;71
40
3.50012
41
0
44
1
50
0
71
5
72
5
7
iso_b_vert
0
POINT
5
199
100
AcDbEntity
8
Defpoints
62
0
6
ByLayer
370
-1
48
1
60
0
100
AcDbPoint
10
2
20
5.75
30
0
39
0
210
0
220
0
230
1
50
360
0
POINT
5
19A
100
AcDbEntity
8
Defpoints
62
0
6
ByLayer
370
-1
48
1
60
0
100
AcDbPoint
10
73
20
0
30
0
39
0
210
0
220
0
230
1
50
360
0
POINT
5
19B
100
AcDbEntity
8
Defpoints
62
0
6
ByLayer
370
-1
48
1
60
0
100
AcDbPoint
10
73
20
-20.74982
30
0
39
0
210
0
220
0
230
1
50
360
0
ENDBLK
5
192
100
AcDbEntity
8
0
100
AcDbBlockEnd
0
BLOCK
5
1A7
100
AcDbEntity
8
0
100
AcDbBlockBegin
2
_U4
70
0
10
0
20
0
30
0
3
_U4
0
MTEXT
5
19D
100
AcDbEntity
8
SK2
62
256
6
ByLayer
370
18
48
1
60
0
100
AcDbMText
10
32.707837
20
-19.717151
30
0
210
0
220
0
230
1
1
\W0.6864;71.00
40
3.50012
41
0
44
1.084337
50
0
71
7
72
5
7
iso_b_vert
0
LINE
5
19E
100
AcDbEntity
8
SK2
62
256
6
ByLayer
370
13
48
1
60
0
100
AcDbLine
10
2
20
4.1625
30
0
11
2
21
-23.92482
31
0
39
0
210
0
220
0
230
1
0
LINE
5
19F
100
AcDbEntity
8
SK2
62
256
6
ByLayer
370
13
48
1
60
0
100
AcDbLine
10
73
20
-1.5875
30
0
11
73
21
-23.92482
31
0
39
0
210
0
220
0
230
1
0
LINE
5
1A0
100
AcDbEntity
8
SK2
62
256
6
ByLayer
370
13
48
1
60
0
100
AcDbLine
10
2
20
-20.74982
30
0
11
73
21
-20.74982
31
0
39
0
210
0
220
0
230
1
0
LINE
5
1A1
100
AcDbEntity
8
SK2
62
256
6
ByLayer
370
13
48
1
60
0
100
AcDbLine
10
2
20
-20.74982
30
0
11
5.174998
21
-20.331823
31
0
39
0
210
0
220
0
230
1
0
LINE
5
1A2
100
AcDbEntity
8
SK2
62
256
6
ByLayer
370
13
48
1
60
0
100
AcDbLine
10
2
20
-20.74982
30
0
11
5.175002
21
-21.167817
31
0
39
0
210
0
220
0
230
1
0
LINE
5
1A3
100
AcDbEntity
8
SK2
62
256
6
ByLayer
370
13
48
1
60
0
100
AcDbLine
10
5.174998
20
-20.331823
30
0
11
5.175002
21
-21.167817
31
0
39
0
210
0
220
0
230
1
0
LINE
5
1A4
100
AcDbEntity
8
SK2
62
256
6
ByLayer
370
13
48
1
60
0
100
AcDbLine
10
73
20
-20.74982
30
0
11
69.825002
21
-21.167817
31
0
39
0
210
0
220
0
230
1
0
LINE
5
1A5
100
AcDbEntity
8
SK2
62
256
6
ByLayer
370
13
48
1
60
0
100
AcDbLine
10
73
20
-20.74982
30
0
11
69.824998
21
-20.331823
31
0
39
0
210
0
220
0
230
1
0
LINE
5
1A6
100
AcDbEntity
8
SK2
62
256
6
ByLayer
370
13
48
1
60
0
100
AcDbLine
10
69.825002
20
-21.167817
30
0
11
69.824998
21
-20.331823
31
0
39
0
210
0
220
0
230
1
0
ENDBLK
5
1A8
100
AcDbEntity
8
0
100
AcDbBlockEnd
0
BLOCK
5
1AD
100
AcDbEntity
8
0
100
AcDbBlockBegin
2
*D12
70
1
10
0
20
0
30
0
3
*D12
0
LINE
5
1AF
100
AcDbEntity
8
0
62
256
6
ByLayer
370
-2
48
1
60
0
100
AcDbLine
10
18.6
20
-6.8375
30
0
11
18.6
21
-13.32
31
0
39
0
210
0
220
0
230
1
0
LINE
5
1B0
100
AcDbEntity
8
0
62
256
6
ByLayer
370
-2
48
1
60
0
100
AcDbLine
10
73
20
-1.5875
30
0
11
73
21
-13.32
31
0
39
0
210
0
220
0
230
1
0
LINE
5
1B1
100
AcDbEntity
8
0
62
256
6
ByLayer
370
-2
48
1
60
0
100
AcDbLine
10
21.775
20
-12.82
30
0
11
69.825
21
-12.82
31
0
39
0
210
0
220
0
230
1
0
SOLID
5
1B2
100
AcDbEntity
8
0
62
256
6
ByLayer
370
-1
48
1
60
0
100
AcDbTrace
10
21.775
20
-12.290833
30
0
11
21.775
21
-13.349167
31
0
12
18.6
22
-12.82
32
0
13
18.6
23
-12.82
33
0
39
0
210
0
220
0
230
1
0
SOLID
5
1B3
100
AcDbEntity
8
0
62
256
6
ByLayer
370
-1
48
1
60
0
100
AcDbTrace
10
69.825
20
-13.349167
30
0
11
69.825
21
-12.290833
31
0
12
73
22
-12.82
32
0
13
73
23
-12.82
33
0
39
0
210
0
220
0
230
1
0
MTEXT
5
1B4
100
AcDbEntity
8
0
62
256
6
ByLayer
370
18
48
1
60
0
100
AcDbMText
10
45.8
20
-6.975
30
0
210
0
220
0
230
1
1
\A1;54.4
40
2.8
41
0
44
1
50
0
71
5
72
5
7
iso_b_vert
0
POINT
5
1B5
100
AcDbEntity
8
Defpoints
62
0
6
ByLayer
370
-1
48
1
60
0
100
AcDbPoint
10
18.6
20
-5.25
30
0
39
0
210
0
220
0
230
1
50
360
0
POINT
5
1B6
100
AcDbEntity
8
Defpoints
62
0
6
ByLayer
370
-1
48
1
60
0
100
AcDbPoint
10
73
20
0
30
0
39
0
210
0
220
0
230
1
50
360
0
POINT
5
1B7
100
AcDbEntity
8
Defpoints
62
0
6
ByLayer
370
-1
48
1
60
0
100
AcDbPoint
10
73
20
-12.82
30
0
39
0
210
0
220
0
230
1
50
360
0
ENDBLK
5
1AE
100
AcDbEntity
8
0
100
AcDbBlockEnd
0
BLOCK
5
1C3
100
AcDbEntity
8
0
100
AcDbBlockBegin
2
_U5
70
0
10
0
20
0
30
0
3
_U5
0
MTEXT
5
1B9
100
AcDbEntity
8
SK2
62
256
6
ByLayer
370
18
48
1
60
0
100
AcDbMText
10
41.321628
20
-12.973893
30
0
210
0
220
0
230
1
1
\W0.7958;54.40
40
2.8
41
0
44
1.084337
50
0
71
7
72
5
7
iso_b_vert
0
LINE
5
1BA
100
AcDbEntity
8
SK2
62
256
6
ByLayer
370
13
48
1
60
0
100
AcDbLine
10
18.6
20
-6.8375
30
0
11
18.6
21
-13.32
31
0
39
0
210
0
220
0
230
1
0
LINE
5
1BB
100
AcDbEntity
8
SK2
62
256
6
ByLayer
370
13
48
1
60
0
100
AcDbLine
10
73
20
-1.5875
30
0
11
73
21
-13.32
31
0
39
0
210
0
220
0
230
1
0
LINE
5
1BC
100
AcDbEntity
8
SK2
62
256
6
ByLayer
370
13
48
1
60
0
100
AcDbLine
10
18.6
20
-12.82
30
0
11
73
21
-12.82
31
0
39
0
210
0
220
0
230
1
0
LINE
5
1BD
100
AcDbEntity
8
SK2
62
256
6
ByLayer
370
13
48
1
60
0
100
AcDbLine
10
18.6
20
-12.82
30
0
11
21.774998
21
-12.402003
31
0
39
0
210
0
220
0
230
1
0
LINE
5
1BE
100
AcDbEntity
8
SK2
62
256
6
ByLayer
370
13
48
1
60
0
100
AcDbLine
10
18.6
20
-12.82
30
0
11
21.775002
21
-13.237997
31
0
39
0
210
0
220
0
230
1
0
LINE
5
1BF
100
AcDbEntity
8
SK2
62
256
6
ByLayer
370
13
48
1
60
0
100
AcDbLine
10
21.774998
20
-12.402003
30
0
11
21.775002
21
-13.237997
31
0
39
0
210
0
220
0
230
1
0
LINE
5
1C0
100
AcDbEntity
8
SK2
62
256
6
ByLayer
370
13
48
1
60
0
100
AcDbLine
10
73
20
-12.82
30
0
11
69.825002
21
-13.237997
31
0
39
0
210
0
220
0
230
1
0
LINE
5
1C1
100
AcDbEntity
8
SK2
62
256
6
ByLayer
370
13
48
1
60
0
100
AcDbLine
10
73
20
-12.82
30
0
11
69.824998
21
-12.402003
31
0
39
0
210
0
220
0
230
1
0
LINE
5
1C2
100
AcDbEntity
8
SK2
62
256
6
ByLayer
370
13
48
1
60
0
100
AcDbLine
10
69.825002
20
-13.237997
30
0
11
69.824998
21
-12.402003
31
0
39
0
210
0
220
0
230
1
0
ENDBLK
5
1C4
100
AcDbEntity
8
0
100
AcDbBlockEnd
0
BLOCK
5
1C9
100
AcDbEntity
8
0
100
AcDbBlockBegin
2
*D14
70
1
10
0
20
0
30
0
3
*D14
0
LINE
5
1CB
100
AcDbEntity
8
0
62
256
6
ByLayer
370
-2
48
1
60
0
100
AcDbLine
10
-45
20
-1.5875
30
0
11
-45
21
-42.67512
31
0
39
0
210
0
220
0
230
1
0
LINE
5
1CC
100
AcDbEntity
8
0
62
256
6
ByLayer
370
-2
48
1
60
0
100
AcDbLine
10
73
20
-1.5875
30
0
11
73
21
-42.67512
31
0
39
0
210
0
220
0
230
1
0
LINE
5
1CD
100
AcDbEntity
8
0
62
256
6
ByLayer
370
-2
48
1
60
0
100
AcDbLine
10
-41.825
20
-39.50012
30
0
11
69.825
21
-39.50012
31
0
39
0
210
0
220
0
230
1
0
SOLID
5
1CE
100
AcDbEntity
8
0
62
256
6
ByLayer
370
-1
48
1
60
0
100
AcDbTrace
10
-41.825
20
-38.970953
30
0
11
-41.825
21
-40.029287
31
0
12
-45
22
-39.50012
32
0
13
-45
23
-39.50012
33
0
39
0
210
0
220
0
230
1
0
SOLID
5
1CF
100
AcDbEntity
8
0
62
256
6
ByLayer
370
-1
48
1
60
0
100
AcDbTrace
10
69.825
20
-40.029287
30
0
11
69.825
21
-38.970953
31
0
12
73
22
-39.50012
32
0
13
73
23
-39.50012
33
0
39
0
210
0
220
0
230
1
0
MTEXT
5
1D0
100
AcDbEntity
8
0
62
256
6
ByLayer
370
18
48
1
60
0
100
AcDbMText
10
14
20
-32.19362
30
0
210
0
220
0
230
1
1
\A1;118
40
3.50012
41
0
44
1
50
0
71
5
72
5
7
iso_b_vert
0
POINT
5
1D1
100
AcDbEntity
8
Defpoints
62
0
6
ByLayer
370
-1
48
1
60
0
100
AcDbPoint
10
-45
20
0
30
0
39
0
210
0
220
0
230
1
50
360
0
POINT
5
1D2
100
AcDbEntity
8
Defpoints
62
0
6
ByLayer
370
-1
48
1
60
0
100
AcDbPoint
10
73
20
0
30
0
39
0
210
0
220
0
230
1
50
360
0
POINT
5
1D3
100
AcDbEntity
8
Defpoints
62
0
6
ByLayer
370
-1
48
1
60
0
100
AcDbPoint
10
73
20
-39.50012
30
0
39
0
210
0
220
0
230
1
50
360
0
ENDBLK
5
1CA
100
AcDbEntity
8
0
100
AcDbBlockEnd
0
BLOCK
5
1DF
100
AcDbEntity
8
0
100
AcDbBlockBegin
2
_U6
70
0
10
0
20
0
30
0
3
_U6
0
MTEXT
5
1D5
100
AcDbEntity
8
SK2
62
256
6
ByLayer
370
18
48
1
60
0
100
AcDbMText
10
8.337507
20
-38.467451
30
0
210
0
220
0
230
1
1
\W0.6532;118.00
40
3.50012
41
0
44
1.084337
50
0
71
7
72
5
7
iso_b_vert
0
LINE
5
1D6
100
AcDbEntity
8
SK2
62
256
6
ByLayer
370
13
48
1
60
0
100
AcDbLine
10
-45
20
-1.5875
30
0
11
-45
21
-42.67512
31
0
39
0
210
0
220
0
230
1
0
LINE
5
1D7
100
AcDbEntity
8
SK2
62
256
6
ByLayer
370
13
48
1
60
0
100
AcDbLine
10
73
20
-1.5875
30
0
11
73
21
-42.67512
31
0
39
0
210
0
220
0
230
1
0
LINE
5
1D8
100
AcDbEntity
8
SK2
62
256
6
ByLayer
370
13
48
1
60
0
100
AcDbLine
10
-45
20
-39.50012
30
0
11
73
21
-39.50012
31
0
39
0
210
0
220
0
230
1
0
LINE
5
1D9
100
AcDbEntity
8
SK2
62
256
6
ByLayer
370
13
48
1
60
0
100
AcDbLine
10
-45
20
-39.50012
30
0
11
-41.825002
21
-39.082123
31
0
39
0
210
0
220
0
230
1
0
LINE
5
1DA
100
AcDbEntity
8
SK2
62
256
6
ByLayer
370
13
48
1
60
0
100
AcDbLine
10
-45
20
-39.50012
30
0
11
-41.824998
21
-39.918117
31
0
39
0
210
0
220
0
230
1
0
LINE
5
1DB
100
AcDbEntity
8
SK2
62
256
6
ByLayer
370
13
48
1
60
0
100
AcDbLine
10
-41.825002
20
-39.082123
30
0
11
-41.824998
21
-39.918117
31
0
39
0
210
0
220
0
230
1
0
LINE
5
1DC
100
AcDbEntity
8
SK2
62
256
6
ByLayer
370
13
48
1
60
0
100
AcDbLine
10
73
20
-39.50012
30
0
11
69.825002
21
-39.918117
31
0
39
0
210
0
220
0
230
1
0
LINE
5
1DD
100
AcDbEntity
8
SK2
62
256
6
ByLayer
370
13
48
1
60
0
100
AcDbLine
10
73
20
-39.50012
30
0
11
69.824998
21
-39.082123
31
0
39
0
210
0
220
0
230
1
0
LINE
5
1DE
100
AcDbEntity
8
SK2
62
256
6
ByLayer
370
13
48
1
60
0
100
AcDbLine
10
69.825002
20
-39.918117
30
0
11
69.824998
21
-39.082123
31
0
39
0
210
0
220
0
230
1
0
ENDBLK
5
1E0
100
AcDbEntity
8
0
100
AcDbBlockEnd
0
ENDSEC
0
SECTION
2
ENTITIES
0
ARC
5
B1
100
AcDbEntity
8
1
62
256
6
ByLayer
370
18
48
1
60
0
100
AcDbCircle
39
0
10
1.381907
20
6.006432
30
0
40
0.799999999999998
210
0
220
0
230
1
100
AcDbArc
50
210.266322
51
270.03581
0
ARC
5
B2
100
AcDbEntity
8
1
62
256
6
ByLayer
370
18
48
1
60
0
100
AcDbCircle
39
0
10
1.381907
20
-6.006432
30
0
40
0.799999999999998
210
0
220
0
230
1
100
AcDbArc
50
89.96419
51
149.733678
0
ARC
5
B3
100
AcDbEntity
8
1
62
256
6
ByLayer
370
18
48
1
60
0
100
AcDbCircle
39
0
10
0
20
5.2
30
0
40
0.799999999999998
210
0
220
0
230
1
100
AcDbArc
50
30.266322
51
90
0
ARC
5
B4
100
AcDbEntity
8
1
62
256
6
ByLayer
370
18
48
1
60
0
100
AcDbCircle
39
0
10
0
20
-5.2
30
0
40
0.799999999999998
210
0
220
0
230
1
100
AcDbArc
50
270
51
329.733678
0
ARC
5
B5
100
AcDbEntity
8
SK2
62
256
6
ByLayer
370
13
48
1
60
0
100
AcDbCircle
39
0
10
73
20
0
30
0
40
20
210
0
220
0
230
1
100
AcDbArc
50
9.606349
51
70.000421
0
ARC
5
B6
100
AcDbEntity
8
SK2
62
256
6
ByLayer
370
13
48
1
60
0
100
AcDbCircle
39
0
10
73
20
0
30
0
40
20
210
0
220
0
230
1
100
AcDbArc
50
289.999579
51
350.393651
0
ELLIPSE
5
B7
100
AcDbEntity
8
1
62
256
6
ByLayer
370
18
48
1
60
0
100
AcDbEllipse
10
3.562859
20
-4.657647
30
0
11
-0.00272508395674957
21
0.0096215340475761
31
0
210
0
220
0
230
1
40
0.507694
41
0.370687694319048
42
1.753172627671
0
ELLIPSE
5
B8
100
AcDbEntity
8
1
62
256
6
ByLayer
370
18
48
1
60
0
100
AcDbEllipse
10
3.601776
20
-4.655781
30
0
11
-0.00162383669701684
21
-0.00986727694865313
31
0
210
0
220
0
230
1
40
0.403854
41
-2.75803124513886
42
-1.18831215047056
0
ELLIPSE
5
B9
100
AcDbEntity
8
1
62
256
6
ByLayer
370
18
48
1
60
0
100
AcDbEllipse
10
3.602273
20
0.642723
30
0
11
6.01641447513787E-05
21
0.00999981901214649
31
0
210
0
220
0
230
1
40
0.007826
41
-1.70074926206534
42
-0.130034806731633
0
ELLIPSE
5
BA
100
AcDbEntity
8
1
62
256
6
ByLayer
370
18
48
1
60
0
100
AcDbEllipse
10
3.640828
20
0.633858
30
0
11
-0.00431820364866307
21
-0.00901959629078115
31
0
210
0
220
0
230
1
40
0.061715
41
1.4582072464799
42
3.0243677170808
0
POINT
5
70
100
AcDbEntity
8
80
62
256
6
ByLayer
370
18
48
1
60
0
100
AcDbPoint
10
0
20
0
30
0
39
0
210
0
220
0
230
1
50
360
0
POINT
5
72
100
AcDbEntity
8
81
62
256
6
ByLayer
370
18
48
1
60
0
100
AcDbPoint
10
73
20
0
30
0
39
0
210
0
220
0
230
1
50
360
0
POINT
5
74
100
AcDbEntity
8
1
62
256
6
ByLayer
370
18
48
1
60
0
100
AcDbPoint
10
-45
20
0
30
0
39
0
210
0
220
0
230
1
50
360
0
POINT
5
76
100
AcDbEntity
8
1
62
256
6
ByLayer
370
18
48
1
60
1
100
AcDbPoint
10
0
20
-6
30
0
39
0
210
0
220
0
230
1
50
360
0
POINT
5
77
100
AcDbEntity
8
1
62
256
6
ByLayer
370
18
48
1
60
1
100
AcDbPoint
10
73
20
0
30
0
39
0
210
0
220
0
230
1
50
360
0
POINT
5
78
100
AcDbEntity
8
1
62
256
6
ByLayer
370
18
48
1
60
1
100
AcDbPoint
10
71.0892
20
-5.25
30
0
39
0
210
0
220
0
230
1
50
360
0
POINT
5
79
100
AcDbEntity
8
1
62
256
6
ByLayer
370
18
48
1
60
1
100
AcDbPoint
10
71.0892
20
5.25
30
0
39
0
210
0
220
0
230
1
50
360
0
POINT
5
7A
100
AcDbEntity
8
1
62
256
6
ByLayer
370
18
48
1
60
1
100
AcDbPoint
10
-45
20
6
30
0
39
0
210
0
220
0
230
1
50
360
0
POINT
5
7B
100
AcDbEntity
8
1
62
256
6
ByLayer
370
18
48
1
60
1
100
AcDbPoint
10
-45
20
-6
30
0
39
0
210
0
220
0
230
1
50
360
0
POINT
5
7C
100
AcDbEntity
8
1
62
256
6
ByLayer
370
18
48
1
60
1
100
AcDbPoint
10
-45
20
-6
30
0
39
0
210
0
220
0
230
1
50
360
0
POINT
5
7D
100
AcDbEntity
8
1
62
256
6
ByLayer
370
18
48
1
60
1
100
AcDbPoint
10
0
20
-6
30
0
39
0
210
0
220
0
230
1
50
360
0
POINT
5
7E
100
AcDbEntity
8
1
62
256
6
ByLayer
370
18
48
1
60
1
100
AcDbPoint
10
2
20
5.75
30
0
39
0
210
0
220
0
230
1
50
360
0
POINT
5
7F
100
AcDbEntity
8
1
62
256
6
ByLayer
370
18
48
1
60
1
100
AcDbPoint
10
73
20
0
30
0
39
0
210
0
220
0
230
1
50
360
0
POINT
5
80
100
AcDbEntity
8
1
62
256
6
ByLayer
370
18
48
1
60
1
100
AcDbPoint
10
18.6
20
-5.25
30
0
39
0
210
0
220
0
230
1
50
360
0
POINT
5
81
100
AcDbEntity
8
1
62
256
6
ByLayer
370
18
48
1
60
1
100
AcDbPoint
10
73
20
0
30
0
39
0
210
0
220
0
230
1
50
360
0
POINT
5
82
100
AcDbEntity
8
1
62
256
6
ByLayer
370
18
48
1
60
1
100
AcDbPoint
10
-45
20
0
30
0
39
0
210
0
220
0
230
1
50
360
0
POINT
5
83
100
AcDbEntity
8
1
62
256
6
ByLayer
370
18
48
1
60
1
100
AcDbPoint
10
73
20
0
30
0
39
0
210
0
220
0
230
1
50
360
0
SPLINE
5
BB
100
AcDbEntity
8
SK1
62
256
6
ByLayer
370
18
48
1
60
0
100
AcDbSpline
70
4
71
3
72
12
73
8
40
0
40
0
40
0
40
0
40
0.250000000000002
40
0.250000000000002
40
0.500000000000004
40
0.500000000000004
40
1
40
1
40
1
40
1
41
1
10
-44.15
20
4.87179207338272
30
-1E-16
41
1
10
-44.15
20
4.87682853507127
30
-1E-16
41
1
10
-44.1541964903379
20
4.87765955604198
30
-1E-16
41
1
10
-44.1670510016405
20
4.8736163766907
30
-1E-16
41
1
10
-44.1755314964661
20
4.8689301255701
30
-1E-16
41
1
10
-44.2039103264456
20
4.85028966536342
30
-1E-16
41
1
10
-44.2265803533262
20
4.83196915124273
30
-1E-16
41
1
10
-44.25
20
4.810775773335
30
-1E-16
0
SPLINE
5
BC
100
AcDbEntity
8
SK1
62
256
6
ByLayer
370
18
48
1
60
0
100
AcDbSpline
70
4
71
3
72
8
73
4
40
0
40
0
40
0
40
0
40
1
40
1
40
1
40
1
41
1
10
-44.4179491924311
20
3.73396657571735
30
2E-16
41
1
10
-44.3619874118812
20
3.78468318252533
30
2E-16
41
1
10
-44.3060036186606
20
3.83538048774258
30
2E-16
41
1
10
-44.25
20
3.8860604092207
30
2E-16
0
SPLINE
5
BD
100
AcDbEntity
8
SK1
62
256
6
ByLayer
370
18
48
1
60
0
100
AcDbSpline
70
4
71
3
72
12
73
8
40
0
40
0
40
0
40
0
40
0.500000000000005
40
0.500000000000005
40
0.750000000000003
40
0.750000000000003
40
1
40
1
40
1
40
1
41
1
10
-44.25
20
3.8860604092207
30
2E-16
41
1
10
-44.2265754814923
20
3.9072581958464
30
2E-16
41
1
10
-44.2038494963526
20
3.93292235957324
30
2E-16
41
1
10
-44.1756806214309
20
3.97367834209504
30
2E-16
41
1
10
-44.1670810890644
20
3.9880058420157
30
2E-16
41
1
10
-44.1542487488419
20
4.01565047523042
30
2E-16
41
1
10
-44.15
20
4.02926004488387
30
2E-16
41
1
10
-44.15
20
4.03954824567987
30
2E-16
0
SPLINE
5
BE
100
AcDbEntity
8
SK1
62
256
6
ByLayer
370
18
48
1
60
0
100
AcDbSpline
70
4
71
3
72
8
73
4
40
0
40
0
40
0
40
0
40
1
40
1
40
1
40
1
41
1
10
-44.25
20
4.810775773335
30
-1E-16
41
1
10
-44.3060037835056
20
4.76009570268204
30
-1E-16
41
1
10
-44.3619875824448
20
4.70939839206258
30
-1E-16
41
1
10
-44.4179491924311
20
4.65868193983164
30
-1E-16
0
SPLINE
5
BF
100
AcDbEntity
8
SK1
62
256
6
ByLayer
370
18
48
1
60
0
100
AcDbSpline
70
4
71
3
72
12
73
8
40
0
40
0
40
0
40
0
40
0.25
40
0.25
40
0.5
40
0.5
40
1
40
1
40
1
40
1
41
1
10
-44.4179491924311
20
3.73396657571735
30
2E-16
41
1
10
-44.4585118025587
20
3.65155888330341
30
2E-16
41
1
10
-44.5017617157541
20
3.56825055365579
30
-2E-16
41
1
10
-44.5926945369118
20
3.40017337353893
30
-2E-16
41
1
10
-44.6405857309338
20
3.3150604815398
30
-2E-16
41
1
10
-44.7885787506849
20
3.06044306488494
30
-2E-16
41
1
10
-44.8923167485562
20
2.89256915287419
30
-2E-16
41
1
10
-45.0000000000001
20
2.72618581143817
30
-2E-16
0
SPLINE
5
C0
100
AcDbEntity
8
SK1
62
256
6
ByLayer
370
18
48
1
60
0
100
AcDbSpline
70
4
71
3
72
10
73
6
40
0
40
0
40
0
40
0
40
0.5
40
0.5
40
1
40
1
40
1
40
1
41
1
10
-45.0000000000001
20
4.23930386570373
30
0
41
1
10
-44.892418923189
20
4.33561325680966
30
0
41
1
10
-44.7890116623726
20
4.42142413477973
30
0
41
1
10
-44.5927829535177
20
4.56532619727028
30
1E-16
41
1
10
-44.4993017440334
20
4.62370334388081
30
-1E-16
41
1
10
-44.4179491924311
20
4.65868193983164
30
-1E-16
0
SPLINE
5
C1
100
AcDbEntity
8
1
62
256
6
ByLayer
370
18
48
1
60
0
100
AcDbSpline
70
4
71
3
72
8
73
4
40
0
40
0
40
0
40
0
40
1
40
1
40
1
40
1
41
1
10
72.9951586285288
20
0.289849113438606
30
0
41
1
10
73.00162035177
20
0.0964199615782491
30
0
41
1
10
73.0016072425062
20
-0.0968123822418931
30
0
41
1
10
72.9951586285293
20
-0.289849113423486
30
0
0
SPLINE
5
C2
100
AcDbEntity
8
1
62
256
6
ByLayer
370
18
48
1
60
0
100
AcDbSpline
70
4
71
3
72
71
73
67
40
0
40
0
40
0
40
0
40
0.124999999999997
40
0.124999999999997
40
0.249999999999995
40
0.249999999999995
40
0.265624999999995
40
0.265624999999995
40
0.273437499999995
40
0.273437499999995
40
0.277343749999994
40
0.277343749999994
40
0.281249999999993
40
0.281249999999993
40
0.285156249999992
40
0.285156249999992
40
0.287109374999992
40
0.287109374999992
40
0.289062499999992
40
0.296874999999992
40
0.296874999999992
40
0.312499999999992
40
0.312499999999992
40
0.374999999999991
40
0.374999999999991
40
0.406249999999991
40
0.406249999999991
40
0.43749999999999
40
0.43749999999999
40
0.46874999999999
40
0.46874999999999
40
0.484374999999989
40
0.484374999999989
40
0.499999999999989
40
0.499999999999989
40
0.531249999999989
40
0.531249999999989
40
0.546874999999989
40
0.546874999999989
40
0.562499999999989
40
0.562499999999989
40
0.59374999999999
40
0.59374999999999
40
0.60937499999999
40
0.60937499999999
40
0.62499999999999
40
0.62499999999999
40
0.64062499999999
40
0.64062499999999
40
0.65624999999999
40
0.65624999999999
40
0.687499999999991
40
0.687499999999991
40
0.718749999999992
40
0.718749999999992
40
0.749999999999993
40
0.749999999999993
40
0.781249999999994
40
0.781249999999994
40
0.812499999999995
40
0.812499999999995
40
0.874999999999997
40
0.874999999999997
40
0.937499999999998
40
0.937499999999998
40
1
40
1
40
1
40
1
41
1
10
9.12507566536101
20
4.91434563735899
30
-1E-16
41
1
10
8.53432149121213
20
5.0126830754665
30
-1E-16
41
1
10
7.93572327659032
20
5.08030340891509
30
-1E-16
41
1
10
6.71346020837842
20
5.16981701560596
30
0
41
1
10
6.09055148053986
20
5.19183875374199
30
0
41
1
10
5.37847908773162
20
5.2028148307713
30
0
41
1
10
5.29920830719846
20
5.2038435066188
30
0
41
1
10
5.18007733067395
20
5.20513078575044
30
0
41
1
10
5.14032918683893
20
5.20551725348946
30
0
41
1
10
5.08064976902165
20
5.2060367776549
30
0
41
1
10
5.06075324808077
20
5.20620077511671
30
0
41
1
10
5.02092015911941
20
5.20650576779943
30
0
41
1
10
5.00037195928013
20
5.2066091874259
30
0
41
1
10
4.95892540807233
20
5.20657072060536
30
0
41
1
10
4.93800870278369
20
5.20645150326089
30
0
41
1
10
4.9103287320014
20
5.20597448216742
30
0
41
1
10
4.90146342666802
20
5.20578448160884
30
0
41
1
10
4.88346782962594
20
5.20540490970478
30
0
41
1
10
4.83850742657745
20
5.2044124355476
30
0
41
1
10
4.79369068308679
20
5.20319998316327
30
0
41
1
10
4.686434098299
20
5.19985009330168
30
0
41
1
10
4.6153283069483
20
5.19703052985443
30
0
41
1
10
4.26193432530152
20
5.17973399926274
30
0
41
1
10
3.98704496374415
20
5.15590481200732
30
0
41
1
10
3.59197525266831
20
5.09846276189913
30
-1E-16
41
1
10
3.46313127983868
20
5.07566131040568
30
-1E-16
41
1
10
3.21240748382843
20
5.0208574593986
30
-1E-16
41
1
10
3.09022973515809
20
4.98873150517238
30
-1E-16
41
1
10
2.85843813851923
20
4.91378217818382
30
-1E-16
41
1
10
2.74839470600762
20
4.87091596131097
30
-1E-16
41
1
10
2.59435343705962
20
4.79623566391209
30
2E-16
41
1
10
2.5448532834663
20
4.76960248075952
30
2E-16
41
1
10
2.45008876137297
20
4.71230746893826
30
2E-16
41
1
10
2.40464871433898
20
4.68150652111257
30
2E-16
41
1
10
2.2771474512144
20
4.58309442476263
30
2E-16
41
1
10
2.20409878125716
20
4.5098785981674
30
2E-16
41
1
10
2.11655197582115
20
4.38580717614622
30
2E-16
41
1
10
2.09098588777979
20
4.34189965258582
30
2E-16
41
1
10
2.04854933591787
20
4.24934098955055
30
2E-16
41
1
10
2.03194281805025
20
4.20132817563322
30
2E-16
41
1
10
1.99615405204713
20
4.05197888065959
30
2E-16
41
1
10
1.99095223216608
20
3.94534782258342
30
2E-16
41
1
10
2.01273754875484
20
3.77410159866673
30
2E-16
41
1
10
2.02488579323506
20
3.71588642775529
30
2E-16
41
1
10
2.05792464445511
20
3.59885510062193
30
-2E-16
41
1
10
2.07884536029471
20
3.53979457493313
30
-2E-16
41
1
10
2.12882611529204
20
3.42066688620332
30
-2E-16
41
1
10
2.15801412204294
20
3.36037102886314
30
-2E-16
41
1
10
2.22342863639579
20
3.23989119308794
30
-2E-16
41
1
10
2.25937620417045
20
3.18015311722752
30
-2E-16
41
1
10
2.37561963838738
20
3.00225112027596
30
-2E-16
41
1
10
2.46425136557696
20
2.8853891792904
30
-2E-16
41
1
10
2.65907748903155
20
2.65448429094673
30
-2E-16
41
1
10
2.76564967883624
20
2.54021422964314
30
-2E-16
41
1
10
2.987862531095
20
2.31927020400929
30
-1E-16
41
1
10
3.10413227197384
20
2.21182493173609
30
-1E-16
41
1
10
3.34486522256543
20
2.00180253923534
30
-1E-16
41
1
10
3.46934321607455
20
1.89923386917658
30
-1E-16
41
1
10
3.72513130632831
20
1.69821871634562
30
-1E-16
41
1
10
3.85667775885301
20
1.59961251411022
30
-1E-16
41
1
10
4.25859331198157
20
1.31031244204024
30
-1E-16
41
1
10
4.53391773254003
20
1.12757519262524
30
-1E-16
41
1
10
5.09544864113286
20
0.777210420161509
30
0
41
1
10
5.38170227512509
20
0.60964615521732
30
0
41
1
10
5.96302947413221
20
0.286913441388521
30
0
41
1
10
6.25812099820865
20
0.131769068557219
30
0
41
1
10
6.5569681141269
20
-0.0180302269895094
30
0
0
SPLINE
5
C3
100
AcDbEntity
8
1
62
256
6
ByLayer
370
18
48
1
60
0
100
AcDbSpline
70
4
71
3
72
42
73
38
40
0
40
0
40
0
40
0
40
0.0561944044699657
40
0.0561944044699657
40
0.118631927893373
40
0.118631927893373
40
0.181069451316779
40
0.181069451316779
40
0.243506974740186
40
0.243506974740186
40
0.305944498163593
40
0.305944498163593
40
0.368382021587
40
0.368382021587
40
0.430819545010407
40
0.430819545010407
40
0.493257068433814
40
0.493257068433814
40
0.555694591857221
40
0.555694591857221
40
0.618132115280628
40
0.618132115280628
40
0.649350876992332
40
0.649350876992332
40
0.680569638704037
40
0.680569638704037
40
0.743007162127447
40
0.743007162127447
40
0.805444685550858
40
0.805444685550858
40
0.867882208974269
40
0.867882208974269
40
0.93031973239768
40
0.93031973239768
40
0.992757255821091
40
0.992757255821091
40
1
40
1
40
1
40
1
41
1
10
38.0432999910236
20
-0.200722039938057
30
0
41
1
10
37.7283460777479
20
-0.0501867193238752
30
0
41
1
10
37.4122104872731
20
0.100780055231525
30
0
41
1
10
36.744594382583
20
0.419008283673378
30
0
41
1
10
36.3937103392304
20
0.58624810830284
30
0
41
1
10
35.6918084353141
20
0.918079697994528
30
-1E-16
41
1
10
35.3404562416243
20
1.08238041550567
30
-1E-16
41
1
10
34.6376753833168
20
1.40714157341623
30
-1E-16
41
1
10
34.2877415089384
20
1.56695377049937
30
-1E-16
41
1
10
33.5895068099038
20
1.87977325232859
30
-1E-16
41
1
10
33.2410735392505
20
2.03272203917683
30
-1E-16
41
1
10
32.5455090218036
20
2.33086797587501
30
-1E-16
41
1
10
32.198595531882
20
2.47608523030385
30
-2E-16
41
1
10
31.5049192339291
20
2.75744737964723
30
-2E-16
41
1
10
31.1582067437871
20
2.89362858546204
30
-2E-16
41
1
10
30.464794042367
20
3.15593972441738
30
-2E-16
41
1
10
30.1182949079209
20
3.28193119630572
30
-2E-16
41
1
10
29.4241619846088
20
3.52297280946377
30
-2E-16
41
1
10
29.0765809407186
20
3.63802614320662
30
2E-16
41
1
10
28.3802070031843
20
3.85586096289819
30
2E-16
41
1
10
28.0315494965733
20
3.95829765072273
30
2E-16
41
1
10
27.5068148720485
20
4.10244626871881
30
2E-16
41
1
10
27.3316216282165
20
4.14889879767532
30
2E-16
41
1
10
26.9806359371491
20
4.23840459518499
30
2E-16
41
1
10
26.8047291230213
20
4.28148718898643
30
2E-16
41
1
10
26.2785558366512
20
4.40470513333932
30
2E-16
41
1
10
25.929336625567
20
4.47856088376182
30
2E-16
41
1
10
25.2319362181094
20
4.61154260660609
30
-1E-16
41
1
10
24.8838356647979
20
4.67056558001815
30
-1E-16
41
1
10
24.1889412520248
20
4.77214088286118
30
-1E-16
41
1
10
23.8422844685105
20
4.81425697713144
30
-1E-16
41
1
10
23.1488609020636
20
4.88341928624919
30
0
41
1
10
22.8021594918864
20
4.91033036818172
30
0
41
1
10
22.1087922602421
20
4.94694973013662
30
0
41
1
10
21.7621941799869
20
4.95625435260777
30
0
41
1
10
21.3746757726983
20
4.95819224780979
30
0
41
1
10
21.3343881901766
20
4.95828973604097
30
0
41
1
10
21.2940925851919
20
4.95828155879599
30
0
0
SPLINE
5
C4
100
AcDbEntity
8
1
62
256
6
ByLayer
370
18
48
1
60
0
100
AcDbSpline
70
4
71
3
72
18
73
14
40
0
40
0
40
0
40
0
40
0.125
40
0.125
40
0.25
40
0.25
40
0.375
40
0.375
40
0.4375
40
0.4375
40
0.5
40
0.5
40
1
40
1
40
1
40
1
41
1
10
72.5392572372556
20
1.61930686932911
30
0
41
1
10
72.4668787195424
20
1.73657444584984
30
0
41
1
10
72.3965528063936
20
1.86052475985437
30
0
41
1
10
72.2604417396363
20
2.1213934087794
30
0
41
1
10
72.1955988775982
20
2.25648004269957
30
0
41
1
10
72.0712007504161
20
2.5357904735103
30
0
41
1
10
72.0118846875518
20
2.67955519159656
30
0
41
1
10
71.927097830767
20
2.89809198658546
30
0
41
1
10
71.8994186728496
20
2.97170650417252
30
0
41
1
10
71.8453808821951
20
3.11926448558586
30
0
41
1
10
71.8192071757214
20
3.19309593442952
30
0
41
1
10
71.5848584446354
20
3.85751037442822
30
0
41
1
10
71.3830143865888
20
4.44800437464775
30
0
41
1
10
71.1759008129896
20
5.03305399938688
30
0
0
SPLINE
5
C5
100
AcDbEntity
8
1
62
256
6
ByLayer
370
18
48
1
60
0
100
AcDbSpline
70
4
71
3
72
8
73
4
40
0
40
0
40
0
40
0
40
1
40
1
40
1
40
1
41
1
10
72.5392572372556
20
-1.61930686932911
30
0
41
1
10
72.6954009533149
20
-1.17764887496378
30
0
41
1
10
72.8473887827234
20
-0.73450369679054
30
0
41
1
10
72.995158628533
20
-0.289849113419933
30
0
0
SPLINE
5
C6
100
AcDbEntity
8
1
62
256
6
ByLayer
370
18
48
1
60
0
100
AcDbSpline
70
4
71
3
72
8
73
4
40
0
40
0
40
0
40
0
40
1
40
1
40
1
40
1
41
1
10
3.64089560212554
20
0.632579336810096
30
0
41
1
10
3.62882632769521
20
0.638346141312098
30
0
41
1
10
3.61574354760367
20
0.641346744285926
30
0
41
1
10
3.60234264247748
20
0.641427122747302
30
0
0
SPLINE
5
C7
100
AcDbEntity
8
1
62
256
6
ByLayer
370
18
48
1
60
0
100
AcDbSpline
70
4
71
3
72
42
73
38
40
0
40
0
40
0
40
0
40
0.0339259001884422
40
0.0339259001884422
40
0.0678518003768844
40
0.0678518003768844
40
0.135703600753769
40
0.135703600753769
40
0.169629500942211
40
0.169629500942211
40
0.203555401130654
40
0.203555401130654
40
0.27140720150754
40
0.27140720150754
40
0.339259001884425
40
0.339259001884425
40
0.40711080226131
40
0.40711080226131
40
0.441036702449753
40
0.441036702449753
40
0.474962602638196
40
0.474962602638196
40
0.54281440301508
40
0.54281440301508
40
0.678518003768848
40
0.678518003768848
40
0.71244390395729
40
0.71244390395729
40
0.746369804145733
40
0.746369804145733
40
0.780295704334175
40
0.780295704334175
40
0.814221604522617
40
0.814221604522617
40
0.949925205276387
40
0.949925205276387
40
1
40
1
40
1
40
1
41
1
10
70.831553778888
20
-5.18139838855606
30
0
41
1
10
70.4796734213098
20
-5.15252977510096
30
1E-16
41
1
10
70.1279457995655
20
-5.1147776353711
30
1E-16
41
1
10
69.4241766020155
20
-5.02185472020778
30
1E-16
41
1
10
69.0717947201104
20
-4.96661651059048
30
1E-16
41
1
10
68.0158866257782
20
-4.77579611788437
30
-2E-16
41
1
10
67.3141820641635
20
-4.61533076519393
30
-2E-16
41
1
10
66.2608405648278
20
-4.32873010622086
30
-2E-16
41
1
10
65.9095490397012
20
-4.22559572643277
30
-2E-16
41
1
10
65.2058878475889
20
-4.00488736748437
30
-2E-16
41
1
10
64.8533864891248
20
-3.88724976959614
30
-2E-16
41
1
10
63.7984608843906
20
-3.51590277389272
30
2E-16
41
1
10
63.0969622050483
20
-3.24310967036476
30
2E-16
41
1
10
61.6916245589666
20
-2.65620139980899
30
2E-16
41
1
10
60.9864255249771
20
-2.34125321819201
30
1E-16
41
1
10
59.5808972311263
20
-1.68605948615252
30
1E-16
41
1
10
58.8792576562881
20
-1.34550010968263
30
1E-16
41
1
10
57.8242666045035
20
-0.823282596504157
30
1E-16
41
1
10
57.4715331573761
20
-0.64695094061662
30
0
41
1
10
56.7684133982594
20
-0.293721179454138
30
0
41
1
10
56.4180941391296
20
-0.116847701142575
30
0
41
1
10
55.3695579837391
20
0.41191614697388
30
0
41
1
10
54.6738524060482
20
0.762140193578404
30
0
41
1
10
52.5883724540572
20
1.78948044914523
30
-1E-16
41
1
10
51.200401581837
20
2.44349985190073
30
-1E-16
41
1
10
49.4399329909156
20
3.16718529199181
30
-2E-16
41
1
10
49.0876030849612
20
3.30678386448696
30
-2E-16
41
1
10
48.384512537875
20
3.57354699585116
30
-2E-16
41
1
10
48.0333074990774
20
3.7008577805581
30
2E-16
41
1
10
47.3308925386182
20
3.94239390737158
30
2E-16
41
1
10
46.9796866427122
20
4.05662234166422
30
2E-16
41
1
10
46.2764949022875
20
4.2709488989386
30
2E-16
41
1
10
45.9239658034868
20
4.37116741922222
30
2E-16
41
1
10
44.1639410396615
20
4.83310446563425
30
1E-16
41
1
10
42.7758986978962
20
5.07387041236311
30
-1E-16
41
1
10
40.8719544616099
20
5.212714674632
30
0
41
1
10
40.3584326661477
20
5.23121955699986
30
0
41
1
10
39.8434279360072
20
5.23045925786852
30
0
0
SPLINE
5
C8
100
AcDbEntity
8
1
62
256
6
ByLayer
370
18
48
1
60
0
100
AcDbSpline
70
4
71
3
72
14
73
10
40
0
40
0
40
0
40
0
40
0.012757213765137
40
0.012757213765137
40
0.0886989665524355
40
0.0886989665524355
40
0.392465977701624
40
0.392465977701624
40
1
40
1
40
1
40
1
41
1
10
10.4699441754877
20
-4.95795255884406
30
1E-16
41
1
10
10.4403418620342
20
-4.96251496013684
30
1E-16
41
1
10
10.4107469972496
20
-4.96701576457841
30
1E-16
41
1
10
10.205059734012
20
-4.99787472657988
30
1E-16
41
1
10
10.0292333542404
20
-5.02210910190757
30
1E-16
41
1
10
9.15125584566334
20
-5.13232044004866
30
0
41
1
10
8.4525787319516
20
-5.18541202015399
30
0
41
1
10
6.35939383078068
20
-5.23901424604773
30
0
41
1
10
4.96739398879441
20
-5.1336188173332
30
1E-16
41
1
10
3.55681968660204
20
-4.88918202541905
30
1E-16
0
SPLINE
5
C9
100
AcDbEntity
8
1
62
256
6
ByLayer
370
18
48
1
60
0
100
AcDbSpline
70
4
71
3
72
8
73
4
40
0
40
0
40
0
40
0
40
1
40
1
40
1
40
1
41
1
10
71.1759008129895
20
-5.03305399938688
30
0
41
1
10
71.1732254900197
20
-5.0348548000583
30
0
41
1
10
71.1705502042436
20
-5.03665543299891
30
0
41
1
10
71.1678749556709
20
-5.0384558979587
30
0
0
SPLINE
5
CA
100
AcDbEntity
8
1
62
256
6
ByLayer
370
18
48
1
60
0
100
AcDbSpline
70
4
71
3
72
10
73
6
40
0
40
0
40
0
40
0
40
0.5
40
0.5
40
1
40
1
40
1
40
1
41
1
10
3.55681968660207
20
-4.88918202541907
30
1E-16
41
1
10
3.54019577112589
20
-4.88630128630328
30
1E-16
41
1
10
3.52622912365817
20
-4.88184237335781
30
1E-16
41
1
10
3.50693183543359
20
-4.87087062272093
30
1E-16
41
1
10
3.50164460104875
20
-4.86434615149844
30
1E-16
41
1
10
3.50164460104872
20
-4.8576425260311
30
1E-16
0
SPLINE
5
CB
100
AcDbEntity
8
1
62
256
6
ByLayer
370
18
48
1
60
0
100
AcDbSpline
70
4
71
3
72
8
73
4
40
0
40
0
40
0
40
0
40
1
40
1
40
1
40
1
41
1
10
71.1759008129896
20
5.03305399938688
30
0
41
1
10
71.1732254899993
20
5.03485480007205
30
0
41
1
10
71.1705502042027
20
5.03665543302645
30
0
41
1
10
71.1678749556095
20
5.03845589800002
30
0
0
SPLINE
5
CC
100
AcDbEntity
8
1
62
256
6
ByLayer
370
18
48
1
60
0
100
AcDbSpline
70
4
71
3
72
8
73
4
40
0
40
0
40
0
40
0
40
1
40
1
40
1
40
1
41
1
10
3.64518131079683
20
0.64278403695306
30
0
41
1
10
3.63177340579739
20
0.649204203308528
30
0
41
1
10
3.61723563492015
20
0.652547822267593
30
0
41
1
10
3.60234264247748
20
0.652638774223306
30
0
0
SPLINE
5
CD
100
AcDbEntity
8
1
62
256
6
ByLayer
370
18
48
1
60
0
100
AcDbSpline
70
2053
71
3
72
64
73
60
40
0
40
0
40
0
40
0
40
0.0625000000000003
40
0.0625000000000003
40
0.125000000000001
40
0.125000000000001
40
0.187500000000001
40
0.187500000000001
40
0.218750000000001
40
0.218750000000001
40
0.250000000000001
40
0.250000000000001
40
0.281250000000001
40
0.281250000000001
40
0.312500000000001
40
0.312500000000001
40
0.343750000000001
40
0.343750000000001
40
0.375000000000001
40
0.375000000000001
40
0.406250000000002
40
0.406250000000002
40
0.437500000000002
40
0.437500000000002
40
0.468750000000002
40
0.468750000000002
40
0.500000000000002
40
0.500000000000002
40
0.531250000000002
40
0.531250000000002
40
0.562500000000002
40
0.562500000000002
40
0.593750000000002
40
0.593750000000002
40
0.625000000000002
40
0.625000000000002
40
0.656250000000002
40
0.656250000000002
40
0.687500000000002
40
0.687500000000002
40
0.718750000000002
40
0.718750000000002
40
0.750000000000002
40
0.750000000000002
40
0.781250000000002
40
0.781250000000002
40
0.812500000000002
40
0.812500000000002
40
0.828125000000002
40
0.828125000000002
40
0.843750000000002
40
0.843750000000002
40
0.875000000000002
40
0.875000000000002
40
0.9375
40
0.9375
40
0.96875
40
0.96875
40
1
40
1
40
1
40
1
41
1
10
71.4614606791613
20
-2.49968692789299
30
2E-16
41
1
10
71.4216274882067
20
-2.5529572818273
30
2E-16
41
1
10
71.3845856704198
20
-2.58710948327973
30
2E-16
41
1
10
71.3141684775886
20
-2.61827835597717
30
2E-16
41
1
10
71.2824857987189
20
-2.61441248675018
30
2E-16
41
1
10
71.2241331729518
20
-2.5674299173107
30
2E-16
41
1
10
71.1987422163429
20
-2.52538814103883
30
2E-16
41
1
10
71.1654595300029
20
-2.43382881258827
30
1E-16
41
1
10
71.1554932918966
20
-2.39931524211238
30
1E-16
41
1
10
71.1377219448286
20
-2.32230645326001
30
1E-16
41
1
10
71.1298718870727
20
-2.27951837678745
30
1E-16
41
1
10
71.1168361156492
20
-2.18632821741142
30
1E-16
41
1
10
71.1117794829337
20
-2.13701415011005
30
1E-16
41
1
10
71.1049006909035
20
-2.03280852171798
30
1E-16
41
1
10
71.1030829877829
20
-1.97711524287968
30
1E-16
41
1
10
71.103604196594
20
-1.86348502558269
30
1E-16
41
1
10
71.1058818120629
20
-1.80598784889221
30
1E-16
41
1
10
71.1151846720012
20
-1.68959177876394
30
1E-16
41
1
10
71.1223396576407
20
-1.63044175588166
30
1E-16
41
1
10
71.1413433808408
20
-1.51785238361478
30
1E-16
41
1
10
71.1533963697429
20
-1.46294041397851
30
1E-16
41
1
10
71.1821560843002
20
-1.35991236210015
30
1E-16
41
1
10
71.1985662430595
20
-1.31259028750438
30
1E-16
41
1
10
71.2353491262115
20
-1.22574689049694
30
1E-16
41
1
10
71.2555113850195
20
-1.18688509754492
30
1E-16
41
1
10
71.2978318981234
20
-1.11945010432956
30
1E-16
41
1
10
71.3203701927001
20
-1.09030463543684
30
1E-16
41
1
10
71.3661325790488
20
-1.04235392780424
30
1E-16
41
1
10
71.3894274416009
20
-1.02332865493076
30
1E-16
41
1
10
71.4365735378618
20
-0.994267340139942
30
1E-16
41
1
10
71.460271934124
20
-0.984396963103961
30
1E-16
41
1
10
71.5065962951852
20
-0.973581954663558
30
1E-16
41
1
10
71.5293872054971
20
-0.972535256612815
30
1E-16
41
1
10
71.5739606460384
20
-0.979039273162641
30
1E-16
41
1
10
71.5954845403987
20
-0.986601878285967
30
1E-16
41
1
10
71.6360472913457
20
-1.009888693287
30
1E-16
41
1
10
71.6552068159192
20
-1.02562455754278
30
1E-16
41
1
10
71.6908846996561
20
-1.06583259654471
30
1E-16
41
1
10
71.7073996587151
20
-1.09045171449202
30
1E-16
41
1
10
71.7361095253143
20
-1.14752565458218
30
1E-16
41
1
10
71.7484809948913
20
-1.18012003001888
30
1E-16
41
1
10
71.768610606995
20
-1.2545737600324
30
1E-16
41
1
10
71.7762143760602
20
-1.29617498315906
30
1E-16
41
1
10
71.785545859777
20
-1.38618369495867
30
1E-16
41
1
10
71.7873477013706
20
-1.43566372903246
30
1E-16
41
1
10
71.7846130435717
20
-1.53963014051087
30
1E-16
41
1
10
71.7801840686681
20
-1.59367617687417
30
1E-16
41
1
10
71.769008245112
20
-1.67804900954567
30
1E-16
41
1
10
71.7644807817976
20
-1.70692772633879
30
1E-16
41
1
10
71.7541689681688
20
-1.76426510215765
30
1E-16
41
1
10
71.7483773392651
20
-1.79285006741364
30
1E-16
41
1
10
71.7292417593504
20
-1.8783816250413
30
-1E-16
41
1
10
71.7139148597313
20
-1.93582549381389
30
-1E-16
41
1
10
71.6635871533423
20
-2.10062090579277
30
-1E-16
41
1
10
71.6238133381936
20
-2.20251324922077
30
-1E-16
41
1
10
71.5630494933211
20
-2.33188328395573
30
-1E-16
41
1
10
71.5422954219458
20
-2.37172906399053
30
-1E-16
41
1
10
71.5015682935459
20
-2.44208223369961
30
1E-16
41
1
10
71.4813772746386
20
-2.47305175092583
30
2E-16
41
1
10
71.4614606791613
20
-2.49968692789299
30
2E-16
0
SPLINE
5
CE
100
AcDbEntity
8
1
62
256
6
ByLayer
370
18
48
1
60
0
100
AcDbSpline
70
4
71
3
72
36
73
32
40
0
40
0
40
0
40
0
40
0.34969529709426
40
0.34969529709426
40
0.580528148520386
40
0.580528148520386
40
0.729361418538607
40
0.729361418538607
40
0.82533041135225
40
0.82533041135225
40
0.887211170208299
40
0.887211170208299
40
0.927153563121912
40
0.927153563121912
40
0.952967853041497
40
0.952967853041497
40
0.969711106695798
40
0.969711106695798
40
0.980640915735559
40
0.980640915735559
40
0.987608112538814
40
0.987608112538814
40
0.991979135912278
40
0.991979135912278
40
0.99639080070444
40
0.99639080070444
40
0.997655555194309
40
0.997655555194309
40
0.998706037929943
40
0.998706037929943
40
1
40
1
40
1
40
1
41
1
10
70.850504817442
20
5.24886495219974
30
0
41
1
10
70.8874698480701
20
5.22470478050474
30
0
41
1
10
70.9244856950488
20
5.20038480218781
30
0
41
1
10
70.9859905464017
20
5.15977431914953
30
0
41
1
10
71.0104599221366
20
5.1435650883773
30
0
41
1
10
71.0507138952102
20
5.11681509923369
30
0
41
1
10
71.0664933906654
20
5.10630785534994
30
0
41
1
10
71.0924580325986
20
5.088983163027
30
0
41
1
10
71.1026410419988
20
5.08217963393923
30
0
41
1
10
71.1194067056664
20
5.07096323153738
30
0
41
1
10
71.125983475102
20
5.06655956329442
30
0
41
1
10
71.1368147823107
20
5.05930106386626
30
0
41
1
10
71.1410659991911
20
5.05645061290974
30
0
41
1
10
71.148069274773
20
5.05175240285828
30
0
41
1
10
71.1508219556678
20
5.04990507650467
30
0
41
1
10
71.1553484149978
20
5.0468665405086
30
0
41
1
10
71.1571258677987
20
5.04567316167643
30
0
41
1
10
71.1600494241025
20
5.04371002566424
30
0
41
1
10
71.1612004093664
20
5.04293707925339
30
0
41
1
10
71.1631072132994
20
5.04165609148359
30
0
41
1
10
71.1638554341076
20
5.04115332035178
30
0
41
1
10
71.1650825690544
20
5.04032855480094
30
0
41
1
10
71.1655573577911
20
5.04000941456133
30
0
41
1
10
71.1664919566701
20
5.03938137040174
30
0
41
1
10
71.1669696040262
20
5.03906041713356
30
0
41
1
10
71.1674762570661
20
5.0387207038417
30
0
41
1
10
71.1675831148038
20
5.03864912178781
30
0
41
1
10
71.1677369290542
20
5.0385463443117
30
0
41
1
10
71.1677891613102
20
5.03851159110445
30
0
41
1
10
71.1678581289075
20
5.03846611301884
30
0
41
1
10
71.1678666412929
20
5.0384608634202
30
0
41
1
10
71.1678752278091
20
5.03845573654655
30
0
0
SPLINE
5
CF
100
AcDbEntity
8
1
62
256
6
ByLayer
370
18
48
1
60
0
100
AcDbSpline
70
4
71
3
72
10
73
6
40
0
40
0
40
0
40
0
40
0.5
40
0.5
40
1
40
1
40
1
40
1
41
1
10
71.1759008129896
20
-5.03305399938682
30
0
41
1
10
71.1591711731197
20
-5.04399556521329
30
0
41
1
10
71.1449923582313
20
-5.04853063989148
30
0
41
1
10
71.1206449191692
20
-5.04501595552713
30
0
41
1
10
71.1106338063718
20
-5.03701586290777
30
0
41
1
10
71.1020800242279
20
-5.02328842693697
30
0
0
SPLINE
5
D0
100
AcDbEntity
8
1
62
256
6
ByLayer
370
18
48
1
60
0
100
AcDbSpline
70
4
71
3
72
42
73
38
40
0
40
0
40
0
40
0
40
0.0239545979586085
40
0.0239545979586085
40
0.0868273831128089
40
0.0868273831128089
40
0.149700168267009
40
0.149700168267009
40
0.212572953421209
40
0.212572953421209
40
0.275445738575409
40
0.275445738575409
40
0.33831852372961
40
0.33831852372961
40
0.369754916306708
40
0.369754916306708
40
0.401191308883807
40
0.401191308883807
40
0.464064094038004
40
0.464064094038004
40
0.5269368791922
40
0.5269368791922
40
0.589809664346396
40
0.589809664346396
40
0.652682449500592
40
0.652682449500592
40
0.715555234654788
40
0.715555234654788
40
0.778428019808984
40
0.778428019808984
40
0.84130080496318
40
0.84130080496318
40
0.904173590117377
40
0.904173590117377
40
0.967046375271573
40
0.967046375271573
40
1
40
1
40
1
40
1
41
1
10
21.0195609609987
20
4.96625653516153
30
0
41
1
10
21.1520149195643
20
4.96803174910843
30
0
41
1
10
21.2843796284651
20
4.96862217477775
30
0
41
1
10
21.7638448975822
20
4.96668897251308
30
0
41
1
10
22.1103896067173
20
4.95771168885238
30
0
41
1
10
22.8036489865713
20
4.92171246661727
30
0
41
1
10
23.1502956013788
20
4.89509330468456
30
0
41
1
10
23.8436061794355
20
4.82647607269939
30
-1E-16
41
1
10
24.1902064718121
20
4.78462232349221
30
-1E-16
41
1
10
24.884990065949
20
4.68352982508225
30
-1E-16
41
1
10
25.2330360301565
20
4.62472654511959
30
-1E-16
41
1
10
25.9303285928119
20
4.49214083775206
30
2E-16
41
1
10
26.2794951243567
20
4.41847238370923
30
2E-16
41
1
10
26.8055942025862
20
4.29549632126708
30
2E-16
41
1
10
26.9814799832352
20
4.25248655225175
30
2E-16
41
1
10
27.3324320473378
20
4.16311246168934
30
2E-16
41
1
10
27.5076071720735
20
4.11671987453391
30
2E-16
41
1
10
28.0322832690018
20
3.97273337622482
30
2E-16
41
1
10
28.3808993302383
20
3.87039304142886
30
2E-16
41
1
10
29.077183414736
20
3.65269617020289
30
2E-16
41
1
10
29.424715464779
20
3.53768468552892
30
-2E-16
41
1
10
30.1187454200471
20
3.29668414734294
30
-2E-16
41
1
10
30.4651915751064
20
3.17069932644208
30
-2E-16
41
1
10
31.1584958077117
20
2.90834787197878
30
-2E-16
41
1
10
31.5051521162723
20
2.77211934729638
30
-2E-16
41
1
10
32.1987154257382
20
2.49062111930073
30
-2E-16
41
1
10
32.5455719746248
20
2.34531914099642
30
-1E-16
41
1
10
33.2410241387639
20
2.04695012273794
30
-1E-16
41
1
10
33.5894015704823
20
1.89386055040035
30
-1E-16
41
1
10
34.2875268503871
20
1.58072014946458
30
-1E-16
41
1
10
34.6374069941103
20
1.42072794644656
30
-1E-16
41
1
10
35.3400861478067
20
1.09555318196183
30
-1E-16
41
1
10
35.6914129093063
20
0.931009182666173
30
-1E-16
41
1
10
36.3932323598659
20
0.598662882603321
30
0
41
1
10
36.7440746409185
20
0.431150106875094
30
0
41
1
10
37.2795515252983
20
0.175424387812541
30
0
41
1
10
37.4636650146414
20
0.0873983304234116
30
0
41
1
10
37.647530875311
20
-0.0005799937729307
30
0
0
SPLINE
5
D1
100
AcDbEntity
8
1
62
256
6
ByLayer
370
18
48
1
60
0
100
AcDbSpline
70
4
71
3
72
8
73
4
40
0
40
0
40
0
40
0
40
1
40
1
40
1
40
1
41
1
10
72.5392572372556
20
1.61930686932911
30
0
41
1
10
72.6954009533123
20
1.17764887497097
30
0
41
1
10
72.8473887827185
20
0.73450369680495
30
0
41
1
10
72.9951586285258
20
0.289849113441619
30
0
0
SPLINE
5
D2
100
AcDbEntity
8
1
62
256
6
ByLayer
370
18
48
1
60
0
100
AcDbSpline
70
4
71
3
72
8
73
4
40
0
40
0
40
0
40
0
40
1
40
1
40
1
40
1
41
1
10
72.9951586285314
20
0.289849113439914
30
0
41
1
10
72.9724816031191
20
0.214264831334987
30
0
41
1
10
72.9496913878239
20
0.138715584328679
30
0
41
1
10
72.9267884032133
20
0.0632012422449009
30
0
0
SPLINE
5
D3
100
AcDbEntity
8
1
62
256
6
ByLayer
370
18
48
1
60
0
100
AcDbSpline
70
4
71
3
72
26
73
22
40
0
40
0
40
0
40
0
40
0.0352933072008636
40
0.0352933072008636
40
0.0705866144017277
40
0.0705866144017277
40
0.141173228803456
40
0.141173228803456
40
0.282346457606913
40
0.282346457606913
40
0.564692915213826
40
0.564692915213826
40
0.599986222414689
40
0.599986222414689
40
0.635279529615552
40
0.635279529615552
40
0.705866144017279
40
0.705866144017279
40
0.847039372820729
40
0.847039372820729
40
1
40
1
40
1
40
1
41
1
10
71.1260820790582
20
-4.95322551786862
30
0
41
1
10
70.9489339862278
20
-4.94155540536832
30
0
41
1
10
70.7717950736082
20
-4.92831815640611
30
0
41
1
10
70.4174757937776
20
-4.89695182809913
30
1E-16
41
1
10
70.2402934301622
20
-4.87911062645708
30
1E-16
41
1
10
69.7085652285531
20
-4.81917637055892
30
1E-16
41
1
10
69.3551999565264
20
-4.77082347426693
30
1E-16
41
1
10
68.298171791867
20
-4.6017934710523
30
1E-16
41
1
10
67.5971798829433
20
-4.45708773958668
30
-2E-16
41
1
10
65.4981478703889
20
-3.93731127276621
30
-2E-16
41
1
10
64.1030990856198
20
-3.47481542172804
30
2E-16
41
1
10
62.5153555234874
20
-2.85613965618444
30
2E-16
41
1
10
62.3386769382824
20
-2.78603829787826
30
2E-16
41
1
10
61.9847070806474
20
-2.64323578739115
30
2E-16
41
1
10
61.8072805073795
20
-2.57047538545052
30
2E-16
41
1
10
61.2764435659013
20
-2.34952110826637
30
1E-16
41
1
10
60.9237593510587
20
-2.19835900516534
30
1E-16
41
1
10
59.8682436375582
20
-1.73551433064731
30
1E-16
41
1
10
59.167916784319
20
-1.41451758073299
30
1E-16
41
1
10
57.7102308639178
20
-0.731521055404443
30
0
41
1
10
56.95313247151
20
-0.368023867834097
30
0
41
1
10
56.1935785096426
20
-0.003444836505281
30
0
0
SPLINE
5
D4
100
AcDbEntity
8
1
62
256
6
ByLayer
370
18
48
1
60
0
100
AcDbSpline
70
4
71
3
72
8
73
4
40
0
40
0
40
0
40
0
40
1
40
1
40
1
40
1
41
1
10
7.34952500504065
20
-4.95735405155583
30
0
41
1
10
6.10239866001672
20
-4.96462882086826
30
0
41
1
10
4.85678528455622
20
-4.86505141347459
30
1E-16
41
1
10
3.59747275576854
20
-4.65885567938406
30
1E-16
0
SPLINE
5
D5
100
AcDbEntity
8
1
62
256
6
ByLayer
370
18
48
1
60
0
100
AcDbSpline
70
4
71
3
72
12
73
8
40
0
40
0
40
0
40
0
40
0.5
40
0.5
40
0.75
40
0.75
40
1
40
1
40
1
40
1
41
1
10
3.50164460104878
20
0.565047974644159
30
0
41
1
10
3.50164460104895
20
0.582735967463009
30
0
41
1
10
3.50935749984731
20
0.600496038839879
30
0
41
1
10
3.53468689555962
20
0.622678384254328
30
0
41
1
10
3.54544905612846
20
0.629223910944006
30
0
41
1
10
3.57151273296458
20
0.63872123066966
30
0
41
1
10
3.58669971779125
20
0.641510214954991
30
0
41
1
10
3.60234264247748
20
0.641427122747302
30
0
0
SPLINE
5
D6
100
AcDbEntity
8
1
62
256
6
ByLayer
370
18
48
1
60
0
100
AcDbSpline
70
4
71
3
72
8
73
4
40
0
40
0
40
0
40
0
40
1
40
1
40
1
40
1
41
1
10
72.1195881207774
20
-0.552011442524758
30
0
41
1
10
71.9483324404158
20
-0.0948639489317316
30
0
41
1
10
71.7337424283081
20
0.39068248755305
30
0
41
1
10
71.4767039064104
20
0.904047347832545
30
-1E-16
0
SPLINE
5
D7
100
AcDbEntity
8
1
62
256
6
ByLayer
370
18
48
1
60
0
100
AcDbSpline
70
4
71
3
72
8
73
4
40
0
40
0
40
0
40
0
40
1
40
1
40
1
40
1
41
1
10
3.60179038405235
20
-4.6463856452217
30
1E-16
41
1
10
3.58684530666739
20
-4.64417449655258
30
1E-16
41
1
10
3.57223737172416
20
-4.64507388895416
30
1E-16
41
1
10
3.55854920535793
20
-4.64918013381197
30
1E-16
0
SPLINE
5
D8
100
AcDbEntity
8
1
62
256
6
ByLayer
370
18
48
1
60
0
100
AcDbSpline
70
4
71
3
72
8
73
4
40
0
40
0
40
0
40
0
40
1
40
1
40
1
40
1
41
1
10
3.64518131079694
20
0.642784036953003
30
0
41
1
10
4.10882927217239
20
0.420861791020741
30
0
41
1
10
4.57105204247767
20
0.199199236423652
30
0
41
1
10
5.03245379091695
20
-0.0211590452473445
30
0
0
SPLINE
5
D9
100
AcDbEntity
8
1
62
256
6
ByLayer
370
18
48
1
60
0
100
AcDbSpline
70
4
71
3
72
38
73
34
40
0
40
0
40
0
40
0
40
0.0104764622332846
40
0.0104764622332846
40
0.0732078299221617
40
0.0732078299221617
40
0.135939197611038
40
0.135939197611038
40
0.198670565299915
40
0.198670565299915
40
0.261401932988792
40
0.261401932988792
40
0.386864668366546
40
0.386864668366546
40
0.449596036055423
40
0.449596036055423
40
0.480961719899863
40
0.480961719899863
40
0.512327403744302
40
0.512327403744302
40
0.637790139122058
40
0.637790139122058
40
0.700521506810937
40
0.700521506810937
40
0.763252874499815
40
0.763252874499815
40
0.825984242188694
40
0.825984242188694
40
0.888715609877573
40
0.888715609877573
40
0.951446977566452
40
0.951446977566452
40
1
40
1
40
1
40
1
41
1
10
53.630423061881
20
4.98364852034805
30
0
41
1
10
53.6890674074311
20
4.9845447442768
30
0
41
1
10
53.7477495527226
20
4.98519452946326
30
0
41
1
10
54.1580778450259
20
4.9880265960474
30
0
41
1
10
54.5084541895061
20
4.98217854554247
30
0
41
1
10
55.2071547493989
20
4.95427218901563
30
0
41
1
10
55.5556847522369
20
4.93145450829104
30
0
41
1
10
56.2513441034795
20
4.86994954432984
30
-1E-16
41
1
10
56.5983399214951
20
4.83175644577216
30
-1E-16
41
1
10
57.2916039126681
20
4.73963073027065
30
-1E-16
41
1
10
57.6381661731884
20
4.68490217099313
30
-1E-16
41
1
10
58.6783312299119
20
4.4968525212017
30
2E-16
41
1
10
59.3724650371558
20
4.33992811614431
30
2E-16
41
1
10
60.4162885084346
20
4.06318167329874
30
2E-16
41
1
10
60.7645579376346
20
3.96416447545718
30
2E-16
41
1
10
61.2885868445969
20
3.8052058643957
30
2E-16
41
1
10
61.463556041795
20
3.75045187033757
30
2E-16
41
1
10
61.8141999214276
20
3.6374397483367
30
2E-16
41
1
10
61.9900785124228
20
3.5791241585957
30
-2E-16
41
1
10
62.8679521169074
20
3.28044626737758
30
-2E-16
41
1
10
63.565486956117
20
3.01910645171108
30
-2E-16
41
1
10
64.6083011538809
20
2.60084195364337
30
-2E-16
41
1
10
64.9552542005898
20
2.45703383085683
30
-2E-16
41
1
10
65.648707530507
20
2.16190659844875
30
-1E-16
41
1
10
65.9952629593771
20
2.01058748589486
30
-1E-16
41
1
10
66.6884635869715
20
1.70158366880804
30
-1E-16
41
1
10
67.035005377246
20
1.54385825832512
30
-1E-16
41
1
10
67.7291860388236
20
1.2235492557962
30
-1E-16
41
1
10
68.0768010477621
20
1.06097575283184
30
-1E-16
41
1
10
68.7734149052854
20
0.732092343945737
30
0
41
1
10
69.1223908268354
20
0.565749616748462
30
0
41
1
10
69.7431210755892
20
0.268353135968681
30
0
41
1
10
70.014788347641
20
0.137697553631909
30
0
41
1
10
70.2865776334175
20
0.0068515741522504
30
0
0
SPLINE
5
DA
100
AcDbEntity
8
1
62
256
6
ByLayer
370
18
48
1
60
0
100
AcDbSpline
70
4
71
3
72
70
73
66
40
0
40
0
40
0
40
0
40
0.0028824783020633
40
0.0028824783020633
40
0.0320013389435101
40
0.0320013389435101
40
0.0611201995849569
40
0.0611201995849569
40
0.0902390602264036
40
0.0902390602264036
40
0.119357920867851
40
0.119357920867851
40
0.148476781509297
40
0.148476781509297
40
0.177595642150744
40
0.177595642150744
40
0.206714502792191
40
0.206714502792191
40
0.235833363433638
40
0.235833363433638
40
0.264952224075085
40
0.264952224075085
40
0.294071084716531
40
0.294071084716531
40
0.323189945357978
40
0.323189945357978
40
0.352308805999425
40
0.352308805999425
40
0.381427666640872
40
0.381427666640872
40
0.410546527282318
40
0.410546527282318
40
0.439665387923765
40
0.439665387923765
40
0.468784248565212
40
0.468784248565212
40
0.497903109206659
40
0.497903109206659
40
0.527021969848106
40
0.527021969848106
40
0.556140830489552
40
0.556140830489552
40
0.585259691130999
40
0.585259691130999
40
0.614378551772446
40
0.614378551772446
40
0.643497412413893
40
0.643497412413893
40
0.701735133696787
40
0.701735133696787
40
0.730853994338234
40
0.730853994338234
40
0.759972854979682
40
0.759972854979682
40
0.818210576262575
40
0.818210576262575
40
0.876448297545469
40
0.876448297545469
40
0.934686018828362
40
0.934686018828362
40
0.963804879469809
40
0.963804879469809
40
0.992923740111256
40
0.992923740111256
40
1
40
1
40
1
40
1
41
1
10
18.188950944298
20
4.98232321377853
30
-1E-16
41
1
10
18.2233643719094
20
4.98746836648468
30
-1E-16
41
1
10
18.257765790064
20
4.99252903668364
30
-1E-16
41
1
10
18.6395503462172
20
5.04776923812989
30
-1E-16
41
1
10
18.9861022200625
20
5.08944755099162
30
-1E-16
41
1
10
19.6776174246441
20
5.15582971508405
30
0
41
1
10
20.0225523689633
20
5.18049518667425
30
0
41
1
10
20.7122801737709
20
5.21251606346198
30
0
41
1
10
21.0569953965103
20
5.21993880854973
30
0
41
1
10
21.7460727719485
20
5.2176199797274
30
0
41
1
10
22.0903931146883
20
5.20781743082406
30
0
41
1
10
22.7803243557552
20
5.17108411679706
30
0
41
1
10
23.1258109847269
20
5.14418543782222
30
0
41
1
10
23.8178223355326
20
5.07313346535742
30
-1E-16
41
1
10
24.1642983748391
20
5.02889738101629
30
-1E-16
41
1
10
24.8599313281579
20
4.92369080174936
30
-1E-16
41
1
10
25.2095849562056
20
4.86253938936451
30
-1E-16
41
1
10
25.9074554192617
20
4.72383995888688
30
2E-16
41
1
10
26.2555806542126
20
4.64623775493979
30
2E-16
41
1
10
26.9521543946886
20
4.47639955803768
30
2E-16
41
1
10
27.3003730068039
20
4.38399424225895
30
2E-16
41
1
10
27.9966720768632
20
4.18415758027709
30
2E-16
41
1
10
28.3446894962919
20
4.07659463494775
30
2E-16
41
1
10
29.0425402960892
20
3.84870666859706
30
2E-16
41
1
10
29.3922593258947
20
3.72798078592646
30
2E-16
41
1
10
30.0895556215572
20
3.47434420397127
30
-2E-16
41
1
10
30.4374941793489
20
3.34118649219067
30
-2E-16
41
1
10
31.1338643086689
20
3.06517509371128
30
-2E-16
41
1
10
31.4820187231645
20
2.92191574349613
30
-2E-16
41
1
10
32.1785369742234
20
2.62528284317301
30
-2E-16
41
1
10
32.5268653463523
20
2.4718207789453
30
-2E-16
41
1
10
33.2253364676657
20
2.1575115744306
30
-1E-16
41
1
10
33.5744321490175
20
1.99663554277342
30
-1E-16
41
1
10
34.2710900784337
20
1.66843022374263
30
-1E-16
41
1
10
34.6190110087227
20
1.50124205537384
30
-1E-16
41
1
10
35.3152547108405
20
1.1630479894188
30
-1E-16
41
1
10
35.6635010532046
20
0.991905274644807
30
-1E-16
41
1
10
36.3602042694561
20
0.645412391380262
30
0
41
1
10
36.7092541521481
20
0.470301801538568
30
0
41
1
10
37.4074245904602
20
0.120127429086267
30
0
41
1
10
37.7559819672593
20
-0.0550736246529198
30
0
41
1
10
38.452142069802
20
-0.405500373291829
30
0
41
1
10
38.8000580000295
20
-0.580096991294425
30
0
41
1
10
39.496316163568
20
-0.926566079932797
30
1E-16
41
1
10
39.844617719216
20
-1.09852113713637
30
1E-16
41
1
10
40.5417516910032
20
-1.43948526127076
30
1E-16
41
1
10
40.891204487885
20
-1.60801545591605
30
1E-16
41
1
10
41.9373311836458
20
-2.10306390284248
30
1E-16
41
1
10
42.6324292069322
20
-2.42107102721121
30
1E-16
41
1
10
43.6771153238359
20
-2.87017722569996
30
2E-16
41
1
10
44.0255804873852
20
-3.01542711375271
30
2E-16
41
1
10
44.7232798086773
20
-3.2964125827277
30
2E-16
41
1
10
45.0720766520662
20
-3.43123239235439
30
2E-16
41
1
10
46.1141364152482
20
-3.81588463842968
30
-2E-16
41
1
10
46.8043399922217
20
-4.04770856470759
30
-2E-16
41
1
10
48.1831289286841
20
-4.45335118830937
30
-2E-16
41
1
10
48.8706869664864
20
-4.62836824843114
30
-2E-16
41
1
10
50.2499152127535
20
-4.91488193997176
30
1E-16
41
1
10
50.9403534883016
20
-5.02742047358117
30
1E-16
41
1
10
51.9830603365469
20
-5.14510674253856
30
0
41
1
10
52.3322459502886
20
-5.17599460268474
30
0
41
1
10
53.0293449229069
20
-5.22012249984945
30
0
41
1
10
53.377576219664
20
-5.23328095506241
30
0
41
1
10
53.8103398137885
20
-5.23872900641862
30
0
41
1
10
53.8949292500387
20
-5.23927473078649
30
0
41
1
10
53.9795074820779
20
-5.23930139694707
30
0
0
SPLINE
5
DB
100
AcDbEntity
8
1
62
256
6
ByLayer
370
18
48
1
60
0
100
AcDbSpline
70
4
71
3
72
8
73
4
40
0
40
0
40
0
40
0
40
1
40
1
40
1
40
1
41
1
10
70.8315537788872
20
-5.1813983885547
30
0
41
1
10
70.9215124673781
20
-5.12964243075066
30
0
41
1
10
71.0116762987564
20
-5.07692923828753
30
0
41
1
10
71.1020800242279
20
-5.02328842693694
30
0
0
SPLINE
5
DC
100
AcDbEntity
8
1
62
256
6
ByLayer
370
18
48
1
60
0
100
AcDbSpline
70
4
71
3
72
8
73
4
40
0
40
0
40
0
40
0
40
1
40
1
40
1
40
1
41
1
10
72.5392572372556
20
1.61930686932911
30
0
41
1
10
72.2527136503044
20
1.54780831644499
30
0
41
1
10
71.959689640778
20
1.49527761403763
30
0
41
1
10
71.6673902541112
20
1.45335826970719
30
0
0
SPLINE
5
DD
100
AcDbEntity
8
1
62
256
6
ByLayer
370
18
48
1
60
0
100
AcDbSpline
70
4
71
3
72
18
73
14
40
0
40
0
40
0
40
0
40
0.250791671142108
40
0.250791671142108
40
0.376187506713162
40
0.376187506713162
40
0.501583342284217
40
0.501583342284217
40
0.62697917785527
40
0.62697917785527
40
0.752375013426325
40
0.752375013426325
40
1
40
1
40
1
40
1
41
1
10
71.6673902541112
20
1.45335826970719
30
0
41
1
10
71.5844955339011
20
1.44147014240289
30
0
41
1
10
71.5041630730873
20
1.42281636539769
30
0
41
1
10
71.3876335461084
20
1.38556977380512
30
0
41
1
10
71.3491699525988
20
1.37148891135396
30
0
41
1
10
71.275379009199
20
1.34120117067312
30
0
41
1
10
71.2399981814841
20
1.3250123358884
30
0
41
1
10
71.1721049133649
20
1.29105505485757
30
0
41
1
10
71.139592297822
20
1.27328538359782
30
0
41
1
10
71.0773661718881
20
1.23661690189277
30
0
41
1
10
71.0477236644958
20
1.21773812003539
30
0
41
1
10
70.9660853972279
20
1.16228618579765
30
0
41
1
10
70.9191477729644
20
1.12569569060977
30
0
41
1
10
70.8796692990151
20
1.09145837158866
30
0
0
SPLINE
5
DE
100
AcDbEntity
8
1
62
256
6
ByLayer
370
18
48
1
60
0
100
AcDbSpline
70
4
71
3
72
38
73
34
40
0
40
0
40
0
40
0
40
0.118098612578683
40
0.118098612578683
40
0.177147918868024
40
0.177147918868024
40
0.236197225157365
40
0.236197225157365
40
0.295246531446706
40
0.295246531446706
40
0.354295837736047
40
0.354295837736047
40
0.413345144025388
40
0.413345144025388
40
0.472394450314729
40
0.472394450314729
40
0.53144375660407
40
0.53144375660407
40
0.590493062893411
40
0.590493062893411
40
0.649542369182752
40
0.649542369182752
40
0.708591675472093
40
0.708591675472093
40
0.767640981761434
40
0.767640981761434
40
0.826690288050775
40
0.826690288050775
40
0.885739594340116
40
0.885739594340116
40
0.944788900629457
40
0.944788900629457
40
1
40
1
40
1
40
1
41
1
10
3.64694887853977
20
0.674518082089463
30
0
41
1
10
4.34381200653303
20
0.323420820018953
30
0
41
1
10
5.04130276824762
20
-0.0277216366425819
30
0
41
1
10
6.09031311647948
20
-0.5507823730685
30
0
41
1
10
6.43952713818879
20
-0.724043060493528
30
0
41
1
10
7.13695031339336
20
-1.0677712702882
30
1E-16
41
1
10
7.48503199715543
20
-1.23861605829205
30
1E-16
41
1
10
8.18130182956617
20
-1.575553372174
30
1E-16
41
1
10
8.52975762738561
20
-1.74114129864876
30
1E-16
41
1
10
9.2272161292164
20
-2.06674442568391
30
1E-16
41
1
10
9.57660837405641
20
-2.22698658570783
30
1E-16
41
1
10
10.27492806425
20
-2.5385884691307
30
2E-16
41
1
10
10.623699229946
20
-2.68982081504657
30
2E-16
41
1
10
11.3205403281575
20
-2.98309270555674
30
2E-16
41
1
10
11.6685633918256
20
-3.12518638822607
30
2E-16
41
1
10
12.3651323183599
20
-3.39812454048342
30
2E-16
41
1
10
12.7137293790384
20
-3.52891209625997
30
2E-16
41
1
10
13.4116998019737
20
-3.77885817973328
30
-2E-16
41
1
10
13.7612408623539
20
-3.8981201384739
30
-2E-16
41
1
10
14.4588291566961
20
-4.12220984075927
30
-2E-16
41
1
10
14.8073296281746
20
-4.2271497661346
30
-2E-16
41
1
10
15.503904947284
20
-4.42271659747544
30
-2E-16
41
1
10
15.8519259838593
20
-4.51337274202368
30
-2E-16
41
1
10
16.5486884819857
20
-4.67908094643113
30
-2E-16
41
1
10
16.8974821584573
20
-4.75411423499946
30
-2E-16
41
1
10
17.5960689977967
20
-4.88830320425296
30
1E-16
41
1
10
17.9447587123231
20
-4.94724021148144
30
1E-16
41
1
10
18.6395503462172
20
-5.04776923812989
30
1E-16
41
1
10
18.9861022200625
20
-5.08944755099165
30
1E-16
41
1
10
19.6776174246441
20
-5.15582971508405
30
0
41
1
10
20.0225523689633
20
-5.18049518667425
30
0
41
1
10
20.6898640083758
20
-5.21147538442139
30
0
41
1
10
21.0121817659142
20
-5.21893756814077
30
0
41
1
10
21.3343467750068
20
-5.21889669956184
30
0
0
SPLINE
5
DF
100
AcDbEntity
8
1
62
256
6
ByLayer
370
18
48
1
60
0
100
AcDbSpline
70
4
71
3
72
34
73
30
40
0
40
0
40
0
40
0
40
0.044789661869527
40
0.044789661869527
40
0.097856902876775
40
0.097856902876775
40
0.150924143884023
40
0.150924143884023
40
0.25705862589852
40
0.25705862589852
40
0.310125866905768
40
0.310125866905768
40
0.363193107913017
40
0.363193107913017
40
0.469327589927515
40
0.469327589927515
40
0.522394830934764
40
0.522394830934764
40
0.575462071942012
40
0.575462071942012
40
0.628529312949261
40
0.628529312949261
40
0.681596553956509
40
0.681596553956509
40
0.787731035971006
40
0.787731035971006
40
0.893865517985503
40
0.893865517985503
40
1
40
1
40
1
40
1
41
1
10
50.7576485379983
20
4.98859289008107
30
-1E-16
41
1
10
51.0496200359767
20
5.0335889681875
30
-1E-16
41
1
10
51.3421372306849
20
5.07276824284961
30
0
41
1
10
51.9830603365469
20
5.14510674253856
30
0
41
1
10
52.3322459502886
20
5.17599460268474
30
0
41
1
10
53.029344922907
20
5.22012249984945
30
0
41
1
10
53.377576219664
20
5.23328095506241
30
0
41
1
10
54.422047071266
20
5.24642977561211
30
0
41
1
10
55.1171954651802
20
5.22001595773537
30
0
41
1
10
56.163189414274
20
5.12790044623151
30
-1E-16
41
1
10
56.5123148598374
20
5.08831157822033
30
-1E-16
41
1
10
57.2085209867502
20
4.99198183329477
30
-1E-16
41
1
10
57.5564561177164
20
4.93547448861804
30
-1E-16
41
1
10
58.6005184174755
20
4.7419102186922
30
2E-16
41
1
10
59.2967424642715
20
4.58082682738532
30
2E-16
41
1
10
60.3434503378035
20
4.29235670625368
30
2E-16
41
1
10
60.6918638819137
20
4.18847416537022
30
2E-16
41
1
10
61.3877168789858
20
3.96738425409814
30
2E-16
41
1
10
61.7355084361595
20
3.85029652065953
30
2E-16
41
1
10
62.4313009642426
20
3.60382929169009
30
-2E-16
41
1
10
62.779226836682
20
3.47433950882132
30
-2E-16
41
1
10
63.475819918178
20
3.20381175002424
30
-2E-16
41
1
10
63.825077376469
20
3.06260951794843
30
-2E-16
41
1
10
64.8707562500437
20
2.62463316685862
30
-2E-16
41
1
10
65.5629459608257
20
2.3142570292018
30
-1E-16
41
1
10
66.9441886801177
20
1.66950288842676
30
-1E-16
41
1
10
67.6329057867355
20
1.33449840995703
30
-1E-16
41
1
10
69.0127821962347
20
0.651465229841961
30
0
41
1
10
69.7033847791294
20
0.302341429161317
30
0
41
1
10
70.3974679668714
20
-0.0489002936195959
30
0
0
SPLINE
5
E0
100
AcDbEntity
8
1
62
256
6
ByLayer
370
18
48
1
60
0
100
AcDbSpline
70
4
71
3
72
10
73
6
40
0
40
0
40
0
40
0
40
0.5
40
0.5
40
1
40
1
40
1
40
1
41
1
10
70.3974679668714
20
-0.0489002936195959
30
0
41
1
10
70.3909277007089
20
0.0744310805017108
30
0
41
1
10
70.3864431868215
20
0.199075419635136
30
0
41
1
10
70.382592440108
20
0.44713303873101
30
0
41
1
10
70.3832131674159
20
0.57002504411588
30
0
41
1
10
70.3866596587112
20
0.691787635614332
30
0
0
SPLINE
5
E1
100
AcDbEntity
8
1
62
256
6
ByLayer
370
18
48
1
60
0
100
AcDbSpline
70
4
71
3
72
18
73
14
40
0
40
0
40
0
40
0
40
0.125
40
0.125
40
0.25
40
0.25
40
0.375
40
0.375
40
0.4375
40
0.4375
40
0.5
40
0.5
40
1
40
1
40
1
40
1
41
1
10
72.5392572372556
20
-1.61930686932911
30
0
41
1
10
72.4668787195425
20
-1.73657444584987
30
0
41
1
10
72.3965528063936
20
-1.86052475985434
30
0
41
1
10
72.2604417396363
20
-2.12139340877937
30
0
41
1
10
72.1955988775982
20
-2.25648004269957
30
0
41
1
10
72.071200750416
20
-2.5357904735103
30
0
41
1
10
72.0118846875518
20
-2.67955519159659
30
0
41
1
10
71.927097830767
20
-2.89809198658546
30
0
41
1
10
71.8994186728496
20
-2.97170650417254
30
0
41
1
10
71.8453808821951
20
-3.11926448558586
30
0
41
1
10
71.8192071757214
20
-3.19309593442952
30
0
41
1
10
71.5848584446354
20
-3.85751037442822
30
0
41
1
10
71.3830143865888
20
-4.44800437464778
30
0
41
1
10
71.1759008129896
20
-5.03305399938691
30
0
0
SPLINE
5
E2
100
AcDbEntity
8
1
62
256
6
ByLayer
370
18
48
1
60
0
100
AcDbSpline
70
4
71
3
72
24
73
20
40
0
40
0
40
0
40
0
40
0.182322032932743
40
0.182322032932743
40
0.306987058683284
40
0.306987058683284
40
0.369319571558555
40
0.369319571558555
40
0.431652084433826
40
0.431652084433826
40
0.556317110184366
40
0.556317110184366
40
0.680982135934904
40
0.680982135934904
40
0.805647161685444
40
0.805647161685444
40
0.930312187435983
40
0.930312187435983
40
1
40
1
40
1
40
1
41
1
10
40.4787473006599
20
-4.96957445613106
30
0
41
1
10
39.4550735401833
20
-4.99799065631927
30
0
41
1
10
38.4287979250246
20
-4.95435036201099
30
0
41
1
10
36.6822867297123
20
-4.75615220255537
30
1E-16
41
1
10
35.9738095620511
20
-4.64212394908441
30
1E-16
41
1
10
34.9098463758022
20
-4.42342218464441
30
-2E-16
41
1
10
34.5553320686012
20
-4.34270070771689
30
-2E-16
41
1
10
33.8493325190648
20
-4.16733421311582
30
-2E-16
41
1
10
33.4973426829822
20
-4.07251636467674
30
-2E-16
41
1
10
32.4433378190239
20
-3.76816668705752
30
-2E-16
41
1
10
31.7435445698273
20
-3.53905176955698
30
2E-16
41
1
10
30.3437443411802
20
-3.0360393153079
30
2E-16
41
1
10
29.6441621060019
20
-2.76225691261251
30
2E-16
41
1
10
28.2395408720998
20
-2.17887646333111
30
1E-16
41
1
10
27.5345446359611
20
-1.86900686749502
30
1E-16
41
1
10
26.1152735367992
20
-1.22396609485989
30
1E-16
41
1
10
25.4108144523062
20
-0.89274141932782
30
1E-16
41
1
10
24.3160413174064
20
-0.372850257046622
30
0
41
1
10
23.9242868232403
20
-0.185502420266175
30
0
41
1
10
23.5328090816396
20
0.0016618737120098
30
0
0
SPLINE
5
E3
100
AcDbEntity
8
1
62
256
6
ByLayer
370
18
48
1
60
0
100
AcDbSpline
70
4
71
3
72
8
73
4
40
0
40
0
40
0
40
0
40
1
40
1
40
1
40
1
41
1
10
3.59747275576854
20
-4.65885567938403
30
1E-16
41
1
10
3.58403541025996
20
-4.65665549217221
30
1E-16
41
1
10
3.57088999588936
20
-4.65724899087508
30
1E-16
41
1
10
3.55854920535793
20
-4.66075256512246
30
1E-16
0
SPLINE
5
E4
100
AcDbEntity
8
1
62
256
6
ByLayer
370
18
48
1
60
0
100
AcDbSpline
70
4
71
3
72
60
73
56
40
0
40
0
40
0
40
0
40
0.0407577301906471
40
0.0407577301906471
40
0.0889342290836694
40
0.0889342290836694
40
0.137110727976691
40
0.137110727976691
40
0.161198977423202
40
0.161198977423202
40
0.185287226869713
40
0.185287226869713
40
0.233463725762734
40
0.233463725762734
40
0.281640224655754
40
0.281640224655754
40
0.329816723548775
40
0.329816723548775
40
0.353904972995285
40
0.353904972995285
40
0.377993222441795
40
0.377993222441795
40
0.426169721334815
40
0.426169721334815
40
0.474346220227835
40
0.474346220227835
40
0.522522719120855
40
0.522522719120855
40
0.546610968567365
40
0.546610968567365
40
0.570699218013874
40
0.570699218013874
40
0.618875716906894
40
0.618875716906894
40
0.667052215799914
40
0.667052215799914
40
0.715228714692934
40
0.715228714692934
40
0.739316964139444
40
0.739316964139444
40
0.763405213585955
40
0.763405213585955
40
0.811581712478976
40
0.811581712478976
40
0.859758211371998
40
0.859758211371998
40
0.907934710265019
40
0.907934710265019
40
0.93202295971153
40
0.93202295971153
40
0.944067084434785
40
0.944067084434785
40
0.95611120915804
40
0.95611120915804
40
1
40
1
40
1
40
1
41
1
10
22.8353549913441
20
5.21983820628145
30
0
41
1
10
23.4010449513421
20
5.2200682571048
30
0
41
1
10
23.963808446326
20
5.19703403467241
30
0
41
1
10
25.1888137393088
20
5.09777873334232
30
-1E-16
41
1
10
25.8500915834744
20
5.01243816391866
30
-1E-16
41
1
10
27.1740077806151
20
4.78214779671902
30
2E-16
41
1
10
27.8364095739898
20
4.63714686421716
30
2E-16
41
1
10
28.8337956051325
20
4.37678308158408
30
2E-16
41
1
10
29.1670305971857
20
4.28300034770123
30
2E-16
41
1
10
29.8355947266319
20
4.0819101195836
30
2E-16
41
1
10
30.1716936966593
20
3.97428453238413
30
2E-16
41
1
10
31.1760370695769
20
3.63431985322228
30
2E-16
41
1
10
31.8410175951262
20
3.3847295150243
30
-2E-16
41
1
10
33.1676539423015
20
2.84964242490074
30
-2E-16
41
1
10
33.8288373134712
20
2.5633740739429
30
-2E-16
41
1
10
35.1523810375603
20
1.96300710280573
30
-1E-16
41
1
10
35.8148672675897
20
1.64919156005641
30
-1E-16
41
1
10
36.812509562294
20
1.16311617828066
30
-1E-16
41
1
10
37.1457175616333
20
0.998536385110611
30
-1E-16
41
1
10
37.8144537807335
20
0.666227135247709
30
0
41
1
10
38.1505959317519
20
0.497959405531532
30
0
41
1
10
39.1542827670197
20
-0.0062866129463259
30
0
41
1
10
39.8188336280668
20
-0.342995725940199
30
0
41
1
10
41.144892178002
20
-1.00521985331591
30
1E-16
41
1
10
41.8061092823993
20
-1.33135645984757
30
1E-16
41
1
10
43.1292488653868
20
-1.9651051226752
30
1E-16
41
1
10
43.7917731724348
20
-2.27156762399994
30
1E-16
41
1
10
44.7897106467571
20
-2.71034927267132
30
2E-16
41
1
10
45.123008741677
20
-2.85318900005063
30
2E-16
41
1
10
45.7918654443577
20
-3.13022789048716
30
2E-16
41
1
10
46.127955025837
20
-3.26455420300729
30
2E-16
41
1
10
47.1309415197708
20
-3.64977884945174
30
-2E-16
41
1
10
47.795163198928
20
-3.88429878143989
30
-2E-16
41
1
10
49.1205600646163
20
-4.30169600458848
30
-2E-16
41
1
10
49.7817079801367
20
-4.48471197477966
30
-2E-16
41
1
10
51.104803033756
20
-4.79515259098662
30
-2E-16
41
1
10
51.767187633877
20
-4.92213168360132
30
1E-16
41
1
10
52.7654204489354
20
-5.06697682663258
30
1E-16
41
1
10
53.0989072950715
20
-5.10767456327577
30
1E-16
41
1
10
53.7679505745344
20
-5.17330152233137
30
0
41
1
10
54.1038157796327
20
-5.19813865141171
30
0
41
1
10
55.1060563648765
20
-5.24793670522405
30
0
41
1
10
55.7700850500594
20
-5.24858660703677
30
0
41
1
10
57.0946916821803
20
-5.18616271056186
30
0
41
1
10
57.7557328504253
20
-5.12325140193499
30
1E-16
41
1
10
59.0788878663908
20
-4.93569767568172
30
1E-16
41
1
10
59.7411727925421
20
-4.81104140614838
30
-1E-16
41
1
10
60.7397161953078
20
-4.5800315744294
30
-2E-16
41
1
10
61.0733624155084
20
-4.49565445614863
30
-2E-16
41
1
10
61.5754229612164
20
-4.35819334836816
30
-2E-16
41
1
10
61.7432156305559
20
-4.31049424055135
30
-2E-16
41
1
10
62.0780094902051
20
-4.21200270728372
30
-2E-16
41
1
10
62.2451440179664
20
-4.16120562421301
30
-2E-16
41
1
10
63.0202444365572
20
-3.91835886451597
30
-2E-16
41
1
10
63.6251518891107
20
-3.70760835929988
30
-1E-16
41
1
10
64.2286311166813
20
-3.47972027202982
30
0
0
SPLINE
5
E5
100
AcDbEntity
8
1
62
256
6
ByLayer
370
18
48
1
60
0
100
AcDbSpline
70
4
71
3
72
36
73
32
40
0
40
0
40
0
40
0
40
0.159318279569244
40
0.159318279569244
40
0.238977419353866
40
0.238977419353866
40
0.278806989246176
40
0.278806989246176
40
0.318636559138487
40
0.318636559138487
40
0.398295698923109
40
0.398295698923109
40
0.477954838707731
40
0.477954838707731
40
0.557613978492353
40
0.557613978492353
40
0.597443548384664
40
0.597443548384664
40
0.637273118276974
40
0.637273118276974
40
0.716932258061598
40
0.716932258061598
40
0.796591397846221
40
0.796591397846221
40
0.876250537630844
40
0.876250537630844
40
0.916080107523156
40
0.916080107523156
40
0.955909677415467
40
0.955909677415467
40
1
40
1
40
1
40
1
41
1
10
6.5569677454954
20
-0.0180303139918294
30
0
41
1
10
7.90051758708105
20
-0.691443065838882
30
0
41
1
10
9.22429921099717
20
-1.35595533651954
30
1E-16
41
1
10
11.21128650044
20
-2.27920814734173
30
1E-16
41
1
10
11.8733894338214
20
-2.57557405851557
30
2E-16
41
1
10
12.8706466921616
20
-2.99474978271587
30
2E-16
41
1
10
13.2037225735212
20
-3.13030303506366
30
2E-16
41
1
10
13.8716736275176
20
-3.39215264529059
30
2E-16
41
1
10
14.2070985251717
20
-3.51864561587618
30
2E-16
41
1
10
15.213161443718
20
-3.88127909007213
30
-2E-16
41
1
10
15.8794811598942
20
-4.09822026827322
30
-2E-16
41
1
10
17.2076452918592
20
-4.47859025430844
30
-2E-16
41
1
10
17.8693298846276
20
-4.64210281596658
30
-2E-16
41
1
10
19.1937723886697
20
-4.91044038209216
30
1E-16
41
1
10
19.8560945800427
20
-5.01566967544778
30
1E-16
41
1
10
20.8535505691162
20
-5.12692491511535
30
0
41
1
10
21.1868014193247
20
-5.15621247788346
30
0
41
1
10
21.8552002221766
20
-5.19887289185871
30
0
41
1
10
22.1911628795697
20
-5.21223812851494
30
0
41
1
10
23.1961303481594
20
-5.2277097636491
30
0
41
1
10
23.8616202222704
20
-5.2053137727512
30
0
41
1
10
25.1888137393087
20
-5.09777873334232
30
1E-16
41
1
10
25.8500915834744
20
-5.01243816391866
30
1E-16
41
1
10
27.1740077806151
20
-4.78214779671902
30
-2E-16
41
1
10
27.8364095739898
20
-4.63714686421713
30
-2E-16
41
1
10
28.8337956051325
20
-4.37678308158411
30
-2E-16
41
1
10
29.1670305971858
20
-4.28300034770123
30
-2E-16
41
1
10
29.835594726632
20
-4.08191011958357
30
-2E-16
41
1
10
30.1716936966593
20
-3.97428453238413
30
-2E-16
41
1
10
30.8770690253657
20
-3.73551888332554
30
-2E-16
41
1
10
31.2462596271687
20
-3.60304495490419
30
-1E-16
41
1
10
31.6145416344642
20
-3.46438797124552
30
0
0
SPLINE
5
E6
100
AcDbEntity
8
1
62
256
6
ByLayer
370
18
48
1
60
0
100
AcDbSpline
70
4
71
3
72
26
73
22
40
0
40
0
40
0
40
0
40
0.0657923899700781
40
0.0657923899700781
40
0.199250619974351
40
0.199250619974351
40
0.332708849978624
40
0.332708849978624
40
0.399437964980761
40
0.399437964980761
40
0.43280252248183
40
0.43280252248183
40
0.466167079982899
40
0.466167079982899
40
0.733083539991451
40
0.733083539991451
40
0.866541769995725
40
0.866541769995725
40
0.933270884997862
40
0.933270884997862
40
1
40
1
40
1
40
1
41
1
10
55.4513329876251
20
5.24022286621368
30
0
41
1
10
55.7789629653831
20
5.24040506405134
30
0
41
1
10
56.1058853243268
20
5.23276156052955
30
0
41
1
10
57.0946916821804
20
5.18616271056186
30
0
41
1
10
57.7557328504254
20
5.12325140193499
30
-1E-16
41
1
10
59.0788878663908
20
4.93569767568172
30
-1E-16
41
1
10
59.7411727925421
20
4.81104140614835
30
1E-16
41
1
10
60.7397161953078
20
4.5800315744294
30
2E-16
41
1
10
61.0733624155084
20
4.49565445614863
30
2E-16
41
1
10
61.5754229612164
20
4.35819334836819
30
2E-16
41
1
10
61.7432156305559
20
4.31049424055138
30
2E-16
41
1
10
62.0780094902051
20
4.21200270728369
30
2E-16
41
1
10
62.2451440179664
20
4.16120562421301
30
2E-16
41
1
10
63.7472766027237
20
3.69057237193462
30
2E-16
41
1
10
65.0666517907202
20
3.17489073328053
30
-2E-16
41
1
10
67.0514732358483
20
2.30390463313515
30
-1E-16
41
1
10
67.7137526445639
20
1.99682972989609
30
-1E-16
41
1
10
68.7126254376067
20
1.5189182064843
30
-1E-16
41
1
10
69.046430691568
20
1.35662292889279
30
-1E-16
41
1
10
69.7162669085034
20
1.02694986015859
30
-1E-16
41
1
10
70.0516387786419
20
0.859751419923668
30
-1E-16
41
1
10
70.3866596587112
20
0.691787635614332
30
0
0
SPLINE
5
E7
100
AcDbEntity
8
1
62
256
6
ByLayer
370
18
48
1
60
0
100
AcDbSpline
70
4
71
3
72
10
73
6
40
0
40
0
40
0
40
0
40
0.5
40
0.5
40
1
40
1
40
1
40
1
41
1
10
70.8315537788854
20
-5.18139838855694
30
0
41
1
10
70.834858936739
20
-5.20131147884436
30
0
41
1
10
70.8380191940119
20
-5.21694715812066
30
0
41
1
10
70.8442748892856
20
-5.23951174839567
30
0
41
1
10
70.8473828618385
20
-5.24644246758044
30
0
41
1
10
70.850504817432
20
-5.2488649522067
30
0
0
SPLINE
5
E8
100
AcDbEntity
8
1
62
256
6
ByLayer
370
18
48
1
60
0
100
AcDbSpline
70
4
71
3
72
8
73
4
40
0
40
0
40
0
40
0
40
1
40
1
40
1
40
1
41
1
10
3.64694887853972
20
0.674518082089463
30
0
41
1
10
3.64636825723562
20
0.663950308079848
30
0
41
1
10
3.64577906384031
20
0.653372501615166
30
0
41
1
10
3.64518131079683
20
0.64278403695306
30
0
0
SPLINE
5
E9
100
AcDbEntity
8
1
62
256
6
ByLayer
370
18
48
1
60
0
100
AcDbSpline
70
4
71
3
72
30
73
26
40
0
40
0
40
0
40
0
40
0.0625000000000001
40
0.0625000000000001
40
0.125
40
0.125
40
0.25
40
0.25
40
0.312500000000001
40
0.312500000000001
40
0.375000000000001
40
0.375000000000001
40
0.437500000000001
40
0.437500000000001
40
0.500000000000001
40
0.500000000000001
40
0.625000000000001
40
0.625000000000001
40
0.687500000000001
40
0.687500000000001
40
0.750000000000001
40
0.750000000000001
40
0.875
40
0.875
40
1
40
1
40
1
40
1
41
1
10
3.60234264247745
20
0.641427122747302
30
0
41
1
10
3.60233570965138
20
0.502302768887859
30
0
41
1
10
3.60232806455804
20
0.362767210201668
30
0
41
1
10
3.6023115438951
20
0.0828775879199668
30
0
41
1
10
3.60230264631912
20
-0.0577588646822562
30
0
41
1
10
3.60227470649022
20
-0.475579907788386
30
0
41
1
10
3.60225435350932
20
-0.750305036999777
30
0
41
1
10
3.60222203614995
20
-1.1567709922183
30
1E-16
41
1
10
3.60221096005219
20
-1.2913177200854
30
1E-16
41
1
10
3.60218827040785
20
-1.55848512793983
30
1E-16
41
1
10
3.60217662714783
20
-1.69141104814094
30
1E-16
41
1
10
3.60215318874253
20
-1.95138597809111
30
1E-16
41
1
10
3.60214135702049
20
-2.07888484726047
30
1E-16
41
1
10
3.60211748429714
20
-2.32892264132209
30
1E-16
41
1
10
3.6021054122798
20
-2.45176657298794
30
2E-16
41
1
10
3.60206905621681
20
-2.810649862849
30
2E-16
41
1
10
3.60204492771734
20
-3.03443081194968
30
2E-16
41
1
10
3.60200847347744
20
-3.34772963878874
30
2E-16
41
1
10
3.60199627481518
20
-3.44841324283129
30
2E-16
41
1
10
3.60197166443277
20
-3.64217933506126
30
-2E-16
41
1
10
3.60195921299953
20
-3.73554251623182
30
-2E-16
41
1
10
3.60192157567258
20
-4.00192038602961
30
-2E-16
41
1
10
3.60189647966806
20
-4.15886524728748
30
-2E-16
41
1
10
3.60184489476896
20
-4.43296856919977
30
-2E-16
41
1
10
3.60181836162025
20
-4.55030472855304
30
1E-16
41
1
10
3.60179038405232
20
-4.64638564522173
30
1E-16
0
SPLINE
5
EA
100
AcDbEntity
8
1
62
256
6
ByLayer
370
18
48
1
60
0
100
AcDbSpline
70
4
71
3
72
24
73
20
40
0
40
0
40
0
40
0
40
0.0978535265992483
40
0.0978535265992483
40
0.223387150748441
40
0.223387150748441
40
0.348920774897635
40
0.348920774897635
40
0.474454399046828
40
0.474454399046828
40
0.599988023196021
40
0.599988023196021
40
0.662754835270618
40
0.662754835270618
40
0.725521647345214
40
0.725521647345214
40
0.851055271494407
40
0.851055271494407
40
1
40
1
40
1
40
1
41
1
10
23.0733917497239
20
0.23181634933735
30
0
41
1
10
23.6190926552466
20
-0.0281830505849712
30
0
41
1
10
24.1649376771334
20
-0.289429459720054
30
0
41
1
10
25.4145250033031
20
-0.881778529541464
30
1E-16
41
1
10
26.1189661779656
20
-1.21245401583605
30
1E-16
41
1
10
27.5381527109237
20
-1.85656584540564
30
1E-16
41
1
10
28.2431391157993
20
-2.16605759299694
30
1E-16
41
1
10
29.6477337114772
20
-2.74889498453305
30
2E-16
41
1
10
30.3473163829346
20
-3.0224863231312
30
2E-16
41
1
10
31.7471019823599
20
-3.5253273506865
30
2E-16
41
1
10
32.4468930334067
20
-3.75443752027292
30
-2E-16
41
1
10
33.5008706414959
20
-4.05893336284134
30
-2E-16
41
1
10
33.8528491339641
20
-4.1538224298842
30
-2E-16
41
1
10
34.5588210818814
20
-4.32937422265519
30
-2E-16
41
1
10
34.9133153097366
20
-4.41021136016064
30
-2E-16
41
1
10
35.9772232581831
20
-4.62933719235707
30
1E-16
41
1
10
36.6856630311692
20
-4.74373874661552
30
1E-16
41
1
10
38.2363479743248
20
-4.92073918604805
30
0
41
1
10
39.0706125066976
20
-4.96815258958384
30
0
41
1
10
39.9021295180879
20
-4.96798455063475
30
0
0
SPLINE
5
EB
100
AcDbEntity
8
1
62
256
6
ByLayer
370
18
48
1
60
0
100
AcDbSpline
70
4
71
3
72
36
73
32
40
0
40
0
40
0
40
0
40
0.349695297040083
40
0.349695297040083
40
0.58052814844848
40
0.58052814844848
40
0.729361418455055
40
0.729361418455055
40
0.825330411261201
40
0.825330411261201
40
0.887211170112473
40
0.887211170112473
40
0.927153563023017
40
0.927153563023017
40
0.952967852940539
40
0.952967852940539
40
0.969711106593586
40
0.969711106593586
40
0.980640915632509
40
0.980640915632509
40
0.987608112435146
40
0.987608112435146
40
0.99197913580837
40
0.99197913580837
40
0.996390800600273
40
0.996390800600273
40
0.997655555089955
40
0.997655555089955
40
0.998706037825361
40
0.998706037825361
40
1
40
1
40
1
40
1
41
1
10
70.8505048174501
20
-5.24886495219442
30
0
41
1
10
70.8874698480754
20
-5.22470478050124
30
0
41
1
10
70.9244856950513
20
-5.20038480218611
30
0
41
1
10
70.9859905464015
20
-5.15977431914965
30
0
41
1
10
71.0104599221364
20
-5.14356508837739
30
0
41
1
10
71.0507138952101
20
-5.11681509923375
30
0
41
1
10
71.0664933906653
20
-5.10630785535002
30
0
41
1
10
71.0924580325985
20
-5.08898316302705
30
0
41
1
10
71.1026410419987
20
-5.08217963393932
30
0
41
1
10
71.1194067056664
20
-5.07096323153743
30
0
41
1
10
71.1259834751019
20
-5.06655956329445
30
0
41
1
10
71.1368147823107
20
-5.05930106386632
30
0
41
1
10
71.1410659991911
20
-5.0564506129098
30
0
41
1
10
71.148069274773
20
-5.05175240285831
30
0
41
1
10
71.1508219556678
20
-5.04990507650464
30
0
41
1
10
71.1553484149978
20
-5.04686654050857
30
0
41
1
10
71.1571258677987
20
-5.04567316167646
30
0
41
1
10
71.1600494241025
20
-5.04371002566424
30
0
41
1
10
71.1612004093663
20
-5.04293707925336
30
0
41
1
10
71.1631072132994
20
-5.04165609148356
30
0
41
1
10
71.1638554341076
20
-5.04115332035178
30
0
41
1
10
71.1650825690543
20
-5.04032855480094
30
0
41
1
10
71.1655573577911
20
-5.04000941456133
30
0
41
1
10
71.1664919566701
20
-5.03938137040174
30
0
41
1
10
71.1669696040262
20
-5.03906041713358
30
0
41
1
10
71.1674762570661
20
-5.03872070384173
30
0
41
1
10
71.1675831148038
20
-5.03864912178784
30
0
41
1
10
71.1677369290542
20
-5.03854634431173
30
0
41
1
10
71.1677891613101
20
-5.03851159110445
30
0
41
1
10
71.1678581289098
20
-5.03846611301731
30
0
41
1
10
71.1678666412952
20
-5.03846086341875
30
0
41
1
10
71.1678752278115
20
-5.03845573654516
30
0
0
SPLINE
5
EC
100
AcDbEntity
8
1
62
256
6
ByLayer
370
18
48
1
60
0
100
AcDbSpline
70
4
71
3
72
16
73
12
40
0
40
0
40
0
40
0
40
0.2278912190252
40
0.2278912190252
40
0.458166423979562
40
0.458166423979562
40
0.655607408825025
40
0.655607408825025
40
0.828837418417668
40
0.828837418417668
40
1
40
1
40
1
40
1
41
1
10
71.128672128062
20
-4.94200188481392
30
0
41
1
10
71.1287525705176
20
-4.94216884906248
30
0
41
1
10
71.1287767014068
20
-4.94251600293399
30
0
41
1
10
71.1286861165305
20
-4.94358455227911
30
0
41
1
10
71.1285672082507
20
-4.94433076639518
30
0
41
1
10
71.1282109575442
20
-4.94601251033305
30
0
41
1
10
71.1279867853102
20
-4.94693274455261
30
0
41
1
10
71.1274929833641
20
-4.94875887930638
30
0
41
1
10
71.1272259295803
20
-4.94967642190585
30
0
41
1
10
71.1266699902089
20
-4.95147329251506
30
0
41
1
10
71.1263749412781
20
-4.95237433620449
30
0
41
1
10
71.1260820790601
20
-4.95322551786873
30
0
0
SPLINE
5
ED
100
AcDbEntity
8
1
62
256
6
ByLayer
370
18
48
1
60
0
100
AcDbSpline
70
4
71
3
72
8
73
4
40
0
40
0
40
0
40
0
40
1
40
1
40
1
40
1
41
1
10
71.1260820790599
20
-4.95322551786944
30
0
41
1
10
71.1180466649274
20
-4.97657983520193
30
0
41
1
10
71.1100457479473
20
-4.99993407455992
30
0
41
1
10
71.1020800242279
20
-5.02328842693697
30
0
0
SPLINE
5
EE
100
AcDbEntity
8
1
62
256
6
ByLayer
370
18
48
1
60
0
100
AcDbSpline
70
4
71
3
72
32
73
28
40
0
40
0
40
0
40
0
40
0.125
40
0.125
40
0.1875
40
0.1875
40
0.25
40
0.25
40
0.3125
40
0.3125
40
0.375
40
0.375
40
0.4375
40
0.4375
40
0.5
40
0.5
40
0.5625
40
0.5625
40
0.625
40
0.625
40
0.6875
40
0.6875
40
0.75
40
0.75
40
0.875
40
0.875
40
1
40
1
40
1
40
1
41
1
10
72.9267884032133
20
0.0632012422449009
30
0
41
1
10
72.9013750550126
20
-0.0205901195425895
30
0
41
1
10
72.8721572114623
20
-0.102465825287084
30
0
41
1
10
72.8224088532894
20
-0.222199355217896
30
0
41
1
10
72.8046729293066
20
-0.261902110123202
30
0
41
1
10
72.7680207029106
20
-0.338136425183876
30
0
41
1
10
72.7490954180556
20
-0.374748357468434
30
0
41
1
10
72.7100742104484
20
-0.44486825883132
30
0
41
1
10
72.6899790913751
20
-0.47837826577188
30
0
41
1
10
72.6485581510718
20
-0.542019474039506
30
0
41
1
10
72.6272810826278
20
-0.572006371464738
30
0
41
1
10
72.5852106883056
20
-0.625967288702554
30
0
41
1
10
72.5642045165079
20
-0.650282181494191
30
0
41
1
10
72.5222222669841
20
-0.693470237395132
30
0
41
1
10
72.5010548651427
20
-0.712461711923339
30
0
41
1
10
72.4600810477413
20
-0.743602957963674
30
0
41
1
10
72.4401761360838
20
-0.755907984507417
30
0
41
1
10
72.4013776346804
20
-0.774242588089834
30
0
41
1
10
72.3823428075252
20
-0.780273886224251
30
0
41
1
10
72.346062985074
20
-0.785916296246853
30
0
41
1
10
72.3287790763738
20
-0.785601482501932
30
0
41
1
10
72.2956510937919
20
-0.779188943931473
30
0
41
1
10
72.2797132273599
20
-0.773024357340461
30
0
41
1
10
72.2345208428553
20
-0.746652999712808
30
0
41
1
10
72.2079898624661
20
-0.7189799796611
30
0
41
1
10
72.1599601750753
20
-0.647033667486056
30
0
41
1
10
72.1385340106214
20
-0.602585333200011
30
0
41
1
10
72.1195881207773
20
-0.552011442524929
30
0
0
SPLINE
5
EF
100
AcDbEntity
8
1
62
256
6
ByLayer
370
18
48
1
60
0
100
AcDbSpline
70
4
71
3
72
18
73
14
40
0
40
0
40
0
40
0
40
0.195331572473274
40
0.195331572473274
40
0.390663144946547
40
0.390663144946547
40
0.58599471741982
40
0.58599471741982
40
0.781326289893093
40
0.781326289893093
40
0.976657862366367
40
0.976657862366367
40
1
40
1
40
1
40
1
41
1
10
71.1678749556095
20
5.03845589800008
30
0
41
1
10
70.66540200844
20
5.04216484895875
30
0
41
1
10
70.163437697088
20
5.02798429754046
30
0
41
1
10
69.161427790065
20
4.96490673639624
30
0
41
1
10
68.6608242943242
20
4.91605640053885
30
-1E-16
41
1
10
67.6587282259062
20
4.78437387160454
30
-1E-16
41
1
10
67.1568626407967
20
4.70135705905363
30
-1E-16
41
1
10
66.1522272841399
20
4.50303477536571
30
2E-16
41
1
10
65.6503210647566
20
4.38791223842608
30
2E-16
41
1
10
64.6456259593892
20
4.12725671315178
30
2E-16
41
1
10
64.143099042074
20
3.98173726678451
30
2E-16
41
1
10
63.5807523904348
20
3.80422449627906
30
2E-16
41
1
10
63.520730660842
20
3.7850895216373
30
2E-16
41
1
10
63.4607130356513
20
3.76576963339258
30
2E-16
0
SPLINE
5
F0
100
AcDbEntity
8
1
62
256
6
ByLayer
370
18
48
1
60
0
100
AcDbSpline
70
4
71
3
72
12
73
8
40
0
40
0
40
0
40
0
40
0.250000000000013
40
0.250000000000013
40
0.500000000000026
40
0.500000000000026
40
1
40
1
40
1
40
1
41
1
10
3.60234264247748
20
0.652638774223306
30
0
41
1
10
3.58669582399011
20
0.652734329817463
30
0
41
1
10
3.57150662041178
20
0.649525495825372
30
0
41
1
10
3.54544410407155
20
0.638610638247485
30
0
41
1
10
3.53468461821493
20
0.631092664993673
30
0
41
1
10
3.50936006890791
20
0.605638637633319
30
0
41
1
10
3.50164460104889
20
0.585287072607912
30
0
41
1
10
3.50164460104872
20
0.565047974644102
30
0
0
SPLINE
5
F1
100
AcDbEntity
8
1
62
256
6
ByLayer
370
18
48
1
60
0
100
AcDbSpline
70
4
71
3
72
20
73
16
40
0
40
0
40
0
40
0
40
0.250000000000003
40
0.250000000000003
40
0.375000000000005
40
0.375000000000005
40
0.437500000000005
40
0.437500000000005
40
0.500000000000004
40
0.500000000000004
40
0.750000000000002
40
0.750000000000002
40
0.875000000000001
40
0.875000000000001
40
1
40
1
40
1
40
1
41
1
10
23.0000000000129
20
-0.541942841361447
30
0
41
1
10
21.8455048953308
20
0.0355173050671169
30
0
41
1
10
20.6968348426416
20
0.619117353879915
30
0
41
1
10
18.96425485058
20
1.4664661919908
30
-1E-16
41
1
10
18.3849728287989
20
1.74392150922046
30
-1E-16
41
1
10
17.5113635560324
20
2.14844216911359
30
-1E-16
41
1
10
17.2189346678647
20
2.28159568159995
30
-1E-16
41
1
10
16.636590250659
20
2.54078712285474
30
-2E-16
41
1
10
16.3462282593947
20
2.66708268135346
30
-2E-16
41
1
10
14.8975883319484
20
3.28083248988983
30
-2E-16
41
1
10
13.7490838713496
20
3.71536125611533
30
2E-16
41
1
10
12.022425682076
20
4.25482488885936
30
2E-16
41
1
10
11.4464568957654
20
4.41623848841027
30
2E-16
41
1
10
10.2898240154179
20
4.6973003852585
30
2E-16
41
1
10
9.70924320085865
20
4.8170930963733
30
1E-16
41
1
10
9.12507399031432
20
4.91434579453619
30
-1E-16
0
SPLINE
5
F2
100
AcDbEntity
8
1
62
256
6
ByLayer
370
18
48
1
60
0
100
AcDbSpline
70
4
71
3
72
14
73
10
40
0
40
0
40
0
40
0
40
0.270275610930209
40
0.270275610930209
40
0.505820540672675
40
0.505820540672675
40
0.78107895255444
40
0.78107895255444
40
1
40
1
40
1
40
1
41
1
10
70.5246927544273
20
-0.107807455274639
30
0
41
1
10
70.5254319199998
20
-0.108131307772822
30
0
41
1
10
70.5261580239967
20
-0.108825645639342
30
0
41
1
10
70.527371250431
20
-0.110560634449797
30
0
41
1
10
70.5278937990378
20
-0.111568741489037
30
0
41
1
10
70.5288666539769
20
-0.114022636686713
30
0
41
1
10
70.5293055587403
20
-0.115551573434431
30
0
41
1
10
70.5298554741796
20
-0.118468049673737
30
0
41
1
10
70.5300205945152
20
-0.119855181537531
30
0
41
1
10
70.5300751492226
20
-0.121238412702923
30
0
0
SPLINE
5
F3
100
AcDbEntity
8
1
62
256
6
ByLayer
370
18
48
1
60
0
100
AcDbSpline
70
4
71
3
72
50
73
46
40
0
40
0
40
0
40
0
40
0.0451504394962636
40
0.0451504394962636
40
0.103863454805069
40
0.103863454805069
40
0.133219962459472
40
0.133219962459472
40
0.162576470113874
40
0.162576470113874
40
0.221289485422679
40
0.221289485422679
40
0.280002500731485
40
0.280002500731485
40
0.33871551604029
40
0.33871551604029
40
0.368072023694693
40
0.368072023694693
40
0.397428531349096
40
0.397428531349096
40
0.51485456196671
40
0.51485456196671
40
0.573567577275517
40
0.573567577275517
40
0.602924084929921
40
0.602924084929921
40
0.632280592584324
40
0.632280592584324
40
0.661637100238728
40
0.661637100238728
40
0.690993607893131
40
0.690993607893131
40
0.749706623201938
40
0.749706623201938
40
0.867132653819553
40
0.867132653819553
40
0.896489161473957
40
0.896489161473957
40
0.911167415301159
40
0.911167415301159
40
0.925845669128361
40
0.925845669128361
40
0.984558684437169
40
0.984558684437169
40
1
40
1
40
1
40
1
41
1
10
42.9894711104643
20
-4.99709936610836
30
0
41
1
10
42.4542366404489
20
-5.07669719143027
30
0
41
1
10
41.9198910204101
20
-5.1362943805718
30
0
41
1
10
40.6897673597943
20
-5.22600058567096
30
0
41
1
10
39.9937810741719
20
-5.24197393672546
30
0
41
1
10
38.9445920294237
20
-5.21253801117078
30
0
41
1
10
38.5939909728871
20
-5.19383490513158
30
0
41
1
10
37.8903702529719
20
-5.13847256393197
30
0
41
1
10
37.5375616237662
20
-5.10179056354175
30
1E-16
41
1
10
36.4822450022873
20
-4.9660089989448
30
1E-16
41
1
10
35.7803817609964
20
-4.84090636389126
30
-1E-16
41
1
10
34.3739772823617
20
-4.52590985655053
30
-2E-16
41
1
10
33.6682908471048
20
-4.33539557458633
30
-2E-16
41
1
10
32.2618450896701
20
-3.89925288879761
30
-2E-16
41
1
10
31.5599359164839
20
-3.65306693733834
30
-2E-16
41
1
10
30.5041200443712
20
-3.24838303502591
30
2E-16
41
1
10
30.151155166111
20
-3.10713122786953
30
2E-16
41
1
10
29.4478719238085
20
-2.81555455084484
30
2E-16
41
1
10
29.0973892060846
20
-2.66522848167716
30
2E-16
41
1
10
27.3489677011904
20
-1.8944032988893
30
1E-16
41
1
10
25.9635981238434
20
-1.21509365406342
30
1E-16
41
1
10
23.8713212407692
20
-0.169458634941463
30
0
41
1
10
23.1717484730877
20
0.183971024430832
30
0
41
1
10
22.1144512259778
20
0.71192993529678
30
0
41
1
10
21.7620836709946
20
0.88710309410439
30
-1E-16
41
1
10
21.0586052078731
20
1.23296216223039
30
-1E-16
41
1
10
20.7071679004541
20
1.40381256237981
30
-1E-16
41
1
10
20.0042539584951
20
1.74012843323672
30
-1E-16
41
1
10
19.6528278789363
20
1.90568809444963
30
-1E-16
41
1
10
18.9491563233339
20
2.22993092415317
30
-1E-16
41
1
10
18.5963362552391
20
2.38887041835309
30
-1E-16
41
1
10
17.5398604195147
20
2.85154215095994
30
-2E-16
41
1
10
16.8405408353675
20
3.14026200531984
30
-2E-16
41
1
10
14.7487509085188
20
3.93455441439076
30
2E-16
41
1
10
13.3626865926424
20
4.36841783989462
30
2E-16
41
1
10
11.612756414894
20
4.75489591347056
30
2E-16
41
1
10
11.2618971769316
20
4.82441311042265
30
-1E-16
41
1
10
10.7337865302975
20
4.91639856734164
30
-1E-16
41
1
10
10.5572679254581
20
4.94503344207166
30
-1E-16
41
1
10
10.205059734012
20
4.99787472657988
30
-1E-16
41
1
10
10.0292333542404
20
5.0221091019076
30
-1E-16
41
1
10
9.15125584566334
20
5.13232044004866
30
0
41
1
10
8.4525787319516
20
5.18541202015399
30
0
41
1
10
7.57135035399281
20
5.20797849412045
30
0
41
1
10
7.38791004995539
20
5.21023716553646
30
0
41
1
10
7.20447942399918
20
5.21006019281683
30
0
0
SPLINE
5
F4
100
AcDbEntity
8
1
62
256
6
ByLayer
370
18
48
1
60
0
100
AcDbSpline
70
4
71
3
72
8
73
4
40
0
40
0
40
0
40
0
40
1
40
1
40
1
40
1
41
1
10
70.3974679668714
20
-0.0489002936195959
30
0
41
1
10
70.4401293170951
20
-0.0697050519042364
30
0
41
1
10
70.4825209395411
20
-0.0893306104192959
30
0
41
1
10
70.5246927544274
20
-0.107807455274667
30
0
0
SPLINE
5
F5
100
AcDbEntity
8
1
62
256
6
ByLayer
370
18
48
1
60
0
100
AcDbSpline
70
4
71
3
72
67
73
63
40
0
40
0
40
0
40
0
40
0.0202134186266882
40
0.0202134186266882
40
0.0528809228287991
40
0.0528809228287991
40
0.0692146749298545
40
0.0692146749298545
40
0.0855484270309099
40
0.0855484270309099
40
0.101882179131965
40
0.103923898144597
40
0.104434327897755
40
0.104434327897755
40
0.104561935336045
40
0.104561935336045
40
0.104689542774334
40
0.104689542774334
40
0.104944757650913
40
0.104944757650913
40
0.105965617157229
40
0.105965617157229
40
0.110049055182492
40
0.110049055182492
40
0.118215931233019
40
0.118215931233019
40
0.150883435435125
40
0.150883435435125
40
0.183550939637232
40
0.183550939637232
40
0.248885948041445
40
0.248885948041445
40
0.37955596484987
40
0.37955596484987
40
0.510225981658296
40
0.510225981658296
40
0.526559733759349
40
0.526559733759349
40
0.530643171784612
40
0.530643171784612
40
0.532684890797244
40
0.532684890797244
40
0.53370575030356
40
0.53370575030356
40
0.534216180056718
40
0.534216180056718
40
0.534471394933297
40
0.534471394933297
40
0.534599002371586
40
0.534599002371586
40
0.534662806090731
40
0.534662806090731
40
0.534726609809875
40
0.534726609809875
40
0.542893485860393
40
0.575560990062462
40
0.575560990062462
40
0.640895998466601
40
0.640895998466601
40
0.771566015274879
40
0.771566015274879
40
1
40
1
40
1
40
1
41
1
10
9.12507399031648
20
4.91434579454207
30
-1E-16
41
1
10
9.0878419479325
20
4.81339735205418
30
-1E-16
41
1
10
9.04763740200042
20
4.71043792194143
30
-1E-16
41
1
10
8.93733096781304
20
4.43450731809045
30
0
41
1
10
8.86499967507325
20
4.25695357303647
30
0
41
1
10
8.74272188823534
20
3.98395157149693
30
0
41
1
10
8.7000518179957
20
3.89162601704965
30
0
41
1
10
8.61159341597761
20
3.70385539812949
30
0
41
1
10
8.56532238183974
20
3.60863420093514
30
0
41
1
10
8.46946835022382
20
3.41700690449869
30
0
41
1
10
8.41369702237697
20
3.30822318234496
30
0
41
1
10
8.35477854299324
20
3.19523196471979
30
0
41
1
10
8.34678817404426
20
3.17994168595294
30
0
41
1
10
8.34478916723407
20
3.17611803117097
30
0
41
1
10
8.34434111231269
20
3.17538034535426
30
0
41
1
10
8.34365024123508
20
3.17378935662867
30
0
41
1
10
8.34428228305055
20
3.17283781263092
30
0
41
1
10
8.34612414052569
20
3.17069266742169
30
0
41
1
10
8.34760210875442
20
3.16948889709394
30
0
41
1
10
8.35492341945297
20
3.16353702944306
30
0
41
1
10
8.36115120463631
20
3.15928559257259
30
0
41
1
10
8.39215725784814
20
3.13795146399957
30
0
41
1
10
8.41749556993301
20
3.12175479110655
30
0
41
1
10
8.49340236275884
20
3.07306691081399
30
0
41
1
10
8.54426270660483
20
3.04106925021654
30
0
41
1
10
8.79866853753114
20
2.88133476928809
30
0
41
1
10
9.00278199381353
20
2.75484290560851
30
1E-16
41
1
10
9.41089159349548
20
2.50225053483581
30
0
41
1
10
9.61500423347081
20
2.37634013655344
30
0
41
1
10
10.2274452810999
20
1.99963271481596
30
0
41
1
10
10.6357328514385
20
1.74999231909843
30
0
41
1
10
11.8594867125753
20
1.004273960261
30
-1E-16
41
1
10
12.6739444714415
20
0.511414197709513
30
0
41
1
10
14.3018318417205
20
-0.4629032828812
30
0
41
1
10
15.1160236984762
20
-0.944009245015167
30
1E-16
41
1
10
16.0284102302735
20
-1.48022003298723
30
1E-16
41
1
10
16.1297743396739
20
-1.53969615269182
30
1E-16
41
1
10
16.2559547980068
20
-1.61440067422532
30
1E-16
41
1
10
16.2811658801405
20
-1.62936032401856
30
1E-16
41
1
10
16.3188202219394
20
-1.65193730212963
30
1E-16
41
1
10
16.3313482344326
20
-1.65948251231657
30
1E-16
41
1
10
16.3500101512485
20
-1.67091620933132
30
1E-16
41
1
10
16.3562141400244
20
-1.67474462983847
30
1E-16
41
1
10
16.3654049462407
20
-1.68057972085279
30
1E-16
41
1
10
16.3684532575573
20
-1.68253701633424
30
1E-16
41
1
10
16.3729238167676
20
-1.68555531753543
30
1E-16
41
1
10
16.3744047294633
20
-1.6865720567281
30
1E-16
41
1
10
16.3765013745833
20
-1.68817093101671
30
1E-16
41
1
10
16.377214675757
20
-1.68871320696078
30
1E-16
41
1
10
16.3780190691977
20
-1.68961919440525
30
1E-16
41
1
10
16.3782113911649
20
-1.69005445252563
30
1E-16
41
1
10
16.3774156307453
20
-1.69021542620089
30
1E-16
41
1
10
16.3769273161976
20
-1.69012858246864
30
1E-16
41
1
10
16.317940930826
20
-1.68373841434882
30
1E-16
41
1
10
16.0253773571867
20
-1.65173390169568
30
1E-16
41
1
10
15.7332276961472
20
-1.61822209643756
30
1E-16
41
1
10
15.0328911002914
20
-1.53489653749301
30
1E-16
41
1
10
14.5671183341059
20
-1.47548553211351
30
1E-16
41
1
10
13.1733548914048
20
-1.28565362637047
30
1E-16
41
1
10
12.2486260347525
20
-1.14359517825218
30
1E-16
41
1
10
9.72252382739725
20
-0.710715358162162
30
0
41
1
10
8.13102601849241
20
-0.38778260272062
30
0
41
1
10
6.55696774549509
20
-0.0180303139917442
30
0
0
SPLINE
5
F6
100
AcDbEntity
8
1
62
256
6
ByLayer
370
18
48
1
60
0
100
AcDbSpline
70
4
71
3
72
24
73
20
40
0
40
0
40
0
40
0
40
0.194287828776228
40
0.194287828776228
40
0.291431743164342
40
0.291431743164342
40
0.388575657552457
40
0.388575657552457
40
0.485719571940571
40
0.485719571940571
40
0.582863486328685
40
0.582863486328685
40
0.680007400716799
40
0.680007400716799
40
0.777151315104913
40
0.777151315104913
40
0.971439143881142
40
0.971439143881142
40
1
40
1
40
1
40
1
41
1
10
23
20
-0.46536386504215
30
0
41
1
10
23.9976336856945
20
-0.964455007985691
30
1E-16
41
1
10
24.9952032668414
20
-1.45722218667646
30
1E-16
41
1
10
26.4919798683238
20
-2.15659730265938
30
1E-16
41
1
10
26.9908989161647
20
-2.38307539033252
30
1E-16
41
1
10
27.9880410335083
20
-2.81792677414776
30
2E-16
41
1
10
28.486046715597
20
-3.02621262781898
30
2E-16
41
1
10
29.4830550012969
20
-3.42097349441772
30
2E-16
41
1
10
29.9818824670905
20
-3.60732909260145
30
2E-16
41
1
10
30.9784479654187
20
-3.95349703798161
30
-2E-16
41
1
10
31.4770076761675
20
-4.11363976246577
30
-2E-16
41
1
10
32.4745436236886
20
-4.40464096391955
30
-2E-16
41
1
10
32.9734669511516
20
-4.53547322841845
30
-2E-16
41
1
10
33.9701684292073
20
-4.76481290927575
30
-2E-16
41
1
10
34.4681403513027
20
-4.86339313789207
30
1E-16
41
1
10
35.9640801135786
20
-5.10826084574575
30
1E-16
41
1
10
36.9616191605197
20
-5.20278577867333
30
0
41
1
10
38.1055173369031
20
-5.22782677793359
30
0
41
1
10
38.2521333117267
20
-5.22947381054797
30
0
41
1
10
38.398742419402
20
-5.22956167501152
30
0
0
SPLINE
5
F7
100
AcDbEntity
8
1
62
256
6
ByLayer
370
18
48
1
60
0
100
AcDbSpline
70
4
71
3
72
12
73
8
40
0
40
0
40
0
40
0
40
0.0693345636595501
40
0.0693345636595501
40
0.534667281829775
40
0.534667281829775
40
1
40
1
40
1
40
1
41
1
10
64.425799705547
20
4.21543596353428
30
2E-16
41
1
10
64.5741621347936
20
4.26008053076561
30
2E-16
41
1
10
64.722532626912
20
4.30344154472763
30
2E-16
41
1
10
65.8669564915797
20
4.62765543591999
30
2E-16
41
1
10
66.864132956673
20
4.84988149206146
30
1E-16
41
1
10
68.8575061434528
20
5.15528010079643
30
-1E-16
41
1
10
69.8540648295857
20
5.23849564767633
30
0
41
1
10
70.8505048174459
20
5.24886495220662
30
0
0
SPLINE
5
F8
100
AcDbEntity
8
1
62
256
6
ByLayer
370
18
48
1
60
0
100
AcDbSpline
70
4
71
3
72
8
73
4
40
0
40
0
40
0
40
0
40
1
40
1
40
1
40
1
41
1
10
3.55854920535793
20
-4.66075256512246
30
1E-16
41
1
10
3.55796457643569
20
-4.73689909430655
30
1E-16
41
1
10
3.55738806484354
20
-4.81304218141466
30
1E-16
41
1
10
3.55681968660207
20
-4.88918202541905
30
1E-16
0
SPLINE
5
F9
100
AcDbEntity
8
1
62
256
6
ByLayer
370
18
48
1
60
0
100
AcDbSpline
70
4
71
3
72
16
73
12
40
0
40
0
40
0
40
0
40
0.499999999999997
40
0.499999999999997
40
0.624999999999998
40
0.624999999999998
40
0.749999999999998
40
0.749999999999998
40
0.874999999999999
40
0.874999999999999
40
1
40
1
40
1
40
1
41
1
10
70.3866596587112
20
0.691787635614361
30
0
41
1
10
70.5578747871415
20
0.79740971936809
30
0
41
1
10
70.7383003522852
20
0.868509986394997
30
-1E-16
41
1
10
70.9679481411716
20
0.913593150239933
30
-1E-16
41
1
10
71.0140863364865
20
0.920248531408788
30
-1E-16
41
1
10
71.1065704287641
20
0.929993544698647
30
-1E-16
41
1
10
71.1529213807172
20
0.933175503719582
30
-1E-16
41
1
10
71.2456799871048
20
0.934430013336964
30
-1E-16
41
1
10
71.2920852123555
20
0.932565821418478
30
-1E-16
41
1
10
71.3847091684324
20
0.923027309495865
30
-1E-16
41
1
10
71.4310554392089
20
0.915191897987796
30
-1E-16
41
1
10
71.4767039064096
20
0.904047347831067
30
-1E-16
0
SPLINE
5
FA
100
AcDbEntity
8
1
62
256
6
ByLayer
370
18
48
1
60
0
100
AcDbSpline
70
4
71
3
72
36
73
32
40
0
40
0
40
0
40
0
40
0.042022367866682
40
0.042022367866682
40
0.102577213047262
40
0.102577213047262
40
0.223686903408423
40
0.223686903408423
40
0.344796593769583
40
0.344796593769583
40
0.405351438950163
40
0.405351438950163
40
0.465906284130742
40
0.465906284130742
40
0.526461129311322
40
0.526461129311322
40
0.587015974491901
40
0.587015974491901
40
0.647570819672481
40
0.647570819672481
40
0.708125664853061
40
0.708125664853061
40
0.76868051003364
40
0.76868051003364
40
0.82923535521422
40
0.82923535521422
40
0.889790200394799
40
0.889790200394799
40
0.950345045575379
40
0.950345045575379
40
1
40
1
40
1
40
1
41
1
10
55.6531214322977
20
-0.467067596233335
30
0
41
1
10
55.3046073581722
20
-0.298763781333719
30
0
41
1
10
54.9561608307875
20
-0.129813771837973
30
0
41
1
10
54.105451089994
20
0.282440547373312
30
0
41
1
10
53.6028626166591
20
0.526029230428321
30
0
41
1
10
52.0991598391614
20
1.24695599196249
30
-1E-16
41
1
10
51.0991921986811
20
1.7150828047229
30
-1E-16
41
1
10
49.0894057678681
20
2.59613132626478
30
-2E-16
41
1
10
48.089377353955
20
3.00397271027163
30
-2E-16
41
1
10
46.5857571203227
20
3.54629896158738
30
-2E-16
41
1
10
46.0829410509466
20
3.71568233638982
30
2E-16
41
1
10
45.0794170892131
20
4.02704875943451
30
2E-16
41
1
10
44.5787299536344
20
4.16914197225691
30
2E-16
41
1
10
43.5770535796176
20
4.423067145473
30
2E-16
41
1
10
43.0761548737631
20
4.53495296949441
30
2E-16
41
1
10
42.0725867507067
20
4.72680764919429
30
-1E-16
41
1
10
41.5699539868905
20
4.80659941748766
30
-1E-16
41
1
10
40.5657026424217
20
4.93156654806594
30
-1E-16
41
1
10
40.0628553586009
20
4.9770462019676
30
0
41
1
10
39.059611086442
20
5.03310401036154
30
0
41
1
10
38.5588243128854
20
5.04368563890782
30
0
41
1
10
37.5570896972934
20
5.02969889326818
30
0
41
1
10
37.0562170146098
20
5.00504771358535
30
0
41
1
10
36.052496627029
20
4.92069912158337
30
-1E-16
41
1
10
35.5497889463242
20
4.8610387589751
30
-1E-16
41
1
10
34.5455218265063
20
4.70797938630716
30
-1E-16
41
1
10
34.0428007597761
20
4.61440015914874
30
2E-16
41
1
10
33.0396156040214
20
4.39652633661879
30
2E-16
41
1
10
32.5387832696925
20
4.27231028336021
30
2E-16
41
1
10
31.6271598008991
20
4.02004860232961
30
2E-16
41
1
10
31.2164654946317
20
3.89659610368835
30
2E-16
41
1
10
30.8051266482365
20
3.76409455126287
30
1E-16
0
SPLINE
5
FB
100
AcDbEntity
8
1
62
256
6
ByLayer
370
18
48
1
60
0
100
AcDbSpline
70
4
71
3
72
36
73
32
40
0
40
0
40
0
40
0
40
0.0630080068027776
40
0.0630080068027776
40
0.126016013605556
40
0.126016013605556
40
0.189024020408334
40
0.189024020408334
40
0.252032027211112
40
0.252032027211112
40
0.31504003401389
40
0.31504003401389
40
0.378048040816668
40
0.378048040816668
40
0.504064054422223
40
0.504064054422223
40
0.535568057823613
40
0.535568057823613
40
0.567072061225003
40
0.567072061225003
40
0.630080068027783
40
0.630080068027783
40
0.756096081633343
40
0.756096081633343
40
0.819104088436122
40
0.819104088436122
40
0.882112095238902
40
0.882112095238902
40
0.945120102041682
40
0.945120102041682
40
1
40
1
40
1
40
1
41
1
10
70.5300751492225
20
-0.121238412702923
30
0
41
1
10
70.1788670250268
20
0.0475536464811057
30
0
41
1
10
69.827489065622
20
0.216407568004058
30
0
41
1
10
69.1275484928379
20
0.551154918648507
30
0
41
1
10
68.7785102336379
20
0.717252467929796
30
0
41
1
10
68.0817721139512
20
1.0456960083113
30
-1E-16
41
1
10
67.734094843554
20
1.20807360238163
30
-1E-16
41
1
10
67.0397922986114
20
1.52804763684367
30
-1E-16
41
1
10
66.6931919592971
20
1.68562933132967
30
-1E-16
41
1
10
65.9998799029193
20
1.99439368519026
30
-1E-16
41
1
10
65.6532709698417
20
2.14562073399466
30
-1E-16
41
1
10
64.9597163586563
20
2.44060854934384
30
-1E-16
41
1
10
64.6127160342338
20
2.58436820744143
30
-2E-16
41
1
10
63.569774875527
20
3.00256446992648
30
-2E-16
41
1
10
62.872172796799
20
3.26396045365917
30
-2E-16
41
1
10
61.9942483522431
20
3.56283941122763
30
-2E-16
41
1
10
61.818340684803
20
3.62120955805185
30
-2E-16
41
1
10
61.4676347740934
20
3.7343464707327
30
2E-16
41
1
10
61.2926336391495
20
3.78917131610658
30
2E-16
41
1
10
60.768509838546
20
3.94835112309531
30
2E-16
41
1
10
60.4201789516574
20
4.04752816150364
30
2E-16
41
1
10
59.3761772890324
20
4.32482689279348
30
2E-16
41
1
10
58.6819276899095
20
4.48222039561634
30
2E-16
41
1
10
57.6415960599474
20
4.671112241548
30
-1E-16
41
1
10
57.2949800270999
20
4.7261530677236
30
-1E-16
41
1
10
56.6016132178856
20
4.81893141067104
30
-1E-16
41
1
10
56.2545700947727
20
4.8574406114956
30
-1E-16
41
1
10
55.5588268004256
20
4.91964520310015
30
0
41
1
10
55.2102602067796
20
4.94284774192857
30
0
41
1
10
54.5565643321217
20
4.96969105951368
30
0
41
1
10
54.2515007770646
20
4.97604096581921
30
0
41
1
10
53.9454894838303
20
4.97614968208197
30
0
0
SPLINE
5
FC
100
AcDbEntity
8
1
62
256
6
ByLayer
370
18
48
1
60
0
100
AcDbSpline
70
4
71
3
72
8
73
4
40
0
40
0
40
0
40
0
40
1
40
1
40
1
40
1
41
1
10
5.46242152634079
20
-0.236782543686843
30
0
41
1
10
4.85679096772876
20
0.0509338179366239
30
0
41
1
10
4.25007174844762
20
0.341509665355971
30
0
41
1
10
3.64089560212551
20
0.632579336810096
30
0
0
SPLINE
5
FD
100
AcDbEntity
8
1
62
256
6
ByLayer
370
18
48
1
60
0
100
AcDbSpline
70
4
71
3
72
30
73
26
40
0
40
0
40
0
40
0
40
0.125
40
0.125
40
0.187500000000001
40
0.187500000000001
40
0.250000000000001
40
0.250000000000001
40
0.375000000000001
40
0.375000000000001
40
0.437500000000001
40
0.437500000000001
40
0.500000000000001
40
0.500000000000001
40
0.625000000000001
40
0.625000000000001
40
0.687500000000001
40
0.687500000000001
40
0.750000000000001
40
0.750000000000001
40
0.875000000000001
40
0.875000000000001
40
0.9375
40
0.9375
40
1
40
1
40
1
40
1
41
1
10
70.5300751492227
20
-0.121238412702894
30
0
41
1
10
70.5417873043764
20
-0.418199367510596
30
0
41
1
10
70.5654680549815
20
-0.709027298526422
30
0
41
1
10
70.6103700736136
20
-1.13729818177609
30
1E-16
41
1
10
70.6269339960005
20
-1.27871500192197
30
1E-16
41
1
10
70.6621309030524
20
-1.55894791029439
30
1E-16
41
1
10
70.6808526518599
20
-1.69838256950194
30
1E-16
41
1
10
70.7379662402804
20
-2.10801574079585
30
1E-16
41
1
10
70.7769388133803
20
-2.36807539775859
30
1E-16
41
1
10
70.8321202091828
20
-2.73967001041734
30
2E-16
41
1
10
70.8499923294816
20
-2.86042911323685
30
2E-16
41
1
10
70.8841816694291
20
-3.09563956039082
30
2E-16
41
1
10
70.9005569343726
20
-3.21053572215959
30
2E-16
41
1
10
70.9460099878408
20
-3.53935862836522
30
2E-16
41
1
10
70.9715857677664
20
-3.73922164550382
30
-2E-16
41
1
10
71.003441479605
20
-4.01036982635833
30
-2E-16
41
1
10
71.0129968534207
20
-4.09594941968837
30
-2E-16
41
1
10
71.0303554490602
20
-4.25721571618868
30
-2E-16
41
1
10
71.0381629958983
20
-4.33296477986673
30
-2E-16
41
1
10
71.0594517524899
20
-4.54067401298599
30
-2E-16
41
1
10
71.07091503862
20
-4.65494229449698
30
1E-16
41
1
10
71.0896086894605
20
-4.79040615493963
30
1E-16
41
1
10
71.0961070674876
20
-4.82953716349607
30
1E-16
41
1
10
71.1108298852106
20
-4.89541170848108
30
0
41
1
10
71.1190375558843
20
-4.92200461979388
30
0
41
1
10
71.1286721280615
20
-4.94200188481278
30
0
0
SPLINE
5
FE
100
AcDbEntity
8
1
62
256
6
ByLayer
370
18
48
1
60
0
100
AcDbSpline
70
4
71
3
72
10
73
6
40
0
40
0
40
0
40
0
40
0.5
40
0.5
40
1
40
1
40
1
40
1
41
1
10
3.50164460104878
20
0.586009541406327
30
0
41
1
10
3.50164460104878
20
0.620140487245749
30
0
41
1
10
3.52012927050072
20
0.652858870736424
30
0
41
1
10
3.57860879688002
20
0.688425586298479
30
0
41
1
10
3.61632700500138
20
0.689946156164467
30
0
41
1
10
3.64694887853977
20
0.674518082089463
30
0
0
SPLINE
5
FF
100
AcDbEntity
8
1
62
256
6
ByLayer
370
18
48
1
60
0
100
AcDbSpline
70
4
71
3
72
8
73
4
40
0
40
0
40
0
40
0
40
1
40
1
40
1
40
1
41
1
10
3.60179038405229
20
-4.6463856452217
30
1E-16
41
1
10
4.82054989432413
20
-4.84654962198357
30
1E-16
41
1
10
6.02651835978412
20
-4.94708530050855
30
0
41
1
10
7.23345486537121
20
-4.9477474617722
30
0
0
SPLINE
5
100
100
AcDbEntity
8
1
62
256
6
ByLayer
370
18
48
1
60
0
100
AcDbSpline
70
4
71
3
72
26
73
22
40
0
40
0
40
0
40
0
40
0.176785108771652
40
0.176785108771652
40
0.31398759064304
40
0.31398759064304
40
0.382588831578734
40
0.382588831578734
40
0.416889452046582
40
0.416889452046582
40
0.451190072514431
40
0.451190072514431
40
0.725595036257216
40
0.725595036257216
40
0.862797518128608
40
0.862797518128608
40
0.931398759064303
40
0.931398759064303
40
0.965699379532152
40
0.965699379532152
40
1
40
1
40
1
40
1
41
1
10
55.7650929961749
20
0.212809751416017
30
0
41
1
10
56.6695963984637
20
-0.220016936843507
30
0
41
1
10
57.5697272930167
20
-0.653362114484281
30
0
41
1
10
59.17082167393
20
-1.40238237972835
30
1E-16
41
1
10
59.8711365971222
20
-1.72294005254759
30
1E-16
41
1
10
60.9266193732619
20
-2.18524225906947
30
1E-16
41
1
10
61.2792896675444
20
-2.33624358968385
30
1E-16
41
1
10
61.8100975375157
20
-2.55699131152781
30
2E-16
41
1
10
61.9875140011227
20
-2.62968878489193
30
2E-16
41
1
10
62.3414707543777
20
-2.77238060705557
30
2E-16
41
1
10
62.5181436776203
20
-2.84243303453104
30
2E-16
41
1
10
64.1058439030791
20
-3.46072310418859
30
2E-16
41
1
10
65.5008983457764
20
-3.92328845749648
30
-2E-16
41
1
10
67.5999129069217
20
-4.44370227142744
30
-2E-16
41
1
10
68.3008886894278
20
-4.58871846620542
30
1E-16
41
1
10
69.3578737554313
20
-4.75834389957853
30
1E-16
41
1
10
69.7112167003465
20
-4.8069168811931
30
1E-16
41
1
10
70.2429195265898
20
-4.86721664567276
30
1E-16
41
1
10
70.4200937571856
20
-4.88518517233581
30
1E-16
41
1
10
70.7743971768424
20
-4.91681696938849
30
0
41
1
10
70.9515163068097
20
-4.93020703228942
30
0
41
1
10
71.1286721280462
20
-4.94200188481287
30
0
0
SPLINE
5
101
100
AcDbEntity
8
1
62
256
6
ByLayer
370
18
48
1
60
0
100
AcDbSpline
70
4
71
3
72
44
73
40
40
0
40
0
40
0
40
0
40
0.0095536840834562
40
0.0095536840834562
40
0.0920908770765005
40
0.0920908770765005
40
0.133359473573023
40
0.133359473573023
40
0.174628070069545
40
0.174628070069545
40
0.215896666566067
40
0.215896666566067
40
0.257165263062589
40
0.257165263062589
40
0.298433859559111
40
0.298433859559111
40
0.339702456055633
40
0.339702456055633
40
0.380971052552155
40
0.380971052552155
40
0.422239649048678
40
0.422239649048678
40
0.504776842041722
40
0.504776842041722
40
0.587314035034768
40
0.587314035034768
40
0.62858263153129
40
0.62858263153129
40
0.669851228027813
40
0.669851228027813
40
0.752388421020859
40
0.752388421020859
40
0.793657017517382
40
0.793657017517382
40
0.834925614013906
40
0.834925614013906
40
0.917462807006953
40
0.917462807006953
40
1
40
1
40
1
40
1
41
1
10
34.6205721393999
20
4.88561317900937
30
0
41
1
10
34.7359496290835
20
4.90631564191881
30
-1E-16
41
1
10
34.8513502054747
20
4.92612007448696
30
-1E-16
41
1
10
35.9640801135799
20
5.10826084574592
30
-1E-16
41
1
10
36.9616191605211
20
5.20278577867344
30
0
41
1
10
38.4575590611891
20
5.2355333000169
30
0
41
1
10
38.9563337100354
20
5.22837535065645
30
0
41
1
10
39.9527277724864
20
5.17815722083122
30
0
41
1
10
40.4509356724717
20
5.13509138410387
30
-1E-16
41
1
10
41.4482119302774
20
5.01374607819224
30
-1E-16
41
1
10
41.9461101332636
20
4.93562250412245
30
-1E-16
41
1
10
42.9425162363592
20
4.7458319413019
30
2E-16
41
1
10
43.4413626632343
20
4.634058430094
30
2E-16
41
1
10
44.4376994281981
20
4.37969616094764
30
2E-16
41
1
10
44.9356459150726
20
4.23701987160325
30
2E-16
41
1
10
45.9330305350972
20
3.92292298789587
30
2E-16
41
1
10
46.4315660014629
20
3.75178074940817
30
2E-16
41
1
10
47.4286513561319
20
3.38475372691508
30
-2E-16
41
1
10
47.9273538769564
20
3.18878678364476
30
-2E-16
41
1
10
48.9235828354863
20
2.77661411383389
30
-2E-16
41
1
10
49.4213896756432
20
2.56033121168241
30
-2E-16
41
1
10
50.9170658948441
20
1.8862572713571
30
-1E-16
41
1
10
51.9140479345872
20
1.40443578206487
30
-1E-16
41
1
10
53.9084321790585
20
0.414934881589147
30
0
41
1
10
54.9052866963426
20
-0.092540150269059
30
0
41
1
10
56.4005222266194
20
-0.841863793336017
30
1E-16
41
1
10
56.8989358653248
20
-1.08958850942969
30
1E-16
41
1
10
57.8960348525175
20
-1.57597859759383
30
1E-16
41
1
10
58.3938471655457
20
-1.81424294557939
30
1E-16
41
1
10
59.8877971157875
20
-2.50829799963967
30
2E-16
41
1
10
60.885011860525
20
-2.94344773350753
30
2E-16
41
1
10
62.3803293047004
20
-3.52663443527746
30
2E-16
41
1
10
62.8788189249203
20
-3.7095315129441
30
-2E-16
41
1
10
63.8753279659024
20
-4.04847707933325
30
-2E-16
41
1
10
64.3729305268878
20
-4.20439969431092
30
-2E-16
41
1
10
65.8669564915839
20
-4.62765543592101
30
-2E-16
41
1
10
66.8641329566773
20
-4.84988149206231
30
-1E-16
41
1
10
68.8575061434573
20
-5.15528010079692
30
1E-16
41
1
10
69.8540648295903
20
-5.23849564767661
30
0
41
1
10
70.8505048174505
20
-5.24886495220665
30
0
0
SPLINE
5
102
100
AcDbEntity
8
1
62
256
6
ByLayer
370
18
48
1
60
0
100
AcDbSpline
70
4
71
3
72
14
73
10
40
0
40
0
40
0
40
0
40
0.208285782717608
40
0.415061156389831
40
0.512359664556635
40
0.607455751487648
40
0.702031002361339
40
0.836636667938107
40
1
40
1
40
1
40
1
41
1
10
71.4261850567423
20
0.921466519084049
30
-1E-16
41
1
10
70.9724374493176
20
1.05931367442639
30
-1E-16
41
1
10
70.0708775877953
20
1.34211529148749
30
-1E-16
41
1
10
68.9643523036227
20
1.71136305350811
30
-1E-16
41
1
10
68.1061393553911
20
2.01017892896039
30
-1E-16
41
1
10
67.4909298990813
20
2.23003865285972
30
-1E-16
41
1
10
66.7978057981049
20
2.48409477927123
30
-2E-16
41
1
10
65.9615706043365
20
2.7994625489992
30
-2E-16
41
1
10
65.330205957235
20
3.04765465008416
30
-2E-16
41
1
10
64.985018885466
20
3.18627322677989
30
-2E-16
0
SPLINE
5
103
100
AcDbEntity
8
1
62
256
6
ByLayer
370
18
48
1
60
0
100
AcDbSpline
70
4
71
3
72
34
73
30
40
0
40
0
40
0
40
0
40
1.55757879294E-05
40
2.42480256979E-05
40
3.19745857653E-05
40
4.54808856522E-05
40
5.74853335944E-05
40
0.0001353969510937
40
0.0001959480335829
40
0.0003043737257345
40
0.0004989439707856
40
0.0008494310091407
40
0.0014850032803882
40
0.002650937192474
40
0.0048319925750827
40
0.0442558459141739
40
0.0986460645302121
40
0.155910981684686
40
0.215349083244702
40
0.307091666778669
40
0.398613673469434
40
0.454371004384342
40
0.512813216457435
40
0.569165453400795
40
0.622300079782211
40
0.681668292197256
40
0.763973483536887
40
0.877928909440714
40
1
40
1
40
1
40
1
41
1
10
41.2570992453952
20
0.210457359208078
30
0
41
1
10
41.257118068107
20
0.210454124002013
30
0
41
1
10
41.2571393899362
20
0.210451584498145
30
0
41
1
10
41.2571291316315
20
0.210461112752853
30
0
41
1
10
41.257087044588
20
0.210475155204421
30
0
41
1
10
41.2570273437299
20
0.210494320752929
30
0
41
1
10
41.2567701165388
20
0.210569500437657
30
0
41
1
10
41.2563059305973
20
0.210694276390456
30
0
41
1
10
41.2556086914904
20
0.210887909430937
30
0
41
1
10
41.2545595797243
20
0.211176914363335
30
0
41
1
10
41.2526864968475
20
0.211694250082843
30
0
41
1
10
41.2492912652909
20
0.212630955404819
30
0
41
1
10
41.2430989477888
20
0.214339381081487
30
0
41
1
10
41.2316088955998
20
0.217507662670812
30
0
41
1
10
41.1077004112448
20
0.251655316783626
30
0
41
1
10
40.8220120727977
20
0.330222139851543
30
0
41
1
10
40.3714953009157
20
0.455575451695978
30
0
41
1
10
39.8593150347543
20
0.601282581878735
30
0
41
1
10
39.2331922529133
20
0.784023270961143
30
0
41
1
10
38.5064486478267
20
1.0033368357268
30
-1E-16
41
1
10
37.7930327021299
20
1.22715129063172
30
-1E-16
41
1
10
37.1807524203905
20
1.42513363917669
30
-1E-16
41
1
10
36.674263140044
20
1.59269782830342
30
-1E-16
41
1
10
36.1766877085618
20
1.76105718218267
30
-1E-16
41
1
10
35.6774610085184
20
1.93356344349365
30
-1E-16
41
1
10
35.102898170283
20
2.13633024171759
30
-1E-16
41
1
10
34.351352542063
20
2.40864143587569
30
-1E-16
41
1
10
33.419274593799
20
2.7578943973981
30
-2E-16
41
1
10
32.7323650438095
20
3.02742310708618
30
-2E-16
41
1
10
32.3781505807742
20
3.1695170658754
30
-2E-16
0
SPLINE
5
104
100
AcDbEntity
8
1
62
256
6
ByLayer
370
18
48
1
60
0
100
AcDbSpline
70
4
71
3
72
20
73
16
40
0
40
0
40
0
40
0
40
0.114393022011317
40
0.197351842172958
40
0.288868896271346
40
0.391248753796205
40
0.472342369867517
40
0.542732599581278
40
0.611831791600166
40
0.688151534316471
40
0.776815446607409
40
0.872949317786976
40
0.952030511504116
40
0.994107670467956
40
1
40
1
40
1
40
1
41
1
10
7.20572484520505
20
-4.94766279884723
30
0
41
1
10
7.62295284261222
20
-4.94792412364887
30
0
41
1
10
8.34283979330291
20
-4.94846332016189
30
0
41
1
10
9.39695651494134
20
-4.94969756672515
30
0
41
1
10
10.40701929273
20
-4.95062227649757
30
0
41
1
10
11.4108998016511
20
-4.95108804115301
30
0
41
1
10
12.3374830985793
20
-4.95233743619551
30
0
41
1
10
13.1426358563585
20
-4.95242854422546
30
0
41
1
10
13.930354145201
20
-4.95350121496972
30
0
41
1
10
14.7847749100472
20
-4.95397267666155
30
0
41
1
10
15.7378751694458
20
-4.95450465098409
30
0
41
1
10
16.7010159774341
20
-4.95565316977269
30
0
41
1
10
17.4941718243677
20
-4.95558246650171
30
0
41
1
10
17.9578455504081
20
-4.95626665233311
30
0
41
1
10
18.1328067425119
20
-4.95646750731672
30
0
41
1
10
18.1542969996271
20
-4.95649119970659
30
0
0
SPLINE
5
105
100
AcDbEntity
8
1
62
256
6
ByLayer
370
18
48
1
60
0
100
AcDbSpline
70
4
71
3
72
18
73
14
40
0
40
0
40
0
40
0
40
0.131620765704028
40
0.232415003859361
40
0.354273695445942
40
0.453060821497623
40
0.532071393620374
40
0.616006162971494
40
0.729706952266806
40
0.851843221716551
40
0.957447338206537
40
0.999541749187131
40
1
40
1
40
1
40
1
41
1
10
21.3166152937034
20
4.95828773118589
30
0
41
1
10
20.8414028575063
20
4.95815543243688
30
0
41
1
10
20.0022659270012
20
4.95776621062578
30
0
41
1
10
18.7239637491003
20
4.95704296011547
30
0
41
1
10
17.5624367264862
20
4.95544366868356
30
0
41
1
10
16.4799963266312
20
4.9557119146204
30
0
41
1
10
15.5345209397711
20
4.95416577134006
30
0
41
1
10
14.535192443662
20
4.95401878469326
30
0
41
1
10
13.3799493342342
20
4.95262879684151
30
0
41
1
10
12.1472852434246
20
4.95206062806173
30
0
41
1
10
11.1720979243961
20
4.95085136111445
30
0
41
1
10
10.6375850133216
20
4.95066767951093
30
0
41
1
10
10.4840359832351
20
4.95057872010113
30
0
41
1
10
10.4823824059299
20
4.95057775791193
30
0
0
SPLINE
5
106
100
AcDbEntity
8
1
62
256
6
ByLayer
370
18
48
1
60
0
100
AcDbSpline
70
4
71
3
72
19
73
15
40
0
40
0
40
0
40
0
40
0.110350653357902
40
0.186249047608071
40
0.258522492281237
40
0.350515613513605
40
0.432633188234692
40
0.499795147816059
40
0.560295733279442
40
0.621208411954496
40
0.725642703342051
40
0.852378805054798
40
0.961250048472519
40
1
40
1
40
1
40
1
41
1
10
39.8612033713105
20
-4.96812896739695
30
0
41
1
10
40.2618683020181
20
-4.9683252856214
30
0
41
1
10
40.9381417860648
20
-4.96871272788547
30
0
41
1
10
41.8773731325083
20
-4.96921540166085
30
0
41
1
10
42.7491495403866
20
-4.970081543475
30
0
41
1
10
43.6443242357042
20
-4.97025891154331
30
0
41
1
10
44.5206851229847
20
-4.97099411554916
30
0
41
1
10
45.2827124130247
20
-4.97165222574608
30
0
41
1
10
45.9677042412951
20
-4.97126476539526
30
0
41
1
10
46.7880901523903
20
-4.97262270032564
30
0
41
1
10
47.8490620477112
20
-4.97214226966835
30
0
41
1
10
49.0842937318025
20
-4.97460609347127
30
0
41
1
10
50.080773439296
20
-4.97304265082599
30
0
41
1
10
50.617142435533
20
-4.97412597819252
30
0
41
1
10
50.757746556415
20
-4.97433490697313
30
0
0
SPLINE
5
107
100
AcDbEntity
8
1
62
256
6
ByLayer
370
18
48
1
60
0
100
AcDbSpline
70
4
71
3
72
18
73
14
40
0
40
0
40
0
40
0
40
0.127045818456429
40
0.227293614546035
40
0.346956924971624
40
0.444662327230862
40
0.521790130002285
40
0.603913312422854
40
0.716070987350675
40
0.835551433053172
40
0.939866822947313
40
0.981577794528625
40
1
40
1
40
1
40
1
41
1
10
53.9728222174888
20
4.9761205988068
30
0
41
1
10
53.5096555522148
20
4.97556878610587
30
0
41
1
10
52.6809612404493
20
4.9747006867758
30
0
41
1
10
51.4166554958297
20
4.97528985088769
30
0
41
1
10
50.2574620249308
20
4.97292647229466
30
0
41
1
10
49.1830328847826
20
4.9745239528616
30
0
41
1
10
48.245477081114
20
4.97216300587331
30
0
41
1
10
47.2552006869805
20
4.97311336438324
30
0
41
1
10
46.1104274963025
20
4.97106750892783
30
0
41
1
10
44.8845361718826
20
4.97171304356894
30
0
41
1
10
43.9161078912027
20
4.97030686245827
30
0
41
1
10
43.3156387262213
20
4.97033668832299
30
0
41
1
10
43.0975727092439
20
4.97003563765352
30
0
41
1
10
43.0307825007325
20
4.96992998207438
30
0
0
LINE
5
84
100
AcDbEntity
8
SK1
62
256
6
ByLayer
370
18
48
1
60
0
100
AcDbLine
10
-45
20
4.239304
30
0
11
-45
21
4.255
31
0
39
0
210
0
220
0
230
1
0
LINE
5
86
100
AcDbEntity
8
SK1
62
256
6
ByLayer
370
18
48
1
60
0
100
AcDbLine
10
0
20
6
30
0
11
0
21
-6
31
0
39
0
210
0
220
0
230
1
0
LINE
5
87
100
AcDbEntity
8
SK1
62
256
6
ByLayer
370
18
48
1
60
0
100
AcDbLine
10
-45
20
-4.255
30
0
11
-45
21
2.726186
31
0
39
0
210
0
220
0
230
1
0
LINE
5
88
100
AcDbEntity
8
SK1
62
256
6
ByLayer
370
18
48
1
60
0
100
AcDbLine
10
-44.417949
20
3.733917
30
0
11
-44.417949
21
4.658682
31
0
39
0
210
0
220
0
230
1
0
LINE
5
89
100
AcDbEntity
8
SK1
62
256
6
ByLayer
370
18
48
1
60
0
100
AcDbLine
10
-44.25
20
3.886057
30
0
11
-44.25
21
4.810776
31
0
39
0
210
0
220
0
230
1
0
LINE
5
8A
100
AcDbEntity
8
SK1
62
256
6
ByLayer
370
18
48
1
60
0
100
AcDbLine
10
-44.15
20
4.039548
30
0
11
-44.15
21
4.871792
31
0
39
0
210
0
220
0
230
1
0
LINE
5
8B
100
AcDbEntity
8
SK1
62
256
6
ByLayer
370
18
48
1
60
0
100
AcDbLine
10
-43.255
20
-6
30
0
11
-43.255
21
6
31
0
39
0
210
0
220
0
230
1
0
LINE
5
8C
100
AcDbEntity
8
SK1
62
256
6
ByLayer
370
18
48
1
60
0
100
AcDbLine
10
-45
20
2.72616
30
0
11
-45
21
4.239304
31
0
39
0
210
0
220
0
230
1
0
LINE
5
8D
100
AcDbEntity
8
1
62
256
6
ByLayer
370
18
48
1
60
0
100
AcDbLine
10
72.926788
20
0.063201
30
0
11
71.66739
21
1.453358
31
0
39
0
210
0
220
0
230
1
0
LINE
5
8E
100
AcDbEntity
8
1
62
256
6
ByLayer
370
18
48
1
60
0
100
AcDbLine
10
23
20
-0.465364
30
0
11
23
21
-0.541943
31
0
39
0
210
0
220
0
230
1
0
LINE
5
8F
100
AcDbEntity
8
1
62
256
6
ByLayer
370
18
48
1
60
0
100
AcDbLine
10
1.382407
20
5.206432
30
0
11
1.382407
21
0
31
0
39
0
210
0
220
0
230
1
0
LINE
5
90
100
AcDbEntity
8
1
62
256
6
ByLayer
370
18
48
1
60
0
100
AcDbLine
10
1.382407
20
0
30
0
11
1.382407
21
-5.206432
31
0
39
0
210
0
220
0
230
1
0
LINE
5
91
100
AcDbEntity
8
1
62
256
6
ByLayer
370
18
48
1
60
0
100
AcDbLine
10
0
20
6
30
0
11
0
21
0
31
0
39
0
210
0
220
0
230
1
0
LINE
5
92
100
AcDbEntity
8
1
62
256
6
ByLayer
370
18
48
1
60
0
100
AcDbLine
10
0
20
0
30
0
11
0
21
-6
31
0
39
0
210
0
220
0
230
1
0
LINE
5
93
100
AcDbEntity
8
1
62
256
6
ByLayer
370
18
48
1
60
0
100
AcDbLine
10
3.501645
20
-4.857643
30
0
11
3.501645
21
0.58601
31
0
39
0
210
0
220
0
230
1
0
LINE
5
94
100
AcDbEntity
8
1
62
256
6
ByLayer
370
18
48
1
60
0
100
AcDbLine
10
0.690954
20
5.603216
30
0
11
0.690954
21
0
31
0
39
0
210
0
220
0
230
1
0
LINE
5
95
100
AcDbEntity
8
1
62
256
6
ByLayer
370
18
48
1
60
0
100
AcDbLine
10
0.690954
20
0
30
0
11
0.690954
21
-5.603216
31
0
39
0
210
0
220
0
230
1
0
LINE
5
96
100
AcDbEntity
8
SK1
62
256
6
ByLayer
370
18
48
1
60
0
100
AcDbLine
10
-45
20
-4.255
30
0
11
-43.255
21
-6
31
0
39
0
210
0
220
0
230
1
0
LINE
5
97
100
AcDbEntity
8
SK1
62
256
6
ByLayer
370
18
48
1
60
0
100
AcDbLine
10
-43.255
20
6
30
0
11
-45
21
4.255
31
0
39
0
210
0
220
0
230
1
0
LINE
5
98
100
AcDbEntity
8
SK1
62
256
6
ByLayer
370
18
48
1
60
0
100
AcDbLine
10
-43.255
20
-6
30
0
11
0
21
-6
31
0
39
0
210
0
220
0
230
1
0
LINE
5
99
100
AcDbEntity
8
SK1
62
256
6
ByLayer
370
18
48
1
60
0
100
AcDbLine
10
0
20
6
30
0
11
-43.255
21
6
31
0
39
0
210
0
220
0
230
1
0
LINE
5
9A
100
AcDbEntity
8
1
62
256
6
ByLayer
370
18
48
1
60
0
100
AcDbLine
10
1.382407
20
-5.206432
30
0
11
7.210764
21
-5.210075
31
0
39
0
210
0
220
0
230
1
0
LINE
5
9B
100
AcDbEntity
8
1
62
256
6
ByLayer
370
18
48
1
60
0
100
AcDbLine
10
21.318648
20
-5.218892
30
0
11
22.830489
21
-5.219837
31
0
39
0
210
0
220
0
230
1
0
LINE
5
9C
100
AcDbEntity
8
1
62
256
6
ByLayer
370
18
48
1
60
0
100
AcDbLine
10
38.398623
20
-5.229567
30
0
11
39.86133
21
-5.230482
31
0
39
0
210
0
220
0
230
1
0
LINE
5
9D
100
AcDbEntity
8
1
62
256
6
ByLayer
370
18
48
1
60
0
100
AcDbLine
10
53.974563
20
-5.239302
30
0
11
55.450424
21
-5.240225
31
0
39
0
210
0
220
0
230
1
0
LINE
5
9E
100
AcDbEntity
8
1
62
256
6
ByLayer
370
18
48
1
60
0
100
AcDbLine
10
55.450424
20
5.240225
30
0
11
53.974563
21
5.239302
31
0
39
0
210
0
220
0
230
1
0
LINE
5
9F
100
AcDbEntity
8
1
62
256
6
ByLayer
370
18
48
1
60
0
100
AcDbLine
10
39.86133
20
5.230482
30
0
11
38.398623
21
5.229567
31
0
39
0
210
0
220
0
230
1
0
LINE
5
A0
100
AcDbEntity
8
1
62
256
6
ByLayer
370
18
48
1
60
0
100
AcDbLine
10
22.830489
20
5.219837
30
0
11
21.318648
21
5.218892
31
0
39
0
210
0
220
0
230
1
0
LINE
5
A1
100
AcDbEntity
8
1
62
256
6
ByLayer
370
18
48
1
60
0
100
AcDbLine
10
7.210764
20
5.210075
30
0
11
1.382407
21
5.206432
31
0
39
0
210
0
220
0
230
1
0
LINE
5
A2
100
AcDbEntity
8
SK4
62
256
6
ByLayer
370
18
48
0.05
60
0
100
AcDbLine
10
78
20
0
30
0
11
-50
21
0
31
0
39
0
210
0
220
0
230
1
0
LINE
5
A4
100
AcDbEntity
8
4
62
256
6
ByLayer
370
18
48
0.05
60
0
100
AcDbLine
10
-45
20
0
30
0
11
78
21
0
31
0
39
0
210
0
220
0
230
1
0
LINE
5
A6
100
AcDbEntity
8
80
62
256
6
ByLayer
370
18
48
1
60
0
100
AcDbLine
10
0
20
0
30
0
11
-6
21
0
31
0
39
0
210
0
220
0
230
1
0
LINE
5
A7
100
AcDbEntity
8
81
62
256
6
ByLayer
370
18
48
1
60
0
100
AcDbLine
10
73
20
0
30
0
11
79
21
0
31
0
39
0
210
0
220
0
230
1
0
LINE
5
A8
100
AcDbEntity
8
SK2
62
256
6
ByLayer
370
13
48
1
60
0
100
AcDbLine
10
73.542946
20
1.491766
30
0
11
80.926157
21
21.777435
31
0
39
0
210
0
220
0
230
1
0
LINE
5
AA
100
AcDbEntity
8
SK2
62
256
6
ByLayer
370
13
48
1
60
0
100
AcDbLine
10
73.542946
20
-1.491766
30
0
11
80.926157
21
-21.777435
31
0
39
0
210
0
220
0
230
1
0
LINE
5
AB
100
AcDbEntity
8
1
62
256
6
ByLayer
370
13
48
1
60
0
100
AcDbLine
10
79.840265
20
18.793903
30
0
11
82.936861
21
17.977554
31
0
39
0
210
0
220
0
230
1
0
LINE
5
AC
100
AcDbEntity
8
1
62
256
6
ByLayer
370
13
48
1
60
0
100
AcDbLine
10
79.840265
20
18.793903
30
0
11
82.620063
21
17.20391
31
0
39
0
210
0
220
0
230
1
0
LINE
5
AD
100
AcDbEntity
8
1
62
256
6
ByLayer
370
13
48
1
60
0
100
AcDbLine
10
82.936861
20
17.977554
30
0
11
82.620063
21
17.20391
31
0
39
0
210
0
220
0
230
1
0
LINE
5
AE
100
AcDbEntity
8
1
62
256
6
ByLayer
370
13
48
1
60
0
100
AcDbLine
10
79.840265
20
-18.793903
30
0
11
82.62006
21
-17.203911
31
0
39
0
210
0
220
0
230
1
0
LINE
5
AF
100
AcDbEntity
8
1
62
256
6
ByLayer
370
13
48
1
60
0
100
AcDbLine
10
79.840265
20
-18.793903
30
0
11
82.936864
21
-17.977552
31
0
39
0
210
0
220
0
230
1
0
LINE
5
B0
100
AcDbEntity
8
1
62
256
6
ByLayer
370
13
48
1
60
0
100
AcDbLine
10
82.62006
20
-17.203911
30
0
11
82.936864
21
-17.977552
31
0
39
0
210
0
220
0
230
1
0
MTEXT
5
108
100
AcDbEntity
8
SK2
62
256
6
ByLayer
370
18
48
1
60
0
100
AcDbMText
10
86.717388
20
-2.467451
30
0
210
0
220
0
230
1
1
\W0.7237;140.00
40
3.50012
41
0
44
1.084337
50
0
71
7
72
5
7
iso_b_vert
0
MTEXT
5
10B
100
AcDbEntity
8
SK6
62
256
6
ByLayer
370
18
48
1
60
0
100
AcDbMText
10
-24.403913
20
-98.624515
30
0
210
0
220
0
230
1
1
\W0.7348;860.1-1050-052A1-GM X1BM
40
3.175
41
0
44
1.084337
50
0
71
7
72
5
7
iso_b_vert
0
DIMENSION
5
10E
100
AcDbEntity
8
SK2
62
256
6
ByLayer
370
18
48
1
60
0
100
AcDbDimension
2
_U0
10
73
20
-29.50012
30
0
11
36.5
21
-29.50012
31
0
70
32
71
2
72
1
41
1
210
0
220
0
230
1
3
Standard
100
AcDbAlignedDimension
13
0
23
-6
33
0
14
73
24
0
34
0
50
0
100
AcDbRotatedDimension
1001
ACAD
1000
DSTYLE
1002
{
1070
   371
1070
    13
1070
   372
1070
    13
1070
     3
1000

1070
   170
1070
     0
1070
   144
1040
1.0
1070
   277
1070
     2
1070
   284
1070
     8
1070
   278
1070
    46
1070
   146
1040
0.999966
1070
   345
1005
16
1070
   347
1005
16
1070
   346
1005
16
1070
   344
1005
10F
1070
   343
1005
10F
1070
   172
1070
     1
1070
    76
1070
     0
1070
    75
1070
     0
1070
   282
1070
     0
1070
   281
1070
     0
1070
    71
1070
     0
1070
    74
1070
     0
1070
   279
1070
     0
1070
   173
1070
     1
1070
   340
1005
109
1070
   271
1070
     1
1070
   272
1070
     2
1070
    77
1070
     1
1070
    73
1070
     1
1070
   171
1070
     3
1070
   274
1070
     4
1070
   177
1070
   150
1070
   176
1070
     9
1070
   178
1070
    43
1070
    78
1070
     8
1070
    48
1040
-0.1
1070
    41
1040
3.175
1070
   147
1040
1.75006
1070
    42
1040
1.5875
1070
    44
1040
3.175
1070
   140
1040
3.50012
1002
}
1001
ACAD_DSTYLE_DIM_LINETYPE
1070
   380
1005
16
1001
ACAD_DSTYLE_DIM_EXT1_LINETYPE
1070
   381
1005
16
1001
ACAD_DSTYLE_DIM_EXT2_LINETYPE
1070
   382
1005
16
0
DIMENSION
5
134
100
AcDbEntity
8
2
62
256
6
ByLayer
370
18
48
1
60
0
100
AcDbDimension
2
_U1
10
79.75006
20
5.25
30
0
11
79.75006
21
22.239948
31
0
70
32
71
1
72
1
41
1
210
0
220
0
230
1
3
Standard
100
AcDbAlignedDimension
13
71.0892
23
-5.25
33
0
14
71.0892
24
5.25
34
0
50
90
100
AcDbRotatedDimension
1001
ACAD
1000
DSTYLE
1002
{
1070
   371
1070
    13
1070
   372
1070
    13
1070
     3
1000

1070
   170
1070
     0
1070
   144
1040
1.0
1070
   277
1070
     2
1070
   284
1070
     8
1070
   278
1070
    46
1070
   146
1040
0.999966
1070
   345
1005
16
1070
   347
1005
16
1070
   346
1005
16
1070
   344
1005
10F
1070
   343
1005
10F
1070
   172
1070
     1
1070
    76
1070
     0
1070
    75
1070
     0
1070
   282
1070
     0
1070
   281
1070
     0
1070
    71
1070
     0
1070
    74
1070
     0
1070
   279
1070
     0
1070
   173
1070
     1
1070
   340
1005
109
1070
   271
1070
     1
1070
   272
1070
     2
1070
    77
1070
     1
1070
    73
1070
     0
1070
   171
1070
     3
1070
   274
1070
     4
1070
   177
1070
   150
1070
   176
1070
     9
1070
   178
1070
    43
1070
    78
1070
     8
1070
    48
1040
-0.1
1070
    41
1040
3.175
1070
   147
1040
1.75006
1070
    42
1040
1.5875
1070
    44
1040
3.175
1070
   140
1040
3.50012
1002
}
1001
ACAD_DSTYLE_DIM_LINETYPE
1070
   380
1005
16
1001
ACAD_DSTYLE_DIM_EXT1_LINETYPE
1070
   381
1005
16
1001
ACAD_DSTYLE_DIM_EXT2_LINETYPE
1070
   382
1005
16
0
DIMENSION
5
153
100
AcDbEntity
8
SK2
62
256
6
ByLayer
370
18
48
1
60
0
100
AcDbDimension
2
_U2
10
-48.24994
20
-6
30
0
11
-48.24994
21
20.97767
31
0
70
32
71
1
72
1
41
1
210
0
220
0
230
1
3
Standard
100
AcDbAlignedDimension
13
-45
23
6
33
0
14
-45
24
-6
34
0
50
90
100
AcDbRotatedDimension
1001
ACAD
1000
DSTYLE
1002
{
1070
   371
1070
    13
1070
   372
1070
    13
1070
     3
1000

1070
   170
1070
     0
1070
   144
1040
1.0
1070
   277
1070
     2
1070
   284
1070
     8
1070
   278
1070
    46
1070
   146
1040
0.999966
1070
   345
1005
16
1070
   347
1005
16
1070
   346
1005
16
1070
   344
1005
10F
1070
   343
1005
10F
1070
   172
1070
     1
1070
    76
1070
     0
1070
    75
1070
     0
1070
   282
1070
     0
1070
   281
1070
     0
1070
    71
1070
     0
1070
    74
1070
     0
1070
   279
1070
     0
1070
   173
1070
     1
1070
   340
1005
109
1070
   271
1070
     1
1070
   272
1070
     2
1070
    77
1070
     1
1070
    73
1070
     0
1070
   171
1070
     3
1070
   274
1070
     4
1070
   177
1070
   150
1070
   176
1070
     9
1070
   178
1070
    43
1070
    78
1070
     8
1070
    48
1040
-0.1
1070
    41
1040
3.175
1070
   147
1040
1.75006
1070
    42
1040
1.5875
1070
    44
1040
3.175
1070
   140
1040
3.50012
1002
}
1001
ACAD_DSTYLE_DIM_LINETYPE
1070
   380
1005
16
1001
ACAD_DSTYLE_DIM_EXT1_LINETYPE
1070
   381
1005
16
1001
ACAD_DSTYLE_DIM_EXT2_LINETYPE
1070
   382
1005
16
0
DIMENSION
5
171
100
AcDbEntity
8
SK2
62
256
6
ByLayer
370
18
48
1
60
0
100
AcDbDimension
2
_U3
10
0
20
-29.50012
30
0
11
-22.5
21
-29.50012
31
0
70
32
71
1
72
1
41
1
210
0
220
0
230
1
3
Standard
100
AcDbAlignedDimension
13
-45
23
-6
33
0
14
0
24
-6
34
0
50
0
100
AcDbRotatedDimension
1001
ACAD
1000
DSTYLE
1002
{
1070
   371
1070
    13
1070
   372
1070
    13
1070
     3
1000

1070
   170
1070
     0
1070
   144
1040
1.0
1070
   277
1070
     2
1070
   284
1070
     8
1070
   278
1070
    46
1070
   146
1040
0.999966
1070
   345
1005
16
1070
   347
1005
16
1070
   346
1005
16
1070
   344
1005
10F
1070
   343
1005
10F
1070
   172
1070
     1
1070
    76
1070
     0
1070
    75
1070
     0
1070
   282
1070
     0
1070
   281
1070
     0
1070
    71
1070
     0
1070
    74
1070
     0
1070
   279
1070
     0
1070
   173
1070
     1
1070
   340
1005
109
1070
   271
1070
     1
1070
   272
1070
     2
1070
    77
1070
     1
1070
    73
1070
     1
1070
   171
1070
     3
1070
   274
1070
     4
1070
   177
1070
   150
1070
   176
1070
     9
1070
   178
1070
    43
1070
    78
1070
     8
1070
    48
1040
-0.1
1070
    41
1040
3.175
1070
   147
1040
1.75006
1070
    42
1040
1.5875
1070
    44
1040
3.175
1070
   140
1040
3.50012
1002
}
1001
ACAD_DSTYLE_DIM_LINETYPE
1070
   380
1005
16
1001
ACAD_DSTYLE_DIM_EXT1_LINETYPE
1070
   381
1005
16
1001
ACAD_DSTYLE_DIM_EXT2_LINETYPE
1070
   382
1005
16
0
DIMENSION
5
18D
100
AcDbEntity
8
SK2
62
256
6
ByLayer
370
18
48
1
60
0
100
AcDbDimension
2
_U4
10
73
20
-20.74982
30
0
11
37.5
21
-20.74982
31
0
70
32
71
1
72
1
41
1
210
0
220
0
230
1
3
Standard
100
AcDbAlignedDimension
13
2
23
5.75
33
0
14
73
24
0
34
0
50
0
100
AcDbRotatedDimension
1001
ACAD
1000
DSTYLE
1002
{
1070
   371
1070
    13
1070
   372
1070
    13
1070
     3
1000

1070
   170
1070
     0
1070
   144
1040
1.0
1070
   277
1070
     2
1070
   284
1070
     8
1070
   278
1070
    46
1070
   146
1040
0.999966
1070
   345
1005
16
1070
   347
1005
16
1070
   346
1005
16
1070
   344
1005
10F
1070
   343
1005
10F
1070
   172
1070
     1
1070
    76
1070
     0
1070
    75
1070
     0
1070
   282
1070
     0
1070
   281
1070
     0
1070
    71
1070
     0
1070
    74
1070
     0
1070
   279
1070
     0
1070
   173
1070
     1
1070
   340
1005
109
1070
   271
1070
     1
1070
   272
1070
     2
1070
    77
1070
     1
1070
    73
1070
     1
1070
   171
1070
     3
1070
   274
1070
     4
1070
   177
1070
   150
1070
   176
1070
     9
1070
   178
1070
    43
1070
    78
1070
     8
1070
    48
1040
-0.1
1070
    41
1040
3.175
1070
   147
1040
1.75006
1070
    42
1040
1.5875
1070
    44
1040
3.175
1070
   140
1040
3.50012
1002
}
1001
ACAD_DSTYLE_DIM_LINETYPE
1070
   380
1005
16
1001
ACAD_DSTYLE_DIM_EXT1_LINETYPE
1070
   381
1005
16
1001
ACAD_DSTYLE_DIM_EXT2_LINETYPE
1070
   382
1005
16
0
DIMENSION
5
1A9
100
AcDbEntity
8
SK2
62
256
6
ByLayer
370
18
48
1
60
0
100
AcDbDimension
2
_U5
10
73
20
-12.82
30
0
11
45.8
21
-12.82
31
0
70
32
71
1
72
1
41
1
210
0
220
0
230
1
3
Standard
100
AcDbAlignedDimension
13
18.6
23
-5.25
33
0
14
73
24
0
34
0
50
0
100
AcDbRotatedDimension
1001
ACAD
1000
DSTYLE
1002
{
1070
   371
1070
    13
1070
   372
1070
    13
1070
     3
1000

1070
   170
1070
     0
1070
   144
1040
1.0
1070
   277
1070
     2
1070
   284
1070
     8
1070
   278
1070
    46
1070
   146
1040
1.25
1070
   345
1005
16
1070
   347
1005
16
1070
   346
1005
16
1070
   344
1005
10F
1070
   343
1005
10F
1070
   172
1070
     1
1070
    76
1070
     0
1070
    75
1070
     0
1070
   282
1070
     0
1070
   281
1070
     0
1070
    71
1070
     0
1070
    74
1070
     0
1070
   279
1070
     0
1070
   173
1070
     1
1070
   340
1005
109
1070
   271
1070
     1
1070
   272
1070
     2
1070
    77
1070
     1
1070
    73
1070
     1
1070
   171
1070
     3
1070
   274
1070
     4
1070
   177
1070
   150
1070
   176
1070
     9
1070
   178
1070
    43
1070
    78
1070
     8
1070
    48
1040
-0.1
1070
    41
1040
3.175
1070
   147
1040
0.42
1070
    42
1040
1.5875
1070
    44
1040
0.5
1070
   140
1040
2.8
1002
}
1001
ACAD_DSTYLE_DIM_LINETYPE
1070
   380
1005
16
1001
ACAD_DSTYLE_DIM_EXT1_LINETYPE
1070
   381
1005
16
1001
ACAD_DSTYLE_DIM_EXT2_LINETYPE
1070
   382
1005
16
0
DIMENSION
5
1C5
100
AcDbEntity
8
SK2
62
256
6
ByLayer
370
18
48
1
60
0
100
AcDbDimension
2
_U6
10
73
20
-39.50012
30
0
11
14
21
-39.50012
31
0
70
32
71
1
72
1
41
1
210
0
220
0
230
1
3
Standard
100
AcDbAlignedDimension
13
-45
23
0
33
0
14
73
24
0
34
0
50
0
100
AcDbRotatedDimension
1001
ACAD
1000
DSTYLE
1002
{
1070
   371
1070
    13
1070
   372
1070
    13
1070
     3
1000

1070
   170
1070
     0
1070
   144
1040
1.0
1070
   277
1070
     2
1070
   284
1070
     8
1070
   278
1070
    46
1070
   146
1040
0.999966
1070
   345
1005
16
1070
   347
1005
16
1070
   346
1005
16
1070
   344
1005
10F
1070
   343
1005
10F
1070
   172
1070
     1
1070
    76
1070
     0
1070
    75
1070
     0
1070
   282
1070
     0
1070
   281
1070
     0
1070
    71
1070
     0
1070
    74
1070
     0
1070
   279
1070
     0
1070
   173
1070
     1
1070
   340
1005
109
1070
   271
1070
     1
1070
   272
1070
     2
1070
    77
1070
     1
1070
    73
1070
     1
1070
   171
1070
     3
1070
   274
1070
     4
1070
   177
1070
   150
1070
   176
1070
     9
1070
   178
1070
    43
1070
    78
1070
     8
1070
    48
1040
-0.1
1070
    41
1040
3.175
1070
   147
1040
1.75006
1070
    42
1040
1.5875
1070
    44
1040
3.175
1070
   140
1040
3.50012
1002
}
1001
ACAD_DSTYLE_DIM_LINETYPE
1070
   380
1005
16
1001
ACAD_DSTYLE_DIM_EXT1_LINETYPE
1070
   381
1005
16
1001
ACAD_DSTYLE_DIM_EXT2_LINETYPE
1070
   382
1005
16
0
ENDSEC
0
SECTION
2
OBJECTS
0
DICTIONARY
5
251
330
0
100
AcDbDictionary
280
0
281
1
3
ACAD_GROUP
350
252
3
ACAD_MLINESTYLE
350
253
0
DICTIONARY
5
252
330
0
100
AcDbDictionary
280
0
281
1
0
DICTIONARY
5
253
330
0
100
AcDbDictionary
280
0
281
1
3
Standard
350
18
0
MLINESTYLE
5
18
330
253
100
AcDbMlineStyle
2
Standard
70
0
3

62
256
51
90
52
90
71
2
49
-0.5
62
256
6
ByLayer
49
0.5
62
256
6
ByLayer
0
RASTERVARIABLES
5
23f
330

100
AcDbRasterVariables
90
0
70
1
71
1
72
1
0
ENDSEC
0
EOF
