0
SECTION
2
HEADER
9
$ACADVER
1
AC1015
9
$DWGCODEPAGE
3
ANSI_1252
9
$HANDSEED
5
24b
9
$ANGBASE
50
0
9
$ANGDIR
70
0
9
$ATTMODE
70
1
9
$AUNITS
70
0
9
$AUPREC
70
0
9
$CECOLOR
62
256
9
$CELTSCALE
40
1
9
$CELTYPE
6
ByLayer
9
$CELWEIGHT
370
18
9
$CLAYER
8
0
9
$CMLJUST
70
0
9
$CMLSCALE
40
1
9
$CMLSTYLE
2
Standard
9
$DIMSTYLE
2
Standard
9
$TEXTSIZE
40
0.2
9
$TEXTSTYLE
7
Standard
9
$LUNITS
70
2
9
$LUPREC
70
4
9
$EXTNAMES
290
1
9
$INSUNITS
70
4
9
$LTSCALE
40
1
9
$LWDISPLAY
290
1
9
$PDMODE
70
0
9
$PDSIZE
40
0
9
$PLINEGEN
70
0
0
ENDSEC
0
SECTION
2
CLASSES
0
CLASS
1
RASTERVARIABLES
2
AcDbRasterVariables
3
ISM
90
0
280
0
281
0
0
ENDSEC
0
SECTION
2
TABLES
0
TABLE
2
VPORT
5
241
100
AcDbSymbolTable
0
VPORT
5
1
100
AcDbSymbolTableRecord
100
AcDbViewportTableRecord
2
*Active
70
0
10
0
20
0
11
1
21
1
12
-1
22
1
13
0
23
0
14
0.5
24
0.5
15
10
25
10
16
0
26
0
36
1
17
0
27
0
37
0
0
ENDTAB
0
TABLE
2
LTYPE
5
242
100
AcDbSymbolTable
0
LTYPE
5
14
100
AcDbSymbolTableRecord
100
AcDbLinetypeTableRecord
70
0
2
ByBlock
3

72
65
73
0
40
0
0
LTYPE
5
15
100
AcDbSymbolTableRecord
100
AcDbLinetypeTableRecord
70
0
2
ByLayer
3

72
65
73
0
40
0
0
LTYPE
5
16
100
AcDbSymbolTableRecord
100
AcDbLinetypeTableRecord
70
0
2
Continuous
3
Solid line
72
65
73
0
40
0
0
LTYPE
5
6E
100
AcDbSymbolTableRecord
100
AcDbLinetypeTableRecord
70
0
2
CENTER
3
____ _ ____ _ ____ _ ____
72
65
73
4
40
47.5
49
22
74
0
49
-8.5
74
0
49
8.5
74
0
49
-8.5
74
0
0
LTYPE
5
6F
100
AcDbSymbolTableRecord
100
AcDbLinetypeTableRecord
70
0
2
DASHED
3
__ __ __ __ __ __ __ __ __
72
65
73
2
40
25.72
49
12.86
74
0
49
-12.86
74
0
0
ENDTAB
0
TABLE
2
LAYER
5
243
100
AcDbSymbolTable
0
LAYER
5
10
100
AcDbSymbolTableRecord
100
AcDbLayerTableRecord
2
0
70
0
62
7
6
Continuous
290
1
370
-3
390
0
0
LAYER
5
71
100
AcDbSymbolTableRecord
100
AcDbLayerTableRecord
2
80
70
0
62
-6
6
Continuous
290
1
370
-3
390
0
0
LAYER
5
73
100
AcDbSymbolTableRecord
100
AcDbLayerTableRecord
2
81
70
0
62
-3
6
Continuous
290
1
370
-3
390
0
0
LAYER
5
75
100
AcDbSymbolTableRecord
100
AcDbLayerTableRecord
2
1
70
0
62
4
6
Continuous
290
1
370
-3
390
0
0
LAYER
5
A1
100
AcDbSymbolTableRecord
100
AcDbLayerTableRecord
2
4
70
0
62
-2
6
CENTER
290
1
370
-3
390
0
0
LAYER
5
105
100
AcDbSymbolTableRecord
100
AcDbLayerTableRecord
2
Defpoints
70
0
62
7
6
Continuous
290
0
370
-3
390
0
0
LAYER
5
132
100
AcDbSymbolTableRecord
100
AcDbLayerTableRecord
2
2
70
0
62
7
6
Continuous
290
1
370
-3
390
0
0
LAYER
5
22d
100
AcDbSymbolTableRecord
100
AcDbLayerTableRecord
2
SK1
70
0
62
4
6
Continuous
290
1
370
-3
390
0
0
LAYER
5
22e
100
AcDbSymbolTableRecord
100
AcDbLayerTableRecord
2
SK4
70
0
62
2
6
CENTER
290
1
370
-3
390
0
0
LAYER
5
22f
100
AcDbSymbolTableRecord
100
AcDbLayerTableRecord
2
SK2
70
0
62
7
6
Continuous
290
1
370
-3
390
0
0
LAYER
5
230
100
AcDbSymbolTableRecord
100
AcDbLayerTableRecord
2
SK6
70
0
62
5
6
Continuous
290
1
370
-3
390
0
0
ENDTAB
0
TABLE
2
STYLE
5
244
100
AcDbSymbolTable
0
STYLE
5
11
100
AcDbSymbolTableRecord
100
AcDbTextStyleTableRecord
2
Standard
3
txt
70
0
71
0
40
0
41
1
42
0
50
0
0
STYLE
5
F6
100
AcDbSymbolTableRecord
100
AcDbTextStyleTableRecord
2
iso_b_vert
3
simplex.shx
70
0
71
0
40
0
41
1
42
0
50
0
0
STYLE
5
F7
100
AcDbSymbolTableRecord
100
AcDbTextStyleTableRecord
2
DWGDirectTextStyle
3
simplex
70
0
71
0
40
0
41
1
42
0
50
0
0
ENDTAB
0
TABLE
2
DIMSTYLE
5
245
100
AcDbSymbolTable
100
AcDbDimStyleTable
0
DIMSTYLE
105
27
100
AcDbSymbolTableRecord
100
AcDbDimStyleTableRecord
2
Standard
70
0
3
<>
41
0.18
42
0.0625
44
0.18
140
0.18
147
0.09
73
0
74
0
77
1
271
2
275
0
278
52
280
0
340
11
0
ENDTAB
0
TABLE
2
VIEW
5
246
100
AcDbSymbolTable
0
ENDTAB
0
TABLE
2
UCS
5
247
100
AcDbSymbolTable
0
ENDTAB
0
TABLE
2
APPID
5
248
100
AcDbSymbolTable
0
APPID
5
12
100
AcDbSymbolTableRecord
100
AcDbRegAppTableRecord
2
ACAD
70
0
0
APPID
5
FA
100
AcDbSymbolTableRecord
100
AcDbRegAppTableRecord
2
ACAD_DSTYLE_DIMBREAK
70
0
0
APPID
5
1EC
100
AcDbSymbolTableRecord
100
AcDbRegAppTableRecord
2
ACAD_DSTYLE_DIM_LINETYPE
70
0
0
APPID
5
1ED
100
AcDbSymbolTableRecord
100
AcDbRegAppTableRecord
2
ACAD_DSTYLE_DIM_EXT1_LINETYPE
70
0
0
APPID
5
1EE
100
AcDbSymbolTableRecord
100
AcDbRegAppTableRecord
2
ACAD_DSTYLE_DIM_EXT2_LINETYPE
70
0
0
APPID
5
229
100
AcDbSymbolTableRecord
100
AcDbRegAppTableRecord
2
ACAD_MLEADERVER
70
0
0
ENDTAB
0
TABLE
2
BLOCK_RECORD
5
249
100
AcDbSymbolTable
0
BLOCK_RECORD
5
1F
100
AcDbSymbolTableRecord
100
AcDbBlockTableRecord
2
*Model_Space
340
0
70
0
0
BLOCK_RECORD
5
1B
100
AcDbSymbolTableRecord
100
AcDbBlockTableRecord
2
*Paper_Space
340
0
70
0
0
BLOCK_RECORD
5
23
100
AcDbSymbolTableRecord
100
AcDbBlockTableRecord
2
*Paper_Space0
340
0
70
0
0
BLOCK_RECORD
5
FC
100
AcDbSymbolTableRecord
100
AcDbBlockTableRecord
2
_Closed
340
0
70
0
0
BLOCK_RECORD
5
106
100
AcDbSymbolTableRecord
100
AcDbBlockTableRecord
2
*D2
340
0
70
0
0
BLOCK_RECORD
5
112
100
AcDbSymbolTableRecord
100
AcDbBlockTableRecord
2
_U0
340
0
70
0
0
BLOCK_RECORD
5
124
100
AcDbSymbolTableRecord
100
AcDbBlockTableRecord
2
*D4
340
0
70
0
0
BLOCK_RECORD
5
133
100
AcDbSymbolTableRecord
100
AcDbBlockTableRecord
2
_U1
340
0
70
0
0
BLOCK_RECORD
5
143
100
AcDbSymbolTableRecord
100
AcDbBlockTableRecord
2
*D6
340
0
70
0
0
BLOCK_RECORD
5
151
100
AcDbSymbolTableRecord
100
AcDbBlockTableRecord
2
_U2
340
0
70
0
0
BLOCK_RECORD
5
161
100
AcDbSymbolTableRecord
100
AcDbBlockTableRecord
2
*D8
340
0
70
0
0
BLOCK_RECORD
5
16D
100
AcDbSymbolTableRecord
100
AcDbBlockTableRecord
2
_U3
340
0
70
0
0
BLOCK_RECORD
5
17D
100
AcDbSymbolTableRecord
100
AcDbBlockTableRecord
2
*D10
340
0
70
0
0
BLOCK_RECORD
5
189
100
AcDbSymbolTableRecord
100
AcDbBlockTableRecord
2
_U4
340
0
70
0
0
BLOCK_RECORD
5
199
100
AcDbSymbolTableRecord
100
AcDbBlockTableRecord
2
*D12
340
0
70
0
0
BLOCK_RECORD
5
1A5
100
AcDbSymbolTableRecord
100
AcDbBlockTableRecord
2
_U5
340
0
70
0
0
BLOCK_RECORD
5
1B5
100
AcDbSymbolTableRecord
100
AcDbBlockTableRecord
2
*D14
340
0
70
0
0
BLOCK_RECORD
5
1C1
100
AcDbSymbolTableRecord
100
AcDbBlockTableRecord
2
_U6
340
0
70
0
0
ENDTAB
0
ENDSEC
0
SECTION
2
BLOCKS
0
BLOCK
5
20
100
AcDbEntity
8
0
100
AcDbBlockBegin
2
*Model_Space
70
0
10
0
20
0
30
0
3
*Model_Space
0
ENDBLK
5
21
100
AcDbEntity
8
0
100
AcDbBlockEnd
0
BLOCK
5
1C
100
AcDbEntity
8
0
100
AcDbBlockBegin
2
*Paper_Space
70
0
10
0
20
0
30
0
3
*Paper_Space
0
ENDBLK
5
1D
100
AcDbEntity
8
0
100
AcDbBlockEnd
0
BLOCK
5
24
100
AcDbEntity
8
0
100
AcDbBlockBegin
2
*Paper_Space0
70
0
10
0
20
0
30
0
3
*Paper_Space0
0
ENDBLK
5
25
100
AcDbEntity
8
0
100
AcDbBlockEnd
0
BLOCK
5
FD
100
AcDbEntity
8
0
100
AcDbBlockBegin
2
_Closed
70
0
10
0
20
0
30
0
3
_Closed
0
LINE
5
FF
100
AcDbEntity
8
0
62
256
6
ByLayer
370
-2
48
1
60
0
100
AcDbLine
10
-1
20
0.166667
30
0
11
0
21
0
31
0
39
0
210
0
220
0
230
1
0
LINE
5
100
100
AcDbEntity
8
0
62
256
6
ByLayer
370
-2
48
1
60
0
100
AcDbLine
10
0
20
0
30
0
11
-1
21
-0.166667
31
0
39
0
210
0
220
0
230
1
0
LINE
5
101
100
AcDbEntity
8
0
62
256
6
ByLayer
370
-2
48
1
60
0
100
AcDbLine
10
-1
20
0.166667
30
0
11
-1
21
-0.166667
31
0
39
0
210
0
220
0
230
1
0
LINE
5
102
100
AcDbEntity
8
0
62
256
6
ByLayer
370
-2
48
1
60
0
100
AcDbLine
10
0
20
0
30
0
11
-1
21
0
31
0
39
0
210
0
220
0
230
1
0
ENDBLK
5
FE
100
AcDbEntity
8
0
100
AcDbBlockEnd
0
BLOCK
5
107
100
AcDbEntity
8
0
100
AcDbBlockBegin
2
*D2
70
1
10
0
20
0
30
0
3
*D2
0
LINE
5
109
100
AcDbEntity
8
0
62
256
6
ByLayer
370
-2
48
1
60
0
100
AcDbLine
10
0
20
-6.5875
30
0
11
0
21
-31.67512
31
0
39
0
210
0
220
0
230
1
0
LINE
5
10A
100
AcDbEntity
8
0
62
256
6
ByLayer
370
-2
48
1
60
0
100
AcDbLine
10
49
20
-1.5875
30
0
11
49
21
-31.67512
31
0
39
0
210
0
220
0
230
1
0
LINE
5
10B
100
AcDbEntity
8
0
62
256
6
ByLayer
370
-2
48
1
60
0
100
AcDbLine
10
3.175
20
-28.50012
30
0
11
45.825
21
-28.50012
31
0
39
0
210
0
220
0
230
1
0
SOLID
5
10C
100
AcDbEntity
8
0
62
256
6
ByLayer
370
-1
48
1
60
0
100
AcDbTrace
10
3.175
20
-27.970953
30
0
11
3.175
21
-29.029287
31
0
12
0
22
-28.50012
32
0
13
0
23
-28.50012
33
0
39
0
210
0
220
0
230
1
0
SOLID
5
10D
100
AcDbEntity
8
0
62
256
6
ByLayer
370
-1
48
1
60
0
100
AcDbTrace
10
45.825
20
-29.029287
30
0
11
45.825
21
-27.970953
31
0
12
49
22
-28.50012
32
0
13
49
23
-28.50012
33
0
39
0
210
0
220
0
230
1
0
MTEXT
5
10E
100
AcDbEntity
8
0
62
256
6
ByLayer
370
18
48
1
60
0
100
AcDbMText
10
24.5
20
-21.193619
30
0
210
0
220
0
230
1
1
\A1;49
40
3.50012
41
0
44
1
50
0
71
5
72
5
7
iso_b_vert
0
POINT
5
10F
100
AcDbEntity
8
Defpoints
62
0
6
ByLayer
370
-1
48
1
60
0
100
AcDbPoint
10
0
20
-5
30
0
39
0
210
0
220
0
230
1
50
360
0
POINT
5
110
100
AcDbEntity
8
Defpoints
62
0
6
ByLayer
370
-1
48
1
60
0
100
AcDbPoint
10
49
20
0
30
0
39
0
210
0
220
0
230
1
50
360
0
POINT
5
111
100
AcDbEntity
8
Defpoints
62
0
6
ByLayer
370
-1
48
1
60
0
100
AcDbPoint
10
49
20
-28.50012
30
0
39
0
210
0
220
0
230
1
50
360
0
ENDBLK
5
108
100
AcDbEntity
8
0
100
AcDbBlockEnd
0
BLOCK
5
11F
100
AcDbEntity
8
0
100
AcDbBlockBegin
2
_U0
70
0
10
0
20
0
30
0
3
_U0
0
MTEXT
5
113
100
AcDbEntity
8
SK2
62
256
6
ByLayer
370
18
48
1
60
0
100
AcDbMText
10
19.086116
20
-27.467451
30
0
210
0
220
0
230
1
1
\W0.7694;49.00
40
3.50012
41
0
44
1.084337
50
0
71
7
72
5
7
iso_b_vert
0
MTEXT
5
114
100
AcDbEntity
8
SK2
62
256
6
ByLayer
370
18
48
1
60
0
100
AcDbMText
10
15.560056
20
-27.400814
30
0
210
0
220
0
230
1
1
\W0.1790;(
40
3.175
41
0
44
1.084337
50
0
71
7
72
5
7
iso_b_vert
0
MTEXT
5
115
100
AcDbEntity
8
SK2
62
256
6
ByLayer
370
18
48
1
60
0
100
AcDbMText
10
33.442666
20
-27.400814
30
0
210
0
220
0
230
1
1
\W0.1969;)
40
3.175
41
0
44
1.084337
50
0
71
7
72
5
7
iso_b_vert
0
LINE
5
116
100
AcDbEntity
8
SK2
62
256
6
ByLayer
370
13
48
1
60
0
100
AcDbLine
10
0
20
-6.5875
30
0
11
0
21
-31.67512
31
0
39
0
210
0
220
0
230
1
0
LINE
5
117
100
AcDbEntity
8
SK2
62
256
6
ByLayer
370
13
48
1
60
0
100
AcDbLine
10
49
20
-1.5875
30
0
11
49
21
-31.67512
31
0
39
0
210
0
220
0
230
1
0
LINE
5
118
100
AcDbEntity
8
SK2
62
256
6
ByLayer
370
13
48
1
60
0
100
AcDbLine
10
0
20
-28.50012
30
0
11
49
21
-28.50012
31
0
39
0
210
0
220
0
230
1
0
LINE
5
119
100
AcDbEntity
8
SK2
62
256
6
ByLayer
370
13
48
1
60
0
100
AcDbLine
10
0
20
-28.50012
30
0
11
3.174998
21
-28.082123
31
0
39
0
210
0
220
0
230
1
0
LINE
5
11A
100
AcDbEntity
8
SK2
62
256
6
ByLayer
370
13
48
1
60
0
100
AcDbLine
10
0
20
-28.50012
30
0
11
3.175002
21
-28.918117
31
0
39
0
210
0
220
0
230
1
0
LINE
5
11B
100
AcDbEntity
8
SK2
62
256
6
ByLayer
370
13
48
1
60
0
100
AcDbLine
10
3.174998
20
-28.082123
30
0
11
3.175002
21
-28.918117
31
0
39
0
210
0
220
0
230
1
0
LINE
5
11C
100
AcDbEntity
8
SK2
62
256
6
ByLayer
370
13
48
1
60
0
100
AcDbLine
10
49
20
-28.50012
30
0
11
45.825002
21
-28.918117
31
0
39
0
210
0
220
0
230
1
0
LINE
5
11D
100
AcDbEntity
8
SK2
62
256
6
ByLayer
370
13
48
1
60
0
100
AcDbLine
10
49
20
-28.50012
30
0
11
45.824998
21
-28.082123
31
0
39
0
210
0
220
0
230
1
0
LINE
5
11E
100
AcDbEntity
8
SK2
62
256
6
ByLayer
370
13
48
1
60
0
100
AcDbLine
10
45.825002
20
-28.918117
30
0
11
45.824998
21
-28.082123
31
0
39
0
210
0
220
0
230
1
0
ENDBLK
5
120
100
AcDbEntity
8
0
100
AcDbBlockEnd
0
BLOCK
5
125
100
AcDbEntity
8
0
100
AcDbBlockBegin
2
*D4
70
1
10
0
20
0
30
0
3
*D4
0
LINE
5
127
100
AcDbEntity
8
0
62
256
6
ByLayer
370
-2
48
1
60
0
100
AcDbLine
10
49.0588
20
-4.2
30
0
11
58.92506
21
-4.2
31
0
39
0
210
0
220
0
230
1
0
LINE
5
128
100
AcDbEntity
8
0
62
256
6
ByLayer
370
-2
48
1
60
0
100
AcDbLine
10
49.0588
20
4.2
30
0
11
58.92506
21
4.2
31
0
39
0
210
0
220
0
230
1
0
LINE
5
129
100
AcDbEntity
8
0
62
256
6
ByLayer
370
-2
48
1
60
0
100
AcDbLine
10
55.75006
20
4.2
30
0
11
55.75006
21
29.163138
31
0
39
0
210
0
220
0
230
1
0
LINE
5
12A
100
AcDbEntity
8
0
62
256
6
ByLayer
370
-2
48
1
60
0
100
AcDbLine
10
55.75006
20
-7.375
30
0
11
55.75006
21
-10.55
31
0
39
0
210
0
220
0
230
1
0
LINE
5
12B
100
AcDbEntity
8
0
62
256
6
ByLayer
370
-2
48
1
60
0
100
AcDbLine
10
55.75006
20
7.375
30
0
11
55.75006
21
10.55
31
0
39
0
210
0
220
0
230
1
0
SOLID
5
12C
100
AcDbEntity
8
0
62
256
6
ByLayer
370
-1
48
1
60
0
100
AcDbTrace
10
56.279227
20
-7.375
30
0
11
55.220893
21
-7.375
31
0
12
55.75006
22
-4.2
32
0
13
55.75006
23
-4.2
33
0
39
0
210
0
220
0
230
1
0
SOLID
5
12D
100
AcDbEntity
8
0
62
256
6
ByLayer
370
-1
48
1
60
0
100
AcDbTrace
10
55.220893
20
7.375
30
0
11
56.279227
21
7.375
31
0
12
55.75006
22
4.2
32
0
13
55.75006
23
4.2
33
0
39
0
210
0
220
0
230
1
0
MTEXT
5
12E
100
AcDbEntity
8
0
62
256
6
ByLayer
370
18
48
1
60
0
100
AcDbMText
10
48.443559
20
19.856569
30
0
210
0
220
0
230
1
1
\A1;8.4
40
3.50012
41
0
44
1
50
90
71
5
72
5
7
iso_b_vert
0
POINT
5
12F
100
AcDbEntity
8
Defpoints
62
0
6
ByLayer
370
-1
48
1
60
0
100
AcDbPoint
10
47.4713
20
-4.2
30
0
39
0
210
0
220
0
230
1
50
360
0
POINT
5
130
100
AcDbEntity
8
Defpoints
62
0
6
ByLayer
370
-1
48
1
60
0
100
AcDbPoint
10
47.4713
20
4.2
30
0
39
0
210
0
220
0
230
1
50
360
0
POINT
5
131
100
AcDbEntity
8
Defpoints
62
0
6
ByLayer
370
-1
48
1
60
0
100
AcDbPoint
10
55.75006
20
4.2
30
0
39
0
210
0
220
0
230
1
50
360
0
ENDBLK
5
126
100
AcDbEntity
8
0
100
AcDbBlockEnd
0
BLOCK
5
13E
100
AcDbEntity
8
0
100
AcDbBlockBegin
2
_U1
70
0
10
0
20
0
30
0
3
_U1
0
MTEXT
5
134
100
AcDbEntity
8
2
62
256
6
ByLayer
370
18
48
1
60
0
100
AcDbMText
10
55.060403
20
8.357505
30
0
210
0
220
0
230
1
1
\W0.7640;8.40
40
3.50012
41
0
44
1.084337
50
90
71
7
72
5
7
iso_b_vert
0
LINE
5
135
100
AcDbEntity
8
2
62
256
6
ByLayer
370
13
48
1
60
0
100
AcDbLine
10
49.0588
20
-4.2
30
0
11
58.92506
21
-4.2
31
0
39
0
210
0
220
0
230
1
0
LINE
5
136
100
AcDbEntity
8
2
62
256
6
ByLayer
370
13
48
1
60
0
100
AcDbLine
10
49.0588
20
4.2
30
0
11
58.92506
21
4.2
31
0
39
0
210
0
220
0
230
1
0
LINE
5
137
100
AcDbEntity
8
2
62
256
6
ByLayer
370
13
48
1
60
0
100
AcDbLine
10
55.75006
20
-4.2
30
0
11
55.75006
21
16.783226
31
0
39
0
210
0
220
0
230
1
0
LINE
5
138
100
AcDbEntity
8
2
62
256
6
ByLayer
370
13
48
1
60
0
100
AcDbLine
10
55.75006
20
-4.2
30
0
11
55.332063
21
-1.025002
31
0
39
0
210
0
220
0
230
1
0
LINE
5
139
100
AcDbEntity
8
2
62
256
6
ByLayer
370
13
48
1
60
0
100
AcDbLine
10
55.75006
20
-4.2
30
0
11
56.168057
21
-1.024998
31
0
39
0
210
0
220
0
230
1
0
LINE
5
13A
100
AcDbEntity
8
2
62
256
6
ByLayer
370
13
48
1
60
0
100
AcDbLine
10
55.332063
20
-1.025002
30
0
11
56.168057
21
-1.024998
31
0
39
0
210
0
220
0
230
1
0
LINE
5
13B
100
AcDbEntity
8
2
62
256
6
ByLayer
370
13
48
1
60
0
100
AcDbLine
10
55.75006
20
4.2
30
0
11
56.168057
21
1.025002
31
0
39
0
210
0
220
0
230
1
0
LINE
5
13C
100
AcDbEntity
8
2
62
256
6
ByLayer
370
13
48
1
60
0
100
AcDbLine
10
55.75006
20
4.2
30
0
11
55.332063
21
1.024998
31
0
39
0
210
0
220
0
230
1
0
LINE
5
13D
100
AcDbEntity
8
2
62
256
6
ByLayer
370
13
48
1
60
0
100
AcDbLine
10
56.168057
20
1.025002
30
0
11
55.332063
21
1.024998
31
0
39
0
210
0
220
0
230
1
0
ENDBLK
5
13F
100
AcDbEntity
8
0
100
AcDbBlockEnd
0
BLOCK
5
144
100
AcDbEntity
8
0
100
AcDbBlockBegin
2
*D6
70
1
10
0
20
0
30
0
3
*D6
0
LINE
5
146
100
AcDbEntity
8
0
62
256
6
ByLayer
370
-2
48
1
60
0
100
AcDbLine
10
-41.5875
20
5
30
0
11
-46.42494
21
5
31
0
39
0
210
0
220
0
230
1
0
LINE
5
147
100
AcDbEntity
8
0
62
256
6
ByLayer
370
-2
48
1
60
0
100
AcDbLine
10
-41.5875
20
-5
30
0
11
-46.42494
21
-5
31
0
39
0
210
0
220
0
230
1
0
LINE
5
148
100
AcDbEntity
8
0
62
256
6
ByLayer
370
-2
48
1
60
0
100
AcDbLine
10
-43.24994
20
5
30
0
11
-43.24994
21
28.117532
31
0
39
0
210
0
220
0
230
1
0
LINE
5
149
100
AcDbEntity
8
0
62
256
6
ByLayer
370
-2
48
1
60
0
100
AcDbLine
10
-43.24994
20
8.175
30
0
11
-43.24994
21
11.35
31
0
39
0
210
0
220
0
230
1
0
LINE
5
14A
100
AcDbEntity
8
0
62
256
6
ByLayer
370
-2
48
1
60
0
100
AcDbLine
10
-43.24994
20
-8.175
30
0
11
-43.24994
21
-11.35
31
0
39
0
210
0
220
0
230
1
0
SOLID
5
14B
100
AcDbEntity
8
0
62
256
6
ByLayer
370
-1
48
1
60
0
100
AcDbTrace
10
-43.779107
20
8.175
30
0
11
-42.720773
21
8.175
31
0
12
-43.24994
22
5
32
0
13
-43.24994
23
5
33
0
39
0
210
0
220
0
230
1
0
SOLID
5
14C
100
AcDbEntity
8
0
62
256
6
ByLayer
370
-1
48
1
60
0
100
AcDbTrace
10
-42.720773
20
-8.175
30
0
11
-43.779107
21
-8.175
31
0
12
-43.24994
22
-5
32
0
13
-43.24994
23
-5
33
0
39
0
210
0
220
0
230
1
0
MTEXT
5
14D
100
AcDbEntity
8
0
62
256
6
ByLayer
370
18
48
1
60
0
100
AcDbMText
10
-50.556441
20
19.97767
30
0
210
0
220
0
230
1
1
\A1;10
40
3.50012
41
0
44
1
50
90
71
5
72
5
7
iso_b_vert
0
POINT
5
14E
100
AcDbEntity
8
Defpoints
62
0
6
ByLayer
370
-1
48
1
60
0
100
AcDbPoint
10
-40
20
5
30
0
39
0
210
0
220
0
230
1
50
360
0
POINT
5
14F
100
AcDbEntity
8
Defpoints
62
0
6
ByLayer
370
-1
48
1
60
0
100
AcDbPoint
10
-40
20
-5
30
0
39
0
210
0
220
0
230
1
50
360
0
POINT
5
150
100
AcDbEntity
8
Defpoints
62
0
6
ByLayer
370
-1
48
1
60
0
100
AcDbPoint
10
-43.24994
20
-5
30
0
39
0
210
0
220
0
230
1
50
360
0
ENDBLK
5
145
100
AcDbEntity
8
0
100
AcDbBlockEnd
0
BLOCK
5
15C
100
AcDbEntity
8
0
100
AcDbBlockBegin
2
_U2
70
0
10
0
20
0
30
0
3
_U2
0
MTEXT
5
152
100
AcDbEntity
8
SK2
62
256
6
ByLayer
370
18
48
1
60
0
100
AcDbMText
10
-43.939597
20
15.157505
30
0
210
0
220
0
230
1
1
\W0.6864;10.00
40
3.50012
41
0
44
1.084337
50
90
71
7
72
5
7
iso_b_vert
0
LINE
5
153
100
AcDbEntity
8
SK2
62
256
6
ByLayer
370
13
48
1
60
0
100
AcDbLine
10
-41.5875
20
5
30
0
11
-46.42494
21
5
31
0
39
0
210
0
220
0
230
1
0
LINE
5
154
100
AcDbEntity
8
SK2
62
256
6
ByLayer
370
13
48
1
60
0
100
AcDbLine
10
-41.5875
20
-5
30
0
11
-46.42494
21
-5
31
0
39
0
210
0
220
0
230
1
0
LINE
5
155
100
AcDbEntity
8
SK2
62
256
6
ByLayer
370
13
48
1
60
0
100
AcDbLine
10
-43.24994
20
-5
30
0
11
-43.24994
21
24.955339
31
0
39
0
210
0
220
0
230
1
0
LINE
5
156
100
AcDbEntity
8
SK2
62
256
6
ByLayer
370
13
48
1
60
0
100
AcDbLine
10
-43.24994
20
5
30
0
11
-42.831943
21
1.825002
31
0
39
0
210
0
220
0
230
1
0
LINE
5
157
100
AcDbEntity
8
SK2
62
256
6
ByLayer
370
13
48
1
60
0
100
AcDbLine
10
-43.24994
20
5
30
0
11
-43.667937
21
1.824998
31
0
39
0
210
0
220
0
230
1
0
LINE
5
158
100
AcDbEntity
8
SK2
62
256
6
ByLayer
370
13
48
1
60
0
100
AcDbLine
10
-42.831943
20
1.825002
30
0
11
-43.667937
21
1.824998
31
0
39
0
210
0
220
0
230
1
0
LINE
5
159
100
AcDbEntity
8
SK2
62
256
6
ByLayer
370
13
48
1
60
0
100
AcDbLine
10
-43.24994
20
-5
30
0
11
-43.667937
21
-1.825002
31
0
39
0
210
0
220
0
230
1
0
LINE
5
15A
100
AcDbEntity
8
SK2
62
256
6
ByLayer
370
13
48
1
60
0
100
AcDbLine
10
-43.24994
20
-5
30
0
11
-42.831943
21
-1.824998
31
0
39
0
210
0
220
0
230
1
0
LINE
5
15B
100
AcDbEntity
8
SK2
62
256
6
ByLayer
370
13
48
1
60
0
100
AcDbLine
10
-43.667937
20
-1.825002
30
0
11
-42.831943
21
-1.824998
31
0
39
0
210
0
220
0
230
1
0
ENDBLK
5
15D
100
AcDbEntity
8
0
100
AcDbBlockEnd
0
BLOCK
5
162
100
AcDbEntity
8
0
100
AcDbBlockBegin
2
*D8
70
1
10
0
20
0
30
0
3
*D8
0
LINE
5
164
100
AcDbEntity
8
0
62
256
6
ByLayer
370
-2
48
1
60
0
100
AcDbLine
10
-40
20
-6.5875
30
0
11
-40
21
-31.67512
31
0
39
0
210
0
220
0
230
1
0
LINE
5
165
100
AcDbEntity
8
0
62
256
6
ByLayer
370
-2
48
1
60
0
100
AcDbLine
10
0
20
-6.5875
30
0
11
0
21
-31.67512
31
0
39
0
210
0
220
0
230
1
0
LINE
5
166
100
AcDbEntity
8
0
62
256
6
ByLayer
370
-2
48
1
60
0
100
AcDbLine
10
-36.825
20
-28.50012
30
0
11
-3.175
21
-28.50012
31
0
39
0
210
0
220
0
230
1
0
SOLID
5
167
100
AcDbEntity
8
0
62
256
6
ByLayer
370
-1
48
1
60
0
100
AcDbTrace
10
-36.825
20
-27.970953
30
0
11
-36.825
21
-29.029287
31
0
12
-40
22
-28.50012
32
0
13
-40
23
-28.50012
33
0
39
0
210
0
220
0
230
1
0
SOLID
5
168
100
AcDbEntity
8
0
62
256
6
ByLayer
370
-1
48
1
60
0
100
AcDbTrace
10
-3.175
20
-29.029287
30
0
11
-3.175
21
-27.970953
31
0
12
0
22
-28.50012
32
0
13
0
23
-28.50012
33
0
39
0
210
0
220
0
230
1
0
MTEXT
5
169
100
AcDbEntity
8
0
62
256
6
ByLayer
370
18
48
1
60
0
100
AcDbMText
10
-20
20
-21.193619
30
0
210
0
220
0
230
1
1
\A1;40
40
3.50012
41
0
44
1
50
0
71
5
72
5
7
iso_b_vert
0
POINT
5
16A
100
AcDbEntity
8
Defpoints
62
0
6
ByLayer
370
-1
48
1
60
0
100
AcDbPoint
10
-40
20
-5
30
0
39
0
210
0
220
0
230
1
50
360
0
POINT
5
16B
100
AcDbEntity
8
Defpoints
62
0
6
ByLayer
370
-1
48
1
60
0
100
AcDbPoint
10
0
20
-5
30
0
39
0
210
0
220
0
230
1
50
360
0
POINT
5
16C
100
AcDbEntity
8
Defpoints
62
0
6
ByLayer
370
-1
48
1
60
0
100
AcDbPoint
10
0
20
-28.50012
30
0
39
0
210
0
220
0
230
1
50
360
0
ENDBLK
5
163
100
AcDbEntity
8
0
100
AcDbBlockEnd
0
BLOCK
5
178
100
AcDbEntity
8
0
100
AcDbBlockBegin
2
_U3
70
0
10
0
20
0
30
0
3
_U3
0
MTEXT
5
16E
100
AcDbEntity
8
SK2
62
256
6
ByLayer
370
18
48
1
60
0
100
AcDbMText
10
-25.413884
20
-27.467451
30
0
210
0
220
0
230
1
1
\W0.7694;40.00
40
3.50012
41
0
44
1.084337
50
0
71
7
72
5
7
iso_b_vert
0
LINE
5
16F
100
AcDbEntity
8
SK2
62
256
6
ByLayer
370
13
48
1
60
0
100
AcDbLine
10
-40
20
-6.5875
30
0
11
-40
21
-31.67512
31
0
39
0
210
0
220
0
230
1
0
LINE
5
170
100
AcDbEntity
8
SK2
62
256
6
ByLayer
370
13
48
1
60
0
100
AcDbLine
10
0
20
-6.5875
30
0
11
0
21
-31.67512
31
0
39
0
210
0
220
0
230
1
0
LINE
5
171
100
AcDbEntity
8
SK2
62
256
6
ByLayer
370
13
48
1
60
0
100
AcDbLine
10
-40
20
-28.50012
30
0
11
0
21
-28.50012
31
0
39
0
210
0
220
0
230
1
0
LINE
5
172
100
AcDbEntity
8
SK2
62
256
6
ByLayer
370
13
48
1
60
0
100
AcDbLine
10
-40
20
-28.50012
30
0
11
-36.825002
21
-28.082123
31
0
39
0
210
0
220
0
230
1
0
LINE
5
173
100
AcDbEntity
8
SK2
62
256
6
ByLayer
370
13
48
1
60
0
100
AcDbLine
10
-40
20
-28.50012
30
0
11
-36.824998
21
-28.918117
31
0
39
0
210
0
220
0
230
1
0
LINE
5
174
100
AcDbEntity
8
SK2
62
256
6
ByLayer
370
13
48
1
60
0
100
AcDbLine
10
-36.825002
20
-28.082123
30
0
11
-36.824998
21
-28.918117
31
0
39
0
210
0
220
0
230
1
0
LINE
5
175
100
AcDbEntity
8
SK2
62
256
6
ByLayer
370
13
48
1
60
0
100
AcDbLine
10
0
20
-28.50012
30
0
11
-3.174998
21
-28.918117
31
0
39
0
210
0
220
0
230
1
0
LINE
5
176
100
AcDbEntity
8
SK2
62
256
6
ByLayer
370
13
48
1
60
0
100
AcDbLine
10
0
20
-28.50012
30
0
11
-3.175002
21
-28.082123
31
0
39
0
210
0
220
0
230
1
0
LINE
5
177
100
AcDbEntity
8
SK2
62
256
6
ByLayer
370
13
48
1
60
0
100
AcDbLine
10
-3.174998
20
-28.918117
30
0
11
-3.175002
21
-28.082123
31
0
39
0
210
0
220
0
230
1
0
ENDBLK
5
179
100
AcDbEntity
8
0
100
AcDbBlockEnd
0
BLOCK
5
17E
100
AcDbEntity
8
0
100
AcDbBlockBegin
2
*D10
70
1
10
0
20
0
30
0
3
*D10
0
LINE
5
180
100
AcDbEntity
8
0
62
256
6
ByLayer
370
-2
48
1
60
0
100
AcDbLine
10
2
20
3.1125
30
0
11
2
21
-22.92482
31
0
39
0
210
0
220
0
230
1
0
LINE
5
181
100
AcDbEntity
8
0
62
256
6
ByLayer
370
-2
48
1
60
0
100
AcDbLine
10
49
20
-1.5875
30
0
11
49
21
-22.92482
31
0
39
0
210
0
220
0
230
1
0
LINE
5
182
100
AcDbEntity
8
0
62
256
6
ByLayer
370
-2
48
1
60
0
100
AcDbLine
10
5.175
20
-19.74982
30
0
11
45.825
21
-19.74982
31
0
39
0
210
0
220
0
230
1
0
SOLID
5
183
100
AcDbEntity
8
0
62
256
6
ByLayer
370
-1
48
1
60
0
100
AcDbTrace
10
5.175
20
-19.220653
30
0
11
5.175
21
-20.278987
31
0
12
2
22
-19.74982
32
0
13
2
23
-19.74982
33
0
39
0
210
0
220
0
230
1
0
SOLID
5
184
100
AcDbEntity
8
0
62
256
6
ByLayer
370
-1
48
1
60
0
100
AcDbTrace
10
45.825
20
-20.278987
30
0
11
45.825
21
-19.220653
31
0
12
49
22
-19.74982
32
0
13
49
23
-19.74982
33
0
39
0
210
0
220
0
230
1
0
MTEXT
5
185
100
AcDbEntity
8
0
62
256
6
ByLayer
370
18
48
1
60
0
100
AcDbMText
10
25.5
20
-12.44332
30
0
210
0
220
0
230
1
1
\A1;47
40
3.50012
41
0
44
1
50
0
71
5
72
5
7
iso_b_vert
0
POINT
5
186
100
AcDbEntity
8
Defpoints
62
0
6
ByLayer
370
-1
48
1
60
0
100
AcDbPoint
10
2
20
4.7
30
0
39
0
210
0
220
0
230
1
50
360
0
POINT
5
187
100
AcDbEntity
8
Defpoints
62
0
6
ByLayer
370
-1
48
1
60
0
100
AcDbPoint
10
49
20
0
30
0
39
0
210
0
220
0
230
1
50
360
0
POINT
5
188
100
AcDbEntity
8
Defpoints
62
0
6
ByLayer
370
-1
48
1
60
0
100
AcDbPoint
10
49
20
-19.74982
30
0
39
0
210
0
220
0
230
1
50
360
0
ENDBLK
5
17F
100
AcDbEntity
8
0
100
AcDbBlockEnd
0
BLOCK
5
194
100
AcDbEntity
8
0
100
AcDbBlockBegin
2
_U4
70
0
10
0
20
0
30
0
3
_U4
0
MTEXT
5
18A
100
AcDbEntity
8
SK2
62
256
6
ByLayer
370
18
48
1
60
0
100
AcDbMText
10
20.086116
20
-18.717151
30
0
210
0
220
0
230
1
1
\W0.7694;47.00
40
3.50012
41
0
44
1.084337
50
0
71
7
72
5
7
iso_b_vert
0
LINE
5
18B
100
AcDbEntity
8
SK2
62
256
6
ByLayer
370
13
48
1
60
0
100
AcDbLine
10
2
20
3.1125
30
0
11
2
21
-22.92482
31
0
39
0
210
0
220
0
230
1
0
LINE
5
18C
100
AcDbEntity
8
SK2
62
256
6
ByLayer
370
13
48
1
60
0
100
AcDbLine
10
49
20
-1.5875
30
0
11
49
21
-22.92482
31
0
39
0
210
0
220
0
230
1
0
LINE
5
18D
100
AcDbEntity
8
SK2
62
256
6
ByLayer
370
13
48
1
60
0
100
AcDbLine
10
2
20
-19.74982
30
0
11
49
21
-19.74982
31
0
39
0
210
0
220
0
230
1
0
LINE
5
18E
100
AcDbEntity
8
SK2
62
256
6
ByLayer
370
13
48
1
60
0
100
AcDbLine
10
2
20
-19.74982
30
0
11
5.174998
21
-19.331823
31
0
39
0
210
0
220
0
230
1
0
LINE
5
18F
100
AcDbEntity
8
SK2
62
256
6
ByLayer
370
13
48
1
60
0
100
AcDbLine
10
2
20
-19.74982
30
0
11
5.175002
21
-20.167817
31
0
39
0
210
0
220
0
230
1
0
LINE
5
190
100
AcDbEntity
8
SK2
62
256
6
ByLayer
370
13
48
1
60
0
100
AcDbLine
10
5.174998
20
-19.331823
30
0
11
5.175002
21
-20.167817
31
0
39
0
210
0
220
0
230
1
0
LINE
5
191
100
AcDbEntity
8
SK2
62
256
6
ByLayer
370
13
48
1
60
0
100
AcDbLine
10
49
20
-19.74982
30
0
11
45.825002
21
-20.167817
31
0
39
0
210
0
220
0
230
1
0
LINE
5
192
100
AcDbEntity
8
SK2
62
256
6
ByLayer
370
13
48
1
60
0
100
AcDbLine
10
49
20
-19.74982
30
0
11
45.824998
21
-19.331823
31
0
39
0
210
0
220
0
230
1
0
LINE
5
193
100
AcDbEntity
8
SK2
62
256
6
ByLayer
370
13
48
1
60
0
100
AcDbLine
10
45.825002
20
-20.167817
30
0
11
45.824998
21
-19.331823
31
0
39
0
210
0
220
0
230
1
0
ENDBLK
5
195
100
AcDbEntity
8
0
100
AcDbBlockEnd
0
BLOCK
5
19A
100
AcDbEntity
8
0
100
AcDbBlockBegin
2
*D12
70
1
10
0
20
0
30
0
3
*D12
0
LINE
5
19C
100
AcDbEntity
8
0
62
256
6
ByLayer
370
-2
48
1
60
0
100
AcDbLine
10
22.3
20
-5.7875
30
0
11
22.3
21
-12.32
31
0
39
0
210
0
220
0
230
1
0
LINE
5
19D
100
AcDbEntity
8
0
62
256
6
ByLayer
370
-2
48
1
60
0
100
AcDbLine
10
49
20
-1.5875
30
0
11
49
21
-12.32
31
0
39
0
210
0
220
0
230
1
0
LINE
5
19E
100
AcDbEntity
8
0
62
256
6
ByLayer
370
-2
48
1
60
0
100
AcDbLine
10
25.475
20
-11.82
30
0
11
45.825
21
-11.82
31
0
39
0
210
0
220
0
230
1
0
SOLID
5
19F
100
AcDbEntity
8
0
62
256
6
ByLayer
370
-1
48
1
60
0
100
AcDbTrace
10
25.475
20
-11.290833
30
0
11
25.475
21
-12.349167
31
0
12
22.3
22
-11.82
32
0
13
22.3
23
-11.82
33
0
39
0
210
0
220
0
230
1
0
SOLID
5
1A0
100
AcDbEntity
8
0
62
256
6
ByLayer
370
-1
48
1
60
0
100
AcDbTrace
10
45.825
20
-12.349167
30
0
11
45.825
21
-11.290833
31
0
12
49
22
-11.82
32
0
13
49
23
-11.82
33
0
39
0
210
0
220
0
230
1
0
MTEXT
5
1A1
100
AcDbEntity
8
0
62
256
6
ByLayer
370
18
48
1
60
0
100
AcDbMText
10
35.65
20
-5.975
30
0
210
0
220
0
230
1
1
\A1;26.7
40
2.8
41
0
44
1
50
0
71
5
72
5
7
iso_b_vert
0
POINT
5
1A2
100
AcDbEntity
8
Defpoints
62
0
6
ByLayer
370
-1
48
1
60
0
100
AcDbPoint
10
22.3
20
-4.2
30
0
39
0
210
0
220
0
230
1
50
360
0
POINT
5
1A3
100
AcDbEntity
8
Defpoints
62
0
6
ByLayer
370
-1
48
1
60
0
100
AcDbPoint
10
49
20
0
30
0
39
0
210
0
220
0
230
1
50
360
0
POINT
5
1A4
100
AcDbEntity
8
Defpoints
62
0
6
ByLayer
370
-1
48
1
60
0
100
AcDbPoint
10
49
20
-11.82
30
0
39
0
210
0
220
0
230
1
50
360
0
ENDBLK
5
19B
100
AcDbEntity
8
0
100
AcDbBlockEnd
0
BLOCK
5
1B0
100
AcDbEntity
8
0
100
AcDbBlockBegin
2
_U5
70
0
10
0
20
0
30
0
3
_U5
0
MTEXT
5
1A6
100
AcDbEntity
8
SK2
62
256
6
ByLayer
370
18
48
1
60
0
100
AcDbMText
10
31.466454
20
-11.973893
30
0
210
0
220
0
230
1
1
\W0.7468;26.70
40
2.8
41
0
44
1.084337
50
0
71
7
72
5
7
iso_b_vert
0
LINE
5
1A7
100
AcDbEntity
8
SK2
62
256
6
ByLayer
370
13
48
1
60
0
100
AcDbLine
10
22.3
20
-5.7875
30
0
11
22.3
21
-12.32
31
0
39
0
210
0
220
0
230
1
0
LINE
5
1A8
100
AcDbEntity
8
SK2
62
256
6
ByLayer
370
13
48
1
60
0
100
AcDbLine
10
49
20
-1.5875
30
0
11
49
21
-12.32
31
0
39
0
210
0
220
0
230
1
0
LINE
5
1A9
100
AcDbEntity
8
SK2
62
256
6
ByLayer
370
13
48
1
60
0
100
AcDbLine
10
22.3
20
-11.82
30
0
11
49
21
-11.82
31
0
39
0
210
0
220
0
230
1
0
LINE
5
1AA
100
AcDbEntity
8
SK2
62
256
6
ByLayer
370
13
48
1
60
0
100
AcDbLine
10
22.3
20
-11.82
30
0
11
25.474998
21
-11.402003
31
0
39
0
210
0
220
0
230
1
0
LINE
5
1AB
100
AcDbEntity
8
SK2
62
256
6
ByLayer
370
13
48
1
60
0
100
AcDbLine
10
22.3
20
-11.82
30
0
11
25.475002
21
-12.237997
31
0
39
0
210
0
220
0
230
1
0
LINE
5
1AC
100
AcDbEntity
8
SK2
62
256
6
ByLayer
370
13
48
1
60
0
100
AcDbLine
10
25.474998
20
-11.402003
30
0
11
25.475002
21
-12.237997
31
0
39
0
210
0
220
0
230
1
0
LINE
5
1AD
100
AcDbEntity
8
SK2
62
256
6
ByLayer
370
13
48
1
60
0
100
AcDbLine
10
49
20
-11.82
30
0
11
45.825002
21
-12.237997
31
0
39
0
210
0
220
0
230
1
0
LINE
5
1AE
100
AcDbEntity
8
SK2
62
256
6
ByLayer
370
13
48
1
60
0
100
AcDbLine
10
49
20
-11.82
30
0
11
45.824998
21
-11.402003
31
0
39
0
210
0
220
0
230
1
0
LINE
5
1AF
100
AcDbEntity
8
SK2
62
256
6
ByLayer
370
13
48
1
60
0
100
AcDbLine
10
45.825002
20
-12.237997
30
0
11
45.824998
21
-11.402003
31
0
39
0
210
0
220
0
230
1
0
ENDBLK
5
1B1
100
AcDbEntity
8
0
100
AcDbBlockEnd
0
BLOCK
5
1B6
100
AcDbEntity
8
0
100
AcDbBlockBegin
2
*D14
70
1
10
0
20
0
30
0
3
*D14
0
LINE
5
1B8
100
AcDbEntity
8
0
62
256
6
ByLayer
370
-2
48
1
60
0
100
AcDbLine
10
-40
20
-1.5875
30
0
11
-40
21
-41.67512
31
0
39
0
210
0
220
0
230
1
0
LINE
5
1B9
100
AcDbEntity
8
0
62
256
6
ByLayer
370
-2
48
1
60
0
100
AcDbLine
10
49
20
-1.5875
30
0
11
49
21
-41.67512
31
0
39
0
210
0
220
0
230
1
0
LINE
5
1BA
100
AcDbEntity
8
0
62
256
6
ByLayer
370
-2
48
1
60
0
100
AcDbLine
10
-36.825
20
-38.50012
30
0
11
45.825
21
-38.50012
31
0
39
0
210
0
220
0
230
1
0
SOLID
5
1BB
100
AcDbEntity
8
0
62
256
6
ByLayer
370
-1
48
1
60
0
100
AcDbTrace
10
-36.825
20
-37.970953
30
0
11
-36.825
21
-39.029287
31
0
12
-40
22
-38.50012
32
0
13
-40
23
-38.50012
33
0
39
0
210
0
220
0
230
1
0
SOLID
5
1BC
100
AcDbEntity
8
0
62
256
6
ByLayer
370
-1
48
1
60
0
100
AcDbTrace
10
45.825
20
-39.029287
30
0
11
45.825
21
-37.970953
31
0
12
49
22
-38.50012
32
0
13
49
23
-38.50012
33
0
39
0
210
0
220
0
230
1
0
MTEXT
5
1BD
100
AcDbEntity
8
0
62
256
6
ByLayer
370
18
48
1
60
0
100
AcDbMText
10
4.5
20
-31.19362
30
0
210
0
220
0
230
1
1
\A1;89
40
3.50012
41
0
44
1
50
0
71
5
72
5
7
iso_b_vert
0
POINT
5
1BE
100
AcDbEntity
8
Defpoints
62
0
6
ByLayer
370
-1
48
1
60
0
100
AcDbPoint
10
-40
20
0
30
0
39
0
210
0
220
0
230
1
50
360
0
POINT
5
1BF
100
AcDbEntity
8
Defpoints
62
0
6
ByLayer
370
-1
48
1
60
0
100
AcDbPoint
10
49
20
0
30
0
39
0
210
0
220
0
230
1
50
360
0
POINT
5
1C0
100
AcDbEntity
8
Defpoints
62
0
6
ByLayer
370
-1
48
1
60
0
100
AcDbPoint
10
49
20
-38.50012
30
0
39
0
210
0
220
0
230
1
50
360
0
ENDBLK
5
1B7
100
AcDbEntity
8
0
100
AcDbBlockEnd
0
BLOCK
5
1CC
100
AcDbEntity
8
0
100
AcDbBlockBegin
2
_U6
70
0
10
0
20
0
30
0
3
_U6
0
MTEXT
5
1C2
100
AcDbEntity
8
SK2
62
256
6
ByLayer
370
18
48
1
60
0
100
AcDbMText
10
-0.729611
20
-37.467451
30
0
210
0
220
0
230
1
1
\W0.7468;89.00
40
3.50012
41
0
44
1.084337
50
0
71
7
72
5
7
iso_b_vert
0
LINE
5
1C3
100
AcDbEntity
8
SK2
62
256
6
ByLayer
370
13
48
1
60
0
100
AcDbLine
10
-40
20
-1.5875
30
0
11
-40
21
-41.67512
31
0
39
0
210
0
220
0
230
1
0
LINE
5
1C4
100
AcDbEntity
8
SK2
62
256
6
ByLayer
370
13
48
1
60
0
100
AcDbLine
10
49
20
-1.5875
30
0
11
49
21
-41.67512
31
0
39
0
210
0
220
0
230
1
0
LINE
5
1C5
100
AcDbEntity
8
SK2
62
256
6
ByLayer
370
13
48
1
60
0
100
AcDbLine
10
-40
20
-38.50012
30
0
11
49
21
-38.50012
31
0
39
0
210
0
220
0
230
1
0
LINE
5
1C6
100
AcDbEntity
8
SK2
62
256
6
ByLayer
370
13
48
1
60
0
100
AcDbLine
10
-40
20
-38.50012
30
0
11
-36.825002
21
-38.082123
31
0
39
0
210
0
220
0
230
1
0
LINE
5
1C7
100
AcDbEntity
8
SK2
62
256
6
ByLayer
370
13
48
1
60
0
100
AcDbLine
10
-40
20
-38.50012
30
0
11
-36.824998
21
-38.918117
31
0
39
0
210
0
220
0
230
1
0
LINE
5
1C8
100
AcDbEntity
8
SK2
62
256
6
ByLayer
370
13
48
1
60
0
100
AcDbLine
10
-36.825002
20
-38.082123
30
0
11
-36.824998
21
-38.918117
31
0
39
0
210
0
220
0
230
1
0
LINE
5
1C9
100
AcDbEntity
8
SK2
62
256
6
ByLayer
370
13
48
1
60
0
100
AcDbLine
10
49
20
-38.50012
30
0
11
45.825002
21
-38.918117
31
0
39
0
210
0
220
0
230
1
0
LINE
5
1CA
100
AcDbEntity
8
SK2
62
256
6
ByLayer
370
13
48
1
60
0
100
AcDbLine
10
49
20
-38.50012
30
0
11
45.824998
21
-38.082123
31
0
39
0
210
0
220
0
230
1
0
LINE
5
1CB
100
AcDbEntity
8
SK2
62
256
6
ByLayer
370
13
48
1
60
0
100
AcDbLine
10
45.825002
20
-38.918117
30
0
11
45.824998
21
-38.082123
31
0
39
0
210
0
220
0
230
1
0
ENDBLK
5
1CD
100
AcDbEntity
8
0
100
AcDbBlockEnd
0
ENDSEC
0
SECTION
2
ENTITIES
0
ARC
5
AD
100
AcDbEntity
8
1
62
256
6
ByLayer
370
18
48
1
60
0
100
AcDbCircle
39
0
10
1.401871
20
4.971206
30
0
40
0.799999999999999
210
0
220
0
230
1
100
AcDbArc
50
208.816339
51
270.03581
0
ARC
5
AE
100
AcDbEntity
8
1
62
256
6
ByLayer
370
18
48
1
60
0
100
AcDbCircle
39
0
10
1.401871
20
-4.971206
30
0
40
0.799999999999999
210
0
220
0
230
1
100
AcDbArc
50
89.96419
51
151.183661
0
ARC
5
AF
100
AcDbEntity
8
1
62
256
6
ByLayer
370
18
48
1
60
0
100
AcDbCircle
39
0
10
0
20
4.2
30
0
40
0.799999999999999
210
0
220
0
230
1
100
AcDbArc
50
28.816339
51
90
0
ARC
5
B0
100
AcDbEntity
8
1
62
256
6
ByLayer
370
18
48
1
60
0
100
AcDbCircle
39
0
10
0
20
-4.2
30
0
40
0.799999999999999
210
0
220
0
230
1
100
AcDbArc
50
270
51
331.183661
0
ARC
5
B1
100
AcDbEntity
8
SK2
62
256
6
ByLayer
370
13
48
1
60
0
100
AcDbCircle
39
0
10
49
20
0
30
0
40
20
210
0
220
0
230
1
100
AcDbArc
50
9.606349
51
69.999699
0
ARC
5
B2
100
AcDbEntity
8
SK2
62
256
6
ByLayer
370
13
48
1
60
0
100
AcDbCircle
39
0
10
49
20
0
30
0
40
20
210
0
220
0
230
1
100
AcDbArc
50
290.000301
51
350.393651
0
ELLIPSE
5
B3
100
AcDbEntity
8
1
62
256
6
ByLayer
370
18
48
1
60
0
100
AcDbEllipse
10
3.601717
20
4.062942
30
0
11
-0.1
21
1.22460635382238E-17
31
0
210
0
220
0
230
1
40
1
41
0.00401688099849401
42
1.58197706946162
0
ELLIPSE
5
B4
100
AcDbEntity
8
1
62
256
6
ByLayer
370
18
48
1
60
0
100
AcDbEllipse
10
3.601717
20
-4.062942
30
0
11
-0.1
21
1.22460635382238E-17
31
0
210
0
220
0
230
1
40
1
41
-0.326726889025199
42
-0.00401688099848513
0
POINT
5
70
100
AcDbEntity
8
80
62
256
6
ByLayer
370
18
48
1
60
0
100
AcDbPoint
10
0
20
0
30
0
39
0
210
0
220
0
230
1
50
360
0
POINT
5
72
100
AcDbEntity
8
81
62
256
6
ByLayer
370
18
48
1
60
0
100
AcDbPoint
10
49
20
0
30
0
39
0
210
0
220
0
230
1
50
360
0
POINT
5
74
100
AcDbEntity
8
1
62
256
6
ByLayer
370
18
48
1
60
0
100
AcDbPoint
10
-40
20
0
30
0
39
0
210
0
220
0
230
1
50
360
0
POINT
5
76
100
AcDbEntity
8
1
62
256
6
ByLayer
370
18
48
1
60
1
100
AcDbPoint
10
0
20
-5
30
0
39
0
210
0
220
0
230
1
50
360
0
POINT
5
77
100
AcDbEntity
8
1
62
256
6
ByLayer
370
18
48
1
60
1
100
AcDbPoint
10
49
20
0
30
0
39
0
210
0
220
0
230
1
50
360
0
POINT
5
78
100
AcDbEntity
8
1
62
256
6
ByLayer
370
18
48
1
60
1
100
AcDbPoint
10
47.4713
20
-4.2
30
0
39
0
210
0
220
0
230
1
50
360
0
POINT
5
79
100
AcDbEntity
8
1
62
256
6
ByLayer
370
18
48
1
60
1
100
AcDbPoint
10
47.4713
20
4.2
30
0
39
0
210
0
220
0
230
1
50
360
0
POINT
5
7A
100
AcDbEntity
8
1
62
256
6
ByLayer
370
18
48
1
60
1
100
AcDbPoint
10
-40
20
5
30
0
39
0
210
0
220
0
230
1
50
360
0
POINT
5
7B
100
AcDbEntity
8
1
62
256
6
ByLayer
370
18
48
1
60
1
100
AcDbPoint
10
-40
20
-5
30
0
39
0
210
0
220
0
230
1
50
360
0
POINT
5
7C
100
AcDbEntity
8
1
62
256
6
ByLayer
370
18
48
1
60
1
100
AcDbPoint
10
-40
20
-5
30
0
39
0
210
0
220
0
230
1
50
360
0
POINT
5
7D
100
AcDbEntity
8
1
62
256
6
ByLayer
370
18
48
1
60
1
100
AcDbPoint
10
0
20
-5
30
0
39
0
210
0
220
0
230
1
50
360
0
POINT
5
7E
100
AcDbEntity
8
1
62
256
6
ByLayer
370
18
48
1
60
1
100
AcDbPoint
10
2
20
4.7
30
0
39
0
210
0
220
0
230
1
50
360
0
POINT
5
7F
100
AcDbEntity
8
1
62
256
6
ByLayer
370
18
48
1
60
1
100
AcDbPoint
10
49
20
0
30
0
39
0
210
0
220
0
230
1
50
360
0
POINT
5
80
100
AcDbEntity
8
1
62
256
6
ByLayer
370
18
48
1
60
1
100
AcDbPoint
10
22.3
20
-4.2
30
0
39
0
210
0
220
0
230
1
50
360
0
POINT
5
81
100
AcDbEntity
8
1
62
256
6
ByLayer
370
18
48
1
60
1
100
AcDbPoint
10
49
20
0
30
0
39
0
210
0
220
0
230
1
50
360
0
POINT
5
82
100
AcDbEntity
8
1
62
256
6
ByLayer
370
18
48
1
60
1
100
AcDbPoint
10
-40
20
0
30
0
39
0
210
0
220
0
230
1
50
360
0
POINT
5
83
100
AcDbEntity
8
1
62
256
6
ByLayer
370
18
48
1
60
1
100
AcDbPoint
10
49
20
0
30
0
39
0
210
0
220
0
230
1
50
360
0
SPLINE
5
B5
100
AcDbEntity
8
1
62
256
6
ByLayer
370
18
48
1
60
0
100
AcDbSpline
70
4
71
3
72
10
73
6
40
0
40
0
40
0
40
0
40
0.5
40
0.5
40
1
40
1
40
1
40
1
41
1
10
47.5408579974318
20
-4.02648092828039
30
0
41
1
10
47.5274625502172
20
-4.03533940320003
30
0
41
1
10
47.5160714031118
20
-4.03906421417886
30
0
41
1
10
47.4966686379578
20
-4.03637214359924
30
0
41
1
10
47.4887010375642
20
-4.03000915401194
30
0
41
1
10
47.4818989984943
20
-4.01905572353829
30
0
0
SPLINE
5
B6
100
AcDbEntity
8
1
62
256
6
ByLayer
370
18
48
1
60
0
100
AcDbSpline
70
4
71
3
72
8
73
4
40
0
40
0
40
0
40
0
40
1
40
1
40
1
40
1
41
1
10
48.9961269028244
20
0.231879290731598
30
0
41
1
10
48.9779851762965
20
0.171411511081317
30
0
41
1
10
48.959753003138
20
0.110972114251808
30
0
41
1
10
48.9414307225746
20
0.050560993791521
30
0
0
SPLINE
5
B7
100
AcDbEntity
8
1
62
256
6
ByLayer
370
18
48
1
60
0
100
AcDbSpline
70
4
71
3
72
10
73
6
40
0
40
0
40
0
40
0
40
0.5
40
0.5
40
1
40
1
40
1
40
1
41
1
10
3.55830133702693
20
1.98373928991273
30
-1E-16
41
1
10
3.54131186504202
20
1.99093776737891
30
-1E-16
41
1
10
3.5269860995615
20
2.00226145623273
30
-1E-16
41
1
10
3.50715837358558
20
2.02985283303886
30
-1E-16
41
1
10
3.50171724266767
20
2.04611731783376
30
-1E-16
41
1
10
3.50171724266767
20
2.06251176502138
30
-1E-16
0
SPLINE
5
B8
100
AcDbEntity
8
1
62
256
6
ByLayer
370
18
48
1
60
0
100
AcDbSpline
70
4
71
3
72
34
73
30
40
0
40
0
40
0
40
0
40
0.0513217507868355
40
0.0513217507868355
40
0.102643501573671
40
0.102643501573671
40
0.205287003147339
40
0.205287003147339
40
0.307930504721008
40
0.307930504721008
40
0.359252255507843
40
0.359252255507843
40
0.410574006294679
40
0.410574006294679
40
0.461895757081514
40
0.461895757081514
40
0.51321750786835
40
0.51321750786835
40
0.615861009442021
40
0.615861009442021
40
0.667182760228856
40
0.667182760228856
40
0.718504511015692
40
0.718504511015692
40
0.821148012589366
40
0.821148012589366
40
0.923791514163039
40
0.923791514163039
40
1
40
1
40
1
40
1
41
1
10
46.9092547743386
20
0.550829363020796
30
0
41
1
10
46.6963901593986
20
0.653241000571427
30
0
41
1
10
46.4835453279824
20
0.754845301124192
30
0
41
1
10
46.0579140789587
20
0.956492984762889
30
-1E-16
41
1
10
45.8453817447131
20
1.05704719641665
30
-1E-16
41
1
10
45.2073904306
20
1.35536291242619
30
-1E-16
41
1
10
44.780987745104
20
1.54957197690592
30
-1E-16
41
1
10
43.927286344032
20
1.92570329783953
30
-1E-16
41
1
10
43.5022218143953
20
2.10827513523466
30
-1E-16
41
1
10
42.8638600903826
20
2.36769064815695
30
-1E-16
41
1
10
42.6509671119433
20
2.45182419605413
30
-2E-16
41
1
10
42.2254069026015
20
2.61614831195979
30
-2E-16
41
1
10
42.0127909701687
20
2.69640367972883
30
-2E-16
41
1
10
41.5869414748514
20
2.85153715319379
30
-2E-16
41
1
10
41.3737654394573
20
2.92654060640047
30
-2E-16
41
1
10
40.9467030491293
20
3.07096695488784
30
-2E-16
41
1
10
40.7333064461347
20
3.14014962312706
30
-2E-16
41
1
10
40.0944659946192
20
3.33992810438602
30
-2E-16
41
1
10
39.6694697221112
20
3.46139950452019
30
-2E-16
41
1
10
39.0309111164415
20
3.62334846499814
30
-2E-16
41
1
10
38.8179160790084
20
3.67402635116298
30
2E-16
41
1
10
38.392186580006
20
3.76923959214008
30
0
41
1
10
38.1791906784595
20
3.81350195705488
30
0
41
1
10
37.5391433071565
20
3.93563517667661
30
0
41
1
10
37.1123605446486
20
4.0024435440732
30
0
41
1
10
36.2615628224241
20
4.10730539670041
30
0
41
1
10
35.8363373816355
20
4.14479276431928
30
0
41
1
10
35.0938736831263
20
4.18371344360449
30
0
41
1
10
34.7771413383521
20
4.19200032036915
30
0
41
1
10
34.4604942507041
20
4.19184651138457
30
0
0
SPLINE
5
B9
100
AcDbEntity
8
1
62
256
6
ByLayer
370
18
48
1
60
0
100
AcDbSpline
70
4
71
3
72
8
73
4
40
0
40
0
40
0
40
0
40
1
40
1
40
1
40
1
41
1
10
14.6135831036951
20
-2.76670798716378
30
2E-16
41
1
10
14.5943784151006
20
-2.77367607738938
30
2E-16
41
1
10
14.575174791771
20
-2.78062384363702
30
2E-16
41
1
10
14.5559724453027
20
-2.78755051995586
30
2E-16
0
SPLINE
5
BA
100
AcDbEntity
8
1
62
256
6
ByLayer
370
18
48
1
60
0
100
AcDbSpline
70
4
71
3
72
26
73
22
40
0
40
0
40
0
40
0
40
0.0010821865435476
40
0.0010821865435476
40
0.0843253376649196
40
0.0843253376649196
40
0.167568488786292
40
0.167568488786292
40
0.250811639907663
40
0.250811639907663
40
0.334054791029035
40
0.334054791029035
40
0.500541093271777
40
0.500541093271777
40
0.583784244393147
40
0.583784244393147
40
0.667027395514518
40
0.667027395514518
40
0.833513697757259
40
0.833513697757259
40
1
40
1
40
1
40
1
41
1
10
13.6843542708477
20
-3.08650740079216
30
2E-16
41
1
10
13.6815843355722
20
-3.08740647998587
30
2E-16
41
1
10
13.6788144009054
20
-3.08830505626295
30
2E-16
41
1
10
13.4629776271853
20
-3.15828403319216
30
2E-16
41
1
10
13.2498595684147
20
-3.2243314262098
30
2E-16
41
1
10
12.8241687216637
20
-3.35119270087006
30
2E-16
41
1
10
12.6114312394329
20
-3.4117683306238
30
2E-16
41
1
10
12.1855021725008
20
-3.52637579556361
30
2E-16
41
1
10
11.9723435495258
20
-3.58045470546915
30
2E-16
41
1
10
11.5454015279559
20
-3.68193233073043
30
0
41
1
10
11.331472593433
20
-3.72936363279789
30
0
41
1
10
10.6914561920298
20
-3.86190042053198
30
0
41
1
10
10.2654627984007
20
-3.9361893623898
30
0
41
1
10
9.62559717823564
20
-4.0254640786446
30
0
41
1
10
9.41226827691258
20
-4.05161457418578
30
0
41
1
10
8.98575359610797
20
-4.09670067618362
30
0
41
1
10
8.77218442462851
20
-4.11552372900101
30
0
41
1
10
8.1316307557959
20
-4.16049694389187
30
0
41
1
10
7.70511573476787
20
-4.17529744681383
30
0
41
1
10
6.85303771974679
20
-4.17445781607654
30
0
41
1
10
6.42663038891232
20
-4.15869017344104
30
0
41
1
10
5.9985773519789
20
-4.1281383673462
30
0
0
SPLINE
5
BB
100
AcDbEntity
8
1
62
256
6
ByLayer
370
18
48
1
60
0
100
AcDbSpline
70
4
71
3
72
14
73
10
40
0
40
0
40
0
40
0
40
0.272529869907306
40
0.272529869907306
40
0.508981982064811
40
0.508981982064811
40
0.78277997357905
40
0.78277997357905
40
1
40
1
40
1
40
1
41
1
10
47.0193233869499
20
-0.0857966719623562
30
0
41
1
10
47.0200634480425
20
-0.0861084786817514
30
0
41
1
10
47.0207918566742
20
-0.0867914159189525
30
0
41
1
10
47.0220065262476
20
-0.0885085108447186
30
0
41
1
10
47.0225288812151
20
-0.0895075074937495
30
0
41
1
10
47.0234954340938
20
-0.0919333583385935
30
0
41
1
10
47.023929767765
20
-0.0934406209197505
30
0
41
1
10
47.0244724411892
20
-0.0963144703047476
30
0
41
1
10
47.0246348989891
20
-0.0976800023556734
30
0
41
1
10
47.0246886675314
20
-0.099041620977232
30
0
0
SPLINE
5
BC
100
AcDbEntity
8
1
62
256
6
ByLayer
370
18
48
1
60
0
100
AcDbSpline
70
4
71
3
72
32
73
28
40
0
40
0
40
0
40
0
40
0.499205175164306
40
0.499205175164306
40
0.668974306700118
40
0.668974306700118
40
0.781745116526145
40
0.781745116526145
40
0.856677700650897
40
0.856677700650897
40
0.906482610332468
40
0.906482610332468
40
0.939576048713892
40
0.939576048713892
40
0.961551645058735
40
0.961551645058735
40
0.976168075115215
40
0.976168075115215
40
0.985926880119482
40
0.985926880119482
40
0.992449468266059
40
0.992449468266059
40
0.996731585881798
40
0.996731585881798
40
0.999497853971776
40
0.999497853971776
40
1
40
1
40
1
40
1
41
1
10
47.2808990897561
20
-4.19924261147349
30
0
41
1
10
47.3228028253046
20
-4.17176976555146
30
0
41
1
10
47.3647826478989
20
-4.14405779068005
30
0
41
1
10
47.4210983595381
20
-4.10664359488715
30
0
41
1
10
47.4353944771527
20
-4.09712519761553
30
0
41
1
10
47.4591896158396
20
-4.08124859260369
30
0
41
1
10
47.4686877606995
20
-4.07490229017515
30
0
41
1
10
47.4844969999401
20
-4.06432433559252
30
0
41
1
10
47.4908081392379
20
-4.06009762429136
30
0
41
1
10
47.5013136099379
20
-4.05305533908435
30
0
41
1
10
47.505506869598
20
-4.05024269238766
30
0
41
1
10
47.5124956227703
20
-4.04555191859038
30
0
41
1
10
47.5152882515239
20
-4.04367673097218
30
0
41
1
10
47.5199434518656
20
-4.04054952672161
30
0
41
1
10
47.5218047089407
20
-4.03929882869204
30
0
41
1
10
47.5248997091763
20
-4.0372186178937
30
0
41
1
10
47.5261345666532
20
-4.03638852099749
30
0
41
1
10
47.5281862775594
20
-4.0350091430011
30
0
41
1
10
47.5290056856579
20
-4.03445820262152
30
0
41
1
10
47.5303672372564
20
-4.03354267137186
30
0
41
1
10
47.5309109755077
20
-4.03317703371752
30
0
41
1
10
47.5318247134199
20
-4.03256243463809
30
0
41
1
10
47.5321905956465
20
-4.03231629320027
30
0
41
1
10
47.5327976277987
20
-4.03190786485879
30
0
41
1
10
47.5330367064802
20
-4.03174699680594
30
0
41
1
10
47.5333140309714
20
-4.0315604272385
30
0
41
1
10
47.5333564601197
20
-4.03153188507883
30
0
41
1
10
47.5333986553594
20
-4.03150350075001
30
0
0
SPLINE
5
BD
100
AcDbEntity
8
1
62
256
6
ByLayer
370
18
48
1
60
0
100
AcDbSpline
70
4
71
3
72
26
73
22
40
0
40
0
40
0
40
0
40
0.122128523992903
40
0.122128523992903
40
0.170804582631011
40
0.170804582631011
40
0.219480641269118
40
0.219480641269118
40
0.316832758545334
40
0.316832758545334
40
0.511536993097767
40
0.511536993097767
40
0.608889110373984
40
0.608889110373984
40
0.657565169012092
40
0.657565169012092
40
0.7062412276502
40
0.7062412276502
40
0.90094546220263
40
0.90094546220263
40
1
40
1
40
1
40
1
41
1
10
7.36799966484713
20
0.230680574342529
30
0
41
1
10
7.94096090357857
20
-0.0312669728869821
30
0
41
1
10
8.51504532823972
20
-0.295252991348093
30
0
41
1
10
9.32225529145524
20
-0.661245738783919
30
0
41
1
10
9.55244167211282
20
-0.765052706280557
30
0
41
1
10
10.0110783468535
20
-0.970138391361672
30
1E-16
41
1
10
10.2398578218756
20
-1.07156683077164
30
1E-16
41
1
10
10.924944586628
20
-1.37175495308546
30
1E-16
41
1
10
11.3801191110082
20
-1.56623260608546
30
1E-16
41
1
10
12.7437976791195
20
-2.12696318386048
30
1E-16
41
1
10
13.6500733549161
20
-2.47120605316826
30
2E-16
41
1
10
15.0173029993524
20
-2.92052513611483
30
2E-16
41
1
10
15.4743187019289
20
-3.05920089781688
30
2E-16
41
1
10
16.1631619527723
20
-3.2481592565363
30
2E-16
41
1
10
16.3936141887737
20
-3.30802349045902
30
2E-16
41
1
10
16.8527499269653
20
-3.42017478142387
30
2E-16
41
1
10
17.0817670672602
20
-3.47256378858992
30
0
41
1
10
18.2245498139405
20
-3.71560779427818
30
0
41
1
10
19.1318926219099
20
-3.84934916430163
30
0
41
1
10
20.5017496289639
20
-3.95385965452007
30
0
41
1
10
20.9638916050534
20
-3.9723479672999
30
0
41
1
10
21.4272258860202
20
-3.97376991830055
30
0
0
SPLINE
5
BE
100
AcDbEntity
8
1
62
256
6
ByLayer
370
18
48
1
60
0
100
AcDbSpline
70
4
71
3
72
8
73
4
40
0
40
0
40
0
40
0
40
1
40
1
40
1
40
1
41
1
10
47.2653466595139
20
-4.14640527809388
30
0
41
1
10
47.2709100928314
20
-4.17796969372358
30
0
41
1
10
47.2760491907977
20
-4.19578492593914
30
0
41
1
10
47.2808990897409
20
-4.19924261148384
30
0
0
SPLINE
5
BF
100
AcDbEntity
8
1
62
256
6
ByLayer
370
18
48
1
60
0
100
AcDbSpline
70
4
71
3
72
12
73
8
40
0
40
0
40
0
40
0
40
0.168052747497044
40
0.168052747497044
40
0.608504895400546
40
0.608504895400546
40
1
40
1
40
1
40
1
41
1
10
12.099342278772
20
-2.48227139314298
30
0
41
1
10
11.753088423209
20
-2.57114027085885
30
0
41
1
10
11.4075678233074
20
-2.6606893722805
30
0
41
1
10
10.1593266266502
20
-2.98714928392747
30
0
41
1
10
9.26102166024575
20
-3.2276733474302
30
0
41
1
10
7.57357872065944
20
-3.68805532160169
30
0
41
1
10
6.78361006610317
20
-3.90723216790676
30
0
41
1
10
5.9984866018317
20
-4.12816390419175
30
0
0
SPLINE
5
C0
100
AcDbEntity
8
1
62
256
6
ByLayer
370
18
48
1
60
0
100
AcDbSpline
70
4
71
3
72
10
73
6
40
0
40
0
40
0
40
0
40
0.5
40
0.5
40
1
40
1
40
1
40
1
41
1
10
3.50171724266764
20
-4.03893260013359
30
0
41
1
10
3.50171724266764
20
-4.0303881552089
30
0
41
1
10
3.51980273699201
20
-4.02172225155351
30
0
41
1
10
3.57750235660339
20
-4.01198110610204
30
0
41
1
10
3.6147894413277
20
-4.01144086430239
30
0
41
1
10
3.64540878602236
20
-4.01550197791565
30
0
0
SPLINE
5
C1
100
AcDbEntity
8
1
62
256
6
ByLayer
370
18
48
1
60
0
100
AcDbSpline
70
4
71
3
72
32
73
28
40
0
40
0
40
0
40
0
40
0.499205173623269
40
0.499205173623269
40
0.668974304635461
40
0.668974304635461
40
0.781745114114914
40
0.781745114114914
40
0.856677698008477
40
0.856677698008477
40
0.906482607536412
40
0.906482607536412
40
0.939576045815994
40
0.939576045815994
40
0.961551642093075
40
0.961551642093075
40
0.976168072104571
40
0.976168072104571
40
0.985926877078912
40
0.985926877078912
40
0.992449465205424
40
0.992449465205424
40
0.99673158280796
40
0.99673158280796
40
0.999497850889397
40
0.999497850889397
40
1
40
1
40
1
40
1
41
1
10
47.2808990897569
20
4.19924261147298
30
0
41
1
10
47.322802825305
20
4.17176976555109
30
0
41
1
10
47.3647826478992
20
4.14405779067985
30
0
41
1
10
47.421098359538
20
4.10664359488717
30
0
41
1
10
47.4353944771526
20
4.09712519761564
30
0
41
1
10
47.4591896158395
20
4.08124859260377
30
0
41
1
10
47.4686877606995
20
4.07490229017515
30
0
41
1
10
47.4844969999401
20
4.06432433559249
30
0
41
1
10
47.4908081392378
20
4.06009762429136
30
0
41
1
10
47.5013136099379
20
4.05305533908438
30
0
41
1
10
47.5055068695979
20
4.05024269238771
30
0
41
1
10
47.5124956227702
20
4.04555191859043
30
0
41
1
10
47.5152882515238
20
4.04367673097221
30
0
41
1
10
47.5199434518655
20
4.04054952672166
30
0
41
1
10
47.5218047089406
20
4.0392988286921
30
0
41
1
10
47.5248997091762
20
4.03721861789373
30
0
41
1
10
47.5261345666531
20
4.03638852099752
30
0
41
1
10
47.5281862775593
20
4.03500914300113
30
0
41
1
10
47.5290056856579
20
4.03445820262158
30
0
41
1
10
47.5303672372564
20
4.03354267137189
30
0
41
1
10
47.5309109755077
20
4.03317703371755
30
0
41
1
10
47.5318247134199
20
4.03256243463809
30
0
41
1
10
47.5321905956465
20
4.0323162932003
30
0
41
1
10
47.5327976277986
20
4.03190786485882
30
0
41
1
10
47.5330367064802
20
4.03174699680594
30
0
41
1
10
47.5333140312326
20
4.03156042706277
30
0
41
1
10
47.5333564606403
20
4.03153188472865
30
0
41
1
10
47.533398656136
20
4.03150350022761
30
0
0
SPLINE
5
C2
100
AcDbEntity
8
1
62
256
6
ByLayer
370
18
48
1
60
0
100
AcDbSpline
70
2053
71
3
72
42
73
38
40
0
40
0
40
0
40
0
40
0.0624999999999936
40
0.0624999999999936
40
0.124999999999987
40
0.124999999999987
40
0.156249999999984
40
0.156249999999984
40
0.187499999999981
40
0.187499999999981
40
0.218749999999977
40
0.218749999999977
40
0.249999999999974
40
0.249999999999974
40
0.312499999999976
40
0.312499999999976
40
0.374999999999978
40
0.374999999999978
40
0.499999999999977
40
0.499999999999977
40
0.562499999999976
40
0.562499999999976
40
0.624999999999975
40
0.624999999999975
40
0.656249999999974
40
0.656249999999974
40
0.687499999999974
40
0.687499999999974
40
0.718749999999974
40
0.718749999999974
40
0.749999999999973
40
0.749999999999973
40
0.81249999999998
40
0.81249999999998
40
0.874999999999987
40
0.874999999999987
40
1
40
1
40
1
40
1
41
1
10
0.425924268737153
20
-2.473367781481
30
2E-16
41
1
10
0.423392511124916
20
-2.49620952036094
30
2E-16
41
1
10
0.41950052965538
20
-2.51921272358567
30
2E-16
41
1
10
0.407756787323308
20
-2.56520466503272
30
2E-16
41
1
10
0.400149783075619
20
-2.58817793621893
30
2E-16
41
1
10
0.382394999436002
20
-2.62132585720133
30
2E-16
41
1
10
0.375388777783599
20
-2.63213107914541
30
2E-16
41
1
10
0.357721780918269
20
-2.65078661834744
30
2E-16
41
1
10
0.346463847661141
20
-2.65861597017334
30
2E-16
41
1
10
0.32298302340655
20
-2.6634213123522
30
2E-16
41
1
10
0.312013399585823
20
-2.66038274389678
30
2E-16
41
1
10
0.294157368667243
20
-2.64967935982415
30
2E-16
41
1
10
0.287086604574767
20
-2.64236736330346
30
2E-16
41
1
10
0.268559181492833
20
-2.61793863157814
30
2E-16
41
1
10
0.260301003471739
20
-2.59903098410169
30
2E-16
41
1
10
0.247286200767746
20
-2.55902906965602
30
2E-16
41
1
10
0.242903389666338
20
-2.53830924125646
30
2E-16
41
1
10
0.23407416991455
20
-2.47469984175902
30
2E-16
41
1
10
0.233871002679962
20
-2.42988040345244
30
1E-16
41
1
10
0.242134750202638
20
-2.3622995160388
30
1E-16
41
1
10
0.246329575009298
20
-2.33967376494226
30
1E-16
41
1
10
0.258851323994975
20
-2.29413214629849
30
1E-16
41
1
10
0.26703400855601
20
-2.27123251822917
30
1E-16
41
1
10
0.284990717759541
20
-2.23869968694214
30
1E-16
41
1
10
0.292091747037062
20
-2.22791263408635
30
1E-16
41
1
10
0.309531161649886
20
-2.20902603958811
30
1E-16
41
1
10
0.320468113845862
20
-2.2006671022655
30
1E-16
41
1
10
0.343951641876004
20
-2.19406693570696
30
1E-16
41
1
10
0.355397055553851
20
-2.19635481616533
30
1E-16
41
1
10
0.373573687900205
20
-2.2066155238056
30
1E-16
41
1
10
0.380632978018326
20
-2.21402923581624
30
1E-16
41
1
10
0.398718628280761
20
-2.23861358677479
30
1E-16
41
1
10
0.406549511056255
20
-2.25798503351626
30
1E-16
41
1
10
0.418634640251298
20
-2.29817022708571
30
1E-16
41
1
10
0.422653863958857
20
-2.3190131251105
30
1E-16
41
1
10
0.430747109794822
20
-2.38302478026395
30
1E-16
41
1
10
0.430987783961626
20
-2.42768430372112
30
1E-16
41
1
10
0.425924268737153
20
-2.473367781481
30
2E-16
0
SPLINE
5
C3
100
AcDbEntity
8
1
62
256
6
ByLayer
370
18
48
1
60
0
100
AcDbSpline
70
4
71
3
72
24
73
20
40
0
40
0
40
0
40
0
40
0.25
40
0.25
40
0.3125
40
0.3125
40
0.375000000000001
40
0.375000000000001
40
0.500000000000001
40
0.500000000000001
40
0.625000000000002
40
0.625000000000002
40
0.750000000000003
40
0.750000000000003
40
0.812500000000003
40
0.812500000000003
40
0.875000000000002
40
0.875000000000002
40
1
40
1
40
1
40
1
41
1
10
7.61628977762885
20
-0.532925260917409
30
0
41
1
10
8.55047338941642
20
-0.979744661155735
30
1E-16
41
1
10
9.47927544934441
20
-1.4152068115682
30
1E-16
41
1
10
10.6452754523557
20
-1.92196505704814
30
1E-16
41
1
10
10.8789163534274
20
-2.02150239684667
30
1E-16
41
1
10
11.3453409042227
20
-2.21575386119429
30
1E-16
41
1
10
11.5782828914856
20
-2.31048773102879
30
1E-16
41
1
10
12.276867092038
20
-2.58656358444571
30
2E-16
41
1
10
12.7421408843247
20
-2.76000461137426
30
2E-16
41
1
10
13.673883787612
20
-3.08223432139323
30
2E-16
41
1
10
14.1412531827318
20
-3.23095378322262
30
2E-16
41
1
10
15.0732644043365
20
-3.49839110997303
30
2E-16
41
1
10
15.5384459776789
20
-3.61732747177331
30
2E-16
41
1
10
16.2368564848705
20
-3.77155737445378
30
0
41
1
10
16.4697605466909
20
-3.81895032662146
30
0
41
1
10
16.9359585055543
20
-3.90548722271376
30
0
41
1
10
17.1695101033326
20
-3.94461706018049
30
0
41
1
10
17.8692218682181
20
-4.04877709521239
30
0
41
1
10
18.3345984132448
20
-4.10074048056381
30
0
41
1
10
18.8000000000071
20
-4.13477122787495
30
0
0
SPLINE
5
C4
100
AcDbEntity
8
1
62
256
6
ByLayer
370
18
48
1
60
0
100
AcDbSpline
70
4
71
3
72
8
73
4
40
0
40
0
40
0
40
0
40
1
40
1
40
1
40
1
41
1
10
48.620671697226
20
-1.32578122106679
30
0
41
1
10
48.7493577400144
20
-0.962411896018324
30
0
41
1
10
48.8745274895934
20
-0.597784365178683
30
0
41
1
10
48.9961269028285
20
-0.231879290745184
30
0
0
SPLINE
5
C5
100
AcDbEntity
8
1
62
256
6
ByLayer
370
18
48
1
60
0
100
AcDbSpline
70
4
71
3
72
8
73
4
40
0
40
0
40
0
40
0
40
1
40
1
40
1
40
1
41
1
10
48.9961269028289
20
0.231879290733502
30
0
41
1
10
49.0012879493673
20
0.0773853860227121
30
0
41
1
10
49.0012941191008
20
-0.0772006974772239
30
0
41
1
10
48.9961269028285
20
-0.231879290745184
30
0
0
SPLINE
5
C6
100
AcDbEntity
8
1
62
256
6
ByLayer
370
18
48
1
60
0
100
AcDbSpline
70
4
71
3
72
18
73
14
40
0
40
0
40
0
40
0
40
0.0396599608815114
40
0.0396599608815114
40
0.176851395041299
40
0.176851395041299
40
0.314042829201086
40
0.314042829201086
40
0.451234263360874
40
0.451234263360874
40
0.725617131680437
40
0.725617131680437
40
1
40
1
40
1
40
1
41
1
10
47.7462178626476
20
0.664911841076588
30
0
41
1
10
47.7353668987851
20
0.668291946917208
30
0
41
1
10
47.7244764406736
20
0.671496940889881
30
0
41
1
10
47.6758327313891
20
0.685575856815916
30
0
41
1
10
47.6376567788399
20
0.694507771525878
30
0
41
1
10
47.5602223248296
20
0.704560029645052
30
0
41
1
10
47.5209750437783
20
0.706459259679036
30
0
41
1
10
47.4425665800219
20
0.705819646691509
30
0
41
1
10
47.4033853641722
20
0.704449217096709
30
0
41
1
10
47.2863013350182
20
0.692752242056287
30
0
41
1
10
47.2089068542476
20
0.674966229111504
30
0
41
1
10
47.0568102855561
20
0.623877252235957
30
0
41
1
10
46.9819417300491
20
0.59213764409111
30
0
41
1
10
46.9092547743478
20
0.550829363026025
30
0
0
SPLINE
5
C7
100
AcDbEntity
8
1
62
256
6
ByLayer
370
18
48
1
60
0
100
AcDbSpline
70
4
71
3
72
32
73
28
40
0
40
0
40
0
40
0
40
0.0980971601751906
40
0.0980971601751906
40
0.196194320350381
40
0.196194320350381
40
0.245242900437977
40
0.245242900437977
40
0.294291480525572
40
0.294291480525572
40
0.392388640700762
40
0.392388640700762
40
0.490485800875953
40
0.490485800875953
40
0.539534380963547
40
0.539534380963547
40
0.588582961051141
40
0.588582961051141
40
0.686680121226329
40
0.686680121226329
40
0.784777281401517
40
0.784777281401517
40
0.882874441576706
40
0.882874441576706
40
0.980971601751894
40
0.980971601751894
40
1
40
1
40
1
40
1
41
1
10
47.0246886675313
20
-0.099041620977232
30
0
41
1
10
46.5726468967615
20
0.11036729622947
30
0
41
1
10
46.1210946067644
20
0.318662740761937
30
0
41
1
10
45.2177222212187
20
0.730220028752882
30
0
41
1
10
44.7659340770683
20
0.933528317691781
30
-1E-16
41
1
10
44.0872796706751
20
1.23267018259852
30
-1E-16
41
1
10
43.8608927307261
20
1.33139880374185
30
-1E-16
41
1
10
43.4076089295387
20
1.52640113222625
30
-1E-16
41
1
10
43.1807381806074
20
1.6225748127859
30
-1E-16
41
1
10
42.5008335355982
20
1.90486876477249
30
-1E-16
41
1
10
42.0479545356853
20
2.08541384575949
30
-1E-16
41
1
10
41.1426944462627
20
2.42830091283119
30
-1E-16
41
1
10
40.6905532290069
20
2.5902756209548
30
-2E-16
41
1
10
40.0102286382343
20
2.81705717135793
30
-2E-16
41
1
10
39.7828850242765
20
2.89001871132623
30
-2E-16
41
1
10
39.3296489165296
20
3.02941436194087
30
-2E-16
41
1
10
39.103563946595
20
3.09593540014078
30
-2E-16
41
1
10
38.4268416672496
20
3.28529435584653
30
-2E-16
41
1
10
37.9780887834454
20
3.39726766863984
30
-2E-16
41
1
10
37.0807969082909
20
3.5945258791171
30
0
41
1
10
36.6327615135424
20
3.67924947718618
30
0
41
1
10
35.7368445321888
20
3.81786016477164
30
0
41
1
10
35.2893173460552
20
3.87031953935966
30
0
41
1
10
34.3909957968472
20
3.94766812981189
30
0
41
1
10
33.9404753847146
20
3.97194204657325
30
0
41
1
10
33.4005496310865
20
3.98001252643229
30
0
41
1
10
33.3127477184673
20
3.98062553024684
30
0
41
1
10
33.2248789111237
20
3.980544435289
30
0
0
SPLINE
5
C8
100
AcDbEntity
8
1
62
256
6
ByLayer
370
18
48
1
60
0
100
AcDbSpline
70
4
71
3
72
8
73
4
40
0
40
0
40
0
40
0
40
1
40
1
40
1
40
1
41
1
10
47.5333986554842
20
4.03150349970224
30
0
41
1
10
47.5358850584664
20
4.02982948182614
30
0
41
1
10
47.5383715057561
20
4.0281552912563
30
0
41
1
10
47.5408579974318
20
4.02648092828042
30
0
0
SPLINE
5
C9
100
AcDbEntity
8
1
62
256
6
ByLayer
370
18
48
1
60
0
100
AcDbSpline
70
4
71
3
72
34
73
30
40
0
40
0
40
0
40
0
40
0.0705683361542336
40
0.0705683361542336
40
0.136956312143215
40
0.136956312143215
40
0.203344288132197
40
0.203344288132197
40
0.236538276126689
40
0.236538276126689
40
0.26973226412118
40
0.26973226412118
40
0.336120240110164
40
0.336120240110164
40
0.402508216099147
40
0.402508216099147
40
0.435702204093639
40
0.435702204093639
40
0.468896192088131
40
0.468896192088131
40
0.535284168077114
40
0.535284168077114
40
0.601672144066098
40
0.601672144066098
40
0.734448096044065
40
0.734448096044065
40
0.867224048022033
40
0.867224048022033
40
1
40
1
40
1
40
1
41
1
10
24.1355303428336
20
-3.98541749300696
30
0
41
1
10
23.6522396991815
20
-4.05648183089718
30
0
41
1
10
23.1691745123987
20
-4.10888572374591
30
0
41
1
10
22.2296639401858
20
-4.17295818474855
30
0
41
1
10
21.7731923366642
20
-4.18676162981694
30
0
41
1
10
20.8630241817214
20
-4.17960353695483
30
0
41
1
10
20.4087557688004
20
-4.15867688489675
30
0
41
1
10
19.7264523679274
20
-4.10163397741988
30
0
41
1
10
19.4988863564546
20
-4.07834873213679
30
0
41
1
10
19.0432226993643
20
-4.02332724292705
30
0
41
1
10
18.814938697891
20
-3.99155715712891
30
0
41
1
10
18.1312715396544
20
-3.88407629264205
30
0
41
1
10
17.6766773895529
20
-3.79604971635649
30
0
41
1
10
16.7672873575719
20
-3.58955456181434
30
2E-16
41
1
10
16.3125499716371
20
-3.4710513804628
30
2E-16
41
1
10
15.6288011659129
20
-3.272048706927
30
2E-16
41
1
10
15.4005245134471
20
-3.202152698524
30
2E-16
41
1
10
14.9448730142619
20
-3.05614064133582
30
2E-16
41
1
10
14.7172910423961
20
-2.97996759290697
30
2E-16
41
1
10
14.0349175488807
20
-2.74249999890966
30
2E-16
41
1
10
13.5804734840896
20
-2.57228260021364
30
2E-16
41
1
10
12.6702409283194
20
-2.21170341509108
30
1E-16
41
1
10
12.2136132250117
20
-2.02094373798053
30
1E-16
41
1
10
10.8468698051004
20
-1.42750591896592
30
1E-16
41
1
10
9.9395104665669
20
-1.00275696172039
30
1E-16
41
1
10
8.11436593134465
20
-0.130863361060307
30
0
41
1
10
7.20530313132551
20
0.312953673161871
30
0
41
1
10
5.37991521510082
20
1.17876753819962
30
-1E-16
41
1
10
4.47103139970392
20
1.59701351087153
30
-1E-16
41
1
10
3.55830133702696
20
1.98373928991273
30
-1E-16
0
SPLINE
5
CA
100
AcDbEntity
8
1
62
256
6
ByLayer
370
18
48
1
60
0
100
AcDbSpline
70
4
71
3
72
8
73
4
40
0
40
0
40
0
40
0
40
1
40
1
40
1
40
1
41
1
10
47.5333986547727
20
-4.03150350018129
30
0
41
1
10
47.535885057992
20
-4.02982948214554
30
0
41
1
10
47.5383715055189
20
-4.02815529141603
30
0
41
1
10
47.5408579974318
20
-4.02648092828042
30
0
0
SPLINE
5
CB
100
AcDbEntity
8
1
62
256
6
ByLayer
370
18
48
1
60
0
100
AcDbSpline
70
4
71
3
72
8
73
4
40
0
40
0
40
0
40
0
40
1
40
1
40
1
40
1
41
1
10
48.2956704966251
20
-0.441609154023212
30
0
41
1
10
48.1685652602278
20
-0.102316231774694
30
0
41
1
10
48.0115977155658
20
0.25662433241186
30
0
41
1
10
47.8252381324853
20
0.63490312864522
30
0
0
SPLINE
5
CC
100
AcDbEntity
8
1
62
256
6
ByLayer
370
18
48
1
60
0
100
AcDbSpline
70
4
71
3
72
10
73
6
40
0
40
0
40
0
40
0
40
0.94735996678754
40
0.94735996678754
40
1
40
1
40
1
40
1
41
1
10
5.90254376144483
20
3.97489484837934
30
0
41
1
10
6.05776185562129
20
3.97602923277177
30
0
41
1
10
6.2128148952512
20
3.97527542503829
30
0
41
1
10
6.37615492739337
20
3.97246015849163
30
0
41
1
10
6.3847524650273
20
3.97230596138584
30
0
41
1
10
6.39334932188081
20
3.97214576959291
30
0
0
SPLINE
5
CD
100
AcDbEntity
8
1
62
256
6
ByLayer
370
18
48
1
60
0
100
AcDbSpline
70
4
71
3
72
28
73
24
40
0
40
0
40
0
40
0
40
0.0154123824723287
40
0.0154123824723287
40
0.101515367098027
40
0.101515367098027
40
0.187618351723726
40
0.187618351723726
40
0.273721336349424
40
0.273721336349424
40
0.359824320975123
40
0.359824320975123
40
0.53203029022652
40
0.53203029022652
40
0.61813327485222
40
0.61813327485222
40
0.70423625947792
40
0.70423625947792
40
0.79033924410362
40
0.79033924410362
40
0.876442228729319
40
0.876442228729319
40
1
40
1
40
1
40
1
41
1
10
11.6426033384039
20
3.1708192118196
30
-2E-16
41
1
10
11.6829813201465
20
3.15965806858296
30
-2E-16
41
1
10
11.7233762365046
20
3.14838668878073
30
-2E-16
41
1
10
11.9895720488984
20
3.07341162618499
30
-2E-16
41
1
10
12.2160067860563
20
3.00629293469143
30
-2E-16
41
1
10
12.6701355834987
20
2.8655193529325
30
-2E-16
41
1
10
12.8977891490955
20
2.79187026216982
30
-2E-16
41
1
10
13.3519186390397
20
2.63944490993961
30
-2E-16
41
1
10
13.5787110703615
20
2.56058548088461
30
-2E-16
41
1
10
14.0317536371477
20
2.39784154997073
30
-1E-16
41
1
10
14.2579719580525
20
2.31395856794808
30
-1E-16
41
1
10
14.9371785993825
20
2.05536743186229
30
-1E-16
41
1
10
15.3908530898179
20
1.87374256622186
30
-1E-16
41
1
10
16.0725953093816
20
1.59044063213895
30
-1E-16
41
1
10
16.3002415880855
20
1.49408913442363
30
-1E-16
41
1
10
16.7538164471419
20
1.29889154363343
30
-1E-16
41
1
10
16.979975965193
20
1.19992145998432
30
-1E-16
41
1
10
17.4314569728025
20
1.00018811731371
30
-1E-16
41
1
10
17.6567930617366
20
0.899458715785983
30
-1E-16
41
1
10
18.1067254930125
20
0.696419794575149
30
0
41
1
10
18.3313019726168
20
0.594064911135746
30
0
41
1
10
18.8779844735115
20
0.344580467015334
30
0
41
1
10
19.2000269644891
20
0.197355357791821
30
0
41
1
10
19.5219522674087
20
0.0499474249802745
30
0
0
SPLINE
5
CE
100
AcDbEntity
8
1
62
256
6
ByLayer
370
18
48
1
60
0
100
AcDbSpline
70
4
71
3
72
8
73
4
40
0
40
0
40
0
40
0
40
1
40
1
40
1
40
1
41
1
10
48.620671697226
20
1.32578122106679
30
0
41
1
10
48.7493577400164
20
0.96241189601281
30
0
41
1
10
48.8745274895971
20
0.597784365167655
30
0
41
1
10
48.996126902834
20
0.231879290728585
30
0
0
SPLINE
5
CF
100
AcDbEntity
8
1
62
256
6
ByLayer
370
18
48
1
60
0
100
AcDbSpline
70
4
71
3
72
32
73
28
40
0
40
0
40
0
40
0
40
0.0316696731129359
40
0.0316696731129359
40
0.088630280576881
40
0.088630280576881
40
0.145590888040826
40
0.145590888040826
40
0.202551495504771
40
0.202551495504771
40
0.316472710432662
40
0.316472710432662
40
0.430393925360552
40
0.430393925360552
40
0.544315140288442
40
0.544315140288442
40
0.601275747752387
40
0.601275747752387
40
0.658236355216332
40
0.658236355216332
40
0.77215757014422
40
0.77215757014422
40
0.829118177608165
40
0.829118177608165
40
0.88607878507211
40
0.88607878507211
40
1
40
1
40
1
40
1
41
1
10
34.5606046610759
20
-0.353133798331441
30
0
41
1
10
34.3940633874476
20
-0.275831074637495
30
0
41
1
10
34.227550260595
20
-0.198336852801958
30
0
41
1
10
33.7616992664931
20
0.0185570518036968
30
0
41
1
10
33.4623920265172
20
0.158061584596709
30
0
41
1
10
32.8634799124044
20
0.436285954080745
30
0
41
1
10
32.5638432895591
20
0.57483043801281
30
0
41
1
10
31.9657885753769
20
0.848864731195931
30
-1E-16
41
1
10
31.6671244083449
20
0.984498182781408
30
-1E-16
41
1
10
30.7713228699885
20
1.38556843085016
30
-1E-16
41
1
10
30.1741797625516
20
1.6443132728335
30
-1E-16
41
1
10
28.9759890833394
20
2.13753635757826
30
-1E-16
41
1
10
28.3769944977554
20
2.36980882346441
30
-1E-16
41
1
10
27.1788651772837
20
2.79863094341522
30
-2E-16
41
1
10
26.579682361246
20
2.99360414868258
30
-2E-16
41
1
10
25.6815418782957
20
3.25294643147913
30
-2E-16
41
1
10
25.381825144352
20
3.3335986846233
30
-2E-16
41
1
10
24.7833742608123
20
3.48242249217304
30
-2E-16
41
1
10
24.484562712793
20
3.5506107411322
30
0
41
1
10
23.5886910756048
20
3.73615562067656
30
0
41
1
10
22.9919293150452
20
3.83311728862876
30
0
41
1
10
22.0944079731077
20
3.93812056700651
30
0
41
1
10
21.7946896592183
20
3.96618785091644
30
0
41
1
10
21.1954974247508
20
4.00778207208018
30
0
41
1
10
20.8960939697787
20
4.02132218447437
30
0
41
1
10
19.9979129279422
20
4.04107225418221
30
0
41
1
10
19.3989114076613
20
4.02394754041433
30
0
41
1
10
18.8000000000063
20
3.9789033358131
30
0
0
SPLINE
5
D0
100
AcDbEntity
8
1
62
256
6
ByLayer
370
18
48
1
60
0
100
AcDbSpline
70
4
71
3
72
8
73
4
40
0
40
0
40
0
40
0
40
1
40
1
40
1
40
1
41
1
10
21.7072638070098
20
-3.98222535775597
30
0
41
1
10
21.4558103952058
20
-3.98551497529081
30
0
41
1
10
21.2047668330043
20
-3.98375805114185
30
0
41
1
10
20.9539791619634
20
-3.9770037552093
30
0
0
SPLINE
5
D1
100
AcDbEntity
8
1
62
256
6
ByLayer
370
18
48
1
60
0
100
AcDbSpline
70
4
71
3
72
26
73
22
40
0
40
0
40
0
40
0
40
0.062811302319093
40
0.062811302319093
40
0.273249932153924
40
0.273249932153924
40
0.325859589612632
40
0.325859589612632
40
0.378469247071339
40
0.378469247071339
40
0.483688561988755
40
0.483688561988755
40
0.694127191823585
40
0.694127191823585
40
0.799346506741
40
0.799346506741
40
0.851956164199708
40
0.851956164199708
40
0.904565821658415
40
0.904565821658415
40
1
40
1
40
1
40
1
41
1
10
20.8496502944113
20
-3.97390531942659
30
0
41
1
10
20.5782924509581
20
-3.96509581586775
30
0
41
1
10
20.3072093483335
20
-3.95044034168129
30
0
41
1
10
19.1282542816111
20
-3.86152347461558
30
0
41
1
10
18.2209099027179
20
-3.72838401503651
30
0
41
1
10
17.0780935778316
20
-3.48581716578258
30
0
41
1
10
16.849068271287
20
-3.43350904873967
30
2E-16
41
1
10
16.3899106984147
20
-3.32148937732208
30
2E-16
41
1
10
16.1594424898503
20
-3.26167537641407
30
2E-16
41
1
10
15.4705593041204
20
-3.07282515853359
30
2E-16
41
1
10
15.0135262252474
20
-2.9341652474144
30
2E-16
41
1
10
13.6462667217073
20
-2.48473027321455
30
2E-16
41
1
10
12.7399923679684
20
-2.14018876157883
30
1E-16
41
1
10
11.3763014356056
20
-1.57868885952053
30
1E-16
41
1
10
10.9211225232247
20
-1.38389706142595
30
1E-16
41
1
10
10.2360154858237
20
-1.08316358307624
30
1E-16
41
1
10
10.0072273920416
20
-0.981540209934593
30
1E-16
41
1
10
9.54856920408369
20
-0.776037873397826
30
0
41
1
10
9.31836900374654
20
-0.672008465994907
30
0
41
1
10
8.67099605560239
20
-0.377845134035994
30
0
41
1
10
8.2552958499904
20
-0.186985886993142
30
0
41
1
10
7.84046975764593
20
0.0034647178925695
30
0
0
SPLINE
5
D2
100
AcDbEntity
8
1
62
256
6
ByLayer
370
18
48
1
60
0
100
AcDbSpline
70
4
71
3
72
18
73
14
40
0
40
0
40
0
40
0
40
0.123252955915168
40
0.123252955915168
40
0.342439716936379
40
0.342439716936379
40
0.45203309744697
40
0.45203309744697
40
0.561626477957561
40
0.561626477957561
40
0.780813238978781
40
0.780813238978781
40
1
40
1
40
1
40
1
41
1
10
47.2607539464696
20
0.813923721115088
30
0
41
1
10
47.2717278571869
20
0.830075352521362
30
-1E-16
41
1
10
47.2850642475758
20
0.847052587163091
30
-1E-16
41
1
10
47.3285195809059
20
0.896318594805336
30
-1E-16
41
1
10
47.3625312583443
20
0.92947600333838
30
0
41
1
10
47.4243389338395
20
0.979557545555565
30
0
41
1
10
47.446856894126
20
0.996366205127089
30
0
41
1
10
47.4943077319472
20
1.0286583645682
30
0
41
1
10
47.5193974663482
20
1.04427296953312
30
0
41
1
10
47.5989000380462
20
1.08900943020777
30
0
41
1
10
47.6582623950258
20
1.1161762456606
30
0
41
1
10
47.7816482943213
20
1.15900953591242
30
0
41
1
10
47.8469729565182
20
1.17518895257618
30
0
41
1
10
47.9135261493482
20
1.18518928195439
30
0
0
SPLINE
5
D3
100
AcDbEntity
8
1
62
256
6
ByLayer
370
18
48
1
60
0
100
AcDbSpline
70
4
71
3
72
8
73
4
40
0
40
0
40
0
40
0
40
1
40
1
40
1
40
1
41
1
10
18.8
20
-4.12525897113912
30
0
41
1
10
19.2770835460105
20
-4.16342502855565
30
0
41
1
10
19.7540957302213
20
-4.18270979076269
30
0
41
1
10
20.2308864668431
20
-4.18296319165921
30
0
0
SPLINE
5
D4
100
AcDbEntity
8
1
62
256
6
ByLayer
370
18
48
1
60
0
100
AcDbSpline
70
4
71
3
72
8
73
4
40
0
40
0
40
0
40
0
40
1
40
1
40
1
40
1
41
1
10
46.4845549780163
20
4.1742755643678
30
0
41
1
10
46.7498515621661
20
4.18848742359228
30
0
41
1
10
47.0152299198705
20
4.19683132439187
30
0
41
1
10
47.2808990897567
20
4.19924261148378
30
0
0
SPLINE
5
D5
100
AcDbEntity
8
1
62
256
6
ByLayer
370
18
48
1
60
0
100
AcDbSpline
70
4
71
3
72
30
73
26
40
0
40
0
40
0
40
0
40
0.124999999999996
40
0.124999999999996
40
0.187499999999994
40
0.187499999999994
40
0.249999999999992
40
0.249999999999992
40
0.31249999999999
40
0.31249999999999
40
0.374999999999988
40
0.374999999999988
40
0.437499999999986
40
0.437499999999986
40
0.499999999999984
40
0.499999999999984
40
0.562499999999982
40
0.562499999999982
40
0.62499999999998
40
0.62499999999998
40
0.749999999999987
40
0.749999999999987
40
0.874999999999993
40
0.874999999999993
40
1
40
1
40
1
40
1
41
1
10
48.9414307225746
20
0.050560993791521
30
0
41
1
10
48.921100044014
20
-0.0164720956384485
30
0
41
1
10
48.8977257691736
20
-0.081972660233987
30
0
41
1
10
48.8579270826352
20
-0.177759484178608
30
0
41
1
10
48.8437383434489
20
-0.209521688102825
30
0
41
1
10
48.814416562332
20
-0.27050914015129
30
0
41
1
10
48.799276334448
20
-0.299798685978914
30
0
41
1
10
48.7680593683622
20
-0.35589460706916
30
0
41
1
10
48.7519832731035
20
-0.382702612621557
30
0
41
1
10
48.7188465208608
20
-0.433615579235607
30
0
41
1
10
48.7018248661056
20
-0.45760509717573
30
0
41
1
10
48.6681685506477
20
-0.500773830965898
30
0
41
1
10
48.6513636132096
20
-0.520225745199184
30
0
41
1
10
48.6177778135905
20
-0.554776189919892
30
0
41
1
10
48.6008438921174
20
-0.569969369542378
30
0
41
1
10
48.5680648381963
20
-0.594882366374577
30
0
41
1
10
48.55214090887
20
-0.604726387609901
30
0
41
1
10
48.5211021077473
20
-0.619394070475778
30
0
41
1
10
48.5058742460233
20
-0.624219108982913
30
0
41
1
10
48.4623384590818
20
-0.630990001009991
30
0
41
1
10
48.4358218844257
20
-0.625451847909801
30
0
41
1
10
48.3876166742873
20
-0.597322399773617
30
0
41
1
10
48.3663918899759
20
-0.575183983732273
30
0
41
1
10
48.3279681400633
20
-0.517626933992261
30
0
41
1
10
48.3108272085003
20
-0.482068266563402
30
0
41
1
10
48.295670496625
20
-0.441609154023325
30
0
0
SPLINE
5
D6
100
AcDbEntity
8
1
62
256
6
ByLayer
370
18
48
1
60
0
100
AcDbSpline
70
4
71
3
72
32
73
28
40
0
40
0
40
0
40
0
40
0.027068516788181
40
0.027068516788181
40
0.125693098267114
40
0.125693098267114
40
0.224317679746047
40
0.224317679746047
40
0.322942261224981
40
0.322942261224981
40
0.421566842703914
40
0.421566842703914
40
0.470879133443381
40
0.470879133443381
40
0.520191424182847
40
0.520191424182847
40
0.618816005661783
40
0.618816005661783
40
0.717440587140719
40
0.717440587140719
40
0.766752877880186
40
0.766752877880186
40
0.816065168619654
40
0.816065168619654
40
0.91468975009859
40
0.91468975009859
40
1
40
1
40
1
40
1
41
1
10
33.1131778035363
20
3.98990987233765
30
0
41
1
10
33.237561147689
20
3.99102064518667
30
0
41
1
10
33.3618281713949
20
3.99074391197561
30
0
41
1
10
33.9380523779944
20
3.982930805573
30
0
41
1
10
34.3884854199319
20
3.95923062566888
30
0
41
1
10
35.2866101477139
20
3.88291854413561
30
0
41
1
10
35.7340251031695
20
3.83095886786617
30
0
41
1
10
36.6297166411001
20
3.69325516121651
30
0
41
1
10
37.0776341163829
20
3.60893115627707
30
0
41
1
10
37.9746897267565
20
3.41235352275245
30
-2E-16
41
1
10
38.423316451243
20
3.30068124074242
30
-2E-16
41
1
10
39.0998535054996
20
3.11169496345914
30
-2E-16
41
1
10
39.3258777327879
20
3.04528027682053
30
-2E-16
41
1
10
39.7789952898046
20
2.90606759806025
30
-2E-16
41
1
10
40.0062940690598
20
2.83317775172392
30
-2E-16
41
1
10
40.6865004235652
20
2.60655510607049
30
-2E-16
41
1
10
41.1385493549295
20
2.44463826728705
30
-1E-16
41
1
10
42.0436176190626
20
2.10174106365298
30
-1E-16
41
1
10
42.4963969609006
20
1.92112051365376
30
-1E-16
41
1
10
43.1761494366013
20
1.63862402116328
30
-1E-16
41
1
10
43.4029658497556
20
1.54236704120586
30
-1E-16
41
1
10
43.8561753731211
20
1.34716318335373
30
-1E-16
41
1
10
44.0825221104836
20
1.24831523835854
30
-1E-16
41
1
10
44.7610518096416
20
0.948773819575848
30
-1E-16
41
1
10
45.2127499171991
20
0.745140121131698
30
0
41
1
10
46.0549680294359
20
0.360656890924332
30
0
41
1
10
46.4454903194544
20
0.180406940526609
30
0
41
1
10
46.8363132255357
20
-0.0008568029939795
30
0
0
SPLINE
5
D7
100
AcDbEntity
8
1
62
256
6
ByLayer
370
18
48
1
60
0
100
AcDbSpline
70
4
71
3
72
28
73
24
40
0
40
0
40
0
40
0
40
0.0550873173236259
40
0.0550873173236259
40
0.110174634647252
40
0.110174634647252
40
0.220349269294503
40
0.220349269294503
40
0.330523903941754
40
0.330523903941754
40
0.38561122126538
40
0.38561122126538
40
0.440698538589005
40
0.440698538589005
40
0.661047807883508
40
0.661047807883508
40
0.716135125207131
40
0.716135125207131
40
0.771222442530755
40
0.771222442530755
40
0.881397077178
40
0.881397077178
40
1
40
1
40
1
40
1
41
1
10
47.5004088018955
20
-3.96493833702002
30
0
41
1
10
47.2707906988792
20
-3.95051722757233
30
0
41
1
10
47.0415213521485
20
-3.93262514677326
30
0
41
1
10
46.5836626804942
20
-3.88792040584661
30
0
41
1
10
46.3550370590038
20
-3.86146704386843
30
0
41
1
10
45.6697051954027
20
-3.77013069946261
30
0
41
1
10
45.2135438437026
20
-3.69326780864577
30
0
41
1
10
44.3008034884405
20
-3.50955447863339
30
0
41
1
10
43.844107502737
20
-3.40262339992836
30
2E-16
41
1
10
43.1575079807271
20
-3.22136718249837
30
2E-16
41
1
10
42.9283188100908
20
-3.15739821976771
30
2E-16
41
1
10
42.4690456301872
20
-3.02264867222885
30
2E-16
41
1
10
42.2388430254705
20
-2.95182785443265
30
2E-16
41
1
10
41.0903497397949
20
-2.58333374115648
30
2E-16
41
1
10
40.1755155654251
20
-2.24146178397302
30
1E-16
41
1
10
39.0268421765745
20
-1.77242970185426
30
1E-16
41
1
10
38.796577144567
20
-1.67643194593327
30
1E-16
41
1
10
38.3375403170203
20
-1.48179687957403
30
1E-16
41
1
10
38.1085765534928
20
-1.3830939775913
30
1E-16
41
1
10
37.4230361751858
20
-1.08352270956294
30
1E-16
41
1
10
36.9678122432616
20
-0.879187877302797
30
1E-16
41
1
10
36.0241191782267
20
-0.450100909831065
30
0
41
1
10
35.5358180749164
20
-0.22487284936517
30
0
41
1
10
35.0472332315351
20
0.0004319304879346
30
0
0
SPLINE
5
D8
100
AcDbEntity
8
1
62
256
6
ByLayer
370
18
48
1
60
0
100
AcDbSpline
70
4
71
3
72
28
73
24
40
0
40
0
40
0
40
0
40
0.125
40
0.125
40
0.187499999999999
40
0.187499999999999
40
0.249999999999999
40
0.249999999999999
40
0.374999999999999
40
0.374999999999999
40
0.437499999999998
40
0.437499999999998
40
0.499999999999998
40
0.499999999999998
40
0.624999999999999
40
0.624999999999999
40
0.687499999999999
40
0.687499999999999
40
0.749999999999999
40
0.749999999999999
40
0.875
40
0.875
40
1
40
1
40
1
40
1
41
1
10
47.0246886675314
20
-0.099041620977232
30
0
41
1
10
47.0340659943744
20
-0.336510265456837
30
0
41
1
10
47.0529929277377
20
-0.5690891809964
30
0
41
1
10
47.088873455296
20
-0.911596062212396
30
1E-16
41
1
10
47.1021082742479
20
-1.02469553040103
30
1E-16
41
1
10
47.130230174959
20
-1.24881805913304
30
1E-16
41
1
10
47.1451887343721
20
-1.3603396475113
30
1E-16
41
1
10
47.1908139338328
20
-1.68791924604369
30
1E-16
41
1
10
47.2219465512602
20
-1.89589143943598
30
1E-16
41
1
10
47.2660273285031
20
-2.19305795227939
30
1E-16
41
1
10
47.2803041554211
20
-2.28962959177085
30
1E-16
41
1
10
47.307615602588
20
-2.47772715093836
30
2E-16
41
1
10
47.3206961473684
20
-2.5696058274454
30
2E-16
41
1
10
47.3570018324969
20
-2.83253592626306
30
2E-16
41
1
10
47.3774299140641
20
-2.9923406364023
30
2E-16
41
1
10
47.4028748133987
20
-3.2091303553305
30
2E-16
41
1
10
47.4105074047891
20
-3.27755108117964
30
2E-16
41
1
10
47.4243740412583
20
-3.40647848479381
30
2E-16
41
1
10
47.4306110149698
20
-3.46702978277105
30
0
41
1
10
47.4476201850602
20
-3.63305708824964
30
0
41
1
10
47.4567833760391
20
-3.72438606284433
30
0
41
1
10
47.4767205615318
20
-3.86872285935016
30
0
41
1
10
47.4875759495871
20
-3.92180573128536
30
0
41
1
10
47.5030013977313
20
-3.95372664593788
30
0
0
SPLINE
5
D9
100
AcDbEntity
8
1
62
256
6
ByLayer
370
18
48
1
60
0
100
AcDbSpline
70
4
71
3
72
26
73
22
40
0
40
0
40
0
40
0
40
0.0578996779040015
40
0.0578996779040015
40
0.139830540774737
40
0.139830540774737
40
0.221761403645473
40
0.221761403645473
40
0.303692266516209
40
0.303692266516209
40
0.385623129386945
40
0.385623129386945
40
0.549484855128417
40
0.549484855128417
40
0.631415717999153
40
0.631415717999153
40
0.713346580869889
40
0.713346580869889
40
0.877208306611361
40
0.877208306611361
40
1
40
1
40
1
40
1
41
1
10
3.60211762096239
20
3.96293551262949
30
0
41
1
10
3.60211313686267
20
3.96263102889861
30
0
41
1
10
3.60210856091518
20
3.95999234725844
30
0
41
1
10
3.602097318706
20
3.9480200155412
30
0
41
1
10
3.60209056962532
20
3.93633755691786
30
0
41
1
10
3.60207677956481
20
3.90342331569204
30
0
41
1
10
3.60206972327455
20
3.88210397585223
30
0
41
1
10
3.60205554348508
20
3.83041006088462
30
0
41
1
10
3.60204839621198
20
3.7999982474154
30
0
41
1
10
3.60203398228776
20
3.73007180800039
30
0
41
1
10
3.60202669467395
20
3.69042852560961
30
0
41
1
10
3.60200475421749
20
3.55848332294121
30
0
41
1
10
3.60199017718509
20
3.45423287208109
30
0
41
1
10
3.60196804107983
20
3.27428527866658
30
-2E-16
41
1
10
3.60196061507998
20
3.21035243379802
30
-2E-16
41
1
10
3.6019455813842
20
3.07447344368197
30
-2E-16
41
1
10
3.60193794572791
20
3.00224966587299
30
-2E-16
41
1
10
3.60191479635699
20
2.77506526016901
30
-2E-16
41
1
10
3.60189923134701
20
2.61159976955761
30
-2E-16
41
1
10
3.60187096427805
20
2.30536632055234
30
-1E-16
41
1
10
3.60185850258452
20
2.16742909770656
30
-1E-16
41
1
10
3.60184550219177
20
2.02307555493962
30
-1E-16
0
SPLINE
5
DA
100
AcDbEntity
8
1
62
256
6
ByLayer
370
18
48
1
60
0
100
AcDbSpline
70
4
71
3
72
8
73
4
40
0
40
0
40
0
40
0
40
1
40
1
40
1
40
1
41
1
10
47.9135261493481
20
1.18518928195456
30
0
41
1
10
48.1511097104714
20
1.2208887542871
30
0
41
1
10
48.3873634988466
20
1.26537129494011
30
0
41
1
10
48.620671697226
20
1.32578122106679
30
0
0
SPLINE
5
DB
100
AcDbEntity
8
1
62
256
6
ByLayer
370
18
48
1
60
0
100
AcDbSpline
70
4
71
3
72
8
73
4
40
0
40
0
40
0
40
0
40
1
40
1
40
1
40
1
41
1
10
18.8
20
4.13477122787441
30
0
41
1
10
18.8
20
4.08298737188588
30
0
41
1
10
18.8
20
4.03103057298583
30
0
41
1
10
18.8
20
3.97890333586034
30
0
0
SPLINE
5
DC
100
AcDbEntity
8
1
62
256
6
ByLayer
370
18
48
1
60
0
100
AcDbSpline
70
4
71
3
72
10
73
6
40
0
40
0
40
0
40
0
40
0.568166517743111
40
0.568166517743111
40
1
40
1
40
1
40
1
41
1
10
3.64540878602236
20
-4.01550197791565
30
0
41
1
10
4.09649766562981
20
-4.0753309261849
30
0
41
1
10
4.5475678690463
20
-4.11810775593113
30
0
41
1
10
5.34222597757457
20
-4.16385502699109
30
0
41
1
10
5.68567402876826
20
-4.17389105876026
30
0
41
1
10
6.02887786466448
20
-4.17408724247667
30
0
0
SPLINE
5
DD
100
AcDbEntity
8
1
62
256
6
ByLayer
370
18
48
1
60
0
100
AcDbSpline
70
4
71
3
72
34
73
30
40
0
40
0
40
0
40
0
40
0.0067041989719665
40
0.0067041989719665
40
0.089478849057636
40
0.089478849057636
40
0.172253499143305
40
0.172253499143305
40
0.255028149228975
40
0.255028149228975
40
0.337802799314644
40
0.337802799314644
40
0.420577449400314
40
0.420577449400314
40
0.503352099485983
40
0.503352099485983
40
0.586126749571653
40
0.586126749571653
40
0.668901399657322
40
0.668901399657322
40
0.751676049742992
40
0.751676049742992
40
0.793063374785826
40
0.793063374785826
40
0.834450699828661
40
0.834450699828661
40
0.91722534991433
40
0.91722534991433
40
1
40
1
40
1
40
1
41
1
10
30.5879282014375
20
3.99588350931072
30
0
41
1
10
30.624443900197
20
4.00120973425936
30
0
41
1
10
30.6609545329466
20
4.00642615450499
30
0
41
1
10
31.1481679626953
20
4.07456968730722
30
0
41
1
10
31.598468758838
20
4.12115079307722
30
0
41
1
10
32.4987833730483
20
4.18113950624934
30
0
41
1
10
32.9486126192091
20
4.19440282044766
30
0
41
1
10
33.85148300762
20
4.18638924402674
30
0
41
1
10
34.3022539674891
20
4.16545040175933
30
0
41
1
10
35.2025384924591
20
4.0900858929688
30
0
41
1
10
35.6516694320383
20
4.03524705827687
30
0
41
1
10
36.5531497313366
20
3.89373164475069
30
0
41
1
10
37.0052169352966
20
3.80679761270591
30
0
41
1
10
37.9061133907042
20
3.60314594987682
30
-2E-16
41
1
10
38.3552825457222
20
3.48569710366451
30
-2E-16
41
1
10
39.255592790848
20
3.2245863808117
30
-2E-16
41
1
10
39.7070599293631
20
3.08047676701136
30
-2E-16
41
1
10
40.6092267063867
20
2.76743073178028
30
-2E-16
41
1
10
41.0586837293911
20
2.59849831804704
30
-2E-16
41
1
10
41.9587290287046
20
2.2430468886723
30
-1E-16
41
1
10
42.408997013176
20
2.05610452722732
30
-1E-16
41
1
10
43.08513282581
20
1.76235559708928
30
-1E-16
41
1
10
43.3107357610949
20
1.66201803749902
30
-1E-16
41
1
10
43.7614569580917
20
1.45833634249578
30
-1E-16
41
1
10
43.9868349029936
20
1.35528414648098
30
-1E-16
41
1
10
44.6631353057518
20
1.04277632841359
30
-1E-16
41
1
10
45.114565249931
20
0.829781885981475
30
-1E-16
41
1
10
46.0172994515743
20
0.397660999673036
30
0
41
1
10
46.4677073798605
20
0.178897910689528
30
0
41
1
10
46.9180595310389
20
-0.0407213021108248
30
0
0
SPLINE
5
DE
100
AcDbEntity
8
1
62
256
6
ByLayer
370
18
48
1
60
0
100
AcDbSpline
70
4
71
3
72
8
73
4
40
0
40
0
40
0
40
0
40
1
40
1
40
1
40
1
41
1
10
46.9180595310389
20
-0.0407213021108248
30
0
41
1
10
46.9074377158084
20
0.158881782193703
30
0
41
1
10
46.9038232049118
20
0.356062348841277
30
0
41
1
10
46.9092547743388
20
0.550829363028782
30
0
0
SPLINE
5
DF
100
AcDbEntity
8
1
62
256
6
ByLayer
370
18
48
1
60
0
100
AcDbSpline
70
4
71
3
72
16
73
12
40
0
40
0
40
0
40
0
40
0.180483443168705
40
0.180483443168705
40
0.453655628779138
40
0.453655628779138
40
0.590241721584354
40
0.590241721584354
40
0.72682781438957
40
0.72682781438957
40
1
40
1
40
1
40
1
41
1
10
13.6826357275454
20
3.08073784211663
30
-2E-16
41
1
10
13.9908885078377
20
3.18142988200356
30
-2E-16
41
1
10
14.2993713086294
20
3.27632522073384
30
-2E-16
41
1
10
15.0732644043365
20
3.49839110997306
30
-2E-16
41
1
10
15.5384459776789
20
3.61732747177334
30
-2E-16
41
1
10
16.2368564848705
20
3.77155737445378
30
0
41
1
10
16.4697605466909
20
3.81895032662146
30
0
41
1
10
16.9359585055543
20
3.90548722271376
30
0
41
1
10
17.1695101033326
20
3.94461706018049
30
0
41
1
10
17.8692218682181
20
4.04877709521242
30
0
41
1
10
18.3345984132448
20
4.10074048056381
30
0
41
1
10
18.8000000000071
20
4.13477122787495
30
0
0
SPLINE
5
E0
100
AcDbEntity
8
1
62
256
6
ByLayer
370
18
48
1
60
0
100
AcDbSpline
70
4
71
3
72
40
73
36
40
0
40
0
40
0
40
0
40
0.0528904269832795
40
0.0528904269832795
40
0.105780853966559
40
0.105780853966559
40
0.211561707933118
40
0.211561707933118
40
0.264452134916397
40
0.264452134916397
40
0.317342561899676
40
0.317342561899676
40
0.370232988882954
40
0.370232988882954
40
0.423123415866233
40
0.423123415866233
40
0.476013842849512
40
0.476013842849512
40
0.528904269832791
40
0.528904269832791
40
0.58179469681607
40
0.58179469681607
40
0.634685123799349
40
0.634685123799349
40
0.687575550782627
40
0.687575550782627
40
0.740465977765906
40
0.740465977765906
40
0.793356404749185
40
0.793356404749185
40
0.846246831732464
40
0.846246831732464
40
0.952027685699023
40
0.952027685699023
40
1
40
1
40
1
40
1
41
1
10
47.2653466595159
20
-4.14640527809323
30
0
41
1
10
46.8099173104553
20
-4.11092601380673
30
0
41
1
10
46.3549804086268
20
-4.05828118465203
30
0
41
1
10
45.4441250399149
20
-3.91984203368483
30
0
41
1
10
44.9880360332151
20
-3.8339525368703
30
0
41
1
10
43.6221577067276
20
-3.53012864211755
30
2E-16
41
1
10
42.710708464979
20
-3.2649399935045
30
2E-16
41
1
10
41.3447732369832
20
-2.7935405816869
30
2E-16
41
1
10
40.8886945639426
20
-2.62385876891173
30
2E-16
41
1
10
39.9777487032968
20
-2.26478389391093
30
1E-16
41
1
10
39.5226860852777
20
-2.0753173681199
30
1E-16
41
1
10
38.6112992832826
20
-1.68018969819178
30
1E-16
41
1
10
38.1556222824978
20
-1.47489069850852
30
1E-16
41
1
10
37.2463568680411
20
-1.05483469105951
30
1E-16
41
1
10
36.7921641001442
20
-0.839810044389111
30
1E-16
41
1
10
35.8824945963233
20
-0.404143395704551
30
0
41
1
10
35.4262070502052
20
-0.182982301290991
30
0
41
1
10
34.5157340430347
20
0.257899333489121
30
0
41
1
10
34.0613651136532
20
0.477642872660937
30
0
41
1
10
33.1522802228265
20
0.91144920647713
30
-1E-16
41
1
10
32.6976342072153
20
1.12565364534706
30
-1E-16
41
1
10
31.7858232852149
20
1.54393047413043
30
-1E-16
41
1
10
31.3306377357691
20
1.74707187385914
30
-1E-16
41
1
10
30.4213359867071
20
2.13654402247394
30
-1E-16
41
1
10
29.9670223869868
20
2.32318188385042
30
-1E-16
41
1
10
29.0567926721721
20
2.67618650302788
30
-2E-16
41
1
10
28.600302398304
20
2.84280892542836
30
-2E-16
41
1
10
27.6900883295344
20
3.14995402074939
30
-2E-16
41
1
10
27.2356968068405
20
3.29078785461991
30
-2E-16
41
1
10
26.3262686628857
20
3.54432012216401
30
-2E-16
41
1
10
25.870962482306
20
3.65720870465674
30
2E-16
41
1
10
24.5031066083917
20
3.94902386026487
30
0
41
1
10
23.5959143378507
20
4.07978304876468
30
0
41
1
10
22.2720117007114
20
4.17007016484214
30
0
41
1
10
21.8580749030963
20
4.18404535722948
30
0
41
1
10
21.445092752821
20
4.18373020270693
30
0
0
SPLINE
5
E1
100
AcDbEntity
8
1
62
256
6
ByLayer
370
18
48
1
60
0
100
AcDbSpline
70
4
71
3
72
20
73
16
40
0
40
0
40
0
40
0
40
0.250000000000003
40
0.250000000000003
40
0.375000000000002
40
0.375000000000002
40
0.437500000000002
40
0.437500000000002
40
0.500000000000002
40
0.500000000000002
40
0.625000000000001
40
0.625000000000001
40
0.750000000000001
40
0.750000000000001
40
1
40
1
40
1
40
1
41
1
10
47.5408579974318
20
4.02648092828045
30
0
41
1
10
47.6230268934909
20
3.79498310863735
30
0
41
1
10
47.7042472744662
20
3.56192916086979
30
0
41
1
10
47.8263060594144
20
3.2113394731922
30
0
41
1
10
47.8670138537601
20
3.09434026191497
30
0
41
1
10
47.9282592274758
20
2.9187585692429
30
0
41
1
10
47.9487052650205
20
2.86021482571718
30
0
41
1
10
47.9896665713764
20
2.74314870317471
30
0
41
1
10
48.0100820646185
20
2.68458245350212
30
0
41
1
10
48.0723233877782
20
2.50970209791603
30
0
41
1
10
48.1151306813406
20
2.39417931880064
30
0
41
1
10
48.2048371398809
20
2.16587515173859
30
0
41
1
10
48.2519823891115
20
2.05256256254154
30
0
41
1
10
48.4000536800882
20
1.72130565350608
30
0
41
1
10
48.5056909652583
20
1.51600035852678
30
0
41
1
10
48.620671697226
20
1.32578122106679
30
0
0
SPLINE
5
E2
100
AcDbEntity
8
1
62
256
6
ByLayer
370
18
48
1
60
0
100
AcDbSpline
70
4
71
3
72
10
73
6
40
0
40
0
40
0
40
0
40
0.392516574664886
40
0.392516574664886
40
1
40
1
40
1
40
1
41
1
10
3.50818683759161
20
4.0299898010739
30
0
41
1
10
3.51586478228725
20
4.02473029476593
30
0
41
1
10
3.5300116620387
20
4.0199987285138
30
0
41
1
10
3.57750235660339
20
4.01198110610204
30
0
41
1
10
3.61478944132773
20
4.01144086430236
30
0
41
1
10
3.64540878602236
20
4.01550197791565
30
0
0
SPLINE
5
E3
100
AcDbEntity
8
1
62
256
6
ByLayer
370
18
48
1
60
0
100
AcDbSpline
70
4
71
3
72
20
73
16
40
0
40
0
40
0
40
0
40
0.249999999999991
40
0.249999999999991
40
0.374999999999989
40
0.374999999999989
40
0.437499999999988
40
0.437499999999988
40
0.499999999999988
40
0.499999999999988
40
0.62499999999999
40
0.62499999999999
40
0.749999999999994
40
0.749999999999994
40
1
40
1
40
1
40
1
41
1
10
47.5408579974318
20
-4.02648092828045
30
0
41
1
10
47.6230268934909
20
-3.79498310863735
30
0
41
1
10
47.7042472744662
20
-3.56192916086979
30
0
41
1
10
47.8263060594144
20
-3.2113394731922
30
0
41
1
10
47.86701385376
20
-3.09434026191494
30
0
41
1
10
47.9282592274758
20
-2.9187585692429
30
0
41
1
10
47.9487052650205
20
-2.86021482571718
30
0
41
1
10
47.9896665713764
20
-2.74314870317471
30
0
41
1
10
48.0100820646185
20
-2.68458245350209
30
0
41
1
10
48.0723233877783
20
-2.50970209791601
30
0
41
1
10
48.1151306813407
20
-2.39417931880064
30
0
41
1
10
48.2048371398808
20
-2.16587515173862
30
0
41
1
10
48.2519823891114
20
-2.05256256254154
30
0
41
1
10
48.4000536800882
20
-1.72130565350605
30
0
41
1
10
48.5056909652583
20
-1.51600035852678
30
0
41
1
10
48.620671697226
20
-1.32578122106679
30
0
0
SPLINE
5
E4
100
AcDbEntity
8
1
62
256
6
ByLayer
370
18
48
1
60
0
100
AcDbSpline
70
4
71
3
72
84
73
80
40
0
40
0
40
0
40
0
40
0.0171559944481538
40
0.0171559944481538
40
0.0357030202014751
40
0.0357030202014751
40
0.0727970717081188
40
0.0727970717081188
40
0.0913440974614406
40
0.0913440974614406
40
0.109891123214763
40
0.109891123214763
40
0.146985174721407
40
0.146985174721407
40
0.184079226228052
40
0.184079226228052
40
0.221173277734697
40
0.221173277734697
40
0.239720303488019
40
0.239720303488019
40
0.258267329241341
40
0.258267329241341
40
0.295361380747985
40
0.295361380747985
40
0.313908406501306
40
0.313908406501306
40
0.332455432254628
40
0.332455432254628
40
0.351002458007949
40
0.351002458007949
40
0.36954948376127
40
0.36954948376127
40
0.388096509514592
40
0.388096509514592
40
0.406643535267913
40
0.406643535267913
40
0.443737586774557
40
0.443737586774557
40
0.462284612527879
40
0.462284612527879
40
0.480831638281201
40
0.480831638281201
40
0.517925689787844
40
0.517925689787844
40
0.555019741294488
40
0.555019741294488
40
0.592113792801131
40
0.592113792801131
40
0.629207844307775
40
0.629207844307775
40
0.666301895814419
40
0.666301895814419
40
0.703395947321062
40
0.703395947321062
40
0.721942973074384
40
0.721942973074384
40
0.740489998827706
40
0.740489998827706
40
0.777584050334351
40
0.777584050334351
40
0.796131076087673
40
0.796131076087673
40
0.814678101840995
40
0.814678101840995
40
0.833225127594317
40
0.833225127594317
40
0.851772153347639
40
0.851772153347639
40
0.870319179100961
40
0.870319179100961
40
0.888866204854283
40
0.888866204854283
40
0.925960256360927
40
0.925960256360927
40
0.94450728211425
40
0.94450728211425
40
0.963054307867572
40
0.963054307867572
40
1
40
1
40
1
40
1
41
1
10
41.7519537193256
20
-2.79137963565421
30
2E-16
41
1
10
41.5549629712157
20
-2.86277201113077
30
2E-16
41
1
10
41.357750549466
20
-2.93195661149767
30
2E-16
41
1
10
40.9467030491293
20
-3.07096695488784
30
2E-16
41
1
10
40.7333064461346
20
-3.14014962312706
30
2E-16
41
1
10
40.0944659946191
20
-3.33992810438596
30
2E-16
41
1
10
39.6694697221112
20
-3.46139950452019
30
2E-16
41
1
10
39.0309111164415
20
-3.62334846499814
30
2E-16
41
1
10
38.8179160790084
20
-3.67402635116295
30
-2E-16
41
1
10
38.392186580006
20
-3.76923959214008
30
0
41
1
10
38.1791906784595
20
-3.81350195705488
30
0
41
1
10
37.5391433071565
20
-3.93563517667661
30
0
41
1
10
37.1123605446486
20
-4.0024435440732
30
0
41
1
10
36.2615628224241
20
-4.10730539670041
30
0
41
1
10
35.8363373816355
20
-4.14479276431928
30
0
41
1
10
34.9841346758154
20
-4.1894660705911
30
0
41
1
10
34.5573621150844
20
-4.19675103730617
30
0
41
1
10
33.9178649829735
20
-4.18457489496171
30
0
41
1
10
33.7047984698173
20
-4.17671763635622
30
0
41
1
10
33.2788323622917
20
-4.15350152294556
30
0
41
1
10
33.066161824658
20
-4.13807443357197
30
0
41
1
10
32.4281442962456
20
-4.08049052729464
30
0
41
1
10
32.0024451520982
20
-4.02721877992588
30
0
41
1
10
31.3623364840172
20
-3.92568578851487
30
0
41
1
10
31.1488757116291
20
-3.88797039801381
30
0
41
1
10
30.7225387546745
20
-3.80572717366152
30
0
41
1
10
30.5095568776416
20
-3.76116411413636
30
0
41
1
10
30.0836317047643
20
-3.66554361908004
30
-2E-16
41
1
10
29.8706467961504
20
-3.61453993070896
30
2E-16
41
1
10
29.4449307447156
20
-3.50585872136114
30
2E-16
41
1
10
29.2323560211574
20
-3.44798137711038
30
2E-16
41
1
10
28.8067432314276
20
-3.32628267514781
30
2E-16
41
1
10
28.5937808342083
20
-3.26238416452861
30
2E-16
41
1
10
28.1672320597778
20
-3.12892429099597
30
2E-16
41
1
10
27.9534012795672
20
-3.05939021392754
30
2E-16
41
1
10
27.3133523242688
20
-2.84185446179359
30
2E-16
41
1
10
26.8880160865928
20
-2.68566058054253
30
2E-16
41
1
10
26.2492880801952
20
-2.43915025230814
30
1E-16
41
1
10
26.0362752913438
20
-2.35494308082201
30
1E-16
41
1
10
25.6106762176676
20
-2.18132773353687
30
1E-16
41
1
10
25.3978625256101
20
-2.09229943711137
30
1E-16
41
1
10
24.758552357984
20
-1.82002157836612
30
1E-16
41
1
10
24.3305711812452
20
-1.63200296345542
30
1E-16
41
1
10
23.4788035076344
20
-1.24372912455866
30
1E-16
41
1
10
23.0534418314786
20
-1.04483571606937
30
1E-16
41
1
10
22.2014865938268
20
-0.642213897544053
30
0
41
1
10
21.7758435388008
20
-0.436531332458458
30
0
41
1
10
20.9216010443174
20
-0.0238215846001424
30
0
41
1
10
20.4951430118267
20
0.18187895513492
30
0
41
1
10
19.6440003419377
20
0.592724870376173
30
0
41
1
10
19.2184234871552
20
0.796038974649946
30
0
41
1
10
18.3656359321153
20
1.19516612359647
30
-1E-16
41
1
10
17.9386925582425
20
1.39326150258793
30
-1E-16
41
1
10
17.2989736910356
20
1.67906551857553
30
-1E-16
41
1
10
17.0857936272212
20
1.7725481362699
30
-1E-16
41
1
10
16.6597391052043
20
1.95632706401329
30
-1E-16
41
1
10
16.4470848357233
20
2.04701902204118
30
-1E-16
41
1
10
15.8087028211208
20
2.31263306576574
30
-1E-16
41
1
10
15.3824836880811
20
2.48104358375073
30
-2E-16
41
1
10
14.7421002193301
20
2.72047514357476
30
-2E-16
41
1
10
14.5286155467103
20
2.79833737710189
30
-2E-16
41
1
10
14.1021798269866
20
2.94806336425569
30
-2E-16
41
1
10
13.8891113058603
20
3.02012222529086
30
-2E-16
41
1
10
13.4629776271853
20
3.15828403319216
30
-2E-16
41
1
10
13.2498595684147
20
3.2243314262098
30
-2E-16
41
1
10
12.8241687216638
20
3.35119270087003
30
-2E-16
41
1
10
12.611431239433
20
3.4117683306238
30
-2E-16
41
1
10
12.1855021725008
20
3.52637579556358
30
-2E-16
41
1
10
11.9723435495258
20
3.58045470546915
30
-2E-16
41
1
10
11.5454015279559
20
3.68193233073043
30
0
41
1
10
11.331472593433
20
3.72936363279791
30
0
41
1
10
10.6914561920298
20
3.86190042053198
30
0
41
1
10
10.2654627984006
20
3.9361893623898
30
0
41
1
10
9.62559717823564
20
4.0254640786446
30
0
41
1
10
9.41226827691256
20
4.05161457418578
30
0
41
1
10
8.98575359610794
20
4.09670067618362
30
0
41
1
10
8.77218442462848
20
4.11552372900101
30
0
41
1
10
8.13333870514089
20
4.16037702892353
30
0
41
1
10
7.70852747619511
20
4.17517881337111
30
0
41
1
10
7.28418863823492
20
4.17488193825108
30
0
0
SPLINE
5
E5
100
AcDbEntity
8
1
62
256
6
ByLayer
370
18
48
1
60
0
100
AcDbSpline
70
4
71
3
72
16
73
12
40
0
40
0
40
0
40
0
40
0.280131452489036
40
0.280131452489036
40
0.420197178733557
40
0.420197178733557
40
0.560262904978078
40
0.560262904978078
40
0.840394357467119
40
0.840394357467119
40
1
40
1
40
1
40
1
41
1
10
47.5333986558337
20
4.0315035003656
30
0
41
1
10
46.9345349276246
20
4.03538156638268
30
0
41
1
10
46.3371107860411
20
4.01105633393294
30
0
41
1
10
45.4397536763713
20
3.93124488708696
30
0
41
1
10
45.1401958294482
20
3.89740563783784
30
0
41
1
10
44.5412708216384
20
3.81585007138838
30
0
41
1
10
44.2421939938475
20
3.76860479640925
30
0
41
1
10
43.3452008006636
20
3.6056179669776
30
0
41
1
10
42.7472009271988
20
3.47081790902965
30
-2E-16
41
1
10
41.8064884703554
20
3.22153059448175
30
-2E-16
41
1
10
41.4651639440301
20
3.12327609906657
30
-2E-16
41
1
10
41.1238330459724
20
3.01798107858821
30
-2E-16
0
SPLINE
5
E6
100
AcDbEntity
8
1
62
256
6
ByLayer
370
18
48
1
60
0
100
AcDbSpline
70
4
71
3
72
8
73
4
40
0
40
0
40
0
40
0
40
1
40
1
40
1
40
1
41
1
10
47.2653466595153
20
-4.1464052780922
30
0
41
1
10
47.3373656722545
20
-4.10466595479463
30
0
41
1
10
47.4095414295473
20
-4.06221005294179
30
0
41
1
10
47.4818989984943
20
-4.01905572353829
30
0
0
SPLINE
5
E7
100
AcDbEntity
8
1
62
256
6
ByLayer
370
18
48
1
60
0
100
AcDbSpline
70
4
71
3
72
8
73
4
40
0
40
0
40
0
40
0
40
1
40
1
40
1
40
1
41
1
10
46.9180595310389
20
-0.0407213021108248
30
0
41
1
10
46.9520108402286
20
-0.05663475646395
30
0
41
1
10
46.9857527430667
20
-0.0716524986738989
30
0
41
1
10
47.0193233869499
20
-0.0857966719623562
30
0
0
SPLINE
5
E8
100
AcDbEntity
8
1
62
256
6
ByLayer
370
18
48
1
60
0
100
AcDbSpline
70
4
71
3
72
62
73
58
40
0
40
0
40
0
40
0
40
0.125000000000006
40
0.125000000000006
40
0.187500000000009
40
0.187500000000009
40
0.218750000000009
40
0.218750000000009
40
0.25000000000001
40
0.25000000000001
40
0.281250000000011
40
0.281250000000011
40
0.312500000000012
40
0.312500000000012
40
0.343750000000012
40
0.343750000000012
40
0.375000000000013
40
0.375000000000013
40
0.390625000000013
40
0.390625000000013
40
0.406250000000013
40
0.406250000000013
40
0.437500000000013
40
0.437500000000013
40
0.453125000000014
40
0.453125000000014
40
0.468750000000014
40
0.468750000000014
40
0.500000000000014
40
0.500000000000014
40
0.515625000000014
40
0.515625000000014
40
0.531250000000014
40
0.531250000000014
40
0.562500000000013
40
0.562500000000013
40
0.593750000000013
40
0.593750000000013
40
0.625000000000013
40
0.625000000000013
40
0.687500000000012
40
0.687500000000012
40
0.718750000000012
40
0.718750000000012
40
0.734375000000013
40
0.734375000000013
40
0.736328125000013
40
0.736328125000013
40
0.738281250000013
40
0.738281250000013
40
0.742187500000012
40
0.742187500000012
40
0.750000000000011
40
0.750000000000011
40
0.875000000000006
40
0.875000000000006
40
1
40
1
40
1
40
1
41
1
10
5.99838826986309
20
-4.12812487075141
30
0
41
1
10
5.50873942992536
20
-4.09291947680711
30
0
41
1
10
5.02926550434506
20
-4.03644074899259
30
0
41
1
10
4.33190590104465
20
-3.90109843687895
30
0
41
1
10
4.10313336613231
20
-3.84744403561632
30
0
41
1
10
3.76726992366369
20
-3.74930884740496
30
0
41
1
10
3.65651562953667
20
-3.71359930117822
30
0
41
1
10
3.43978390260159
20
-3.6356861609265
30
-2E-16
41
1
10
3.33358475984906
20
-3.59343018876058
30
2E-16
41
1
10
3.12636493392051
20
-3.50092978771028
30
2E-16
41
1
10
3.02533620407183
20
-3.45069817829955
30
2E-16
41
1
10
2.82971063365429
20
-3.34020388163498
30
2E-16
41
1
10
2.73556522266136
20
-3.28013394541804
30
2E-16
41
1
10
2.55894408306813
20
-3.14978151963868
30
2E-16
41
1
10
2.47608688682556
20
-3.07932515192189
30
2E-16
41
1
10
2.32425936614607
20
-2.92488865812882
30
2E-16
41
1
10
2.25523301337682
20
-2.84096286985141
30
2E-16
41
1
10
2.1659065099675
20
-2.70118830734893
30
2E-16
41
1
10
2.13875017021377
20
-2.65252310974222
30
2E-16
41
1
10
2.09121554710464
20
-2.55235671669703
30
2E-16
41
1
10
2.07068314783149
20
-2.50062525675591
30
2E-16
41
1
10
2.01975232469036
20
-2.33999794148659
30
1E-16
41
1
10
2.00027999279331
20
-2.22423695499998
30
1E-16
41
1
10
1.99685082383715
20
-2.04804124444797
30
1E-16
41
1
10
1.99983325236246
20
-1.98859741177171
30
1E-16
41
1
10
2.01402631408385
20
-1.86830060847925
30
1E-16
41
1
10
2.0253409066477
20
-1.80706308001027
30
1E-16
41
1
10
2.07092958363617
20
-1.62413387781757
30
1E-16
41
1
10
2.1161878841788
20
-1.50450907603806
30
1E-16
41
1
10
2.20233688228188
20
-1.32799633654636
30
1E-16
41
1
10
2.23416764718826
20
-1.26962920466247
30
1E-16
41
1
10
2.30203677892365
20
-1.15599264042402
30
1E-16
41
1
10
2.33821812247834
20
-1.10041056497116
30
1E-16
41
1
10
2.45258460227959
20
-0.936878553137433
30
1E-16
41
1
10
2.53654784912197
20
-0.832118815658191
30
1E-16
41
1
10
2.71660234972046
20
-0.629344976154812
30
0
41
1
10
2.81251338517936
20
-0.531666832655162
30
0
41
1
10
3.01001777372917
20
-0.345562137410212
30
0
41
1
10
3.11215036990336
20
-0.25654668252065
30
0
41
1
10
3.42663337169355
20
0.0008347538667692
30
0
41
1
10
3.64696601724779
20
0.159658352001372
30
0
41
1
10
3.98884777878123
20
0.38425718824945
30
0
41
1
10
4.10453154448319
20
0.456668104529399
30
0
41
1
10
4.279836284971
20
0.561830071723421
30
0
41
1
10
4.33858255004654
20
0.596316291776958
30
0
41
1
10
4.40498689711205
20
0.634510324652098
30
0
41
1
10
4.4123695118048
20
0.638745713420946
30
0
41
1
10
4.42714333775086
20
0.647199824423723
30
0
41
1
10
4.43450942112884
20
0.651509886393626
30
0
41
1
10
4.4579907488924
20
0.661422773924954
30
0
41
1
10
4.47492045464395
20
0.664207837630016
30
0
41
1
10
4.52588266600173
20
0.665082960613205
30
0
41
1
10
4.55826383189978
20
0.654054366422997
30
0
41
1
10
5.11185686977973
20
0.495349991197116
30
0
41
1
10
5.6250134252586
20
0.318809861127619
30
0
41
1
10
6.63234202144744
20
-0.0779969913967022
30
0
41
1
10
7.12785282461431
20
-0.298791692413886
30
0
41
1
10
7.61630951381306
20
-0.532929650212935
30
0
0
SPLINE
5
E9
100
AcDbEntity
8
1
62
256
6
ByLayer
370
18
48
1
60
0
100
AcDbSpline
70
4
71
3
72
60
73
56
40
0
40
0
40
0
40
0
40
0.0457175406116668
40
0.0457175406116668
40
0.0914350812233336
40
0.0914350812233336
40
0.137152621835
40
0.137152621835
40
0.160011392140834
40
0.160011392140834
40
0.182870162446668
40
0.182870162446668
40
0.228587703058335
40
0.228587703058335
40
0.251446473364168
40
0.251446473364168
40
0.274305243670001
40
0.274305243670001
40
0.320022784281668
40
0.320022784281668
40
0.342881554587502
40
0.342881554587502
40
0.365740324893335
40
0.365740324893335
40
0.411457865505002
40
0.411457865505002
40
0.434316635810836
40
0.434316635810836
40
0.45717540611667
40
0.45717540611667
40
0.502892946728337
40
0.502892946728337
40
0.548610487340005
40
0.548610487340005
40
0.571469257645838
40
0.571469257645838
40
0.594328027951672
40
0.594328027951672
40
0.640045568563339
40
0.640045568563339
40
0.685763109175006
40
0.685763109175006
40
0.731480649786674
40
0.731480649786674
40
0.777198190398341
40
0.777198190398341
40
0.822915731010008
40
0.822915731010008
40
0.868633271621676
40
0.868633271621676
40
0.914350812233343
40
0.914350812233343
40
0.96006835284501
40
0.96006835284501
40
1
40
1
40
1
40
1
41
1
10
3.64540878602236
20
4.01550197791565
30
0
41
1
10
4.09649766562978
20
4.0753309261849
30
0
41
1
10
4.5475678690463
20
4.11810775593113
30
0
41
1
10
5.45056412968395
20
4.17009189131988
30
0
41
1
10
5.90256093911873
20
4.17925923693068
30
0
41
1
10
6.80512723373761
20
4.16339477793306
30
0
41
1
10
7.25620096327339
20
4.13847079379758
30
0
41
1
10
7.93386020443816
20
4.07595094006237
30
0
41
1
10
8.159866681268
20
4.05093186083349
30
0
41
1
10
8.6111271707999
20
3.99259508346313
30
0
41
1
10
8.83652439084423
20
3.95925214027895
30
0
41
1
10
9.51312185937914
20
3.84742116345038
30
0
41
1
10
9.96534549337599
20
3.75704257168462
30
0
41
1
10
10.6425239950518
20
3.59918935024047
30
-2E-16
41
1
10
10.8679685486302
20
3.54289585189485
30
-2E-16
41
1
10
11.3182992151854
20
3.42292433758692
30
-2E-16
41
1
10
11.5431743253924
20
3.35921371312981
30
-2E-16
41
1
10
12.2183244921957
20
3.1586287318467
30
-2E-16
41
1
10
12.6691391856248
20
3.01246297740681
30
-2E-16
41
1
10
13.3463998908821
20
2.77455799799407
30
-2E-16
41
1
10
13.5724428016263
20
2.69210906529494
30
-2E-16
41
1
10
14.0232970438264
20
2.52160422900764
30
-2E-16
41
1
10
14.2482757756916
20
2.43342197387838
30
-1E-16
41
1
10
14.923486260998
20
2.16285193681739
30
-1E-16
41
1
10
15.3740580404018
20
1.9746603483708
30
-1E-16
41
1
10
16.0503634246274
20
1.68050624362584
30
-1E-16
41
1
10
16.2758924874644
20
1.58050095792825
30
-1E-16
41
1
10
16.7272377214598
20
1.37670592969934
30
-1E-16
41
1
10
16.9530368034878
20
1.27286043988425
30
-1E-16
41
1
10
17.6292341184329
20
0.958598651787952
30
-1E-16
41
1
10
18.0790151555536
20
0.744540676076355
30
0
41
1
10
18.9793814393121
20
0.313181739333544
30
0
41
1
10
19.4303563123867
20
0.096710291723582
30
0
41
1
10
20.1078186123311
20
-0.229584814568483
30
0
41
1
10
20.3337122809348
20
-0.338507969208621
30
0
41
1
10
20.7842745439538
20
-0.55585404643881
30
0
41
1
10
21.0090775509806
20
-0.664495689392339
30
0
41
1
10
21.6842711948629
20
-0.985767605940509
30
1E-16
41
1
10
22.1347396839409
20
-1.19525077474171
30
1E-16
41
1
10
23.0362004606448
20
-1.60518337168264
30
1E-16
41
1
10
23.4877845409566
20
-1.80629006875552
30
1E-16
41
1
10
24.3891526757197
20
-2.18984747777805
30
1E-16
41
1
10
24.8395912991012
20
-2.37212856881706
30
1E-16
41
1
10
25.7400903069112
20
-2.71769103998068
30
2E-16
41
1
10
26.1897303285649
20
-2.88151428070466
30
2E-16
41
1
10
27.0927508113209
20
-3.18322829273279
30
2E-16
41
1
10
27.5438220358606
20
-3.32060294652138
30
2E-16
41
1
10
28.4445509593611
20
-3.56819504837347
30
2E-16
41
1
10
28.8941275508891
20
-3.67858146131925
30
-2E-16
41
1
10
29.7950978318
20
-3.86857034882158
30
0
41
1
10
30.2467499943324
20
-3.94849392431496
30
0
41
1
10
31.1481679626952
20
-4.07456968730722
30
0
41
1
10
31.598468758838
20
-4.12115079307722
30
0
41
1
10
32.4418126309041
20
-4.17734349821421
30
0
41
1
10
32.8347489175272
20
-4.19077770171995
30
0
41
1
10
33.2287236547639
20
-4.19108855696092
30
0
0
SPLINE
5
EA
100
AcDbEntity
8
1
62
256
6
ByLayer
370
18
48
1
60
0
100
AcDbSpline
70
4
71
3
72
42
73
38
40
0
40
0
40
0
40
0
40
0.0108512780612309
40
0.0108512780612309
40
0.107307066883663
40
0.107307066883663
40
0.155534961294879
40
0.155534961294879
40
0.203762855706095
40
0.203762855706095
40
0.251990750117311
40
0.251990750117311
40
0.300218644528527
40
0.300218644528527
40
0.39667443335096
40
0.39667443335096
40
0.444902327762177
40
0.444902327762177
40
0.493130222173394
40
0.493130222173394
40
0.541358116584611
40
0.541358116584611
40
0.589586010995828
40
0.589586010995828
40
0.637813905407045
40
0.637813905407045
40
0.686041799818262
40
0.686041799818262
40
0.782497588640695
40
0.782497588640695
40
0.830725483051911
40
0.830725483051911
40
0.878953377463127
40
0.878953377463127
40
0.975409166285559
40
0.975409166285559
40
1
40
1
40
1
40
1
41
1
10
20.0530148395319
20
-0.2039101392389
30
0
41
1
10
20.0025446074751
20
-0.180823919367157
30
0
41
1
10
19.9520720214735
20
-0.157740747334827
30
0
41
1
10
19.4529322169837
20
0.0704989470335136
30
0
41
1
10
19.0040560846601
20
0.275362062785462
30
0
41
1
10
18.3303667824617
20
0.582144301459635
30
0
41
1
10
18.1057374375703
20
0.684312161149194
30
0
41
1
10
17.6557015092433
20
0.886994345223968
30
-1E-16
41
1
10
17.4303167431245
20
0.987558676272073
30
-1E-16
41
1
10
16.9787418773118
20
1.18698433257873
30
-1E-16
41
1
10
16.7525359532559
20
1.28580872692257
30
-1E-16
41
1
10
16.298874308506
20
1.48073659990959
30
-1E-16
41
1
10
16.0711862769546
20
1.57696631370311
30
-1E-16
41
1
10
15.3893044355094
20
1.85995362135108
30
-1E-16
41
1
10
14.9355389254309
20
2.04143131544501
30
-1E-16
41
1
10
14.2561916189433
20
2.29988965730385
30
-1E-16
41
1
10
14.0299230890879
20
2.38373421640284
30
-1E-16
41
1
10
13.5767831432542
20
2.54642317936046
30
-2E-16
41
1
10
13.3499443988937
20
2.62526961500433
30
-2E-16
41
1
10
12.8957262919229
20
2.77769687804374
30
-2E-16
41
1
10
12.6680324156374
20
2.85136154983468
30
-2E-16
41
1
10
12.2138080541557
20
2.99220101906081
30
-2E-16
41
1
10
11.9873240255173
20
3.05936889209485
30
-2E-16
41
1
10
11.5356580110787
20
3.18667730226883
30
-2E-16
41
1
10
11.310438192229
20
3.24685739961052
30
-2E-16
41
1
10
10.8602429161262
20
3.36073926353779
30
-2E-16
41
1
10
10.6352983412378
20
3.41441179773591
30
-2E-16
41
1
10
9.96103650109944
20
3.56500785417924
30
0
41
1
10
9.51227346593851
20
3.65150620324809
30
0
41
1
10
8.83957552284406
20
3.75741559771919
30
0
41
1
10
8.61541311212815
20
3.78875733431821
30
0
41
1
10
8.16661210705172
20
3.84426370484673
30
0
41
1
10
7.94197176205802
20
3.86843076671013
30
0
41
1
10
7.26733046821721
20
3.92912605100281
30
0
41
1
10
6.81658869954543
20
3.95398009953181
30
0
41
1
10
6.24855594769832
20
3.96435719821088
30
0
41
1
10
6.13298641966466
20
3.96540422177
30
0
41
1
10
6.01730467780661
20
3.96540035101793
30
0
0
SPLINE
5
EB
100
AcDbEntity
8
1
62
256
6
ByLayer
370
18
48
1
60
0
100
AcDbSpline
70
4
71
3
72
27
73
23
40
0
40
0
40
0
40
0
40
0.148981408376052
40
0.148981408376052
40
0.255358732329044
40
0.308547394305542
40
0.308547394305542
40
0.36173605628204
40
0.36173605628204
40
0.574490704188027
40
0.574490704188027
40
0.627679366164524
40
0.627679366164524
40
0.68086802814102
40
0.68086802814102
40
0.787245352094012
40
0.787245352094012
40
0.893622676047005
40
0.893622676047005
40
0.946811338023502
40
0.946811338023502
40
1
40
1
40
1
40
1
41
1
10
34.6089658985501
20
0.212890849387662
30
0
41
1
10
35.2449650898673
20
-0.0791957981695646
30
0
41
1
10
35.8798703169385
20
-0.372603826107394
30
0
41
1
10
36.9707948373381
20
-0.867599125808482
30
1E-16
41
1
10
37.6536147530045
20
-1.17351606275196
30
1E-16
41
1
10
38.3404745353249
20
-1.4691375341234
30
1E-16
41
1
10
38.7994836431357
20
-1.66347539599357
30
1E-16
41
1
10
39.0297332498313
20
-1.75933818771316
30
1E-16
41
1
10
40.1783454109066
20
-2.22777411630068
30
1E-16
41
1
10
41.0931487413779
20
-2.56939516483334
30
2E-16
41
1
10
42.2415705884336
20
-2.93787715451589
30
2E-16
41
1
10
42.4717572122854
20
-3.00871016966417
30
2E-16
41
1
10
42.9310094018067
20
-3.14351617377656
30
2E-16
41
1
10
43.1601902987886
20
-3.20752886178502
30
2E-16
41
1
10
43.8467729559274
20
-3.38895607913759
30
2E-16
41
1
10
44.3034594494789
20
-3.49606831697966
30
0
41
1
10
45.2161829801111
20
-3.68024797891565
30
0
41
1
10
45.6723367272397
20
-3.75739853164586
30
0
41
1
10
46.3576556849318
20
-3.84924579215411
30
0
41
1
10
46.5862767582156
20
-3.87588270197176
30
0
41
1
10
47.044124710002
20
-3.92098164194442
30
0
41
1
10
47.2733684013547
20
-3.93910707982434
30
0
41
1
10
47.5030013977338
20
-3.95372664593791
30
0
0
SPLINE
5
EC
100
AcDbEntity
8
1
62
256
6
ByLayer
370
18
48
1
60
0
100
AcDbSpline
70
4
71
3
72
8
73
4
40
0
40
0
40
0
40
0
40
1
40
1
40
1
40
1
41
1
10
47.5004088018956
20
-3.96493833702002
30
0
41
1
10
47.4942136880367
20
-3.98297733367912
30
0
41
1
10
47.4880435898837
20
-4.00101642021727
30
0
41
1
10
47.4818989984943
20
-4.01905572353834
30
0
0
SPLINE
5
ED
100
AcDbEntity
8
1
62
256
6
ByLayer
370
18
48
1
60
0
100
AcDbSpline
70
4
71
3
72
48
73
44
40
0
40
0
40
0
40
0
40
0.0625000000000002
40
0.0625000000000002
40
0.125
40
0.125
40
0.187500000000001
40
0.187500000000001
40
0.218750000000001
40
0.218750000000001
40
0.250000000000001
40
0.250000000000001
40
0.312500000000001
40
0.312500000000001
40
0.343750000000001
40
0.343750000000001
40
0.375000000000001
40
0.375000000000001
40
0.437500000000002
40
0.437500000000002
40
0.468750000000002
40
0.468750000000002
40
0.500000000000002
40
0.500000000000002
40
0.562500000000001
40
0.562500000000001
40
0.625
40
0.625
40
0.65625
40
0.65625
40
0.6875
40
0.6875
40
0.75
40
0.75
40
0.78125
40
0.78125
40
0.812499999999999
40
0.812499999999999
40
0.875
40
0.875
40
0.9375
40
0.9375
40
1
40
1
40
1
40
1
41
1
10
18.8
20
4.12525897113915
30
0
41
1
10
19.3946609574054
20
4.17283106712418
30
0
41
1
10
19.9892110443714
20
4.19106845596949
30
0
41
1
10
21.1775081851772
20
4.16829260338773
30
0
41
1
10
21.7726551284848
20
4.12719314295802
30
0
41
1
10
22.9589993503312
20
3.98786975705704
30
0
41
1
10
23.5511359665941
20
3.88970654959155
30
0
41
1
10
24.4413864838923
20
3.70216753464848
30
0
41
1
10
24.7388335368786
20
3.63284414259462
30
2E-16
41
1
10
25.3329969983276
20
3.48174688308339
30
-2E-16
41
1
10
25.629606532159
20
3.400021066036
30
-2E-16
41
1
10
26.5189346278753
20
3.13751101607107
30
-2E-16
41
1
10
27.1111345072369
20
2.93935921029362
30
-2E-16
41
1
10
28.0019361990838
20
2.61230417786294
30
-2E-16
41
1
10
28.299489285508
20
2.49823389049851
30
-2E-16
41
1
10
28.8931554802425
20
2.2622058627756
30
-1E-16
41
1
10
29.189595101662
20
2.14012784543323
30
-1E-16
41
1
10
30.0786129810082
20
1.76330350840072
30
-1E-16
41
1
10
30.6708916770605
20
1.49795638905576
30
-1E-16
41
1
10
31.5623509550554
20
1.08556221382108
30
-1E-16
41
1
10
31.8595559364343
20
0.945915395471332
30
-1E-16
41
1
10
32.4528004107289
20
0.664309986438752
30
0
41
1
10
32.7491126658312
20
0.522214210164663
30
0
41
1
10
33.6379749145479
20
0.0938148496394433
30
0
41
1
10
34.2308775204771
20
-0.194825941171359
30
0
41
1
10
35.4195610745667
20
-0.766731211316909
30
0
41
1
10
36.011859547341
20
-1.04823402830013
30
1E-16
41
1
10
36.9007720993983
20
-1.4567621605548
30
1E-16
41
1
10
37.1971450586301
20
-1.59066935060571
30
1E-16
41
1
10
37.7905795662294
20
-1.85285208362552
30
1E-16
41
1
10
38.0880029257891
20
-1.9812725309186
30
1E-16
41
1
10
38.9786114634166
20
-2.35478491146819
30
1E-16
41
1
10
39.5705406288237
20
-2.58830215084177
30
2E-16
41
1
10
40.4594519950624
20
-2.9092294841405
30
2E-16
41
1
10
40.7559245597996
20
-3.0113210550945
30
2E-16
41
1
10
41.3497879369868
20
-3.20482959099587
30
2E-16
41
1
10
41.6471943873826
20
-3.2962379225684
30
2E-16
41
1
10
42.537286361105
20
-3.55204132159452
30
2E-16
41
1
10
43.1292708417451
20
-3.69849125015642
30
-2E-16
41
1
10
44.3152537296709
20
-3.93808876817889
30
0
41
1
10
44.9101083364685
20
-4.03117953764283
30
0
41
1
10
46.0956565951728
20
-4.15887942832603
30
0
41
1
10
46.6875525433996
20
-4.19385723361393
30
0
41
1
10
47.280899089762
20
-4.19924261148384
30
0
0
SPLINE
5
EE
100
AcDbEntity
8
1
62
256
6
ByLayer
370
18
48
1
60
0
100
AcDbSpline
70
4
71
3
72
16
73
12
40
0
40
0
40
0
40
0
40
0.225504916801995
40
0.225504916801995
40
0.453220125284397
40
0.453220125284397
40
0.650544523724139
40
0.650544523724139
40
0.825438801879276
40
0.825438801879276
40
1
40
1
40
1
40
1
41
1
10
47.5030013977312
20
-3.95372664593773
30
0
41
1
10
47.5030808228675
20
-3.95389100570031
30
0
41
1
10
47.5031044312138
20
-3.95423383118461
30
0
41
1
10
47.5030150756537
20
-3.95528704828632
30
0
41
1
10
47.5028981670248
20
-3.95602113906051
30
0
41
1
10
47.5025476410598
20
-3.95768072590465
30
0
41
1
10
47.502325767179
20
-3.95859373508523
30
0
41
1
10
47.5018343556713
20
-3.96041615698212
30
0
41
1
10
47.5015667782444
20
-3.96133782056265
30
0
41
1
10
47.501006104258
20
-3.96315458043492
30
0
41
1
10
47.5007064428224
20
-3.96407166308839
30
0
41
1
10
47.5004088018955
20
-3.96493833702002
30
0
0
SPLINE
5
EF
100
AcDbEntity
8
1
62
256
6
ByLayer
370
18
48
1
60
0
100
AcDbSpline
70
4
71
3
72
11
73
7
40
0
40
0
40
0
40
0
40
0.174222969770074
40
0.398078041679176
40
0.672965494989345
40
1
40
1
40
1
40
1
41
1
10
6.02560435199118
20
3.96533789564452
30
0
41
1
10
5.87991378845885
20
3.96502459876322
30
0
41
1
10
5.54643225854278
20
3.96448332734599
30
0
41
1
10
4.97870265385603
20
3.96447189000338
30
0
41
1
10
4.28306087713568
20
3.96486770146055
30
0
41
1
10
3.77664704848104
20
3.96353618191847
30
0
41
1
10
3.50171724266761
20
3.96251781565815
30
0
0
SPLINE
5
F0
100
AcDbEntity
8
1
62
256
6
ByLayer
370
18
48
1
60
0
100
AcDbSpline
70
4
71
2
72
6
73
3
40
0
40
0
40
0
40
1
40
1
40
1
41
1
10
35.0529693024353
20
-0.0022679387509754
30
0
41
1
10
35.0529657427029
20
-0.002257434618457
30
0
41
1
10
35.0529621829713
20
-0.0022469582347071
30
0
0
SPLINE
5
F1
100
AcDbEntity
8
1
62
256
6
ByLayer
370
18
48
1
60
0
100
AcDbSpline
70
4
71
3
72
15
73
11
40
0
40
0
40
0
40
0
40
0.146560172455079
40
0.255966081745133
40
0.347276427131969
40
0.422421267823544
40
0.50724494342809
40
0.635816525050924
40
0.808126044460526
40
1
40
1
40
1
40
1
41
1
10
47.7491466967171
20
0.668309150082763
30
0
41
1
10
47.4956467969007
20
0.744736876812851
30
0
41
1
10
47.0541562002372
20
0.881592004829457
30
-1E-16
41
1
10
46.4588265356663
20
1.07674363307027
30
-1E-16
41
1
10
45.9867348469911
20
1.23458786033129
30
-1E-16
41
1
10
45.5574529812204
20
1.38122764720688
30
-1E-16
41
1
10
45.0650949353227
20
1.55257436980287
30
-1E-16
41
1
10
44.408707247606
20
1.78677668398953
30
-1E-16
41
1
10
43.5732138525322
20
2.0948107967279
30
-1E-16
41
1
10
42.9589945678657
20
2.33109630369273
30
-1E-16
41
1
10
42.6362484074531
20
2.45791526501523
30
-2E-16
0
SPLINE
5
F2
100
AcDbEntity
8
1
62
256
6
ByLayer
370
18
48
1
60
0
100
AcDbSpline
70
4
71
3
72
28
73
24
40
0
40
0
40
0
40
0
40
5.056400419E-06
40
2.05051486717E-05
40
3.47921182759E-05
40
8.56274788987E-05
40
0.0001291321819412
40
0.000170280906524
40
0.0004053174704652
40
0.0005877207225729
40
0.0009201620440141
40
0.0015352606555681
40
0.0027021683127711
40
0.00500492645705
40
0.0508129087072223
40
0.119590473363151
40
0.221322520769506
40
0.330235465060972
40
0.433212598558544
40
0.530279746371252
40
0.648715218357282
40
0.81419319751449
40
1
40
1
40
1
40
1
41
1
10
22.9266633645614
20
-0.0296034675426142
30
0
41
1
10
22.9266662170054
20
-0.0296041547685775
30
0
41
1
10
22.9266762805518
20
-0.0296065295369488
30
0
41
1
10
22.9266819401429
20
-0.0296074320531261
30
0
41
1
10
22.9266167190473
20
-0.0295882840582067
30
0
41
1
10
22.9264656929518
20
-0.0295455019337396
30
0
41
1
10
22.9262076820557
20
-0.0294735914256137
30
0
41
1
10
22.9254532734332
20
-0.0292658597318223
30
0
41
1
10
22.9242493279099
20
-0.0289381841255079
30
0
41
1
10
22.922437071299
20
-0.0284400513627361
30
0
41
1
10
22.919648281028
20
-0.0276751884122461
30
0
41
1
10
22.9144566965581
20
-0.0262497002605926
30
0
41
1
10
22.9043786988784
20
-0.0234818387135647
30
0
41
1
10
22.7823930356174
20
0.0100528240708968
30
0
41
1
10
22.4881822211331
20
0.0915274632816363
30
0
41
1
10
21.9465272192472
20
0.245028783449868
30
0
41
1
10
21.2463894407177
20
0.450262107077606
30
0
41
1
10
20.4632843902026
20
0.689501085070503
30
0
41
1
10
19.6944794472637
20
0.933936052909161
30
-1E-16
41
1
10
18.9047090541241
20
1.19428421888142
30
-1E-16
41
1
10
17.9636265057075
20
1.51650353182507
30
-1E-16
41
1
10
16.8090300262023
20
1.93044291576038
30
-1E-16
41
1
10
15.9518878477155
20
2.25707086999589
30
-1E-16
41
1
10
15.5001914254018
20
2.43446193441355
30
-1E-16
0
SPLINE
5
F3
100
AcDbEntity
8
1
62
256
6
ByLayer
370
18
48
1
60
0
100
AcDbSpline
70
4
71
3
72
19
73
15
40
0
40
0
40
0
40
0
40
0.113955115965158
40
0.192205684594585
40
0.278774634661424
40
0.38758623159602
40
0.477225788056657
40
0.542732799504926
40
0.621399177545476
40
0.736970341700632
40
0.820832354169386
40
0.931188457817031
40
0.991988082036263
40
1
40
1
40
1
40
1
41
1
10
21.4474317408478
20
-3.97384670121977
30
0
41
1
10
21.7944933499529
20
-3.97397659085593
30
0
41
1
10
22.3799136032359
20
-3.97425367827174
30
0
41
1
10
23.229295723439
20
-3.97441576787873
30
0
41
1
10
24.0626825941455
20
-3.97548344494959
30
0
41
1
10
24.9313007534721
20
-3.97554120363483
30
0
41
1
10
25.7355783564843
20
-3.97519778764075
30
0
41
1
10
26.4480155988568
20
-3.97712272641883
30
0
41
1
10
27.2394912122078
20
-3.97737346714365
30
0
41
1
10
28.0868826217653
20
-3.97585693770662
30
0
41
1
10
29.0308465959127
20
-3.97725700373641
30
0
41
1
10
29.8079064969779
20
-3.97820832755673
30
0
41
1
10
30.3538490691799
20
-3.97900354449123
30
0
41
1
10
30.5635249962301
20
-3.97900927751806
30
0
41
1
10
30.587937814
20
-3.9790063419882
30
0
0
SPLINE
5
F4
100
AcDbEntity
8
1
62
256
6
ByLayer
370
18
48
1
60
0
100
AcDbSpline
70
4
71
3
72
24
73
20
40
0
40
0
40
0
40
0
40
0.0960089940236001
40
0.167012119373949
40
0.22218462127982
40
0.276771660659998
40
0.329223070677741
40
0.374482283135231
40
0.431016790245629
40
0.509205920405375
40
0.577235624773451
40
0.625716829060824
40
0.678776927217082
40
0.741309634314482
40
0.826810516761871
40
0.89999031711975
40
0.936890091682465
40
0.975004023036906
40
1
40
1
40
1
40
1
41
1
10
33.2300619106543
20
3.98061550653946
30
0
41
1
10
32.9393675386697
20
3.97911208673167
30
0
41
1
10
32.4336392445333
20
3.97740663212639
30
0
41
1
10
31.7597382771017
20
3.97758778133212
30
0
41
1
10
31.2128233106719
20
3.97853122089151
30
0
41
1
10
30.7210754118095
20
3.9790281768135
30
0
41
1
10
30.2594907659457
20
3.9790318810193
30
0
41
1
10
29.7919741137354
20
3.97809300887647
30
0
41
1
10
29.246454851139
20
3.9773917681691
30
0
41
1
10
28.6319146843775
20
3.97660877587384
30
0
41
1
10
28.0417878943221
20
3.97623524648725
30
0
41
1
10
27.527821056269
20
3.97692084138418
30
0
41
1
10
27.0305285184384
20
3.97722960028204
30
0
41
1
10
26.4209672478313
20
3.97715251290376
30
0
41
1
10
25.7508851825547
20
3.97514952654751
30
0
41
1
10
25.1577262342639
20
3.97536388723552
30
0
41
1
10
24.7091409928986
20
3.97549871243314
30
0
41
1
10
24.4060419032672
20
3.97549330621248
30
0
41
1
10
24.2147651118381
20
3.97540372913801
30
0
41
1
10
24.1390055726639
20
3.97535635180134
30
0
0
LINE
5
84
100
AcDbEntity
8
SK1
62
256
6
ByLayer
370
18
48
1
60
0
100
AcDbLine
10
-38.66
20
-5
30
0
11
-38.66
21
5
31
0
39
0
210
0
220
0
230
1
0
LINE
5
86
100
AcDbEntity
8
SK1
62
256
6
ByLayer
370
18
48
1
60
0
100
AcDbLine
10
-40
20
-3.66
30
0
11
-40
21
3.66
31
0
39
0
210
0
220
0
230
1
0
LINE
5
87
100
AcDbEntity
8
SK1
62
256
6
ByLayer
370
18
48
1
60
0
100
AcDbLine
10
0
20
5
30
0
11
0
21
-5
31
0
39
0
210
0
220
0
230
1
0
LINE
5
88
100
AcDbEntity
8
1
62
256
6
ByLayer
370
18
48
1
60
0
100
AcDbLine
10
0
20
5
30
0
11
0
21
0
31
0
39
0
210
0
220
0
230
1
0
LINE
5
89
100
AcDbEntity
8
1
62
256
6
ByLayer
370
18
48
1
60
0
100
AcDbLine
10
0
20
0
30
0
11
0
21
-5
31
0
39
0
210
0
220
0
230
1
0
LINE
5
8A
100
AcDbEntity
8
1
62
256
6
ByLayer
370
18
48
1
60
0
100
AcDbLine
10
1.402371
20
4.171206
30
0
11
1.402371
21
0
31
0
39
0
210
0
220
0
230
1
0
LINE
5
8B
100
AcDbEntity
8
1
62
256
6
ByLayer
370
18
48
1
60
0
100
AcDbLine
10
1.402371
20
0
30
0
11
1.402371
21
-4.171206
31
0
39
0
210
0
220
0
230
1
0
LINE
5
8C
100
AcDbEntity
8
1
62
256
6
ByLayer
370
18
48
1
60
0
100
AcDbLine
10
18.8
20
-4.125259
30
0
11
18.8
21
-4.134771
31
0
39
0
210
0
220
0
230
1
0
LINE
5
8D
100
AcDbEntity
8
1
62
256
6
ByLayer
370
18
48
1
60
0
100
AcDbLine
10
0.700935
20
4.585603
30
0
11
0.700935
21
0
31
0
39
0
210
0
220
0
230
1
0
LINE
5
8E
100
AcDbEntity
8
1
62
256
6
ByLayer
370
18
48
1
60
0
100
AcDbLine
10
0.700935
20
0
30
0
11
0.700935
21
-4.585603
31
0
39
0
210
0
220
0
230
1
0
LINE
5
8F
100
AcDbEntity
8
1
62
256
6
ByLayer
370
18
48
1
60
0
100
AcDbLine
10
3.501717
20
4.172518
30
0
11
3.501717
21
2.062512
31
0
39
0
210
0
220
0
230
1
0
LINE
5
90
100
AcDbEntity
8
1
62
256
6
ByLayer
370
18
48
1
60
0
100
AcDbLine
10
48.941431
20
0.050561
30
0
11
47.913526
21
1.185189
31
0
39
0
210
0
220
0
230
1
0
LINE
5
91
100
AcDbEntity
8
1
62
256
6
ByLayer
370
18
48
1
60
0
100
AcDbLine
10
3.501717
20
-4.038933
30
0
11
3.501717
21
-4.172518
31
0
39
0
210
0
220
0
230
1
0
LINE
5
92
100
AcDbEntity
8
1
62
256
6
ByLayer
370
18
48
1
60
0
100
AcDbLine
10
1.402371
20
-4.171206
30
0
11
3.501717
21
-4.172518
31
0
39
0
210
0
220
0
230
1
0
LINE
5
93
100
AcDbEntity
8
1
62
256
6
ByLayer
370
18
48
1
60
0
100
AcDbLine
10
6.02653
20
-4.174096
30
0
11
7.283398
21
-4.174881
31
0
39
0
210
0
220
0
230
1
0
LINE
5
94
100
AcDbEntity
8
1
62
256
6
ByLayer
370
18
48
1
60
0
100
AcDbLine
10
20.228027
20
-4.182972
30
0
11
21.44829
21
-4.183735
31
0
39
0
210
0
220
0
230
1
0
LINE
5
95
100
AcDbEntity
8
1
62
256
6
ByLayer
370
18
48
1
60
0
100
AcDbLine
10
33.230315
20
-4.191098
30
0
11
34.45949
21
-4.191867
31
0
39
0
210
0
220
0
230
1
0
LINE
5
96
100
AcDbEntity
8
1
62
256
6
ByLayer
370
18
48
1
60
0
100
AcDbLine
10
34.45949
20
4.191867
30
0
11
33.230315
21
4.191098
31
0
39
0
210
0
220
0
230
1
0
LINE
5
97
100
AcDbEntity
8
1
62
256
6
ByLayer
370
18
48
1
60
0
100
AcDbLine
10
21.44829
20
4.183735
30
0
11
20.228027
21
4.182972
31
0
39
0
210
0
220
0
230
1
0
LINE
5
98
100
AcDbEntity
8
1
62
256
6
ByLayer
370
18
48
1
60
0
100
AcDbLine
10
7.283398
20
4.174881
30
0
11
6.02653
21
4.174096
31
0
39
0
210
0
220
0
230
1
0
LINE
5
99
100
AcDbEntity
8
1
62
256
6
ByLayer
370
18
48
1
60
0
100
AcDbLine
10
3.501717
20
4.172518
30
0
11
1.402371
21
4.171206
31
0
39
0
210
0
220
0
230
1
0
LINE
5
9A
100
AcDbEntity
8
SK1
62
256
6
ByLayer
370
18
48
1
60
0
100
AcDbLine
10
-38.66
20
-5
30
0
11
0
21
-5
31
0
39
0
210
0
220
0
230
1
0
LINE
5
9B
100
AcDbEntity
8
SK1
62
256
6
ByLayer
370
18
48
1
60
0
100
AcDbLine
10
0
20
5
30
0
11
-38.66
21
5
31
0
39
0
210
0
220
0
230
1
0
LINE
5
9C
100
AcDbEntity
8
SK1
62
256
6
ByLayer
370
18
48
1
60
0
100
AcDbLine
10
-40
20
-3.66
30
0
11
-38.66
21
-5
31
0
39
0
210
0
220
0
230
1
0
LINE
5
9D
100
AcDbEntity
8
SK1
62
256
6
ByLayer
370
18
48
1
60
0
100
AcDbLine
10
-38.66
20
5
30
0
11
-40
21
3.66
31
0
39
0
210
0
220
0
230
1
0
LINE
5
9E
100
AcDbEntity
8
SK4
62
256
6
ByLayer
370
18
48
0.05
60
0
100
AcDbLine
10
54
20
0
30
0
11
-45
21
0
31
0
39
0
210
0
220
0
230
1
0
LINE
5
A0
100
AcDbEntity
8
4
62
256
6
ByLayer
370
18
48
0.05
60
0
100
AcDbLine
10
-40
20
0
30
0
11
54
21
0
31
0
39
0
210
0
220
0
230
1
0
LINE
5
A2
100
AcDbEntity
8
80
62
256
6
ByLayer
370
18
48
1
60
0
100
AcDbLine
10
0
20
0
30
0
11
-6
21
0
31
0
39
0
210
0
220
0
230
1
0
LINE
5
A3
100
AcDbEntity
8
81
62
256
6
ByLayer
370
18
48
1
60
0
100
AcDbLine
10
49
20
0
30
0
11
55
21
0
31
0
39
0
210
0
220
0
230
1
0
LINE
5
A4
100
AcDbEntity
8
SK2
62
256
6
ByLayer
370
13
48
1
60
0
100
AcDbLine
10
49.542965
20
1.491759
30
0
11
56.926431
21
21.777335
31
0
39
0
210
0
220
0
230
1
0
LINE
5
A6
100
AcDbEntity
8
SK2
62
256
6
ByLayer
370
13
48
1
60
0
100
AcDbLine
10
49.542965
20
-1.491759
30
0
11
56.926431
21
-21.777335
31
0
39
0
210
0
220
0
230
1
0
LINE
5
A7
100
AcDbEntity
8
1
62
256
6
ByLayer
370
13
48
1
60
0
100
AcDbLine
10
55.840502
20
18.793816
30
0
11
58.937088
21
17.977428
31
0
39
0
210
0
220
0
230
1
0
LINE
5
A8
100
AcDbEntity
8
1
62
256
6
ByLayer
370
13
48
1
60
0
100
AcDbLine
10
55.840502
20
18.793816
30
0
11
58.62028
21
17.203789
31
0
39
0
210
0
220
0
230
1
0
LINE
5
A9
100
AcDbEntity
8
1
62
256
6
ByLayer
370
13
48
1
60
0
100
AcDbLine
10
58.937088
20
17.977428
30
0
11
58.62028
21
17.203789
31
0
39
0
210
0
220
0
230
1
0
LINE
5
AA
100
AcDbEntity
8
1
62
256
6
ByLayer
370
13
48
1
60
0
100
AcDbLine
10
55.840502
20
-18.793816
30
0
11
58.620277
21
-17.20379
31
0
39
0
210
0
220
0
230
1
0
LINE
5
AB
100
AcDbEntity
8
1
62
256
6
ByLayer
370
13
48
1
60
0
100
AcDbLine
10
55.840502
20
-18.793816
30
0
11
58.937091
21
-17.977427
31
0
39
0
210
0
220
0
230
1
0
LINE
5
AC
100
AcDbEntity
8
1
62
256
6
ByLayer
370
13
48
1
60
0
100
AcDbLine
10
58.620277
20
-17.20379
30
0
11
58.937091
21
-17.977427
31
0
39
0
210
0
220
0
230
1
0
MTEXT
5
F5
100
AcDbEntity
8
SK2
62
256
6
ByLayer
370
18
48
1
60
0
100
AcDbMText
10
62.717388
20
-2.467451
30
0
210
0
220
0
230
1
1
\W0.7237;140.00
40
3.50012
41
0
44
1.084337
50
0
71
7
72
5
7
iso_b_vert
0
MTEXT
5
F8
100
AcDbEntity
8
SK6
62
256
6
ByLayer
370
18
48
1
60
0
100
AcDbMText
10
-34.665382
20
-55.459606
30
0
210
0
220
0
230
1
1
\W0.7601;860.1-0840-026A0-GM X1BM
40
3.175
41
0
44
1.084337
50
0
71
7
72
5
7
iso_b_vert
0
DIMENSION
5
FB
100
AcDbEntity
8
SK2
62
256
6
ByLayer
370
18
48
1
60
0
100
AcDbDimension
2
_U0
10
49
20
-28.50012
30
0
11
24.5
21
-28.50012
31
0
70
32
71
2
72
1
41
1
210
0
220
0
230
1
3
Standard
100
AcDbAlignedDimension
13
0
23
-5
33
0
14
49
24
0
34
0
50
0
100
AcDbRotatedDimension
1001
ACAD
1000
DSTYLE
1002
{
1070
   371
1070
    13
1070
   372
1070
    13
1070
     3
1000

1070
   170
1070
     0
1070
   144
1040
1.0
1070
   277
1070
     2
1070
   284
1070
     8
1070
   278
1070
    46
1070
   146
1040
0.999966
1070
   345
1005
16
1070
   347
1005
16
1070
   346
1005
16
1070
   344
1005
FC
1070
   343
1005
FC
1070
   172
1070
     1
1070
    76
1070
     0
1070
    75
1070
     0
1070
   282
1070
     0
1070
   281
1070
     0
1070
    71
1070
     0
1070
    74
1070
     0
1070
   279
1070
     0
1070
   173
1070
     1
1070
   340
1005
F6
1070
   271
1070
     1
1070
   272
1070
     2
1070
    77
1070
     1
1070
    73
1070
     1
1070
   171
1070
     3
1070
   274
1070
     4
1070
   177
1070
   150
1070
   176
1070
     9
1070
   178
1070
    43
1070
    78
1070
     8
1070
    48
1040
-0.1
1070
    41
1040
3.175
1070
   147
1040
1.75006
1070
    42
1040
1.5875
1070
    44
1040
3.175
1070
   140
1040
3.50012
1002
}
1001
ACAD_DSTYLE_DIM_LINETYPE
1070
   380
1005
16
1001
ACAD_DSTYLE_DIM_EXT1_LINETYPE
1070
   381
1005
16
1001
ACAD_DSTYLE_DIM_EXT2_LINETYPE
1070
   382
1005
16
0
DIMENSION
5
121
100
AcDbEntity
8
2
62
256
6
ByLayer
370
18
48
1
60
0
100
AcDbDimension
2
_U1
10
55.75006
20
4.2
30
0
11
55.75006
21
19.856569
31
0
70
32
71
1
72
1
41
1
210
0
220
0
230
1
3
Standard
100
AcDbAlignedDimension
13
47.4713
23
-4.2
33
0
14
47.4713
24
4.2
34
0
50
90
100
AcDbRotatedDimension
1001
ACAD
1000
DSTYLE
1002
{
1070
   371
1070
    13
1070
   372
1070
    13
1070
     3
1000

1070
   170
1070
     0
1070
   144
1040
1.0
1070
   277
1070
     2
1070
   284
1070
     8
1070
   278
1070
    46
1070
   146
1040
0.999966
1070
   345
1005
16
1070
   347
1005
16
1070
   346
1005
16
1070
   344
1005
FC
1070
   343
1005
FC
1070
   172
1070
     1
1070
    76
1070
     0
1070
    75
1070
     0
1070
   282
1070
     0
1070
   281
1070
     0
1070
    71
1070
     0
1070
    74
1070
     0
1070
   279
1070
     0
1070
   173
1070
     1
1070
   340
1005
F6
1070
   271
1070
     1
1070
   272
1070
     2
1070
    77
1070
     1
1070
    73
1070
     0
1070
   171
1070
     3
1070
   274
1070
     4
1070
   177
1070
   150
1070
   176
1070
     9
1070
   178
1070
    43
1070
    78
1070
     8
1070
    48
1040
-0.1
1070
    41
1040
3.175
1070
   147
1040
1.75006
1070
    42
1040
1.5875
1070
    44
1040
3.175
1070
   140
1040
3.50012
1002
}
1001
ACAD_DSTYLE_DIM_LINETYPE
1070
   380
1005
16
1001
ACAD_DSTYLE_DIM_EXT1_LINETYPE
1070
   381
1005
16
1001
ACAD_DSTYLE_DIM_EXT2_LINETYPE
1070
   382
1005
16
0
DIMENSION
5
140
100
AcDbEntity
8
SK2
62
256
6
ByLayer
370
18
48
1
60
0
100
AcDbDimension
2
_U2
10
-43.24994
20
-5
30
0
11
-43.24994
21
19.97767
31
0
70
32
71
1
72
1
41
1
210
0
220
0
230
1
3
Standard
100
AcDbAlignedDimension
13
-40
23
5
33
0
14
-40
24
-5
34
0
50
90
100
AcDbRotatedDimension
1001
ACAD
1000
DSTYLE
1002
{
1070
   371
1070
    13
1070
   372
1070
    13
1070
     3
1000

1070
   170
1070
     0
1070
   144
1040
1.0
1070
   277
1070
     2
1070
   284
1070
     8
1070
   278
1070
    46
1070
   146
1040
0.999966
1070
   345
1005
16
1070
   347
1005
16
1070
   346
1005
16
1070
   344
1005
FC
1070
   343
1005
FC
1070
   172
1070
     1
1070
    76
1070
     0
1070
    75
1070
     0
1070
   282
1070
     0
1070
   281
1070
     0
1070
    71
1070
     0
1070
    74
1070
     0
1070
   279
1070
     0
1070
   173
1070
     1
1070
   340
1005
F6
1070
   271
1070
     1
1070
   272
1070
     2
1070
    77
1070
     1
1070
    73
1070
     0
1070
   171
1070
     3
1070
   274
1070
     4
1070
   177
1070
   150
1070
   176
1070
     9
1070
   178
1070
    43
1070
    78
1070
     8
1070
    48
1040
-0.1
1070
    41
1040
3.175
1070
   147
1040
1.75006
1070
    42
1040
1.5875
1070
    44
1040
3.175
1070
   140
1040
3.50012
1002
}
1001
ACAD_DSTYLE_DIM_LINETYPE
1070
   380
1005
16
1001
ACAD_DSTYLE_DIM_EXT1_LINETYPE
1070
   381
1005
16
1001
ACAD_DSTYLE_DIM_EXT2_LINETYPE
1070
   382
1005
16
0
DIMENSION
5
15E
100
AcDbEntity
8
SK2
62
256
6
ByLayer
370
18
48
1
60
0
100
AcDbDimension
2
_U3
10
0
20
-28.50012
30
0
11
-20
21
-28.50012
31
0
70
32
71
1
72
1
41
1
210
0
220
0
230
1
3
Standard
100
AcDbAlignedDimension
13
-40
23
-5
33
0
14
0
24
-5
34
0
50
0
100
AcDbRotatedDimension
1001
ACAD
1000
DSTYLE
1002
{
1070
   371
1070
    13
1070
   372
1070
    13
1070
     3
1000

1070
   170
1070
     0
1070
   144
1040
1.0
1070
   277
1070
     2
1070
   284
1070
     8
1070
   278
1070
    46
1070
   146
1040
0.999966
1070
   345
1005
16
1070
   347
1005
16
1070
   346
1005
16
1070
   344
1005
FC
1070
   343
1005
FC
1070
   172
1070
     1
1070
    76
1070
     0
1070
    75
1070
     0
1070
   282
1070
     0
1070
   281
1070
     0
1070
    71
1070
     0
1070
    74
1070
     0
1070
   279
1070
     0
1070
   173
1070
     1
1070
   340
1005
F6
1070
   271
1070
     1
1070
   272
1070
     2
1070
    77
1070
     1
1070
    73
1070
     1
1070
   171
1070
     3
1070
   274
1070
     4
1070
   177
1070
   150
1070
   176
1070
     9
1070
   178
1070
    43
1070
    78
1070
     8
1070
    48
1040
-0.1
1070
    41
1040
3.175
1070
   147
1040
1.75006
1070
    42
1040
1.5875
1070
    44
1040
3.175
1070
   140
1040
3.50012
1002
}
1001
ACAD_DSTYLE_DIM_LINETYPE
1070
   380
1005
16
1001
ACAD_DSTYLE_DIM_EXT1_LINETYPE
1070
   381
1005
16
1001
ACAD_DSTYLE_DIM_EXT2_LINETYPE
1070
   382
1005
16
0
DIMENSION
5
17A
100
AcDbEntity
8
SK2
62
256
6
ByLayer
370
18
48
1
60
0
100
AcDbDimension
2
_U4
10
49
20
-19.74982
30
0
11
25.5
21
-19.74982
31
0
70
32
71
1
72
1
41
1
210
0
220
0
230
1
3
Standard
100
AcDbAlignedDimension
13
2
23
4.7
33
0
14
49
24
0
34
0
50
0
100
AcDbRotatedDimension
1001
ACAD
1000
DSTYLE
1002
{
1070
   371
1070
    13
1070
   372
1070
    13
1070
     3
1000

1070
   170
1070
     0
1070
   144
1040
1.0
1070
   277
1070
     2
1070
   284
1070
     8
1070
   278
1070
    46
1070
   146
1040
0.999966
1070
   345
1005
16
1070
   347
1005
16
1070
   346
1005
16
1070
   344
1005
FC
1070
   343
1005
FC
1070
   172
1070
     1
1070
    76
1070
     0
1070
    75
1070
     0
1070
   282
1070
     0
1070
   281
1070
     0
1070
    71
1070
     0
1070
    74
1070
     0
1070
   279
1070
     0
1070
   173
1070
     1
1070
   340
1005
F6
1070
   271
1070
     1
1070
   272
1070
     2
1070
    77
1070
     1
1070
    73
1070
     1
1070
   171
1070
     3
1070
   274
1070
     4
1070
   177
1070
   150
1070
   176
1070
     9
1070
   178
1070
    43
1070
    78
1070
     8
1070
    48
1040
-0.1
1070
    41
1040
3.175
1070
   147
1040
1.75006
1070
    42
1040
1.5875
1070
    44
1040
3.175
1070
   140
1040
3.50012
1002
}
1001
ACAD_DSTYLE_DIM_LINETYPE
1070
   380
1005
16
1001
ACAD_DSTYLE_DIM_EXT1_LINETYPE
1070
   381
1005
16
1001
ACAD_DSTYLE_DIM_EXT2_LINETYPE
1070
   382
1005
16
0
DIMENSION
5
196
100
AcDbEntity
8
SK2
62
256
6
ByLayer
370
18
48
1
60
0
100
AcDbDimension
2
_U5
10
49
20
-11.82
30
0
11
35.65
21
-11.82
31
0
70
32
71
1
72
1
41
1
210
0
220
0
230
1
3
Standard
100
AcDbAlignedDimension
13
22.3
23
-4.2
33
0
14
49
24
0
34
0
50
0
100
AcDbRotatedDimension
1001
ACAD
1000
DSTYLE
1002
{
1070
   371
1070
    13
1070
   372
1070
    13
1070
     3
1000

1070
   170
1070
     0
1070
   144
1040
1.0
1070
   277
1070
     2
1070
   284
1070
     8
1070
   278
1070
    46
1070
   146
1040
1.25
1070
   345
1005
16
1070
   347
1005
16
1070
   346
1005
16
1070
   344
1005
FC
1070
   343
1005
FC
1070
   172
1070
     1
1070
    76
1070
     0
1070
    75
1070
     0
1070
   282
1070
     0
1070
   281
1070
     0
1070
    71
1070
     0
1070
    74
1070
     0
1070
   279
1070
     0
1070
   173
1070
     1
1070
   340
1005
F6
1070
   271
1070
     1
1070
   272
1070
     2
1070
    77
1070
     1
1070
    73
1070
     1
1070
   171
1070
     3
1070
   274
1070
     4
1070
   177
1070
   150
1070
   176
1070
     9
1070
   178
1070
    43
1070
    78
1070
     8
1070
    48
1040
-0.1
1070
    41
1040
3.175
1070
   147
1040
0.42
1070
    42
1040
1.5875
1070
    44
1040
0.5
1070
   140
1040
2.8
1002
}
1001
ACAD_DSTYLE_DIM_LINETYPE
1070
   380
1005
16
1001
ACAD_DSTYLE_DIM_EXT1_LINETYPE
1070
   381
1005
16
1001
ACAD_DSTYLE_DIM_EXT2_LINETYPE
1070
   382
1005
16
0
DIMENSION
5
1B2
100
AcDbEntity
8
SK2
62
256
6
ByLayer
370
18
48
1
60
0
100
AcDbDimension
2
_U6
10
49
20
-38.50012
30
0
11
4.5
21
-38.50012
31
0
70
32
71
1
72
1
41
1
210
0
220
0
230
1
3
Standard
100
AcDbAlignedDimension
13
-40
23
0
33
0
14
49
24
0
34
0
50
0
100
AcDbRotatedDimension
1001
ACAD
1000
DSTYLE
1002
{
1070
   371
1070
    13
1070
   372
1070
    13
1070
     3
1000

1070
   170
1070
     0
1070
   144
1040
1.0
1070
   277
1070
     2
1070
   284
1070
     8
1070
   278
1070
    46
1070
   146
1040
0.999966
1070
   345
1005
16
1070
   347
1005
16
1070
   346
1005
16
1070
   344
1005
FC
1070
   343
1005
FC
1070
   172
1070
     1
1070
    76
1070
     0
1070
    75
1070
     0
1070
   282
1070
     0
1070
   281
1070
     0
1070
    71
1070
     0
1070
    74
1070
     0
1070
   279
1070
     0
1070
   173
1070
     1
1070
   340
1005
F6
1070
   271
1070
     1
1070
   272
1070
     2
1070
    77
1070
     1
1070
    73
1070
     1
1070
   171
1070
     3
1070
   274
1070
     4
1070
   177
1070
   150
1070
   176
1070
     9
1070
   178
1070
    43
1070
    78
1070
     8
1070
    48
1040
-0.1
1070
    41
1040
3.175
1070
   147
1040
1.75006
1070
    42
1040
1.5875
1070
    44
1040
3.175
1070
   140
1040
3.50012
1002
}
1001
ACAD_DSTYLE_DIM_LINETYPE
1070
   380
1005
16
1001
ACAD_DSTYLE_DIM_EXT1_LINETYPE
1070
   381
1005
16
1001
ACAD_DSTYLE_DIM_EXT2_LINETYPE
1070
   382
1005
16
0
ENDSEC
0
SECTION
2
OBJECTS
0
DICTIONARY
5
23e
330
0
100
AcDbDictionary
280
0
281
1
3
ACAD_GROUP
350
23f
3
ACAD_MLINESTYLE
350
240
0
DICTIONARY
5
23f
330
0
100
AcDbDictionary
280
0
281
1
0
DICTIONARY
5
240
330
0
100
AcDbDictionary
280
0
281
1
3
Standard
350
18
0
MLINESTYLE
5
18
330
240
100
AcDbMlineStyle
2
Standard
70
0
3

62
256
51
90
52
90
71
2
49
-0.5
62
256
6
ByLayer
49
0.5
62
256
6
ByLayer
0
RASTERVARIABLES
5
22c
330

100
AcDbRasterVariables
90
0
70
1
71
1
72
1
0
ENDSEC
0
EOF
