0
SECTION
2
HEADER
9
$ACADVER
1
AC1015
9
$DWGCODEPAGE
3
ANSI_1252
9
$HANDSEED
5
24b
9
$ANGBASE
50
0
9
$ANGDIR
70
0
9
$ATTMODE
70
1
9
$AUNITS
70
0
9
$AUPREC
70
0
9
$CECOLOR
62
256
9
$CELTSCALE
40
1
9
$CELTYPE
6
ByLayer
9
$CELWEIGHT
370
18
9
$CLAYER
8
0
9
$CMLJUST
70
0
9
$CMLSCALE
40
1
9
$CMLSTYLE
2
Standard
9
$DIMSTYLE
2
Standard
9
$TEXTSIZE
40
0.2
9
$TEXTSTYLE
7
Standard
9
$LUNITS
70
2
9
$LUPREC
70
4
9
$EXTNAMES
290
1
9
$INSUNITS
70
4
9
$LTSCALE
40
1
9
$LWDISPLAY
290
1
9
$PDMODE
70
0
9
$PDSIZE
40
0
9
$PLINEGEN
70
0
0
ENDSEC
0
SECTION
2
CLASSES
0
CLASS
1
RASTERVARIABLES
2
AcDbRasterVariables
3
ISM
90
0
280
0
281
0
0
ENDSEC
0
SECTION
2
TABLES
0
TABLE
2
VPORT
5
241
100
AcDbSymbolTable
0
VPORT
5
1
100
AcDbSymbolTableRecord
100
AcDbViewportTableRecord
2
*Active
70
0
10
0
20
0
11
1
21
1
12
-1
22
1
13
0
23
0
14
0.5
24
0.5
15
10
25
10
16
0
26
0
36
1
17
0
27
0
37
0
0
ENDTAB
0
TABLE
2
LTYPE
5
242
100
AcDbSymbolTable
0
LTYPE
5
14
100
AcDbSymbolTableRecord
100
AcDbLinetypeTableRecord
70
0
2
ByBlock
3

72
65
73
0
40
0
0
LTYPE
5
15
100
AcDbSymbolTableRecord
100
AcDbLinetypeTableRecord
70
0
2
ByLayer
3

72
65
73
0
40
0
0
LTYPE
5
16
100
AcDbSymbolTableRecord
100
AcDbLinetypeTableRecord
70
0
2
Continuous
3
Solid line
72
65
73
0
40
0
0
LTYPE
5
6E
100
AcDbSymbolTableRecord
100
AcDbLinetypeTableRecord
70
0
2
CENTER
3
____ _ ____ _ ____ _ ____
72
65
73
4
40
47.5
49
22
74
0
49
-8.5
74
0
49
8.5
74
0
49
-8.5
74
0
0
LTYPE
5
6F
100
AcDbSymbolTableRecord
100
AcDbLinetypeTableRecord
70
0
2
DASHED
3
__ __ __ __ __ __ __ __ __
72
65
73
2
40
25.72
49
12.86
74
0
49
-12.86
74
0
0
ENDTAB
0
TABLE
2
LAYER
5
243
100
AcDbSymbolTable
0
LAYER
5
10
100
AcDbSymbolTableRecord
100
AcDbLayerTableRecord
2
0
70
0
62
7
6
Continuous
290
1
370
-3
390
0
0
LAYER
5
71
100
AcDbSymbolTableRecord
100
AcDbLayerTableRecord
2
80
70
0
62
-6
6
Continuous
290
1
370
-3
390
0
0
LAYER
5
73
100
AcDbSymbolTableRecord
100
AcDbLayerTableRecord
2
81
70
0
62
-3
6
Continuous
290
1
370
-3
390
0
0
LAYER
5
75
100
AcDbSymbolTableRecord
100
AcDbLayerTableRecord
2
1
70
0
62
4
6
Continuous
290
1
370
-3
390
0
0
LAYER
5
A1
100
AcDbSymbolTableRecord
100
AcDbLayerTableRecord
2
4
70
0
62
-2
6
CENTER
290
1
370
-3
390
0
0
LAYER
5
105
100
AcDbSymbolTableRecord
100
AcDbLayerTableRecord
2
Defpoints
70
0
62
7
6
Continuous
290
0
370
-3
390
0
0
LAYER
5
132
100
AcDbSymbolTableRecord
100
AcDbLayerTableRecord
2
2
70
0
62
7
6
Continuous
290
1
370
-3
390
0
0
LAYER
5
22d
100
AcDbSymbolTableRecord
100
AcDbLayerTableRecord
2
SK1
70
0
62
4
6
Continuous
290
1
370
-3
390
0
0
LAYER
5
22e
100
AcDbSymbolTableRecord
100
AcDbLayerTableRecord
2
SK4
70
0
62
2
6
CENTER
290
1
370
-3
390
0
0
LAYER
5
22f
100
AcDbSymbolTableRecord
100
AcDbLayerTableRecord
2
SK2
70
0
62
7
6
Continuous
290
1
370
-3
390
0
0
LAYER
5
230
100
AcDbSymbolTableRecord
100
AcDbLayerTableRecord
2
SK6
70
0
62
5
6
Continuous
290
1
370
-3
390
0
0
ENDTAB
0
TABLE
2
STYLE
5
244
100
AcDbSymbolTable
0
STYLE
5
11
100
AcDbSymbolTableRecord
100
AcDbTextStyleTableRecord
2
Standard
3
txt
70
0
71
0
40
0
41
1
42
0
50
0
0
STYLE
5
F6
100
AcDbSymbolTableRecord
100
AcDbTextStyleTableRecord
2
iso_b_vert
3
simplex.shx
70
0
71
0
40
0
41
1
42
0
50
0
0
STYLE
5
F7
100
AcDbSymbolTableRecord
100
AcDbTextStyleTableRecord
2
DWGDirectTextStyle
3
simplex
70
0
71
0
40
0
41
1
42
0
50
0
0
ENDTAB
0
TABLE
2
DIMSTYLE
5
245
100
AcDbSymbolTable
100
AcDbDimStyleTable
0
DIMSTYLE
105
27
100
AcDbSymbolTableRecord
100
AcDbDimStyleTableRecord
2
Standard
70
0
3
<>
41
0.18
42
0.0625
44
0.18
140
0.18
147
0.09
73
0
74
0
77
1
271
2
275
0
278
52
280
0
340
11
0
ENDTAB
0
TABLE
2
VIEW
5
246
100
AcDbSymbolTable
0
ENDTAB
0
TABLE
2
UCS
5
247
100
AcDbSymbolTable
0
ENDTAB
0
TABLE
2
APPID
5
248
100
AcDbSymbolTable
0
APPID
5
12
100
AcDbSymbolTableRecord
100
AcDbRegAppTableRecord
2
ACAD
70
0
0
APPID
5
FA
100
AcDbSymbolTableRecord
100
AcDbRegAppTableRecord
2
ACAD_DSTYLE_DIMBREAK
70
0
0
APPID
5
1EC
100
AcDbSymbolTableRecord
100
AcDbRegAppTableRecord
2
ACAD_DSTYLE_DIM_LINETYPE
70
0
0
APPID
5
1ED
100
AcDbSymbolTableRecord
100
AcDbRegAppTableRecord
2
ACAD_DSTYLE_DIM_EXT1_LINETYPE
70
0
0
APPID
5
1EE
100
AcDbSymbolTableRecord
100
AcDbRegAppTableRecord
2
ACAD_DSTYLE_DIM_EXT2_LINETYPE
70
0
0
APPID
5
229
100
AcDbSymbolTableRecord
100
AcDbRegAppTableRecord
2
ACAD_MLEADERVER
70
0
0
ENDTAB
0
TABLE
2
BLOCK_RECORD
5
249
100
AcDbSymbolTable
0
BLOCK_RECORD
5
1F
100
AcDbSymbolTableRecord
100
AcDbBlockTableRecord
2
*Model_Space
340
0
70
0
0
BLOCK_RECORD
5
1B
100
AcDbSymbolTableRecord
100
AcDbBlockTableRecord
2
*Paper_Space
340
0
70
0
0
BLOCK_RECORD
5
23
100
AcDbSymbolTableRecord
100
AcDbBlockTableRecord
2
*Paper_Space0
340
0
70
0
0
BLOCK_RECORD
5
FC
100
AcDbSymbolTableRecord
100
AcDbBlockTableRecord
2
_Closed
340
0
70
0
0
BLOCK_RECORD
5
106
100
AcDbSymbolTableRecord
100
AcDbBlockTableRecord
2
*D2
340
0
70
0
0
BLOCK_RECORD
5
112
100
AcDbSymbolTableRecord
100
AcDbBlockTableRecord
2
_U0
340
0
70
0
0
BLOCK_RECORD
5
124
100
AcDbSymbolTableRecord
100
AcDbBlockTableRecord
2
*D4
340
0
70
0
0
BLOCK_RECORD
5
133
100
AcDbSymbolTableRecord
100
AcDbBlockTableRecord
2
_U1
340
0
70
0
0
BLOCK_RECORD
5
143
100
AcDbSymbolTableRecord
100
AcDbBlockTableRecord
2
*D6
340
0
70
0
0
BLOCK_RECORD
5
151
100
AcDbSymbolTableRecord
100
AcDbBlockTableRecord
2
_U2
340
0
70
0
0
BLOCK_RECORD
5
161
100
AcDbSymbolTableRecord
100
AcDbBlockTableRecord
2
*D8
340
0
70
0
0
BLOCK_RECORD
5
16D
100
AcDbSymbolTableRecord
100
AcDbBlockTableRecord
2
_U3
340
0
70
0
0
BLOCK_RECORD
5
17D
100
AcDbSymbolTableRecord
100
AcDbBlockTableRecord
2
*D10
340
0
70
0
0
BLOCK_RECORD
5
189
100
AcDbSymbolTableRecord
100
AcDbBlockTableRecord
2
_U4
340
0
70
0
0
BLOCK_RECORD
5
199
100
AcDbSymbolTableRecord
100
AcDbBlockTableRecord
2
*D12
340
0
70
0
0
BLOCK_RECORD
5
1A5
100
AcDbSymbolTableRecord
100
AcDbBlockTableRecord
2
_U5
340
0
70
0
0
BLOCK_RECORD
5
1B5
100
AcDbSymbolTableRecord
100
AcDbBlockTableRecord
2
*D14
340
0
70
0
0
BLOCK_RECORD
5
1C1
100
AcDbSymbolTableRecord
100
AcDbBlockTableRecord
2
_U6
340
0
70
0
0
ENDTAB
0
ENDSEC
0
SECTION
2
BLOCKS
0
BLOCK
5
20
100
AcDbEntity
8
0
100
AcDbBlockBegin
2
*Model_Space
70
0
10
0
20
0
30
0
3
*Model_Space
0
ENDBLK
5
21
100
AcDbEntity
8
0
100
AcDbBlockEnd
0
BLOCK
5
1C
100
AcDbEntity
8
0
100
AcDbBlockBegin
2
*Paper_Space
70
0
10
0
20
0
30
0
3
*Paper_Space
0
ENDBLK
5
1D
100
AcDbEntity
8
0
100
AcDbBlockEnd
0
BLOCK
5
24
100
AcDbEntity
8
0
100
AcDbBlockBegin
2
*Paper_Space0
70
0
10
0
20
0
30
0
3
*Paper_Space0
0
ENDBLK
5
25
100
AcDbEntity
8
0
100
AcDbBlockEnd
0
BLOCK
5
FD
100
AcDbEntity
8
0
100
AcDbBlockBegin
2
_Closed
70
0
10
0
20
0
30
0
3
_Closed
0
LINE
5
FF
100
AcDbEntity
8
0
62
256
6
ByLayer
370
-2
48
1
60
0
100
AcDbLine
10
-1
20
0.166667
30
0
11
0
21
0
31
0
39
0
210
0
220
0
230
1
0
LINE
5
100
100
AcDbEntity
8
0
62
256
6
ByLayer
370
-2
48
1
60
0
100
AcDbLine
10
0
20
0
30
0
11
-1
21
-0.166667
31
0
39
0
210
0
220
0
230
1
0
LINE
5
101
100
AcDbEntity
8
0
62
256
6
ByLayer
370
-2
48
1
60
0
100
AcDbLine
10
-1
20
0.166667
30
0
11
-1
21
-0.166667
31
0
39
0
210
0
220
0
230
1
0
LINE
5
102
100
AcDbEntity
8
0
62
256
6
ByLayer
370
-2
48
1
60
0
100
AcDbLine
10
0
20
0
30
0
11
-1
21
0
31
0
39
0
210
0
220
0
230
1
0
ENDBLK
5
FE
100
AcDbEntity
8
0
100
AcDbBlockEnd
0
BLOCK
5
107
100
AcDbEntity
8
0
100
AcDbBlockBegin
2
*D2
70
1
10
0
20
0
30
0
3
*D2
0
LINE
5
109
100
AcDbEntity
8
0
62
256
6
ByLayer
370
-2
48
1
60
0
100
AcDbLine
10
0
20
-5.5875
30
0
11
0
21
-30.67512
31
0
39
0
210
0
220
0
230
1
0
LINE
5
10A
100
AcDbEntity
8
0
62
256
6
ByLayer
370
-2
48
1
60
0
100
AcDbLine
10
43
20
-1.5875
30
0
11
43
21
-30.67512
31
0
39
0
210
0
220
0
230
1
0
LINE
5
10B
100
AcDbEntity
8
0
62
256
6
ByLayer
370
-2
48
1
60
0
100
AcDbLine
10
3.175
20
-27.50012
30
0
11
39.825
21
-27.50012
31
0
39
0
210
0
220
0
230
1
0
SOLID
5
10C
100
AcDbEntity
8
0
62
256
6
ByLayer
370
-1
48
1
60
0
100
AcDbTrace
10
3.175
20
-26.970953
30
0
11
3.175
21
-28.029287
31
0
12
0
22
-27.50012
32
0
13
0
23
-27.50012
33
0
39
0
210
0
220
0
230
1
0
SOLID
5
10D
100
AcDbEntity
8
0
62
256
6
ByLayer
370
-1
48
1
60
0
100
AcDbTrace
10
39.825
20
-28.029287
30
0
11
39.825
21
-26.970953
31
0
12
43
22
-27.50012
32
0
13
43
23
-27.50012
33
0
39
0
210
0
220
0
230
1
0
MTEXT
5
10E
100
AcDbEntity
8
0
62
256
6
ByLayer
370
18
48
1
60
0
100
AcDbMText
10
21.5
20
-20.193619
30
0
210
0
220
0
230
1
1
\A1;43
40
3.50012
41
0
44
1
50
0
71
5
72
5
7
iso_b_vert
0
POINT
5
10F
100
AcDbEntity
8
Defpoints
62
0
6
ByLayer
370
-1
48
1
60
0
100
AcDbPoint
10
0
20
-4
30
0
39
0
210
0
220
0
230
1
50
360
0
POINT
5
110
100
AcDbEntity
8
Defpoints
62
0
6
ByLayer
370
-1
48
1
60
0
100
AcDbPoint
10
43
20
0
30
0
39
0
210
0
220
0
230
1
50
360
0
POINT
5
111
100
AcDbEntity
8
Defpoints
62
0
6
ByLayer
370
-1
48
1
60
0
100
AcDbPoint
10
43
20
-27.50012
30
0
39
0
210
0
220
0
230
1
50
360
0
ENDBLK
5
108
100
AcDbEntity
8
0
100
AcDbBlockEnd
0
BLOCK
5
11F
100
AcDbEntity
8
0
100
AcDbBlockBegin
2
_U0
70
0
10
0
20
0
30
0
3
_U0
0
MTEXT
5
113
100
AcDbEntity
8
SK2
62
256
6
ByLayer
370
18
48
1
60
0
100
AcDbMText
10
16.086116
20
-26.467451
30
0
210
0
220
0
230
1
1
\W0.7694;43.00
40
3.50012
41
0
44
1.084337
50
0
71
7
72
5
7
iso_b_vert
0
MTEXT
5
114
100
AcDbEntity
8
SK2
62
256
6
ByLayer
370
18
48
1
60
0
100
AcDbMText
10
12.560056
20
-26.400814
30
0
210
0
220
0
230
1
1
\W0.1790;(
40
3.175
41
0
44
1.084337
50
0
71
7
72
5
7
iso_b_vert
0
MTEXT
5
115
100
AcDbEntity
8
SK2
62
256
6
ByLayer
370
18
48
1
60
0
100
AcDbMText
10
30.442666
20
-26.400814
30
0
210
0
220
0
230
1
1
\W0.1969;)
40
3.175
41
0
44
1.084337
50
0
71
7
72
5
7
iso_b_vert
0
LINE
5
116
100
AcDbEntity
8
SK2
62
256
6
ByLayer
370
13
48
1
60
0
100
AcDbLine
10
0
20
-5.5875
30
0
11
0
21
-30.67512
31
0
39
0
210
0
220
0
230
1
0
LINE
5
117
100
AcDbEntity
8
SK2
62
256
6
ByLayer
370
13
48
1
60
0
100
AcDbLine
10
43
20
-1.5875
30
0
11
43
21
-30.67512
31
0
39
0
210
0
220
0
230
1
0
LINE
5
118
100
AcDbEntity
8
SK2
62
256
6
ByLayer
370
13
48
1
60
0
100
AcDbLine
10
0
20
-27.50012
30
0
11
43
21
-27.50012
31
0
39
0
210
0
220
0
230
1
0
LINE
5
119
100
AcDbEntity
8
SK2
62
256
6
ByLayer
370
13
48
1
60
0
100
AcDbLine
10
0
20
-27.50012
30
0
11
3.174998
21
-27.082123
31
0
39
0
210
0
220
0
230
1
0
LINE
5
11A
100
AcDbEntity
8
SK2
62
256
6
ByLayer
370
13
48
1
60
0
100
AcDbLine
10
0
20
-27.50012
30
0
11
3.175002
21
-27.918117
31
0
39
0
210
0
220
0
230
1
0
LINE
5
11B
100
AcDbEntity
8
SK2
62
256
6
ByLayer
370
13
48
1
60
0
100
AcDbLine
10
3.174998
20
-27.082123
30
0
11
3.175002
21
-27.918117
31
0
39
0
210
0
220
0
230
1
0
LINE
5
11C
100
AcDbEntity
8
SK2
62
256
6
ByLayer
370
13
48
1
60
0
100
AcDbLine
10
43
20
-27.50012
30
0
11
39.825002
21
-27.918117
31
0
39
0
210
0
220
0
230
1
0
LINE
5
11D
100
AcDbEntity
8
SK2
62
256
6
ByLayer
370
13
48
1
60
0
100
AcDbLine
10
43
20
-27.50012
30
0
11
39.824998
21
-27.082123
31
0
39
0
210
0
220
0
230
1
0
LINE
5
11E
100
AcDbEntity
8
SK2
62
256
6
ByLayer
370
13
48
1
60
0
100
AcDbLine
10
39.825002
20
-27.918117
30
0
11
39.824998
21
-27.082123
31
0
39
0
210
0
220
0
230
1
0
ENDBLK
5
120
100
AcDbEntity
8
0
100
AcDbBlockEnd
0
BLOCK
5
125
100
AcDbEntity
8
0
100
AcDbBlockBegin
2
*D4
70
1
10
0
20
0
30
0
3
*D4
0
LINE
5
127
100
AcDbEntity
8
0
62
256
6
ByLayer
370
-2
48
1
60
0
100
AcDbLine
10
43.2772
20
-3.6
30
0
11
52.92506
21
-3.6
31
0
39
0
210
0
220
0
230
1
0
LINE
5
128
100
AcDbEntity
8
0
62
256
6
ByLayer
370
-2
48
1
60
0
100
AcDbLine
10
43.2772
20
3.6
30
0
11
52.92506
21
3.6
31
0
39
0
210
0
220
0
230
1
0
LINE
5
129
100
AcDbEntity
8
0
62
256
6
ByLayer
370
-2
48
1
60
0
100
AcDbLine
10
49.75006
20
3.6
30
0
11
49.75006
21
28.396466
31
0
39
0
210
0
220
0
230
1
0
LINE
5
12A
100
AcDbEntity
8
0
62
256
6
ByLayer
370
-2
48
1
60
0
100
AcDbLine
10
49.75006
20
-6.775
30
0
11
49.75006
21
-9.95
31
0
39
0
210
0
220
0
230
1
0
LINE
5
12B
100
AcDbEntity
8
0
62
256
6
ByLayer
370
-2
48
1
60
0
100
AcDbLine
10
49.75006
20
6.775
30
0
11
49.75006
21
9.95
31
0
39
0
210
0
220
0
230
1
0
SOLID
5
12C
100
AcDbEntity
8
0
62
256
6
ByLayer
370
-1
48
1
60
0
100
AcDbTrace
10
50.279227
20
-6.775
30
0
11
49.220893
21
-6.775
31
0
12
49.75006
22
-3.6
32
0
13
49.75006
23
-3.6
33
0
39
0
210
0
220
0
230
1
0
SOLID
5
12D
100
AcDbEntity
8
0
62
256
6
ByLayer
370
-1
48
1
60
0
100
AcDbTrace
10
49.220893
20
6.775
30
0
11
50.279227
21
6.775
31
0
12
49.75006
22
3.6
32
0
13
49.75006
23
3.6
33
0
39
0
210
0
220
0
230
1
0
MTEXT
5
12E
100
AcDbEntity
8
0
62
256
6
ByLayer
370
18
48
1
60
0
100
AcDbMText
10
42.443559
20
19.173233
30
0
210
0
220
0
230
1
1
\A1;7.2
40
3.50012
41
0
44
1
50
90
71
5
72
5
7
iso_b_vert
0
POINT
5
12F
100
AcDbEntity
8
Defpoints
62
0
6
ByLayer
370
-1
48
1
60
0
100
AcDbPoint
10
41.6897
20
-3.6
30
0
39
0
210
0
220
0
230
1
50
360
0
POINT
5
130
100
AcDbEntity
8
Defpoints
62
0
6
ByLayer
370
-1
48
1
60
0
100
AcDbPoint
10
41.6897
20
3.6
30
0
39
0
210
0
220
0
230
1
50
360
0
POINT
5
131
100
AcDbEntity
8
Defpoints
62
0
6
ByLayer
370
-1
48
1
60
0
100
AcDbPoint
10
49.75006
20
3.6
30
0
39
0
210
0
220
0
230
1
50
360
0
ENDBLK
5
126
100
AcDbEntity
8
0
100
AcDbBlockEnd
0
BLOCK
5
13E
100
AcDbEntity
8
0
100
AcDbBlockBegin
2
_U1
70
0
10
0
20
0
30
0
3
_U1
0
MTEXT
5
134
100
AcDbEntity
8
2
62
256
6
ByLayer
370
18
48
1
60
0
100
AcDbMText
10
49.060403
20
7.757505
30
0
210
0
220
0
230
1
1
\W0.7346;7.20
40
3.50012
41
0
44
1.084337
50
90
71
7
72
5
7
iso_b_vert
0
LINE
5
135
100
AcDbEntity
8
2
62
256
6
ByLayer
370
13
48
1
60
0
100
AcDbLine
10
43.2772
20
-3.6
30
0
11
52.92506
21
-3.6
31
0
39
0
210
0
220
0
230
1
0
LINE
5
136
100
AcDbEntity
8
2
62
256
6
ByLayer
370
13
48
1
60
0
100
AcDbLine
10
43.2772
20
3.6
30
0
11
52.92506
21
3.6
31
0
39
0
210
0
220
0
230
1
0
LINE
5
137
100
AcDbEntity
8
2
62
256
6
ByLayer
370
13
48
1
60
0
100
AcDbLine
10
49.75006
20
-3.6
30
0
11
49.75006
21
15.81468
31
0
39
0
210
0
220
0
230
1
0
LINE
5
138
100
AcDbEntity
8
2
62
256
6
ByLayer
370
13
48
1
60
0
100
AcDbLine
10
49.75006
20
-3.6
30
0
11
49.332063
21
-0.425002
31
0
39
0
210
0
220
0
230
1
0
LINE
5
139
100
AcDbEntity
8
2
62
256
6
ByLayer
370
13
48
1
60
0
100
AcDbLine
10
49.75006
20
-3.6
30
0
11
50.168057
21
-0.424998
31
0
39
0
210
0
220
0
230
1
0
LINE
5
13A
100
AcDbEntity
8
2
62
256
6
ByLayer
370
13
48
1
60
0
100
AcDbLine
10
49.332063
20
-0.425002
30
0
11
50.168057
21
-0.424998
31
0
39
0
210
0
220
0
230
1
0
LINE
5
13B
100
AcDbEntity
8
2
62
256
6
ByLayer
370
13
48
1
60
0
100
AcDbLine
10
49.75006
20
3.6
30
0
11
50.168057
21
0.425002
31
0
39
0
210
0
220
0
230
1
0
LINE
5
13C
100
AcDbEntity
8
2
62
256
6
ByLayer
370
13
48
1
60
0
100
AcDbLine
10
49.75006
20
3.6
30
0
11
49.332063
21
0.424998
31
0
39
0
210
0
220
0
230
1
0
LINE
5
13D
100
AcDbEntity
8
2
62
256
6
ByLayer
370
13
48
1
60
0
100
AcDbLine
10
50.168057
20
0.425002
30
0
11
49.332063
21
0.424998
31
0
39
0
210
0
220
0
230
1
0
ENDBLK
5
13F
100
AcDbEntity
8
0
100
AcDbBlockEnd
0
BLOCK
5
144
100
AcDbEntity
8
0
100
AcDbBlockBegin
2
*D6
70
1
10
0
20
0
30
0
3
*D6
0
LINE
5
146
100
AcDbEntity
8
0
62
256
6
ByLayer
370
-2
48
1
60
0
100
AcDbLine
10
-37.5875
20
4
30
0
11
-42.42494
21
4
31
0
39
0
210
0
220
0
230
1
0
LINE
5
147
100
AcDbEntity
8
0
62
256
6
ByLayer
370
-2
48
1
60
0
100
AcDbLine
10
-37.5875
20
-4
30
0
11
-42.42494
21
-4
31
0
39
0
210
0
220
0
230
1
0
LINE
5
148
100
AcDbEntity
8
0
62
256
6
ByLayer
370
-2
48
1
60
0
100
AcDbLine
10
-39.24994
20
4
30
0
11
-39.24994
21
24.830487
31
0
39
0
210
0
220
0
230
1
0
LINE
5
149
100
AcDbEntity
8
0
62
256
6
ByLayer
370
-2
48
1
60
0
100
AcDbLine
10
-39.24994
20
7.175
30
0
11
-39.24994
21
10.35
31
0
39
0
210
0
220
0
230
1
0
LINE
5
14A
100
AcDbEntity
8
0
62
256
6
ByLayer
370
-2
48
1
60
0
100
AcDbLine
10
-39.24994
20
-7.175
30
0
11
-39.24994
21
-10.35
31
0
39
0
210
0
220
0
230
1
0
SOLID
5
14B
100
AcDbEntity
8
0
62
256
6
ByLayer
370
-1
48
1
60
0
100
AcDbTrace
10
-39.779107
20
7.175
30
0
11
-38.720773
21
7.175
31
0
12
-39.24994
22
4
32
0
13
-39.24994
23
4
33
0
39
0
210
0
220
0
230
1
0
SOLID
5
14C
100
AcDbEntity
8
0
62
256
6
ByLayer
370
-1
48
1
60
0
100
AcDbTrace
10
-38.720773
20
-7.175
30
0
11
-39.779107
21
-7.175
31
0
12
-39.24994
22
-4
32
0
13
-39.24994
23
-4
33
0
39
0
210
0
220
0
230
1
0
MTEXT
5
14D
100
AcDbEntity
8
0
62
256
6
ByLayer
370
18
48
1
60
0
100
AcDbMText
10
-46.556441
20
18.10734
30
0
210
0
220
0
230
1
1
\A1;8
40
3.50012
41
0
44
1
50
90
71
5
72
5
7
iso_b_vert
0
POINT
5
14E
100
AcDbEntity
8
Defpoints
62
0
6
ByLayer
370
-1
48
1
60
0
100
AcDbPoint
10
-36
20
4
30
0
39
0
210
0
220
0
230
1
50
360
0
POINT
5
14F
100
AcDbEntity
8
Defpoints
62
0
6
ByLayer
370
-1
48
1
60
0
100
AcDbPoint
10
-36
20
-4
30
0
39
0
210
0
220
0
230
1
50
360
0
POINT
5
150
100
AcDbEntity
8
Defpoints
62
0
6
ByLayer
370
-1
48
1
60
0
100
AcDbPoint
10
-39.24994
20
-4
30
0
39
0
210
0
220
0
230
1
50
360
0
ENDBLK
5
145
100
AcDbEntity
8
0
100
AcDbBlockEnd
0
BLOCK
5
15C
100
AcDbEntity
8
0
100
AcDbBlockBegin
2
_U2
70
0
10
0
20
0
30
0
3
_U2
0
MTEXT
5
152
100
AcDbEntity
8
SK2
62
256
6
ByLayer
370
18
48
1
60
0
100
AcDbMText
10
-39.939597
20
14.157505
30
0
210
0
220
0
230
1
1
\W0.7346;8.00
40
3.50012
41
0
44
1.084337
50
90
71
7
72
5
7
iso_b_vert
0
LINE
5
153
100
AcDbEntity
8
SK2
62
256
6
ByLayer
370
13
48
1
60
0
100
AcDbLine
10
-37.5875
20
4
30
0
11
-42.42494
21
4
31
0
39
0
210
0
220
0
230
1
0
LINE
5
154
100
AcDbEntity
8
SK2
62
256
6
ByLayer
370
13
48
1
60
0
100
AcDbLine
10
-37.5875
20
-4
30
0
11
-42.42494
21
-4
31
0
39
0
210
0
220
0
230
1
0
LINE
5
155
100
AcDbEntity
8
SK2
62
256
6
ByLayer
370
13
48
1
60
0
100
AcDbLine
10
-39.24994
20
-4
30
0
11
-39.24994
21
22.21468
31
0
39
0
210
0
220
0
230
1
0
LINE
5
156
100
AcDbEntity
8
SK2
62
256
6
ByLayer
370
13
48
1
60
0
100
AcDbLine
10
-39.24994
20
4
30
0
11
-38.831943
21
0.825002
31
0
39
0
210
0
220
0
230
1
0
LINE
5
157
100
AcDbEntity
8
SK2
62
256
6
ByLayer
370
13
48
1
60
0
100
AcDbLine
10
-39.24994
20
4
30
0
11
-39.667937
21
0.824998
31
0
39
0
210
0
220
0
230
1
0
LINE
5
158
100
AcDbEntity
8
SK2
62
256
6
ByLayer
370
13
48
1
60
0
100
AcDbLine
10
-38.831943
20
0.825002
30
0
11
-39.667937
21
0.824998
31
0
39
0
210
0
220
0
230
1
0
LINE
5
159
100
AcDbEntity
8
SK2
62
256
6
ByLayer
370
13
48
1
60
0
100
AcDbLine
10
-39.24994
20
-4
30
0
11
-39.667937
21
-0.825002
31
0
39
0
210
0
220
0
230
1
0
LINE
5
15A
100
AcDbEntity
8
SK2
62
256
6
ByLayer
370
13
48
1
60
0
100
AcDbLine
10
-39.24994
20
-4
30
0
11
-38.831943
21
-0.824998
31
0
39
0
210
0
220
0
230
1
0
LINE
5
15B
100
AcDbEntity
8
SK2
62
256
6
ByLayer
370
13
48
1
60
0
100
AcDbLine
10
-39.667937
20
-0.825002
30
0
11
-38.831943
21
-0.824998
31
0
39
0
210
0
220
0
230
1
0
ENDBLK
5
15D
100
AcDbEntity
8
0
100
AcDbBlockEnd
0
BLOCK
5
162
100
AcDbEntity
8
0
100
AcDbBlockBegin
2
*D8
70
1
10
0
20
0
30
0
3
*D8
0
LINE
5
164
100
AcDbEntity
8
0
62
256
6
ByLayer
370
-2
48
1
60
0
100
AcDbLine
10
-36
20
-5.5875
30
0
11
-36
21
-30.67512
31
0
39
0
210
0
220
0
230
1
0
LINE
5
165
100
AcDbEntity
8
0
62
256
6
ByLayer
370
-2
48
1
60
0
100
AcDbLine
10
0
20
-5.5875
30
0
11
0
21
-30.67512
31
0
39
0
210
0
220
0
230
1
0
LINE
5
166
100
AcDbEntity
8
0
62
256
6
ByLayer
370
-2
48
1
60
0
100
AcDbLine
10
-32.825
20
-27.50012
30
0
11
-3.175
21
-27.50012
31
0
39
0
210
0
220
0
230
1
0
SOLID
5
167
100
AcDbEntity
8
0
62
256
6
ByLayer
370
-1
48
1
60
0
100
AcDbTrace
10
-32.825
20
-26.970953
30
0
11
-32.825
21
-28.029287
31
0
12
-36
22
-27.50012
32
0
13
-36
23
-27.50012
33
0
39
0
210
0
220
0
230
1
0
SOLID
5
168
100
AcDbEntity
8
0
62
256
6
ByLayer
370
-1
48
1
60
0
100
AcDbTrace
10
-3.175
20
-28.029287
30
0
11
-3.175
21
-26.970953
31
0
12
0
22
-27.50012
32
0
13
0
23
-27.50012
33
0
39
0
210
0
220
0
230
1
0
MTEXT
5
169
100
AcDbEntity
8
0
62
256
6
ByLayer
370
18
48
1
60
0
100
AcDbMText
10
-18
20
-20.193619
30
0
210
0
220
0
230
1
1
\A1;36
40
3.50012
41
0
44
1
50
0
71
5
72
5
7
iso_b_vert
0
POINT
5
16A
100
AcDbEntity
8
Defpoints
62
0
6
ByLayer
370
-1
48
1
60
0
100
AcDbPoint
10
-36
20
-4
30
0
39
0
210
0
220
0
230
1
50
360
0
POINT
5
16B
100
AcDbEntity
8
Defpoints
62
0
6
ByLayer
370
-1
48
1
60
0
100
AcDbPoint
10
0
20
-4
30
0
39
0
210
0
220
0
230
1
50
360
0
POINT
5
16C
100
AcDbEntity
8
Defpoints
62
0
6
ByLayer
370
-1
48
1
60
0
100
AcDbPoint
10
0
20
-27.50012
30
0
39
0
210
0
220
0
230
1
50
360
0
ENDBLK
5
163
100
AcDbEntity
8
0
100
AcDbBlockEnd
0
BLOCK
5
178
100
AcDbEntity
8
0
100
AcDbBlockBegin
2
_U3
70
0
10
0
20
0
30
0
3
_U3
0
MTEXT
5
16E
100
AcDbEntity
8
SK2
62
256
6
ByLayer
370
18
48
1
60
0
100
AcDbMText
10
-23.229611
20
-26.467451
30
0
210
0
220
0
230
1
1
\W0.7468;36.00
40
3.50012
41
0
44
1.084337
50
0
71
7
72
5
7
iso_b_vert
0
LINE
5
16F
100
AcDbEntity
8
SK2
62
256
6
ByLayer
370
13
48
1
60
0
100
AcDbLine
10
-36
20
-5.5875
30
0
11
-36
21
-30.67512
31
0
39
0
210
0
220
0
230
1
0
LINE
5
170
100
AcDbEntity
8
SK2
62
256
6
ByLayer
370
13
48
1
60
0
100
AcDbLine
10
0
20
-5.5875
30
0
11
0
21
-30.67512
31
0
39
0
210
0
220
0
230
1
0
LINE
5
171
100
AcDbEntity
8
SK2
62
256
6
ByLayer
370
13
48
1
60
0
100
AcDbLine
10
-36
20
-27.50012
30
0
11
0
21
-27.50012
31
0
39
0
210
0
220
0
230
1
0
LINE
5
172
100
AcDbEntity
8
SK2
62
256
6
ByLayer
370
13
48
1
60
0
100
AcDbLine
10
-36
20
-27.50012
30
0
11
-32.825002
21
-27.082123
31
0
39
0
210
0
220
0
230
1
0
LINE
5
173
100
AcDbEntity
8
SK2
62
256
6
ByLayer
370
13
48
1
60
0
100
AcDbLine
10
-36
20
-27.50012
30
0
11
-32.824998
21
-27.918117
31
0
39
0
210
0
220
0
230
1
0
LINE
5
174
100
AcDbEntity
8
SK2
62
256
6
ByLayer
370
13
48
1
60
0
100
AcDbLine
10
-32.825002
20
-27.082123
30
0
11
-32.824998
21
-27.918117
31
0
39
0
210
0
220
0
230
1
0
LINE
5
175
100
AcDbEntity
8
SK2
62
256
6
ByLayer
370
13
48
1
60
0
100
AcDbLine
10
0
20
-27.50012
30
0
11
-3.174998
21
-27.918117
31
0
39
0
210
0
220
0
230
1
0
LINE
5
176
100
AcDbEntity
8
SK2
62
256
6
ByLayer
370
13
48
1
60
0
100
AcDbLine
10
0
20
-27.50012
30
0
11
-3.175002
21
-27.082123
31
0
39
0
210
0
220
0
230
1
0
LINE
5
177
100
AcDbEntity
8
SK2
62
256
6
ByLayer
370
13
48
1
60
0
100
AcDbLine
10
-3.174998
20
-27.918117
30
0
11
-3.175002
21
-27.082123
31
0
39
0
210
0
220
0
230
1
0
ENDBLK
5
179
100
AcDbEntity
8
0
100
AcDbBlockEnd
0
BLOCK
5
17E
100
AcDbEntity
8
0
100
AcDbBlockBegin
2
*D10
70
1
10
0
20
0
30
0
3
*D10
0
LINE
5
180
100
AcDbEntity
8
0
62
256
6
ByLayer
370
-2
48
1
60
0
100
AcDbLine
10
2
20
2.5125
30
0
11
2
21
-21.92482
31
0
39
0
210
0
220
0
230
1
0
LINE
5
181
100
AcDbEntity
8
0
62
256
6
ByLayer
370
-2
48
1
60
0
100
AcDbLine
10
43
20
-1.5875
30
0
11
43
21
-21.92482
31
0
39
0
210
0
220
0
230
1
0
LINE
5
182
100
AcDbEntity
8
0
62
256
6
ByLayer
370
-2
48
1
60
0
100
AcDbLine
10
5.175
20
-18.74982
30
0
11
39.825
21
-18.74982
31
0
39
0
210
0
220
0
230
1
0
SOLID
5
183
100
AcDbEntity
8
0
62
256
6
ByLayer
370
-1
48
1
60
0
100
AcDbTrace
10
5.175
20
-18.220653
30
0
11
5.175
21
-19.278987
31
0
12
2
22
-18.74982
32
0
13
2
23
-18.74982
33
0
39
0
210
0
220
0
230
1
0
SOLID
5
184
100
AcDbEntity
8
0
62
256
6
ByLayer
370
-1
48
1
60
0
100
AcDbTrace
10
39.825
20
-19.278987
30
0
11
39.825
21
-18.220653
31
0
12
43
22
-18.74982
32
0
13
43
23
-18.74982
33
0
39
0
210
0
220
0
230
1
0
MTEXT
5
185
100
AcDbEntity
8
0
62
256
6
ByLayer
370
18
48
1
60
0
100
AcDbMText
10
22.5
20
-11.443319
30
0
210
0
220
0
230
1
1
\A1;41
40
3.50012
41
0
44
1
50
0
71
5
72
5
7
iso_b_vert
0
POINT
5
186
100
AcDbEntity
8
Defpoints
62
0
6
ByLayer
370
-1
48
1
60
0
100
AcDbPoint
10
2
20
4.1
30
0
39
0
210
0
220
0
230
1
50
360
0
POINT
5
187
100
AcDbEntity
8
Defpoints
62
0
6
ByLayer
370
-1
48
1
60
0
100
AcDbPoint
10
43
20
0
30
0
39
0
210
0
220
0
230
1
50
360
0
POINT
5
188
100
AcDbEntity
8
Defpoints
62
0
6
ByLayer
370
-1
48
1
60
0
100
AcDbPoint
10
43
20
-18.74982
30
0
39
0
210
0
220
0
230
1
50
360
0
ENDBLK
5
17F
100
AcDbEntity
8
0
100
AcDbBlockEnd
0
BLOCK
5
194
100
AcDbEntity
8
0
100
AcDbBlockBegin
2
_U4
70
0
10
0
20
0
30
0
3
_U4
0
MTEXT
5
18A
100
AcDbEntity
8
SK2
62
256
6
ByLayer
370
18
48
1
60
0
100
AcDbMText
10
17.523564
20
-17.717151
30
0
210
0
220
0
230
1
1
\W0.7091;41.00
40
3.50012
41
0
44
1.084337
50
0
71
7
72
5
7
iso_b_vert
0
LINE
5
18B
100
AcDbEntity
8
SK2
62
256
6
ByLayer
370
13
48
1
60
0
100
AcDbLine
10
2
20
2.5125
30
0
11
2
21
-21.92482
31
0
39
0
210
0
220
0
230
1
0
LINE
5
18C
100
AcDbEntity
8
SK2
62
256
6
ByLayer
370
13
48
1
60
0
100
AcDbLine
10
43
20
-1.5875
30
0
11
43
21
-21.92482
31
0
39
0
210
0
220
0
230
1
0
LINE
5
18D
100
AcDbEntity
8
SK2
62
256
6
ByLayer
370
13
48
1
60
0
100
AcDbLine
10
2
20
-18.74982
30
0
11
43
21
-18.74982
31
0
39
0
210
0
220
0
230
1
0
LINE
5
18E
100
AcDbEntity
8
SK2
62
256
6
ByLayer
370
13
48
1
60
0
100
AcDbLine
10
2
20
-18.74982
30
0
11
5.174998
21
-18.331823
31
0
39
0
210
0
220
0
230
1
0
LINE
5
18F
100
AcDbEntity
8
SK2
62
256
6
ByLayer
370
13
48
1
60
0
100
AcDbLine
10
2
20
-18.74982
30
0
11
5.175002
21
-19.167817
31
0
39
0
210
0
220
0
230
1
0
LINE
5
190
100
AcDbEntity
8
SK2
62
256
6
ByLayer
370
13
48
1
60
0
100
AcDbLine
10
5.174998
20
-18.331823
30
0
11
5.175002
21
-19.167817
31
0
39
0
210
0
220
0
230
1
0
LINE
5
191
100
AcDbEntity
8
SK2
62
256
6
ByLayer
370
13
48
1
60
0
100
AcDbLine
10
43
20
-18.74982
30
0
11
39.825002
21
-19.167817
31
0
39
0
210
0
220
0
230
1
0
LINE
5
192
100
AcDbEntity
8
SK2
62
256
6
ByLayer
370
13
48
1
60
0
100
AcDbLine
10
43
20
-18.74982
30
0
11
39.824998
21
-18.331823
31
0
39
0
210
0
220
0
230
1
0
LINE
5
193
100
AcDbEntity
8
SK2
62
256
6
ByLayer
370
13
48
1
60
0
100
AcDbLine
10
39.825002
20
-19.167817
30
0
11
39.824998
21
-18.331823
31
0
39
0
210
0
220
0
230
1
0
ENDBLK
5
195
100
AcDbEntity
8
0
100
AcDbBlockEnd
0
BLOCK
5
19A
100
AcDbEntity
8
0
100
AcDbBlockBegin
2
*D12
70
1
10
0
20
0
30
0
3
*D12
0
LINE
5
19C
100
AcDbEntity
8
0
62
256
6
ByLayer
370
-2
48
1
60
0
100
AcDbLine
10
20.1
20
-5.1875
30
0
11
20.1
21
-11.32
31
0
39
0
210
0
220
0
230
1
0
LINE
5
19D
100
AcDbEntity
8
0
62
256
6
ByLayer
370
-2
48
1
60
0
100
AcDbLine
10
43
20
-1.5875
30
0
11
43
21
-11.32
31
0
39
0
210
0
220
0
230
1
0
LINE
5
19E
100
AcDbEntity
8
0
62
256
6
ByLayer
370
-2
48
1
60
0
100
AcDbLine
10
23.275
20
-10.82
30
0
11
39.825
21
-10.82
31
0
39
0
210
0
220
0
230
1
0
SOLID
5
19F
100
AcDbEntity
8
0
62
256
6
ByLayer
370
-1
48
1
60
0
100
AcDbTrace
10
23.275
20
-10.290833
30
0
11
23.275
21
-11.349167
31
0
12
20.1
22
-10.82
32
0
13
20.1
23
-10.82
33
0
39
0
210
0
220
0
230
1
0
SOLID
5
1A0
100
AcDbEntity
8
0
62
256
6
ByLayer
370
-1
48
1
60
0
100
AcDbTrace
10
39.825
20
-11.349167
30
0
11
39.825
21
-10.290833
31
0
12
43
22
-10.82
32
0
13
43
23
-10.82
33
0
39
0
210
0
220
0
230
1
0
MTEXT
5
1A1
100
AcDbEntity
8
0
62
256
6
ByLayer
370
18
48
1
60
0
100
AcDbMText
10
31.55
20
-4.975
30
0
210
0
220
0
230
1
1
\A1;22.9
40
2.8
41
0
44
1
50
0
71
5
72
5
7
iso_b_vert
0
POINT
5
1A2
100
AcDbEntity
8
Defpoints
62
0
6
ByLayer
370
-1
48
1
60
0
100
AcDbPoint
10
20.1
20
-3.6
30
0
39
0
210
0
220
0
230
1
50
360
0
POINT
5
1A3
100
AcDbEntity
8
Defpoints
62
0
6
ByLayer
370
-1
48
1
60
0
100
AcDbPoint
10
43
20
0
30
0
39
0
210
0
220
0
230
1
50
360
0
POINT
5
1A4
100
AcDbEntity
8
Defpoints
62
0
6
ByLayer
370
-1
48
1
60
0
100
AcDbPoint
10
43
20
-10.82
30
0
39
0
210
0
220
0
230
1
50
360
0
ENDBLK
5
19B
100
AcDbEntity
8
0
100
AcDbBlockEnd
0
BLOCK
5
1B0
100
AcDbEntity
8
0
100
AcDbBlockBegin
2
_U5
70
0
10
0
20
0
30
0
3
_U5
0
MTEXT
5
1A6
100
AcDbEntity
8
SK2
62
256
6
ByLayer
370
18
48
1
60
0
100
AcDbMText
10
27.366454
20
-10.973893
30
0
210
0
220
0
230
1
1
\W0.7468;22.90
40
2.8
41
0
44
1.084337
50
0
71
7
72
5
7
iso_b_vert
0
LINE
5
1A7
100
AcDbEntity
8
SK2
62
256
6
ByLayer
370
13
48
1
60
0
100
AcDbLine
10
20.1
20
-5.1875
30
0
11
20.1
21
-11.32
31
0
39
0
210
0
220
0
230
1
0
LINE
5
1A8
100
AcDbEntity
8
SK2
62
256
6
ByLayer
370
13
48
1
60
0
100
AcDbLine
10
43
20
-1.5875
30
0
11
43
21
-11.32
31
0
39
0
210
0
220
0
230
1
0
LINE
5
1A9
100
AcDbEntity
8
SK2
62
256
6
ByLayer
370
13
48
1
60
0
100
AcDbLine
10
20.1
20
-10.82
30
0
11
43
21
-10.82
31
0
39
0
210
0
220
0
230
1
0
LINE
5
1AA
100
AcDbEntity
8
SK2
62
256
6
ByLayer
370
13
48
1
60
0
100
AcDbLine
10
20.1
20
-10.82
30
0
11
23.274998
21
-10.402003
31
0
39
0
210
0
220
0
230
1
0
LINE
5
1AB
100
AcDbEntity
8
SK2
62
256
6
ByLayer
370
13
48
1
60
0
100
AcDbLine
10
20.1
20
-10.82
30
0
11
23.275002
21
-11.237997
31
0
39
0
210
0
220
0
230
1
0
LINE
5
1AC
100
AcDbEntity
8
SK2
62
256
6
ByLayer
370
13
48
1
60
0
100
AcDbLine
10
23.274998
20
-10.402003
30
0
11
23.275002
21
-11.237997
31
0
39
0
210
0
220
0
230
1
0
LINE
5
1AD
100
AcDbEntity
8
SK2
62
256
6
ByLayer
370
13
48
1
60
0
100
AcDbLine
10
43
20
-10.82
30
0
11
39.825002
21
-11.237997
31
0
39
0
210
0
220
0
230
1
0
LINE
5
1AE
100
AcDbEntity
8
SK2
62
256
6
ByLayer
370
13
48
1
60
0
100
AcDbLine
10
43
20
-10.82
30
0
11
39.824998
21
-10.402003
31
0
39
0
210
0
220
0
230
1
0
LINE
5
1AF
100
AcDbEntity
8
SK2
62
256
6
ByLayer
370
13
48
1
60
0
100
AcDbLine
10
39.825002
20
-11.237997
30
0
11
39.824998
21
-10.402003
31
0
39
0
210
0
220
0
230
1
0
ENDBLK
5
1B1
100
AcDbEntity
8
0
100
AcDbBlockEnd
0
BLOCK
5
1B6
100
AcDbEntity
8
0
100
AcDbBlockBegin
2
*D14
70
1
10
0
20
0
30
0
3
*D14
0
LINE
5
1B8
100
AcDbEntity
8
0
62
256
6
ByLayer
370
-2
48
1
60
0
100
AcDbLine
10
-36
20
-1.5875
30
0
11
-36
21
-40.67512
31
0
39
0
210
0
220
0
230
1
0
LINE
5
1B9
100
AcDbEntity
8
0
62
256
6
ByLayer
370
-2
48
1
60
0
100
AcDbLine
10
43
20
-1.5875
30
0
11
43
21
-40.67512
31
0
39
0
210
0
220
0
230
1
0
LINE
5
1BA
100
AcDbEntity
8
0
62
256
6
ByLayer
370
-2
48
1
60
0
100
AcDbLine
10
-32.825
20
-37.50012
30
0
11
39.825
21
-37.50012
31
0
39
0
210
0
220
0
230
1
0
SOLID
5
1BB
100
AcDbEntity
8
0
62
256
6
ByLayer
370
-1
48
1
60
0
100
AcDbTrace
10
-32.825
20
-36.970953
30
0
11
-32.825
21
-38.029287
31
0
12
-36
22
-37.50012
32
0
13
-36
23
-37.50012
33
0
39
0
210
0
220
0
230
1
0
SOLID
5
1BC
100
AcDbEntity
8
0
62
256
6
ByLayer
370
-1
48
1
60
0
100
AcDbTrace
10
39.825
20
-38.029287
30
0
11
39.825
21
-36.970953
31
0
12
43
22
-37.50012
32
0
13
43
23
-37.50012
33
0
39
0
210
0
220
0
230
1
0
MTEXT
5
1BD
100
AcDbEntity
8
0
62
256
6
ByLayer
370
18
48
1
60
0
100
AcDbMText
10
3.5
20
-30.193619
30
0
210
0
220
0
230
1
1
\A1;79
40
3.50012
41
0
44
1
50
0
71
5
72
5
7
iso_b_vert
0
POINT
5
1BE
100
AcDbEntity
8
Defpoints
62
0
6
ByLayer
370
-1
48
1
60
0
100
AcDbPoint
10
-36
20
0
30
0
39
0
210
0
220
0
230
1
50
360
0
POINT
5
1BF
100
AcDbEntity
8
Defpoints
62
0
6
ByLayer
370
-1
48
1
60
0
100
AcDbPoint
10
43
20
0
30
0
39
0
210
0
220
0
230
1
50
360
0
POINT
5
1C0
100
AcDbEntity
8
Defpoints
62
0
6
ByLayer
370
-1
48
1
60
0
100
AcDbPoint
10
43
20
-37.50012
30
0
39
0
210
0
220
0
230
1
50
360
0
ENDBLK
5
1B7
100
AcDbEntity
8
0
100
AcDbBlockEnd
0
BLOCK
5
1CC
100
AcDbEntity
8
0
100
AcDbBlockBegin
2
_U6
70
0
10
0
20
0
30
0
3
_U6
0
MTEXT
5
1C2
100
AcDbEntity
8
SK2
62
256
6
ByLayer
370
18
48
1
60
0
100
AcDbMText
10
-1.729611
20
-36.467451
30
0
210
0
220
0
230
1
1
\W0.7468;79.00
40
3.50012
41
0
44
1.084337
50
0
71
7
72
5
7
iso_b_vert
0
LINE
5
1C3
100
AcDbEntity
8
SK2
62
256
6
ByLayer
370
13
48
1
60
0
100
AcDbLine
10
-36
20
-1.5875
30
0
11
-36
21
-40.67512
31
0
39
0
210
0
220
0
230
1
0
LINE
5
1C4
100
AcDbEntity
8
SK2
62
256
6
ByLayer
370
13
48
1
60
0
100
AcDbLine
10
43
20
-1.5875
30
0
11
43
21
-40.67512
31
0
39
0
210
0
220
0
230
1
0
LINE
5
1C5
100
AcDbEntity
8
SK2
62
256
6
ByLayer
370
13
48
1
60
0
100
AcDbLine
10
-36
20
-37.50012
30
0
11
43
21
-37.50012
31
0
39
0
210
0
220
0
230
1
0
LINE
5
1C6
100
AcDbEntity
8
SK2
62
256
6
ByLayer
370
13
48
1
60
0
100
AcDbLine
10
-36
20
-37.50012
30
0
11
-32.825002
21
-37.082123
31
0
39
0
210
0
220
0
230
1
0
LINE
5
1C7
100
AcDbEntity
8
SK2
62
256
6
ByLayer
370
13
48
1
60
0
100
AcDbLine
10
-36
20
-37.50012
30
0
11
-32.824998
21
-37.918117
31
0
39
0
210
0
220
0
230
1
0
LINE
5
1C8
100
AcDbEntity
8
SK2
62
256
6
ByLayer
370
13
48
1
60
0
100
AcDbLine
10
-32.825002
20
-37.082123
30
0
11
-32.824998
21
-37.918117
31
0
39
0
210
0
220
0
230
1
0
LINE
5
1C9
100
AcDbEntity
8
SK2
62
256
6
ByLayer
370
13
48
1
60
0
100
AcDbLine
10
43
20
-37.50012
30
0
11
39.825002
21
-37.918117
31
0
39
0
210
0
220
0
230
1
0
LINE
5
1CA
100
AcDbEntity
8
SK2
62
256
6
ByLayer
370
13
48
1
60
0
100
AcDbLine
10
43
20
-37.50012
30
0
11
39.824998
21
-37.082123
31
0
39
0
210
0
220
0
230
1
0
LINE
5
1CB
100
AcDbEntity
8
SK2
62
256
6
ByLayer
370
13
48
1
60
0
100
AcDbLine
10
39.825002
20
-37.918117
30
0
11
39.824998
21
-37.082123
31
0
39
0
210
0
220
0
230
1
0
ENDBLK
5
1CD
100
AcDbEntity
8
0
100
AcDbBlockEnd
0
ENDSEC
0
SECTION
2
ENTITIES
0
ARC
5
AD
100
AcDbEntity
8
1
62
256
6
ByLayer
370
18
48
1
60
0
100
AcDbCircle
39
0
10
1.086399
20
4.374622
30
0
40
0.799999999999999
210
0
220
0
230
1
100
AcDbArc
50
227.234493
51
270.03581
0
ARC
5
AE
100
AcDbEntity
8
1
62
256
6
ByLayer
370
18
48
1
60
0
100
AcDbCircle
39
0
10
1.086399
20
-4.374622
30
0
40
0.799999999999999
210
0
220
0
230
1
100
AcDbArc
50
89.96419
51
132.765507
0
ARC
5
AF
100
AcDbEntity
8
1
62
256
6
ByLayer
370
18
48
1
60
0
100
AcDbCircle
39
0
10
0
20
3.2
30
0
40
0.800000000000004
210
0
220
0
230
1
100
AcDbArc
50
47.234493
51
90
0
ARC
5
B0
100
AcDbEntity
8
1
62
256
6
ByLayer
370
18
48
1
60
0
100
AcDbCircle
39
0
10
0
20
-3.2
30
0
40
0.800000000000004
210
0
220
0
230
1
100
AcDbArc
50
270
51
312.765507
0
ARC
5
B1
100
AcDbEntity
8
SK2
62
256
6
ByLayer
370
13
48
1
60
0
100
AcDbCircle
39
0
10
43
20
0
30
0
40
20
210
0
220
0
230
1
100
AcDbArc
50
9.606349
51
69.999899
0
ARC
5
B2
100
AcDbEntity
8
SK2
62
256
6
ByLayer
370
13
48
1
60
0
100
AcDbCircle
39
0
10
43
20
0
30
0
40
20
210
0
220
0
230
1
100
AcDbArc
50
290.000101
51
350.393651
0
ELLIPSE
5
B3
100
AcDbEntity
8
1
62
256
6
ByLayer
370
18
48
1
60
0
100
AcDbEllipse
10
3.601703
20
3.496471
30
0
11
-0.1
21
1.22460635382238E-17
31
0
210
0
220
0
230
1
40
1
41
0.00104684426732999
42
1.57423237360218
0
ELLIPSE
5
B4
100
AcDbEntity
8
1
62
256
6
ByLayer
370
18
48
1
60
0
100
AcDbEllipse
10
3.601703
20
-3.496471
30
0
11
-0.1
21
1.22460635382238E-17
31
0
210
0
220
0
230
1
40
1
41
-1.5723505613494
42
-0.00104684426735219
0
POINT
5
70
100
AcDbEntity
8
80
62
256
6
ByLayer
370
18
48
1
60
0
100
AcDbPoint
10
0
20
0
30
0
39
0
210
0
220
0
230
1
50
360
0
POINT
5
72
100
AcDbEntity
8
81
62
256
6
ByLayer
370
18
48
1
60
0
100
AcDbPoint
10
43
20
0
30
0
39
0
210
0
220
0
230
1
50
360
0
POINT
5
74
100
AcDbEntity
8
1
62
256
6
ByLayer
370
18
48
1
60
0
100
AcDbPoint
10
-36
20
0
30
0
39
0
210
0
220
0
230
1
50
360
0
POINT
5
76
100
AcDbEntity
8
1
62
256
6
ByLayer
370
18
48
1
60
1
100
AcDbPoint
10
0
20
-4
30
0
39
0
210
0
220
0
230
1
50
360
0
POINT
5
77
100
AcDbEntity
8
1
62
256
6
ByLayer
370
18
48
1
60
1
100
AcDbPoint
10
43
20
0
30
0
39
0
210
0
220
0
230
1
50
360
0
POINT
5
78
100
AcDbEntity
8
1
62
256
6
ByLayer
370
18
48
1
60
1
100
AcDbPoint
10
41.6897
20
-3.6
30
0
39
0
210
0
220
0
230
1
50
360
0
POINT
5
79
100
AcDbEntity
8
1
62
256
6
ByLayer
370
18
48
1
60
1
100
AcDbPoint
10
41.6897
20
3.6
30
0
39
0
210
0
220
0
230
1
50
360
0
POINT
5
7A
100
AcDbEntity
8
1
62
256
6
ByLayer
370
18
48
1
60
1
100
AcDbPoint
10
-36
20
4
30
0
39
0
210
0
220
0
230
1
50
360
0
POINT
5
7B
100
AcDbEntity
8
1
62
256
6
ByLayer
370
18
48
1
60
1
100
AcDbPoint
10
-36
20
-4
30
0
39
0
210
0
220
0
230
1
50
360
0
POINT
5
7C
100
AcDbEntity
8
1
62
256
6
ByLayer
370
18
48
1
60
1
100
AcDbPoint
10
-36
20
-4
30
0
39
0
210
0
220
0
230
1
50
360
0
POINT
5
7D
100
AcDbEntity
8
1
62
256
6
ByLayer
370
18
48
1
60
1
100
AcDbPoint
10
0
20
-4
30
0
39
0
210
0
220
0
230
1
50
360
0
POINT
5
7E
100
AcDbEntity
8
1
62
256
6
ByLayer
370
18
48
1
60
1
100
AcDbPoint
10
2
20
4.1
30
0
39
0
210
0
220
0
230
1
50
360
0
POINT
5
7F
100
AcDbEntity
8
1
62
256
6
ByLayer
370
18
48
1
60
1
100
AcDbPoint
10
43
20
0
30
0
39
0
210
0
220
0
230
1
50
360
0
POINT
5
80
100
AcDbEntity
8
1
62
256
6
ByLayer
370
18
48
1
60
1
100
AcDbPoint
10
20.1
20
-3.6
30
0
39
0
210
0
220
0
230
1
50
360
0
POINT
5
81
100
AcDbEntity
8
1
62
256
6
ByLayer
370
18
48
1
60
1
100
AcDbPoint
10
43
20
0
30
0
39
0
210
0
220
0
230
1
50
360
0
POINT
5
82
100
AcDbEntity
8
1
62
256
6
ByLayer
370
18
48
1
60
1
100
AcDbPoint
10
-36
20
0
30
0
39
0
210
0
220
0
230
1
50
360
0
POINT
5
83
100
AcDbEntity
8
1
62
256
6
ByLayer
370
18
48
1
60
1
100
AcDbPoint
10
43
20
0
30
0
39
0
210
0
220
0
230
1
50
360
0
SPLINE
5
B5
100
AcDbEntity
8
1
62
256
6
ByLayer
370
18
48
1
60
0
100
AcDbSpline
70
4
71
3
72
22
73
18
40
0
40
0
40
0
40
0
40
0.0892528394352066
40
0.0892528394352066
40
0.316939629576406
40
0.316939629576406
40
0.430783024647005
40
0.430783024647005
40
0.544626419717605
40
0.544626419717605
40
0.772313209858804
40
0.772313209858804
40
0.886156604929402
40
0.886156604929402
40
0.943078302464701
40
0.943078302464701
40
1
40
1
40
1
40
1
41
1
10
31.2707633112861
20
0.247643227758772
30
0
41
1
10
31.580639723196
20
0.0952154225838626
30
0
41
1
10
31.8898770249699
20
-0.0576636947807856
30
0
41
1
10
32.9877122650502
20
-0.597985290461907
30
0
41
1
10
33.7756204528536
20
-0.982021531056176
30
1E-16
41
1
10
34.9698416897748
20
-1.52395389483573
30
1E-16
41
1
10
35.3709768893426
20
-1.69935266927777
30
1E-16
41
1
10
36.1662698409352
20
-2.02851996526795
30
1E-16
41
1
10
36.5619575702884
20
-2.18310864301358
30
1E-16
41
1
10
37.7465695138385
20
-2.61202466808197
30
2E-16
41
1
10
38.5328143355566
20
-2.85120646446734
30
0
41
1
10
39.7206152439453
20
-3.12281249377043
30
0
41
1
10
40.1179260083593
20
-3.19886809497692
30
0
41
1
10
40.7176111574973
20
-3.28896504811817
30
0
41
1
10
40.9176629868752
20
-3.31492259860679
30
0
41
1
10
41.3173339734915
20
-3.35837544185281
30
0
41
1
10
41.5170958753058
20
-3.37555922105909
30
0
41
1
10
41.716976024278
20
-3.38914940404666
30
0
0
SPLINE
5
B6
100
AcDbEntity
8
1
62
256
6
ByLayer
370
18
48
1
60
0
100
AcDbSpline
70
4
71
3
72
8
73
4
40
0
40
0
40
0
40
0
40
1
40
1
40
1
40
1
41
1
10
42.6755303848468
20
-1.13449493588402
30
0
41
1
10
42.7855975464516
20
-0.823660841420377
30
0
41
1
10
42.89266283395
20
-0.511752580831399
30
0
41
1
10
42.9966802024255
20
-0.198753677780104
30
0
0
SPLINE
5
B7
100
AcDbEntity
8
1
62
256
6
ByLayer
370
18
48
1
60
0
100
AcDbSpline
70
4
71
3
72
30
73
26
40
0
40
0
40
0
40
0
40
0.114751286276715
40
0.114751286276715
40
0.22950257255343
40
0.22950257255343
40
0.286878215691789
40
0.286878215691789
40
0.344253858830148
40
0.344253858830148
40
0.401629501968508
40
0.401629501968508
40
0.459005145106867
40
0.459005145106867
40
0.573756431383582
40
0.573756431383582
40
0.688507717660297
40
0.688507717660297
40
0.803259003937012
40
0.803259003937012
40
0.918010290213727
40
0.918010290213727
40
0.975385933352084
40
0.975385933352084
40
1
40
1
40
1
40
1
41
1
10
41.2102203574502
20
0.538972920978892
30
0
41
1
10
40.8338982640023
20
0.732919185817565
30
0
41
1
10
40.4587422526529
20
0.922708709053722
30
-1E-16
41
1
10
39.7101800438177
20
1.29312653809109
30
-1E-16
41
1
10
39.3368192685249
20
1.4737725010512
30
-1E-16
41
1
10
38.7753548915796
20
1.73285875096667
30
-1E-16
41
1
10
38.5879787291071
20
1.81728469259781
30
-1E-16
41
1
10
38.2132165774657
20
1.98296681561521
30
-1E-16
41
1
10
38.0256446568324
20
2.06389867497748
30
-1E-16
41
1
10
37.6495947536554
20
2.22104878867378
30
-1E-16
41
1
10
37.4611276892239
20
2.29728773986219
30
-1E-16
41
1
10
37.0830584535317
20
2.44467494591569
30
-1E-16
41
1
10
36.8931053566466
20
2.51602291206325
30
-2E-16
41
1
10
36.3257517206661
20
2.72143521051478
30
-2E-16
41
1
10
35.9495634576247
20
2.84573776740001
30
-2E-16
41
1
10
35.1988355147398
20
3.06703831848702
30
0
41
1
10
34.8250817184586
20
3.16485927869979
30
0
41
1
10
34.0770117442751
20
3.33120862172606
30
0
41
1
10
33.7027504127376
20
3.39993657373526
30
0
41
1
10
32.9531478083386
20
3.50772567301956
30
0
41
1
10
32.5770907617943
20
3.54634376268413
30
0
41
1
10
32.0099095237454
20
3.5805623387833
30
0
41
1
10
31.8201815516539
20
3.58805217568724
30
0
41
1
10
31.5498635991283
20
3.59288922290432
30
0
41
1
10
31.4688050841694
20
3.59359424658689
30
0
41
1
10
31.3878256955499
20
3.59355953235357
30
0
0
SPLINE
5
B8
100
AcDbEntity
8
1
62
256
6
ByLayer
370
18
48
1
60
0
100
AcDbSpline
70
4
71
3
72
28
73
24
40
0
40
0
40
0
40
0
40
0.0619114190689221
40
0.0619114190689221
40
0.179172491685307
40
0.179172491685307
40
0.296433564301692
40
0.296433564301692
40
0.355064100609884
40
0.355064100609884
40
0.413694636918077
40
0.413694636918077
40
0.530955709534463
40
0.530955709534463
40
0.648216782150849
40
0.648216782150849
40
0.706847318459042
40
0.706847318459042
40
0.765477854767234
40
0.765477854767234
40
0.882738927383617
40
0.882738927383617
40
1
40
1
40
1
40
1
41
1
10
14.7464007510149
20
-2.65547282557188
30
2E-16
41
1
10
14.5484774355823
20
-2.72412598047887
30
2E-16
41
1
10
14.3507800639633
20
-2.78946087579544
30
2E-16
41
1
10
13.7791768880358
20
-2.96882120639262
30
2E-16
41
1
10
13.4050276801784
20
-3.0732437424125
30
0
41
1
10
12.6549739819333
20
-3.25456985594843
30
0
41
1
10
12.2797669017547
20
-3.33200039619794
30
0
41
1
10
11.7133296068394
20
-3.42515637931672
30
0
41
1
10
11.5238807310384
20
-3.45243543867929
30
0
41
1
10
11.1442683928822
20
-3.49943978202279
30
0
41
1
10
10.9552436428212
20
-3.51902291880998
30
0
41
1
10
10.3892176699258
20
-3.56562150234356
30
0
41
1
10
10.0131458073479
20
-3.58063821095041
30
0
41
1
10
9.26364724188426
20
-3.57927661025036
30
0
41
1
10
8.88978388992206
20
-3.56272776968103
30
0
41
1
10
8.32802901999244
20
-3.51480088328336
30
0
41
1
10
8.14066674456643
20
-3.49498800545982
30
0
41
1
10
7.76602482320791
20
-3.44744898392011
30
0
41
1
10
7.57853848390278
20
-3.41980057368329
30
0
41
1
10
7.01480232626602
20
-3.32562665450749
30
0
41
1
10
6.63741987848246
20
-3.24789529735585
30
0
41
1
10
5.87899310097782
20
-3.06181178871861
30
0
41
1
10
5.49949014219391
20
-2.95472636858509
30
2E-16
41
1
10
5.11917797165842
20
-2.83551782938434
30
2E-16
0
SPLINE
5
B9
100
AcDbEntity
8
1
62
256
6
ByLayer
370
18
48
1
60
0
100
AcDbSpline
70
4
71
3
72
8
73
4
40
0
40
0
40
0
40
0
40
1
40
1
40
1
40
1
41
1
10
41.2121029512991
20
0.0347900003069412
30
0
41
1
10
41.2413655217682
20
0.0189532652792366
30
0
41
1
10
41.2704358675483
20
0.0039382632901948
30
0
41
1
10
41.2993469948078
20
-0.0102750598910575
30
0
0
SPLINE
5
BA
100
AcDbEntity
8
1
62
256
6
ByLayer
370
18
48
1
60
0
100
AcDbSpline
70
4
71
3
72
8
73
4
40
0
40
0
40
0
40
0
40
1
40
1
40
1
40
1
41
1
10
42.9966802024217
20
0.198753677767598
30
0
41
1
10
42.9811300747263
20
0.146923897753737
30
0
41
1
10
42.9655024970705
20
0.0951187010311685
30
0
41
1
10
42.9497977622078
20
0.0433379946773869
30
0
0
SPLINE
5
BB
100
AcDbEntity
8
1
62
256
6
ByLayer
370
18
48
1
60
0
100
AcDbSpline
70
4
71
3
72
10
73
6
40
0
40
0
40
0
40
0
40
0.5
40
0.5
40
1
40
1
40
1
40
1
41
1
10
3.50170251555991
20
-2.74048042394455
30
2E-16
41
1
10
3.50170251555994
20
-2.71829923675514
30
2E-16
41
1
10
3.52041573914897
20
-2.69655490706973
30
2E-16
41
1
10
3.57933425683228
20
-2.67299550806354
30
2E-16
41
1
10
3.61729731447807
20
-2.67216770967906
30
2E-16
41
1
10
3.64791531512176
20
-2.68273269003799
30
2E-16
0
SPLINE
5
BC
100
AcDbEntity
8
1
62
256
6
ByLayer
370
18
48
1
60
0
100
AcDbSpline
70
4
71
3
72
20
73
16
40
0
40
0
40
0
40
0
40
0.250000000000003
40
0.250000000000003
40
0.500000000000007
40
0.500000000000007
40
0.562500000000008
40
0.562500000000008
40
0.625000000000009
40
0.625000000000009
40
0.750000000000006
40
0.750000000000006
40
0.875000000000003
40
0.875000000000003
40
1
40
1
40
1
40
1
41
1
10
41.7498885891399
20
-3.45100294146772
30
0
41
1
10
41.8204730909868
20
-3.25273814400518
30
0
41
1
10
41.890430184014
20
-3.05307992339934
30
0
41
1
10
42.0312512074367
20
-2.65290219358576
30
0
41
1
10
42.1021002966329
20
-2.45248141126697
30
0
41
1
10
42.1918998390418
20
-2.20242481121585
30
0
41
1
10
42.2098161659005
20
-2.15239420921674
30
0
41
1
10
42.2464123349192
20
-2.05269368149598
30
0
41
1
10
42.2651057584775
20
-2.00299564958658
30
0
41
1
10
42.3225433185627
20
-1.85472322526149
30
0
41
1
10
42.3621474138557
20
-1.75823725576754
30
0
41
1
10
42.445001176567
20
-1.57036764189573
30
0
41
1
10
42.4882522845843
20
-1.47898383697657
30
0
41
1
10
42.5791502203519
20
-1.30144593604979
30
0
41
1
10
42.6267702126849
20
-1.2155324762667
30
0
41
1
10
42.6755303848468
20
-1.13449493588402
30
0
0
SPLINE
5
BD
100
AcDbEntity
8
1
62
256
6
ByLayer
370
18
48
1
60
0
100
AcDbSpline
70
4
71
3
72
12
73
8
40
0
40
0
40
0
40
0
40
0.448732306927945
40
0.448732306927945
40
0.897464613855889
40
0.897464613855889
40
1
40
1
40
1
40
1
41
1
10
16.4
20
-3.13562458124781
30
0
41
1
10
16.9250394727005
20
-3.26755075147128
30
0
41
1
10
17.4489601318547
20
-3.37218237105407
30
0
41
1
10
18.4971137171546
20
-3.5220084383069
30
0
41
1
10
19.0223244541396
20
-3.56722354952626
30
0
41
1
10
19.6659387075482
20
-3.58470293580265
30
0
41
1
10
19.7856430127373
20
-3.58634752730614
30
0
41
1
10
19.9053751565952
20
-3.58638258440249
30
0
0
SPLINE
5
BE
100
AcDbEntity
8
1
62
256
6
ByLayer
370
18
48
1
60
0
100
AcDbSpline
70
4
71
3
72
8
73
4
40
0
40
0
40
0
40
0
40
1
40
1
40
1
40
1
41
1
10
40.7287782707277
20
3.56733191635075
30
0
41
1
10
40.9942973956161
20
3.58587942756631
30
0
41
1
10
41.2601123064306
20
3.59658812542023
30
0
41
1
10
41.5265830893437
20
3.5992931745146
30
0
0
SPLINE
5
BF
100
AcDbEntity
8
1
62
256
6
ByLayer
370
18
48
1
60
0
100
AcDbSpline
70
4
71
3
72
48
73
44
40
0
40
0
40
0
40
0
40
0.0624999999999994
40
0.0624999999999994
40
0.124999999999999
40
0.124999999999999
40
0.156249999999999
40
0.156249999999999
40
0.187499999999999
40
0.187499999999999
40
0.249999999999999
40
0.249999999999999
40
0.281249999999999
40
0.281249999999999
40
0.312499999999998
40
0.312499999999998
40
0.343749999999998
40
0.343749999999998
40
0.374999999999998
40
0.374999999999998
40
0.437499999999998
40
0.437499999999998
40
0.499999999999998
40
0.499999999999998
40
0.562499999999998
40
0.562499999999998
40
0.624999999999998
40
0.624999999999998
40
0.656249999999999
40
0.656249999999999
40
0.6875
40
0.6875
40
0.75
40
0.75
40
0.78125
40
0.78125
40
0.8125
40
0.8125
40
0.84375
40
0.84375
40
0.875
40
0.875
40
1
40
1
40
1
40
1
41
1
10
16.4
20
3.13562458124781
30
0
41
1
10
16.9250394727005
20
3.26755075147125
30
0
41
1
10
17.4489601318547
20
3.37218237105407
30
0
41
1
10
18.4971137171545
20
3.5220084383069
30
0
41
1
10
19.0223244541394
20
3.56722354952623
30
0
41
1
10
19.8081781664102
20
3.58856589942107
30
0
41
1
10
20.0700936202557
20
3.58798756927436
30
0
41
1
10
20.5945929127616
20
3.57138371935713
30
0
41
1
10
20.857112081941
20
3.55533502064017
30
0
41
1
10
21.6427410347921
20
3.4845561658154
30
0
41
1
10
22.1653194249477
20
3.4072044279003
30
0
41
1
10
22.9514160675466
20
3.24811662823962
30
0
41
1
10
23.2141107502872
20
3.18781421620696
30
0
41
1
10
23.7381225391697
20
3.05402695130294
30
0
41
1
10
23.9997138396258
20
2.98050273203094
30
-2E-16
41
1
10
24.5228067924727
20
2.82101856409071
30
-2E-16
41
1
10
24.7843093406148
20
2.73505971787648
30
-2E-16
41
1
10
25.3079631702362
20
2.55157621544268
30
-2E-16
41
1
10
25.5704912850644
20
2.45390452198103
30
-2E-16
41
1
10
26.3569505220378
20
2.14608479158957
30
-1E-16
41
1
10
26.8793719064479
20
1.92127962270212
30
-1E-16
41
1
10
27.9261711013293
20
1.44177089225144
30
-1E-16
41
1
10
28.4514489820811
20
1.1866420811354
30
-1E-16
41
1
10
29.4979676521144
20
0.662392527069926
30
0
41
1
10
30.0204720485703
20
0.39255382908749
30
0
41
1
10
31.0696604242052
20
-0.151757796394605
30
0
41
1
10
31.5926015940012
20
-0.424168466867769
30
0
41
1
10
32.377235849047
20
-0.823826424542744
30
1E-16
41
1
10
32.6389072217833
20
-0.955608255813274
30
1E-16
41
1
10
33.1631743437393
20
-1.21501646719429
30
1E-16
41
1
10
33.4256280030904
20
-1.34258118591745
30
1E-16
41
1
10
34.2108654343842
20
-1.7150215661899
30
1E-16
41
1
10
34.733004047562
20
-1.95035699027792
30
1E-16
41
1
10
35.5186749712797
20
-2.27635389232304
30
1E-16
41
1
10
35.7812232661906
20
-2.38059895907745
30
1E-16
41
1
10
36.3049561310887
20
-2.57785871575496
30
2E-16
41
1
10
36.566457106631
20
-2.67101838297975
30
2E-16
41
1
10
37.0893839445082
20
-2.84558031314978
30
2E-16
41
1
10
37.3508087343933
20
-2.92698235127668
30
2E-16
41
1
10
37.8742922519985
20
-3.07714684406727
30
0
41
1
10
38.1368320657727
20
-3.14601165952894
30
0
41
1
10
39.4456625801295
20
-3.45485699580368
30
0
41
1
10
40.4810745348488
20
-3.58867980843516
30
0
41
1
10
41.5265830893422
20
-3.5992931745146
30
0
0
SPLINE
5
C0
100
AcDbEntity
8
1
62
256
6
ByLayer
370
18
48
1
60
0
100
AcDbSpline
70
4
71
3
72
18
73
14
40
0
40
0
40
0
40
0
40
0.249999999999999
40
0.249999999999999
40
0.499999999999997
40
0.499999999999997
40
0.562499999999997
40
0.562499999999997
40
0.624999999999998
40
0.624999999999998
40
0.749999999999998
40
0.749999999999998
40
1
40
1
40
1
40
1
41
1
10
7.11181502628062
20
0.927719209701422
30
-1E-16
41
1
10
7.89360109799088
20
0.537447002717727
30
0
41
1
10
8.66537255928063
20
0.134368847936457
30
0
41
1
10
10.2072812865632
20
-0.661042264688405
30
0
41
1
10
10.9773371816262
20
-1.05354049232829
30
1E-16
41
1
10
11.949927681874
20
-1.51578948028387
30
1E-16
41
1
10
12.1453189132616
20
-1.60699581100548
30
1E-16
41
1
10
12.5355901237594
20
-1.78499509436583
30
1E-16
41
1
10
12.7301412538732
20
-1.87169111104402
30
1E-16
41
1
10
13.3124260624204
20
-2.12434112651508
30
1E-16
41
1
10
13.6987565759329
20
-2.28289726336223
30
1E-16
41
1
10
14.8560163986919
20
-2.7235504637996
30
2E-16
41
1
10
15.6248063785765
20
-2.97119109807238
30
2E-16
41
1
10
16.4000000000122
20
-3.16086771332553
30
0
0
SPLINE
5
C1
100
AcDbEntity
8
1
62
256
6
ByLayer
370
18
48
1
60
0
100
AcDbSpline
70
4
71
3
72
59
73
55
40
0
40
0
40
0
40
0
40
0.0171839331484887
40
0.0171839331484887
40
0.0360041208868031
40
0.0360041208868031
40
0.0548243086251176
40
0.0548243086251176
40
0.073644496363432
40
0.073644496363432
40
0.0783495432980107
40
0.0783495432980107
40
0.0789376741648329
40
0.0789376741648329
40
0.0792317395982442
40
0.0792317395982442
40
0.0795258050316553
40
0.0807020667653
40
0.0807020667653
40
0.0830545902325894
40
0.0830545902325894
40
0.0924646841017475
40
0.0924646841017475
40
0.111284871840063
40
0.111284871840063
40
0.148925247316695
40
0.148925247316695
40
0.224205998269958
40
0.224205998269958
40
0.374767500176485
40
0.374767500176485
40
0.450048251129748
40
0.450048251129748
40
0.48768862660638
40
0.48768862660638
40
0.506508814344695
40
0.506508814344695
40
0.511213861279274
40
0.511213861279274
40
0.513566384746564
40
0.513566384746564
40
0.514742646480209
40
0.514742646480209
40
0.515330777347031
40
0.515330777347031
40
0.515624842780443
40
0.515624842780443
40
0.515771875497148
40
0.515771875497148
40
0.515918908213854
40
0.525329002083016
40
0.826452005896218
40
0.826452005896218
40
1
40
1
40
1
40
1
41
1
10
6.97477212114214
20
0.991468321492647
30
-1E-16
41
1
10
6.94627238638134
20
0.999714801981838
30
-1E-16
41
1
10
6.91714845128342
20
1.00529313751184
30
-1E-16
41
1
10
6.85329491768604
20
1.01198981623631
30
-1E-16
41
1
10
6.81780896903712
20
1.01284051723476
30
-1E-16
41
1
10
6.74377779889412
20
1.00869380253926
30
-1E-16
41
1
10
6.70563830322195
20
1.003556107577
30
-1E-16
41
1
10
6.62519908312058
20
0.988290387834809
30
-1E-16
41
1
10
6.58310035296716
20
0.978084863670148
30
-1E-16
41
1
10
6.52866151674721
20
0.961902588843827
30
-1E-16
41
1
10
6.51768249670397
20
0.958494772654802
30
-1E-16
41
1
10
6.50523494794487
20
0.954465002206291
30
-1E-16
41
1
10
6.50342024682948
20
0.954197984281365
30
-1E-16
41
1
10
6.50202616157833
20
0.9532263783791
30
-1E-16
41
1
10
6.50367967931595
20
0.952349399085307
30
-1E-16
41
1
10
6.50588178971645
20
0.951070383214244
30
-1E-16
41
1
10
6.51168250194834
20
0.947925874430183
30
-1E-16
41
1
10
6.51783408184698
20
0.944849702180278
30
-1E-16
41
1
10
6.53259381298824
20
0.937486772035015
30
-1E-16
41
1
10
6.54257038028373
20
0.932614208027672
30
-1E-16
41
1
10
6.59255539878492
20
0.908279425308933
30
-1E-16
41
1
10
6.63292397574492
20
0.888904527068831
30
-1E-16
41
1
10
6.754024199399
20
0.830676000577768
30
-1E-16
41
1
10
6.83496315149165
20
0.79179632371816
30
0
41
1
10
7.07782133083003
20
0.674766072748383
30
0
41
1
10
7.23985267470653
20
0.596237007163978
30
0
41
1
10
7.72601423865586
20
0.359102414216494
30
0
41
1
10
8.05033241856057
20
0.199038560839881
30
0
41
1
10
9.02255703789692
20
-0.288124410904885
30
0
41
1
10
9.66992677170657
20
-0.62249644995174
30
0
41
1
10
10.6409033792062
20
-1.13553461130073
30
0
41
1
10
10.9646292307793
20
-1.30832728573915
30
0
41
1
10
11.4496866884552
20
-1.57121624537359
30
0
41
1
10
11.6113127425661
20
-1.65941389631362
30
0
41
1
10
11.8535245555435
20
-1.79274526380342
30
0
41
1
10
11.9342698557718
20
-1.83728331402807
30
0
41
1
10
12.0347724886076
20
-1.89386989411264
30
0
41
1
10
12.0548512594775
20
-1.90523333544215
30
0
41
1
10
12.0848274373523
20
-1.92254891184467
30
0
41
1
10
12.094799282116
20
-1.92835906596034
30
0
41
1
10
12.1096205621885
20
-1.93731486401293
30
0
41
1
10
12.1145462219879
20
-1.94033129229652
30
0
41
1
10
12.1217928951385
20
-1.9450754355031
30
0
41
1
10
12.1241987543448
20
-1.94667201674281
30
0
41
1
10
12.1276243832832
20
-1.949352688375
30
0
41
1
10
12.1292963385955
20
-1.95011437309597
30
0
41
1
10
12.1295062787134
20
-1.95236116444113
30
0
41
1
10
12.1283416249246
20
-1.95240252651916
30
0
41
1
10
12.1268977138278
20
-1.95262051424083
30
0
41
1
10
12.079970819105
20
-1.95970480809001
30
0
41
1
10
10.5549352121823
20
-2.18935330830013
30
0
41
1
10
9.0462423842045
20
-2.39728177350148
30
0
41
1
10
6.7667598279651
20
-2.66809579844161
30
-1E-16
41
1
10
5.93997707098157
20
-2.75711482997974
30
-1E-16
41
1
10
5.11918398523699
20
-2.83551725496551
30
2E-16
0
SPLINE
5
C2
100
AcDbEntity
8
1
62
256
6
ByLayer
370
18
48
1
60
0
100
AcDbSpline
70
4
71
3
72
66
73
62
40
0
40
0
40
0
40
0
40
0.0194258139570978
40
0.0194258139570978
40
0.0689834125186486
40
0.0689834125186486
40
0.1185410110802
40
0.1185410110802
40
0.143319810360975
40
0.143319810360975
40
0.168098609641751
40
0.168098609641751
40
0.217656208203303
40
0.217656208203303
40
0.242435007484079
40
0.242435007484079
40
0.267213806764855
40
0.267213806764855
40
0.316771405326407
40
0.316771405326407
40
0.341550204607183
40
0.341550204607183
40
0.366329003887959
40
0.366329003887959
40
0.415886602449512
40
0.415886602449512
40
0.440665401730289
40
0.440665401730289
40
0.465444201011066
40
0.465444201011066
40
0.490223000291843
40
0.490223000291843
40
0.515001799572619
40
0.515001799572619
40
0.564559398134173
40
0.564559398134173
40
0.58933819741495
40
0.58933819741495
40
0.614116996695727
40
0.614116996695727
40
0.663674595257281
40
0.663674595257281
40
0.688453394538058
40
0.688453394538058
40
0.713232193818835
40
0.713232193818835
40
0.762789792380389
40
0.762789792380389
40
0.787568591661167
40
0.787568591661167
40
0.812347390941944
40
0.812347390941944
40
0.861904989503498
40
0.861904989503498
40
0.911462588065053
40
0.911462588065053
40
0.961020186626607
40
0.961020186626607
40
0.985798985907384
40
0.985798985907384
40
1
40
1
40
1
40
1
41
1
10
6.72128370941621
20
3.44040372358168
30
0
41
1
10
6.87454062833515
20
3.46223734409185
30
0
41
1
10
7.02764833096384
20
3.48152166743844
30
0
41
1
10
7.57104457148085
20
3.54089883126807
30
0
41
1
10
7.96047558909618
20
3.56695645407507
30
0
41
1
10
8.74078998118262
20
3.584777347661
30
0
41
1
10
9.13204071588731
20
3.5766410774209
30
0
41
1
10
9.72128669445698
20
3.538694510878
30
0
41
1
10
9.91848745062072
20
3.52169870473415
30
0
41
1
10
10.3111557202253
20
3.47920387473386
30
0
41
1
10
10.5067424145457
20
3.45368486024472
30
0
41
1
10
11.0927139139014
20
3.36524938770094
30
0
41
1
10
11.4823362991241
20
3.29064062671475
30
0
41
1
10
12.0654022838332
20
3.15598254965573
30
0
41
1
10
12.2595427728078
20
3.10729733685648
30
0
41
1
10
12.6475005633789
20
3.00234492228654
30
0
41
1
10
12.8412876309946
20
2.94602319588446
30
-2E-16
41
1
10
13.4237066509711
20
2.76730917007092
30
-2E-16
41
1
10
13.8134545708602
20
2.63542758042956
30
-2E-16
41
1
10
14.4001267422879
20
2.41825543368159
30
-1E-16
41
1
10
14.5960632844892
20
2.34267334886476
30
-1E-16
41
1
10
14.9887007620582
20
2.18489727372213
30
-1E-16
41
1
10
15.1854528969477
20
2.10261765115212
30
-1E-16
41
1
10
15.7748012304598
20
1.85025022183396
30
-1E-16
41
1
10
16.1670843043365
20
1.67307318198454
30
-1E-16
41
1
10
16.7559301501939
20
1.39633875708921
30
-1E-16
41
1
10
16.9523548305466
20
1.30239404221663
30
-1E-16
41
1
10
17.34554077996
20
1.11118371256521
30
-1E-16
41
1
10
17.5425975760866
20
1.01370883604255
30
-1E-16
41
1
10
17.9354989628626
20
0.817030624613523
30
-1E-16
41
1
10
18.1313740024323
20
0.717893553052562
30
0
41
1
10
18.5219709538018
20
0.518014177558797
30
0
41
1
10
18.7166289531588
20
0.417146627843181
30
0
41
1
10
19.3007224658023
20
0.115827995461586
30
0
41
1
10
19.6895652580181
20
-0.0847791486660014
30
0
41
1
10
20.2721937764747
20
-0.384927688511141
30
0
41
1
10
20.4663092835992
20
-0.484824986608373
30
0
41
1
10
20.8544238023797
20
-0.684161847808099
30
0
41
1
10
21.048495946236
20
-0.783456188108232
30
0
41
1
10
21.6323275222492
20
-1.07715741664256
30
1E-16
41
1
10
22.0233777646567
20
-1.26802949241548
30
1E-16
41
1
10
22.6127292550137
20
-1.54684202231795
30
1E-16
41
1
10
22.8097364973146
20
-1.63854373351214
30
1E-16
41
1
10
23.2022615701825
20
-1.8179198632472
30
1E-16
41
1
10
23.3982097344039
20
-1.90553344476365
30
1E-16
41
1
10
23.9866154764045
20
-2.15976307209408
30
1E-16
41
1
10
24.379268806177
20
-2.31847196267381
30
1E-16
41
1
10
24.9689694015857
20
-2.54021183091902
30
2E-16
41
1
10
25.1659762828849
20
-2.61149388388304
30
2E-16
41
1
10
25.5586122643872
20
-2.74750025644613
30
2E-16
41
1
10
25.7543197837567
20
-2.81207848063178
30
2E-16
41
1
10
26.3402893843765
20
-2.99487622458958
30
0
41
1
10
26.7289523280622
20
-3.10263441705587
30
0
41
1
10
27.5061892260868
20
-3.28669413376665
30
0
41
1
10
27.8945587378276
20
-3.36334472525064
30
0
41
1
10
28.6714169080881
20
-3.48528901465787
30
0
41
1
10
29.0593317963245
20
-3.53061899479093
30
0
41
1
10
29.6453530919549
20
-3.5725528163444
30
0
41
1
10
29.841286617063
20
-3.58228135607786
30
0
41
1
10
30.1504176588641
20
-3.59087142918082
30
0
41
1
10
30.2632561748876
20
-3.59259273796144
30
0
41
1
10
30.3760616017719
20
-3.5928968523049
30
0
0
SPLINE
5
C3
100
AcDbEntity
8
1
62
256
6
ByLayer
370
18
48
1
60
0
100
AcDbSpline
70
4
71
3
72
20
73
16
40
0
40
0
40
0
40
0
40
0.125000000000002
40
0.125000000000002
40
0.250000000000003
40
0.250000000000003
40
0.375000000000005
40
0.375000000000005
40
0.500000000000007
40
0.500000000000007
40
0.625000000000008
40
0.625000000000008
40
0.75000000000001
40
0.75000000000001
40
1
40
1
40
1
40
1
41
1
10
41.9498301411566
20
0.631137372551251
30
0
41
1
10
41.9197985824861
20
0.642240564919945
30
0
41
1
10
41.8893236635968
20
0.650273696059116
30
0
41
1
10
41.8278453946264
20
0.661645962336053
30
0
41
1
10
41.7968318707645
20
0.664790746556207
30
0
41
1
10
41.7346640882209
20
0.669729810922519
30
0
41
1
10
41.7034710462369
20
0.671149925898277
30
0
41
1
10
41.6408701888135
20
0.669588866449544
30
0
41
1
10
41.6094819679871
20
0.666857406816234
30
0
41
1
10
41.5467092183355
20
0.658071037788488
30
0
41
1
10
41.51532122211
20
0.651965010707102
30
0
41
1
10
41.4527058020424
20
0.637025828965506
30
0
41
1
10
41.4215865841178
20
0.628623004676086
30
0
41
1
10
41.3291750931925
20
0.598404975216198
30
0
41
1
10
41.2688219086074
20
0.571800218346169
30
0
41
1
10
41.2102203574623
20
0.538972920985628
30
0
0
SPLINE
5
C4
100
AcDbEntity
8
1
62
256
6
ByLayer
370
18
48
1
60
0
100
AcDbSpline
70
4
71
3
72
38
73
34
40
0
40
0
40
0
40
0
40
0.024718465757421
40
0.024718465757421
40
0.146628657537741
40
0.146628657537741
40
0.26853884931806
40
0.26853884931806
40
0.29901639726314
40
0.29901639726314
40
0.32949394520822
40
0.32949394520822
40
0.390449041098381
40
0.390449041098381
40
0.420926589043462
40
0.420926589043462
40
0.451404136988543
40
0.451404136988543
40
0.512359232878704
40
0.512359232878704
40
0.634269424659027
40
0.634269424659027
40
0.695224520549189
40
0.695224520549189
40
0.756179616439351
40
0.756179616439351
40
0.878089808219675
40
0.878089808219675
40
0.908567356164756
40
0.908567356164756
40
0.939044904109837
40
0.939044904109837
40
1
40
1
40
1
40
1
41
1
10
22.9977880366828
20
-3.42104430817946
30
0
41
1
10
22.8365702732764
20
-3.44617830398818
30
0
41
1
10
22.6751550357421
20
-3.46855842758711
30
0
41
1
10
21.7203573344698
20
-3.5840491046859
30
0
41
1
10
20.9355345754309
20
-3.60990044407163
30
0
41
1
10
19.3657342431109
20
-3.5238480093787
30
0
41
1
10
18.5803501058446
20
-3.41201857983313
30
0
41
1
10
17.5865726593952
20
-3.18920112697956
30
0
41
1
10
17.3875120221725
20
-3.14057086509743
30
0
41
1
10
16.9902959385668
20
-3.03596296410811
30
0
41
1
10
16.7918761683451
20
-2.97992175439856
30
0
41
1
10
16.1967998155314
20
-2.80103378980624
30
2E-16
41
1
10
15.8002931529627
20
-2.66744838078091
30
2E-16
41
1
10
15.2039538981886
20
-2.44783576133318
30
1E-16
41
1
10
15.0047650876901
20
-2.37129013562648
30
1E-16
41
1
10
14.6080531480398
20
-2.21326553099982
30
1E-16
41
1
10
14.4102398298194
20
-2.131689627713
30
1E-16
41
1
10
13.8180102361683
20
-1.88003491490861
30
1E-16
41
1
10
13.4247923250626
20
-1.70304928670703
30
1E-16
41
1
10
12.2465966931407
20
-1.15053721402063
30
1E-16
41
1
10
11.4629158675111
20
-0.753688627114343
30
0
41
1
10
10.2756180665536
20
-0.142580249055641
30
0
41
1
10
9.87651589793012
20
0.0646315042099559
30
0
41
1
10
9.08462043197329
20
0.473002922324611
30
0
41
1
10
8.69065741956973
20
0.674702557891663
30
0
41
1
10
7.51111928855167
20
1.26560854766939
30
-1E-16
41
1
10
6.72817060044582
20
1.64111030499836
30
-1E-16
41
1
10
5.74175285624824
20
2.06533930850747
30
-1E-16
41
1
10
5.54408743538767
20
2.14793851788812
30
-1E-16
41
1
10
5.14766983700133
20
2.30806347312028
30
-1E-16
41
1
10
4.94865809447509
20
2.38568857602806
30
-1E-16
41
1
10
4.3515559573475
20
2.60935387025592
30
-2E-16
41
1
10
3.95400714504152
20
2.74596125608437
30
-2E-16
41
1
10
3.55581429164079
20
2.86856690324927
30
-2E-16
0
SPLINE
5
C5
100
AcDbEntity
8
1
62
256
6
ByLayer
370
18
48
1
60
0
100
AcDbSpline
70
4
71
3
72
16
73
12
40
0
40
0
40
0
40
0
40
0.229915215295185
40
0.229915215295185
40
0.462366250998511
40
0.462366250998511
40
0.659896910120799
40
0.659896910120799
40
0.831827493566473
40
0.831827493566473
40
1
40
1
40
1
40
1
41
1
10
41.7169760242771
20
-3.38914940404661
30
0
41
1
10
41.7170575445859
20
-3.38931716519559
30
0
41
1
10
41.7170823183847
20
-3.38966637198584
30
0
41
1
10
41.7169908238457
20
-3.39074452224222
30
0
41
1
10
41.716870135257
20
-3.39149920529303
30
0
41
1
10
41.7165085622652
20
-3.39319634723714
30
0
41
1
10
41.7162821349222
20
-3.39412098692287
30
0
41
1
10
41.7157855831735
20
-3.39594773405483
30
0
41
1
10
41.715518520801
20
-3.39686096880382
30
0
41
1
10
41.7149661168795
20
-3.3986387709258
30
0
41
1
10
41.7146749894765
20
-3.3995247899947
30
0
41
1
10
41.7143862025168
20
-3.40036198588931
30
0
0
SPLINE
5
C6
100
AcDbEntity
8
1
62
256
6
ByLayer
370
18
48
1
60
0
100
AcDbSpline
70
4
71
3
72
8
73
4
40
0
40
0
40
0
40
0
40
1
40
1
40
1
40
1
41
1
10
3.55581429164081
20
2.86856690324927
30
-2E-16
41
1
10
3.52312043301777
20
2.87863351208105
30
-2E-16
41
1
10
3.50170251555983
20
2.89947751101809
30
-2E-16
41
1
10
3.50170251555983
20
2.92071033199267
30
-2E-16
0
SPLINE
5
C7
100
AcDbEntity
8
1
62
256
6
ByLayer
370
18
48
1
60
0
100
AcDbSpline
70
4
71
3
72
8
73
4
40
0
40
0
40
0
40
0
40
1
40
1
40
1
40
1
41
1
10
42.6755303848468
20
1.13449493588399
30
0
41
1
10
42.7855975464535
20
0.823660841415318
30
0
41
1
10
42.8926628339535
20
0.511752580821252
30
0
41
1
10
42.9966802024305
20
0.198753677764785
30
0
0
SPLINE
5
C8
100
AcDbEntity
8
1
62
256
6
ByLayer
370
18
48
1
60
0
100
AcDbSpline
70
4
71
3
72
8
73
4
40
0
40
0
40
0
40
0
40
1
40
1
40
1
40
1
41
1
10
41.5132222681804
20
-3.55350082662983
30
0
41
1
10
41.5749645690301
20
-3.51814280394427
30
0
41
1
10
41.6368567541129
20
-3.48209453100716
30
0
41
1
10
41.6989232010443
20
-3.44537295240485
30
0
0
SPLINE
5
C9
100
AcDbEntity
8
1
62
256
6
ByLayer
370
18
48
1
60
0
100
AcDbSpline
70
4
71
3
72
8
73
4
40
0
40
0
40
0
40
0
40
1
40
1
40
1
40
1
41
1
10
41.513222268179
20
-3.55350082663151
30
0
41
1
10
41.5179981058901
20
-3.58072036847639
30
0
41
1
10
41.5224194514917
20
-3.59617392969179
30
0
41
1
10
41.5265830893238
20
-3.59929317451463
30
0
0
SPLINE
5
CA
100
AcDbEntity
8
1
62
256
6
ByLayer
370
18
48
1
60
0
100
AcDbSpline
70
4
71
3
72
34
73
30
40
0
40
0
40
0
40
0
40
0.0050838628882628
40
0.0050838628882628
40
0.109905654220494
40
0.109905654220494
40
0.162316549886611
40
0.162316549886611
40
0.214727445552727
40
0.214727445552727
40
0.319549236884959
40
0.319549236884959
40
0.371960132551074
40
0.371960132551074
40
0.42437102821719
40
0.42437102821719
40
0.529192819549421
40
0.529192819549421
40
0.581603715215537
40
0.581603715215537
40
0.634014610881652
40
0.634014610881652
40
0.843658193546112
40
0.843658193546112
40
0.896069089212226
40
0.896069089212226
40
0.94847998487834
40
0.94847998487834
40
1
40
1
40
1
40
1
41
1
10
8.29523992347478
20
3.40622833226101
30
0
41
1
10
8.31420307167713
20
3.40674353056318
30
0
41
1
10
8.33316973319489
20
3.40721803939536
30
0
41
1
10
8.74328515030641
20
3.41658156219282
30
0
41
1
10
9.13611801628602
20
3.40777680296344
30
0
41
1
10
9.72848779569185
20
3.37029006894122
30
0
41
1
10
9.92671157544237
20
3.35371124430665
30
0
41
1
10
10.3212166917551
20
3.31320352291232
30
0
41
1
10
10.5178223540509
20
3.28930368466078
30
0
41
1
10
11.1067414693478
20
3.20502182105309
30
0
41
1
10
11.4981981358826
20
3.13186774162639
30
0
41
1
10
12.0842842155989
20
3.00144464454146
30
0
41
1
10
12.2794642069981
20
2.95453077164964
30
0
41
1
10
12.6694978595988
20
2.85415398297275
30
0
41
1
10
12.864322852042
20
2.80072976999816
30
1E-16
41
1
10
13.4498121250294
20
2.62974735796706
30
-2E-16
41
1
10
13.8415968398741
20
2.50137555389534
30
-2E-16
41
1
10
14.4312340898568
20
2.29164314247288
30
-1E-16
41
1
10
14.6281338899848
20
2.21881303326893
30
-1E-16
41
1
10
15.0224671916954
20
2.06766765533771
30
-1E-16
41
1
10
15.220249321052
20
1.98920191055231
30
-1E-16
41
1
10
16.2055812567732
20
1.58659756745524
30
-1E-16
41
1
10
16.9857124466529
20
1.23128334357389
30
-1E-16
41
1
10
17.9601019066743
20
0.76630741845878
30
0
41
1
10
18.1549795065609
20
0.672294107081598
30
0
41
1
10
18.5446831318398
20
0.482322645795392
30
0
41
1
10
18.7394568004816
20
0.386293012807158
30
0
41
1
10
19.126873504745
20
0.195849854760922
30
0
41
1
10
19.3193401962209
20
0.101235891857897
30
0
41
1
10
19.5122196769447
20
0.0064738420696244
30
0
0
SPLINE
5
CB
100
AcDbEntity
8
1
62
256
6
ByLayer
370
18
48
1
60
0
100
AcDbSpline
70
4
71
3
72
32
73
28
40
0
40
0
40
0
40
0
40
0.0878023514536571
40
0.0878023514536571
40
0.139817955536274
40
0.139817955536274
40
0.191833559618891
40
0.191833559618891
40
0.399895975949361
40
0.399895975949361
40
0.451911580031979
40
0.451911580031979
40
0.503927184114597
40
0.503927184114597
40
0.607958392279833
40
0.607958392279833
40
0.65997399636245
40
0.65997399636245
40
0.711989600445067
40
0.711989600445067
40
0.816020808610302
40
0.816020808610302
40
0.86803641269292
40
0.86803641269292
40
0.920052016775537
40
0.920052016775537
40
1
40
1
40
1
40
1
41
1
10
19.9277097135794
20
-0.208071210659483
30
0
41
1
10
19.5953969483095
20
-0.0454997966994029
30
0
41
1
10
19.2642868477481
20
0.116805154804553
30
0
41
1
10
18.7389819959816
20
0.374349066114036
30
0
41
1
10
18.5441499464988
20
0.470170089585878
30
0
41
1
10
18.1543292771475
20
0.65973965335067
30
0
41
1
10
17.9593948565601
20
0.753568071493817
30
0
41
1
10
16.9847264149235
20
1.21769441866744
30
-1E-16
41
1
10
16.2043876425607
20
1.57254908313368
30
-1E-16
41
1
10
15.2188575109598
20
1.97490064907802
30
-1E-16
41
1
10
15.0210335115809
20
2.05333621976851
30
-1E-16
41
1
10
14.6265947162046
20
2.20443458164388
30
-1E-16
41
1
10
14.4296424129064
20
2.27726061372388
30
-1E-16
41
1
10
13.8398466285009
20
2.4870352012025
30
-2E-16
41
1
10
13.4479566666487
20
2.61550837052647
30
-2E-16
41
1
10
12.8623033361674
20
2.78674766297016
30
1E-16
41
1
10
12.6674192865659
20
2.84026418643003
30
0
41
1
10
12.2772696841994
20
2.940848002834
30
0
41
1
10
12.0820338937231
20
2.98788085909769
30
0
41
1
10
11.4957861216576
20
3.118704617688
30
0
41
1
10
11.1042325307392
20
3.19218948336587
30
0
41
1
10
10.5151747630963
20
3.2770523835992
30
0
41
1
10
10.3185210040637
20
3.30115480229355
30
0
41
1
10
9.92392562205842
20
3.34208947740484
30
0
41
1
10
9.72566059493272
20
3.35889659397608
30
0
41
1
10
9.22459209785413
20
3.39120698709181
30
0
41
1
10
8.92225365931503
20
3.40124956744469
30
0
41
1
10
8.62096235682284
20
3.40105282842833
30
0
0
SPLINE
5
CC
100
AcDbEntity
8
1
62
256
6
ByLayer
370
18
48
1
60
0
100
AcDbSpline
70
4
71
3
72
30
73
26
40
0
40
0
40
0
40
0
40
0.349101257800755
40
0.349101257800755
40
0.58069572593111
40
0.58069572593111
40
0.730794695015074
40
0.730794695015074
40
0.828037699573275
40
0.828037699573275
40
0.890894448828302
40
0.890894448828302
40
0.931550556329476
40
0.931550556329476
40
0.957899743068569
40
0.957899743068569
40
0.975007838275178
40
0.975007838275178
40
0.986201240227209
40
0.986201240227209
40
0.99358321602125
40
0.99358321602125
40
0.998458558133137
40
0.998458558133137
40
1
40
1
40
1
40
1
41
1
10
41.5265830893429
20
-3.59929317450175
30
0
41
1
10
41.5517387016104
20
-3.58284306782485
30
0
41
1
10
41.5769372329604
20
-3.56627417982287
30
0
41
1
10
41.618878476434
20
-3.53855445036265
30
0
41
1
10
41.6356105436475
20
-3.52745853714228
30
0
41
1
10
41.6631711694365
20
-3.50912128356896
30
0
41
1
10
41.6740025817788
20
-3.50189936110462
30
0
41
1
10
41.6918479652501
20
-3.48997497462881
30
0
41
1
10
41.6988662179772
20
-3.48527862992137
30
0
41
1
10
41.7104445876588
20
-3.47751962477634
30
0
41
1
10
41.7149964102816
20
-3.47446648634681
30
0
41
1
10
41.7225068599797
20
-3.46942431763207
30
0
41
1
10
41.7254604019494
20
-3.4674402993077
30
0
41
1
10
41.7303352428934
20
-3.46416383528555
30
0
41
1
10
41.7322540528075
20
-3.46287370523444
30
0
41
1
10
41.7354219504759
20
-3.46074299296674
30
0
41
1
10
41.7366705617653
20
-3.45990299221643
30
0
41
1
10
41.7387252848825
20
-3.45852043221416
30
0
41
1
10
41.7395352171464
20
-3.45797538820088
30
0
41
1
10
41.7408688362463
20
-3.45707782342592
30
0
41
1
10
41.7413963084539
20
-3.45672279062185
30
0
41
1
10
41.7422641230434
20
-3.45613863123762
30
0
41
1
10
41.7426073853183
20
-3.45590755686698
30
0
41
1
10
41.7430457980876
20
-3.45561243104916
30
0
41
1
10
41.7431500417469
20
-3.4555422575875
30
0
41
1
10
41.7432526125896
20
-3.45547321093261
30
0
0
SPLINE
5
CD
100
AcDbEntity
8
1
62
256
6
ByLayer
370
18
48
1
60
0
100
AcDbSpline
70
4
71
3
72
26
73
22
40
0
40
0
40
0
40
0
40
0.0498868394631116
40
0.0498868394631116
40
0.102565550540588
40
0.102565550540588
40
0.313280394850496
40
0.313280394850496
40
0.418637817005449
40
0.418637817005449
40
0.471316528082926
40
0.471316528082926
40
0.523995239160403
40
0.523995239160403
40
0.734710083470307
40
0.734710083470307
40
0.945424927780211
40
0.945424927780211
40
0.998103638857688
40
0.998103638857688
40
1
40
1
40
1
40
1
41
1
10
9.59136406172837
20
0.212192869946165
30
0
41
1
10
9.78061089850746
20
0.119391583013055
30
0
41
1
10
9.97041614689519
20
0.026059044334886
30
0
41
1
10
10.3589419479232
20
-0.164739264975367
30
0
41
1
10
10.5579725068701
20
-0.262345482263413
30
0
41
1
10
11.5510419216224
20
-0.747302102226655
30
0
41
1
10
12.3388450815881
20
-1.12545912368722
30
1E-16
41
1
10
13.5244036986354
20
-1.6506535793462
30
1E-16
41
1
10
13.9201923284591
20
-1.81879878523108
30
1E-16
41
1
10
14.5164283124056
20
-2.0575448460485
30
1E-16
41
1
10
14.7155990086091
20
-2.13487864023449
30
1E-16
41
1
10
15.1150844194094
20
-2.28442603267394
30
1E-16
41
1
10
15.3155567017114
20
-2.35669677295309
30
1E-16
41
1
10
16.3131952504707
20
-2.70125834918244
30
2E-16
41
1
10
17.1025853217395
20
-2.92533859432132
30
0
41
1
10
18.6817491263134
20
-3.25313277642209
30
0
41
1
10
19.4718187029356
20
-3.35652197989555
30
0
41
1
10
20.4705328670277
20
-3.40179499007977
30
0
41
1
10
20.6708833490012
20
-3.40662964160634
30
0
41
1
10
20.8779725318586
20
-3.40712883815468
30
0
41
1
10
20.8851682746851
20
-3.40714079123134
30
0
41
1
10
20.8923638802979
20
-3.40714734721129
30
0
0
SPLINE
5
CE
100
AcDbEntity
8
1
62
256
6
ByLayer
370
18
48
1
60
0
100
AcDbSpline
70
4
71
3
72
32
73
28
40
0
40
0
40
0
40
0
40
0.050025064938023
40
0.050025064938023
40
0.102801450219243
40
0.102801450219243
40
0.155577835500463
40
0.155577835500463
40
0.261130606062906
40
0.261130606062906
40
0.366683376625348
40
0.366683376625348
40
0.47223614718779
40
0.47223614718779
40
0.577788917750233
40
0.577788917750233
40
0.630565303031454
40
0.630565303031454
40
0.683341688312675
40
0.683341688312675
40
0.736118073593896
40
0.736118073593896
40
0.788894458875117
40
0.788894458875117
40
0.894447229437559
40
0.894447229437559
40
1
40
1
40
1
40
1
41
1
10
31.3992937820174
20
-0.321796567680366
30
0
41
1
10
31.1486944879303
20
-0.197203693485534
30
0
41
1
10
30.8981231598531
20
-0.0719993659954525
30
0
41
1
10
30.3832249732232
20
0.184989191149867
30
0
41
1
10
30.1187034774354
20
0.316829333421225
30
0
41
1
10
29.5906638663595
20
0.578147895625563
30
0
41
1
10
29.3269386998554
20
0.707808824546873
30
0
41
1
10
28.5354338072159
20
1.09111647447995
30
-1E-16
41
1
10
28.0066553566834
20
1.34014846354026
30
-1E-16
41
1
10
26.9487831101167
20
1.8100173005837
30
-1E-16
41
1
10
26.4201914085859
20
2.03122770451455
30
-1E-16
41
1
10
25.3622632592264
20
2.43420963615716
30
-1E-16
41
1
10
24.8329760706008
20
2.61624922537132
30
-2E-16
41
1
10
23.7791962147724
20
2.92961362178315
30
0
41
1
10
23.2540663978897
20
3.0621408081746
30
0
41
1
10
22.4649299168272
20
3.22003912290654
30
0
41
1
10
22.2016595581682
20
3.26590571883753
30
0
41
1
10
21.6740232927929
20
3.34328930073926
30
0
41
1
10
21.4094602447363
20
3.37503340875583
30
0
41
1
10
20.8805103875681
20
3.42281062159307
30
0
41
1
10
20.6160688940273
20
3.43914516155897
30
0
41
1
10
20.0874616323319
20
3.45682964500847
30
0
41
1
10
19.822974656083
20
3.45845933188969
30
0
41
1
10
19.0302703864466
20
3.43997765804522
30
0
41
1
10
18.5045717117073
20
3.39823246040868
30
0
41
1
10
17.4534669138986
20
3.25580188730794
30
0
41
1
10
16.9280629211602
20
3.15576134168265
30
0
41
1
10
16.4000000000003
20
3.0288285718747
30
0
0
SPLINE
5
CF
100
AcDbEntity
8
1
62
256
6
ByLayer
370
18
48
1
60
0
100
AcDbSpline
70
4
71
3
72
18
73
14
40
0
40
0
40
0
40
0
40
0.234934547492656
40
0.234934547492656
40
0.352401821238982
40
0.352401821238982
40
0.469869094985308
40
0.469869094985308
40
0.704803642477957
40
0.704803642477957
40
0.939738189970606
40
0.939738189970606
40
1
40
1
40
1
40
1
41
1
10
3.64791531512176
20
-2.68273269003799
30
2E-16
41
1
10
4.04084793771656
20
-2.81831716168259
30
2E-16
41
1
10
4.43363694865235
20
-2.93942939993792
30
2E-16
41
1
10
5.02343895475562
20
-3.0991046847353
30
0
41
1
10
5.22012317441136
20
-3.14867722823755
30
0
41
1
10
5.61365243188268
20
-3.24044071961205
30
0
41
1
10
5.81054226211305
20
-3.28256296424308
30
0
41
1
10
6.39935505364522
20
-3.39624465504067
30
0
41
1
10
6.79029419210127
20
-3.45558586859028
30
0
41
1
10
7.57104457148017
20
-3.54089883126801
30
0
41
1
10
7.96047558909538
20
-3.56695645407501
30
0
41
1
10
8.45070993037103
20
-3.57815247213733
30
0
41
1
10
8.55085902459587
20
-3.57931646064444
30
0
41
1
10
8.65108827625409
20
-3.57935693023842
30
0
0
SPLINE
5
D0
100
AcDbEntity
8
1
62
256
6
ByLayer
370
18
48
1
60
0
100
AcDbSpline
70
4
71
3
72
32
73
28
40
0
40
0
40
0
40
0
40
0.0020413156202743
40
0.0020413156202743
40
0.0927648323820676
40
0.0927648323820676
40
0.138126590762964
40
0.138126590762964
40
0.183488349143861
40
0.183488349143861
40
0.274211865905654
40
0.274211865905654
40
0.364935382667447
40
0.364935382667447
40
0.45565889942924
40
0.45565889942924
40
0.546382416191034
40
0.546382416191034
40
0.637105932952827
40
0.637105932952827
40
0.72782944971462
40
0.72782944971462
40
0.818552966476414
40
0.818552966476414
40
0.909276483238207
40
0.909276483238207
40
1
40
1
40
1
40
1
41
1
10
28.2567684779416
20
3.42017736752433
30
0
41
1
10
28.265508231795
20
3.4215651368929
30
0
41
1
10
28.2742480122942
20
3.42294497217199
30
0
41
1
10
28.6714169080837
20
3.4852890146573
30
0
41
1
10
29.0593317963201
20
3.53061899479047
30
0
41
1
10
29.6453530919503
20
3.57255281634414
30
0
41
1
10
29.8412866170583
20
3.58228135607766
30
0
41
1
10
30.2343052271205
20
3.5932024805679
30
0
41
1
10
30.4314745254336
20
3.59437571413201
30
0
41
1
10
31.0209802716691
20
3.58489011840811
30
0
41
1
10
31.4120587373752
20
3.56101470036052
30
0
41
1
10
32.1965207914923
20
3.47959454834049
30
0
41
1
10
32.5899178718953
20
3.42193817931493
30
0
41
1
10
33.3764505451529
20
3.27403554359142
30
0
41
1
10
33.7679021645827
20
3.18347984795844
30
0
41
1
10
34.5522884469596
20
2.97368111146878
30
-2E-16
41
1
10
34.9450365659532
20
2.85424258465864
30
-2E-16
41
1
10
35.7318057350911
20
2.58743289876571
30
-2E-16
41
1
10
36.1234195944251
20
2.440495532835
30
-1E-16
41
1
10
36.9078789287866
20
2.12649036490535
30
-1E-16
41
1
10
37.3002939375661
20
1.95890514123556
30
-1E-16
41
1
10
38.0866116902381
20
1.60404836733957
30
-1E-16
41
1
10
38.4782085032243
20
1.41729329057975
30
-1E-16
41
1
10
39.25990700271
20
1.0359945964166
30
-1E-16
41
1
10
39.6501266493225
20
0.840477001338201
30
-1E-16
41
1
10
40.4305436772512
20
0.442078579423622
30
0
41
1
10
40.8207278048943
20
0.239158984151317
30
0
41
1
10
41.2121029512992
20
0.0347900003068844
30
0
0
SPLINE
5
D1
100
AcDbEntity
8
1
62
256
6
ByLayer
370
18
48
1
60
0
100
AcDbSpline
70
4
71
3
72
16
73
12
40
0
40
0
40
0
40
0
40
0.240090694295633
40
0.240090694295633
40
0.397080575627384
40
0.397080575627384
40
0.554070456959134
40
0.554070456959134
40
0.868050219622635
40
0.868050219622635
40
1
40
1
40
1
40
1
41
1
10
3.60202483542412
20
3.39648010933385
30
0
41
1
10
3.60201290474308
20
3.39624447432897
30
0
41
1
10
3.60200107459056
20
3.3863590776007
30
0
41
1
10
3.60198142004177
20
3.35446149675929
30
0
41
1
10
3.60197362360449
20
3.33780847591467
30
0
41
1
10
3.60195785424341
20
3.29629077788306
30
0
41
1
10
3.60194984473714
20
3.27128882843704
30
0
41
1
10
3.60192559957218
20
3.18454313589885
30
0
41
1
10
3.60190925231359
20
3.11166385026206
30
0
41
1
10
3.60188484349561
20
2.98746008376961
30
0
41
1
10
3.60187746173594
20
2.9480611163136
30
0
41
1
10
3.60186987796587
20
2.90605517540598
30
0
0
SPLINE
5
D2
100
AcDbEntity
8
1
62
256
6
ByLayer
370
18
48
1
60
0
100
AcDbSpline
70
4
71
3
72
14
73
10
40
0
40
0
40
0
40
0
40
0.215576514166776
40
0.215576514166776
40
0.477051009444518
40
0.477051009444518
40
0.738525504722259
40
0.738525504722259
40
1
40
1
40
1
40
1
41
1
10
41.5587021847042
20
0.758154650000989
30
0
41
1
10
41.5813673305705
20
0.779177765049752
30
0
41
1
10
41.6076202093363
20
0.80107899357651
30
0
41
1
10
41.6745095777557
20
0.850273421767895
30
0
41
1
10
41.7162201597731
20
0.876988721764974
30
0
41
1
10
41.8078565427357
20
0.926084091821792
30
0
41
1
10
41.8586286242115
20
0.94877202521198
30
0
41
1
10
41.9638655575767
20
0.98494688798948
30
0
41
1
10
42.0194771569964
20
0.998837049299652
30
0
41
1
10
42.0761543656884
20
1.00768871095661
30
0
0
SPLINE
5
D3
100
AcDbEntity
8
1
62
256
6
ByLayer
370
18
48
1
60
0
100
AcDbSpline
70
4
71
3
72
10
73
6
40
0
40
0
40
0
40
0
40
0.5
40
0.5
40
1
40
1
40
1
40
1
41
1
10
41.7498885891399
20
-3.45100294146769
30
0
41
1
10
41.7383020672237
20
-3.45878655700065
30
0
41
1
10
41.7284561692715
20
-3.46213828344796
30
0
41
1
10
41.7116785340737
20
-3.46007792564663
30
0
41
1
10
41.7047951432256
20
-3.45470887151072
30
0
41
1
10
41.6989232010444
20
-3.44537295240477
30
0
0
SPLINE
5
D4
100
AcDbEntity
8
1
62
256
6
ByLayer
370
18
48
1
60
0
100
AcDbSpline
70
4
71
3
72
16
73
12
40
0
40
0
40
0
40
0
40
0.312625926585783
40
0.312625926585783
40
0.625251853171566
40
0.625251853171566
40
0.781564816464455
40
0.781564816464455
40
0.937877779757343
40
0.937877779757343
40
1
40
1
40
1
40
1
41
1
10
41.7432526125995
20
3.45547321093238
30
0
41
1
10
41.2152890688224
20
3.45960074452569
30
0
41
1
10
40.6875374652076
20
3.43423393213601
30
0
41
1
10
39.6302133492914
20
3.32322717483439
30
0
41
1
10
39.1032135345219
20
3.23814903032263
30
0
41
1
10
38.3108130081721
20
3.06887124198883
30
0
41
1
10
38.0462320422859
20
3.00546576815682
30
0
41
1
10
37.518107130433
20
2.86646165153127
30
0
41
1
10
37.254292757102
20
2.79074278014639
30
-2E-16
41
1
10
36.885450908459
20
2.67655710801304
30
-2E-16
41
1
10
36.7805091652701
20
2.6431306514778
30
-2E-16
41
1
10
36.6755327738331
20
2.60878933154174
30
-2E-16
0
SPLINE
5
D5
100
AcDbEntity
8
1
62
256
6
ByLayer
370
18
48
1
60
0
100
AcDbSpline
70
4
71
3
72
28
73
24
40
0
40
0
40
0
40
0
40
0.107654210559238
40
0.107654210559238
40
0.215308421118477
40
0.215308421118477
40
0.322962631677715
40
0.322962631677715
40
0.430616842236954
40
0.430616842236954
40
0.538271052796191
40
0.538271052796191
40
0.592098158075812
40
0.592098158075812
40
0.645925263355433
40
0.645925263355433
40
0.753579473914674
40
0.753579473914674
40
0.861233684473916
40
0.861233684473916
40
0.968887895033157
40
0.968887895033157
40
1
40
1
40
1
40
1
41
1
10
41.3046817061016
20
-0.0240033389320331
30
0
41
1
10
40.9097516379204
20
0.171879521020031
30
0
41
1
10
40.5140473094517
20
0.367373676279357
30
0
41
1
10
39.7275486100145
20
0.74970034587156
30
0
41
1
10
39.3359253838045
20
0.937038448328678
30
-1E-16
41
1
10
38.5549118535019
20
1.3007569699937
30
-1E-16
41
1
10
38.1659170364001
20
1.47714127951846
30
-1E-16
41
1
10
37.3863496435183
20
1.8139734231379
30
-1E-16
41
1
10
36.9959639793473
20
1.97456865740188
30
-1E-16
41
1
10
36.2128841626159
20
2.2766192167247
30
-1E-16
41
1
10
35.8203735426994
20
2.41760428764835
30
-1E-16
41
1
10
35.2275967913032
20
2.61197434652328
30
-2E-16
41
1
10
35.0297411693239
20
2.673764417439
30
-2E-16
41
1
10
34.6357025659792
20
2.79021968033399
30
1E-16
41
1
10
34.4391870355713
20
2.84500896153392
30
0
41
1
10
33.8510303051171
20
2.99840676856147
30
0
41
1
10
33.4611432292085
20
3.08521350161973
30
0
41
1
10
32.6808903218092
20
3.23089054300209
30
0
41
1
10
32.2910399263284
20
3.28902564432775
30
0
41
1
10
31.5105519637541
20
3.37279306212648
30
0
41
1
10
31.1203037998842
20
3.39650060700677
30
0
41
1
10
30.6143277436128
20
3.40913194188195
30
0
41
1
10
30.5007197805084
20
3.41072609606565
30
0
41
1
10
30.3869340899809
20
3.41099827081308
30
0
0
SPLINE
5
D6
100
AcDbEntity
8
1
62
256
6
ByLayer
370
18
48
1
60
0
100
AcDbSpline
70
4
71
3
72
8
73
4
40
0
40
0
40
0
40
0
40
1
40
1
40
1
40
1
41
1
10
42.9966802024258
20
0.198753677769389
30
0
41
1
10
43.0011067646691
20
0.0662462724744728
30
0
41
1
10
43.0011064337302
20
-0.0662561790050233
30
0
41
1
10
42.9966802024255
20
-0.198753677780132
30
0
0
SPLINE
5
D7
100
AcDbEntity
8
1
62
256
6
ByLayer
370
18
48
1
60
0
100
AcDbSpline
70
4
71
3
72
26
73
22
40
0
40
0
40
0
40
0
40
0.12500000000001
40
0.12500000000001
40
0.25000000000002
40
0.25000000000002
40
0.312500000000018
40
0.312500000000018
40
0.375000000000017
40
0.375000000000017
40
0.437500000000015
40
0.437500000000015
40
0.500000000000014
40
0.500000000000014
40
0.62500000000001
40
0.62500000000001
40
0.750000000000007
40
0.750000000000007
40
0.875000000000003
40
0.875000000000003
40
1
40
1
40
1
40
1
41
1
10
42.9497977622078
20
0.0433379946774153
30
0
41
1
10
42.9323714662986
20
-0.014118939119669
30
0
41
1
10
42.9123363735783
20
-0.0702622802015185
30
0
41
1
10
42.8668521603914
20
-0.179732936138151
30
0
41
1
10
42.8413298435645
20
-0.232929193229808
30
0
41
1
10
42.8011937443113
20
-0.305052520345839
30
0
41
1
10
42.7874142340895
20
-0.328030810819314
30
0
41
1
10
42.7590113035959
20
-0.371670496488463
30
0
41
1
10
42.7444213138057
20
-0.39223294043714
30
0
41
1
10
42.7155730434132
20
-0.429234712257312
30
0
41
1
10
42.7011688113234
20
-0.445907781600198
30
0
41
1
10
42.6723809830785
20
-0.475522448503653
30
0
41
1
10
42.6578661932444
20
-0.48854517389438
30
0
41
1
10
42.6157216953459
20
-0.520576169821595
30
0
41
1
10
42.5889024357187
20
-0.533110409978747
30
0
41
1
10
42.5391472506427
20
-0.540848572295573
30
0
41
1
10
42.5164187580804
20
-0.536101583924108
30
0
41
1
10
42.4751000065334
20
-0.51199062837901
30
0
41
1
10
42.4569073342666
20
-0.493014843200797
30
0
41
1
10
42.4239726914845
20
-0.443680229138096
30
0
41
1
10
42.4092804644304
20
-0.413201371342041
30
0
41
1
10
42.3962889971089
20
-0.378522132022056
30
0
0
SPLINE
5
D8
100
AcDbEntity
8
1
62
256
6
ByLayer
370
18
48
1
60
0
100
AcDbSpline
70
4
71
3
72
20
73
16
40
0
40
0
40
0
40
0
40
0.249999999999995
40
0.249999999999995
40
0.499999999999991
40
0.499999999999991
40
0.562499999999989
40
0.562499999999989
40
0.624999999999988
40
0.624999999999988
40
0.749999999999992
40
0.749999999999992
40
0.874999999999996
40
0.874999999999996
40
1
40
1
40
1
40
1
41
1
10
41.7498885891399
20
3.45100294146772
30
0
41
1
10
41.8204730909868
20
3.25273814400515
30
0
41
1
10
41.890430184014
20
3.0530799233994
30
0
41
1
10
42.0312512074367
20
2.65290219358584
30
0
41
1
10
42.1021002966328
20
2.45248141126706
30
0
41
1
10
42.1918998390417
20
2.20242481121593
30
0
41
1
10
42.2098161659004
20
2.15239420921682
30
0
41
1
10
42.2464123349192
20
2.0526936814961
30
0
41
1
10
42.2651057584774
20
2.00299564958684
30
0
41
1
10
42.3225433185627
20
1.85472322526144
30
0
41
1
10
42.3621474138557
20
1.75823725576737
30
0
41
1
10
42.445001176567
20
1.57036764189559
30
0
41
1
10
42.4882522845843
20
1.47898383697654
30
0
41
1
10
42.5791502203517
20
1.30144593605019
30
0
41
1
10
42.6267702126849
20
1.21553247626679
30
0
41
1
10
42.6755303848468
20
1.13449493588399
30
0
0
SPLINE
5
D9
100
AcDbEntity
8
1
62
256
6
ByLayer
370
18
48
1
60
0
100
AcDbSpline
70
4
71
3
72
28
73
24
40
0
40
0
40
0
40
0
40
0.125
40
0.125
40
0.187499999999999
40
0.187499999999999
40
0.249999999999999
40
0.249999999999999
40
0.374999999999999
40
0.374999999999999
40
0.437499999999999
40
0.437499999999999
40
0.499999999999999
40
0.499999999999999
40
0.624999999999999
40
0.624999999999999
40
0.687499999999999
40
0.687499999999999
40
0.75
40
0.75
40
0.875
40
0.875
40
1
40
1
40
1
40
1
41
1
10
41.3046817060876
20
-0.0240033389332837
30
0
41
1
10
41.3110825224993
20
-0.230280971007573
30
0
41
1
10
41.3263159990773
20
-0.432610130936496
30
0
41
1
10
41.3562578948328
20
-0.730988722747156
30
0
41
1
10
41.3674440573876
20
-0.829588169036612
30
1E-16
41
1
10
41.391417356026
20
-1.02512006791233
30
1E-16
41
1
10
41.4042717435011
20
-1.12252238575286
30
1E-16
41
1
10
41.443592439911
20
-1.40814939541698
30
1E-16
41
1
10
41.4706852523364
20
-1.58972524218459
30
1E-16
41
1
10
41.5092436108618
20
-1.84952148630705
30
1E-16
41
1
10
41.52176707739
20
-1.93400945556357
30
1E-16
41
1
10
41.5457724015583
20
-2.0986898278338
30
1E-16
41
1
10
41.5572658120562
20
-2.17899317652714
30
1E-16
41
1
10
41.589166696432
20
-2.4086144535126
30
1E-16
41
1
10
41.6071821922631
20
-2.54840818309384
30
2E-16
41
1
10
41.6296222596172
20
-2.7382917050455
30
2E-16
41
1
10
41.6363539359382
20
-2.79826480335501
30
-1E-16
41
1
10
41.6485718887629
20
-2.91133788636412
30
0
41
1
10
41.6540272839104
20
-2.96415599786113
30
0
41
1
10
41.6688911216505
20
-3.10915603602254
30
0
41
1
10
41.6768556191405
20
-3.18903851838925
30
0
41
1
10
41.6941570073064
20
-3.31525976045089
30
0
41
1
10
41.7035622398191
20
-3.36154509381521
30
0
41
1
10
41.7169760242771
20
-3.38914940404666
30
0
0
SPLINE
5
DA
100
AcDbEntity
8
1
62
256
6
ByLayer
370
18
48
1
60
0
100
AcDbSpline
70
4
71
3
72
8
73
4
40
0
40
0
40
0
40
0
40
1
40
1
40
1
40
1
41
1
10
41.2121029512991
20
0.0347900003069412
30
0
41
1
10
41.2047166933264
20
0.204162760080436
30
0
41
1
10
41.2034410485938
20
0.372227818249541
30
0
41
1
10
41.2102203574506
20
0.538972920987902
30
0
0
SPLINE
5
DB
100
AcDbEntity
8
1
62
256
6
ByLayer
370
18
48
1
60
0
100
AcDbSpline
70
4
71
3
72
8
73
4
40
0
40
0
40
0
40
0
40
1
40
1
40
1
40
1
41
1
10
14.7457306170495
20
2.6701428054451
30
-2E-16
41
1
10
15.2961023491798
20
2.86040399751568
30
-2E-16
41
1
10
15.8464183482031
20
3.02541575515937
30
-1E-16
41
1
10
16.4000000000122
20
3.16086771332553
30
0
0
SPLINE
5
DC
100
AcDbEntity
8
1
62
256
6
ByLayer
370
18
48
1
60
0
100
AcDbSpline
70
4
71
3
72
8
73
4
40
0
40
0
40
0
40
0
40
1
40
1
40
1
40
1
41
1
10
42.396288997109
20
-0.378522132021828
30
0
41
1
10
42.2776834552069
20
-0.0619181741703301
30
0
41
1
10
42.1286891751313
20
0.274750316343045
30
0
41
1
10
41.9498301411566
20
0.631137372551251
30
0
0
SPLINE
5
DD
100
AcDbEntity
8
1
62
256
6
ByLayer
370
18
48
1
60
0
100
AcDbSpline
70
4
71
3
72
46
73
42
40
0
40
0
40
0
40
0
40
0.0574628449135104
40
0.0574628449135104
40
0.114925689827021
40
0.114925689827021
40
0.22985137965404
40
0.22985137965404
40
0.28731422456755
40
0.28731422456755
40
0.316045647024304
40
0.316045647024304
40
0.344777069481058
40
0.344777069481058
40
0.402239914394566
40
0.402239914394566
40
0.43097133685132
40
0.43097133685132
40
0.459702759308074
40
0.459702759308074
40
0.517165604221583
40
0.517165604221583
40
0.545897026678337
40
0.545897026678337
40
0.574628449135091
40
0.574628449135091
40
0.689554138962106
40
0.689554138962106
40
0.747016983875613
40
0.747016983875613
40
0.775748406332367
40
0.775748406332367
40
0.80447982878912
40
0.80447982878912
40
0.861942673702627
40
0.861942673702627
40
0.89067409615938
40
0.89067409615938
40
0.919405518616134
40
0.919405518616134
40
1
40
1
40
1
40
1
41
1
10
41.513222268181
20
-3.55350082663088
30
0
41
1
10
41.1161338526706
20
-3.5201412872415
30
0
41
1
10
40.7197170256027
20
-3.46929770340987
30
0
41
1
10
39.9259187003248
20
-3.33406723187645
30
0
41
1
10
39.5275673946311
20
-3.24937112830324
30
0
41
1
10
38.3393549575911
20
-2.9502122899552
30
2E-16
41
1
10
37.553941482321
20
-2.69041997463779
30
2E-16
41
1
10
36.3708953411718
20
-2.22961683877878
30
1E-16
41
1
10
35.975807532984
20
-2.06406637075642
30
1E-16
41
1
10
35.3801189660297
20
-1.80051318000903
30
1E-16
41
1
10
35.1810909255678
20
-1.71013680112543
30
1E-16
41
1
10
34.7840448887747
20
-1.52588792936464
30
1E-16
41
1
10
34.5857347210759
20
-1.43188917215539
30
1E-16
41
1
10
33.9909719477589
20
-1.14512744230609
30
1E-16
41
1
10
33.5947481488328
20
-0.947487036406272
30
1E-16
41
1
10
32.9989603154843
20
-0.644757672572325
30
0
41
1
10
32.7999273480008
20
-0.542721877658579
30
0
41
1
10
32.4026209027571
20
-0.338011202838857
30
0
41
1
10
32.2042129386924
20
-0.235267731049873
30
0
41
1
10
31.6092832510743
20
0.0732718431953856
30
0
41
1
10
31.213117105113
20
0.279495819089703
30
0
41
1
10
30.6175982355243
20
0.585851360493962
30
0
41
1
10
30.4185610406367
20
0.687603228425502
30
0
41
1
10
30.0213234522701
20
0.888650270681495
30
-1E-16
41
1
10
29.8232994922129
20
0.987855692270898
30
-1E-16
41
1
10
28.8354056718739
20
1.47601777580539
30
-1E-16
41
1
10
28.0526504004871
20
1.84208529179796
30
-1E-16
41
1
10
26.8745050848403
20
2.32862221310808
30
-1E-16
41
1
10
26.4812979654956
20
2.48067948805183
30
-2E-16
41
1
10
25.88878337127
20
2.69039851058329
30
-2E-16
41
1
10
25.6908392290342
20
2.75726234447811
30
-2E-16
41
1
10
25.2937898426516
20
2.88444310692299
30
-2E-16
41
1
10
25.0946677621925
20
2.9447544138128
30
-2E-16
41
1
10
24.498913284328
20
3.11397604234969
30
0
41
1
10
24.1025681971812
20
3.21159479034111
30
0
41
1
10
23.507459884101
20
3.33374850411448
30
0
41
1
10
23.3090547258024
20
3.37046854887396
30
0
41
1
10
22.9118103813389
20
3.43559173648609
30
0
41
1
10
22.7126562890889
20
3.46402234090058
30
0
41
1
10
21.9574971579521
20
3.55536508214945
30
0
41
1
10
21.4052319614667
20
3.58819379507713
30
0
41
1
10
20.8542646598357
20
3.58695959143932
30
0
0
SPLINE
5
DE
100
AcDbEntity
8
1
62
256
6
ByLayer
370
18
48
1
60
0
100
AcDbSpline
70
4
71
3
72
26
73
22
40
0
40
0
40
0
40
0
40
0.0430270596353915
40
0.0430270596353915
40
0.0954354590515164
40
0.0954354590515164
40
0.305069056716011
40
0.305069056716011
40
0.514702654380504
40
0.514702654380504
40
0.567111053796628
40
0.567111053796628
40
0.61951945321275
40
0.61951945321275
40
0.724336252044997
40
0.724336252044997
40
0.933969849709491
40
0.933969849709491
40
0.986378249125615
40
0.986378249125615
40
1
40
1
40
1
40
1
41
1
10
21.359361530924
20
-3.40915386536739
30
0
41
1
10
21.1953389964432
20
-3.41465728357949
30
0
41
1
10
21.0312892709225
20
-3.41729797305655
30
0
41
1
10
20.6672573962711
20
-3.41691308513586
30
0
41
1
10
20.4668884323279
20
-3.41233630136139
30
0
41
1
10
19.4680878164524
20
-3.36826877935528
30
0
41
1
10
18.677996158026
20
-3.26561190093915
30
0
41
1
10
17.0987982615093
20
-2.93877644795592
30
0
41
1
10
16.3093917897954
20
-2.7149163987543
30
2E-16
41
1
10
15.3116856921852
20
-2.37028121843869
30
1E-16
41
1
10
15.111197255961
20
-2.29797309944152
30
1E-16
41
1
10
14.7116809651885
20
-2.14831984254189
30
1E-16
41
1
10
14.5124966715459
20
-2.07091836740588
30
1E-16
41
1
10
13.9162268616119
20
-1.83192130531941
30
1E-16
41
1
10
13.5204231196753
20
-1.66354817247961
30
1E-16
41
1
10
12.3348361713758
20
-1.13748386390833
30
1E-16
41
1
10
11.5470265746567
20
-0.758506184781993
30
0
41
1
10
10.5539125257425
20
-0.272245231627892
30
0
41
1
10
10.3548720985552
20
-0.17436252528185
30
0
41
1
10
10.1034388082197
20
-0.0505306365019464
30
0
41
1
10
10.0515062327688
20
-0.0249436959895775
30
0
41
1
10
9.99953959088774
20
0.0006620972920643
30
0
0
SPLINE
5
DF
100
AcDbEntity
8
1
62
256
6
ByLayer
370
18
48
1
60
0
100
AcDbSpline
70
4
71
3
72
22
73
18
40
0
40
0
40
0
40
0
40
0.0322758065054864
40
0.0322758065054864
40
0.161507510531037
40
0.161507510531037
40
0.419970918582137
40
0.419970918582137
40
0.549202622607687
40
0.549202622607687
40
0.678434326633237
40
0.678434326633237
40
0.807666030658787
40
0.807666030658787
40
0.936897734684336
40
0.936897734684336
40
1
40
1
40
1
40
1
41
1
10
3.60219678678868
20
-2.68661589755658
30
1E-16
41
1
10
3.60219527442311
20
-2.70146859773391
30
1E-16
41
1
10
3.6021937384123
20
-2.71611552494113
30
1E-16
41
1
10
3.60218594010391
20
-2.78838014462113
30
-1E-16
41
1
10
3.60217932137112
20
-2.84302618577888
30
0
41
1
10
3.60215883881844
20
-2.99509357699284
30
0
41
1
10
3.60214431100059
20
-3.0813711295888
30
0
41
1
10
3.60212179097246
20
-3.18861548378087
30
0
41
1
10
3.6021141584252
20
-3.22064819903386
30
0
41
1
10
3.60209868757391
20
-3.27711757961359
30
0
41
1
10
3.60209082897811
20
-3.3015803597105
30
0
41
1
10
3.60207515523575
20
-3.34206233774319
30
0
41
1
10
3.6020673152353
20
-3.35819332824738
30
0
41
1
10
3.60205161784302
20
-3.3822596277985
30
0
41
1
10
3.6020437348775
20
-3.3902035023288
30
0
41
1
10
3.60203205000545
20
-3.39577719858644
30
0
41
1
10
3.60202823143999
20
-3.39661435970666
30
0
41
1
10
3.60202442294107
20
-3.39646811667629
30
0
0
SPLINE
5
E0
100
AcDbEntity
8
1
62
256
6
ByLayer
370
18
48
1
60
0
100
AcDbSpline
70
4
71
3
72
30
73
26
40
0
40
0
40
0
40
0
40
0.349101257800653
40
0.349101257800653
40
0.580695725916108
40
0.580695725916108
40
0.73079469499108
40
0.73079469499108
40
0.828037699541228
40
0.828037699541228
40
0.890894448792908
40
0.890894448792908
40
0.931550556291097
40
0.931550556291097
40
0.957899743028029
40
0.957899743028029
40
0.975007838233331
40
0.975007838233331
40
0.986201240184322
40
0.986201240184322
40
0.993583215977528
40
0.993583215977528
40
0.998458558089015
40
0.998458558089015
40
1
40
1
40
1
40
1
41
1
10
41.5265830893383
20
3.59929317450474
30
0
41
1
10
41.5517387016075
20
3.58284306782679
30
0
41
1
10
41.5769372329591
20
3.56627417982372
30
0
41
1
10
41.6188784764344
20
3.5385544503624
30
0
41
1
10
41.6356105436479
20
3.52745853714202
30
0
41
1
10
41.6631711694369
20
3.50912128356862
30
0
41
1
10
41.6740025817794
20
3.50189936110428
30
0
41
1
10
41.6918479652506
20
3.48997497462847
30
0
41
1
10
41.6988662179776
20
3.48527862992111
30
0
41
1
10
41.7104445876591
20
3.47751962477611
30
0
41
1
10
41.714996410282
20
3.47446648634656
30
0
41
1
10
41.7225068599801
20
3.46942431763179
30
0
41
1
10
41.7254604019498
20
3.46744029930744
30
0
41
1
10
41.7303352428938
20
3.46416383528532
30
0
41
1
10
41.7322540528078
20
3.46287370523424
30
0
41
1
10
41.7354219504762
20
3.46074299296657
30
0
41
1
10
41.7366705617656
20
3.45990299221626
30
0
41
1
10
41.7387252848827
20
3.45852043221399
30
0
41
1
10
41.7395352171466
20
3.45797538820077
30
0
41
1
10
41.7408688362464
20
3.45707782342583
30
0
41
1
10
41.7413963084541
20
3.4567227906218
30
0
41
1
10
41.7422641230435
20
3.45613863123757
30
0
41
1
10
41.7426073853184
20
3.45590755686692
30
0
41
1
10
41.7430457980907
20
3.45561243104709
30
0
41
1
10
41.7431500417529
20
3.4555422575834
30
0
41
1
10
41.7432526125986
20
3.45547321092658
30
0
0
SPLINE
5
E1
100
AcDbEntity
8
1
62
256
6
ByLayer
370
18
48
1
60
0
100
AcDbSpline
70
4
71
3
72
10
73
6
40
0
40
0
40
0
40
0
40
0.5
40
0.5
40
1
40
1
40
1
40
1
41
1
10
42.0761543656884
20
1.0076887109567
30
0
41
1
10
42.1770526738808
20
1.02344667975035
30
0
41
1
10
42.2777604596049
20
1.04163846495379
30
0
41
1
10
42.4777387724524
20
1.08334487195754
30
0
41
1
10
42.5771310394375
20
1.10677584923343
30
0
41
1
10
42.6755303848468
20
1.13449493588399
30
0
0
SPLINE
5
E2
100
AcDbEntity
8
1
62
256
6
ByLayer
370
18
48
1
60
0
100
AcDbSpline
70
4
71
3
72
8
73
4
40
0
40
0
40
0
40
0
40
1
40
1
40
1
40
1
41
1
10
41.7143862025168
20
-3.40036198588933
30
0
41
1
10
41.7092106800688
20
-3.4153658702395
30
0
41
1
10
41.7040562112103
20
-3.43036948767613
30
0
41
1
10
41.6989232010444
20
-3.44537295240488
30
0
0
SPLINE
5
E3
100
AcDbEntity
8
1
62
256
6
ByLayer
370
18
48
1
60
0
100
AcDbSpline
70
4
71
3
72
30
73
26
40
0
40
0
40
0
40
0
40
0.0014189470335498
40
0.0014189470335498
40
0.0539758445581
40
0.0539758445581
40
0.1590896396072
40
0.1590896396072
40
0.264203434656301
40
0.264203434656301
40
0.369317229705401
40
0.369317229705401
40
0.42187412722995
40
0.42187412722995
40
0.474431024754498
40
0.474431024754498
40
0.579544819803599
40
0.579544819803599
40
0.684658614852699
40
0.684658614852699
40
0.789772409901799
40
0.789772409901799
40
0.8948862049509
40
0.8948862049509
40
1
40
1
40
1
40
1
41
1
10
30.1190640199433
20
3.41871433405441
30
0
41
1
10
30.1243918626971
20
3.41880967253357
30
0
41
1
10
30.1297190520355
20
3.41890195932396
30
0
41
1
10
30.3323356286555
20
3.42229666812096
30
0
41
1
10
30.5290630266513
20
3.42144587995364
30
0
41
1
10
31.117743148711
20
3.40772991937584
30
0
41
1
10
31.5078924223261
20
3.3846608753932
30
0
41
1
10
32.2881767569684
20
3.30206795016008
30
0
41
1
10
32.677916023016
20
3.24445979229807
30
0
41
1
10
33.4579410462751
20
3.09969746156369
30
0
41
1
10
33.8477016982295
20
3.01330962220214
30
0
41
1
10
34.4356730883143
20
2.86044868743997
30
0
41
1
10
34.6321273071593
20
2.805818413254
30
1E-16
41
1
10
35.0260457923844
20
2.68964673253086
30
-2E-16
41
1
10
35.2238297384537
20
2.62798476558118
30
-2E-16
41
1
10
35.816526020992
20
2.433894921724
30
-1E-16
41
1
10
36.2089632671767
20
2.29304453427241
30
-1E-16
41
1
10
36.9918742903985
20
1.99111016310906
30
-1E-16
41
1
10
37.3821629436605
20
1.83049327419138
30
-1E-16
41
1
10
38.1615177752581
20
1.49348290559215
30
-1E-16
41
1
10
38.5503905220219
20
1.3169494149632
30
-1E-16
41
1
10
39.3311592654066
20
0.952788952292991
30
-1E-16
41
1
10
39.7226582141829
20
0.765149115818843
30
0
41
1
10
40.5089085473492
20
0.382081753919181
30
0
41
1
10
40.9045038043259
20
0.186135538495933
30
0
41
1
10
41.2993469948078
20
-0.0102750598910859
30
0
0
SPLINE
5
E4
100
AcDbEntity
8
1
62
256
6
ByLayer
370
18
48
1
60
0
100
AcDbSpline
70
4
71
3
72
8
73
4
40
0
40
0
40
0
40
0
40
1
40
1
40
1
40
1
41
1
10
41.7432526125897
20
-3.45547321093255
30
0
41
1
10
41.7454645657729
20
-3.45398331179624
30
0
41
1
10
41.7476765578226
20
-3.45249322196062
30
0
41
1
10
41.7498885891399
20
-3.45100294146772
30
0
0
SPLINE
5
E5
100
AcDbEntity
8
1
62
256
6
ByLayer
370
18
48
1
60
0
100
AcDbSpline
70
4
71
3
72
22
73
18
40
0
40
0
40
0
40
0
40
0.0597514371989108
40
0.0597514371989108
40
0.119502874397821
40
0.119502874397821
40
0.239005748795642
40
0.239005748795642
40
0.478011497591288
40
0.478011497591288
40
0.597514371989111
40
0.597514371989111
40
0.717017246386934
40
0.717017246386934
40
0.95602299518258
40
0.95602299518258
40
1
40
1
40
1
40
1
41
1
10
41.7143862025167
20
-3.40036198588931
30
0
41
1
10
41.514521319346
20
-3.38698274745948
30
0
41
1
10
41.3147214227223
20
-3.37005819372669
30
0
41
1
10
40.91502260161
20
-3.32703165152057
30
0
41
1
10
40.7149583920669
20
-3.30127160040487
30
0
41
1
10
40.1152133286305
20
-3.21171433663275
30
0
41
1
10
39.7178746101001
20
-3.13595248640502
30
0
41
1
10
38.5300154205901
20
-2.8650329342569
30
0
41
1
10
37.7437730626486
20
-2.62604443430871
30
2E-16
41
1
10
36.5591376425656
20
-2.19701046941142
30
1E-16
41
1
10
36.1634415561689
20
-2.04231203402242
30
1E-16
41
1
10
35.368117204057
20
-1.71277707469517
30
1E-16
41
1
10
34.9669435649064
20
-1.53711775098094
30
1E-16
41
1
10
33.7726306416271
20
-0.994225359404794
30
1E-16
41
1
10
32.984710343104
20
-0.60931232557644
30
0
41
1
10
32.0509025217423
20
-0.14846095153132
30
0
41
1
10
31.9057670401303
20
-0.0766764129697606
30
0
41
1
10
31.7605562956289
20
-0.004847584037293
30
0
0
SPLINE
5
E6
100
AcDbEntity
8
1
62
256
6
ByLayer
370
18
48
1
60
0
100
AcDbSpline
70
4
71
3
72
58
73
54
40
0
40
0
40
0
40
0
40
0.125000000000006
40
0.125000000000006
40
0.18750000000001
40
0.18750000000001
40
0.250000000000013
40
0.250000000000013
40
0.281250000000014
40
0.281250000000014
40
0.312500000000015
40
0.312500000000015
40
0.343750000000016
40
0.343750000000016
40
0.375000000000017
40
0.375000000000017
40
0.406250000000018
40
0.406250000000018
40
0.421875000000018
40
0.421875000000018
40
0.437500000000018
40
0.437500000000018
40
0.468750000000019
40
0.468750000000019
40
0.48437500000002
40
0.48437500000002
40
0.50000000000002
40
0.50000000000002
40
0.531250000000021
40
0.531250000000021
40
0.562500000000022
40
0.562500000000022
40
0.625000000000024
40
0.625000000000024
40
0.687500000000026
40
0.687500000000026
40
0.695312500000027
40
0.695312500000027
40
0.699218750000027
40
0.699218750000027
40
0.703125000000028
40
0.703125000000028
40
0.707031250000028
40
0.707031250000028
40
0.710937500000029
40
0.710937500000029
40
0.718750000000029
40
0.718750000000029
40
0.750000000000027
40
0.750000000000027
40
0.875000000000014
40
0.875000000000014
40
1
40
1
40
1
40
1
41
1
10
5.11920166155619
20
-2.83549604468408
30
2E-16
41
1
10
4.70612724802973
20
-2.70516348447077
30
2E-16
41
1
10
4.30300132324444
20
-2.55213815432279
30
2E-16
41
1
10
3.72038755396901
20
-2.26946657261502
30
1E-16
41
1
10
3.52990396870584
20
-2.16628169507911
30
1E-16
41
1
10
3.15916445343066
20
-1.93481052975773
30
1E-16
41
1
10
2.9802460650651
20
-1.80742343344738
30
1E-16
41
1
10
2.72917550586575
20
-1.59256124805319
30
1E-16
41
1
10
2.64793462155168
20
-1.5164662735323
30
1E-16
41
1
10
2.49486374935662
20
-1.35601626565034
30
1E-16
41
1
10
2.42296383190379
20
-1.27170200882196
30
1E-16
41
1
10
2.29091094866533
20
-1.09270440278848
30
1E-16
41
1
10
2.23071348790887
20
-0.998059909967225
30
1E-16
41
1
10
2.12623655815796
20
-0.794728529256616
30
0
41
1
10
2.08321685063183
20
-0.688115689357829
30
0
41
1
10
2.02144650919831
20
-0.466491457216677
30
0
41
1
10
2.00268954564109
20
-0.349582721964708
30
0
41
1
10
1.99682217438527
20
-0.1759630489085
30
0
41
1
10
1.99842695513726
20
-0.118071619792517
30
0
41
1
10
2.00880722304711
20
-0.0022535694289445
30
0
41
1
10
2.01766759542849
20
0.0560353121914829
30
0
41
1
10
2.05455586601067
20
0.228289593701874
30
0
41
1
10
2.0922767511594
20
0.338196628025003
30
0
41
1
10
2.16507240531502
20
0.496985724805455
30
0
41
1
10
2.19209213195958
20
0.54888653522832
30
0
41
1
10
2.24986553271828
20
0.648838589963418
30
0
41
1
10
2.2807459617463
20
0.697185316953806
30
0
41
1
10
2.37854529920727
20
0.838020363105471
30
-1E-16
41
1
10
2.45058255428535
20
0.926336403301747
30
-1E-16
41
1
10
2.60536475609351
20
1.09428502338113
30
-1E-16
41
1
10
2.68765241473187
20
1.17331890054183
30
-1E-16
41
1
10
2.94215713710145
20
1.39574959851441
30
-1E-16
41
1
10
3.12345394148341
20
1.52647099705649
30
-1E-16
41
1
10
3.50126663655703
20
1.76532877643851
30
-1E-16
41
1
10
3.69824977921445
20
1.87336752723036
30
-1E-16
41
1
10
3.92413708722438
20
1.98447569374449
30
-1E-16
41
1
10
3.949301458544
20
1.99667748808702
30
-1E-16
41
1
10
3.98714316394205
20
2.01477313542338
30
-1E-16
41
1
10
3.99965634189363
20
2.02094725056747
30
-1E-16
41
1
10
4.02523648622008
20
2.03243360305251
30
-1E-16
41
1
10
4.03920957206287
20
2.03605890597282
30
-1E-16
41
1
10
4.06789774755828
20
2.03919453424427
30
-1E-16
41
1
10
4.08224426952711
20
2.03912824506082
30
-1E-16
41
1
10
4.11094150282111
20
2.03618334076086
30
-1E-16
41
1
10
4.12505510444373
20
2.03313861676318
30
-1E-16
41
1
10
4.16685445233676
20
2.02312591437629
30
-1E-16
41
1
10
4.19468769673546
20
2.01634128308814
30
-1E-16
41
1
10
4.33373755126328
20
1.98202035995635
30
-1E-16
41
1
10
4.44454183977774
20
1.95313342089571
30
-1E-16
41
1
10
4.99631868663607
20
1.80144690778377
30
-1E-16
41
1
10
5.42942654753426
20
1.65686853281758
30
-1E-16
41
1
10
6.28073847051616
20
1.32312703160852
30
-1E-16
41
1
10
6.69939391747079
20
1.13377125861328
30
-1E-16
41
1
10
7.11181509005942
20
0.927719188119369
30
-1E-16
0
SPLINE
5
E7
100
AcDbEntity
8
1
62
256
6
ByLayer
370
18
48
1
60
0
100
AcDbSpline
70
4
71
3
72
8
73
4
40
0
40
0
40
0
40
0
40
1
40
1
40
1
40
1
41
1
10
16.4
20
3.16086771331072
30
0
41
1
10
16.4
20
3.11677691384591
30
0
41
1
10
16.4
20
3.07276415638418
30
0
41
1
10
16.4
20
3.02882857187979
30
0
0
SPLINE
5
E8
100
AcDbEntity
8
1
62
256
6
ByLayer
370
18
48
1
60
0
100
AcDbSpline
70
4
71
3
72
14
73
10
40
0
40
0
40
0
40
0
40
0.269402268268107
40
0.269402268268107
40
0.506171852451778
40
0.506171852451778
40
0.783246999976204
40
0.783246999976204
40
1
40
1
40
1
40
1
41
1
10
41.2993469948078
20
-0.0102750598910575
30
0
41
1
10
41.3000918465355
20
-0.010641244793959
30
0
41
1
10
41.3008191747666
20
-0.0113735455596782
30
0
41
1
10
41.3020345204163
20
-0.0131742315908525
30
0
41
1
10
41.302557545415
20
-0.0142154386542188
30
0
41
1
10
41.3035261680561
20
-0.0167362242094953
30
0
41
1
10
41.3039590888784
20
-0.0182995064678551
30
0
41
1
10
41.304486478255
20
-0.0212462409101022
30
0
41
1
10
41.3046390599005
20
-0.0226289901115138
30
0
41
1
10
41.3046817060873
20
-0.0240033389249845
30
0
0
SPLINE
5
E9
100
AcDbEntity
8
1
62
256
6
ByLayer
370
18
48
1
60
0
100
AcDbSpline
70
4
71
3
72
72
73
68
40
0
40
0
40
0
40
0
40
0.0168514310448137
40
0.0168514310448137
40
0.0578501215875247
40
0.0578501215875247
40
0.0988488121302356
40
0.0988488121302356
40
0.139847502672946
40
0.139847502672946
40
0.180846193215657
40
0.180846193215657
40
0.201345538487012
40
0.201345538487012
40
0.221844883758367
40
0.221844883758367
40
0.242344229029722
40
0.242344229029722
40
0.262843574301077
40
0.262843574301077
40
0.303842264843787
40
0.303842264843787
40
0.344840955386496
40
0.344840955386496
40
0.365340300657851
40
0.365340300657851
40
0.385839645929205
40
0.385839645929205
40
0.426838336471914
40
0.426838336471914
40
0.467837027014624
40
0.467837027014624
40
0.508835717557334
40
0.508835717557334
40
0.529335062828689
40
0.529335062828689
40
0.549834408100044
40
0.549834408100044
40
0.570333753371399
40
0.570333753371399
40
0.590833098642753
40
0.590833098642753
40
0.631831789185463
40
0.631831789185463
40
0.652331134456818
40
0.652331134456818
40
0.672830479728173
40
0.672830479728173
40
0.713829170270882
40
0.713829170270882
40
0.734328515542237
40
0.734328515542237
40
0.754827860813591
40
0.754827860813591
40
0.7958265513563
40
0.7958265513563
40
0.836825241899008
40
0.836825241899008
40
0.877823932441717
40
0.877823932441717
40
0.918822622984425
40
0.918822622984425
40
0.93932196825578
40
0.93932196825578
40
0.959821313527134
40
0.959821313527134
40
1
40
1
40
1
40
1
41
1
10
37.1710980243889
20
-2.41009743941714
30
1E-16
41
1
10
37.0154795624241
20
-2.46997696226052
30
2E-16
41
1
10
36.859451315948
20
-2.52820747106435
30
2E-16
41
1
10
36.3257517206662
20
-2.72143521051476
30
2E-16
41
1
10
35.9495634576247
20
-2.84573776739998
30
2E-16
41
1
10
35.1988355147397
20
-3.06703831848699
30
0
41
1
10
34.8250817184586
20
-3.16485927869976
30
0
41
1
10
34.0770117442751
20
-3.33120862172606
30
0
41
1
10
33.7027504127375
20
-3.39993657373523
30
0
41
1
10
32.9531478083387
20
-3.50772567301956
30
0
41
1
10
32.5770907617943
20
-3.54634376268413
30
0
41
1
10
32.0099095237454
20
-3.5805623387833
30
0
41
1
10
31.8201815516539
20
-3.58805217568724
30
0
41
1
10
31.4418495288079
20
-3.59482201779778
30
0
41
1
10
31.2531911585259
20
-3.59414747604757
30
0
41
1
10
30.8765274633612
20
-3.58486602309026
30
0
41
1
10
30.688478187912
20
-3.57628110236945
30
0
41
1
10
30.3132602801833
20
-3.55123556345455
30
0
41
1
10
30.1260997604953
20
-3.53474310659743
30
0
41
1
10
29.5647432381007
20
-3.47379744007603
30
0
41
1
10
29.1905477187859
20
-3.41809230683793
30
0
41
1
10
28.4423792853222
20
-3.27650310228714
30
0
41
1
10
28.0679454037513
20
-3.19078816063504
30
0
41
1
10
27.5035124883257
20
-3.04166605508442
30
0
41
1
10
27.3149637471791
20
-2.98849984303868
30
0
41
1
10
26.9372740588726
20
-2.874816271843
30
2E-16
41
1
10
26.7475254546341
20
-2.81440061864251
30
2E-16
41
1
10
26.1795170269777
20
-2.62454862328883
30
2E-16
41
1
10
25.8026439387401
20
-2.48697769601529
30
2E-16
41
1
10
25.0522664821752
20
-2.19054678550697
30
1E-16
41
1
10
24.6780487793533
20
-2.03271792844436
30
1E-16
41
1
10
23.9294423169193
20
-1.70157452111653
30
1E-16
41
1
10
23.5558744985705
20
-1.5268204946224
30
1E-16
41
1
10
22.9934631897981
20
-1.25636989766522
30
1E-16
41
1
10
22.8056623467983
20
-1.16482842343757
30
1E-16
41
1
10
22.4294268585056
20
-0.978890670867798
30
1E-16
41
1
10
22.2411862368125
20
-0.884107055521127
30
1E-16
41
1
10
21.8635512013273
20
-0.692606482949941
30
0
41
1
10
21.6738525823752
20
-0.595620229506579
30
0
41
1
10
21.2947960643131
20
-0.401133129417076
30
0
41
1
10
21.1057073564344
20
-0.303883456204801
30
0
41
1
10
20.5401875762259
20
-0.0111950910111887
30
0
41
1
10
20.1652982956796
20
0.184727805419669
30
0
41
1
10
19.6031990683619
20
0.473994930521485
30
0
41
1
10
19.4158860674107
20
0.569685639607826
30
0
41
1
10
19.041824154017
20
0.760491857531377
30
0
41
1
10
18.8548998732891
20
0.855261318131795
30
-1E-16
41
1
10
18.2936181185819
20
1.13607522677285
30
-1E-16
41
1
10
17.9185376433423
20
1.31824977731435
30
-1E-16
41
1
10
17.3547832569884
20
1.58426173930761
30
-1E-16
41
1
10
17.1665155726267
20
1.67142160415014
30
-1E-16
41
1
10
16.7888943324583
20
1.84200068181363
30
-1E-16
41
1
10
16.5992782741483
20
1.92549860048263
30
-1E-16
41
1
10
16.0301319192154
20
2.16906470619628
30
-1E-16
41
1
10
15.6535065688888
20
2.32220816153489
30
-1E-16
41
1
10
14.9021136843271
20
2.60462103222807
30
-2E-16
41
1
10
14.527358719853
20
2.734053195379
30
-2E-16
41
1
10
13.7791768880358
20
2.96882120639262
30
-2E-16
41
1
10
13.4050276801784
20
3.0732437424125
30
0
41
1
10
12.6549739819333
20
3.25456985594843
30
0
41
1
10
12.2797669017547
20
3.33200039619794
30
0
41
1
10
11.7133296068394
20
3.42515637931672
30
0
41
1
10
11.5238807310384
20
3.45243543867929
30
0
41
1
10
11.1442683928822
20
3.49943978202279
30
0
41
1
10
10.9552436428212
20
3.51902291880998
30
0
41
1
10
10.3967649614005
20
3.56500016496847
30
0
41
1
10
10.0281897485212
20
3.58003110036077
30
0
41
1
10
9.66088389819112
20
3.57997941891543
30
0
0
SPLINE
5
EA
100
AcDbEntity
8
1
62
256
6
ByLayer
370
18
48
1
60
0
100
AcDbSpline
70
4
71
3
72
8
73
4
40
0
40
0
40
0
40
0
40
1
40
1
40
1
40
1
41
1
10
41.7432526125994
20
3.45547321092602
30
0
41
1
10
41.7454645657794
20
3.45398331179189
30
0
41
1
10
41.7476765578259
20
3.45249322195843
30
0
41
1
10
41.7498885891399
20
3.45100294146769
30
0
0
SPLINE
5
EB
100
AcDbEntity
8
1
62
256
6
ByLayer
370
18
48
1
60
0
100
AcDbSpline
70
4
71
3
72
14
73
10
40
0
40
0
40
0
40
0
40
0.189144688061565
40
0.330397460219895
40
0.423101503989209
40
0.491777476501028
40
0.621286157275334
40
0.796906568261057
40
1
40
1
40
1
40
1
41
1
10
8.64626974506976
20
3.40106603633348
30
0
41
1
10
8.32825409934583
20
3.40018419846712
30
0
41
1
10
7.77273615935098
20
3.39906545281212
30
0
41
1
10
7.06130350882859
20
3.39931414511094
30
0
41
1
10
6.55245533675702
20
3.39909525346354
30
0
41
1
10
6.06333739543027
20
3.39907147860637
30
0
41
1
10
5.43480465018541
20
3.39755447130145
30
0
41
1
10
4.58026154274484
20
3.39854234967157
30
0
41
1
10
3.94347312816046
20
3.39718419306377
30
0
41
1
10
3.60198098035633
20
3.39630142109144
30
0
0
SPLINE
5
EC
100
AcDbEntity
8
1
62
256
6
ByLayer
370
18
48
1
60
0
100
AcDbSpline
70
4
71
1
72
4
73
2
40
0
40
0
40
1
40
1
41
1
10
41.2792790062621
20
-0.000293157368759
30
0
41
1
10
41.2792440946985
20
-0.0002755715217688
30
0
0
SPLINE
5
ED
100
AcDbEntity
8
1
62
256
6
ByLayer
370
18
48
1
60
0
100
AcDbSpline
70
4
71
3
72
13
73
9
40
0
40
0
40
0
40
0
40
0.0647320963898895
40
0.192697543781846
40
0.313478494459621
40
0.483400604886689
40
0.725440884218045
40
1
40
1
40
1
40
1
41
1
10
41.9458392298863
20
0.634216418161998
30
0
41
1
10
41.8540099113524
20
0.663595870570987
30
0
41
1
10
41.5809766222396
20
0.752068298599426
30
0
41
1
10
41.1389475287609
20
0.902708833252916
30
-1E-16
41
1
10
40.5499131032059
20
1.10768662173564
30
-1E-16
41
1
10
39.8033263092908
20
1.37713637979382
30
-1E-16
41
1
10
38.8460644841892
20
1.73802333735279
30
-1E-16
41
1
10
38.1312731448955
20
2.0238609195402
30
-1E-16
41
1
10
37.7528559019046
20
2.17968334231074
30
-1E-16
0
SPLINE
5
EE
100
AcDbEntity
8
1
62
256
6
ByLayer
370
18
48
1
60
0
100
AcDbSpline
70
4
71
1
72
4
73
2
40
0
40
0
40
1
40
1
41
1
10
37.7528559019046
20
2.17968334231074
30
-1E-16
41
1
10
37.5892752334366
20
2.24507456240499
30
-1E-16
0
SPLINE
5
EF
100
AcDbEntity
8
1
62
256
6
ByLayer
370
18
48
1
60
0
100
AcDbSpline
70
4
71
3
72
17
73
13
40
0
40
0
40
0
40
0
40
0.131467845718407
40
0.233255775645354
40
0.313396379489476
40
0.397171727583067
40
0.484542719280692
40
0.571979597716406
40
0.830678836499364
40
0.890226097842653
40
0.975641942191365
40
1
40
1
40
1
40
1
41
1
10
20.878482466827
20
-3.40714484293704
30
0
41
1
10
21.2028454021578
20
-3.40745061065397
30
0
41
1
10
21.7783687204119
20
-3.4079036111975
30
0
41
1
10
22.5518159496359
20
-3.4075343109107
30
0
41
1
10
23.2074033895301
20
-3.40823870708454
30
0
41
1
10
23.827529183678
20
-3.40931664155104
30
0
41
1
10
24.4656490744618
20
-3.40865072492568
30
0
41
1
10
25.5354444051845
20
-3.40790808798053
30
0
41
1
10
26.5365657774573
20
-3.41149002983107
30
0
41
1
10
27.5327235536878
20
-3.41019746465383
30
0
41
1
10
27.9505317252985
20
-3.40916077866129
30
0
41
1
10
28.2214173782125
20
-3.40941240526823
30
0
41
1
10
28.2815254743002
20
-3.40950056153053
30
0
0
SPLINE
5
F0
100
AcDbEntity
8
1
62
256
6
ByLayer
370
18
48
1
60
0
100
AcDbSpline
70
4
71
3
72
17
73
13
40
0
40
0
40
0
40
0
40
0.148249341880292
40
0.257196338882825
40
0.327954682692282
40
0.387467326396182
40
0.447593374732466
40
0.686846766255165
40
0.795772095810227
40
0.898749943004835
40
0.989127781924925
40
1
40
1
40
1
40
1
41
1
10
30.4019927589941
20
3.41097002753531
30
0
41
1
10
30.03726622592
20
3.41237179865627
30
0
41
1
10
29.4045004722134
20
3.41378357360992
30
0
41
1
10
28.5976300165509
20
3.4087196099309
30
0
41
1
10
28.0090859080254
20
3.40941913226411
30
0
41
1
10
27.5406483306562
20
3.41008336024601
30
0
41
1
10
26.6576623841269
20
3.4115370964146
30
0
41
1
10
25.6531031775361
20
3.40833045539242
30
0
41
1
10
24.543116488651
20
3.40847245443891
30
0
41
1
10
23.7994060116077
20
3.40943969341106
30
0
41
1
10
23.2969435785258
20
3.40833741895466
30
0
41
1
10
23.047839001942
20
3.40806934645269
30
0
41
1
10
23.0210901985922
20
3.40804341675158
30
0
0
SPLINE
5
F1
100
AcDbEntity
8
1
62
256
6
ByLayer
370
18
48
1
60
0
100
AcDbSpline
70
4
71
3
72
12
73
8
40
0
40
0
40
0
40
0
40
0.321171572444126
40
0.585008470681208
40
0.761398339725226
40
0.887681416067288
40
1
40
1
40
1
40
1
41
1
10
3.60197748472143
20
-3.39630525881236
30
0
41
1
10
3.93488492768987
20
-3.39721602932326
30
0
41
1
10
4.54126984748774
20
-3.39856866384321
30
0
41
1
10
5.3304853369028
20
-3.39746102366991
30
0
41
1
10
5.91769698991655
20
-3.39888945019379
30
0
41
1
10
6.34784843458149
20
-3.39907137564532
30
0
41
1
10
6.59515901158946
20
-3.39915812663492
30
0
41
1
10
6.71157788190342
20
-3.39918578325171
30
0
0
SPLINE
5
F2
100
AcDbEntity
8
1
62
256
6
ByLayer
370
18
48
1
60
0
100
AcDbSpline
70
4
71
3
72
8
73
4
40
0
40
0
40
0
40
0
40
1
40
1
40
1
40
1
41
1
10
7.12260408468458
20
0.917827609319204
30
-1E-16
41
1
10
7.06418164926336
20
0.944311203001462
30
-1E-16
41
1
10
7.00562698241569
20
0.971246118574982
30
-1E-16
41
1
10
6.94704680260378
20
0.998608633015891
30
-1E-16
0
SPLINE
5
F3
100
AcDbEntity
8
1
62
256
6
ByLayer
370
18
48
1
60
0
100
AcDbSpline
70
4
71
3
72
29
73
25
40
0
40
0
40
0
40
0
40
1.87458039235E-05
40
3.74241234364E-05
40
5.36941211377E-05
40
7.00662002983E-05
40
8.77050403487E-05
40
0.0003074729530458
40
0.0004666157890928
40
0.0007530962182957
40
0.0012766570240955
40
0.0022507223451125
40
0.0041150631812605
40
0.0078432974763122
40
0.0157759034559256
40
0.0340154186792987
40
0.07959914340629
40
0.239364435430413
40
0.387761088518322
40
0.534937755972084
40
0.627926343452088
40
0.726127038426816
40
0.854121464637417
40
1
40
1
40
1
40
1
41
1
10
22.2500042690674
20
0.0027579317948039
30
0
41
1
10
22.2500190414775
20
0.0027540458736723
30
0
41
1
10
22.2500420509969
20
0.0027481681145218
30
0
41
1
10
22.250033582159
20
0.0027570413188585
30
0
41
1
10
22.2499878790782
20
0.0027714776676646
30
0
41
1
10
22.2499078078392
20
0.0027959078227582
30
0
41
1
10
22.2494223583881
20
0.0029393643400795
30
0
41
1
10
22.2485590752446
20
0.0031868768949721
30
0
41
1
10
22.2471975472756
20
0.0035829883463236
30
0
41
1
10
22.2451854191542
20
0.0041662555839252
30
0
41
1
10
22.2414954469442
20
0.0052365406381796
30
0
41
1
10
22.2345193410878
20
0.0072574702022337
30
0
41
1
10
22.2208667160299
20
0.0112082068210384
30
0
41
1
10
22.1926403249941
20
0.0193642126607756
30
0
41
1
10
22.1299721765444
20
0.0374606750691555
30
0
41
1
10
21.9789457093356
20
0.0811950724571204
30
0
41
1
10
21.506922156375
20
0.219616475520382
30
0
41
1
10
20.7609958856505
20
0.44814631367629
30
0
41
1
10
19.8067500224863
20
0.758820537022245
30
0
41
1
10
18.9964946871693
20
1.03749151531918
30
-1E-16
41
1
10
18.2940812946142
20
1.2894455431809
30
-1E-16
41
1
10
17.6338831388275
20
1.53406169501085
30
-1E-16
41
1
10
16.8674124474343
20
1.82821109225384
30
-1E-16
41
1
10
16.3066473291459
20
2.05371474995329
30
-1E-16
41
1
10
16.0088670322336
20
2.17629208011104
30
-1E-16
0
SPLINE
5
F4
100
AcDbEntity
8
1
62
256
6
ByLayer
370
18
48
1
60
0
100
AcDbSpline
70
4
71
2
72
6
73
3
40
0
40
0
40
0
40
1
40
1
40
1
41
1
10
9.99762635998229
20
0.0016046687144637
30
0
41
1
10
9.99763612161735
20
0.0016127791581084
30
0
41
1
10
9.99764588338297
20
0.001620293493545
30
0
0
LINE
5
84
100
AcDbEntity
8
SK1
62
256
6
ByLayer
370
18
48
1
60
0
100
AcDbLine
10
-34.76
20
-4
30
0
11
-34.76
21
4
31
0
39
0
210
0
220
0
230
1
0
LINE
5
86
100
AcDbEntity
8
SK1
62
256
6
ByLayer
370
18
48
1
60
0
100
AcDbLine
10
-36
20
-2.76
30
0
11
-36
21
2.76
31
0
39
0
210
0
220
0
230
1
0
LINE
5
87
100
AcDbEntity
8
SK1
62
256
6
ByLayer
370
18
48
1
60
0
100
AcDbLine
10
0
20
4
30
0
11
0
21
-4
31
0
39
0
210
0
220
0
230
1
0
LINE
5
88
100
AcDbEntity
8
1
62
256
6
ByLayer
370
18
48
1
60
0
100
AcDbLine
10
3.501703
20
-3.576131
30
0
11
3.501703
21
-2.74048
31
0
39
0
210
0
220
0
230
1
0
LINE
5
89
100
AcDbEntity
8
1
62
256
6
ByLayer
370
18
48
1
60
0
100
AcDbLine
10
0
20
4
30
0
11
0
21
0
31
0
39
0
210
0
220
0
230
1
0
LINE
5
8A
100
AcDbEntity
8
1
62
256
6
ByLayer
370
18
48
1
60
0
100
AcDbLine
10
0
20
0
30
0
11
0
21
-4
31
0
39
0
210
0
220
0
230
1
0
LINE
5
8B
100
AcDbEntity
8
1
62
256
6
ByLayer
370
18
48
1
60
0
100
AcDbLine
10
0.5432
20
3.787311
30
0
11
0.5432
21
0
31
0
39
0
210
0
220
0
230
1
0
LINE
5
8C
100
AcDbEntity
8
1
62
256
6
ByLayer
370
18
48
1
60
0
100
AcDbLine
10
0.5432
20
0
30
0
11
0.5432
21
-3.787311
31
0
39
0
210
0
220
0
230
1
0
LINE
5
8D
100
AcDbEntity
8
1
62
256
6
ByLayer
370
18
48
1
60
0
100
AcDbLine
10
16.4
20
-3.135625
30
0
11
16.4
21
-3.160868
31
0
39
0
210
0
220
0
230
1
0
LINE
5
8E
100
AcDbEntity
8
1
62
256
6
ByLayer
370
18
48
1
60
0
100
AcDbLine
10
1.086899
20
3.574622
30
0
11
1.086899
21
0
31
0
39
0
210
0
220
0
230
1
0
LINE
5
8F
100
AcDbEntity
8
1
62
256
6
ByLayer
370
18
48
1
60
0
100
AcDbLine
10
1.086899
20
0
30
0
11
1.086899
21
-3.574622
31
0
39
0
210
0
220
0
230
1
0
LINE
5
90
100
AcDbEntity
8
1
62
256
6
ByLayer
370
18
48
1
60
0
100
AcDbLine
10
42.949798
20
0.043338
30
0
11
42.076154
21
1.007689
31
0
39
0
210
0
220
0
230
1
0
LINE
5
91
100
AcDbEntity
8
1
62
256
6
ByLayer
370
18
48
1
60
0
100
AcDbLine
10
3.501703
20
3.576131
30
0
11
3.501703
21
2.92071
31
0
39
0
210
0
220
0
230
1
0
LINE
5
92
100
AcDbEntity
8
SK1
62
256
6
ByLayer
370
18
48
1
60
0
100
AcDbLine
10
-36
20
-2.76
30
0
11
-34.76
21
-4
31
0
39
0
210
0
220
0
230
1
0
LINE
5
93
100
AcDbEntity
8
SK1
62
256
6
ByLayer
370
18
48
1
60
0
100
AcDbLine
10
-34.76
20
4
30
0
11
-36
21
2.76
31
0
39
0
210
0
220
0
230
1
0
LINE
5
94
100
AcDbEntity
8
SK1
62
256
6
ByLayer
370
18
48
1
60
0
100
AcDbLine
10
-34.76
20
-4
30
0
11
0
21
-4
31
0
39
0
210
0
220
0
230
1
0
LINE
5
95
100
AcDbEntity
8
SK1
62
256
6
ByLayer
370
18
48
1
60
0
100
AcDbLine
10
0
20
4
30
0
11
-34.76
21
4
31
0
39
0
210
0
220
0
230
1
0
LINE
5
96
100
AcDbEntity
8
1
62
256
6
ByLayer
370
18
48
1
60
0
100
AcDbLine
10
1.086899
20
-3.574622
30
0
11
3.501703
21
-3.576131
31
0
39
0
210
0
220
0
230
1
0
LINE
5
97
100
AcDbEntity
8
1
62
256
6
ByLayer
370
18
48
1
60
0
100
AcDbLine
10
8.649016
20
-3.579349
30
0
11
9.655368
21
-3.579977
31
0
39
0
210
0
220
0
230
1
0
LINE
5
98
100
AcDbEntity
8
1
62
256
6
ByLayer
370
18
48
1
60
0
100
AcDbLine
10
19.901554
20
-3.586381
30
0
11
20.875749
21
-3.58699
31
0
39
0
210
0
220
0
230
1
0
LINE
5
99
100
AcDbEntity
8
1
62
256
6
ByLayer
370
18
48
1
60
0
100
AcDbLine
10
30.402799
20
-3.592945
30
0
11
31.384451
21
-3.593558
31
0
39
0
210
0
220
0
230
1
0
LINE
5
9A
100
AcDbEntity
8
1
62
256
6
ByLayer
370
18
48
1
60
0
100
AcDbLine
10
31.384451
20
3.593558
30
0
11
30.402799
21
3.592945
31
0
39
0
210
0
220
0
230
1
0
LINE
5
9B
100
AcDbEntity
8
1
62
256
6
ByLayer
370
18
48
1
60
0
100
AcDbLine
10
20.875749
20
3.58699
30
0
11
19.901554
21
3.586381
31
0
39
0
210
0
220
0
230
1
0
LINE
5
9C
100
AcDbEntity
8
1
62
256
6
ByLayer
370
18
48
1
60
0
100
AcDbLine
10
9.655368
20
3.579977
30
0
11
8.649016
21
3.579349
31
0
39
0
210
0
220
0
230
1
0
LINE
5
9D
100
AcDbEntity
8
1
62
256
6
ByLayer
370
18
48
1
60
0
100
AcDbLine
10
3.501703
20
3.576131
30
0
11
1.086899
21
3.574622
31
0
39
0
210
0
220
0
230
1
0
LINE
5
9E
100
AcDbEntity
8
SK4
62
256
6
ByLayer
370
18
48
0.05
60
0
100
AcDbLine
10
48
20
0
30
0
11
-41
21
0
31
0
39
0
210
0
220
0
230
1
0
LINE
5
A0
100
AcDbEntity
8
4
62
256
6
ByLayer
370
18
48
0.05
60
0
100
AcDbLine
10
-36
20
0
30
0
11
48
21
0
31
0
39
0
210
0
220
0
230
1
0
LINE
5
A2
100
AcDbEntity
8
80
62
256
6
ByLayer
370
18
48
1
60
0
100
AcDbLine
10
0
20
0
30
0
11
-6
21
0
31
0
39
0
210
0
220
0
230
1
0
LINE
5
A3
100
AcDbEntity
8
81
62
256
6
ByLayer
370
18
48
1
60
0
100
AcDbLine
10
43
20
0
30
0
11
49
21
0
31
0
39
0
210
0
220
0
230
1
0
LINE
5
A4
100
AcDbEntity
8
SK2
62
256
6
ByLayer
370
13
48
1
60
0
100
AcDbLine
10
43.54296
20
1.491761
30
0
11
50.926355
21
21.777363
31
0
39
0
210
0
220
0
230
1
0
LINE
5
A6
100
AcDbEntity
8
SK2
62
256
6
ByLayer
370
13
48
1
60
0
100
AcDbLine
10
43.54296
20
-1.491761
30
0
11
50.926355
21
-21.777363
31
0
39
0
210
0
220
0
230
1
0
LINE
5
A7
100
AcDbEntity
8
1
62
256
6
ByLayer
370
13
48
1
60
0
100
AcDbLine
10
49.840436
20
18.79384
30
0
11
52.937025
21
17.977463
31
0
39
0
210
0
220
0
230
1
0
LINE
5
A8
100
AcDbEntity
8
1
62
256
6
ByLayer
370
13
48
1
60
0
100
AcDbLine
10
49.840436
20
18.79384
30
0
11
52.62022
21
17.203823
31
0
39
0
210
0
220
0
230
1
0
LINE
5
A9
100
AcDbEntity
8
1
62
256
6
ByLayer
370
13
48
1
60
0
100
AcDbLine
10
52.937025
20
17.977463
30
0
11
52.62022
21
17.203823
31
0
39
0
210
0
220
0
230
1
0
LINE
5
AA
100
AcDbEntity
8
1
62
256
6
ByLayer
370
13
48
1
60
0
100
AcDbLine
10
49.840436
20
-18.79384
30
0
11
52.620217
21
-17.203824
31
0
39
0
210
0
220
0
230
1
0
LINE
5
AB
100
AcDbEntity
8
1
62
256
6
ByLayer
370
13
48
1
60
0
100
AcDbLine
10
49.840436
20
-18.79384
30
0
11
52.937028
21
-17.977462
31
0
39
0
210
0
220
0
230
1
0
LINE
5
AC
100
AcDbEntity
8
1
62
256
6
ByLayer
370
13
48
1
60
0
100
AcDbLine
10
52.620217
20
-17.203824
30
0
11
52.937028
21
-17.977462
31
0
39
0
210
0
220
0
230
1
0
MTEXT
5
F5
100
AcDbEntity
8
SK2
62
256
6
ByLayer
370
18
48
1
60
0
100
AcDbMText
10
56.717388
20
-2.467451
30
0
210
0
220
0
230
1
1
\W0.7237;140.00
40
3.50012
41
0
44
1.084337
50
0
71
7
72
5
7
iso_b_vert
0
MTEXT
5
F8
100
AcDbEntity
8
SK6
62
256
6
ByLayer
370
18
48
1
60
0
100
AcDbMText
10
-35.831725
20
-66.879985
30
0
210
0
220
0
230
1
1
\W0.7561;860.1-0720-022A0-GM X1BM
40
3.175
41
0
44
1.084337
50
0
71
7
72
5
7
iso_b_vert
0
DIMENSION
5
FB
100
AcDbEntity
8
SK2
62
256
6
ByLayer
370
18
48
1
60
0
100
AcDbDimension
2
_U0
10
43
20
-27.50012
30
0
11
21.5
21
-27.50012
31
0
70
32
71
2
72
1
41
1
210
0
220
0
230
1
3
Standard
100
AcDbAlignedDimension
13
0
23
-4
33
0
14
43
24
0
34
0
50
0
100
AcDbRotatedDimension
1001
ACAD
1000
DSTYLE
1002
{
1070
   371
1070
    13
1070
   372
1070
    13
1070
     3
1000

1070
   170
1070
     0
1070
   144
1040
1.0
1070
   277
1070
     2
1070
   284
1070
     8
1070
   278
1070
    46
1070
   146
1040
0.999966
1070
   345
1005
16
1070
   347
1005
16
1070
   346
1005
16
1070
   344
1005
FC
1070
   343
1005
FC
1070
   172
1070
     1
1070
    76
1070
     0
1070
    75
1070
     0
1070
   282
1070
     0
1070
   281
1070
     0
1070
    71
1070
     0
1070
    74
1070
     0
1070
   279
1070
     0
1070
   173
1070
     1
1070
   340
1005
F6
1070
   271
1070
     1
1070
   272
1070
     2
1070
    77
1070
     1
1070
    73
1070
     1
1070
   171
1070
     3
1070
   274
1070
     4
1070
   177
1070
   150
1070
   176
1070
     9
1070
   178
1070
    43
1070
    78
1070
     8
1070
    48
1040
-0.1
1070
    41
1040
3.175
1070
   147
1040
1.75006
1070
    42
1040
1.5875
1070
    44
1040
3.175
1070
   140
1040
3.50012
1002
}
1001
ACAD_DSTYLE_DIM_LINETYPE
1070
   380
1005
16
1001
ACAD_DSTYLE_DIM_EXT1_LINETYPE
1070
   381
1005
16
1001
ACAD_DSTYLE_DIM_EXT2_LINETYPE
1070
   382
1005
16
0
DIMENSION
5
121
100
AcDbEntity
8
2
62
256
6
ByLayer
370
18
48
1
60
0
100
AcDbDimension
2
_U1
10
49.75006
20
3.6
30
0
11
49.75006
21
19.173233
31
0
70
32
71
1
72
1
41
1
210
0
220
0
230
1
3
Standard
100
AcDbAlignedDimension
13
41.6897
23
-3.6
33
0
14
41.6897
24
3.6
34
0
50
90
100
AcDbRotatedDimension
1001
ACAD
1000
DSTYLE
1002
{
1070
   371
1070
    13
1070
   372
1070
    13
1070
     3
1000

1070
   170
1070
     0
1070
   144
1040
1.0
1070
   277
1070
     2
1070
   284
1070
     8
1070
   278
1070
    46
1070
   146
1040
0.999966
1070
   345
1005
16
1070
   347
1005
16
1070
   346
1005
16
1070
   344
1005
FC
1070
   343
1005
FC
1070
   172
1070
     1
1070
    76
1070
     0
1070
    75
1070
     0
1070
   282
1070
     0
1070
   281
1070
     0
1070
    71
1070
     0
1070
    74
1070
     0
1070
   279
1070
     0
1070
   173
1070
     1
1070
   340
1005
F6
1070
   271
1070
     1
1070
   272
1070
     2
1070
    77
1070
     1
1070
    73
1070
     0
1070
   171
1070
     3
1070
   274
1070
     4
1070
   177
1070
   150
1070
   176
1070
     9
1070
   178
1070
    43
1070
    78
1070
     8
1070
    48
1040
-0.1
1070
    41
1040
3.175
1070
   147
1040
1.75006
1070
    42
1040
1.5875
1070
    44
1040
3.175
1070
   140
1040
3.50012
1002
}
1001
ACAD_DSTYLE_DIM_LINETYPE
1070
   380
1005
16
1001
ACAD_DSTYLE_DIM_EXT1_LINETYPE
1070
   381
1005
16
1001
ACAD_DSTYLE_DIM_EXT2_LINETYPE
1070
   382
1005
16
0
DIMENSION
5
140
100
AcDbEntity
8
SK2
62
256
6
ByLayer
370
18
48
1
60
0
100
AcDbDimension
2
_U2
10
-39.24994
20
-4
30
0
11
-39.24994
21
18.10734
31
0
70
32
71
1
72
1
41
1
210
0
220
0
230
1
3
Standard
100
AcDbAlignedDimension
13
-36
23
4
33
0
14
-36
24
-4
34
0
50
90
100
AcDbRotatedDimension
1001
ACAD
1000
DSTYLE
1002
{
1070
   371
1070
    13
1070
   372
1070
    13
1070
     3
1000

1070
   170
1070
     0
1070
   144
1040
1.0
1070
   277
1070
     2
1070
   284
1070
     8
1070
   278
1070
    46
1070
   146
1040
0.999966
1070
   345
1005
16
1070
   347
1005
16
1070
   346
1005
16
1070
   344
1005
FC
1070
   343
1005
FC
1070
   172
1070
     1
1070
    76
1070
     0
1070
    75
1070
     0
1070
   282
1070
     0
1070
   281
1070
     0
1070
    71
1070
     0
1070
    74
1070
     0
1070
   279
1070
     0
1070
   173
1070
     1
1070
   340
1005
F6
1070
   271
1070
     1
1070
   272
1070
     2
1070
    77
1070
     1
1070
    73
1070
     0
1070
   171
1070
     3
1070
   274
1070
     4
1070
   177
1070
   150
1070
   176
1070
     9
1070
   178
1070
    43
1070
    78
1070
     8
1070
    48
1040
-0.1
1070
    41
1040
3.175
1070
   147
1040
1.75006
1070
    42
1040
1.5875
1070
    44
1040
3.175
1070
   140
1040
3.50012
1002
}
1001
ACAD_DSTYLE_DIM_LINETYPE
1070
   380
1005
16
1001
ACAD_DSTYLE_DIM_EXT1_LINETYPE
1070
   381
1005
16
1001
ACAD_DSTYLE_DIM_EXT2_LINETYPE
1070
   382
1005
16
0
DIMENSION
5
15E
100
AcDbEntity
8
SK2
62
256
6
ByLayer
370
18
48
1
60
0
100
AcDbDimension
2
_U3
10
0
20
-27.50012
30
0
11
-18
21
-27.50012
31
0
70
32
71
1
72
1
41
1
210
0
220
0
230
1
3
Standard
100
AcDbAlignedDimension
13
-36
23
-4
33
0
14
0
24
-4
34
0
50
0
100
AcDbRotatedDimension
1001
ACAD
1000
DSTYLE
1002
{
1070
   371
1070
    13
1070
   372
1070
    13
1070
     3
1000

1070
   170
1070
     0
1070
   144
1040
1.0
1070
   277
1070
     2
1070
   284
1070
     8
1070
   278
1070
    46
1070
   146
1040
0.999966
1070
   345
1005
16
1070
   347
1005
16
1070
   346
1005
16
1070
   344
1005
FC
1070
   343
1005
FC
1070
   172
1070
     1
1070
    76
1070
     0
1070
    75
1070
     0
1070
   282
1070
     0
1070
   281
1070
     0
1070
    71
1070
     0
1070
    74
1070
     0
1070
   279
1070
     0
1070
   173
1070
     1
1070
   340
1005
F6
1070
   271
1070
     1
1070
   272
1070
     2
1070
    77
1070
     1
1070
    73
1070
     1
1070
   171
1070
     3
1070
   274
1070
     4
1070
   177
1070
   150
1070
   176
1070
     9
1070
   178
1070
    43
1070
    78
1070
     8
1070
    48
1040
-0.1
1070
    41
1040
3.175
1070
   147
1040
1.75006
1070
    42
1040
1.5875
1070
    44
1040
3.175
1070
   140
1040
3.50012
1002
}
1001
ACAD_DSTYLE_DIM_LINETYPE
1070
   380
1005
16
1001
ACAD_DSTYLE_DIM_EXT1_LINETYPE
1070
   381
1005
16
1001
ACAD_DSTYLE_DIM_EXT2_LINETYPE
1070
   382
1005
16
0
DIMENSION
5
17A
100
AcDbEntity
8
SK2
62
256
6
ByLayer
370
18
48
1
60
0
100
AcDbDimension
2
_U4
10
43
20
-18.74982
30
0
11
22.5
21
-18.74982
31
0
70
32
71
1
72
1
41
1
210
0
220
0
230
1
3
Standard
100
AcDbAlignedDimension
13
2
23
4.1
33
0
14
43
24
0
34
0
50
0
100
AcDbRotatedDimension
1001
ACAD
1000
DSTYLE
1002
{
1070
   371
1070
    13
1070
   372
1070
    13
1070
     3
1000

1070
   170
1070
     0
1070
   144
1040
1.0
1070
   277
1070
     2
1070
   284
1070
     8
1070
   278
1070
    46
1070
   146
1040
0.999966
1070
   345
1005
16
1070
   347
1005
16
1070
   346
1005
16
1070
   344
1005
FC
1070
   343
1005
FC
1070
   172
1070
     1
1070
    76
1070
     0
1070
    75
1070
     0
1070
   282
1070
     0
1070
   281
1070
     0
1070
    71
1070
     0
1070
    74
1070
     0
1070
   279
1070
     0
1070
   173
1070
     1
1070
   340
1005
F6
1070
   271
1070
     1
1070
   272
1070
     2
1070
    77
1070
     1
1070
    73
1070
     1
1070
   171
1070
     3
1070
   274
1070
     4
1070
   177
1070
   150
1070
   176
1070
     9
1070
   178
1070
    43
1070
    78
1070
     8
1070
    48
1040
-0.1
1070
    41
1040
3.175
1070
   147
1040
1.75006
1070
    42
1040
1.5875
1070
    44
1040
3.175
1070
   140
1040
3.50012
1002
}
1001
ACAD_DSTYLE_DIM_LINETYPE
1070
   380
1005
16
1001
ACAD_DSTYLE_DIM_EXT1_LINETYPE
1070
   381
1005
16
1001
ACAD_DSTYLE_DIM_EXT2_LINETYPE
1070
   382
1005
16
0
DIMENSION
5
196
100
AcDbEntity
8
SK2
62
256
6
ByLayer
370
18
48
1
60
0
100
AcDbDimension
2
_U5
10
43
20
-10.82
30
0
11
31.55
21
-10.82
31
0
70
32
71
1
72
1
41
1
210
0
220
0
230
1
3
Standard
100
AcDbAlignedDimension
13
20.1
23
-3.6
33
0
14
43
24
0
34
0
50
0
100
AcDbRotatedDimension
1001
ACAD
1000
DSTYLE
1002
{
1070
   371
1070
    13
1070
   372
1070
    13
1070
     3
1000

1070
   170
1070
     0
1070
   144
1040
1.0
1070
   277
1070
     2
1070
   284
1070
     8
1070
   278
1070
    46
1070
   146
1040
1.25
1070
   345
1005
16
1070
   347
1005
16
1070
   346
1005
16
1070
   344
1005
FC
1070
   343
1005
FC
1070
   172
1070
     1
1070
    76
1070
     0
1070
    75
1070
     0
1070
   282
1070
     0
1070
   281
1070
     0
1070
    71
1070
     0
1070
    74
1070
     0
1070
   279
1070
     0
1070
   173
1070
     1
1070
   340
1005
F6
1070
   271
1070
     1
1070
   272
1070
     2
1070
    77
1070
     1
1070
    73
1070
     1
1070
   171
1070
     3
1070
   274
1070
     4
1070
   177
1070
   150
1070
   176
1070
     9
1070
   178
1070
    43
1070
    78
1070
     8
1070
    48
1040
-0.1
1070
    41
1040
3.175
1070
   147
1040
0.42
1070
    42
1040
1.5875
1070
    44
1040
0.5
1070
   140
1040
2.8
1002
}
1001
ACAD_DSTYLE_DIM_LINETYPE
1070
   380
1005
16
1001
ACAD_DSTYLE_DIM_EXT1_LINETYPE
1070
   381
1005
16
1001
ACAD_DSTYLE_DIM_EXT2_LINETYPE
1070
   382
1005
16
0
DIMENSION
5
1B2
100
AcDbEntity
8
SK2
62
256
6
ByLayer
370
18
48
1
60
0
100
AcDbDimension
2
_U6
10
43
20
-37.50012
30
0
11
3.5
21
-37.50012
31
0
70
32
71
1
72
1
41
1
210
0
220
0
230
1
3
Standard
100
AcDbAlignedDimension
13
-36
23
0
33
0
14
43
24
0
34
0
50
0
100
AcDbRotatedDimension
1001
ACAD
1000
DSTYLE
1002
{
1070
   371
1070
    13
1070
   372
1070
    13
1070
     3
1000

1070
   170
1070
     0
1070
   144
1040
1.0
1070
   277
1070
     2
1070
   284
1070
     8
1070
   278
1070
    46
1070
   146
1040
0.999966
1070
   345
1005
16
1070
   347
1005
16
1070
   346
1005
16
1070
   344
1005
FC
1070
   343
1005
FC
1070
   172
1070
     1
1070
    76
1070
     0
1070
    75
1070
     0
1070
   282
1070
     0
1070
   281
1070
     0
1070
    71
1070
     0
1070
    74
1070
     0
1070
   279
1070
     0
1070
   173
1070
     1
1070
   340
1005
F6
1070
   271
1070
     1
1070
   272
1070
     2
1070
    77
1070
     1
1070
    73
1070
     1
1070
   171
1070
     3
1070
   274
1070
     4
1070
   177
1070
   150
1070
   176
1070
     9
1070
   178
1070
    43
1070
    78
1070
     8
1070
    48
1040
-0.1
1070
    41
1040
3.175
1070
   147
1040
1.75006
1070
    42
1040
1.5875
1070
    44
1040
3.175
1070
   140
1040
3.50012
1002
}
1001
ACAD_DSTYLE_DIM_LINETYPE
1070
   380
1005
16
1001
ACAD_DSTYLE_DIM_EXT1_LINETYPE
1070
   381
1005
16
1001
ACAD_DSTYLE_DIM_EXT2_LINETYPE
1070
   382
1005
16
0
ENDSEC
0
SECTION
2
OBJECTS
0
DICTIONARY
5
23e
330
0
100
AcDbDictionary
280
0
281
1
3
ACAD_GROUP
350
23f
3
ACAD_MLINESTYLE
350
240
0
DICTIONARY
5
23f
330
0
100
AcDbDictionary
280
0
281
1
0
DICTIONARY
5
240
330
0
100
AcDbDictionary
280
0
281
1
3
Standard
350
18
0
MLINESTYLE
5
18
330
240
100
AcDbMlineStyle
2
Standard
70
0
3

62
256
51
90
52
90
71
2
49
-0.5
62
256
6
ByLayer
49
0.5
62
256
6
ByLayer
0
RASTERVARIABLES
5
22c
330

100
AcDbRasterVariables
90
0
70
1
71
1
72
1
0
ENDSEC
0
EOF
