0
SECTION
2
HEADER
9
$ACADVER
1
AC1015
9
$DWGCODEPAGE
3
ANSI_1252
9
$HANDSEED
5
268
9
$ANGBASE
50
0
9
$ANGDIR
70
0
9
$ATTMODE
70
1
9
$AUNITS
70
0
9
$AUPREC
70
0
9
$CECOLOR
62
256
9
$CELTSCALE
40
1
9
$CELTYPE
6
ByLayer
9
$CELWEIGHT
370
18
9
$CLAYER
8
0
9
$CMLJUST
70
0
9
$CMLSCALE
40
1
9
$CMLSTYLE
2
Standard
9
$DIMSTYLE
2
Standard
9
$TEXTSIZE
40
0.2
9
$TEXTSTYLE
7
Standard
9
$LUNITS
70
2
9
$LUPREC
70
4
9
$EXTNAMES
290
1
9
$INSUNITS
70
4
9
$LTSCALE
40
1
9
$LWDISPLAY
290
1
9
$PDMODE
70
0
9
$PDSIZE
40
0
9
$PLINEGEN
70
0
0
ENDSEC
0
SECTION
2
CLASSES
0
CLASS
1
RASTERVARIABLES
2
AcDbRasterVariables
3
ISM
90
0
280
0
281
0
0
ENDSEC
0
SECTION
2
TABLES
0
TABLE
2
VPORT
5
25e
100
AcDbSymbolTable
0
VPORT
5
1
100
AcDbSymbolTableRecord
100
AcDbViewportTableRecord
2
*Active
70
0
10
0
20
0
11
1
21
1
12
-1
22
1
13
0
23
0
14
0.5
24
0.5
15
10
25
10
16
0
26
0
36
1
17
0
27
0
37
0
0
ENDTAB
0
TABLE
2
LTYPE
5
25f
100
AcDbSymbolTable
0
LTYPE
5
14
100
AcDbSymbolTableRecord
100
AcDbLinetypeTableRecord
70
0
2
ByBlock
3

72
65
73
0
40
0
0
LTYPE
5
15
100
AcDbSymbolTableRecord
100
AcDbLinetypeTableRecord
70
0
2
ByLayer
3

72
65
73
0
40
0
0
LTYPE
5
16
100
AcDbSymbolTableRecord
100
AcDbLinetypeTableRecord
70
0
2
Continuous
3
Solid line
72
65
73
0
40
0
0
LTYPE
5
6E
100
AcDbSymbolTableRecord
100
AcDbLinetypeTableRecord
70
0
2
CENTER
3
____ _ ____ _ ____ _ ____
72
65
73
4
40
47.5
49
22
74
0
49
-8.5
74
0
49
8.5
74
0
49
-8.5
74
0
0
LTYPE
5
6F
100
AcDbSymbolTableRecord
100
AcDbLinetypeTableRecord
70
0
2
DASHED
3
__ __ __ __ __ __ __ __ __
72
65
73
2
40
25.72
49
12.86
74
0
49
-12.86
74
0
0
ENDTAB
0
TABLE
2
LAYER
5
260
100
AcDbSymbolTable
0
LAYER
5
10
100
AcDbSymbolTableRecord
100
AcDbLayerTableRecord
2
0
70
0
62
7
6
Continuous
290
1
370
-3
390
0
0
LAYER
5
71
100
AcDbSymbolTableRecord
100
AcDbLayerTableRecord
2
80
70
0
62
-6
6
Continuous
290
1
370
-3
390
0
0
LAYER
5
73
100
AcDbSymbolTableRecord
100
AcDbLayerTableRecord
2
81
70
0
62
-3
6
Continuous
290
1
370
-3
390
0
0
LAYER
5
75
100
AcDbSymbolTableRecord
100
AcDbLayerTableRecord
2
1
70
0
62
4
6
Continuous
290
1
370
-3
390
0
0
LAYER
5
A6
100
AcDbSymbolTableRecord
100
AcDbLayerTableRecord
2
4
70
0
62
-2
6
CENTER
290
1
370
-3
390
0
0
LAYER
5
122
100
AcDbSymbolTableRecord
100
AcDbLayerTableRecord
2
Defpoints
70
0
62
7
6
Continuous
290
0
370
-3
390
0
0
LAYER
5
14F
100
AcDbSymbolTableRecord
100
AcDbLayerTableRecord
2
2
70
0
62
7
6
Continuous
290
1
370
-3
390
0
0
LAYER
5
24a
100
AcDbSymbolTableRecord
100
AcDbLayerTableRecord
2
SK1
70
0
62
4
6
Continuous
290
1
370
-3
390
0
0
LAYER
5
24b
100
AcDbSymbolTableRecord
100
AcDbLayerTableRecord
2
SK4
70
0
62
2
6
CENTER
290
1
370
-3
390
0
0
LAYER
5
24c
100
AcDbSymbolTableRecord
100
AcDbLayerTableRecord
2
SK2
70
0
62
7
6
Continuous
290
1
370
-3
390
0
0
LAYER
5
24d
100
AcDbSymbolTableRecord
100
AcDbLayerTableRecord
2
SK6
70
0
62
5
6
Continuous
290
1
370
-3
390
0
0
ENDTAB
0
TABLE
2
STYLE
5
261
100
AcDbSymbolTable
0
STYLE
5
11
100
AcDbSymbolTableRecord
100
AcDbTextStyleTableRecord
2
Standard
3
txt
70
0
71
0
40
0
41
1
42
0
50
0
0
STYLE
5
113
100
AcDbSymbolTableRecord
100
AcDbTextStyleTableRecord
2
iso_b_vert
3
simplex.shx
70
0
71
0
40
0
41
1
42
0
50
0
0
STYLE
5
114
100
AcDbSymbolTableRecord
100
AcDbTextStyleTableRecord
2
DWGDirectTextStyle
3
simplex
70
0
71
0
40
0
41
1
42
0
50
0
0
ENDTAB
0
TABLE
2
DIMSTYLE
5
262
100
AcDbSymbolTable
100
AcDbDimStyleTable
0
DIMSTYLE
105
27
100
AcDbSymbolTableRecord
100
AcDbDimStyleTableRecord
2
Standard
70
0
3
<>
41
0.18
42
0.0625
44
0.18
140
0.18
147
0.09
73
0
74
0
77
1
271
2
275
0
278
52
280
0
340
11
0
ENDTAB
0
TABLE
2
VIEW
5
263
100
AcDbSymbolTable
0
ENDTAB
0
TABLE
2
UCS
5
264
100
AcDbSymbolTable
0
ENDTAB
0
TABLE
2
APPID
5
265
100
AcDbSymbolTable
0
APPID
5
12
100
AcDbSymbolTableRecord
100
AcDbRegAppTableRecord
2
ACAD
70
0
0
APPID
5
117
100
AcDbSymbolTableRecord
100
AcDbRegAppTableRecord
2
ACAD_DSTYLE_DIMBREAK
70
0
0
APPID
5
209
100
AcDbSymbolTableRecord
100
AcDbRegAppTableRecord
2
ACAD_DSTYLE_DIM_LINETYPE
70
0
0
APPID
5
20A
100
AcDbSymbolTableRecord
100
AcDbRegAppTableRecord
2
ACAD_DSTYLE_DIM_EXT1_LINETYPE
70
0
0
APPID
5
20B
100
AcDbSymbolTableRecord
100
AcDbRegAppTableRecord
2
ACAD_DSTYLE_DIM_EXT2_LINETYPE
70
0
0
APPID
5
246
100
AcDbSymbolTableRecord
100
AcDbRegAppTableRecord
2
ACAD_MLEADERVER
70
0
0
ENDTAB
0
TABLE
2
BLOCK_RECORD
5
266
100
AcDbSymbolTable
0
BLOCK_RECORD
5
1F
100
AcDbSymbolTableRecord
100
AcDbBlockTableRecord
2
*Model_Space
340
0
70
0
0
BLOCK_RECORD
5
1B
100
AcDbSymbolTableRecord
100
AcDbBlockTableRecord
2
*Paper_Space
340
0
70
0
0
BLOCK_RECORD
5
23
100
AcDbSymbolTableRecord
100
AcDbBlockTableRecord
2
*Paper_Space0
340
0
70
0
0
BLOCK_RECORD
5
119
100
AcDbSymbolTableRecord
100
AcDbBlockTableRecord
2
_Closed
340
0
70
0
0
BLOCK_RECORD
5
123
100
AcDbSymbolTableRecord
100
AcDbBlockTableRecord
2
*D2
340
0
70
0
0
BLOCK_RECORD
5
12F
100
AcDbSymbolTableRecord
100
AcDbBlockTableRecord
2
_U0
340
0
70
0
0
BLOCK_RECORD
5
141
100
AcDbSymbolTableRecord
100
AcDbBlockTableRecord
2
*D4
340
0
70
0
0
BLOCK_RECORD
5
150
100
AcDbSymbolTableRecord
100
AcDbBlockTableRecord
2
_U1
340
0
70
0
0
BLOCK_RECORD
5
160
100
AcDbSymbolTableRecord
100
AcDbBlockTableRecord
2
*D6
340
0
70
0
0
BLOCK_RECORD
5
16E
100
AcDbSymbolTableRecord
100
AcDbBlockTableRecord
2
_U2
340
0
70
0
0
BLOCK_RECORD
5
17E
100
AcDbSymbolTableRecord
100
AcDbBlockTableRecord
2
*D8
340
0
70
0
0
BLOCK_RECORD
5
18A
100
AcDbSymbolTableRecord
100
AcDbBlockTableRecord
2
_U3
340
0
70
0
0
BLOCK_RECORD
5
19A
100
AcDbSymbolTableRecord
100
AcDbBlockTableRecord
2
*D10
340
0
70
0
0
BLOCK_RECORD
5
1A6
100
AcDbSymbolTableRecord
100
AcDbBlockTableRecord
2
_U4
340
0
70
0
0
BLOCK_RECORD
5
1B6
100
AcDbSymbolTableRecord
100
AcDbBlockTableRecord
2
*D12
340
0
70
0
0
BLOCK_RECORD
5
1C2
100
AcDbSymbolTableRecord
100
AcDbBlockTableRecord
2
_U5
340
0
70
0
0
BLOCK_RECORD
5
1D2
100
AcDbSymbolTableRecord
100
AcDbBlockTableRecord
2
*D14
340
0
70
0
0
BLOCK_RECORD
5
1DE
100
AcDbSymbolTableRecord
100
AcDbBlockTableRecord
2
_U6
340
0
70
0
0
ENDTAB
0
ENDSEC
0
SECTION
2
BLOCKS
0
BLOCK
5
20
100
AcDbEntity
8
0
100
AcDbBlockBegin
2
*Model_Space
70
0
10
0
20
0
30
0
3
*Model_Space
0
ENDBLK
5
21
100
AcDbEntity
8
0
100
AcDbBlockEnd
0
BLOCK
5
1C
100
AcDbEntity
8
0
100
AcDbBlockBegin
2
*Paper_Space
70
0
10
0
20
0
30
0
3
*Paper_Space
0
ENDBLK
5
1D
100
AcDbEntity
8
0
100
AcDbBlockEnd
0
BLOCK
5
24
100
AcDbEntity
8
0
100
AcDbBlockBegin
2
*Paper_Space0
70
0
10
0
20
0
30
0
3
*Paper_Space0
0
ENDBLK
5
25
100
AcDbEntity
8
0
100
AcDbBlockEnd
0
BLOCK
5
11A
100
AcDbEntity
8
0
100
AcDbBlockBegin
2
_Closed
70
0
10
0
20
0
30
0
3
_Closed
0
LINE
5
11C
100
AcDbEntity
8
0
62
256
6
ByLayer
370
-2
48
1
60
0
100
AcDbLine
10
-1
20
0.166667
30
0
11
0
21
0
31
0
39
0
210
0
220
0
230
1
0
LINE
5
11D
100
AcDbEntity
8
0
62
256
6
ByLayer
370
-2
48
1
60
0
100
AcDbLine
10
0
20
0
30
0
11
-1
21
-0.166667
31
0
39
0
210
0
220
0
230
1
0
LINE
5
11E
100
AcDbEntity
8
0
62
256
6
ByLayer
370
-2
48
1
60
0
100
AcDbLine
10
-1
20
0.166667
30
0
11
-1
21
-0.166667
31
0
39
0
210
0
220
0
230
1
0
LINE
5
11F
100
AcDbEntity
8
0
62
256
6
ByLayer
370
-2
48
1
60
0
100
AcDbLine
10
0
20
0
30
0
11
-1
21
0
31
0
39
0
210
0
220
0
230
1
0
ENDBLK
5
11B
100
AcDbEntity
8
0
100
AcDbBlockEnd
0
BLOCK
5
124
100
AcDbEntity
8
0
100
AcDbBlockBegin
2
*D2
70
1
10
0
20
0
30
0
3
*D2
0
LINE
5
126
100
AcDbEntity
8
0
62
256
6
ByLayer
370
-2
48
1
60
0
100
AcDbLine
10
0
20
-5.5875
30
0
11
0
21
-30.67512
31
0
39
0
210
0
220
0
230
1
0
LINE
5
127
100
AcDbEntity
8
0
62
256
6
ByLayer
370
-2
48
1
60
0
100
AcDbLine
10
55
20
-1.5875
30
0
11
55
21
-30.67512
31
0
39
0
210
0
220
0
230
1
0
LINE
5
128
100
AcDbEntity
8
0
62
256
6
ByLayer
370
-2
48
1
60
0
100
AcDbLine
10
3.175
20
-27.50012
30
0
11
51.825
21
-27.50012
31
0
39
0
210
0
220
0
230
1
0
SOLID
5
129
100
AcDbEntity
8
0
62
256
6
ByLayer
370
-1
48
1
60
0
100
AcDbTrace
10
3.175
20
-26.970953
30
0
11
3.175
21
-28.029287
31
0
12
0
22
-27.50012
32
0
13
0
23
-27.50012
33
0
39
0
210
0
220
0
230
1
0
SOLID
5
12A
100
AcDbEntity
8
0
62
256
6
ByLayer
370
-1
48
1
60
0
100
AcDbTrace
10
51.825
20
-28.029287
30
0
11
51.825
21
-26.970953
31
0
12
55
22
-27.50012
32
0
13
55
23
-27.50012
33
0
39
0
210
0
220
0
230
1
0
MTEXT
5
12B
100
AcDbEntity
8
0
62
256
6
ByLayer
370
18
48
1
60
0
100
AcDbMText
10
27.5
20
-20.193619
30
0
210
0
220
0
230
1
1
\A1;55
40
3.50012
41
0
44
1
50
0
71
5
72
5
7
iso_b_vert
0
POINT
5
12C
100
AcDbEntity
8
Defpoints
62
0
6
ByLayer
370
-1
48
1
60
0
100
AcDbPoint
10
0
20
-4
30
0
39
0
210
0
220
0
230
1
50
360
0
POINT
5
12D
100
AcDbEntity
8
Defpoints
62
0
6
ByLayer
370
-1
48
1
60
0
100
AcDbPoint
10
55
20
0
30
0
39
0
210
0
220
0
230
1
50
360
0
POINT
5
12E
100
AcDbEntity
8
Defpoints
62
0
6
ByLayer
370
-1
48
1
60
0
100
AcDbPoint
10
55
20
-27.50012
30
0
39
0
210
0
220
0
230
1
50
360
0
ENDBLK
5
125
100
AcDbEntity
8
0
100
AcDbBlockEnd
0
BLOCK
5
13C
100
AcDbEntity
8
0
100
AcDbBlockBegin
2
_U0
70
0
10
0
20
0
30
0
3
_U0
0
MTEXT
5
130
100
AcDbEntity
8
SK2
62
256
6
ByLayer
370
18
48
1
60
0
100
AcDbMText
10
22.270389
20
-26.467451
30
0
210
0
220
0
230
1
1
\W0.7468;55.00
40
3.50012
41
0
44
1.084337
50
0
71
7
72
5
7
iso_b_vert
0
MTEXT
5
131
100
AcDbEntity
8
SK2
62
256
6
ByLayer
370
18
48
1
60
0
100
AcDbMText
10
18.744329
20
-26.400814
30
0
210
0
220
0
230
1
1
\W0.1790;(
40
3.175
41
0
44
1.084337
50
0
71
7
72
5
7
iso_b_vert
0
MTEXT
5
132
100
AcDbEntity
8
SK2
62
256
6
ByLayer
370
18
48
1
60
0
100
AcDbMText
10
36.258393
20
-26.400814
30
0
210
0
220
0
230
1
1
\W0.1969;)
40
3.175
41
0
44
1.084337
50
0
71
7
72
5
7
iso_b_vert
0
LINE
5
133
100
AcDbEntity
8
SK2
62
256
6
ByLayer
370
13
48
1
60
0
100
AcDbLine
10
0
20
-5.5875
30
0
11
0
21
-30.67512
31
0
39
0
210
0
220
0
230
1
0
LINE
5
134
100
AcDbEntity
8
SK2
62
256
6
ByLayer
370
13
48
1
60
0
100
AcDbLine
10
55
20
-1.5875
30
0
11
55
21
-30.67512
31
0
39
0
210
0
220
0
230
1
0
LINE
5
135
100
AcDbEntity
8
SK2
62
256
6
ByLayer
370
13
48
1
60
0
100
AcDbLine
10
0
20
-27.50012
30
0
11
55
21
-27.50012
31
0
39
0
210
0
220
0
230
1
0
LINE
5
136
100
AcDbEntity
8
SK2
62
256
6
ByLayer
370
13
48
1
60
0
100
AcDbLine
10
0
20
-27.50012
30
0
11
3.174998
21
-27.082123
31
0
39
0
210
0
220
0
230
1
0
LINE
5
137
100
AcDbEntity
8
SK2
62
256
6
ByLayer
370
13
48
1
60
0
100
AcDbLine
10
0
20
-27.50012
30
0
11
3.175002
21
-27.918117
31
0
39
0
210
0
220
0
230
1
0
LINE
5
138
100
AcDbEntity
8
SK2
62
256
6
ByLayer
370
13
48
1
60
0
100
AcDbLine
10
3.174998
20
-27.082123
30
0
11
3.175002
21
-27.918117
31
0
39
0
210
0
220
0
230
1
0
LINE
5
139
100
AcDbEntity
8
SK2
62
256
6
ByLayer
370
13
48
1
60
0
100
AcDbLine
10
55
20
-27.50012
30
0
11
51.825002
21
-27.918117
31
0
39
0
210
0
220
0
230
1
0
LINE
5
13A
100
AcDbEntity
8
SK2
62
256
6
ByLayer
370
13
48
1
60
0
100
AcDbLine
10
55
20
-27.50012
30
0
11
51.824998
21
-27.082123
31
0
39
0
210
0
220
0
230
1
0
LINE
5
13B
100
AcDbEntity
8
SK2
62
256
6
ByLayer
370
13
48
1
60
0
100
AcDbLine
10
51.825002
20
-27.918117
30
0
11
51.824998
21
-27.082123
31
0
39
0
210
0
220
0
230
1
0
ENDBLK
5
13D
100
AcDbEntity
8
0
100
AcDbBlockEnd
0
BLOCK
5
142
100
AcDbEntity
8
0
100
AcDbBlockBegin
2
*D4
70
1
10
0
20
0
30
0
3
*D4
0
LINE
5
144
100
AcDbEntity
8
0
62
256
6
ByLayer
370
-2
48
1
60
0
100
AcDbLine
10
55.1316
20
-4
30
0
11
64.92506
21
-4
31
0
39
0
210
0
220
0
230
1
0
LINE
5
145
100
AcDbEntity
8
0
62
256
6
ByLayer
370
-2
48
1
60
0
100
AcDbLine
10
55.1316
20
4
30
0
11
64.92506
21
4
31
0
39
0
210
0
220
0
230
1
0
LINE
5
146
100
AcDbEntity
8
0
62
256
6
ByLayer
370
-2
48
1
60
0
100
AcDbLine
10
61.75006
20
4
30
0
11
61.75006
21
23.796294
31
0
39
0
210
0
220
0
230
1
0
LINE
5
147
100
AcDbEntity
8
0
62
256
6
ByLayer
370
-2
48
1
60
0
100
AcDbLine
10
61.75006
20
-7.175
30
0
11
61.75006
21
-10.35
31
0
39
0
210
0
220
0
230
1
0
LINE
5
148
100
AcDbEntity
8
0
62
256
6
ByLayer
370
-2
48
1
60
0
100
AcDbLine
10
61.75006
20
7.175
30
0
11
61.75006
21
10.35
31
0
39
0
210
0
220
0
230
1
0
SOLID
5
149
100
AcDbEntity
8
0
62
256
6
ByLayer
370
-1
48
1
60
0
100
AcDbTrace
10
62.279227
20
-7.175
30
0
11
61.220893
21
-7.175
31
0
12
61.75006
22
-4
32
0
13
61.75006
23
-4
33
0
39
0
210
0
220
0
230
1
0
SOLID
5
14A
100
AcDbEntity
8
0
62
256
6
ByLayer
370
-1
48
1
60
0
100
AcDbTrace
10
61.220893
20
7.175
30
0
11
62.279227
21
7.175
31
0
12
61.75006
22
4
32
0
13
61.75006
23
4
33
0
39
0
210
0
220
0
230
1
0
MTEXT
5
14B
100
AcDbEntity
8
0
62
256
6
ByLayer
370
18
48
1
60
0
100
AcDbMText
10
54.443559
20
17.073147
30
0
210
0
220
0
230
1
1
\A1;8
40
3.50012
41
0
44
1
50
90
71
5
72
5
7
iso_b_vert
0
POINT
5
14C
100
AcDbEntity
8
Defpoints
62
0
6
ByLayer
370
-1
48
1
60
0
100
AcDbPoint
10
53.5441
20
-4
30
0
39
0
210
0
220
0
230
1
50
360
0
POINT
5
14D
100
AcDbEntity
8
Defpoints
62
0
6
ByLayer
370
-1
48
1
60
0
100
AcDbPoint
10
53.5441
20
4
30
0
39
0
210
0
220
0
230
1
50
360
0
POINT
5
14E
100
AcDbEntity
8
Defpoints
62
0
6
ByLayer
370
-1
48
1
60
0
100
AcDbPoint
10
61.75006
20
4
30
0
39
0
210
0
220
0
230
1
50
360
0
ENDBLK
5
143
100
AcDbEntity
8
0
100
AcDbBlockEnd
0
BLOCK
5
15B
100
AcDbEntity
8
0
100
AcDbBlockBegin
2
_U1
70
0
10
0
20
0
30
0
3
_U1
0
MTEXT
5
151
100
AcDbEntity
8
2
62
256
6
ByLayer
370
18
48
1
60
0
100
AcDbMText
10
61.060403
20
8.157505
30
0
210
0
220
0
230
1
1
\W0.7346;8.00
40
3.50012
41
0
44
1.084337
50
90
71
7
72
5
7
iso_b_vert
0
LINE
5
152
100
AcDbEntity
8
2
62
256
6
ByLayer
370
13
48
1
60
0
100
AcDbLine
10
55.1316
20
-4
30
0
11
64.92506
21
-4
31
0
39
0
210
0
220
0
230
1
0
LINE
5
153
100
AcDbEntity
8
2
62
256
6
ByLayer
370
13
48
1
60
0
100
AcDbLine
10
55.1316
20
4
30
0
11
64.92506
21
4
31
0
39
0
210
0
220
0
230
1
0
LINE
5
154
100
AcDbEntity
8
2
62
256
6
ByLayer
370
13
48
1
60
0
100
AcDbLine
10
61.75006
20
-4
30
0
11
61.75006
21
16.21468
31
0
39
0
210
0
220
0
230
1
0
LINE
5
155
100
AcDbEntity
8
2
62
256
6
ByLayer
370
13
48
1
60
0
100
AcDbLine
10
61.75006
20
-4
30
0
11
61.332063
21
-0.825002
31
0
39
0
210
0
220
0
230
1
0
LINE
5
156
100
AcDbEntity
8
2
62
256
6
ByLayer
370
13
48
1
60
0
100
AcDbLine
10
61.75006
20
-4
30
0
11
62.168057
21
-0.824998
31
0
39
0
210
0
220
0
230
1
0
LINE
5
157
100
AcDbEntity
8
2
62
256
6
ByLayer
370
13
48
1
60
0
100
AcDbLine
10
61.332063
20
-0.825002
30
0
11
62.168057
21
-0.824998
31
0
39
0
210
0
220
0
230
1
0
LINE
5
158
100
AcDbEntity
8
2
62
256
6
ByLayer
370
13
48
1
60
0
100
AcDbLine
10
61.75006
20
4
30
0
11
62.168057
21
0.825002
31
0
39
0
210
0
220
0
230
1
0
LINE
5
159
100
AcDbEntity
8
2
62
256
6
ByLayer
370
13
48
1
60
0
100
AcDbLine
10
61.75006
20
4
30
0
11
61.332063
21
0.824998
31
0
39
0
210
0
220
0
230
1
0
LINE
5
15A
100
AcDbEntity
8
2
62
256
6
ByLayer
370
13
48
1
60
0
100
AcDbLine
10
62.168057
20
0.825002
30
0
11
61.332063
21
0.824998
31
0
39
0
210
0
220
0
230
1
0
ENDBLK
5
15C
100
AcDbEntity
8
0
100
AcDbBlockEnd
0
BLOCK
5
161
100
AcDbEntity
8
0
100
AcDbBlockBegin
2
*D6
70
1
10
0
20
0
30
0
3
*D6
0
LINE
5
163
100
AcDbEntity
8
0
62
256
6
ByLayer
370
-2
48
1
60
0
100
AcDbLine
10
-37.5875
20
4
30
0
11
-42.42494
21
4
31
0
39
0
210
0
220
0
230
1
0
LINE
5
164
100
AcDbEntity
8
0
62
256
6
ByLayer
370
-2
48
1
60
0
100
AcDbLine
10
-37.5875
20
-4
30
0
11
-42.42494
21
-4
31
0
39
0
210
0
220
0
230
1
0
LINE
5
165
100
AcDbEntity
8
0
62
256
6
ByLayer
370
-2
48
1
60
0
100
AcDbLine
10
-39.24994
20
4
30
0
11
-39.24994
21
24.830487
31
0
39
0
210
0
220
0
230
1
0
LINE
5
166
100
AcDbEntity
8
0
62
256
6
ByLayer
370
-2
48
1
60
0
100
AcDbLine
10
-39.24994
20
7.175
30
0
11
-39.24994
21
10.35
31
0
39
0
210
0
220
0
230
1
0
LINE
5
167
100
AcDbEntity
8
0
62
256
6
ByLayer
370
-2
48
1
60
0
100
AcDbLine
10
-39.24994
20
-7.175
30
0
11
-39.24994
21
-10.35
31
0
39
0
210
0
220
0
230
1
0
SOLID
5
168
100
AcDbEntity
8
0
62
256
6
ByLayer
370
-1
48
1
60
0
100
AcDbTrace
10
-39.779107
20
7.175
30
0
11
-38.720773
21
7.175
31
0
12
-39.24994
22
4
32
0
13
-39.24994
23
4
33
0
39
0
210
0
220
0
230
1
0
SOLID
5
169
100
AcDbEntity
8
0
62
256
6
ByLayer
370
-1
48
1
60
0
100
AcDbTrace
10
-38.720773
20
-7.175
30
0
11
-39.779107
21
-7.175
31
0
12
-39.24994
22
-4
32
0
13
-39.24994
23
-4
33
0
39
0
210
0
220
0
230
1
0
MTEXT
5
16A
100
AcDbEntity
8
0
62
256
6
ByLayer
370
18
48
1
60
0
100
AcDbMText
10
-46.556441
20
18.10734
30
0
210
0
220
0
230
1
1
\A1;8
40
3.50012
41
0
44
1
50
90
71
5
72
5
7
iso_b_vert
0
POINT
5
16B
100
AcDbEntity
8
Defpoints
62
0
6
ByLayer
370
-1
48
1
60
0
100
AcDbPoint
10
-36
20
4
30
0
39
0
210
0
220
0
230
1
50
360
0
POINT
5
16C
100
AcDbEntity
8
Defpoints
62
0
6
ByLayer
370
-1
48
1
60
0
100
AcDbPoint
10
-36
20
-4
30
0
39
0
210
0
220
0
230
1
50
360
0
POINT
5
16D
100
AcDbEntity
8
Defpoints
62
0
6
ByLayer
370
-1
48
1
60
0
100
AcDbPoint
10
-39.24994
20
-4
30
0
39
0
210
0
220
0
230
1
50
360
0
ENDBLK
5
162
100
AcDbEntity
8
0
100
AcDbBlockEnd
0
BLOCK
5
179
100
AcDbEntity
8
0
100
AcDbBlockBegin
2
_U2
70
0
10
0
20
0
30
0
3
_U2
0
MTEXT
5
16F
100
AcDbEntity
8
SK2
62
256
6
ByLayer
370
18
48
1
60
0
100
AcDbMText
10
-39.939597
20
14.157505
30
0
210
0
220
0
230
1
1
\W0.7346;8.00
40
3.50012
41
0
44
1.084337
50
90
71
7
72
5
7
iso_b_vert
0
LINE
5
170
100
AcDbEntity
8
SK2
62
256
6
ByLayer
370
13
48
1
60
0
100
AcDbLine
10
-37.5875
20
4
30
0
11
-42.42494
21
4
31
0
39
0
210
0
220
0
230
1
0
LINE
5
171
100
AcDbEntity
8
SK2
62
256
6
ByLayer
370
13
48
1
60
0
100
AcDbLine
10
-37.5875
20
-4
30
0
11
-42.42494
21
-4
31
0
39
0
210
0
220
0
230
1
0
LINE
5
172
100
AcDbEntity
8
SK2
62
256
6
ByLayer
370
13
48
1
60
0
100
AcDbLine
10
-39.24994
20
-4
30
0
11
-39.24994
21
22.21468
31
0
39
0
210
0
220
0
230
1
0
LINE
5
173
100
AcDbEntity
8
SK2
62
256
6
ByLayer
370
13
48
1
60
0
100
AcDbLine
10
-39.24994
20
4
30
0
11
-38.831943
21
0.825002
31
0
39
0
210
0
220
0
230
1
0
LINE
5
174
100
AcDbEntity
8
SK2
62
256
6
ByLayer
370
13
48
1
60
0
100
AcDbLine
10
-39.24994
20
4
30
0
11
-39.667937
21
0.824998
31
0
39
0
210
0
220
0
230
1
0
LINE
5
175
100
AcDbEntity
8
SK2
62
256
6
ByLayer
370
13
48
1
60
0
100
AcDbLine
10
-38.831943
20
0.825002
30
0
11
-39.667937
21
0.824998
31
0
39
0
210
0
220
0
230
1
0
LINE
5
176
100
AcDbEntity
8
SK2
62
256
6
ByLayer
370
13
48
1
60
0
100
AcDbLine
10
-39.24994
20
-4
30
0
11
-39.667937
21
-0.825002
31
0
39
0
210
0
220
0
230
1
0
LINE
5
177
100
AcDbEntity
8
SK2
62
256
6
ByLayer
370
13
48
1
60
0
100
AcDbLine
10
-39.24994
20
-4
30
0
11
-38.831943
21
-0.824998
31
0
39
0
210
0
220
0
230
1
0
LINE
5
178
100
AcDbEntity
8
SK2
62
256
6
ByLayer
370
13
48
1
60
0
100
AcDbLine
10
-39.667937
20
-0.825002
30
0
11
-38.831943
21
-0.824998
31
0
39
0
210
0
220
0
230
1
0
ENDBLK
5
17A
100
AcDbEntity
8
0
100
AcDbBlockEnd
0
BLOCK
5
17F
100
AcDbEntity
8
0
100
AcDbBlockBegin
2
*D8
70
1
10
0
20
0
30
0
3
*D8
0
LINE
5
181
100
AcDbEntity
8
0
62
256
6
ByLayer
370
-2
48
1
60
0
100
AcDbLine
10
-36
20
-5.5875
30
0
11
-36
21
-30.67512
31
0
39
0
210
0
220
0
230
1
0
LINE
5
182
100
AcDbEntity
8
0
62
256
6
ByLayer
370
-2
48
1
60
0
100
AcDbLine
10
0
20
-5.5875
30
0
11
0
21
-30.67512
31
0
39
0
210
0
220
0
230
1
0
LINE
5
183
100
AcDbEntity
8
0
62
256
6
ByLayer
370
-2
48
1
60
0
100
AcDbLine
10
-32.825
20
-27.50012
30
0
11
-3.175
21
-27.50012
31
0
39
0
210
0
220
0
230
1
0
SOLID
5
184
100
AcDbEntity
8
0
62
256
6
ByLayer
370
-1
48
1
60
0
100
AcDbTrace
10
-32.825
20
-26.970953
30
0
11
-32.825
21
-28.029287
31
0
12
-36
22
-27.50012
32
0
13
-36
23
-27.50012
33
0
39
0
210
0
220
0
230
1
0
SOLID
5
185
100
AcDbEntity
8
0
62
256
6
ByLayer
370
-1
48
1
60
0
100
AcDbTrace
10
-3.175
20
-28.029287
30
0
11
-3.175
21
-26.970953
31
0
12
0
22
-27.50012
32
0
13
0
23
-27.50012
33
0
39
0
210
0
220
0
230
1
0
MTEXT
5
186
100
AcDbEntity
8
0
62
256
6
ByLayer
370
18
48
1
60
0
100
AcDbMText
10
-18
20
-20.193619
30
0
210
0
220
0
230
1
1
\A1;36
40
3.50012
41
0
44
1
50
0
71
5
72
5
7
iso_b_vert
0
POINT
5
187
100
AcDbEntity
8
Defpoints
62
0
6
ByLayer
370
-1
48
1
60
0
100
AcDbPoint
10
-36
20
-4
30
0
39
0
210
0
220
0
230
1
50
360
0
POINT
5
188
100
AcDbEntity
8
Defpoints
62
0
6
ByLayer
370
-1
48
1
60
0
100
AcDbPoint
10
0
20
-4
30
0
39
0
210
0
220
0
230
1
50
360
0
POINT
5
189
100
AcDbEntity
8
Defpoints
62
0
6
ByLayer
370
-1
48
1
60
0
100
AcDbPoint
10
0
20
-27.50012
30
0
39
0
210
0
220
0
230
1
50
360
0
ENDBLK
5
180
100
AcDbEntity
8
0
100
AcDbBlockEnd
0
BLOCK
5
195
100
AcDbEntity
8
0
100
AcDbBlockBegin
2
_U3
70
0
10
0
20
0
30
0
3
_U3
0
MTEXT
5
18B
100
AcDbEntity
8
SK2
62
256
6
ByLayer
370
18
48
1
60
0
100
AcDbMText
10
-23.229611
20
-26.467451
30
0
210
0
220
0
230
1
1
\W0.7468;36.00
40
3.50012
41
0
44
1.084337
50
0
71
7
72
5
7
iso_b_vert
0
LINE
5
18C
100
AcDbEntity
8
SK2
62
256
6
ByLayer
370
13
48
1
60
0
100
AcDbLine
10
-36
20
-5.5875
30
0
11
-36
21
-30.67512
31
0
39
0
210
0
220
0
230
1
0
LINE
5
18D
100
AcDbEntity
8
SK2
62
256
6
ByLayer
370
13
48
1
60
0
100
AcDbLine
10
0
20
-5.5875
30
0
11
0
21
-30.67512
31
0
39
0
210
0
220
0
230
1
0
LINE
5
18E
100
AcDbEntity
8
SK2
62
256
6
ByLayer
370
13
48
1
60
0
100
AcDbLine
10
-36
20
-27.50012
30
0
11
0
21
-27.50012
31
0
39
0
210
0
220
0
230
1
0
LINE
5
18F
100
AcDbEntity
8
SK2
62
256
6
ByLayer
370
13
48
1
60
0
100
AcDbLine
10
-36
20
-27.50012
30
0
11
-32.825002
21
-27.082123
31
0
39
0
210
0
220
0
230
1
0
LINE
5
190
100
AcDbEntity
8
SK2
62
256
6
ByLayer
370
13
48
1
60
0
100
AcDbLine
10
-36
20
-27.50012
30
0
11
-32.824998
21
-27.918117
31
0
39
0
210
0
220
0
230
1
0
LINE
5
191
100
AcDbEntity
8
SK2
62
256
6
ByLayer
370
13
48
1
60
0
100
AcDbLine
10
-32.825002
20
-27.082123
30
0
11
-32.824998
21
-27.918117
31
0
39
0
210
0
220
0
230
1
0
LINE
5
192
100
AcDbEntity
8
SK2
62
256
6
ByLayer
370
13
48
1
60
0
100
AcDbLine
10
0
20
-27.50012
30
0
11
-3.174998
21
-27.918117
31
0
39
0
210
0
220
0
230
1
0
LINE
5
193
100
AcDbEntity
8
SK2
62
256
6
ByLayer
370
13
48
1
60
0
100
AcDbLine
10
0
20
-27.50012
30
0
11
-3.175002
21
-27.082123
31
0
39
0
210
0
220
0
230
1
0
LINE
5
194
100
AcDbEntity
8
SK2
62
256
6
ByLayer
370
13
48
1
60
0
100
AcDbLine
10
-3.174998
20
-27.918117
30
0
11
-3.175002
21
-27.082123
31
0
39
0
210
0
220
0
230
1
0
ENDBLK
5
196
100
AcDbEntity
8
0
100
AcDbBlockEnd
0
BLOCK
5
19B
100
AcDbEntity
8
0
100
AcDbBlockBegin
2
*D10
70
1
10
0
20
0
30
0
3
*D10
0
LINE
5
19D
100
AcDbEntity
8
0
62
256
6
ByLayer
370
-2
48
1
60
0
100
AcDbLine
10
2
20
2.9125
30
0
11
2
21
-21.92482
31
0
39
0
210
0
220
0
230
1
0
LINE
5
19E
100
AcDbEntity
8
0
62
256
6
ByLayer
370
-2
48
1
60
0
100
AcDbLine
10
55
20
-1.5875
30
0
11
55
21
-21.92482
31
0
39
0
210
0
220
0
230
1
0
LINE
5
19F
100
AcDbEntity
8
0
62
256
6
ByLayer
370
-2
48
1
60
0
100
AcDbLine
10
5.175
20
-18.74982
30
0
11
51.825
21
-18.74982
31
0
39
0
210
0
220
0
230
1
0
SOLID
5
1A0
100
AcDbEntity
8
0
62
256
6
ByLayer
370
-1
48
1
60
0
100
AcDbTrace
10
5.175
20
-18.220653
30
0
11
5.175
21
-19.278987
31
0
12
2
22
-18.74982
32
0
13
2
23
-18.74982
33
0
39
0
210
0
220
0
230
1
0
SOLID
5
1A1
100
AcDbEntity
8
0
62
256
6
ByLayer
370
-1
48
1
60
0
100
AcDbTrace
10
51.825
20
-19.278987
30
0
11
51.825
21
-18.220653
31
0
12
55
22
-18.74982
32
0
13
55
23
-18.74982
33
0
39
0
210
0
220
0
230
1
0
MTEXT
5
1A2
100
AcDbEntity
8
0
62
256
6
ByLayer
370
18
48
1
60
0
100
AcDbMText
10
28.5
20
-11.443319
30
0
210
0
220
0
230
1
1
\A1;53
40
3.50012
41
0
44
1
50
0
71
5
72
5
7
iso_b_vert
0
POINT
5
1A3
100
AcDbEntity
8
Defpoints
62
0
6
ByLayer
370
-1
48
1
60
0
100
AcDbPoint
10
2
20
4.5
30
0
39
0
210
0
220
0
230
1
50
360
0
POINT
5
1A4
100
AcDbEntity
8
Defpoints
62
0
6
ByLayer
370
-1
48
1
60
0
100
AcDbPoint
10
55
20
0
30
0
39
0
210
0
220
0
230
1
50
360
0
POINT
5
1A5
100
AcDbEntity
8
Defpoints
62
0
6
ByLayer
370
-1
48
1
60
0
100
AcDbPoint
10
55
20
-18.74982
30
0
39
0
210
0
220
0
230
1
50
360
0
ENDBLK
5
19C
100
AcDbEntity
8
0
100
AcDbBlockEnd
0
BLOCK
5
1B1
100
AcDbEntity
8
0
100
AcDbBlockBegin
2
_U4
70
0
10
0
20
0
30
0
3
_U4
0
MTEXT
5
1A7
100
AcDbEntity
8
SK2
62
256
6
ByLayer
370
18
48
1
60
0
100
AcDbMText
10
23.270389
20
-17.717151
30
0
210
0
220
0
230
1
1
\W0.7468;53.00
40
3.50012
41
0
44
1.084337
50
0
71
7
72
5
7
iso_b_vert
0
LINE
5
1A8
100
AcDbEntity
8
SK2
62
256
6
ByLayer
370
13
48
1
60
0
100
AcDbLine
10
2
20
2.9125
30
0
11
2
21
-21.92482
31
0
39
0
210
0
220
0
230
1
0
LINE
5
1A9
100
AcDbEntity
8
SK2
62
256
6
ByLayer
370
13
48
1
60
0
100
AcDbLine
10
55
20
-1.5875
30
0
11
55
21
-21.92482
31
0
39
0
210
0
220
0
230
1
0
LINE
5
1AA
100
AcDbEntity
8
SK2
62
256
6
ByLayer
370
13
48
1
60
0
100
AcDbLine
10
2
20
-18.74982
30
0
11
55
21
-18.74982
31
0
39
0
210
0
220
0
230
1
0
LINE
5
1AB
100
AcDbEntity
8
SK2
62
256
6
ByLayer
370
13
48
1
60
0
100
AcDbLine
10
2
20
-18.74982
30
0
11
5.174998
21
-18.331823
31
0
39
0
210
0
220
0
230
1
0
LINE
5
1AC
100
AcDbEntity
8
SK2
62
256
6
ByLayer
370
13
48
1
60
0
100
AcDbLine
10
2
20
-18.74982
30
0
11
5.175002
21
-19.167817
31
0
39
0
210
0
220
0
230
1
0
LINE
5
1AD
100
AcDbEntity
8
SK2
62
256
6
ByLayer
370
13
48
1
60
0
100
AcDbLine
10
5.174998
20
-18.331823
30
0
11
5.175002
21
-19.167817
31
0
39
0
210
0
220
0
230
1
0
LINE
5
1AE
100
AcDbEntity
8
SK2
62
256
6
ByLayer
370
13
48
1
60
0
100
AcDbLine
10
55
20
-18.74982
30
0
11
51.825002
21
-19.167817
31
0
39
0
210
0
220
0
230
1
0
LINE
5
1AF
100
AcDbEntity
8
SK2
62
256
6
ByLayer
370
13
48
1
60
0
100
AcDbLine
10
55
20
-18.74982
30
0
11
51.824998
21
-18.331823
31
0
39
0
210
0
220
0
230
1
0
LINE
5
1B0
100
AcDbEntity
8
SK2
62
256
6
ByLayer
370
13
48
1
60
0
100
AcDbLine
10
51.825002
20
-19.167817
30
0
11
51.824998
21
-18.331823
31
0
39
0
210
0
220
0
230
1
0
ENDBLK
5
1B2
100
AcDbEntity
8
0
100
AcDbBlockEnd
0
BLOCK
5
1B7
100
AcDbEntity
8
0
100
AcDbBlockBegin
2
*D12
70
1
10
0
20
0
30
0
3
*D12
0
LINE
5
1B9
100
AcDbEntity
8
0
62
256
6
ByLayer
370
-2
48
1
60
0
100
AcDbLine
10
13.6
20
-5.5875
30
0
11
13.6
21
-11.32
31
0
39
0
210
0
220
0
230
1
0
LINE
5
1BA
100
AcDbEntity
8
0
62
256
6
ByLayer
370
-2
48
1
60
0
100
AcDbLine
10
55
20
-1.5875
30
0
11
55
21
-11.32
31
0
39
0
210
0
220
0
230
1
0
LINE
5
1BB
100
AcDbEntity
8
0
62
256
6
ByLayer
370
-2
48
1
60
0
100
AcDbLine
10
16.775
20
-10.82
30
0
11
51.825
21
-10.82
31
0
39
0
210
0
220
0
230
1
0
SOLID
5
1BC
100
AcDbEntity
8
0
62
256
6
ByLayer
370
-1
48
1
60
0
100
AcDbTrace
10
16.775
20
-10.290833
30
0
11
16.775
21
-11.349167
31
0
12
13.6
22
-10.82
32
0
13
13.6
23
-10.82
33
0
39
0
210
0
220
0
230
1
0
SOLID
5
1BD
100
AcDbEntity
8
0
62
256
6
ByLayer
370
-1
48
1
60
0
100
AcDbTrace
10
51.825
20
-11.349167
30
0
11
51.825
21
-10.290833
31
0
12
55
22
-10.82
32
0
13
55
23
-10.82
33
0
39
0
210
0
220
0
230
1
0
MTEXT
5
1BE
100
AcDbEntity
8
0
62
256
6
ByLayer
370
18
48
1
60
0
100
AcDbMText
10
34.3
20
-4.975
30
0
210
0
220
0
230
1
1
\A1;41.4
40
2.8
41
0
44
1
50
0
71
5
72
5
7
iso_b_vert
0
POINT
5
1BF
100
AcDbEntity
8
Defpoints
62
0
6
ByLayer
370
-1
48
1
60
0
100
AcDbPoint
10
13.6
20
-4
30
0
39
0
210
0
220
0
230
1
50
360
0
POINT
5
1C0
100
AcDbEntity
8
Defpoints
62
0
6
ByLayer
370
-1
48
1
60
0
100
AcDbPoint
10
55
20
0
30
0
39
0
210
0
220
0
230
1
50
360
0
POINT
5
1C1
100
AcDbEntity
8
Defpoints
62
0
6
ByLayer
370
-1
48
1
60
0
100
AcDbPoint
10
55
20
-10.82
30
0
39
0
210
0
220
0
230
1
50
360
0
ENDBLK
5
1B8
100
AcDbEntity
8
0
100
AcDbBlockEnd
0
BLOCK
5
1CD
100
AcDbEntity
8
0
100
AcDbBlockBegin
2
_U5
70
0
10
0
20
0
30
0
3
_U5
0
MTEXT
5
1C3
100
AcDbEntity
8
SK2
62
256
6
ByLayer
370
18
48
1
60
0
100
AcDbMText
10
30.171574
20
-10.973893
30
0
210
0
220
0
230
1
1
\W0.7355;41.40
40
2.8
41
0
44
1.084337
50
0
71
7
72
5
7
iso_b_vert
0
LINE
5
1C4
100
AcDbEntity
8
SK2
62
256
6
ByLayer
370
13
48
1
60
0
100
AcDbLine
10
13.6
20
-5.5875
30
0
11
13.6
21
-11.32
31
0
39
0
210
0
220
0
230
1
0
LINE
5
1C5
100
AcDbEntity
8
SK2
62
256
6
ByLayer
370
13
48
1
60
0
100
AcDbLine
10
55
20
-1.5875
30
0
11
55
21
-11.32
31
0
39
0
210
0
220
0
230
1
0
LINE
5
1C6
100
AcDbEntity
8
SK2
62
256
6
ByLayer
370
13
48
1
60
0
100
AcDbLine
10
13.6
20
-10.82
30
0
11
55
21
-10.82
31
0
39
0
210
0
220
0
230
1
0
LINE
5
1C7
100
AcDbEntity
8
SK2
62
256
6
ByLayer
370
13
48
1
60
0
100
AcDbLine
10
13.6
20
-10.82
30
0
11
16.774998
21
-10.402003
31
0
39
0
210
0
220
0
230
1
0
LINE
5
1C8
100
AcDbEntity
8
SK2
62
256
6
ByLayer
370
13
48
1
60
0
100
AcDbLine
10
13.6
20
-10.82
30
0
11
16.775002
21
-11.237997
31
0
39
0
210
0
220
0
230
1
0
LINE
5
1C9
100
AcDbEntity
8
SK2
62
256
6
ByLayer
370
13
48
1
60
0
100
AcDbLine
10
16.774998
20
-10.402003
30
0
11
16.775002
21
-11.237997
31
0
39
0
210
0
220
0
230
1
0
LINE
5
1CA
100
AcDbEntity
8
SK2
62
256
6
ByLayer
370
13
48
1
60
0
100
AcDbLine
10
55
20
-10.82
30
0
11
51.825002
21
-11.237997
31
0
39
0
210
0
220
0
230
1
0
LINE
5
1CB
100
AcDbEntity
8
SK2
62
256
6
ByLayer
370
13
48
1
60
0
100
AcDbLine
10
55
20
-10.82
30
0
11
51.824998
21
-10.402003
31
0
39
0
210
0
220
0
230
1
0
LINE
5
1CC
100
AcDbEntity
8
SK2
62
256
6
ByLayer
370
13
48
1
60
0
100
AcDbLine
10
51.825002
20
-11.237997
30
0
11
51.824998
21
-10.402003
31
0
39
0
210
0
220
0
230
1
0
ENDBLK
5
1CE
100
AcDbEntity
8
0
100
AcDbBlockEnd
0
BLOCK
5
1D3
100
AcDbEntity
8
0
100
AcDbBlockBegin
2
*D14
70
1
10
0
20
0
30
0
3
*D14
0
LINE
5
1D5
100
AcDbEntity
8
0
62
256
6
ByLayer
370
-2
48
1
60
0
100
AcDbLine
10
-36
20
-1.5875
30
0
11
-36
21
-40.67512
31
0
39
0
210
0
220
0
230
1
0
LINE
5
1D6
100
AcDbEntity
8
0
62
256
6
ByLayer
370
-2
48
1
60
0
100
AcDbLine
10
55
20
-1.5875
30
0
11
55
21
-40.67512
31
0
39
0
210
0
220
0
230
1
0
LINE
5
1D7
100
AcDbEntity
8
0
62
256
6
ByLayer
370
-2
48
1
60
0
100
AcDbLine
10
-32.825
20
-37.50012
30
0
11
51.825
21
-37.50012
31
0
39
0
210
0
220
0
230
1
0
SOLID
5
1D8
100
AcDbEntity
8
0
62
256
6
ByLayer
370
-1
48
1
60
0
100
AcDbTrace
10
-32.825
20
-36.970953
30
0
11
-32.825
21
-38.029287
31
0
12
-36
22
-37.50012
32
0
13
-36
23
-37.50012
33
0
39
0
210
0
220
0
230
1
0
SOLID
5
1D9
100
AcDbEntity
8
0
62
256
6
ByLayer
370
-1
48
1
60
0
100
AcDbTrace
10
51.825
20
-38.029287
30
0
11
51.825
21
-36.970953
31
0
12
55
22
-37.50012
32
0
13
55
23
-37.50012
33
0
39
0
210
0
220
0
230
1
0
MTEXT
5
1DA
100
AcDbEntity
8
0
62
256
6
ByLayer
370
18
48
1
60
0
100
AcDbMText
10
9.5
20
-30.193619
30
0
210
0
220
0
230
1
1
\A1;91
40
3.50012
41
0
44
1
50
0
71
5
72
5
7
iso_b_vert
0
POINT
5
1DB
100
AcDbEntity
8
Defpoints
62
0
6
ByLayer
370
-1
48
1
60
0
100
AcDbPoint
10
-36
20
0
30
0
39
0
210
0
220
0
230
1
50
360
0
POINT
5
1DC
100
AcDbEntity
8
Defpoints
62
0
6
ByLayer
370
-1
48
1
60
0
100
AcDbPoint
10
55
20
0
30
0
39
0
210
0
220
0
230
1
50
360
0
POINT
5
1DD
100
AcDbEntity
8
Defpoints
62
0
6
ByLayer
370
-1
48
1
60
0
100
AcDbPoint
10
55
20
-37.50012
30
0
39
0
210
0
220
0
230
1
50
360
0
ENDBLK
5
1D4
100
AcDbEntity
8
0
100
AcDbBlockEnd
0
BLOCK
5
1E9
100
AcDbEntity
8
0
100
AcDbBlockBegin
2
_U6
70
0
10
0
20
0
30
0
3
_U6
0
MTEXT
5
1DF
100
AcDbEntity
8
SK2
62
256
6
ByLayer
370
18
48
1
60
0
100
AcDbMText
10
4.707837
20
-36.467451
30
0
210
0
220
0
230
1
1
\W0.6864;91.00
40
3.50012
41
0
44
1.084337
50
0
71
7
72
5
7
iso_b_vert
0
LINE
5
1E0
100
AcDbEntity
8
SK2
62
256
6
ByLayer
370
13
48
1
60
0
100
AcDbLine
10
-36
20
-1.5875
30
0
11
-36
21
-40.67512
31
0
39
0
210
0
220
0
230
1
0
LINE
5
1E1
100
AcDbEntity
8
SK2
62
256
6
ByLayer
370
13
48
1
60
0
100
AcDbLine
10
55
20
-1.5875
30
0
11
55
21
-40.67512
31
0
39
0
210
0
220
0
230
1
0
LINE
5
1E2
100
AcDbEntity
8
SK2
62
256
6
ByLayer
370
13
48
1
60
0
100
AcDbLine
10
-36
20
-37.50012
30
0
11
55
21
-37.50012
31
0
39
0
210
0
220
0
230
1
0
LINE
5
1E3
100
AcDbEntity
8
SK2
62
256
6
ByLayer
370
13
48
1
60
0
100
AcDbLine
10
-36
20
-37.50012
30
0
11
-32.825002
21
-37.082123
31
0
39
0
210
0
220
0
230
1
0
LINE
5
1E4
100
AcDbEntity
8
SK2
62
256
6
ByLayer
370
13
48
1
60
0
100
AcDbLine
10
-36
20
-37.50012
30
0
11
-32.824998
21
-37.918117
31
0
39
0
210
0
220
0
230
1
0
LINE
5
1E5
100
AcDbEntity
8
SK2
62
256
6
ByLayer
370
13
48
1
60
0
100
AcDbLine
10
-32.825002
20
-37.082123
30
0
11
-32.824998
21
-37.918117
31
0
39
0
210
0
220
0
230
1
0
LINE
5
1E6
100
AcDbEntity
8
SK2
62
256
6
ByLayer
370
13
48
1
60
0
100
AcDbLine
10
55
20
-37.50012
30
0
11
51.825002
21
-37.918117
31
0
39
0
210
0
220
0
230
1
0
LINE
5
1E7
100
AcDbEntity
8
SK2
62
256
6
ByLayer
370
13
48
1
60
0
100
AcDbLine
10
55
20
-37.50012
30
0
11
51.824998
21
-37.082123
31
0
39
0
210
0
220
0
230
1
0
LINE
5
1E8
100
AcDbEntity
8
SK2
62
256
6
ByLayer
370
13
48
1
60
0
100
AcDbLine
10
51.825002
20
-37.918117
30
0
11
51.824998
21
-37.082123
31
0
39
0
210
0
220
0
230
1
0
ENDBLK
5
1EA
100
AcDbEntity
8
0
100
AcDbBlockEnd
0
ENDSEC
0
SECTION
2
ENTITIES
0
ARC
5
B2
100
AcDbEntity
8
SK2
62
256
6
ByLayer
370
13
48
1
60
0
100
AcDbCircle
39
0
10
55
20
0
30
0
40
20
210
0
220
0
230
1
100
AcDbArc
50
9.606349
51
69.999759
0
ARC
5
B3
100
AcDbEntity
8
SK2
62
256
6
ByLayer
370
13
48
1
60
0
100
AcDbCircle
39
0
10
55
20
0
30
0
40
20
210
0
220
0
230
1
100
AcDbArc
50
290.000241
51
350.393651
0
ELLIPSE
5
B4
100
AcDbEntity
8
1
62
256
6
ByLayer
370
18
48
1
60
0
100
AcDbEllipse
10
3.558486
20
-1.801322
30
0
11
0.00215149810781465
21
0.00976581055991104
31
0
210
0
220
0
230
1
40
0.5865
41
1.26201792072986
42
2.59822692766311
0
ELLIPSE
5
B5
100
AcDbEntity
8
1
62
256
6
ByLayer
370
18
48
1
60
0
100
AcDbEllipse
10
3.601853
20
-1.816835
30
0
11
-0.00432277110498593
21
-0.00901740816276488
31
0
210
0
220
0
230
1
40
0.22923
41
-2.02010114748654
42
-0.45065635399433
0
ELLIPSE
5
B6
100
AcDbEntity
8
1
62
256
6
ByLayer
370
18
48
1
60
0
100
AcDbEllipse
10
3.60235
20
2.846431
30
0
11
-6.71591609197567E-06
21
0.0099999977448233
31
0
210
0
220
0
230
1
40
0.010009
41
-2.42352639093327
42
-0.852065014367244
0
ELLIPSE
5
B7
100
AcDbEntity
8
1
62
256
6
ByLayer
370
18
48
1
60
0
100
AcDbEllipse
10
3.645339
20
2.839223
30
0
11
-0.00339310620738034
21
-0.00940674387157624
31
0
210
0
220
0
230
1
40
0.368051
41
0.789493246979828
42
2.3549569690381
0
POINT
5
70
100
AcDbEntity
8
80
62
256
6
ByLayer
370
18
48
1
60
0
100
AcDbPoint
10
0
20
0
30
0
39
0
210
0
220
0
230
1
50
360
0
POINT
5
72
100
AcDbEntity
8
81
62
256
6
ByLayer
370
18
48
1
60
0
100
AcDbPoint
10
55
20
0
30
0
39
0
210
0
220
0
230
1
50
360
0
POINT
5
74
100
AcDbEntity
8
1
62
256
6
ByLayer
370
18
48
1
60
0
100
AcDbPoint
10
-36
20
0
30
0
39
0
210
0
220
0
230
1
50
360
0
POINT
5
76
100
AcDbEntity
8
1
62
256
6
ByLayer
370
18
48
1
60
1
100
AcDbPoint
10
0
20
-4
30
0
39
0
210
0
220
0
230
1
50
360
0
POINT
5
77
100
AcDbEntity
8
1
62
256
6
ByLayer
370
18
48
1
60
1
100
AcDbPoint
10
55
20
0
30
0
39
0
210
0
220
0
230
1
50
360
0
POINT
5
78
100
AcDbEntity
8
1
62
256
6
ByLayer
370
18
48
1
60
1
100
AcDbPoint
10
53.5441
20
-4
30
0
39
0
210
0
220
0
230
1
50
360
0
POINT
5
79
100
AcDbEntity
8
1
62
256
6
ByLayer
370
18
48
1
60
1
100
AcDbPoint
10
53.5441
20
4
30
0
39
0
210
0
220
0
230
1
50
360
0
POINT
5
7A
100
AcDbEntity
8
1
62
256
6
ByLayer
370
18
48
1
60
1
100
AcDbPoint
10
-36
20
4
30
0
39
0
210
0
220
0
230
1
50
360
0
POINT
5
7B
100
AcDbEntity
8
1
62
256
6
ByLayer
370
18
48
1
60
1
100
AcDbPoint
10
-36
20
-4
30
0
39
0
210
0
220
0
230
1
50
360
0
POINT
5
7C
100
AcDbEntity
8
1
62
256
6
ByLayer
370
18
48
1
60
1
100
AcDbPoint
10
-36
20
-4
30
0
39
0
210
0
220
0
230
1
50
360
0
POINT
5
7D
100
AcDbEntity
8
1
62
256
6
ByLayer
370
18
48
1
60
1
100
AcDbPoint
10
0
20
-4
30
0
39
0
210
0
220
0
230
1
50
360
0
POINT
5
7E
100
AcDbEntity
8
1
62
256
6
ByLayer
370
18
48
1
60
1
100
AcDbPoint
10
2
20
4.5
30
0
39
0
210
0
220
0
230
1
50
360
0
POINT
5
7F
100
AcDbEntity
8
1
62
256
6
ByLayer
370
18
48
1
60
1
100
AcDbPoint
10
55
20
0
30
0
39
0
210
0
220
0
230
1
50
360
0
POINT
5
80
100
AcDbEntity
8
1
62
256
6
ByLayer
370
18
48
1
60
1
100
AcDbPoint
10
13.6
20
-4
30
0
39
0
210
0
220
0
230
1
50
360
0
POINT
5
81
100
AcDbEntity
8
1
62
256
6
ByLayer
370
18
48
1
60
1
100
AcDbPoint
10
55
20
0
30
0
39
0
210
0
220
0
230
1
50
360
0
POINT
5
82
100
AcDbEntity
8
1
62
256
6
ByLayer
370
18
48
1
60
1
100
AcDbPoint
10
-36
20
0
30
0
39
0
210
0
220
0
230
1
50
360
0
POINT
5
83
100
AcDbEntity
8
1
62
256
6
ByLayer
370
18
48
1
60
1
100
AcDbPoint
10
55
20
0
30
0
39
0
210
0
220
0
230
1
50
360
0
SPLINE
5
B8
100
AcDbEntity
8
1
62
256
6
ByLayer
370
18
48
1
60
0
100
AcDbSpline
70
4
71
3
72
8
73
4
40
0
40
0
40
0
40
0
40
1
40
1
40
1
40
1
41
1
10
9.90929856149674
20
-3.97273156075625
30
0
41
1
10
9.33348517050828
20
-3.9726105503737
30
0
41
1
10
8.75800647564552
20
-3.93124656471127
30
0
41
1
10
8.17851265545406
20
-3.84874760027463
30
0
0
SPLINE
5
B9
100
AcDbEntity
8
1
62
256
6
ByLayer
370
18
48
1
60
0
100
AcDbSpline
70
4
71
3
72
8
73
4
40
0
40
0
40
0
40
0
40
1
40
1
40
1
40
1
41
1
10
53.5718652031837
20
-3.77704588313233
30
0
41
1
10
53.5659798374755
20
-3.79399941018252
30
0
41
1
10
53.5601204492765
20
-3.81095205749372
30
0
41
1
10
53.5542875436065
20
-3.82790399198848
30
0
0
SPLINE
5
BA
100
AcDbEntity
8
1
62
256
6
ByLayer
370
18
48
1
60
0
100
AcDbSpline
70
4
71
3
72
8
73
4
40
0
40
0
40
0
40
0
40
1
40
1
40
1
40
1
41
1
10
54.6481376474971
20
-1.23607755394354
30
0
41
1
10
54.7673924499844
20
-0.89880762962477
30
0
41
1
10
54.8834662167516
20
-0.560399928071774
30
0
41
1
10
54.9963113360315
20
-0.220837419741628
30
0
0
SPLINE
5
BB
100
AcDbEntity
8
1
62
256
6
ByLayer
370
18
48
1
60
0
100
AcDbSpline
70
4
71
3
72
10
73
6
40
0
40
0
40
0
40
0
40
0.5
40
0.5
40
1
40
1
40
1
40
1
41
1
10
53.6113168921574
20
-3.83413156135961
30
0
41
1
10
53.598331038417
20
-3.84290762486373
30
0
41
1
10
53.5873098827634
20
-3.84669717788427
30
0
41
1
10
53.5685352772827
20
-3.84441543642038
30
0
41
1
10
53.5608434558478
20
-3.83839075705458
30
0
41
1
10
53.5542875436066
20
-3.82790399198831
30
0
0
SPLINE
5
BC
100
AcDbEntity
8
1
62
256
6
ByLayer
370
18
48
1
60
0
100
AcDbSpline
70
4
71
3
72
16
73
12
40
0
40
0
40
0
40
0
40
0.25
40
0.25
40
0.5
40
0.5
40
0.75
40
0.75
40
0.875
40
0.875
40
1
40
1
40
1
40
1
41
1
10
53.010761617779
20
0.583750805787588
30
0
41
1
10
53.0699344037935
20
0.626665666330126
30
0
41
1
10
53.1309537576231
20
0.66288769805027
30
0
41
1
10
53.2555196660915
20
0.724304063021862
30
0
41
1
10
53.3190759607367
20
0.749543190869986
30
0
41
1
10
53.4479349196072
20
0.788226622795207
30
0
41
1
10
53.5132422067509
20
0.80162934391106
30
0
41
1
10
53.6118444060963
20
0.81194318891005
30
0
41
1
10
53.6448132938613
20
0.813810053034501
30
0
41
1
10
53.7108221756243
20
0.815193058453275
30
0
41
1
10
53.7438865677807
20
0.814647598116778
30
0
41
1
10
53.776904327737
20
0.812186985210161
30
0
0
SPLINE
5
BD
100
AcDbEntity
8
1
62
256
6
ByLayer
370
18
48
1
60
0
100
AcDbSpline
70
4
71
3
72
8
73
4
40
0
40
0
40
0
40
0
40
1
40
1
40
1
40
1
41
1
10
54.9963113360221
20
0.22083741974248
30
0
41
1
10
54.9790334788453
20
0.16324898354901
30
0
41
1
10
54.9616695042144
20
0.105687653399428
30
0
41
1
10
54.9442197357848
20
0.0481533274210335
30
0
0
SPLINE
5
BE
100
AcDbEntity
8
1
62
256
6
ByLayer
370
18
48
1
60
0
100
AcDbSpline
70
4
71
3
72
20
73
16
40
0
40
0
40
0
40
0
40
0.265181661908036
40
0.265181661908036
40
0.397772492862054
40
0.397772492862054
40
0.530363323816072
40
0.530363323816072
40
0.662954154770089
40
0.662954154770089
40
0.795544985724107
40
0.795544985724107
40
0.928135816678125
40
0.928135816678125
40
1
40
1
40
1
40
1
41
1
10
3.65018685943051
20
2.84498236607612
30
-2E-16
41
1
10
4.16827211595435
20
2.65860623885058
30
-2E-16
41
1
10
4.68412936861407
20
2.44901244648429
30
-1E-16
41
1
10
5.45800198929544
20
2.10738709866001
30
-1E-16
41
1
10
5.71594787230069
20
1.98896366977505
30
-1E-16
41
1
10
6.2320525797771
20
1.74400586825215
30
-1E-16
41
1
10
6.49004133309501
20
1.61736918012289
30
-1E-16
41
1
10
7.00727486652005
20
1.35722893520236
30
-1E-16
41
1
10
7.26738503189094
20
1.22361065546983
30
-1E-16
41
1
10
7.78677331368112
20
0.951842247957302
30
-1E-16
41
1
10
8.04526385742653
20
0.814029080666586
30
0
41
1
10
8.56096526590338
20
0.536715923419337
30
0
41
1
10
8.81822482153609
20
0.397315301181152
30
0
41
1
10
9.21419610010099
20
0.181512858888169
30
0
41
1
10
9.35321913852556
20
0.10545922644107
30
0
41
1
10
9.49218328057901
20
0.0293936022522701
30
0
0
SPLINE
5
BF
100
AcDbEntity
8
1
62
256
6
ByLayer
370
18
48
1
60
0
100
AcDbSpline
70
4
71
3
72
32
73
28
40
0
40
0
40
0
40
0
40
0.0408998735487312
40
0.0408998735487312
40
0.109407025438105
40
0.109407025438105
40
0.177914177327478
40
0.177914177327478
40
0.212167753272165
40
0.212167753272165
40
0.246421329216852
40
0.246421329216852
40
0.314928481106229
40
0.314928481106229
40
0.383435632995605
40
0.383435632995605
40
0.451942784884982
40
0.451942784884982
40
0.588957088663738
40
0.588957088663738
40
0.657464240553116
40
0.657464240553116
40
0.725971392442494
40
0.725971392442494
40
0.862985696221247
40
0.862985696221247
40
1
40
1
40
1
40
1
41
1
10
41.8457596556862
20
3.79846518568274
30
0
41
1
10
41.9985548142253
20
3.80241840472129
30
0
41
1
10
42.1514497445892
20
3.80346288346968
30
0
41
1
10
42.5606980806023
20
3.79902844254826
30
0
41
1
10
42.8170406122194
20
3.78914634198699
30
0
41
1
10
43.3308237731464
20
3.7543507763817
30
0
41
1
10
43.5887299038278
20
3.72844941656743
30
0
41
1
10
43.9775652116269
20
3.67720330710495
30
0
41
1
10
44.1076786520241
20
3.65805439716809
30
0
41
1
10
44.3671171598759
20
3.6160207529322
30
0
41
1
10
44.4965603603022
20
3.59312284184236
30
0
41
1
10
44.8841641734316
20
3.51902744338966
30
0
41
1
10
45.1415997143346
20
3.46242951652536
30
0
41
1
10
45.6550657489455
20
3.33609150202534
30
0
41
1
10
45.9110575403005
20
3.26644728787679
30
0
41
1
10
46.4227754243891
20
3.11383998923873
30
-2E-16
41
1
10
46.6785450495402
20
3.03073910059351
30
-2E-16
41
1
10
47.4463909262776
20
2.76305430001622
30
-2E-16
41
1
10
47.9590059590361
20
2.56024858556421
30
-2E-16
41
1
10
48.7329212394414
20
2.22455258295136
30
-1E-16
41
1
10
48.9920852144172
20
2.10728979417505
30
-1E-16
41
1
10
49.5110799627272
20
1.86401759291513
30
-1E-16
41
1
10
49.7695158301817
20
1.73864750695552
30
-1E-16
41
1
10
50.5427538228622
20
1.35348400708995
30
-1E-16
41
1
10
51.0555105126962
20
1.08470972090757
30
-1E-16
41
1
10
52.0814604021167
20
0.533368538365352
30
0
41
1
10
52.5943961918425
20
0.250701110604553
30
0
41
1
10
53.1106974572217
20
-0.0329106902042611
30
0
0
SPLINE
5
C0
100
AcDbEntity
8
1
62
256
6
ByLayer
370
18
48
1
60
0
100
AcDbSpline
70
4
71
3
72
30
73
26
40
0
40
0
40
0
40
0
40
0.0624999999999998
40
0.0624999999999998
40
0.125
40
0.125
40
0.25
40
0.25
40
0.3125
40
0.3125
40
0.375
40
0.375
40
0.4375
40
0.4375
40
0.5
40
0.5
40
0.625
40
0.625
40
0.6875
40
0.6875
40
0.75
40
0.75
40
0.875
40
0.875
40
1
40
1
40
1
40
1
41
1
10
3.60242132512039
20
2.83889984509185
30
-2E-16
41
1
10
3.60241572522457
20
2.76839720902029
30
-2E-16
41
1
10
3.60240941231453
20
2.69463232835764
30
-2E-16
41
1
10
3.60239550961393
20
2.54060338810436
30
-2E-16
41
1
10
3.6023879070359
20
2.46022922852865
30
-2E-16
41
1
10
3.6023636827853
20
2.21254767326951
30
-1E-16
41
1
10
3.60234558318845
20
2.03777705348213
30
-1E-16
41
1
10
3.60231610330732
20
1.76138672372048
30
-1E-16
41
1
10
3.60230588291412
20
1.66687165152592
30
-1E-16
41
1
10
3.60228469180478
20
1.47295672819902
30
-1E-16
41
1
10
3.60227370541011
20
1.37342268903498
30
-1E-16
41
1
10
3.60225133760611
20
1.17244859377581
30
-1E-16
41
1
10
3.6022399170082
20
1.07064704135561
30
-1E-16
41
1
10
3.60221660395845
20
0.864420095528459
30
-1E-16
41
1
10
3.60220467138979
20
0.759645841425851
30
0
41
1
10
3.60216840381801
20
0.443865224649699
30
0
41
1
10
3.60214379018564
20
0.232922546735551
30
0
41
1
10
3.60210584392416
20
-0.0841037128570576
30
0
41
1
10
3.60209302068918
20
-0.189881734362217
30
0
41
1
10
3.60206691742474
20
-0.401646107985414
30
0
41
1
10
3.6020535804557
20
-0.508076308015944
30
0
41
1
10
3.60201309126393
20
-0.824404961711821
30
1E-16
41
1
10
3.60198569683527
20
-1.0296474050497
30
1E-16
41
1
10
3.60192898771746
20
-1.42921887690156
30
1E-16
41
1
10
3.60189959157245
20
-1.62407808429279
30
1E-16
41
1
10
3.60186871330541
20
-1.81202535183735
30
1E-16
0
SPLINE
5
C1
100
AcDbEntity
8
1
62
256
6
ByLayer
370
18
48
1
60
0
100
AcDbSpline
70
4
71
3
72
32
73
28
40
0
40
0
40
0
40
0
40
0.160714132073654
40
0.160714132073654
40
0.241071198110481
40
0.241071198110481
40
0.321428264147308
40
0.321428264147308
40
0.401785330184135
40
0.401785330184135
40
0.482142396220962
40
0.482142396220962
40
0.562499462257789
40
0.562499462257789
40
0.602677995276202
40
0.602677995276202
40
0.642856528294616
40
0.642856528294616
40
0.723213594331443
40
0.723213594331443
40
0.80357066036827
40
0.80357066036827
40
0.883927726405097
40
0.883927726405097
40
0.964284792441924
40
0.964284792441924
40
1
40
1
40
1
40
1
41
1
10
18
20
1.60902781696578
30
-1E-16
41
1
10
18.7379969200738
20
1.22110255280344
30
-1E-16
41
1
10
19.4741245390059
20
0.80699417989095
30
0
41
1
10
20.5807925668754
20
0.174192716101743
30
0
41
1
10
20.9488468138888
20
-0.0379680161395299
30
0
41
1
10
21.6856327501909
20
-0.460646522861992
30
0
41
1
10
22.0548886957308
20
-0.67148743842435
30
0
41
1
10
22.7916756178995
20
-1.08484457772155
30
1E-16
41
1
10
23.1596316594674
20
-1.28760142713043
30
1E-16
41
1
10
23.8970427135783
20
-1.68129197370362
30
1E-16
41
1
10
24.2657487331234
20
-1.87180237387304
30
1E-16
41
1
10
25.0014188094651
20
-2.23450683718889
30
1E-16
41
1
10
25.3689819621445
20
-2.40703105297098
30
1E-16
41
1
10
25.921602729409
20
-2.65011045234564
30
2E-16
41
1
10
26.1062173658625
20
-2.72859246342952
30
2E-16
41
1
10
26.4747891228504
20
-2.87932613258533
30
2E-16
41
1
10
26.6588276476918
20
-2.95161965976459
30
2E-16
41
1
10
27.2106455964435
20
-3.15880451890899
30
2E-16
41
1
10
27.578131273413
20
-3.28399724239677
30
2E-16
41
1
10
28.3145951381643
20
-3.50609193769628
30
0
41
1
10
28.6837667238457
20
-3.60298246094408
30
0
41
1
10
29.4210980741211
20
-3.76510805329065
30
0
41
1
10
29.7901529490466
20
-3.83053820438707
30
0
41
1
10
30.5260218534646
20
-3.92807919707795
30
0
41
1
10
30.8933971186621
20
-3.96033981467269
30
0
41
1
10
31.4249468559687
20
-3.98264396625507
30
0
41
1
10
31.5887077564051
20
-3.98617537198265
30
0
41
1
10
31.752571588145
20
-3.98636541776293
30
0
0
SPLINE
5
C2
100
AcDbEntity
8
1
62
256
6
ByLayer
370
18
48
1
60
0
100
AcDbSpline
70
4
71
3
72
10
73
6
40
0
40
0
40
0
40
0
40
0.23135974635149
40
0.23135974635149
40
1
40
1
40
1
40
1
41
1
10
51.9251169854379
20
3.89449222947022
30
0
41
1
10
52.0359454318604
20
3.90909944403612
30
0
41
1
10
52.1468015877483
20
3.92221497671568
30
0
41
1
10
52.6262114093506
20
3.97238760387106
30
0
41
1
10
52.9942787772333
20
3.9941691699741
30
0
41
1
10
53.3624241813876
20
3.99896408572047
30
0
0
SPLINE
5
C3
100
AcDbEntity
8
1
62
256
6
ByLayer
370
18
48
1
60
0
100
AcDbSpline
70
4
71
3
72
12
73
8
40
0
40
0
40
0
40
0
40
0.500000000000028
40
0.500000000000028
40
0.750000000000014
40
0.750000000000014
40
1
40
1
40
1
40
1
41
1
10
3.50171223732232
20
2.85416117377932
30
-2E-16
41
1
10
3.5017122373223
20
2.85084661614329
30
-2E-16
41
1
10
3.50944656146479
20
2.8473569312346
30
-2E-16
41
1
10
3.5347916502916
20
2.84283624054956
30
-2E-16
41
1
10
3.54555422096499
20
2.84147343528062
30
-2E-16
41
1
10
3.57160960588541
20
2.83947769437387
30
-2E-16
41
1
10
3.58678821442499
20
2.8388818736662
30
-2E-16
41
1
10
3.60242132512039
20
2.83889984509185
30
-2E-16
0
SPLINE
5
C4
100
AcDbEntity
8
1
62
256
6
ByLayer
370
18
48
1
60
0
100
AcDbSpline
70
4
71
3
72
44
73
40
40
0
40
0
40
0
40
0
40
0.0672562717238815
40
0.0672562717238815
40
0.134512543447763
40
0.134512543447763
40
0.201768815171645
40
0.201768815171645
40
0.235396951033585
40
0.235396951033585
40
0.269025086895525
40
0.269025086895525
40
0.336281358619406
40
0.336281358619406
40
0.403537630343286
40
0.403537630343286
40
0.437165766205226
40
0.437165766205226
40
0.470793902067167
40
0.470793902067167
40
0.538050173791047
40
0.538050173791047
40
0.605306445514927
40
0.605306445514927
40
0.638934581376867
40
0.638934581376867
40
0.672562717238807
40
0.672562717238807
40
0.739818988962687
40
0.739818988962687
40
0.807075260686567
40
0.807075260686567
40
0.840703396548507
40
0.840703396548507
40
0.874331532410447
40
0.874331532410447
40
0.941587804134328
40
0.941587804134328
40
1
40
1
40
1
40
1
41
1
10
4.81139369224079
20
2.93465949556676
30
-2E-16
41
1
10
5.31899691135669
20
2.73923632302359
30
-2E-16
41
1
10
5.82166553525366
20
2.52153940618595
30
-2E-16
41
1
10
6.8234680271992
20
2.05110202098945
30
-1E-16
41
1
10
7.32298935048848
20
1.79896009461714
30
-1E-16
41
1
10
8.3244520888291
20
1.26905025581107
30
-1E-16
41
1
10
8.82609766783341
20
0.990735151768661
30
-1E-16
41
1
10
9.58540536210896
20
0.561999496023901
30
0
41
1
10
9.83912795005872
20
0.417323088527183
30
0
41
1
10
10.3432918033234
20
0.128463436561333
30
0
41
1
10
10.594448114803
20
-0.0161292300720106
30
0
41
1
10
11.3463934137648
20
-0.448186930337869
30
0
41
1
10
11.8460646965501
20
-0.73322197772049
30
0
41
1
10
12.8466277949884
20
-1.28951985727025
30
1E-16
41
1
10
13.3477261656924
20
-1.5604058481004
30
1E-16
41
1
10
14.1053720276696
20
-1.94756696900544
30
1E-16
41
1
10
14.3594184942788
20
-2.07380432541191
30
1E-16
41
1
10
14.864300382881
20
-2.31610558391895
30
1E-16
41
1
10
15.1157100927456
20
-2.43249608824607
30
1E-16
41
1
10
15.8685185426261
20
-2.76532544346858
30
2E-16
41
1
10
16.3681195050257
20
-2.96601711448955
30
2E-16
41
1
10
17.3678185708884
20
-3.31914890913106
30
2E-16
41
1
10
17.8684455359177
20
-3.47102023160377
30
0
41
1
10
18.6242941614404
20
-3.65747802691055
30
0
41
1
10
18.8777388526674
20
-3.71286123249285
30
0
41
1
10
19.3836345343112
20
-3.80824184398836
30
0
41
1
10
19.6356048810784
20
-3.84812135008741
30
0
41
1
10
20.3894499595223
20
-3.94450224781858
30
0
41
1
10
20.8890032854914
20
-3.9777822630341
30
0
41
1
10
21.8884925151977
20
-3.98187666652461
30
0
41
1
10
22.3886317891534
20
-3.95280651869317
30
0
41
1
10
23.1428872409033
20
-3.86221571279711
30
0
41
1
10
23.3950056335534
20
-3.82416487770141
30
0
41
1
10
23.9017559403045
20
-3.73255751814378
30
0
41
1
10
24.1544384418744
20
-3.6793110186841
30
0
41
1
10
24.9092958333394
20
-3.49859424027144
30
0
41
1
10
25.4090474197284
20
-3.34985440689536
30
2E-16
41
1
10
26.3429812514182
20
-3.02620777973004
30
2E-16
41
1
10
26.7767988475159
20
-2.85699646193456
30
2E-16
41
1
10
27.2122143978683
20
-2.67100605918659
30
2E-16
0
SPLINE
5
C5
100
AcDbEntity
8
1
62
256
6
ByLayer
370
18
48
1
60
0
100
AcDbSpline
70
4
71
3
72
26
73
22
40
0
40
0
40
0
40
0
40
0.0069502343296472
40
0.0069502343296472
40
0.0833386778427492
40
0.0833386778427492
40
0.236115564868954
40
0.236115564868954
40
0.388892451895159
40
0.388892451895159
40
0.465280895408263
40
0.465280895408263
40
0.541669338921367
40
0.541669338921367
40
0.694446225947577
40
0.694446225947577
40
0.847223112973788
40
0.847223112973788
40
0.923611556486894
40
0.923611556486894
40
1
40
1
40
1
40
1
41
1
10
43.1595294952988
20
3.99350798700732
30
0
41
1
10
43.1824365415314
20
3.99352302410131
30
0
41
1
10
43.2053333722199
20
3.99347224651603
30
0
41
1
10
43.479751071208
20
3.99207472362284
30
0
41
1
10
43.730396466771
20
3.98287042010887
30
0
41
1
10
44.4809776004223
20
3.93194433480588
30
0
41
1
10
44.9798865064881
20
3.86707413937108
30
0
41
1
10
45.97926087499
20
3.67760068581112
30
0
41
1
10
46.4799793491056
20
3.55304679435531
30
0
41
1
10
47.2372792583489
20
3.32375873349886
30
-2E-16
41
1
10
47.4909145046036
20
3.24007335184402
30
-2E-16
41
1
10
47.9947234861789
20
3.06110721596389
30
-2E-16
41
1
10
48.2456559339134
20
2.96561267138358
30
-2E-16
41
1
10
48.9971408667489
20
2.66328920861315
30
-2E-16
41
1
10
49.4959651925779
20
2.44014679875477
30
-1E-16
41
1
10
50.4945453570426
20
1.95803919156748
30
-1E-16
41
1
10
50.9947940064048
20
1.69981596847666
30
-1E-16
41
1
10
51.7503372831538
20
1.29197398003828
30
-1E-16
41
1
10
52.0038089702073
20
1.1521385650064
30
-1E-16
41
1
10
52.508538425821
20
0.869621291721472
30
-1E-16
41
1
10
52.7599796855653
20
0.727090982630955
30
0
41
1
10
53.010761617779
20
0.583750805787417
30
0
0
SPLINE
5
C6
100
AcDbEntity
8
1
62
256
6
ByLayer
370
18
48
1
60
0
100
AcDbSpline
70
4
71
3
72
10
73
6
40
0
40
0
40
0
40
0
40
0.5
40
0.5
40
1
40
1
40
1
40
1
41
1
10
3.5536828974241
20
-1.79715165199386
30
1E-16
41
1
10
3.53561794692575
20
-1.79405814420113
30
1E-16
41
1
10
3.52274118077852
20
-1.7896372316049
30
1E-16
41
1
10
3.50585980769193
20
-1.77996633328166
30
1E-16
41
1
10
3.50171223732227
20
-1.77455123869882
30
1E-16
41
1
10
3.50171223732227
20
-1.76917531260244
30
1E-16
0
SPLINE
5
C7
100
AcDbEntity
8
1
62
256
6
ByLayer
370
18
48
1
60
0
100
AcDbSpline
70
4
71
3
72
62
73
58
40
0
40
0
40
0
40
0
40
0.0023863874703018
40
0.0023863874703018
40
0.0346350923631358
40
0.0346350923631358
40
0.0507594448095526
40
0.0507594448095526
40
0.0668837972559695
40
0.0668837972559695
40
0.0991325021488028
40
0.0991325021488028
40
0.131381207041636
40
0.131381207041636
40
0.163629911934469
40
0.163629911934469
40
0.195878616827302
40
0.195878616827302
40
0.228127321720136
40
0.228127321720136
40
0.260376026612969
40
0.260376026612969
40
0.292624731505802
40
0.292624731505802
40
0.324873436398635
40
0.324873436398635
40
0.357122141291469
40
0.357122141291469
40
0.389370846184302
40
0.389370846184302
40
0.421619551077135
40
0.421619551077135
40
0.453868255969968
40
0.453868255969968
40
0.486116960862801
40
0.486116960862801
40
0.550614370648468
40
0.550614370648468
40
0.615111780434134
40
0.615111780434134
40
0.63123613288055
40
0.63123613288055
40
0.647360485326966
40
0.647360485326966
40
0.679609190219798
40
0.679609190219798
40
0.744106600005461
40
0.744106600005461
40
0.808604009791125
40
0.808604009791125
40
0.840852714683957
40
0.840852714683957
40
0.873101419576789
40
0.873101419576789
40
0.937598829362453
40
0.937598829362453
40
1
40
1
40
1
40
1
41
1
10
18.2622930782122
20
3.78592492486376
30
0
41
1
10
18.2813018540197
20
3.78928737176258
30
0
41
1
10
18.3003133218966
20
3.79260827746464
30
0
41
1
10
18.5762777752161
20
3.84020284551448
30
0
41
1
10
18.8336911030631
20
3.87688798497155
30
0
41
1
10
19.2218958613696
20
3.91963987105783
30
0
41
1
10
19.3517812481876
20
3.93188203577966
30
0
41
1
10
19.6107513907487
20
3.9521755046357
30
0
41
1
10
19.7399386751471
20
3.96024371536981
30
0
41
1
10
20.1266567073819
20
3.97824604129812
30
0
41
1
10
20.383303786924
20
3.98193485286833
30
0
41
1
10
20.8963668170268
20
3.9729737758785
30
0
41
1
10
21.1524771649346
20
3.96037412184293
30
0
41
1
10
21.6638717299876
20
3.91896112557757
30
0
41
1
10
21.9190892220961
20
3.89005286006622
30
0
41
1
10
22.4310004487612
20
3.81674955395053
30
0
41
1
10
22.6873306580435
20
3.77227191290109
30
0
41
1
10
23.2007297817096
20
3.66741197405506
30
0
41
1
10
23.4577848045506
20
3.60695181407985
30
0
41
1
10
23.9746586774786
20
3.47121673397359
30
0
41
1
10
24.2346276285495
20
3.39561636369277
30
-2E-16
41
1
10
24.7507087905518
20
3.23114401970079
30
-2E-16
41
1
10
25.0076810905367
20
3.14219877204559
30
-2E-16
41
1
10
25.5208663660901
20
2.95263745548115
30
-2E-16
41
1
10
25.7769698560844
20
2.85192151476096
30
-2E-16
41
1
10
26.2883115178477
20
2.63879646912045
30
-2E-16
41
1
10
26.5437150318708
20
2.52657403909089
30
-2E-16
41
1
10
27.0553228181286
20
2.29266533339012
30
-1E-16
41
1
10
27.3114161942997
20
2.17085031874893
30
-1E-16
41
1
10
27.8242122266392
20
1.91738062443591
30
-1E-16
41
1
10
28.0811476509762
20
1.78605713918105
30
-1E-16
41
1
10
28.5974055927298
20
1.51621864141097
30
-1E-16
41
1
10
28.8572834529589
20
1.37697128008816
30
-1E-16
41
1
10
29.3738144231329
20
1.09409735148358
30
-1E-16
41
1
10
29.63102703876
20
0.950616911889909
30
-1E-16
41
1
10
30.4012114993329
20
0.517062881111883
30
0
41
1
10
30.911666430632
20
0.221998959256354
30
0
41
1
10
31.9345785296349
20
-0.366013150281162
30
0
41
1
10
32.4460898465457
20
-0.660637889430802
30
0
41
1
10
33.090584231496
20
-1.02076641408021
30
1E-16
41
1
10
33.219727185727
20
-1.09240422122315
30
1E-16
41
1
10
33.4785135009042
20
-1.23488343148097
30
1E-16
41
1
10
33.6082355548739
20
-1.30583931457539
30
1E-16
41
1
10
33.9959431598317
20
-1.51595175573371
30
1E-16
41
1
10
34.2534605840051
20
-1.65229764833143
30
1E-16
41
1
10
35.0241616800638
20
-2.04890713225132
30
1E-16
41
1
10
35.5346470472867
20
-2.29801014880232
30
1E-16
41
1
10
36.5572773194586
20
-2.75379025192135
30
2E-16
41
1
10
37.0682802694289
20
-2.96200907209109
30
2E-16
41
1
10
37.8409761811842
20
-3.23588568665517
30
2E-16
41
1
10
38.0999089311217
20
-3.32120519285613
30
2E-16
41
1
10
38.6173040081775
20
-3.47806654063211
30
0
41
1
10
38.8750615055193
20
-3.54879124256124
30
0
41
1
10
39.6462663530314
20
-3.73800179564069
30
0
41
1
10
40.156536515333
20
-3.83408869202657
30
0
41
1
10
41.162651199638
20
-3.95956549286166
30
0
41
1
10
41.6569342177536
20
-3.99168250643387
30
0
41
1
10
42.1545498234288
20
-3.99286203279033
30
0
0
SPLINE
5
C8
100
AcDbEntity
8
1
62
256
6
ByLayer
370
18
48
1
60
0
100
AcDbSpline
70
4
71
3
72
8
73
4
40
0
40
0
40
0
40
0
40
1
40
1
40
1
40
1
41
1
10
3.64540807596475
20
2.83171223564719
30
-2E-16
41
1
10
3.63221635669004
20
2.83645806344237
30
-2E-16
41
1
10
3.61749348534008
20
2.83891020181628
30
-2E-16
41
1
10
3.60242132512039
20
2.83889984509185
30
-2E-16
0
SPLINE
5
C9
100
AcDbEntity
8
1
62
256
6
ByLayer
370
18
48
1
60
0
100
AcDbSpline
70
4
71
3
72
10
73
6
40
0
40
0
40
0
40
0
40
0.5
40
0.5
40
1
40
1
40
1
40
1
41
1
10
3.50171223732232
20
2.92887733703944
30
-2E-16
41
1
10
3.50171223732232
20
2.95269168774155
30
-2E-16
41
1
10
3.52143304133816
20
2.97516075298856
30
-2E-16
41
1
10
3.58227447974596
20
2.99823431398784
30
-2E-16
41
1
10
3.62151591667336
20
2.99825198978573
30
-2E-16
41
1
10
3.65201614132061
20
2.98657491019893
30
-2E-16
0
SPLINE
5
CA
100
AcDbEntity
8
1
62
256
6
ByLayer
370
18
48
1
60
0
100
AcDbSpline
70
4
71
3
72
24
73
20
40
0
40
0
40
0
40
0
40
0.0027166489077718
40
0.0027166489077718
40
0.0723739017718005
40
0.0723739017718005
40
0.351002913227919
40
0.351002913227919
40
0.420660166091948
40
0.420660166091948
40
0.490317418955979
40
0.490317418955979
40
0.559974671820009
40
0.559974671820009
40
0.62963192468404
40
0.62963192468404
40
0.908260936140157
40
0.908260936140157
40
1
40
1
40
1
40
1
41
1
10
21.5430813339178
20
0.183793425409135
30
0
41
1
10
21.5532650940197
20
0.178236506325618
30
0
41
1
10
21.5634501643937
20
0.172678064319172
30
0
41
1
10
21.8348248758242
20
0.0245567936979114
30
0
41
1
10
22.0976632707067
20
-0.11920013146738
30
0
41
1
10
23.408440541229
20
-0.833185698930123
30
1E-16
41
1
10
24.4419806763038
20
-1.38721434097766
30
1E-16
41
1
10
25.7455004593943
20
-2.00547506377595
30
1E-16
41
1
10
26.0067605473705
20
-2.1254036048675
30
1E-16
41
1
10
26.531197933275
20
-2.35645856433993
30
1E-16
41
1
10
26.7939583761452
20
-2.46740586518152
30
2E-16
41
1
10
27.318098662618
20
-2.67773138245224
30
2E-16
41
1
10
27.5799234748322
20
-2.77725526715273
30
2E-16
41
1
10
28.1039536460372
20
-2.96404336138747
30
2E-16
41
1
10
28.3664175791348
20
-3.05149682475701
30
2E-16
41
1
10
29.6786078229563
20
-3.45503174998271
30
0
41
1
10
30.7094581686408
20
-3.66319495887973
30
0
41
1
10
32.0871707439486
20
-3.77394277442937
30
0
41
1
10
32.4289698169546
20
-3.78758729555082
30
0
41
1
10
32.7721954593489
20
-3.78730883500731
30
0
0
SPLINE
5
CB
100
AcDbEntity
8
1
62
256
6
ByLayer
370
18
48
1
60
0
100
AcDbSpline
70
4
71
3
72
30
73
26
40
0
40
0
40
0
40
0
40
0.125
40
0.125
40
0.1875
40
0.1875
40
0.25
40
0.25
40
0.3125
40
0.3125
40
0.375
40
0.375
40
0.4375
40
0.4375
40
0.5
40
0.5
40
0.5625
40
0.5625
40
0.625
40
0.625
40
0.75
40
0.75
40
0.875
40
0.875
40
1
40
1
40
1
40
1
41
1
10
54.9442197357848
20
0.0481533274210335
30
0
41
1
10
54.9248571847747
20
-0.0156877101312887
30
0
41
1
10
54.902595970641
20
-0.0780692002222736
30
0
41
1
10
54.8646924596521
20
-0.169294746836158
30
0
41
1
10
54.8511793747127
20
-0.19954446485923
30
0
41
1
10
54.8232538688872
20
-0.257627752524428
30
0
41
1
10
54.8088346042358
20
-0.285522558074518
30
0
41
1
10
54.7791041603445
20
-0.338947244827153
30
0
41
1
10
54.7637935934315
20
-0.364478678686595
30
0
41
1
10
54.7322347817718
20
-0.412967218319011
30
0
41
1
10
54.7160236820049
20
-0.435814378261995
30
0
41
1
10
54.6839700482355
20
-0.476927458062164
30
0
41
1
10
54.6679653459135
20
-0.495453090665308
30
0
41
1
10
54.6359788700858
20
-0.528358276113607
30
0
41
1
10
54.6198513258257
20
-0.542827970992192
30
0
41
1
10
54.5886331792343
20
-0.566554634641932
30
0
41
1
10
54.5734675322569
20
-0.575929892961284
30
0
41
1
10
54.5439067692829
20
-0.58989911473833
30
0
41
1
10
54.5294040438315
20
-0.594494389507105
30
0
41
1
10
54.4879413896015
20
-0.600942858104361
30
0
41
1
10
54.4626875089767
20
-0.595668426580431
30
0
41
1
10
54.4167777850354
20
-0.568878475974628
30
0
41
1
10
54.3965637047389
20
-0.547794270220976
30
0
41
1
10
54.3599696572032
20
-0.492978032373429
30
0
41
1
10
54.3436449604764
20
-0.459112634822219
30
0
41
1
10
54.3292099967857
20
-0.420580146688849
30
0
0
SPLINE
5
CC
100
AcDbEntity
8
1
62
256
6
ByLayer
370
18
48
1
60
0
100
AcDbSpline
70
4
71
3
72
8
73
4
40
0
40
0
40
0
40
0
40
1
40
1
40
1
40
1
41
1
10
3.55194067162526
20
-1.89352559358906
30
1E-16
41
1
10
3.52127034427218
20
-1.87804887062012
30
1E-16
41
1
10
3.50171223732232
20
-1.84827089947174
30
1E-16
41
1
10
3.50171223732232
20
-1.81683255785458
30
1E-16
0
SPLINE
5
CD
100
AcDbEntity
8
1
62
256
6
ByLayer
370
18
48
1
60
0
100
AcDbSpline
70
2053
71
3
72
52
73
48
40
0
40
0
40
0
40
0
40
0.062499999999997
40
0.062499999999997
40
0.124999999999994
40
0.124999999999994
40
0.187499999999991
40
0.187499999999991
40
0.249999999999988
40
0.249999999999988
40
0.281249999999987
40
0.281249999999987
40
0.312499999999986
40
0.312499999999986
40
0.343749999999985
40
0.343749999999985
40
0.374999999999984
40
0.374999999999984
40
0.406249999999983
40
0.406249999999983
40
0.437499999999982
40
0.437499999999982
40
0.49999999999998
40
0.49999999999998
40
0.562499999999978
40
0.562499999999978
40
0.59374999999998
40
0.59374999999998
40
0.624999999999981
40
0.624999999999981
40
0.656249999999983
40
0.656249999999983
40
0.687499999999985
40
0.687499999999985
40
0.718749999999987
40
0.718749999999987
40
0.749999999999988
40
0.749999999999988
40
0.812499999999991
40
0.812499999999991
40
0.843749999999993
40
0.843749999999993
40
0.874999999999994
40
0.874999999999994
40
0.937499999999997
40
0.937499999999997
40
1
40
1
40
1
40
1
41
1
10
54.1031748203719
20
-1.37455089524504
30
1E-16
41
1
10
54.0756106567378
20
-1.4050346403524
30
1E-16
41
1
10
54.0497834496354
20
-1.42465887993214
30
1E-16
41
1
10
54.00062185721
20
-1.44279113019806
30
1E-16
41
1
10
53.9785482285595
20
-1.4407834874807
30
1E-16
41
1
10
53.9385870533677
20
-1.4138245328804
30
1E-16
41
1
10
53.921676555554
20
-1.38952965434134
30
1E-16
41
1
10
53.8939177338411
20
-1.31790736244076
30
1E-16
41
1
10
53.8837506682826
20
-1.27239277553338
30
1E-16
41
1
10
53.8751579883501
20
-1.18881566895811
30
1E-16
41
1
10
53.8735349538805
20
-1.15928183658542
30
1E-16
41
1
10
53.8729481703694
20
-1.09712970173408
30
1E-16
41
1
10
53.8740178707662
20
-1.06397907390101
30
1E-16
41
1
10
53.8792098065679
20
-0.996506390465385
30
1E-16
41
1
10
53.8832625611761
20
-0.962534168680236
30
1E-16
41
1
10
53.8945781832948
20
-0.894138869804948
30
1E-16
41
1
10
53.9018727432697
20
-0.859884936770271
30
1E-16
41
1
10
53.9190993514314
20
-0.794861768690652
30
0
41
1
10
53.9292610766496
20
-0.763218834245976
30
0
41
1
10
53.9517147869945
20
-0.704680054242743
30
0
41
1
10
53.963962606351
20
-0.677731639719752
30
0
41
1
10
54.0036633591027
20
-0.603372538554936
30
0
41
1
10
54.0330440025445
20
-0.564565710324587
30
0
41
1
10
54.0929882385311
20
-0.508562173362407
30
0
41
1
10
54.1237009912588
20
-0.491224565789793
30
0
41
1
10
54.1675395685261
20
-0.480693445443137
30
0
41
1
10
54.1817941933208
20
-0.479723565943402
30
0
41
1
10
54.2094648126303
20
-0.482862673533162
30
0
41
1
10
54.2228854836772
20
-0.487031923325816
30
0
41
1
10
54.2478457094987
20
-0.500336094002563
30
0
41
1
10
54.2595070430479
20
-0.509466781113105
30
0
41
1
10
54.2809690443603
20
-0.533015281954192
30
0
41
1
10
54.2908488215833
20
-0.547625789253971
30
0
41
1
10
54.307728324583
20
-0.581832855722126
30
0
41
1
10
54.3147938193748
20
-0.601410604837298
30
0
41
1
10
54.3257941446405
20
-0.64613217706821
30
0
41
1
10
54.3296603190507
20
-0.671314372356846
30
0
41
1
10
54.3354149658219
20
-0.752227327048217
30
0
41
1
10
54.3313771990517
20
-0.816269409580229
30
0
41
1
10
54.3138250882322
20
-0.915735426458127
30
-1E-16
41
1
10
54.305988592616
20
-0.950099348917632
30
-1E-16
41
1
10
54.2876245136167
20
-1.01692507626558
30
0
41
1
10
54.2769422496703
20
-1.05009225628183
30
0
41
1
10
54.2418844382699
20
-1.14591592678397
30
0
41
1
10
54.2147720485076
20
-1.20431386985317
30
0
41
1
10
54.1594054375477
20
-1.30301650225184
30
1E-16
41
1
10
54.1307389840059
20
-1.34406715013768
30
1E-16
41
1
10
54.1031748203719
20
-1.37455089524504
30
1E-16
0
SPLINE
5
CE
100
AcDbEntity
8
1
62
256
6
ByLayer
370
18
48
1
60
0
100
AcDbSpline
70
4
71
3
72
8
73
4
40
0
40
0
40
0
40
0
40
1
40
1
40
1
40
1
41
1
10
3.60186871330538
20
-1.81202535183735
30
1E-16
41
1
10
3.58512135536509
20
-1.8048176600407
30
1E-16
41
1
10
3.56871547145721
20
-1.79972588461746
30
1E-16
41
1
10
3.5536828974241
20
-1.79715165199386
30
1E-16
0
SPLINE
5
CF
100
AcDbEntity
8
1
62
256
6
ByLayer
370
18
48
1
60
0
100
AcDbSpline
70
4
71
3
72
18
73
14
40
0
40
0
40
0
40
0
40
0.238056745381784
40
0.238056745381784
40
0.433950602477426
40
0.433950602477426
40
0.631696455480472
40
0.631696455480472
40
0.802689302111037
40
0.802689302111037
40
0.966514424994256
40
0.966514424994256
40
1
40
1
40
1
40
1
41
1
10
53.5744481312134
20
-3.76581259916313
30
0
41
1
10
53.5745332941383
20
-3.76598779654714
30
0
41
1
10
53.5745598861795
20
-3.76635049343767
30
0
41
1
10
53.5744726162188
20
-3.76737542185828
30
0
41
1
10
53.5743809756903
20
-3.76798681439598
30
0
41
1
10
53.5740870806634
20
-3.76946409261322
30
0
41
1
10
53.5738781567051
20
-3.77035782271687
30
0
41
1
10
53.5734051786917
20
-3.77215258147564
30
0
41
1
10
53.5731459932942
20
-3.77306041283521
30
0
41
1
10
53.5726080134792
20
-3.77482399368367
30
0
41
1
10
53.572324130485
20
-3.77570173497884
30
0
41
1
10
53.5719825046149
20
-3.77670626021563
30
0
41
1
10
53.5719238513009
20
-3.77687693994503
30
0
41
1
10
53.5718652031837
20
-3.77704588313233
30
0
0
SPLINE
5
D0
100
AcDbEntity
8
1
62
256
6
ByLayer
370
18
48
1
60
0
100
AcDbSpline
70
4
71
3
72
10
73
6
40
0
40
0
40
0
40
0
40
0.455574070241415
40
0.455574070241415
40
1
40
1
40
1
40
1
41
1
10
53.5777158623824
20
0.903368858716505
30
-1E-16
41
1
10
53.6049348317356
20
0.894307399787124
30
-1E-16
41
1
10
53.6339927806145
20
0.882768889644865
30
-1E-16
41
1
10
53.7004352755341
20
0.852641107545509
30
-1E-16
41
1
10
53.7381310779745
20
0.833413539781077
30
-1E-16
41
1
10
53.776904327737
20
0.81218698521019
30
0
0
SPLINE
5
D1
100
AcDbEntity
8
1
62
256
6
ByLayer
370
18
48
1
60
0
100
AcDbSpline
70
4
71
3
72
24
73
20
40
0
40
0
40
0
40
0
40
0.122611500417038
40
0.122611500417038
40
0.253231009310912
40
0.253231009310912
40
0.383850518204785
40
0.383850518204785
40
0.514470027098658
40
0.514470027098658
40
0.64508953599253
40
0.64508953599253
40
0.775709044886403
40
0.775709044886403
40
0.906328553780276
40
0.906328553780276
40
0.971638308227213
40
0.971638308227213
40
1
40
1
40
1
40
1
41
1
10
8.17851265590483
20
3.8487476014318
30
0
41
1
10
8.14849213803578
20
3.77168490705654
30
0
41
1
10
8.11912926806187
20
3.69317829552068
30
0
41
1
10
8.05593185151096
20
3.5303283577986
30
0
41
1
10
8.02212830506704
20
3.4458326270227
30
0
41
1
10
7.95341806716883
20
3.27779956648016
30
0
41
1
10
7.91840522530626
20
3.19398980256221
30
0
41
1
10
7.84739839476788
20
3.02663311148109
30
0
41
1
10
7.81140339621373
20
2.94308664200347
30
0
41
1
10
7.73866396339625
20
2.77614951134115
30
1E-16
41
1
10
7.7018537581755
20
2.69278873642546
30
1E-16
41
1
10
7.6248683500331
20
2.52742186178935
30
1E-16
41
1
10
7.58508978197034
20
2.44523387716424
30
1E-16
41
1
10
7.50343155649966
20
2.28162925710666
30
1E-16
41
1
10
7.46110354630045
20
2.20030451987299
30
1E-16
41
1
10
7.39536333838421
20
2.08052594347441
30
1E-16
41
1
10
7.3731099051644
20
2.04090016886025
30
1E-16
41
1
10
7.34075778541936
20
1.98447252944766
30
1E-16
41
1
10
7.33090401727083
20
1.96743915229069
30
1E-16
41
1
10
7.32099810041601
20
1.95046183081146
30
1E-16
0
SPLINE
5
D2
100
AcDbEntity
8
1
62
256
6
ByLayer
370
18
48
1
60
0
100
AcDbSpline
70
4
71
3
72
45
73
41
40
0
40
0
40
0
40
0
40
0.0675438834086083
40
0.0675438834086083
40
0.231305871765469
40
0.231305871765469
40
0.313186865943899
40
0.313186865943899
40
0.354127363033114
40
0.354127363033114
40
0.374597611577721
40
0.374597611577721
40
0.384832735850025
40
0.384832735850025
40
0.389950297986177
40
0.389950297986177
40
0.395067860122329
40
0.395067860122329
40
0.395707555389348
40
0.395707555389348
40
0.396027403022857
40
0.396027403022857
40
0.396187326839612
40
0.396187326839612
40
0.396347250656367
40
0.396347250656367
40
0.397626641190405
40
0.40018542225848
40
0.40530298439463
40
0.415538108666931
40
0.436008357211531
40
0.476948854300733
40
0.476948854300733
40
0.558829848479135
40
0.558829848479135
40
0.72259183683594
40
0.72259183683594
40
0.886353825192745
40
0.886353825192745
40
1
40
1
40
1
40
1
41
1
10
8.17247204477837
20
1.55704627164064
30
0
41
1
10
8.43290650357491
20
1.46171982295951
30
0
41
1
10
8.69347424678566
20
1.36844304940473
30
0
41
1
10
9.58552430021197
20
1.05482213565296
30
0
41
1
10
10.2159955156433
20
0.842689544654149
30
-1E-16
41
1
10
11.1616044606015
20
0.541869530163808
30
0
41
1
10
11.4769355396386
20
0.444435654904538
30
0
41
1
10
11.9495155924157
20
0.30231739573324
30
0
41
1
10
12.1069863068258
20
0.25562573813491
30
0
41
1
10
12.3430531776616
20
0.186646505737514
30
0
41
1
10
12.4217309916947
20
0.163827951035927
30
0
41
1
10
12.5396062627039
20
0.129886118753973
30
0
41
1
10
12.5788787021903
20
0.118618608702775
30
0
41
1
10
12.6376588096207
20
0.101814767297356
30
0
41
1
10
12.6572320388365
20
0.0962293781813344
30
0
41
1
10
12.6962498846312
20
0.0851154831104282
30
0
41
1
10
12.7158794383288
20
0.0795336199679753
30
0
41
1
10
12.7371244639604
20
0.0735051201486954
30
0
41
1
10
12.7394739844549
20
0.0728386038930466
30
0
41
1
10
12.7428674817084
20
0.0718766811922364
30
0
41
1
10
12.7440670995774
20
0.0715365485709185
30
0
41
1
10
12.7453564004715
20
0.0711725324131862
30
0
41
1
10
12.744955998286
20
0.0712878523200402
30
0
41
1
10
12.7435374680861
20
0.071692240635258
30
0
41
1
10
12.7428187934884
20
0.0718970236738699
30
0
41
1
10
12.7363875586232
20
0.0737301146919549
30
0
41
1
10
12.7192382331093
20
0.078621084926823
30
0
41
1
10
12.6792275999761
20
0.0900524278113721
30
0
41
1
10
12.5992241954197
20
0.11299136168563
30
0
41
1
10
12.439288768989
20
0.159173744837744
30
0
41
1
10
12.1197110826986
20
0.252750400754479
30
0
41
1
10
11.8462973930889
20
0.33502027554789
30
0
41
1
10
11.3001333020137
20
0.502275684568616
30
0
41
1
10
10.937008141566
20
0.617370328540403
30
0
41
1
10
9.85075499607595
20
0.973038920622173
30
-1E-16
41
1
10
9.13062340472587
20
1.22404644175549
30
-1E-16
41
1
10
7.69766590607534
20
1.75217581148377
30
-1E-16
41
1
10
6.9852482149735
20
2.02915702206474
30
-1E-16
41
1
10
5.78683318889497
20
2.51780549029596
30
-2E-16
41
1
10
5.29807859406756
20
2.7235854486635
30
-2E-16
41
1
10
4.81139369223322
20
2.93465949557003
30
-2E-16
0
SPLINE
5
D3
100
AcDbEntity
8
1
62
256
6
ByLayer
370
18
48
1
60
0
100
AcDbSpline
70
4
71
3
72
38
73
34
40
0
40
0
40
0
40
0
40
0.497246074942878
40
0.497246074942878
40
0.665962012812968
40
0.665962012812968
40
0.778133527733981
40
0.778133527733981
40
0.852707824751044
40
0.852707824751044
40
0.902268503031113
40
0.902268503031113
40
0.935210060723252
40
0.935210060723252
40
0.957122943782273
40
0.957122943782273
40
0.971757970619967
40
0.971757970619967
40
0.98153992164455
40
0.98153992164455
40
0.987971970725702
40
0.987971970725702
40
0.992178112281752
40
0.992178112281752
40
0.994975296693268
40
0.994975296693268
40
0.996850730373943
40
0.996850730373943
40
0.998678140352699
40
0.998678140352699
40
0.999546375203492
40
0.999546375203492
40
1
40
1
40
1
40
1
41
1
10
53.3624241813824
20
3.99896408571084
30
0
41
1
10
53.4023738644316
20
3.97300210983838
30
0
41
1
10
53.4424248390386
20
3.94672475474732
30
0
41
1
10
53.4961158273046
20
3.9111847822688
30
0
41
1
10
53.5097226167018
20
3.90215097970074
30
0
41
1
10
53.5323782296932
20
3.88706505966252
30
0
41
1
10
53.5414257110551
20
3.88102874001629
30
0
41
1
10
53.5564899647268
20
3.87095850213368
30
0
41
1
10
53.5625075700124
20
3.8669305550134
30
0
41
1
10
53.5725401477467
20
3.86020630081131
30
0
41
1
10
53.5765498531189
20
3.85751648997186
30
0
41
1
10
53.5832350220215
20
3.85302808946955
30
0
41
1
10
53.5859083195893
20
3.85123222288408
30
0
41
1
10
53.59036030555
20
3.8482398661391
30
0
41
1
10
53.5921374526411
20
3.84704496541113
30
0
41
1
10
53.5950852468677
20
3.84506231786287
30
0
41
1
10
53.5962594884371
20
3.84427237389778
30
0
41
1
10
53.5982123261946
20
3.84295831607642
30
0
41
1
10
53.5989962778335
20
3.84243069372732
30
0
41
1
10
53.6003131791893
20
3.84154417786192
30
0
41
1
10
53.6008401272076
20
3.84118939448126
30
0
41
1
10
53.6017198467847
20
3.84059702311544
30
0
41
1
10
53.6020707145431
20
3.84036074078421
30
0
41
1
10
53.6026514056261
20
3.83996967773058
30
0
41
1
10
53.6028825287609
20
3.83981402585488
30
0
41
1
10
53.6032613480053
20
3.83955890830234
30
0
41
1
10
53.6034117425519
20
3.83945762474286
30
0
41
1
10
53.603697572858
20
3.83926513779946
30
0
41
1
10
53.6038362543566
20
3.83917174845774
30
0
41
1
10
53.6040091479588
20
3.83905533781896
30
0
41
1
10
53.6040599760601
20
3.83902111822613
30
0
41
1
10
53.6041168877572
20
3.83898281590064
30
0
41
1
10
53.6041329749802
20
3.83897199174817
30
0
41
1
10
53.6041449134869
20
3.83896396260664
30
0
0
SPLINE
5
D4
100
AcDbEntity
8
1
62
256
6
ByLayer
370
18
48
1
60
0
100
AcDbSpline
70
4
71
3
72
14
73
10
40
0
40
0
40
0
40
0
40
0.263153979995769
40
0.263153979995769
40
0.496597847102613
40
0.496597847102613
40
0.777922175893506
40
0.777922175893506
40
1
40
1
40
1
40
1
41
1
10
53.1106974572216
20
-0.0329106902042042
30
0
41
1
10
53.1114374103202
20
-0.0333041536917733
30
0
41
1
10
53.1121565422045
20
-0.0340635886518612
30
0
41
1
10
53.1133635719011
20
-0.0359053772380662
30
0
41
1
10
53.1138847685625
20
-0.0369661093551485
30
0
41
1
10
53.1148704654792
20
-0.039559297386063
30
0
41
1
10
53.1153173391753
20
-0.0411835199180359
30
0
41
1
10
53.1158700945387
20
-0.044254068998498
30
0
41
1
10
53.1160332009195
20
-0.0457010531395952
30
0
41
1
10
53.1160820701572
20
-0.0471413655404547
30
0
0
SPLINE
5
D5
100
AcDbEntity
8
1
62
256
6
ByLayer
370
18
48
1
60
0
100
AcDbSpline
70
4
71
3
72
8
73
4
40
0
40
0
40
0
40
0
40
1
40
1
40
1
40
1
41
1
10
53.347506458322
20
-3.94609730241402
30
0
41
1
10
53.3528356512626
20
-3.97705582469641
30
0
41
1
10
53.3577827911816
20
-3.99489477854723
30
0
41
1
10
53.3624241813683
20
-3.9989640857205
30
0
0
SPLINE
5
D6
100
AcDbEntity
8
1
62
256
6
ByLayer
370
18
48
1
60
0
100
AcDbSpline
70
4
71
3
72
8
73
4
40
0
40
0
40
0
40
0
40
1
40
1
40
1
40
1
41
1
10
3.65018685943073
20
2.84498236607604
30
-2E-16
41
1
10
3.63553418876509
20
2.85027390367827
30
-2E-16
41
1
10
3.6191732315863
20
2.85301725057326
30
-2E-16
41
1
10
3.60242132512039
20
2.85301494561986
30
-2E-16
0
SPLINE
5
D7
100
AcDbEntity
8
1
62
256
6
ByLayer
370
18
48
1
60
0
100
AcDbSpline
70
4
71
3
72
8
73
4
40
0
40
0
40
0
40
0
40
1
40
1
40
1
40
1
41
1
10
3.5536828974241
20
-1.80902847904036
30
1E-16
41
1
10
3.55309241525757
20
-1.83720286449761
30
1E-16
41
1
10
3.5525117019134
20
-1.86536836058892
30
1E-16
41
1
10
3.55194067162526
20
-1.89352559358903
30
1E-16
0
SPLINE
5
D8
100
AcDbEntity
8
1
62
256
6
ByLayer
370
18
48
1
60
0
100
AcDbSpline
70
4
71
3
72
8
73
4
40
0
40
0
40
0
40
0
40
1
40
1
40
1
40
1
41
1
10
53.3475064583249
20
-3.94609730241064
30
0
41
1
10
53.4162289054614
20
-3.90760937517334
30
0
41
1
10
53.4851452124583
20
-3.86820441987445
30
0
41
1
10
53.5542875436064
20
-3.82790399198842
30
0
0
SPLINE
5
D9
100
AcDbEntity
8
1
62
256
6
ByLayer
370
18
48
1
60
0
100
AcDbSpline
70
4
71
3
72
38
73
34
40
0
40
0
40
0
40
0
40
0.497246074934428
40
0.497246074934428
40
0.665962012806926
40
0.665962012806926
40
0.77813352772867
40
0.77813352772867
40
0.85270782474666
40
0.85270782474666
40
0.902268503027502
40
0.902268503027502
40
0.935210060719943
40
0.935210060719943
40
0.95712294377938
40
0.95712294377938
40
0.971757970617241
40
0.971757970617241
40
0.981539921641971
40
0.981539921641971
40
0.987971970723139
40
0.987971970723139
40
0.992178112279146
40
0.992178112279146
40
0.994975296690706
40
0.994975296690706
40
0.996850730371271
40
0.996850730371271
40
0.998678140349946
40
0.998678140349946
40
0.999546375200752
40
0.999546375200752
40
1
40
1
40
1
40
1
41
1
10
53.3624241813859
20
-3.99896408570859
30
0
41
1
10
53.4023738644339
20
-3.97300210983687
30
0
41
1
10
53.4424248390398
20
-3.94672475474658
30
0
41
1
10
53.4961158273046
20
-3.91118478226878
30
0
41
1
10
53.5097226167018
20
-3.90215097970068
30
0
41
1
10
53.5323782296932
20
-3.88706505966249
30
0
41
1
10
53.5414257110551
20
-3.88102874001629
30
0
41
1
10
53.5564899647267
20
-3.87095850213368
30
0
41
1
10
53.5625075700123
20
-3.86693055501345
30
0
41
1
10
53.5725401477467
20
-3.86020630081134
30
0
41
1
10
53.5765498531189
20
-3.85751648997186
30
0
41
1
10
53.5832350220215
20
-3.85302808946958
30
0
41
1
10
53.5859083195893
20
-3.85123222288408
30
0
41
1
10
53.59036030555
20
-3.8482398661391
30
0
41
1
10
53.5921374526411
20
-3.84704496541113
30
0
41
1
10
53.5950852468677
20
-3.84506231786287
30
0
41
1
10
53.5962594884371
20
-3.84427237389778
30
0
41
1
10
53.5982123261946
20
-3.84295831607642
30
0
41
1
10
53.5989962778335
20
-3.84243069372732
30
0
41
1
10
53.6003131791893
20
-3.84154417786192
30
0
41
1
10
53.6008401272076
20
-3.84118939448123
30
0
41
1
10
53.6017198467847
20
-3.84059702311544
30
0
41
1
10
53.602070714543
20
-3.84036074078421
30
0
41
1
10
53.602651405626
20
-3.83996967773055
30
0
41
1
10
53.6028825287609
20
-3.83981402585488
30
0
41
1
10
53.6032613480052
20
-3.83955890830237
30
0
41
1
10
53.6034117425518
20
-3.83945762474284
30
0
41
1
10
53.6036975728579
20
-3.83926513779949
30
0
41
1
10
53.6038362543565
20
-3.83917174845777
30
0
41
1
10
53.6040091479587
20
-3.83905533781902
30
0
41
1
10
53.6040599760601
20
-3.83902111822616
30
0
41
1
10
53.6041168877573
20
-3.83898281590058
30
0
41
1
10
53.6041329749803
20
-3.83897199174805
30
0
41
1
10
53.6041449134871
20
-3.8389639626065
30
0
0
SPLINE
5
DA
100
AcDbEntity
8
1
62
256
6
ByLayer
370
18
48
1
60
0
100
AcDbSpline
70
4
71
3
72
26
73
22
40
0
40
0
40
0
40
0
40
0.182898840337642
40
0.182898840337642
40
0.365797680675284
40
0.365797680675284
40
0.457247100844107
40
0.457247100844107
40
0.54869652101293
40
0.54869652101293
40
0.640145941181753
40
0.640145941181753
40
0.731595361350575
40
0.731595361350575
40
0.823044781519398
40
0.823044781519398
40
0.868769491603811
40
0.868769491603811
40
0.914494201688224
40
0.914494201688224
40
1
40
1
40
1
40
1
41
1
10
4.81139618039336
20
2.93466102729349
30
-2E-16
41
1
10
4.58973800270496
20
3.02013885997664
30
-2E-16
41
1
10
4.37195005452844
20
3.10423876169637
30
-2E-16
41
1
10
3.94583005939205
20
3.26850400830511
30
-2E-16
41
1
10
3.73746344005772
20
3.34868702548195
30
-2E-16
41
1
10
3.43423977797246
20
3.46463908045763
30
0
41
1
10
3.33473195006042
20
3.50256299252033
30
0
41
1
10
3.13948763135167
20
3.57659306361464
30
0
41
1
10
3.04349681413589
20
3.61279502860091
30
0
41
1
10
2.85739669098234
20
3.6824242274584
30
0
41
1
10
2.7677135122004
20
3.71569340029848
30
0
41
1
10
2.59669543267469
20
3.77834960568367
30
0
41
1
10
2.5149849094592
20
3.80787077633323
30
0
41
1
10
2.36421468661115
20
3.86119792006744
30
0
41
1
10
2.29552932800453
20
3.88487642688563
30
0
41
1
10
2.20523737956299
20
3.91473730529751
30
0
41
1
10
2.17727518654951
20
3.92374305118977
30
0
41
1
10
2.12628678911105
20
3.93957211034572
30
0
41
1
10
2.10316056099074
20
3.9464204189625
30
0
41
1
10
2.04626922355374
20
3.96210686985793
30
0
41
1
10
2.02036337782707
20
3.96762971174024
30
0
41
1
10
2.00741037872936
20
3.96778499916863
30
0
0
SPLINE
5
DB
100
AcDbEntity
8
1
62
256
6
ByLayer
370
18
48
1
60
0
100
AcDbSpline
70
4
71
3
72
16
73
12
40
0
40
0
40
0
40
0
40
0.080586689603718
40
0.080586689603718
40
0.264469351682975
40
0.264469351682975
40
0.448352013762233
40
0.448352013762233
40
0.63223467584149
40
0.63223467584149
40
1
40
1
40
1
40
1
41
1
10
4.39310500362672
20
3.09836723324594
30
-2E-16
41
1
10
4.50037186401741
20
3.1182455098203
30
-2E-16
41
1
10
4.60724446488609
20
3.13866153797664
30
-2E-16
41
1
10
4.95652898414528
20
3.2070699095695
30
-2E-16
41
1
10
5.19688400188565
20
3.25684078019225
30
-2E-16
41
1
10
5.67302056481512
20
3.35807766799127
30
-2E-16
41
1
10
5.90907984695937
20
3.40958771213704
30
-2E-16
41
1
10
6.37521165089001
20
3.51071255409269
30
0
41
1
10
6.60544671812929
20
3.56034411695066
30
0
41
1
10
7.2892718966865
20
3.70172223250944
30
0
41
1
10
7.73591248264586
20
3.78574982694406
30
0
41
1
10
8.17850707310569
20
3.84874677819522
30
0
0
SPLINE
5
DC
100
AcDbEntity
8
1
62
256
6
ByLayer
370
18
48
1
60
0
100
AcDbSpline
70
4
71
3
72
20
73
16
40
0
40
0
40
0
40
0
40
0.0624999999999995
40
0.0624999999999995
40
0.124999999999999
40
0.124999999999999
40
0.249999999999998
40
0.249999999999998
40
0.374999999999997
40
0.374999999999997
40
0.499999999999995
40
0.499999999999995
40
0.749999999999998
40
0.749999999999998
40
1
40
1
40
1
40
1
41
1
10
54.6481376474972
20
-1.23607755394369
30
0
41
1
10
54.6207239184317
20
-1.28124137255625
30
0
41
1
10
54.5935087082233
20
-1.3281461259794
30
0
41
1
10
54.5404459401346
20
-1.42380050839648
30
0
41
1
10
54.5146250129419
20
-1.472479079377
30
0
41
1
10
54.4391317250448
20
-1.62102569093545
30
0
41
1
10
54.3914350482964
20
-1.72340497298666
30
0
41
1
10
54.3002738322168
20
-1.93457539338812
30
0
41
1
10
54.2567881098432
20
-2.04363604314725
30
0
41
1
10
54.1728715131219
20
-2.26667278131791
30
0
41
1
10
54.1313809293771
20
-2.37841034274166
30
0
41
1
10
54.0081618336124
20
-2.71426367877402
30
0
41
1
10
53.9278105843586
20
-2.93884212428543
30
0
41
1
10
53.7689218664631
20
-3.38760448434448
30
0
41
1
10
53.6902973794884
20
-3.61190168936523
30
0
41
1
10
53.6113168921574
20
-3.83413156135947
30
0
0
SPLINE
5
DD
100
AcDbEntity
8
1
62
256
6
ByLayer
370
18
48
1
60
0
100
AcDbSpline
70
4
71
3
72
8
73
4
40
0
40
0
40
0
40
0
40
1
40
1
40
1
40
1
41
1
10
18
20
1.55284126190259
30
-1E-16
41
1
10
18
20
1.55011174023264
30
-1E-16
41
1
10
18
20
1.54650804583508
30
-1E-16
41
1
10
18
20
1.54204669751215
30
-1E-16
0
SPLINE
5
DE
100
AcDbEntity
8
1
62
256
6
ByLayer
370
18
48
1
60
0
100
AcDbSpline
70
4
71
3
72
50
73
46
40
0
40
0
40
0
40
0
40
0.0920515273367744
40
0.0920515273367744
40
0.138077291005162
40
0.138077291005162
40
0.18410305467355
40
0.18410305467355
40
0.230128818341937
40
0.230128818341937
40
0.276154582010325
40
0.276154582010325
40
0.322180345678713
40
0.322180345678713
40
0.3682061093471
40
0.3682061093471
40
0.414231873015488
40
0.414231873015488
40
0.460257636683876
40
0.460257636683876
40
0.506283400352263
40
0.506283400352263
40
0.552309164020651
40
0.552309164020651
40
0.598334927689039
40
0.598334927689039
40
0.644360691357427
40
0.644360691357427
40
0.690386455025814
40
0.690386455025814
40
0.736412218694202
40
0.736412218694202
40
0.78243798236259
40
0.78243798236259
40
0.828463746030977
40
0.828463746030977
40
0.874489509699365
40
0.874489509699365
40
0.920515273367753
40
0.920515273367753
40
0.943528155201947
40
0.943528155201947
40
0.966541037036141
40
0.966541037036141
40
1
40
1
40
1
40
1
41
1
10
3.65201614132061
20
2.98657491019895
30
-2E-16
41
1
10
4.16874211316889
20
2.78874521000427
30
-2E-16
41
1
10
4.68556503243477
20
2.56836034347256
30
-2E-16
41
1
10
5.46345084866797
20
2.20866872431708
30
-1E-16
41
1
10
5.72357830813669
20
2.08363890147561
30
-1E-16
41
1
10
6.24092917963796
20
1.82610801552895
30
-1E-16
41
1
10
6.4983856493802
20
1.69316021381908
30
-1E-16
41
1
10
7.01239757331012
20
1.42140991546788
30
-1E-16
41
1
10
7.26921389287898
20
1.28305063283935
30
-1E-16
41
1
10
7.78240748306061
20
1.00132084521138
30
-1E-16
41
1
10
8.03874218238556
20
0.85786575449211
30
-1E-16
41
1
10
8.55225396685321
20
0.568114567504665
30
0
41
1
10
8.80948675795321
20
0.421926701979174
30
0
41
1
10
9.32502935750838
20
0.12710283689924
30
0
41
1
10
9.58328000020308
20
-0.0216691764395023
30
0
41
1
10
10.1021532845288
20
-0.319349719781428
30
0
41
1
10
10.3605648236119
20
-0.466801387061338
30
0
41
1
10
10.8755759100157
20
-0.758658836922535
30
0
41
1
10
11.1321009382792
20
-0.903184139413952
30
1E-16
41
1
10
11.6445188279952
20
-1.18715373626188
30
1E-16
41
1
10
11.9004872767426
20
-1.32648123704834
30
1E-16
41
1
10
12.412170219696
20
-1.59948495560036
30
1E-16
41
1
10
12.6678090760417
20
-1.73327294388557
30
1E-16
41
1
10
13.1799795113828
20
-1.99328206540989
30
1E-16
41
1
10
13.4365861314415
20
-2.1193976867541
30
1E-16
41
1
10
13.9511106226289
20
-2.36337394396523
30
1E-16
41
1
10
14.2089557667768
20
-2.48133067399004
30
2E-16
41
1
10
14.7271331098156
20
-2.70708932281948
30
2E-16
41
1
10
14.9863264739553
20
-2.81424435711304
30
2E-16
41
1
10
15.5016088766429
20
-3.0157484422397
30
2E-16
41
1
10
15.7581721903701
20
-3.11035329465653
30
2E-16
41
1
10
16.2709166348102
20
-3.28548162160794
30
2E-16
41
1
10
16.5269605273145
20
-3.36620045077544
30
2E-16
41
1
10
17.0384615977183
20
-3.51393177884731
30
0
41
1
10
17.2938767944452
20
-3.58092940779611
30
0
41
1
10
17.8059234861285
20
-3.69966030004915
30
0
41
1
10
18.0623772420398
20
-3.75157232226087
30
0
41
1
10
18.5762777752161
20
-3.84020284551451
30
0
41
1
10
18.8336911030631
20
-3.87688798497155
30
0
41
1
10
19.2218958613696
20
-3.91963987105783
30
0
41
1
10
19.3517812481876
20
-3.93188203577966
30
0
41
1
10
19.6107513907487
20
-3.9521755046357
30
0
41
1
10
19.7399386751471
20
-3.96024371536981
30
0
41
1
10
20.0562641264648
20
-3.974969157163
30
0
41
1
10
20.24306792647
20
-3.97930076406431
30
0
41
1
10
20.4296592354298
20
-3.97929439852064
30
0
0
SPLINE
5
DF
100
AcDbEntity
8
1
62
256
6
ByLayer
370
18
48
1
60
0
100
AcDbSpline
70
4
71
3
72
30
73
26
40
0
40
0
40
0
40
0
40
0.0487552015012923
40
0.0487552015012923
40
0.167660801313629
40
0.167660801313629
40
0.227113601219797
40
0.227113601219797
40
0.286566401125965
40
0.286566401125965
40
0.405472000938302
40
0.405472000938302
40
0.524377600750639
40
0.524377600750639
40
0.583830400656808
40
0.583830400656808
40
0.643283200562978
40
0.643283200562978
40
0.762188800375319
40
0.762188800375319
40
0.82164160028149
40
0.82164160028149
40
0.881094400187661
40
0.881094400187661
40
1
40
1
40
1
40
1
41
1
10
40.0390828587065
20
3.80327230188595
30
0
41
1
10
40.2487335131613
20
3.84013142472691
30
0
41
1
10
40.4582264568124
20
3.87171371558648
30
0
41
1
10
41.1792712199858
20
3.96163824561597
30
0
41
1
10
41.6901425391364
20
3.9938069303609
30
0
41
1
10
42.4619942884828
20
3.99241070769361
30
0
41
1
10
42.7199733325603
20
3.98370763902739
30
0
41
1
10
43.2376066102075
20
3.94924436005664
30
0
41
1
10
43.4953860317683
20
3.92373029264758
30
0
41
1
10
44.2670191763495
20
3.82368038491685
30
0
41
1
10
44.7787721626175
20
3.72563736796508
30
0
41
1
10
45.8005995360682
20
3.46987028438647
30
-2E-16
41
1
10
46.3108067137102
20
3.31194174314305
30
-2E-16
41
1
10
47.0817308928853
20
3.03559126960138
30
-2E-16
41
1
10
47.3394795958686
20
2.93675717887859
30
-2E-16
41
1
10
47.8573088718498
20
2.72627460961894
30
-2E-16
41
1
10
48.116312590121
20
2.615083989873
30
-2E-16
41
1
10
48.8914379547107
20
2.26635060312125
30
-1E-16
41
1
10
49.4069559188047
20
2.01303517757125
30
-1E-16
41
1
10
50.1838385807869
20
1.60959511417897
30
-1E-16
41
1
10
50.4423817883644
20
1.4716156922108
30
-1E-16
41
1
10
50.9577832980835
20
1.19108191505296
30
-1E-16
41
1
10
51.2149295443892
20
1.04841288703741
30
-1E-16
41
1
10
51.9857497985214
20
0.615009744897264
30
0
41
1
10
52.4986341475015
20
0.318571853816621
30
0
41
1
10
53.0142347184435
20
0.0210572592332596
30
0
0
SPLINE
5
E0
100
AcDbEntity
8
1
62
256
6
ByLayer
370
18
48
1
60
0
100
AcDbSpline
70
4
71
3
72
12
73
8
40
0
40
0
40
0
40
0
40
0.250000000000014
40
0.250000000000014
40
0.500000000000028
40
0.500000000000028
40
1
40
1
40
1
40
1
41
1
10
3.60242132512039
20
2.85301494561986
30
-2E-16
41
1
10
3.58678312023992
20
2.85301279390453
30
-2E-16
41
1
10
3.5716016140957
20
2.85308596833815
30
-2E-16
41
1
10
3.54554776451638
20
2.85330795586552
30
-2E-16
41
1
10
3.53478869640483
20
2.85345066784961
30
-2E-16
41
1
10
3.50944994775301
20
2.85385453722557
30
-2E-16
41
1
10
3.5017122373223
20
2.85407295110076
30
-2E-16
41
1
10
3.50171223732232
20
2.85416117377932
30
-2E-16
0
SPLINE
5
E1
100
AcDbEntity
8
1
62
256
6
ByLayer
370
18
48
1
60
0
100
AcDbSpline
70
4
71
3
72
18
73
14
40
0
40
0
40
0
40
0
40
0.21126014130165
40
0.21126014130165
40
0.422520282603301
40
0.422520282603301
40
0.528150353254125
40
0.528150353254125
40
0.633780423904949
40
0.633780423904949
40
0.845040565206595
40
0.845040565206595
40
1
40
1
40
1
40
1
41
1
10
3.60186871330535
20
-1.81202535183735
30
1E-16
41
1
10
4.12720584681745
20
-2.06319164158094
30
1E-16
41
1
10
4.64904679753147
20
-2.29647373326799
30
1E-16
41
1
10
5.69135755414266
20
-2.72040409820707
30
2E-16
41
1
10
6.21183520682604
20
-2.91115829082776
30
2E-16
41
1
10
6.99646016618263
20
-3.15868877322191
30
2E-16
41
1
10
7.25911984873753
20
-3.23498477754927
30
0
41
1
10
7.7841188885576
20
-3.3731908443456
30
0
41
1
10
8.04548994068745
20
-3.43485597781756
30
0
41
1
10
8.82734086684005
20
-3.59717076719736
30
0
41
1
10
9.34556770533717
20
-3.6751217890627
30
0
41
1
10
10.2439374958323
20
-3.75601076639748
30
0
41
1
10
10.624060293313
20
-3.77339769778178
30
0
41
1
10
11.0053488800532
20
-3.77361912457121
30
0
0
SPLINE
5
E2
100
AcDbEntity
8
1
62
256
6
ByLayer
370
18
48
1
60
0
100
AcDbSpline
70
4
71
3
72
24
73
20
40
0
40
0
40
0
40
0
40
0.0200668453741459
40
0.0200668453741459
40
0.095446318806904
40
0.095446318806904
40
0.396964212537938
40
0.396964212537938
40
0.472343685970694
40
0.472343685970694
40
0.54772315940345
40
0.54772315940345
40
0.698482106268967
40
0.698482106268967
40
0.849241053134484
40
0.849241053134484
40
0.924620526567242
40
0.924620526567242
40
1
40
1
40
1
40
1
41
1
10
43.2428260749674
20
0.21196940489088
30
0
41
1
10
43.3125874202374
20
0.17382338308775
30
0
41
1
10
43.3823841016088
20
0.135630178264705
30
0
41
1
10
43.7144285474755
20
-0.0461126353891643
30
0
41
1
10
43.9754100776473
20
-0.189148296297731
30
0
41
1
10
45.2756856236956
20
-0.898812406822913
30
1E-16
41
1
10
46.3014463070155
20
-1.44822502475441
30
1E-16
41
1
10
47.5956615990833
20
-2.05911853466387
30
1E-16
41
1
10
47.8551013235927
20
-2.17752995988172
30
1E-16
41
1
10
48.3759716625214
20
-2.40547107822485
30
1E-16
41
1
10
48.6378833872581
20
-2.51520765828295
30
2E-16
41
1
10
49.4243359344859
20
-2.827828732255
30
2E-16
41
1
10
49.9439330940084
20
-3.01190944812328
30
2E-16
41
1
10
50.9799836485144
20
-3.325825583425
30
0
41
1
10
51.4963680568748
20
-3.45569172792978
30
0
41
1
10
52.2730943443342
20
-3.60627769407597
30
0
41
1
10
52.5323561760038
20
-3.64908334785019
30
0
41
1
10
53.0522244059725
20
-3.71915493339043
30
0
41
1
10
53.3128644668633
20
-3.74590358847641
30
0
41
1
10
53.5744481312168
20
-3.76581259916341
30
0
0
SPLINE
5
E3
100
AcDbEntity
8
1
62
256
6
ByLayer
370
18
48
1
60
0
100
AcDbSpline
70
4
71
3
72
28
73
24
40
0
40
0
40
0
40
0
40
0.125
40
0.125
40
0.1875
40
0.1875
40
0.25
40
0.25
40
0.375
40
0.375
40
0.4375
40
0.4375
40
0.5
40
0.5
40
0.625
40
0.625
40
0.6875
40
0.6875
40
0.75
40
0.75
40
0.875
40
0.875
40
1
40
1
40
1
40
1
41
1
10
53.1160820701572
20
-0.0471413655403978
30
0
41
1
10
53.1238310344644
20
-0.275524902756047
30
0
41
1
10
53.1411888373796
20
-0.499415233163433
30
0
41
1
10
53.1748742589536
20
-0.82942838763276
30
1E-16
41
1
10
53.1874035961256
20
-0.938453761286411
30
1E-16
41
1
10
53.2141756200269
20
-1.15460675219015
30
1E-16
41
1
10
53.228491878191
20
-1.26224700827115
30
1E-16
41
1
10
53.2722311829758
20
-1.57802063423426
30
1E-16
41
1
10
53.3022662399126
20
-1.77867094072244
30
1E-16
41
1
10
53.3449328824989
20
-2.06563457004157
30
1E-16
41
1
10
53.3587766826125
20
-2.15893585528451
30
1E-16
41
1
10
53.3852931781676
20
-2.3407528337911
30
1E-16
41
1
10
53.3979891062647
20
-2.42946333993493
30
1E-16
41
1
10
53.4332171737769
20
-2.68313873079563
30
2E-16
41
1
10
53.4530847870222
20
-2.83750329164391
30
2E-16
41
1
10
53.4778277647149
20
-3.04709920659138
30
2E-16
41
1
10
53.485249328635
20
-3.11328366952057
30
2E-16
41
1
10
53.4987224249478
20
-3.23804481723221
30
0
41
1
10
53.5047520955291
20
-3.29642771631623
30
0
41
1
10
53.5211803614643
20
-3.45659639825578
30
0
41
1
10
53.5299973885481
20
-3.54478958067071
30
0
41
1
10
53.5491653473151
20
-3.68412618769588
30
0
41
1
10
53.5595950813359
20
-3.73525686748303
30
0
41
1
10
53.5744481312135
20
-3.76581259916335
30
0
0
SPLINE
5
E4
100
AcDbEntity
8
1
62
256
6
ByLayer
370
18
48
1
60
0
100
AcDbSpline
70
4
71
3
72
14
73
10
40
0
40
0
40
0
40
0
40
0.437253949421875
40
0.437253949421875
40
0.655880924132813
40
0.655880924132813
40
0.87450789884375
40
0.87450789884375
40
1
40
1
40
1
40
1
41
1
10
53.6041449134869
20
3.83896396260641
30
0
41
1
10
52.8629542295201
20
3.84571326972107
30
0
41
1
10
52.1183930956124
20
3.78524134750509
30
0
41
1
10
51.0053537562828
20
3.6007138304455
30
0
41
1
10
50.6350372941232
20
3.52372231458159
30
0
41
1
10
49.8937147835355
20
3.33963401946963
30
0
41
1
10
49.5219727818303
20
3.23209475151992
30
-2E-16
41
1
10
48.9380487000239
20
3.041931883536
30
-2E-16
41
1
10
48.7253440060918
20
2.96824239126434
30
-2E-16
41
1
10
48.5126664725338
20
2.89050444417509
30
-2E-16
0
SPLINE
5
E5
100
AcDbEntity
8
1
62
256
6
ByLayer
370
18
48
1
60
0
100
AcDbSpline
70
4
71
3
72
14
73
10
40
0
40
0
40
0
40
0
40
0.0429055646180517
40
0.0429055646180517
40
0.361937043078701
40
0.361937043078701
40
0.680968521539351
40
0.680968521539351
40
1
40
1
40
1
40
1
41
1
10
21.4919913283
20
-0.349268212743397
30
0
41
1
10
21.4420280609896
20
-0.321679150173111
30
0
41
1
10
21.3920676390051
20
-0.294065089450925
30
0
41
1
10
20.9706670157643
20
-0.0609766035200039
30
0
41
1
10
20.598958640226
20
0.145806010561813
30
0
41
1
10
19.8556676569615
20
0.556372174062233
30
0
41
1
10
19.4846670979756
20
0.759706285191442
30
0
41
1
10
18.7428733890833
20
1.15801425077143
30
-1E-16
41
1
10
18.3715901109204
20
1.35331513817991
30
-1E-16
41
1
10
17.9999999999826
20
1.54204669753307
30
-1E-16
0
SPLINE
5
E6
100
AcDbEntity
8
1
62
256
6
ByLayer
370
18
48
1
60
0
100
AcDbSpline
70
4
71
3
72
8
73
4
40
0
40
0
40
0
40
0
40
1
40
1
40
1
40
1
41
1
10
53.6113168921577
20
3.83413156135938
30
0
41
1
10
53.6089261973283
20
3.8357426079782
30
0
41
1
10
53.6065355379181
20
3.83735340838311
30
0
41
1
10
53.604144913487
20
3.83896396260656
30
0
0
SPLINE
5
E7
100
AcDbEntity
8
1
62
256
6
ByLayer
370
18
48
1
60
0
100
AcDbSpline
70
4
71
3
72
8
73
4
40
0
40
0
40
0
40
0
40
1
40
1
40
1
40
1
41
1
10
53.6113168921577
20
-3.83413156135941
30
0
41
1
10
53.6089261973284
20
-3.83574260797815
30
0
41
1
10
53.6065355379183
20
-3.83735340838294
30
0
41
1
10
53.6041449134874
20
-3.83896396260633
30
0
0
SPLINE
5
E8
100
AcDbEntity
8
1
62
256
6
ByLayer
370
18
48
1
60
0
100
AcDbSpline
70
4
71
3
72
8
73
4
40
0
40
0
40
0
40
0
40
1
40
1
40
1
40
1
41
1
10
53.0142347184435
20
0.0210572592332596
30
0
41
1
10
53.0465957014148
20
0.0020646292479967
30
0
41
1
10
53.0787367217945
20
-0.0159158530330501
30
0
41
1
10
53.1106974572241
20
-0.0329106902055685
30
0
0
SPLINE
5
E9
100
AcDbEntity
8
1
62
256
6
ByLayer
370
18
48
1
60
0
100
AcDbSpline
70
4
71
3
72
42
73
38
40
0
40
0
40
0
40
0
40
0.0754517944911262
40
0.0754517944911262
40
0.11317769173669
40
0.11317769173669
40
0.150903588982254
40
0.150903588982254
40
0.226355383473381
40
0.226355383473381
40
0.264081280718944
40
0.264081280718944
40
0.301807177964508
40
0.301807177964508
40
0.452710766946757
40
0.452710766946757
40
0.49043666419232
40
0.49043666419232
40
0.509299612815102
40
0.509299612815102
40
0.528162561437884
40
0.528162561437884
40
0.603614355929012
40
0.603614355929012
40
0.679066150420141
40
0.679066150420141
40
0.716792047665706
40
0.716792047665706
40
0.754517944911271
40
0.754517944911271
40
0.905421533893528
40
0.905421533893528
40
0.943147431139091
40
0.943147431139091
40
0.980873328384655
40
0.980873328384655
40
1
40
1
40
1
40
1
41
1
10
53.3475064583262
20
-3.94609730241282
30
0
41
1
10
52.8257044418818
20
-3.89641921164346
30
0
41
1
10
52.3050359753762
20
-3.81332585593614
30
0
41
1
10
51.5214831281491
20
-3.64075201697983
30
0
41
1
10
51.2601556061164
20
-3.57525297044717
30
0
41
1
10
50.7401416828955
20
-3.43012290183538
30
2E-16
41
1
10
50.480929325919
20
-3.35038197824022
30
2E-16
41
1
10
49.7044650356935
20
-3.09104709768772
30
2E-16
41
1
10
49.188400875674
20
-2.89131518676786
30
2E-16
41
1
10
48.411727862766
20
-2.5572705624007
30
2E-16
41
1
10
48.1524012790446
20
-2.44019450504683
30
1E-16
41
1
10
47.6321710969144
20
-2.19538735530992
30
1E-16
41
1
10
47.3704961988455
20
-2.06724728997733
30
1E-16
41
1
10
46.0666758514512
20
-1.40833340211853
30
1E-16
41
1
10
45.0412586932262
20
-0.824441004326445
30
1E-16
41
1
10
43.7487022960312
20
-0.0805544848055888
30
0
41
1
10
43.4896665955064
20
0.0689466980212217
30
0
41
1
10
43.0998122220321
20
0.293401234503108
30
0
41
1
10
42.969643841199
20
0.36825327514012
30
0
41
1
10
42.7087518237214
20
0.517813614188526
30
0
41
1
10
42.5778619029685
20
0.592617536571652
30
0
41
1
10
41.9255019628618
20
0.963587466331063
30
-1E-16
41
1
10
41.4080658508931
20
1.25191793490657
30
-1E-16
41
1
10
40.3757028867749
20
1.80168291720938
30
-1E-16
41
1
10
39.8607618497277
20
2.06309108459959
30
-1E-16
41
1
10
39.0854852742455
20
2.42759515644107
30
-1E-16
41
1
10
38.8265716575512
20
2.54448001299494
30
-2E-16
41
1
10
38.3069850096032
20
2.76779015064275
30
-2E-16
41
1
10
38.0456862870412
20
2.87443807701135
30
-2E-16
41
1
10
36.7398306235664
20
3.37543062348922
30
-2E-16
41
1
10
35.7135509299851
20
3.66714224694499
30
0
41
1
10
34.421509804413
20
3.87282189152018
30
0
41
1
10
34.1626644255194
20
3.90602471655126
30
0
41
1
10
33.643243309955
20
3.9559859252289
30
0
41
1
10
33.3822739205072
20
3.97275716597562
30
0
41
1
10
32.9883567144886
20
3.98518718637021
30
0
41
1
10
32.8561377213609
20
3.98717108848675
30
0
41
1
10
32.7241698754379
20
3.98698260147572
30
0
0
SPLINE
5
EA
100
AcDbEntity
8
1
62
256
6
ByLayer
370
18
48
1
60
0
100
AcDbSpline
70
4
71
3
72
22
73
18
40
0
40
0
40
0
40
0
40
0.0287333020085987
40
0.0287333020085987
40
0.352488868005735
40
0.352488868005735
40
0.433427759505019
40
0.433427759505019
40
0.514366651004302
40
0.514366651004302
40
0.676244434002868
40
0.676244434002868
40
0.838122217001434
40
0.838122217001434
40
0.919061108500718
40
0.919061108500718
40
1
40
1
40
1
40
1
41
1
10
13.1727260144987
20
-3.77777258186109
30
0
41
1
10
13.0807205797075
20
-3.79414036344667
30
0
41
1
10
12.9887972934713
20
-3.80949262626669
30
0
41
1
10
11.8619113202156
20
-3.98531910394709
30
0
41
1
10
10.8349413241184
20
-4.01721791903498
30
0
41
1
10
9.52949262439424
20
-3.88792339038528
30
0
41
1
10
9.26735436924707
20
-3.85354283240866
30
0
41
1
10
8.74659204244236
20
-3.76906506387334
30
0
41
1
10
8.4871467163766
20
-3.71890351102115
30
0
41
1
10
7.71041160750246
20
-3.54577683495828
30
0
41
1
10
7.19473215880174
20
-3.40016319782222
30
2E-16
41
1
10
6.16138993871601
20
-3.05438198078628
30
2E-16
41
1
10
5.64381519250324
20
-2.85409455004896
30
2E-16
41
1
10
4.86091845828716
20
-2.51758310536371
30
2E-16
41
1
10
4.5986477447365
20
-2.39927156481136
30
1E-16
41
1
10
4.07530670819074
20
-2.1533964749695
30
1E-16
41
1
10
3.81374106204473
20
-2.02563413188537
30
1E-16
41
1
10
3.55194067162523
20
-1.89352559358906
30
1E-16
0
SPLINE
5
EB
100
AcDbEntity
8
1
62
256
6
ByLayer
370
18
48
1
60
0
100
AcDbSpline
70
4
71
3
72
8
73
4
40
0
40
0
40
0
40
0
40
1
40
1
40
1
40
1
41
1
10
54.6481376474971
20
1.23607755394354
30
0
41
1
10
54.7673924499847
20
0.898807629623974
30
0
41
1
10
54.8834662167522
20
0.560399928070211
30
0
41
1
10
54.9963113360323
20
0.220837419739269
30
0
0
SPLINE
5
EC
100
AcDbEntity
8
1
62
256
6
ByLayer
370
18
48
1
60
0
100
AcDbSpline
70
4
71
3
72
36
73
32
40
0
40
0
40
0
40
0
40
0.0386341612969344
40
0.0386341612969344
40
0.106457684049238
40
0.106457684049238
40
0.174281206801541
40
0.174281206801541
40
0.309928252306149
40
0.309928252306149
40
0.377751775058452
40
0.377751775058452
40
0.445575297810756
40
0.445575297810756
40
0.513398820563059
40
0.513398820563059
40
0.581222343315363
40
0.581222343315363
40
0.649045866067666
40
0.649045866067666
40
0.71686938881997
40
0.71686938881997
40
0.784692911572273
40
0.784692911572273
40
0.852516434324577
40
0.852516434324577
40
0.92033995707688
40
0.92033995707688
40
0.988163479829184
40
0.988163479829184
40
1
40
1
40
1
40
1
41
1
10
43.1092418487284
20
-0.275902505059804
30
0
41
1
10
42.8977961711171
20
-0.158928936282678
30
0
41
1
10
42.6861988214042
20
-0.0414880897468208
30
0
41
1
10
42.1031689023444
20
0.281732178142619
30
0
41
1
10
41.7316885605239
20
0.487288692798387
30
0
41
1
10
40.9883810904388
20
0.892851410480858
30
-1E-16
41
1
10
40.6167658769056
20
1.09267788421764
30
-1E-16
41
1
10
39.5081128216604
20
1.67192873696502
30
-1E-16
41
1
10
38.7742622216963
20
2.03346116780213
30
-1E-16
41
1
10
37.6685100203514
20
2.51764367663938
30
-2E-16
41
1
10
37.299083424651
20
2.66935309004802
30
-2E-16
41
1
10
36.5564031735859
20
2.95014196028208
30
-2E-16
41
1
10
36.1852769375043
20
3.07819961595223
30
-2E-16
41
1
10
35.4438206244697
20
3.30636313607786
30
0
41
1
10
35.0727096769529
20
3.4068311154947
30
0
41
1
10
34.3297909619079
20
3.57800525629577
30
0
41
1
10
33.9591944264112
20
3.64834364789348
30
0
41
1
10
33.2175893309631
20
3.75708545425962
30
0
41
1
10
32.8459274373247
20
3.79565966407489
30
0
41
1
10
32.1035824586347
20
3.83974440175268
30
0
41
1
10
31.7331112457178
20
3.8451925395911
30
0
41
1
10
30.9913621349645
20
3.82266216881823
30
0
41
1
10
30.6195326511033
20
3.79475043459405
30
0
41
1
10
29.8776341333009
20
3.70684287775708
30
0
41
1
10
29.5071236893551
20
3.64697313130799
30
0
41
1
10
28.7648890355638
20
3.49630875447181
30
0
41
1
10
28.3931365532746
20
3.40528789756604
30
0
41
1
10
27.6515014574474
20
3.1952537822724
30
-2E-16
41
1
10
27.2809765864884
20
3.07600961299923
30
-2E-16
41
1
10
26.8448376067929
20
2.92067255536494
30
-2E-16
41
1
10
26.7800114871568
20
2.89719638421815
30
-2E-16
41
1
10
26.7151712628897
20
2.87333845561503
30
-2E-16
0
SPLINE
5
ED
100
AcDbEntity
8
1
62
256
6
ByLayer
370
18
48
1
60
0
100
AcDbSpline
70
4
71
3
72
8
73
4
40
0
40
0
40
0
40
0
40
1
40
1
40
1
40
1
41
1
10
54.3292099967858
20
-0.420580146688792
30
0
41
1
10
54.1851390681988
20
-0.0359992454061739
30
0
41
1
10
54.0007291984988
20
0.375125791235405
30
0
41
1
10
53.776904327737
20
0.812186985210133
30
0
0
SPLINE
5
EE
100
AcDbEntity
8
1
62
256
6
ByLayer
370
18
48
1
60
0
100
AcDbSpline
70
4
71
3
72
8
73
4
40
0
40
0
40
0
40
0
40
1
40
1
40
1
40
1
41
1
10
54.9963113360268
20
0.220837419744555
30
0
41
1
10
55.0012275538558
20
0.0736723664638816
30
0
41
1
10
55.0012315570885
20
-0.0735525312625782
30
0
41
1
10
54.9963113360268
20
-0.220837419746317
30
0
0
SPLINE
5
EF
100
AcDbEntity
8
1
62
256
6
ByLayer
370
18
48
1
60
0
100
AcDbSpline
70
4
71
3
72
22
73
18
40
0
40
0
40
0
40
0
40
0.124981081946262
40
0.124981081946262
40
0.402100736977724
40
0.402100736977724
40
0.471380650735591
40
0.471380650735591
40
0.540660564493457
40
0.540660564493457
40
0.609940478251323
40
0.609940478251323
40
0.67922039200919
40
0.67922039200919
40
0.956340047040657
40
0.956340047040657
40
1
40
1
40
1
40
1
41
1
10
33.1502691596253
20
-3.79068841110816
30
0
41
1
10
32.6784784649073
20
-3.80589270749797
30
0
41
1
10
32.2099963581428
20
-3.79480387707136
30
0
41
1
10
30.7060419829167
20
-3.67565237901547
30
0
41
1
10
29.675200005583
20
-3.46829429689299
30
0
41
1
10
28.3629215275871
20
-3.06516985900447
30
2E-16
41
1
10
28.1004313494962
20
-2.97776364189019
30
2E-16
41
1
10
27.5763646506631
20
-2.79101034383047
30
2E-16
41
1
10
27.3145212426558
20
-2.69147617596252
30
2E-16
41
1
10
26.7903422736733
20
-2.48107058510405
30
2E-16
41
1
10
26.5275636680083
20
-2.37004989827875
30
1E-16
41
1
10
26.0030831487781
20
-2.13878507996472
30
1E-16
41
1
10
25.7418038877626
20
-2.01872795820768
30
1E-16
41
1
10
24.4382042377788
20
-1.39968796110134
30
1E-16
41
1
10
23.4046608146236
20
-0.844589423786886
30
1E-16
41
1
10
22.1907429764877
20
-0.181751374923436
30
0
41
1
10
22.0252495368067
20
-0.091138955416227
30
0
41
1
10
21.8600695255418
20
-0.0006781027755096
30
0
0
SPLINE
5
F0
100
AcDbEntity
8
1
62
256
6
ByLayer
370
18
48
1
60
0
100
AcDbSpline
70
4
71
3
72
8
73
4
40
0
40
0
40
0
40
0
40
1
40
1
40
1
40
1
41
1
10
3.59706155277664
20
-1.82452005438679
30
1E-16
41
1
10
3.58200946666645
20
-1.81731373650555
30
1E-16
41
1
10
3.56724914823488
20
-1.81201086732739
30
1E-16
41
1
10
3.55368289742413
20
-1.80902847904039
30
1E-16
0
SPLINE
5
F1
100
AcDbEntity
8
1
62
256
6
ByLayer
370
18
48
1
60
0
100
AcDbSpline
70
4
71
3
72
8
73
4
40
0
40
0
40
0
40
0
40
1
40
1
40
1
40
1
41
1
10
54.6481376474971
20
1.23607755394354
30
0
41
1
10
54.4350418836695
20
1.17141476496857
30
0
41
1
10
54.2172107655549
20
1.12768793611016
30
0
41
1
10
53.9972298367861
20
1.09346585544685
30
0
0
SPLINE
5
F2
100
AcDbEntity
8
1
62
256
6
ByLayer
370
18
48
1
60
0
100
AcDbSpline
70
4
71
3
72
42
73
38
40
0
40
0
40
0
40
0
40
0.0073662216819138
40
0.0073662216819138
40
0.0399596619471631
40
0.0399596619471631
40
0.0725531022124123
40
0.0725531022124123
40
0.13773998274291
40
0.13773998274291
40
0.268113743803903
40
0.268113743803903
40
0.398487504864896
40
0.398487504864896
40
0.463674385395393
40
0.463674385395393
40
0.496267825660641
40
0.496267825660641
40
0.52886126592589
40
0.52886126592589
40
0.659235026986883
40
0.659235026986883
40
0.691828467252132
40
0.691828467252132
40
0.724421907517381
40
0.724421907517381
40
0.789608788047878
40
0.789608788047878
40
0.854795668578376
40
0.854795668578376
40
0.871092388711
40
0.871092388711
40
0.887389108843624
40
0.887389108843624
40
0.919982549108872
40
0.919982549108872
40
1
40
1
40
1
40
1
41
1
10
34.8550555082469
20
-3.80258078070506
30
0
41
1
10
34.7966967252973
20
-3.81268629652419
30
0
41
1
10
34.7383191143817
20
-3.82238911118307
30
0
41
1
10
34.421509804413
20
-3.87282189152018
30
0
41
1
10
34.1626644255194
20
-3.90602471655126
30
0
41
1
10
33.643243309955
20
-3.9559859252289
30
0
41
1
10
33.3822739205073
20
-3.97275716597562
30
0
41
1
10
32.5980940495567
20
-3.99750188806445
30
0
41
1
10
32.0800526186505
20
-3.97979539764168
30
0
41
1
10
30.5302601276496
20
-3.8287611426104
30
0
41
1
10
29.5030134800865
20
-3.59715504385201
30
0
41
1
10
27.4098685361774
20
-2.89849940304623
30
2E-16
41
1
10
26.3828538834071
20
-2.44463417370929
30
1E-16
41
1
10
24.8325984967241
20
-1.66354180795875
30
1E-16
41
1
10
24.3143595782692
20
-1.38626653604001
30
1E-16
41
1
10
23.5297140839315
20
-0.952400905806883
30
1E-16
41
1
10
23.2688101908735
20
-0.805759885129589
30
0
41
1
10
22.7492224611798
20
-0.511120247623069
30
0
41
1
10
22.4902923897654
20
-0.362861206928614
30
0
41
1
10
21.1976774812036
20
0.37908259943913
30
0
41
1
10
20.1709072310071
20
0.976142657727337
30
-1E-16
41
1
10
18.8637730917023
20
1.66881157984687
30
-1E-16
41
1
10
18.6024158298738
20
1.80421097461584
30
-1E-16
41
1
10
18.0825102405505
20
2.06514292538205
30
-1E-16
41
1
10
17.8233827070781
20
2.19098423532219
30
-1E-16
41
1
10
17.0474013282033
20
2.55330074762998
30
-2E-16
41
1
10
16.532135690075
20
2.77479776579546
30
-2E-16
41
1
10
15.4986694369779
20
3.16857070392646
30
-2E-16
41
1
10
14.9808390171321
20
3.34129187525232
30
-2E-16
41
1
10
14.3277552029432
20
3.52136472330113
30
0
41
1
10
14.1967179361577
20
3.55562261909253
30
0
41
1
10
13.9355386423923
20
3.62006157432333
30
0
41
1
10
13.8052262394092
20
3.65029318617448
30
0
41
1
10
13.4149650973192
20
3.73498714978524
30
0
41
1
10
13.1556954620729
20
3.78345173321009
30
0
41
1
10
12.2616862136299
20
3.92294277391699
30
0
41
1
10
11.629468938998
20
3.97324261347634
30
0
41
1
10
10.9944036875591
20
3.97339779987897
30
0
0
SPLINE
5
F3
100
AcDbEntity
8
1
62
256
6
ByLayer
370
18
48
1
60
0
100
AcDbSpline
70
4
71
3
72
22
73
18
40
0
40
0
40
0
40
0
40
0.124999999999999
40
0.124999999999999
40
0.187499999999999
40
0.187499999999999
40
0.249999999999999
40
0.249999999999999
40
0.499999999999999
40
0.499999999999999
40
0.624999999999999
40
0.624999999999999
40
0.687499999999999
40
0.687499999999999
40
0.75
40
0.75
40
1
40
1
40
1
40
1
41
1
10
17.9999999999894
20
1.55284126190924
30
-1E-16
41
1
10
17.5933322620241
20
1.76796087425171
30
-1E-16
41
1
10
17.186021288478
20
1.97526108149452
30
-1E-16
41
1
10
16.5718164190832
20
2.27067926817187
30
-1E-16
41
1
10
16.366558221586
20
2.36658758987301
30
-1E-16
41
1
10
15.9545344383852
20
2.55251240207716
30
-2E-16
41
1
10
15.7487999380359
20
2.64204108776053
30
-2E-16
41
1
10
14.7241151162206
20
3.06993717283589
30
-2E-16
41
1
10
13.9135704546401
20
3.35085833127212
30
-2E-16
41
1
10
12.6926710024562
20
3.66247732158666
30
0
41
1
10
12.2849115355605
20
3.74810828745066
30
0
41
1
10
11.6696811317003
20
3.84697164437995
30
0
41
1
10
11.4636400569991
20
3.87502543107465
30
0
41
1
10
11.0516265932651
20
3.92072238864591
30
0
41
1
10
10.8460965703039
20
3.93833452399161
30
0
41
1
10
9.81984109776019
20
4.00025340225798
30
0
41
1
10
9.00324314076695
20
3.9661593976173
30
0
41
1
10
8.17851265545406
20
3.84874760027463
30
0
0
SPLINE
5
F4
100
AcDbEntity
8
1
62
256
6
ByLayer
370
18
48
1
60
0
100
AcDbSpline
70
4
71
3
72
56
73
52
40
0
40
0
40
0
40
0
40
0.0532319178621961
40
0.0532319178621961
40
0.080586452022603
40
0.080586452022603
40
0.10794098618301
40
0.10794098618301
40
0.162650054503823
40
0.162650054503823
40
0.217359122824636
40
0.217359122824636
40
0.244713656985043
40
0.244713656985043
40
0.272068191145449
40
0.272068191145449
40
0.326777259466264
40
0.326777259466264
40
0.381486327787078
40
0.381486327787078
40
0.408840861947485
40
0.408840861947485
40
0.436195396107892
40
0.436195396107892
40
0.490904464428707
40
0.490904464428707
40
0.545613532749521
40
0.545613532749521
40
0.572968066909929
40
0.572968066909929
40
0.600322601070337
40
0.600322601070337
40
0.655031669391151
40
0.655031669391151
40
0.709740737711965
40
0.709740737711965
40
0.76444980603278
40
0.76444980603278
40
0.791804340193187
40
0.791804340193187
40
0.819158874353594
40
0.819158874353594
40
0.873867942674408
40
0.873867942674408
40
0.928577010995221
40
0.928577010995221
40
0.955931545155628
40
0.955931545155628
40
0.983286079316035
40
0.983286079316035
40
1
40
1
40
1
40
1
41
1
10
21.4292282764483
20
3.97992723052803
30
0
41
1
10
21.9155021052684
20
3.98028403740818
30
0
41
1
10
22.4022084388833
20
3.95117587798973
30
0
41
1
10
23.1428872409033
20
3.86221571279711
30
0
41
1
10
23.3950056335534
20
3.82416487770141
30
0
41
1
10
23.9017559403045
20
3.73255751814378
30
0
41
1
10
24.1544384418744
20
3.6793110186841
30
0
41
1
10
24.9092958333393
20
3.49859424027144
30
0
41
1
10
25.4090474197283
20
3.34985440689533
30
-2E-16
41
1
10
26.4087080149608
20
3.00343074284243
30
-2E-16
41
1
10
26.9081592330315
20
2.80532611492828
30
-2E-16
41
1
10
27.661080993266
20
2.47540351700837
30
-2E-16
41
1
10
27.9128120316935
20
2.3601553625835
30
-1E-16
41
1
10
28.4183424074772
20
2.11970509414792
30
-1E-16
41
1
10
28.6720567432817
20
1.99446212412297
30
-1E-16
41
1
10
29.4280322428456
20
1.60976805956679
30
-1E-16
41
1
10
29.9283812941771
20
1.34017746629843
30
-1E-16
41
1
10
30.9280517774022
20
0.785506972588649
30
0
41
1
10
31.4268994294197
20
0.499606220067904
30
0
41
1
10
32.1789326488272
20
0.0669736488691228
30
0
41
1
10
32.4302157218886
20
-0.077900345238362
30
0
41
1
10
32.9345294880221
20
-0.368064979832667
30
0
41
1
10
33.1883065221378
20
-0.513756878798688
30
0
41
1
10
33.945592720009
20
-0.944841520537466
30
1E-16
41
1
10
34.4467204829047
20
-1.22421326873737
30
1E-16
41
1
10
35.4465340861181
20
-1.75913584205142
30
1E-16
41
1
10
35.9452099596486
20
-2.0146520441451
30
1E-16
41
1
10
36.6963547324696
20
-2.37217584278784
30
1E-16
41
1
10
36.9471727849946
20
-2.48719155047144
30
2E-16
41
1
10
37.4503701123206
20
-2.70779194040335
30
2E-16
41
1
10
37.7032344239027
20
-2.81361166653844
30
2E-16
41
1
10
38.4622034534525
20
-3.11322973933397
30
2E-16
41
1
10
38.9640177909573
20
-3.28758763849487
30
2E-16
41
1
10
39.9641609209978
20
-3.58223450272166
30
0
41
1
10
40.4629337025451
20
-3.70207492875281
30
0
41
1
10
41.4633189231539
20
-3.88291878387889
30
0
41
1
10
41.9646669561027
20
-3.94397598961007
30
0
41
1
10
42.7238154701685
20
-3.98797254362589
30
0
41
1
10
42.9766871532106
20
-3.99463666968074
30
0
41
1
10
43.4797510712079
20
-3.99207472362284
30
0
41
1
10
43.7303964667709
20
-3.98287042010887
30
0
41
1
10
44.4809776004222
20
-3.93194433480588
30
0
41
1
10
44.9798865064881
20
-3.86707413937111
30
0
41
1
10
45.9792608749899
20
-3.67760068581114
30
0
41
1
10
46.4799793491056
20
-3.55304679435534
30
0
41
1
10
47.2372792583489
20
-3.32375873349886
30
2E-16
41
1
10
47.4909145046035
20
-3.24007335184399
30
2E-16
41
1
10
47.9947234861789
20
-3.06110721596392
30
2E-16
41
1
10
48.2456559339133
20
-2.96561267138361
30
2E-16
41
1
10
48.649206092907
20
-2.80326386552241
30
2E-16
41
1
10
48.8020591482925
20
-2.7396741541709
30
2E-16
41
1
10
48.9547851088278
20
-2.67417403919055
30
2E-16
0
SPLINE
5
F5
100
AcDbEntity
8
1
62
256
6
ByLayer
370
18
48
1
60
0
100
AcDbSpline
70
4
71
3
72
10
73
6
40
0
40
0
40
0
40
0
40
0.5
40
0.5
40
1
40
1
40
1
40
1
41
1
10
3.55368289742413
20
-1.80902847904039
30
1E-16
41
1
10
3.53561779175405
20
-1.80457741581265
30
1E-16
41
1
10
3.52274441743745
20
-1.79823640210259
30
1E-16
41
1
10
3.50586249711969
20
-1.78444753768596
30
1E-16
41
1
10
3.50171223732232
20
-1.77676484616097
30
1E-16
41
1
10
3.50171223732232
20
-1.76917531260244
30
1E-16
0
SPLINE
5
F6
100
AcDbEntity
8
1
62
256
6
ByLayer
370
18
48
1
60
0
100
AcDbSpline
70
4
71
3
72
44
73
40
40
0
40
0
40
0
40
0
40
0.0342835376108129
40
0.0342835376108129
40
0.0802700358198227
40
0.0802700358198227
40
0.126256534028833
40
0.126256534028833
40
0.172243032237842
40
0.172243032237842
40
0.218229530446852
40
0.218229530446852
40
0.264216028655862
40
0.264216028655862
40
0.310202526864872
40
0.310202526864872
40
0.356189025073882
40
0.356189025073882
40
0.379182274178386
40
0.379182274178386
40
0.40217552328289
40
0.40217552328289
40
0.448162021491899
40
0.448162021491899
40
0.494148519700908
40
0.494148519700908
40
0.540135017909916
40
0.540135017909916
40
0.632108014327933
40
0.632108014327933
40
0.72408101074595
40
0.72408101074595
40
0.816054007163967
40
0.816054007163967
40
0.908027003581984
40
0.908027003581984
40
0.954013501790992
40
0.954013501790992
40
1
40
1
40
1
40
1
41
1
10
29.3339448718961
20
3.74287930761565
30
0
41
1
10
29.6088647612359
20
3.79733134495083
30
0
41
1
10
29.8837874410083
20
3.84294965599372
30
0
41
1
10
30.5260218534641
20
3.92807919707789
30
0
41
1
10
30.8933971186616
20
3.96033981467267
30
0
41
1
10
31.6293830009004
20
3.99122223174081
30
0
41
1
10
31.9984091644668
20
3.9897984354734
30
0
41
1
10
32.7362232753994
20
3.95299707959219
30
0
41
1
10
33.1046063903266
20
3.91769580003765
30
0
41
1
10
33.8422252251339
20
3.81404010236588
30
0
41
1
10
34.2103408640199
20
3.74583822708041
30
0
41
1
10
34.9456500961757
20
3.57858096701705
30
0
41
1
10
35.3131195569151
20
3.47947605506624
30
0
41
1
10
36.0500422517408
20
3.25200073186238
30
-2E-16
41
1
10
36.4186139074204
20
3.12386361649649
30
-2E-16
41
1
10
37.1538920220853
20
2.84288403176649
30
-2E-16
41
1
10
37.5212420025821
20
2.68983592658779
30
-2E-16
41
1
10
38.0736261288526
20
2.44358628666527
30
-1E-16
41
1
10
38.2581632495285
20
2.35863860809613
30
-1E-16
41
1
10
38.6265380450405
20
2.18424544749129
30
-1E-16
41
1
10
38.8104864956652
20
2.09474935169581
30
-1E-16
41
1
10
39.3620292566244
20
1.82000433377271
30
-1E-16
41
1
10
39.7293166008961
20
1.62849044330042
30
-1E-16
41
1
10
40.4654383890348
20
1.2324106968336
30
-1E-16
41
1
10
40.8344131778112
20
1.02777231016546
30
-1E-16
41
1
10
41.57144149573
20
0.61203240384225
30
0
41
1
10
41.9402385936562
20
0.400464761114989
30
0
41
1
10
43.0456276260298
20
-0.236337276599642
30
0
41
1
10
43.7831212543161
20
-0.664585784848725
30
0
41
1
10
45.2568546514778
20
-1.48372887046386
30
1E-16
41
1
10
45.9944812706754
20
-1.87504173573822
30
1E-16
41
1
10
47.468151001379
20
-2.58146684600214
30
2E-16
41
1
10
48.2053826244821
20
-2.8969168890977
30
2E-16
41
1
10
49.6789125438789
20
-3.41924508377278
30
2E-16
41
1
10
50.4163334890369
20
-3.62626981237659
30
0
41
1
10
51.521392365022
20
-3.8400532983184
30
0
41
1
10
51.8892240355933
20
-3.89525820214504
30
0
41
1
10
52.6262114093492
20
-3.97238760387094
30
0
41
1
10
52.9942787772319
20
-3.99416916997404
30
0
41
1
10
53.3624241813861
20
-3.99896408572047
30
0
0
SPLINE
5
F7
100
AcDbEntity
8
1
62
256
6
ByLayer
370
18
48
1
60
0
100
AcDbSpline
70
4
71
3
72
8
73
4
40
0
40
0
40
0
40
0
40
1
40
1
40
1
40
1
41
1
10
53.0142347184435
20
0.0210572592332596
30
0
41
1
10
53.0055442405896
20
0.210668521531033
30
0
41
1
10
53.0037090650111
20
0.39823669704009
30
0
41
1
10
53.010761617779
20
0.583750805787474
30
0
0
SPLINE
5
F8
100
AcDbEntity
8
1
62
256
6
ByLayer
370
18
48
1
60
0
100
AcDbSpline
70
4
71
3
72
12
73
8
40
0
40
0
40
0
40
0
40
0.421234119495691
40
0.421234119495691
40
0.842468238991383
40
0.842468238991383
40
1
40
1
40
1
40
1
41
1
10
53.9972298367861
20
1.09346585544685
30
0
41
1
10
53.9340708378874
20
1.08364031117344
30
0
41
1
10
53.8729003513456
20
1.06890187160963
30
0
41
1
10
53.7544093427797
20
1.03135270103559
30
0
41
1
10
53.6969108215327
20
1.00835317305018
30
0
41
1
10
53.6245729260677
20
0.974970666056066
30
0
41
1
10
53.60536525417
20
0.965622612923369
30
0
41
1
10
53.5867165568804
20
0.956158454264852
30
0
0
SPLINE
5
F9
100
AcDbEntity
8
1
62
256
6
ByLayer
370
18
48
1
60
0
100
AcDbSpline
70
4
71
3
72
34
73
30
40
0
40
0
40
0
40
0
40
0.0521570084170614
40
0.0521570084170614
40
0.121055964315244
40
0.121055964315244
40
0.189954920213428
40
0.189954920213428
40
0.258853876111611
40
0.258853876111611
40
0.327752832009794
40
0.327752832009794
40
0.396651787907977
40
0.396651787907977
40
0.46555074380616
40
0.46555074380616
40
0.534449699704343
40
0.534449699704343
40
0.603348655602526
40
0.603348655602526
40
0.672247611500709
40
0.672247611500709
40
0.741146567398892
40
0.741146567398892
40
0.810045523297075
40
0.810045523297075
40
0.878944479195258
40
0.878944479195258
40
1
40
1
40
1
40
1
41
1
10
20.0753432152341
20
3.786072389628
30
0
41
1
10
20.2692707510208
20
3.79176302098386
30
0
41
1
10
20.4632589731764
20
3.79313627139433
30
0
41
1
10
20.9146504702503
20
3.78442636927309
30
0
41
1
10
21.1721461609805
20
3.77140485883967
30
0
41
1
10
21.6881676063216
20
3.73087881351563
30
0
41
1
10
21.9469704563241
20
3.70348302032767
30
0
41
1
10
22.4665972031012
20
3.63074552779744
30
0
41
1
10
22.725502897259
20
3.58654542569516
30
0
41
1
10
23.2417210933276
20
3.48468916249499
30
0
41
1
10
23.4990214153719
20
3.42693892277265
30
0
41
1
10
24.0136511682848
20
3.29646084954351
30
0
41
1
10
24.270780424948
20
3.22422641230273
30
-2E-16
41
1
10
24.7849113190271
20
3.06714840771434
30
-2E-16
41
1
10
25.0420152284686
20
2.98214131362985
30
-2E-16
41
1
10
25.5575815664069
20
2.7993344000219
30
-2E-16
41
1
10
25.8159284561203
20
2.70169443283643
30
-2E-16
41
1
10
26.3338171535754
20
2.49512026272845
30
-2E-16
41
1
10
26.5938715247601
20
2.38589747395346
30
-1E-16
41
1
10
27.1127908261736
20
2.15832221481421
30
-1E-16
41
1
10
27.372022198585
20
2.03989675306562
30
-1E-16
41
1
10
27.8900680072403
20
1.7948477955008
30
-1E-16
41
1
10
28.1492169457549
20
1.66826253747763
30
-1E-16
41
1
10
28.6687285318848
20
1.40820876453472
30
-1E-16
41
1
10
28.9287612117083
20
1.27477486739605
30
-1E-16
41
1
10
29.4481054067765
20
1.00303935888945
30
-1E-16
41
1
10
29.7066424271755
20
0.865399839858696
30
-1E-16
41
1
10
30.4174770426101
20
0.48326753052794
30
0
41
1
10
30.8678310121759
20
0.235797728357483
30
0
41
1
10
31.3180131323183
20
-0.0109160461004478
30
0
0
SPLINE
5
FA
100
AcDbEntity
8
1
62
256
6
ByLayer
370
18
48
1
60
0
100
AcDbSpline
70
4
71
3
72
24
73
20
40
0
40
0
40
0
40
0
40
0.0391328180607809
40
0.0391328180607809
40
0.0782656361215623
40
0.0782656361215623
40
0.156531272243128
40
0.156531272243128
40
0.313062544486256
40
0.313062544486256
40
0.469593816729384
40
0.469593816729384
40
0.547859452850949
40
0.547859452850949
40
0.626125088972513
40
0.626125088972513
40
0.93918763345877
40
0.93918763345877
40
1
40
1
40
1
40
1
41
1
10
53.5718652031837
20
-3.77704588313236
30
0
41
1
10
53.4410937359261
20
-3.76722368870387
30
0
41
1
10
53.3104985456191
20
-3.75599773006644
30
0
41
1
10
53.0498006690499
20
-3.72905679122289
30
0
41
1
10
52.9196627014578
20
-3.7136181473164
30
0
41
1
10
52.5297556983959
20
-3.66147121465562
30
0
41
1
10
52.2704916692452
20
-3.6189113194352
30
0
41
1
10
51.4937633203587
20
-3.46897928541142
30
0
41
1
10
50.9773833118081
20
-3.33944002003025
30
0
41
1
10
49.9413296514057
20
-3.02594571277916
30
2E-16
41
1
10
49.4217244403921
20
-2.84195817514851
30
2E-16
41
1
10
48.6352303830522
20
-2.52928062493251
30
2E-16
41
1
10
48.3732826962927
20
-2.41948627739578
30
1E-16
41
1
10
47.8523739818049
20
-2.19138171655689
30
1E-16
41
1
10
47.5929210194402
20
-2.07285945330378
30
1E-16
41
1
10
46.2986561479785
20
-1.46127950579933
30
1E-16
41
1
10
45.2729141932403
20
-0.91088491916247
30
1E-16
41
1
10
44.0305913658939
20
-0.231234273681196
30
0
41
1
10
43.8279610978625
20
-0.120005553514972
30
0
41
1
10
43.6246165088751
20
-0.0083788216617791
30
0
0
SPLINE
5
FB
100
AcDbEntity
8
1
62
256
6
ByLayer
370
18
48
1
60
0
100
AcDbSpline
70
4
71
3
72
18
73
14
40
0
40
0
40
0
40
0
40
0.185087119274208
40
0.185087119274208
40
0.388815339455655
40
0.388815339455655
40
0.490679449546379
40
0.490679449546379
40
0.592543559637103
40
0.592543559637103
40
0.796271779818552
40
0.796271779818552
40
1
40
1
40
1
40
1
41
1
10
11.2741083064681
20
-3.78044744903878
30
0
41
1
10
10.8010579717177
20
-3.79098464721875
30
0
41
1
10
10.3302346553555
20
-3.77499559662834
30
0
41
1
10
9.34115006034838
20
-3.68697390796447
30
0
41
1
10
8.8229111203292
20
-3.60946743165044
30
0
41
1
10
8.04102518989859
20
-3.44765421794398
30
0
41
1
10
7.7796399270218
20
-3.38612882387355
30
0
41
1
10
7.25460172726858
20
-3.2481438566202
30
0
41
1
10
6.9919188317709
20
-3.17192838601352
30
2E-16
41
1
10
6.20724070449279
20
-2.92455122348858
30
2E-16
41
1
10
5.68673254397939
20
-2.73378122800574
30
2E-16
41
1
10
4.64434506432465
20
-2.30958838527477
30
1E-16
41
1
10
4.12245982906052
20
-2.07605907464188
30
1E-16
41
1
10
3.59706155277664
20
-1.82452005438679
30
1E-16
0
SPLINE
5
FC
100
AcDbEntity
8
1
62
256
6
ByLayer
370
18
48
1
60
0
100
AcDbSpline
70
4
71
3
72
36
73
32
40
0
40
0
40
0
40
0
40
0.0192923895102765
40
0.0192923895102765
40
0.15611900044835
40
0.15611900044835
40
0.224532305917386
40
0.224532305917386
40
0.292945611386423
40
0.292945611386423
40
0.361358916855459
40
0.361358916855459
40
0.429772222324496
40
0.429772222324496
40
0.498185527793532
40
0.498185527793532
40
0.566598833262569
40
0.566598833262569
40
0.635012138731606
40
0.635012138731606
40
0.703425444200642
40
0.703425444200642
40
0.771838749669678
40
0.771838749669678
40
0.840252055138715
40
0.840252055138715
40
0.908665360607752
40
0.908665360607752
40
0.977078666076788
40
0.977078666076788
40
1
40
1
40
1
40
1
41
1
10
31.7224203718757
20
-0.243079790485496
30
0
41
1
10
31.6501664804007
20
-0.203653480064588
30
0
41
1
10
31.577909903601
20
-0.164204938344909
30
0
41
1
10
30.9930812466343
20
0.155035972069754
30
0
41
1
10
30.4807537307077
20
0.436738741065511
30
0
41
1
10
29.7071435951456
20
0.851770193532218
30
-1E-16
41
1
10
29.4485728875947
20
0.989177226389131
30
-1E-16
41
1
10
28.9291697467424
20
1.26048821880732
30
-1E-16
41
1
10
28.6690821077675
20
1.39374583251532
30
-1E-16
41
1
10
28.1494703249785
20
1.6535146916668
30
-1E-16
41
1
10
27.8902731177073
20
1.7799987854803
30
-1E-16
41
1
10
27.3721300963352
20
2.0248726830429
30
-1E-16
41
1
10
27.1128530774062
20
2.14323679218671
30
-1E-16
41
1
10
26.593851445293
20
2.37076192217816
30
-1E-16
41
1
10
26.3337545371602
20
2.47999726052291
30
-2E-16
41
1
10
25.8157505504248
20
2.68664727246863
30
-2E-16
41
1
10
25.5573455380966
20
2.78434871414584
30
-2E-16
41
1
10
25.0416645054642
20
2.96735423742538
30
-2E-16
41
1
10
24.7845035886419
20
3.0524933483093
30
-2E-16
41
1
10
24.2702597092694
20
3.20987057814335
30
-2E-16
41
1
10
24.0130749981411
20
3.28227501382739
30
0
41
1
10
23.4983443546495
20
3.41316764910869
30
0
41
1
10
23.2409960913836
20
3.47115583225221
30
0
41
1
10
22.7246860744519
20
3.57350923300061
30
0
41
1
10
22.4657394592803
20
3.61798166369042
30
0
41
1
10
21.9460478065536
20
3.69133583707853
30
0
41
1
10
21.6871709561482
20
3.71907464341533
30
0
41
1
10
21.1710299603994
20
3.76028531483911
30
0
41
1
10
20.9134741120773
20
3.7736696164138
30
0
41
1
10
20.5704102566412
20
3.78080482401148
30
0
41
1
10
20.4844117609952
20
3.78159406185733
30
0
41
1
10
20.398472429821
20
3.78145116228254
30
0
0
SPLINE
5
FD
100
AcDbEntity
8
1
62
256
6
ByLayer
370
18
48
1
60
0
100
AcDbSpline
70
4
71
3
72
24
73
20
40
0
40
0
40
0
40
0
40
0.0820675774313428
40
0.0820675774313428
40
0.318056978512733
40
0.318056978512733
40
0.43605167905343
40
0.43605167905343
40
0.554046379594127
40
0.554046379594127
40
0.672041080134824
40
0.672041080134824
40
0.790035780675522
40
0.790035780675522
40
0.908030481216219
40
0.908030481216219
40
0.967027831486566
40
0.967027831486566
40
1
40
1
40
1
40
1
41
1
10
4.38285030493876
20
-3.09999520017374
30
2E-16
41
1
10
4.30764915477911
20
-3.1290086539185
30
2E-16
41
1
10
4.23298371442033
20
-3.15780897757148
30
2E-16
41
1
10
3.94583005939194
20
-3.26850400830514
30
2E-16
41
1
10
3.73746344005761
20
-3.34868702548198
30
2E-16
41
1
10
3.43423977797235
20
-3.46463908045766
30
0
41
1
10
3.33473195006027
20
-3.50256299252038
30
0
41
1
10
3.13948763135153
20
-3.5765930636147
30
0
41
1
10
3.04349681413575
20
-3.61279502860097
30
0
41
1
10
2.85739669098217
20
-3.68242422745843
30
0
41
1
10
2.76771351220023
20
-3.71569340029856
30
0
41
1
10
2.59669543267449
20
-3.77834960568373
30
0
41
1
10
2.514984909459
20
-3.80787077633329
30
0
41
1
10
2.36421468661101
20
-3.8611979200675
30
0
41
1
10
2.29552932800436
20
-3.88487642688568
30
0
41
1
10
2.20523737956282
20
-3.91473730529753
30
0
41
1
10
2.17727518654934
20
-3.92374305118983
30
0
41
1
10
2.13753290698528
20
-3.93608081675643
30
0
41
1
10
2.12402444216806
20
-3.94017102744809
30
0
41
1
10
2.11141890851204
20
-3.94387297331022
30
0
0
SPLINE
5
FE
100
AcDbEntity
8
1
62
256
6
ByLayer
370
18
48
1
60
0
100
AcDbSpline
70
4
71
3
72
50
73
46
40
0
40
0
40
0
40
0
40
0.003086331989126
40
0.003086331989126
40
0.0268223717036751
40
0.0268223717036751
40
0.0505584114182243
40
0.0505584114182243
40
0.0980304908473223
40
0.0980304908473223
40
0.14550257027642
40
0.14550257027642
40
0.169238609990969
40
0.169238609990969
40
0.192974649705518
40
0.192974649705518
40
0.240446729134618
40
0.240446729134618
40
0.287918808563718
40
0.287918808563718
40
0.335390887992818
40
0.335390887992818
40
0.430335046851019
40
0.430335046851019
40
0.442203066708296
40
0.448137076636934
40
0.448137076636934
40
0.451104081601252
40
0.451104081601252
40
0.454071086565571
40
0.454071086565571
40
0.460005096494205
40
0.460005096494205
40
0.465939106422838
40
0.465939106422838
40
0.477807126280109
40
0.525279205709189
40
0.525279205709189
40
0.620223364567351
40
0.620223364567351
40
0.715167523425513
40
0.715167523425513
40
0.810111682283674
40
0.810111682283674
40
1
40
1
40
1
40
1
41
1
10
2.00741121335884
20
-3.96778498915543
30
0
41
1
10
2.00651051625795
20
-3.96779580275856
30
0
41
1
10
2.00567244354346
20
-3.96778066531704
30
0
41
1
10
1.99893848799726
20
-3.96742162152466
30
0
41
1
10
1.99681692224706
20
-3.96551739471963
30
0
41
1
10
2.00042035035483
20
-3.95866373969849
30
0
41
1
10
2.00608093230218
20
-3.9537194958848
30
0
41
1
10
2.03430262930027
20
-3.93452258422695
30
0
41
1
10
2.06883939435718
20
-3.91556270899054
30
0
41
1
10
2.1613632378876
20
-3.86936342843578
30
0
41
1
10
2.21921586599171
20
-3.84211929768696
30
0
41
1
10
2.31996843190774
20
-3.79646862807627
30
0
41
1
10
2.35589036276397
20
-3.78045402082188
30
0
41
1
10
2.43065310169908
20
-3.74758131514224
30
0
41
1
10
2.46964593384354
20
-3.73065382392974
30
0
41
1
10
2.59080323801666
20
-3.67864256071889
30
0
41
1
10
2.67711523830104
20
-3.64234143528304
30
0
41
1
10
2.85842954100036
20
-3.5673854974938
30
0
41
1
10
2.95374217750688
20
-3.52860809805469
30
0
41
1
10
3.14980682997836
20
-3.44996797782719
30
0
41
1
10
3.25055636175998
20
-3.41010171559933
30
2E-16
41
1
10
3.5594548235199
20
-3.28937560197818
30
2E-16
41
1
10
3.77415943156623
20
-3.20742898166543
30
2E-16
41
1
10
4.02103988081029
20
-3.11519272485995
30
2E-16
41
1
10
4.06230404869103
20
-3.09981668263859
30
2E-16
41
1
10
4.10373636255056
20
-3.08443809265748
30
2E-16
41
1
10
4.12447948660014
20
-3.07674871631531
30
2E-16
41
1
10
4.13141734407105
20
-3.07416833852915
30
2E-16
41
1
10
4.14612164316623
20
-3.07023588706252
30
2E-16
41
1
10
4.15386123923258
20
-3.06877852393538
30
2E-16
41
1
10
4.17722894106325
20
-3.06593516533184
30
2E-16
41
1
10
4.19334274106825
20
-3.06572513431502
30
2E-16
41
1
10
4.22491365998579
20
-3.06790135990022
30
2E-16
41
1
10
4.24042053294213
20
-3.07049023027426
30
2E-16
41
1
10
4.28645531161189
20
-3.07879015193413
30
2E-16
41
1
10
4.43974597008179
20
-3.10669486697731
30
2E-16
41
1
10
4.59224839653305
20
-3.13572451512061
30
2E-16
41
1
10
4.9565289841459
20
-3.20706990956964
30
2E-16
41
1
10
5.19688400188622
20
-3.25684078019239
30
2E-16
41
1
10
5.6730205648156
20
-3.35807766799138
30
2E-16
41
1
10
5.90907984695983
20
-3.40958771213713
30
2E-16
41
1
10
6.37521165089035
20
-3.51071255409278
30
0
41
1
10
6.60544671812963
20
-3.56034411695074
30
0
41
1
10
7.28927189668664
20
-3.7017222325095
30
0
41
1
10
7.73591248264594
20
-3.78574982694406
30
0
41
1
10
8.17850707310566
20
-3.84874677819522
30
0
0
SPLINE
5
FF
100
AcDbEntity
8
1
62
256
6
ByLayer
370
18
48
1
60
0
100
AcDbSpline
70
4
71
3
72
31
73
27
40
0
40
0
40
0
40
0
40
0.140904566495818
40
0.140904566495818
40
0.281809132991637
40
0.281809132991637
40
0.352261416239545
40
0.352261416239545
40
0.422713699487455
40
0.422713699487455
40
0.563618265983276
40
0.563618265983276
40
0.634070549231186
40
0.634070549231186
40
0.704522832479097
40
0.704522832479097
40
0.774975115727008
40
0.810201257350963
40
0.810201257350963
40
0.845427398974918
40
0.845427398974918
40
0.915879682222826
40
0.915879682222826
40
0.986331965470733
40
0.986331965470733
40
1
40
1
40
1
40
1
41
1
10
53.1160820701573
20
-0.0471413655404262
30
0
41
1
10
52.5996541854671
20
0.235775522965412
30
0
41
1
10
52.0865970273842
20
0.517866893711982
30
0
41
1
10
51.0604397969816
20
1.06831422348645
30
-1E-16
41
1
10
50.5475946123662
20
1.33677068033879
30
-1E-16
41
1
10
49.7742575104192
20
1.72162984388348
30
-1E-16
41
1
10
49.5157961469203
20
1.84693318620168
30
-1E-16
41
1
10
48.9967639033072
20
2.09013094164101
30
-1E-16
41
1
10
48.7374905078039
20
2.20742722312571
30
-1E-16
41
1
10
47.9633600470429
20
2.54327296347699
30
-2E-16
41
1
10
47.4506060792203
20
2.74631788025212
30
-2E-16
41
1
10
46.682572650653
20
3.01453371414681
30
-2E-16
41
1
10
46.4267443573137
20
3.09785031956054
30
-2E-16
41
1
10
45.9149163224825
20
3.25093917730121
30
0
41
1
10
45.6588730062348
20
3.32083853669326
30
0
41
1
10
45.1453200680416
20
3.44773765425418
30
0
41
1
10
44.7591128350621
20
3.53310212219608
30
0
41
1
10
44.3707466553887
20
3.60233200474519
30
0
41
1
10
44.1112873362215
20
3.64473771307752
30
0
41
1
10
43.9811489014415
20
3.66408263713001
30
0
41
1
10
43.5922054971348
20
3.71594137100982
30
0
41
1
10
43.3342241593345
20
3.74229066403319
30
0
41
1
10
42.8202961457831
20
3.77798394593975
30
0
41
1
10
42.5638882311825
20
3.78829632686222
30
0
41
1
10
42.2578379200053
20
3.79217302233207
30
0
41
1
10
42.2081204023708
20
3.79251916548995
30
0
41
1
10
42.1584131737543
20
3.79257417912518
30
0
0
SPLINE
5
100
100
AcDbEntity
8
1
62
256
6
ByLayer
370
18
48
1
60
0
100
AcDbSpline
70
4
71
3
72
22
73
18
40
0
40
0
40
0
40
0
40
0.0181640119422506
40
0.0181640119422506
40
0.140893510449469
40
0.140893510449469
40
0.263623008956687
40
0.263623008956687
40
0.386352507463906
40
0.386352507463906
40
0.509082005971124
40
0.509082005971124
40
0.631811504478342
40
0.631811504478342
40
0.754541002985561
40
0.754541002985561
40
1
40
1
40
1
40
1
41
1
10
9.95476926351697
20
-0.234383160970907
30
0
41
1
10
9.91681507478381
20
-0.213726427604342
30
0
41
1
10
9.87886485719594
20
-0.19305410916428
30
0
41
1
10
9.58452315141588
20
-0.0325875283685377
30
0
41
1
10
9.32820806868685
20
0.107706855835602
30
0
41
1
10
8.8145135264613
20
0.386969023935904
30
0
41
1
10
8.55720298266115
20
0.526075569412626
30
0
41
1
10
8.0414034077418
20
0.802838656879658
30
0
41
1
10
7.78286360390817
20
0.940391246701267
30
-1E-16
41
1
10
7.26338764788639
20
1.21167944672314
30
-1E-16
41
1
10
7.00323236234019
20
1.34509050536243
30
-1E-16
41
1
10
6.48589703485209
20
1.60487096708658
30
-1E-16
41
1
10
6.22784659889726
20
1.7313396624391
30
-1E-16
41
1
10
5.71162702799887
20
1.97602863789578
30
-1E-16
41
1
10
5.45362506748379
20
2.09434782847913
30
-1E-16
41
1
10
4.67958330171197
20
2.43574042234735
30
-1E-16
41
1
10
4.16361107489044
20
2.64528451196429
30
-2E-16
41
1
10
3.64540807596475
20
2.83171223564719
30
-2E-16
0
SPLINE
5
101
100
AcDbEntity
8
1
62
256
6
ByLayer
370
18
48
1
60
0
100
AcDbSpline
70
4
71
3
72
8
73
4
40
0
40
0
40
0
40
0
40
1
40
1
40
1
40
1
41
1
10
3.65201614132061
20
2.98657491019893
30
-2E-16
41
1
10
3.65141716027921
20
2.9393846661055
30
-2E-16
41
1
10
3.65080743414933
20
2.89218733174818
30
-2E-16
41
1
10
3.65018685943073
20
2.84498236607604
30
-2E-16
0
SPLINE
5
102
100
AcDbEntity
8
1
62
256
6
ByLayer
370
18
48
1
60
0
100
AcDbSpline
70
4
71
3
72
20
73
16
40
0
40
0
40
0
40
0
40
0.0625000000000007
40
0.0625000000000007
40
0.125000000000001
40
0.125000000000001
40
0.250000000000003
40
0.250000000000003
40
0.375000000000004
40
0.375000000000004
40
0.500000000000005
40
0.500000000000005
40
0.750000000000003
40
0.750000000000003
40
1
40
1
40
1
40
1
41
1
10
54.6481376474972
20
1.23607755394369
30
0
41
1
10
54.6207239184317
20
1.28124137255622
30
0
41
1
10
54.5935087082233
20
1.3281461259794
30
0
41
1
10
54.5404459401346
20
1.42380050839648
30
0
41
1
10
54.5146250129419
20
1.47247907937702
30
0
41
1
10
54.4391317250448
20
1.62102569093548
30
0
41
1
10
54.3914350482964
20
1.72340497298668
30
0
41
1
10
54.3002738322169
20
1.93457539338817
30
0
41
1
10
54.2567881098429
20
2.04363604314719
30
0
41
1
10
54.1728715131223
20
2.26667278131813
30
0
41
1
10
54.1313809293771
20
2.37841034274174
30
0
41
1
10
54.0081618336123
20
2.71426367877407
30
0
41
1
10
53.9278105843585
20
2.93884212428549
30
0
41
1
10
53.768921866463
20
3.38760448434451
30
0
41
1
10
53.6902973794884
20
3.61190168936525
30
0
41
1
10
53.6113168921573
20
3.83413156135944
30
0
0
SPLINE
5
103
100
AcDbEntity
8
SK1
62
256
6
ByLayer
370
18
48
1
60
0
100
AcDbSpline
70
4
71
3
72
8
73
4
40
0
40
0
40
0
40
0
40
1
40
1
40
1
40
1
41
1
10
-35.6009618943233
20
-1.45818522764427
30
1E-16
41
1
10
-35.5673240158259
20
-1.4664192577311
30
1E-16
41
1
10
-35.5336695391936
20
-1.47464950300764
30
1E-16
41
1
10
-35.5
20
-1.48287631362498
30
1E-16
0
SPLINE
5
104
100
AcDbEntity
8
SK1
62
256
6
ByLayer
370
18
48
1
60
0
100
AcDbSpline
70
4
71
3
72
8
73
4
40
0
40
0
40
0
40
0
40
1
40
1
40
1
40
1
41
1
10
-35.5
20
-0.0258998594485433
30
0
41
1
10
-35.5336695123895
20
-0.0176730553805271
30
0
41
1
10
-35.5673239881668
20
-0.0094428103251687
30
0
41
1
10
-35.6009618943233
20
-0.0012087734678516
30
0
0
SPLINE
5
105
100
AcDbEntity
8
SK1
62
256
6
ByLayer
370
18
48
1
60
0
100
AcDbSpline
70
4
71
3
72
10
73
6
40
0
40
0
40
0
40
0
40
0.5
40
0.5
40
1
40
1
40
1
40
1
41
1
10
-35.6009618943233
20
-1.45818522764427
30
1E-16
41
1
10
-35.657625994603
20
-1.53394107443529
30
1E-16
41
1
10
-35.7212304684705
20
-1.59442626964645
30
1E-16
41
1
10
-35.8564778377541
20
-1.69231674734493
30
1E-16
41
1
10
-35.9271669955654
20
-1.72903695933783
30
1E-16
41
1
10
-36.0000000000001
20
-1.75659230252541
30
1E-16
0
SPLINE
5
106
100
AcDbEntity
8
SK1
62
256
6
ByLayer
370
18
48
1
60
0
100
AcDbSpline
70
4
71
3
72
10
73
6
40
0
40
0
40
0
40
0
40
0.5
40
0.5
40
1
40
1
40
1
40
1
41
1
10
-36.0000000000001
20
-0.574570024156998
30
0
41
1
10
-35.9272396278271
20
-0.496087738896478
30
0
41
1
10
-35.8568055726535
20
-0.410392842815554
30
0
41
1
10
-35.7224295033876
20
-0.220014334976611
30
0
41
1
10
-35.6578574543336
20
-0.114164871471587
30
0
41
1
10
-35.6009618943233
20
0.0012087734678516
30
0
0
SPLINE
5
107
100
AcDbEntity
8
SK1
62
256
6
ByLayer
370
18
48
1
60
0
100
AcDbSpline
70
4
71
3
72
12
73
8
40
0
40
0
40
0
40
0
40
0.500000000000002
40
0.500000000000002
40
0.750000000000001
40
0.750000000000001
40
1
40
1
40
1
40
1
41
1
10
-35.5
20
-1.4828763136251
30
1E-16
41
1
10
-35.4764535706457
20
-1.48862964496411
30
1E-16
41
1
10
-35.453758325367
20
-1.48688128842298
30
1E-16
41
1
10
-35.4256589034923
20
-1.47167669112187
30
1E-16
41
1
10
-35.4170915256394
20
-1.46428693763701
30
1E-16
41
1
10
-35.4042768359918
20
-1.44396631722373
30
1E-16
41
1
10
-35.4
20
-1.43061493144862
30
1E-16
41
1
10
-35.4
20
-1.41522386873171
30
1E-16
0
SPLINE
5
108
100
AcDbEntity
8
SK1
62
256
6
ByLayer
370
18
48
1
60
0
100
AcDbSpline
70
4
71
3
72
12
73
8
40
0
40
0
40
0
40
0
40
0.250000000000001
40
0.250000000000001
40
0.500000000000002
40
0.500000000000002
40
1
40
1
40
1
40
1
41
1
10
-35.4
20
-0.152510941778814
30
0
41
1
10
-35.4
20
-0.13553611965952
30
0
41
1
10
-35.4042405317345
20
-0.118709843226242
30
0
41
1
10
-35.4170629445097
20
-0.0895279250219687
30
0
41
1
10
-35.4255309618335
20
-0.077005119198418
30
0
41
1
10
-35.4538111153162
20
-0.0453041926389233
30
0
41
1
10
-35.4764597265186
20
-0.0316516866622862
30
0
41
1
10
-35.5
20
-0.0258998594484297
30
0
0
SPLINE
5
109
100
AcDbEntity
8
SK1
62
256
6
ByLayer
370
18
48
1
60
0
100
AcDbSpline
70
4
71
3
72
10
73
6
40
0
40
0
40
0
40
0
40
0.5
40
0.5
40
1
40
1
40
1
40
1
41
1
10
-36.0000000000001
20
0.574570024156998
30
0
41
1
10
-35.9272396278271
20
0.496087738896478
30
0
41
1
10
-35.8568055726535
20
0.410392842815554
30
0
41
1
10
-35.7224295033876
20
0.220014334976611
30
0
41
1
10
-35.6578574543336
20
0.114164871471587
30
0
41
1
10
-35.6009618943233
20
-0.0012087734678516
30
0
0
SPLINE
5
10A
100
AcDbEntity
8
1
62
256
6
ByLayer
370
18
48
1
60
0
100
AcDbSpline
70
4
71
3
72
11
73
7
40
0
40
0
40
0
40
0
40
0.0927877513433736
40
0.317598794756264
40
0.628717419092894
40
1
40
1
40
1
40
1
41
1
10
53.5854116836872
20
0.902187403725463
30
-1E-16
41
1
10
53.4402038045933
20
0.950658234839295
30
-1E-16
41
1
10
52.9438760471305
20
1.1187627488008
30
-1E-16
41
1
10
51.9666494842182
20
1.4689483469154
30
-1E-16
41
1
10
50.566076575543
20
2.00179065178858
30
-1E-16
41
1
10
49.5237173426621
20
2.43173385624718
30
-1E-16
41
1
10
48.9596996185487
20
2.67402877594367
30
-2E-16
0
SPLINE
5
10B
100
AcDbEntity
8
1
62
256
6
ByLayer
370
18
48
1
60
0
100
AcDbSpline
70
4
71
3
72
30
73
26
40
0
40
0
40
0
40
0
40
1.36406567014E-05
40
3.89437561169E-05
40
6.00823883755E-05
40
7.77614703709E-05
40
8.57883735963E-05
40
0.0001329951704692
40
0.0001697908769006
40
0.0002355873512914
40
0.0003537941935537
40
0.0005665752920765
40
0.0009519574744846
40
0.0016574272143382
40
0.0029724096822523
40
0.0054971064505645
40
0.0490234625651377
40
0.167194073689837
40
0.300838740535734
40
0.435172713413045
40
0.512904935591083
40
0.591755449449051
40
0.699287659729688
40
0.841658722810476
40
1
40
1
40
1
40
1
41
1
10
34.295334543889
20
0.130895967420571
30
0
41
1
10
34.2953458215344
20
0.130893811086338
30
0
41
1
10
34.2953737908626
20
0.130888910118301
30
0
41
1
10
34.2953958296335
20
0.130887550651266
30
0
41
1
10
34.2953788548276
20
0.130897681492513
30
0
41
1
10
34.295328957438
20
0.130915518755074
30
0
41
1
10
34.2951974541618
20
0.130957194448513
30
0
41
1
10
34.2949683010041
20
0.131024447433816
30
0
41
1
10
34.2946247352156
20
0.131126449146251
30
0
41
1
10
34.2941057715512
20
0.131279787034345
30
0
41
1
10
34.2931862080464
20
0.131552523608775
30
0
41
1
10
34.2915167709983
20
0.132046773706094
30
0
41
1
10
34.2884808037674
20
0.132945375372145
30
0
41
1
10
34.2828649002884
20
0.134605292198728
30
0
41
1
10
34.2722278357504
20
0.137743614945492
30
0
41
1
10
34.1608392060073
20
0.170500542781355
30
0
41
1
10
33.7657044994628
20
0.285886197384684
30
0
41
1
10
33.0573146502161
20
0.501513649304457
30
0
41
1
10
32.1350908700942
20
0.798424272608059
30
0
41
1
10
31.3140244033259
20
1.07840938025319
30
-1E-16
41
1
10
30.626294801507
20
1.32310066045721
30
-1E-16
41
1
10
30.0041135953887
20
1.55123687033603
30
-1E-16
41
1
10
29.2327352983603
20
1.84407382225726
30
-1E-16
41
1
10
28.2800147723408
20
2.22167861708542
30
-1E-16
41
1
10
27.5835428661232
20
2.51291519598701
30
-2E-16
41
1
10
27.218218692678
20
2.66983324081699
30
-2E-16
0
SPLINE
5
10C
100
AcDbEntity
8
1
62
256
6
ByLayer
370
18
48
1
60
0
100
AcDbSpline
70
4
71
3
72
24
73
20
40
0
40
0
40
0
40
0
40
1.18947262336E-05
40
2.15772351022E-05
40
3.81528772544E-05
40
6.86284278785E-05
40
0.0001236424972223
40
0.0002231529783201
40
0.000404943156771
40
0.0062666418598553
40
0.0522110485307592
40
0.135638330469329
40
0.220341776429111
40
0.297408015279355
40
0.366850659981539
40
0.469647395525969
40
0.613908923342036
40
0.799832053097459
40
1
40
1
40
1
40
1
41
1
10
12.7521161438637
20
0.0693738087047961
30
0
41
1
10
12.7521030610489
20
0.0693794107914698
30
0
41
1
10
12.7520654988644
20
0.0693946961994243
30
0
41
1
10
12.7520023098255
20
0.0694209480477639
30
0
41
1
10
12.7518960594096
20
0.0694643497316747
30
0
41
1
10
12.7517220225673
20
0.0695359602280234
30
0
41
1
10
12.7513962484587
20
0.0696688466553042
30
0
41
1
10
12.7508033282557
20
0.0699085984095404
30
0
41
1
10
12.7397368491534
20
0.0743018121368095
30
0
41
1
10
12.6237619938865
20
0.111044660702191
30
0
41
1
10
12.2914874605172
20
0.203556576787662
30
0
41
1
10
11.769992210039
20
0.360607200533082
30
0
41
1
10
11.1713651778133
20
0.545954678398346
30
0
41
1
10
10.6093276260463
20
0.727179624200829
30
0
41
1
10
10.0047776382072
20
0.928339838452814
30
-1E-16
41
1
10
9.24002740053314
20
1.19224067873208
30
-1E-16
41
1
10
8.19907954382089
20
1.56978738736243
30
-1E-16
41
1
10
6.93238973350057
20
2.05769528394262
30
-1E-16
41
1
10
6.01859733528013
20
2.43575947402505
30
-1E-16
41
1
10
5.54697896388964
20
2.63780866317862
30
-2E-16
0
SPLINE
5
10D
100
AcDbEntity
8
1
62
256
6
ByLayer
370
18
48
1
60
0
100
AcDbSpline
70
4
71
3
72
19
73
15
40
0
40
0
40
0
40
0
40
0.110545548762336
40
0.183482187393007
40
0.236385144640945
40
0.298175774906815
40
0.367797908367072
40
0.512086029579209
40
0.626380390673012
40
0.734947044925362
40
0.851801296624019
40
0.918574142343412
40
0.99521543418369
40
1
40
1
40
1
40
1
41
1
10
32.732781550591
20
-3.78724924724506
30
0
41
1
10
33.0024957219371
20
-3.78746065001715
30
0
41
1
10
33.4501331672616
20
-3.7877781789276
30
0
41
1
10
34.0265345574481
20
-3.78810752959564
30
0
41
1
10
34.484339307181
20
-3.788341634989
30
0
41
1
10
34.9339743295371
20
-3.78842875166615
30
0
41
1
10
35.6061102048352
20
-3.78949648419325
30
0
41
1
10
36.4070703834164
20
-3.78884406124757
30
0
41
1
10
37.3027890241505
20
-3.79106710287098
30
0
41
1
10
38.1316438857657
20
-3.78948812411892
30
0
41
1
10
38.8445386588761
20
-3.79190811736126
30
0
41
1
10
39.4795375379489
20
-3.79066579676027
30
0
41
1
10
39.8411138053553
20
-3.7918093541854
30
0
41
1
10
40.0397757398509
20
-3.79209702931507
30
0
41
1
10
40.0514490672687
20
-3.79211281705653
30
0
0
SPLINE
5
10E
100
AcDbEntity
8
1
62
256
6
ByLayer
370
18
48
1
60
0
100
AcDbSpline
70
4
71
3
72
18
73
14
40
0
40
0
40
0
40
0
40
0.10905812660213
40
0.181766618160653
40
0.233918099418466
40
0.292496684008201
40
0.35681724743496
40
0.488542530470115
40
0.609987031932039
40
0.730144389136166
40
0.854610636909853
40
0.923140175927392
40
1
40
1
40
1
40
1
41
1
10
10.9810136005759
20
-3.77360142647504
30
0
41
1
10
11.2456566417885
20
-3.77386513216095
30
0
41
1
10
11.6867227759637
20
-3.77426195775351
30
0
41
1
10
12.2540946435827
20
-3.77452825428625
30
0
41
1
10
12.6993014367632
20
-3.77489355153756
30
0
41
1
10
13.1240512783712
20
-3.77544367070473
30
0
41
1
10
13.7415302117714
20
-3.77578819712949
30
0
41
1
10
14.5121241746641
20
-3.77662513101737
30
0
41
1
10
15.4180647250394
20
-3.77724294897061
30
0
41
1
10
16.3064373327189
20
-3.77797936864204
30
0
41
1
10
17.0663863577647
20
-3.77886053185813
30
0
41
1
10
17.7212607058032
20
-3.77942572025469
30
0
41
1
10
18.0740864158452
20
-3.77916164272599
30
0
41
1
10
18.2606060969985
20
-3.77922965043379
30
0
0
SPLINE
5
10F
100
AcDbEntity
8
1
62
256
6
ByLayer
370
18
48
1
60
0
100
AcDbSpline
70
4
71
3
72
21
73
17
40
0
40
0
40
0
40
0
40
0.0924304831851054
40
0.166387411142426
40
0.258898503724794
40
0.319564513955623
40
0.380463864236706
40
0.446047173046451
40
0.516662321321526
40
0.590342185638277
40
0.666585567187916
40
0.800438148604596
40
0.919308068001924
40
0.956104163813808
40
0.990736027488186
40
1
40
1
40
1
40
1
41
1
10
42.1748612598633
20
3.79256941551066
30
0
41
1
10
41.9495928252568
20
3.7925835557042
30
0
41
1
10
41.5440004923572
20
3.79264012722322
30
0
41
1
10
40.9125749264992
20
3.79156126327675
30
0
41
1
10
40.3586326997466
20
3.7931676591339
30
0
41
1
10
39.8368717579928
20
3.79134208920942
30
0
41
1
10
39.3803529461057
20
3.79094774257317
30
0
41
1
10
38.8996722233976
20
3.7916531432293
30
0
41
1
10
38.3877917046541
20
3.79056834624058
30
0
41
1
10
37.8499212884059
20
3.79005854804507
30
0
41
1
10
37.1578176157064
20
3.79087222316045
30
0
41
1
10
36.3555005906956
20
3.78898707241729
30
0
41
1
10
35.649388863711
20
3.78947659232986
30
0
41
1
10
35.1852714517987
20
3.7887426169977
30
0
41
1
10
34.9884706923172
20
3.78862916269844
30
0
41
1
10
34.8814154089972
20
3.78859091091914
30
0
41
1
10
34.8588220758329
20
3.78858349698984
30
0
0
SPLINE
5
110
100
AcDbEntity
8
1
62
256
6
ByLayer
370
18
48
1
60
0
100
AcDbSpline
70
4
71
3
72
22
73
18
40
0
40
0
40
0
40
0
40
0.0955667409726752
40
0.171641586231646
40
0.25831347025713
40
0.311910047602452
40
0.365089068881918
40
0.421992071554461
40
0.485018338849571
40
0.553253209939367
40
0.62536709224442
40
0.697965824742636
40
0.787008217287379
40
0.860617691017748
40
0.932852842573692
40
0.984556879916628
40
1
40
1
40
1
40
1
41
1
10
20.4206123384795
20
3.78157551285079
30
0
41
1
10
20.1898478915001
20
3.78088533711457
30
0
41
1
10
19.7752784264827
20
3.77996207656591
30
0
41
1
10
19.1510074545661
20
3.78054735662323
30
0
41
1
10
18.6280619559805
20
3.77971026730774
30
0
41
1
10
18.1610413001836
20
3.77906071304466
30
0
41
1
10
17.7653849043932
20
3.77925176187762
30
0
41
1
10
17.3470466281987
20
3.77950043684746
30
0
41
1
10
16.8922913534153
20
3.77800018194415
30
0
41
1
10
16.4007835081698
20
3.77791091377799
30
0
41
1
10
15.886139047187
20
3.77831595789681
30
0
41
1
10
15.3212090300671
20
3.77686809675575
30
0
41
1
10
14.7526630236155
20
3.77685889610558
30
0
41
1
10
14.1849954187602
20
3.77618651379814
30
0
41
1
10
13.7075669630053
20
3.77577241214641
30
0
41
1
10
13.3707103395249
20
3.77563517517316
30
0
41
1
10
13.2084354953161
20
3.77551552833918
30
0
41
1
10
13.1711142094804
20
3.77548596398134
30
0
0
SPLINE
5
111
100
AcDbEntity
8
1
62
256
6
ByLayer
370
18
48
1
60
0
100
AcDbSpline
70
4
71
2
72
6
73
3
40
0
40
0
40
0
40
1
40
1
40
1
41
1
10
43.6048308887294
20
0.0024836712858303
30
0
41
1
10
43.6047950888322
20
0.0024997244655935
30
0
41
1
10
43.6047592896409
20
0.0025167838891491
30
0
0
LINE
5
84
100
AcDbEntity
8
1
62
256
6
ByLayer
370
18
48
1
60
0
100
AcDbLine
10
54.94422
20
0.048153
30
0
11
53.99723
21
1.093466
31
0
39
0
210
0
220
0
230
1
0
LINE
5
85
100
AcDbEntity
8
1
62
256
6
ByLayer
370
18
48
1
60
0
100
AcDbLine
10
0
20
4
30
0
11
0
21
-4
31
0
39
0
210
0
220
0
230
1
0
LINE
5
86
100
AcDbEntity
8
1
62
256
6
ByLayer
370
18
48
1
60
0
100
AcDbLine
10
18
20
1.609028
30
0
11
18
21
1.552841
31
0
39
0
210
0
220
0
230
1
0
LINE
5
87
100
AcDbEntity
8
1
62
256
6
ByLayer
370
18
48
1
60
0
100
AcDbLine
10
3.501712
20
-1.816833
30
0
11
3.501712
21
2.928877
31
0
39
0
210
0
220
0
230
1
0
LINE
5
88
100
AcDbEntity
8
1
62
256
6
ByLayer
370
18
48
1
60
0
100
AcDbLine
10
1
20
0
30
0
11
1
21
3.967159
31
0
39
0
210
0
220
0
230
1
0
LINE
5
89
100
AcDbEntity
8
1
62
256
6
ByLayer
370
18
48
1
60
0
100
AcDbLine
10
1
20
-3.967159
30
0
11
1
21
0
31
0
39
0
210
0
220
0
230
1
0
LINE
5
8A
100
AcDbEntity
8
SK1
62
256
6
ByLayer
370
18
48
1
60
0
100
AcDbLine
10
-35.4
20
-1.415224
30
0
11
-35.4
21
-0.152511
31
0
39
0
210
0
220
0
230
1
0
LINE
5
8C
100
AcDbEntity
8
SK1
62
256
6
ByLayer
370
18
48
1
60
0
100
AcDbLine
10
-35.5
20
-1.482876
30
0
11
-35.5
21
-0.025917
31
0
39
0
210
0
220
0
230
1
0
LINE
5
8D
100
AcDbEntity
8
SK1
62
256
6
ByLayer
370
18
48
1
60
0
100
AcDbLine
10
-34.76
20
-4
30
0
11
-34.76
21
4
31
0
39
0
210
0
220
0
230
1
0
LINE
5
8E
100
AcDbEntity
8
SK1
62
256
6
ByLayer
370
18
48
1
60
0
100
AcDbLine
10
-36
20
-1.756592
30
0
11
-36
21
-0.57457
31
0
39
0
210
0
220
0
230
1
0
LINE
5
8F
100
AcDbEntity
8
SK1
62
256
6
ByLayer
370
18
48
1
60
0
100
AcDbLine
10
-35.600962
20
-1.458185
30
0
11
-35.600962
21
0.001209
31
0
39
0
210
0
220
0
230
1
0
LINE
5
90
100
AcDbEntity
8
SK1
62
256
6
ByLayer
370
18
48
1
60
0
100
AcDbLine
10
-36
20
2.76
30
0
11
-36
21
0.57457
31
0
39
0
210
0
220
0
230
1
0
LINE
5
91
100
AcDbEntity
8
SK1
62
256
6
ByLayer
370
18
48
1
60
0
100
AcDbLine
10
0
20
4
30
0
11
0
21
-4
31
0
39
0
210
0
220
0
230
1
0
LINE
5
92
100
AcDbEntity
8
SK1
62
256
6
ByLayer
370
18
48
1
60
0
100
AcDbLine
10
-36
20
-2.76
30
0
11
-36
21
-1.756592
31
0
39
0
210
0
220
0
230
1
0
LINE
5
93
100
AcDbEntity
8
1
62
256
6
ByLayer
370
18
48
1
60
0
100
AcDbLine
10
20.42137
20
-3.979297
30
0
11
21.430314
21
-3.979928
31
0
39
0
210
0
220
0
230
1
0
LINE
5
94
100
AcDbEntity
8
1
62
256
6
ByLayer
370
18
48
1
60
0
100
AcDbLine
10
21.430314
20
3.979928
30
0
11
20.42137
21
3.979297
31
0
39
0
210
0
220
0
230
1
0
LINE
5
95
100
AcDbEntity
8
1
62
256
6
ByLayer
370
18
48
1
60
0
100
AcDbLine
10
1
20
3.967159
30
0
11
0
21
4
31
0
39
0
210
0
220
0
230
1
0
LINE
5
96
100
AcDbEntity
8
1
62
256
6
ByLayer
370
18
48
1
60
0
100
AcDbLine
10
0
20
-4
30
0
11
1
21
-3.967159
31
0
39
0
210
0
220
0
230
1
0
LINE
5
97
100
AcDbEntity
8
SK1
62
256
6
ByLayer
370
18
48
1
60
0
100
AcDbLine
10
-36
20
-2.76
30
0
11
-34.76
21
-4
31
0
39
0
210
0
220
0
230
1
0
LINE
5
98
100
AcDbEntity
8
SK1
62
256
6
ByLayer
370
18
48
1
60
0
100
AcDbLine
10
-34.76
20
4
30
0
11
-36
21
2.76
31
0
39
0
210
0
220
0
230
1
0
LINE
5
99
100
AcDbEntity
8
SK1
62
256
6
ByLayer
370
18
48
1
60
0
100
AcDbLine
10
-34.76
20
-4
30
0
11
0
21
-4
31
0
39
0
210
0
220
0
230
1
0
LINE
5
9A
100
AcDbEntity
8
SK1
62
256
6
ByLayer
370
18
48
1
60
0
100
AcDbLine
10
0
20
4
30
0
11
-34.76
21
4
31
0
39
0
210
0
220
0
230
1
0
LINE
5
9B
100
AcDbEntity
8
1
62
256
6
ByLayer
370
18
48
1
60
0
100
AcDbLine
10
1
20
-3.967159
30
0
11
2.017888
21
-3.967795
31
0
39
0
210
0
220
0
230
1
0
LINE
5
9C
100
AcDbEntity
8
1
62
256
6
ByLayer
370
18
48
1
60
0
100
AcDbLine
10
9.904201
20
-3.972724
30
0
11
10.983631
21
-3.973399
31
0
39
0
210
0
220
0
230
1
0
LINE
5
9D
100
AcDbEntity
8
1
62
256
6
ByLayer
370
18
48
1
60
0
100
AcDbLine
10
31.759279
20
-3.986383
30
0
11
32.733917
21
-3.986993
31
0
39
0
210
0
220
0
230
1
0
LINE
5
9E
100
AcDbEntity
8
1
62
256
6
ByLayer
370
18
48
1
60
0
100
AcDbLine
10
42.174305
20
-3.992893
30
0
11
43.159415
21
-3.993509
31
0
39
0
210
0
220
0
230
1
0
LINE
5
9F
100
AcDbEntity
8
1
62
256
6
ByLayer
370
18
48
1
60
0
100
AcDbLine
10
43.159415
20
3.993509
30
0
11
42.174305
21
3.992893
31
0
39
0
210
0
220
0
230
1
0
LINE
5
A0
100
AcDbEntity
8
1
62
256
6
ByLayer
370
18
48
1
60
0
100
AcDbLine
10
32.733917
20
3.986993
30
0
11
31.759279
21
3.986383
31
0
39
0
210
0
220
0
230
1
0
LINE
5
A1
100
AcDbEntity
8
1
62
256
6
ByLayer
370
18
48
1
60
0
100
AcDbLine
10
10.983631
20
3.973399
30
0
11
9.904201
21
3.972724
31
0
39
0
210
0
220
0
230
1
0
LINE
5
A2
100
AcDbEntity
8
1
62
256
6
ByLayer
370
18
48
1
60
0
100
AcDbLine
10
2.017888
20
3.967795
30
0
11
1
21
3.967159
31
0
39
0
210
0
220
0
230
1
0
LINE
5
A3
100
AcDbEntity
8
SK4
62
256
6
ByLayer
370
18
48
0.05
60
0
100
AcDbLine
10
60
20
0
30
0
11
-41
21
0
31
0
39
0
210
0
220
0
230
1
0
LINE
5
A5
100
AcDbEntity
8
4
62
256
6
ByLayer
370
18
48
0.05
60
0
100
AcDbLine
10
-36
20
0
30
0
11
60
21
0
31
0
39
0
210
0
220
0
230
1
0
LINE
5
A7
100
AcDbEntity
8
80
62
256
6
ByLayer
370
18
48
1
60
0
100
AcDbLine
10
0
20
0
30
0
11
-6
21
0
31
0
39
0
210
0
220
0
230
1
0
LINE
5
A8
100
AcDbEntity
8
81
62
256
6
ByLayer
370
18
48
1
60
0
100
AcDbLine
10
55
20
0
30
0
11
61
21
0
31
0
39
0
210
0
220
0
230
1
0
LINE
5
A9
100
AcDbEntity
8
SK2
62
256
6
ByLayer
370
13
48
1
60
0
100
AcDbLine
10
55.542963
20
1.49176
30
0
11
62.926408
21
21.777343
31
0
39
0
210
0
220
0
230
1
0
LINE
5
AB
100
AcDbEntity
8
SK2
62
256
6
ByLayer
370
13
48
1
60
0
100
AcDbLine
10
55.542963
20
-1.49176
30
0
11
62.926408
21
-21.777343
31
0
39
0
210
0
220
0
230
1
0
LINE
5
AC
100
AcDbEntity
8
1
62
256
6
ByLayer
370
13
48
1
60
0
100
AcDbLine
10
61.840482
20
18.793824
30
0
11
64.937069
21
17.977439
31
0
39
0
210
0
220
0
230
1
0
LINE
5
AD
100
AcDbEntity
8
1
62
256
6
ByLayer
370
13
48
1
60
0
100
AcDbLine
10
61.840482
20
18.793824
30
0
11
64.620262
21
17.203799
31
0
39
0
210
0
220
0
230
1
0
LINE
5
AE
100
AcDbEntity
8
1
62
256
6
ByLayer
370
13
48
1
60
0
100
AcDbLine
10
64.937069
20
17.977439
30
0
11
64.620262
21
17.203799
31
0
39
0
210
0
220
0
230
1
0
LINE
5
AF
100
AcDbEntity
8
1
62
256
6
ByLayer
370
13
48
1
60
0
100
AcDbLine
10
61.840482
20
-18.793824
30
0
11
64.620259
21
-17.2038
31
0
39
0
210
0
220
0
230
1
0
LINE
5
B0
100
AcDbEntity
8
1
62
256
6
ByLayer
370
13
48
1
60
0
100
AcDbLine
10
61.840482
20
-18.793824
30
0
11
64.937072
21
-17.977437
31
0
39
0
210
0
220
0
230
1
0
LINE
5
B1
100
AcDbEntity
8
1
62
256
6
ByLayer
370
13
48
1
60
0
100
AcDbLine
10
64.620259
20
-17.2038
30
0
11
64.937072
21
-17.977437
31
0
39
0
210
0
220
0
230
1
0
MTEXT
5
112
100
AcDbEntity
8
SK2
62
256
6
ByLayer
370
18
48
1
60
0
100
AcDbMText
10
68.717388
20
-2.467451
30
0
210
0
220
0
230
1
1
\W0.7237;140.00
40
3.50012
41
0
44
1.084337
50
0
71
7
72
5
7
iso_b_vert
0
MTEXT
5
115
100
AcDbEntity
8
SK6
62
256
6
ByLayer
370
18
48
1
60
0
100
AcDbMText
10
-29.670467
20
-118.292149
30
0
210
0
220
0
230
1
1
\W0.7454;860.1-0800-038A1-GM X1BM
40
3.175
41
0
44
1.084337
50
0
71
7
72
5
7
iso_b_vert
0
DIMENSION
5
118
100
AcDbEntity
8
SK2
62
256
6
ByLayer
370
18
48
1
60
0
100
AcDbDimension
2
_U0
10
55
20
-27.50012
30
0
11
27.5
21
-27.50012
31
0
70
32
71
2
72
1
41
1
210
0
220
0
230
1
3
Standard
100
AcDbAlignedDimension
13
0
23
-4
33
0
14
55
24
0
34
0
50
0
100
AcDbRotatedDimension
1001
ACAD
1000
DSTYLE
1002
{
1070
   371
1070
    13
1070
   372
1070
    13
1070
     3
1000

1070
   170
1070
     0
1070
   144
1040
1.0
1070
   277
1070
     2
1070
   284
1070
     8
1070
   278
1070
    46
1070
   146
1040
0.999966
1070
   345
1005
16
1070
   347
1005
16
1070
   346
1005
16
1070
   344
1005
119
1070
   343
1005
119
1070
   172
1070
     1
1070
    76
1070
     0
1070
    75
1070
     0
1070
   282
1070
     0
1070
   281
1070
     0
1070
    71
1070
     0
1070
    74
1070
     0
1070
   279
1070
     0
1070
   173
1070
     1
1070
   340
1005
113
1070
   271
1070
     1
1070
   272
1070
     2
1070
    77
1070
     1
1070
    73
1070
     1
1070
   171
1070
     3
1070
   274
1070
     4
1070
   177
1070
   150
1070
   176
1070
     9
1070
   178
1070
    43
1070
    78
1070
     8
1070
    48
1040
-0.1
1070
    41
1040
3.175
1070
   147
1040
1.75006
1070
    42
1040
1.5875
1070
    44
1040
3.175
1070
   140
1040
3.50012
1002
}
1001
ACAD_DSTYLE_DIM_LINETYPE
1070
   380
1005
16
1001
ACAD_DSTYLE_DIM_EXT1_LINETYPE
1070
   381
1005
16
1001
ACAD_DSTYLE_DIM_EXT2_LINETYPE
1070
   382
1005
16
0
DIMENSION
5
13E
100
AcDbEntity
8
2
62
256
6
ByLayer
370
18
48
1
60
0
100
AcDbDimension
2
_U1
10
61.75006
20
4
30
0
11
61.75006
21
17.073147
31
0
70
32
71
1
72
1
41
1
210
0
220
0
230
1
3
Standard
100
AcDbAlignedDimension
13
53.5441
23
-4
33
0
14
53.5441
24
4
34
0
50
90
100
AcDbRotatedDimension
1001
ACAD
1000
DSTYLE
1002
{
1070
   371
1070
    13
1070
   372
1070
    13
1070
     3
1000

1070
   170
1070
     0
1070
   144
1040
1.0
1070
   277
1070
     2
1070
   284
1070
     8
1070
   278
1070
    46
1070
   146
1040
0.999966
1070
   345
1005
16
1070
   347
1005
16
1070
   346
1005
16
1070
   344
1005
119
1070
   343
1005
119
1070
   172
1070
     1
1070
    76
1070
     0
1070
    75
1070
     0
1070
   282
1070
     0
1070
   281
1070
     0
1070
    71
1070
     0
1070
    74
1070
     0
1070
   279
1070
     0
1070
   173
1070
     1
1070
   340
1005
113
1070
   271
1070
     1
1070
   272
1070
     2
1070
    77
1070
     1
1070
    73
1070
     0
1070
   171
1070
     3
1070
   274
1070
     4
1070
   177
1070
   150
1070
   176
1070
     9
1070
   178
1070
    43
1070
    78
1070
     8
1070
    48
1040
-0.1
1070
    41
1040
3.175
1070
   147
1040
1.75006
1070
    42
1040
1.5875
1070
    44
1040
3.175
1070
   140
1040
3.50012
1002
}
1001
ACAD_DSTYLE_DIM_LINETYPE
1070
   380
1005
16
1001
ACAD_DSTYLE_DIM_EXT1_LINETYPE
1070
   381
1005
16
1001
ACAD_DSTYLE_DIM_EXT2_LINETYPE
1070
   382
1005
16
0
DIMENSION
5
15D
100
AcDbEntity
8
SK2
62
256
6
ByLayer
370
18
48
1
60
0
100
AcDbDimension
2
_U2
10
-39.24994
20
-4
30
0
11
-39.24994
21
18.10734
31
0
70
32
71
1
72
1
41
1
210
0
220
0
230
1
3
Standard
100
AcDbAlignedDimension
13
-36
23
4
33
0
14
-36
24
-4
34
0
50
90
100
AcDbRotatedDimension
1001
ACAD
1000
DSTYLE
1002
{
1070
   371
1070
    13
1070
   372
1070
    13
1070
     3
1000

1070
   170
1070
     0
1070
   144
1040
1.0
1070
   277
1070
     2
1070
   284
1070
     8
1070
   278
1070
    46
1070
   146
1040
0.999966
1070
   345
1005
16
1070
   347
1005
16
1070
   346
1005
16
1070
   344
1005
119
1070
   343
1005
119
1070
   172
1070
     1
1070
    76
1070
     0
1070
    75
1070
     0
1070
   282
1070
     0
1070
   281
1070
     0
1070
    71
1070
     0
1070
    74
1070
     0
1070
   279
1070
     0
1070
   173
1070
     1
1070
   340
1005
113
1070
   271
1070
     1
1070
   272
1070
     2
1070
    77
1070
     1
1070
    73
1070
     0
1070
   171
1070
     3
1070
   274
1070
     4
1070
   177
1070
   150
1070
   176
1070
     9
1070
   178
1070
    43
1070
    78
1070
     8
1070
    48
1040
-0.1
1070
    41
1040
3.175
1070
   147
1040
1.75006
1070
    42
1040
1.5875
1070
    44
1040
3.175
1070
   140
1040
3.50012
1002
}
1001
ACAD_DSTYLE_DIM_LINETYPE
1070
   380
1005
16
1001
ACAD_DSTYLE_DIM_EXT1_LINETYPE
1070
   381
1005
16
1001
ACAD_DSTYLE_DIM_EXT2_LINETYPE
1070
   382
1005
16
0
DIMENSION
5
17B
100
AcDbEntity
8
SK2
62
256
6
ByLayer
370
18
48
1
60
0
100
AcDbDimension
2
_U3
10
0
20
-27.50012
30
0
11
-18
21
-27.50012
31
0
70
32
71
1
72
1
41
1
210
0
220
0
230
1
3
Standard
100
AcDbAlignedDimension
13
-36
23
-4
33
0
14
0
24
-4
34
0
50
0
100
AcDbRotatedDimension
1001
ACAD
1000
DSTYLE
1002
{
1070
   371
1070
    13
1070
   372
1070
    13
1070
     3
1000

1070
   170
1070
     0
1070
   144
1040
1.0
1070
   277
1070
     2
1070
   284
1070
     8
1070
   278
1070
    46
1070
   146
1040
0.999966
1070
   345
1005
16
1070
   347
1005
16
1070
   346
1005
16
1070
   344
1005
119
1070
   343
1005
119
1070
   172
1070
     1
1070
    76
1070
     0
1070
    75
1070
     0
1070
   282
1070
     0
1070
   281
1070
     0
1070
    71
1070
     0
1070
    74
1070
     0
1070
   279
1070
     0
1070
   173
1070
     1
1070
   340
1005
113
1070
   271
1070
     1
1070
   272
1070
     2
1070
    77
1070
     1
1070
    73
1070
     1
1070
   171
1070
     3
1070
   274
1070
     4
1070
   177
1070
   150
1070
   176
1070
     9
1070
   178
1070
    43
1070
    78
1070
     8
1070
    48
1040
-0.1
1070
    41
1040
3.175
1070
   147
1040
1.75006
1070
    42
1040
1.5875
1070
    44
1040
3.175
1070
   140
1040
3.50012
1002
}
1001
ACAD_DSTYLE_DIM_LINETYPE
1070
   380
1005
16
1001
ACAD_DSTYLE_DIM_EXT1_LINETYPE
1070
   381
1005
16
1001
ACAD_DSTYLE_DIM_EXT2_LINETYPE
1070
   382
1005
16
0
DIMENSION
5
197
100
AcDbEntity
8
SK2
62
256
6
ByLayer
370
18
48
1
60
0
100
AcDbDimension
2
_U4
10
55
20
-18.74982
30
0
11
28.5
21
-18.74982
31
0
70
32
71
1
72
1
41
1
210
0
220
0
230
1
3
Standard
100
AcDbAlignedDimension
13
2
23
4.5
33
0
14
55
24
0
34
0
50
0
100
AcDbRotatedDimension
1001
ACAD
1000
DSTYLE
1002
{
1070
   371
1070
    13
1070
   372
1070
    13
1070
     3
1000

1070
   170
1070
     0
1070
   144
1040
1.0
1070
   277
1070
     2
1070
   284
1070
     8
1070
   278
1070
    46
1070
   146
1040
0.999966
1070
   345
1005
16
1070
   347
1005
16
1070
   346
1005
16
1070
   344
1005
119
1070
   343
1005
119
1070
   172
1070
     1
1070
    76
1070
     0
1070
    75
1070
     0
1070
   282
1070
     0
1070
   281
1070
     0
1070
    71
1070
     0
1070
    74
1070
     0
1070
   279
1070
     0
1070
   173
1070
     1
1070
   340
1005
113
1070
   271
1070
     1
1070
   272
1070
     2
1070
    77
1070
     1
1070
    73
1070
     1
1070
   171
1070
     3
1070
   274
1070
     4
1070
   177
1070
   150
1070
   176
1070
     9
1070
   178
1070
    43
1070
    78
1070
     8
1070
    48
1040
-0.1
1070
    41
1040
3.175
1070
   147
1040
1.75006
1070
    42
1040
1.5875
1070
    44
1040
3.175
1070
   140
1040
3.50012
1002
}
1001
ACAD_DSTYLE_DIM_LINETYPE
1070
   380
1005
16
1001
ACAD_DSTYLE_DIM_EXT1_LINETYPE
1070
   381
1005
16
1001
ACAD_DSTYLE_DIM_EXT2_LINETYPE
1070
   382
1005
16
0
DIMENSION
5
1B3
100
AcDbEntity
8
SK2
62
256
6
ByLayer
370
18
48
1
60
0
100
AcDbDimension
2
_U5
10
55
20
-10.82
30
0
11
34.3
21
-10.82
31
0
70
32
71
1
72
1
41
1
210
0
220
0
230
1
3
Standard
100
AcDbAlignedDimension
13
13.6
23
-4
33
0
14
55
24
0
34
0
50
0
100
AcDbRotatedDimension
1001
ACAD
1000
DSTYLE
1002
{
1070
   371
1070
    13
1070
   372
1070
    13
1070
     3
1000

1070
   170
1070
     0
1070
   144
1040
1.0
1070
   277
1070
     2
1070
   284
1070
     8
1070
   278
1070
    46
1070
   146
1040
1.25
1070
   345
1005
16
1070
   347
1005
16
1070
   346
1005
16
1070
   344
1005
119
1070
   343
1005
119
1070
   172
1070
     1
1070
    76
1070
     0
1070
    75
1070
     0
1070
   282
1070
     0
1070
   281
1070
     0
1070
    71
1070
     0
1070
    74
1070
     0
1070
   279
1070
     0
1070
   173
1070
     1
1070
   340
1005
113
1070
   271
1070
     1
1070
   272
1070
     2
1070
    77
1070
     1
1070
    73
1070
     1
1070
   171
1070
     3
1070
   274
1070
     4
1070
   177
1070
   150
1070
   176
1070
     9
1070
   178
1070
    43
1070
    78
1070
     8
1070
    48
1040
-0.1
1070
    41
1040
3.175
1070
   147
1040
0.42
1070
    42
1040
1.5875
1070
    44
1040
0.5
1070
   140
1040
2.8
1002
}
1001
ACAD_DSTYLE_DIM_LINETYPE
1070
   380
1005
16
1001
ACAD_DSTYLE_DIM_EXT1_LINETYPE
1070
   381
1005
16
1001
ACAD_DSTYLE_DIM_EXT2_LINETYPE
1070
   382
1005
16
0
DIMENSION
5
1CF
100
AcDbEntity
8
SK2
62
256
6
ByLayer
370
18
48
1
60
0
100
AcDbDimension
2
_U6
10
55
20
-37.50012
30
0
11
9.5
21
-37.50012
31
0
70
32
71
1
72
1
41
1
210
0
220
0
230
1
3
Standard
100
AcDbAlignedDimension
13
-36
23
0
33
0
14
55
24
0
34
0
50
0
100
AcDbRotatedDimension
1001
ACAD
1000
DSTYLE
1002
{
1070
   371
1070
    13
1070
   372
1070
    13
1070
     3
1000

1070
   170
1070
     0
1070
   144
1040
1.0
1070
   277
1070
     2
1070
   284
1070
     8
1070
   278
1070
    46
1070
   146
1040
0.999966
1070
   345
1005
16
1070
   347
1005
16
1070
   346
1005
16
1070
   344
1005
119
1070
   343
1005
119
1070
   172
1070
     1
1070
    76
1070
     0
1070
    75
1070
     0
1070
   282
1070
     0
1070
   281
1070
     0
1070
    71
1070
     0
1070
    74
1070
     0
1070
   279
1070
     0
1070
   173
1070
     1
1070
   340
1005
113
1070
   271
1070
     1
1070
   272
1070
     2
1070
    77
1070
     1
1070
    73
1070
     1
1070
   171
1070
     3
1070
   274
1070
     4
1070
   177
1070
   150
1070
   176
1070
     9
1070
   178
1070
    43
1070
    78
1070
     8
1070
    48
1040
-0.1
1070
    41
1040
3.175
1070
   147
1040
1.75006
1070
    42
1040
1.5875
1070
    44
1040
3.175
1070
   140
1040
3.50012
1002
}
1001
ACAD_DSTYLE_DIM_LINETYPE
1070
   380
1005
16
1001
ACAD_DSTYLE_DIM_EXT1_LINETYPE
1070
   381
1005
16
1001
ACAD_DSTYLE_DIM_EXT2_LINETYPE
1070
   382
1005
16
0
ENDSEC
0
SECTION
2
OBJECTS
0
DICTIONARY
5
25b
330
0
100
AcDbDictionary
280
0
281
1
3
ACAD_GROUP
350
25c
3
ACAD_MLINESTYLE
350
25d
0
DICTIONARY
5
25c
330
0
100
AcDbDictionary
280
0
281
1
0
DICTIONARY
5
25d
330
0
100
AcDbDictionary
280
0
281
1
3
Standard
350
18
0
MLINESTYLE
5
18
330
25d
100
AcDbMlineStyle
2
Standard
70
0
3

62
256
51
90
52
90
71
2
49
-0.5
62
256
6
ByLayer
49
0.5
62
256
6
ByLayer
0
RASTERVARIABLES
5
249
330

100
AcDbRasterVariables
90
0
70
1
71
1
72
1
0
ENDSEC
0
EOF
