0
SECTION
2
HEADER
9
$ACADVER
1
AC1015
9
$DWGCODEPAGE
3
ANSI_1252
9
$HANDSEED
5
26a
9
$ANGBASE
50
0
9
$ANGDIR
70
0
9
$ATTMODE
70
1
9
$AUNITS
70
0
9
$AUPREC
70
0
9
$CECOLOR
62
256
9
$CELTSCALE
40
1
9
$CELTYPE
6
ByLayer
9
$CELWEIGHT
370
18
9
$CLAYER
8
0
9
$CMLJUST
70
0
9
$CMLSCALE
40
1
9
$CMLSTYLE
2
Standard
9
$DIMSTYLE
2
Standard
9
$TEXTSIZE
40
0.2
9
$TEXTSTYLE
7
Standard
9
$LUNITS
70
2
9
$LUPREC
70
4
9
$EXTNAMES
290
1
9
$INSUNITS
70
4
9
$LTSCALE
40
1
9
$LWDISPLAY
290
1
9
$PDMODE
70
0
9
$PDSIZE
40
0
9
$PLINEGEN
70
0
0
ENDSEC
0
SECTION
2
CLASSES
0
CLASS
1
RASTERVARIABLES
2
AcDbRasterVariables
3
ISM
90
0
280
0
281
0
0
ENDSEC
0
SECTION
2
TABLES
0
TABLE
2
VPORT
5
260
100
AcDbSymbolTable
0
VPORT
5
1
100
AcDbSymbolTableRecord
100
AcDbViewportTableRecord
2
*Active
70
0
10
0
20
0
11
1
21
1
12
-1
22
1
13
0
23
0
14
0.5
24
0.5
15
10
25
10
16
0
26
0
36
1
17
0
27
0
37
0
0
ENDTAB
0
TABLE
2
LTYPE
5
261
100
AcDbSymbolTable
0
LTYPE
5
14
100
AcDbSymbolTableRecord
100
AcDbLinetypeTableRecord
70
0
2
ByBlock
3

72
65
73
0
40
0
0
LTYPE
5
15
100
AcDbSymbolTableRecord
100
AcDbLinetypeTableRecord
70
0
2
ByLayer
3

72
65
73
0
40
0
0
LTYPE
5
16
100
AcDbSymbolTableRecord
100
AcDbLinetypeTableRecord
70
0
2
Continuous
3
Solid line
72
65
73
0
40
0
0
LTYPE
5
6E
100
AcDbSymbolTableRecord
100
AcDbLinetypeTableRecord
70
0
2
CENTER
3
____ _ ____ _ ____ _ ____
72
65
73
4
40
47.5
49
22
74
0
49
-8.5
74
0
49
8.5
74
0
49
-8.5
74
0
0
LTYPE
5
6F
100
AcDbSymbolTableRecord
100
AcDbLinetypeTableRecord
70
0
2
DASHED
3
__ __ __ __ __ __ __ __ __
72
65
73
2
40
25.72
49
12.86
74
0
49
-12.86
74
0
0
ENDTAB
0
TABLE
2
LAYER
5
262
100
AcDbSymbolTable
0
LAYER
5
10
100
AcDbSymbolTableRecord
100
AcDbLayerTableRecord
2
0
70
0
62
7
6
Continuous
290
1
370
-3
390
0
0
LAYER
5
71
100
AcDbSymbolTableRecord
100
AcDbLayerTableRecord
2
80
70
0
62
-6
6
Continuous
290
1
370
-3
390
0
0
LAYER
5
73
100
AcDbSymbolTableRecord
100
AcDbLayerTableRecord
2
81
70
0
62
-3
6
Continuous
290
1
370
-3
390
0
0
LAYER
5
75
100
AcDbSymbolTableRecord
100
AcDbLayerTableRecord
2
1
70
0
62
4
6
Continuous
290
1
370
-3
390
0
0
LAYER
5
AB
100
AcDbSymbolTableRecord
100
AcDbLayerTableRecord
2
4
70
0
62
-2
6
CENTER
290
1
370
-3
390
0
0
LAYER
5
124
100
AcDbSymbolTableRecord
100
AcDbLayerTableRecord
2
Defpoints
70
0
62
7
6
Continuous
290
0
370
-3
390
0
0
LAYER
5
151
100
AcDbSymbolTableRecord
100
AcDbLayerTableRecord
2
2
70
0
62
7
6
Continuous
290
1
370
-3
390
0
0
LAYER
5
24c
100
AcDbSymbolTableRecord
100
AcDbLayerTableRecord
2
SK1
70
0
62
4
6
Continuous
290
1
370
-3
390
0
0
LAYER
5
24d
100
AcDbSymbolTableRecord
100
AcDbLayerTableRecord
2
SK4
70
0
62
2
6
CENTER
290
1
370
-3
390
0
0
LAYER
5
24e
100
AcDbSymbolTableRecord
100
AcDbLayerTableRecord
2
SK2
70
0
62
7
6
Continuous
290
1
370
-3
390
0
0
LAYER
5
24f
100
AcDbSymbolTableRecord
100
AcDbLayerTableRecord
2
SK6
70
0
62
5
6
Continuous
290
1
370
-3
390
0
0
ENDTAB
0
TABLE
2
STYLE
5
263
100
AcDbSymbolTable
0
STYLE
5
11
100
AcDbSymbolTableRecord
100
AcDbTextStyleTableRecord
2
Standard
3
txt
70
0
71
0
40
0
41
1
42
0
50
0
0
STYLE
5
115
100
AcDbSymbolTableRecord
100
AcDbTextStyleTableRecord
2
iso_b_vert
3
simplex.shx
70
0
71
0
40
0
41
1
42
0
50
0
0
STYLE
5
116
100
AcDbSymbolTableRecord
100
AcDbTextStyleTableRecord
2
DWGDirectTextStyle
3
simplex
70
0
71
0
40
0
41
1
42
0
50
0
0
ENDTAB
0
TABLE
2
DIMSTYLE
5
264
100
AcDbSymbolTable
100
AcDbDimStyleTable
0
DIMSTYLE
105
27
100
AcDbSymbolTableRecord
100
AcDbDimStyleTableRecord
2
Standard
70
0
3
<>
41
0.18
42
0.0625
44
0.18
140
0.18
147
0.09
73
0
74
0
77
1
271
2
275
0
278
52
280
0
340
11
0
ENDTAB
0
TABLE
2
VIEW
5
265
100
AcDbSymbolTable
0
ENDTAB
0
TABLE
2
UCS
5
266
100
AcDbSymbolTable
0
ENDTAB
0
TABLE
2
APPID
5
267
100
AcDbSymbolTable
0
APPID
5
12
100
AcDbSymbolTableRecord
100
AcDbRegAppTableRecord
2
ACAD
70
0
0
APPID
5
119
100
AcDbSymbolTableRecord
100
AcDbRegAppTableRecord
2
ACAD_DSTYLE_DIMBREAK
70
0
0
APPID
5
20B
100
AcDbSymbolTableRecord
100
AcDbRegAppTableRecord
2
ACAD_DSTYLE_DIM_LINETYPE
70
0
0
APPID
5
20C
100
AcDbSymbolTableRecord
100
AcDbRegAppTableRecord
2
ACAD_DSTYLE_DIM_EXT1_LINETYPE
70
0
0
APPID
5
20D
100
AcDbSymbolTableRecord
100
AcDbRegAppTableRecord
2
ACAD_DSTYLE_DIM_EXT2_LINETYPE
70
0
0
APPID
5
248
100
AcDbSymbolTableRecord
100
AcDbRegAppTableRecord
2
ACAD_MLEADERVER
70
0
0
ENDTAB
0
TABLE
2
BLOCK_RECORD
5
268
100
AcDbSymbolTable
0
BLOCK_RECORD
5
1F
100
AcDbSymbolTableRecord
100
AcDbBlockTableRecord
2
*Model_Space
340
0
70
0
0
BLOCK_RECORD
5
1B
100
AcDbSymbolTableRecord
100
AcDbBlockTableRecord
2
*Paper_Space
340
0
70
0
0
BLOCK_RECORD
5
23
100
AcDbSymbolTableRecord
100
AcDbBlockTableRecord
2
*Paper_Space0
340
0
70
0
0
BLOCK_RECORD
5
11B
100
AcDbSymbolTableRecord
100
AcDbBlockTableRecord
2
_Closed
340
0
70
0
0
BLOCK_RECORD
5
125
100
AcDbSymbolTableRecord
100
AcDbBlockTableRecord
2
*D2
340
0
70
0
0
BLOCK_RECORD
5
131
100
AcDbSymbolTableRecord
100
AcDbBlockTableRecord
2
_U0
340
0
70
0
0
BLOCK_RECORD
5
143
100
AcDbSymbolTableRecord
100
AcDbBlockTableRecord
2
*D4
340
0
70
0
0
BLOCK_RECORD
5
152
100
AcDbSymbolTableRecord
100
AcDbBlockTableRecord
2
_U1
340
0
70
0
0
BLOCK_RECORD
5
162
100
AcDbSymbolTableRecord
100
AcDbBlockTableRecord
2
*D6
340
0
70
0
0
BLOCK_RECORD
5
170
100
AcDbSymbolTableRecord
100
AcDbBlockTableRecord
2
_U2
340
0
70
0
0
BLOCK_RECORD
5
180
100
AcDbSymbolTableRecord
100
AcDbBlockTableRecord
2
*D8
340
0
70
0
0
BLOCK_RECORD
5
18C
100
AcDbSymbolTableRecord
100
AcDbBlockTableRecord
2
_U3
340
0
70
0
0
BLOCK_RECORD
5
19C
100
AcDbSymbolTableRecord
100
AcDbBlockTableRecord
2
*D10
340
0
70
0
0
BLOCK_RECORD
5
1A8
100
AcDbSymbolTableRecord
100
AcDbBlockTableRecord
2
_U4
340
0
70
0
0
BLOCK_RECORD
5
1B8
100
AcDbSymbolTableRecord
100
AcDbBlockTableRecord
2
*D12
340
0
70
0
0
BLOCK_RECORD
5
1C4
100
AcDbSymbolTableRecord
100
AcDbBlockTableRecord
2
_U5
340
0
70
0
0
BLOCK_RECORD
5
1D4
100
AcDbSymbolTableRecord
100
AcDbBlockTableRecord
2
*D14
340
0
70
0
0
BLOCK_RECORD
5
1E0
100
AcDbSymbolTableRecord
100
AcDbBlockTableRecord
2
_U6
340
0
70
0
0
ENDTAB
0
ENDSEC
0
SECTION
2
BLOCKS
0
BLOCK
5
20
100
AcDbEntity
8
0
100
AcDbBlockBegin
2
*Model_Space
70
0
10
0
20
0
30
0
3
*Model_Space
0
ENDBLK
5
21
100
AcDbEntity
8
0
100
AcDbBlockEnd
0
BLOCK
5
1C
100
AcDbEntity
8
0
100
AcDbBlockBegin
2
*Paper_Space
70
0
10
0
20
0
30
0
3
*Paper_Space
0
ENDBLK
5
1D
100
AcDbEntity
8
0
100
AcDbBlockEnd
0
BLOCK
5
24
100
AcDbEntity
8
0
100
AcDbBlockBegin
2
*Paper_Space0
70
0
10
0
20
0
30
0
3
*Paper_Space0
0
ENDBLK
5
25
100
AcDbEntity
8
0
100
AcDbBlockEnd
0
BLOCK
5
11C
100
AcDbEntity
8
0
100
AcDbBlockBegin
2
_Closed
70
0
10
0
20
0
30
0
3
_Closed
0
LINE
5
11E
100
AcDbEntity
8
0
62
256
6
ByLayer
370
-2
48
1
60
0
100
AcDbLine
10
-1
20
0.166667
30
0
11
0
21
0
31
0
39
0
210
0
220
0
230
1
0
LINE
5
11F
100
AcDbEntity
8
0
62
256
6
ByLayer
370
-2
48
1
60
0
100
AcDbLine
10
0
20
0
30
0
11
-1
21
-0.166667
31
0
39
0
210
0
220
0
230
1
0
LINE
5
120
100
AcDbEntity
8
0
62
256
6
ByLayer
370
-2
48
1
60
0
100
AcDbLine
10
-1
20
0.166667
30
0
11
-1
21
-0.166667
31
0
39
0
210
0
220
0
230
1
0
LINE
5
121
100
AcDbEntity
8
0
62
256
6
ByLayer
370
-2
48
1
60
0
100
AcDbLine
10
0
20
0
30
0
11
-1
21
0
31
0
39
0
210
0
220
0
230
1
0
ENDBLK
5
11D
100
AcDbEntity
8
0
100
AcDbBlockEnd
0
BLOCK
5
126
100
AcDbEntity
8
0
100
AcDbBlockBegin
2
*D2
70
1
10
0
20
0
30
0
3
*D2
0
LINE
5
128
100
AcDbEntity
8
0
62
256
6
ByLayer
370
-2
48
1
60
0
100
AcDbLine
10
0
20
-4.5875
30
0
11
0
21
-29.67512
31
0
39
0
210
0
220
0
230
1
0
LINE
5
129
100
AcDbEntity
8
0
62
256
6
ByLayer
370
-2
48
1
60
0
100
AcDbLine
10
46
20
-1.5875
30
0
11
46
21
-29.67512
31
0
39
0
210
0
220
0
230
1
0
LINE
5
12A
100
AcDbEntity
8
0
62
256
6
ByLayer
370
-2
48
1
60
0
100
AcDbLine
10
3.175
20
-26.50012
30
0
11
42.825
21
-26.50012
31
0
39
0
210
0
220
0
230
1
0
SOLID
5
12B
100
AcDbEntity
8
0
62
256
6
ByLayer
370
-1
48
1
60
0
100
AcDbTrace
10
3.175
20
-25.970953
30
0
11
3.175
21
-27.029287
31
0
12
0
22
-26.50012
32
0
13
0
23
-26.50012
33
0
39
0
210
0
220
0
230
1
0
SOLID
5
12C
100
AcDbEntity
8
0
62
256
6
ByLayer
370
-1
48
1
60
0
100
AcDbTrace
10
42.825
20
-27.029287
30
0
11
42.825
21
-25.970953
31
0
12
46
22
-26.50012
32
0
13
46
23
-26.50012
33
0
39
0
210
0
220
0
230
1
0
MTEXT
5
12D
100
AcDbEntity
8
0
62
256
6
ByLayer
370
18
48
1
60
0
100
AcDbMText
10
23
20
-19.193619
30
0
210
0
220
0
230
1
1
\A1;46
40
3.50012
41
0
44
1
50
0
71
5
72
5
7
iso_b_vert
0
POINT
5
12E
100
AcDbEntity
8
Defpoints
62
0
6
ByLayer
370
-1
48
1
60
0
100
AcDbPoint
10
0
20
-3
30
0
39
0
210
0
220
0
230
1
50
360
0
POINT
5
12F
100
AcDbEntity
8
Defpoints
62
0
6
ByLayer
370
-1
48
1
60
0
100
AcDbPoint
10
46
20
0
30
0
39
0
210
0
220
0
230
1
50
360
0
POINT
5
130
100
AcDbEntity
8
Defpoints
62
0
6
ByLayer
370
-1
48
1
60
0
100
AcDbPoint
10
46
20
-26.50012
30
0
39
0
210
0
220
0
230
1
50
360
0
ENDBLK
5
127
100
AcDbEntity
8
0
100
AcDbBlockEnd
0
BLOCK
5
13E
100
AcDbEntity
8
0
100
AcDbBlockBegin
2
_U0
70
0
10
0
20
0
30
0
3
_U0
0
MTEXT
5
132
100
AcDbEntity
8
SK2
62
256
6
ByLayer
370
18
48
1
60
0
100
AcDbMText
10
17.586116
20
-25.467451
30
0
210
0
220
0
230
1
1
\W0.7694;46.00
40
3.50012
41
0
44
1.084337
50
0
71
7
72
5
7
iso_b_vert
0
MTEXT
5
133
100
AcDbEntity
8
SK2
62
256
6
ByLayer
370
18
48
1
60
0
100
AcDbMText
10
14.060056
20
-25.400814
30
0
210
0
220
0
230
1
1
\W0.1790;(
40
3.175
41
0
44
1.084337
50
0
71
7
72
5
7
iso_b_vert
0
MTEXT
5
134
100
AcDbEntity
8
SK2
62
256
6
ByLayer
370
18
48
1
60
0
100
AcDbMText
10
31.942666
20
-25.400814
30
0
210
0
220
0
230
1
1
\W0.1969;)
40
3.175
41
0
44
1.084337
50
0
71
7
72
5
7
iso_b_vert
0
LINE
5
135
100
AcDbEntity
8
SK2
62
256
6
ByLayer
370
13
48
1
60
0
100
AcDbLine
10
0
20
-4.5875
30
0
11
0
21
-29.67512
31
0
39
0
210
0
220
0
230
1
0
LINE
5
136
100
AcDbEntity
8
SK2
62
256
6
ByLayer
370
13
48
1
60
0
100
AcDbLine
10
46
20
-1.5875
30
0
11
46
21
-29.67512
31
0
39
0
210
0
220
0
230
1
0
LINE
5
137
100
AcDbEntity
8
SK2
62
256
6
ByLayer
370
13
48
1
60
0
100
AcDbLine
10
0
20
-26.50012
30
0
11
46
21
-26.50012
31
0
39
0
210
0
220
0
230
1
0
LINE
5
138
100
AcDbEntity
8
SK2
62
256
6
ByLayer
370
13
48
1
60
0
100
AcDbLine
10
0
20
-26.50012
30
0
11
3.174998
21
-26.082123
31
0
39
0
210
0
220
0
230
1
0
LINE
5
139
100
AcDbEntity
8
SK2
62
256
6
ByLayer
370
13
48
1
60
0
100
AcDbLine
10
0
20
-26.50012
30
0
11
3.175002
21
-26.918117
31
0
39
0
210
0
220
0
230
1
0
LINE
5
13A
100
AcDbEntity
8
SK2
62
256
6
ByLayer
370
13
48
1
60
0
100
AcDbLine
10
3.174998
20
-26.082123
30
0
11
3.175002
21
-26.918117
31
0
39
0
210
0
220
0
230
1
0
LINE
5
13B
100
AcDbEntity
8
SK2
62
256
6
ByLayer
370
13
48
1
60
0
100
AcDbLine
10
46
20
-26.50012
30
0
11
42.825002
21
-26.918117
31
0
39
0
210
0
220
0
230
1
0
LINE
5
13C
100
AcDbEntity
8
SK2
62
256
6
ByLayer
370
13
48
1
60
0
100
AcDbLine
10
46
20
-26.50012
30
0
11
42.824998
21
-26.082123
31
0
39
0
210
0
220
0
230
1
0
LINE
5
13D
100
AcDbEntity
8
SK2
62
256
6
ByLayer
370
13
48
1
60
0
100
AcDbLine
10
42.825002
20
-26.918117
30
0
11
42.824998
21
-26.082123
31
0
39
0
210
0
220
0
230
1
0
ENDBLK
5
13F
100
AcDbEntity
8
0
100
AcDbBlockEnd
0
BLOCK
5
144
100
AcDbEntity
8
0
100
AcDbBlockBegin
2
*D4
70
1
10
0
20
0
30
0
3
*D4
0
LINE
5
146
100
AcDbEntity
8
0
62
256
6
ByLayer
370
-2
48
1
60
0
100
AcDbLine
10
46.5757
20
-2.78
30
0
11
55.92506
21
-2.78
31
0
39
0
210
0
220
0
230
1
0
LINE
5
147
100
AcDbEntity
8
0
62
256
6
ByLayer
370
-2
48
1
60
0
100
AcDbLine
10
46.5757
20
2.78
30
0
11
55.92506
21
2.78
31
0
39
0
210
0
220
0
230
1
0
LINE
5
148
100
AcDbEntity
8
0
62
256
6
ByLayer
370
-2
48
1
60
0
100
AcDbLine
10
52.75006
20
2.78
30
0
11
52.75006
21
27.576466
31
0
39
0
210
0
220
0
230
1
0
LINE
5
149
100
AcDbEntity
8
0
62
256
6
ByLayer
370
-2
48
1
60
0
100
AcDbLine
10
52.75006
20
-5.955
30
0
11
52.75006
21
-9.13
31
0
39
0
210
0
220
0
230
1
0
LINE
5
14A
100
AcDbEntity
8
0
62
256
6
ByLayer
370
-2
48
1
60
0
100
AcDbLine
10
52.75006
20
5.955
30
0
11
52.75006
21
9.13
31
0
39
0
210
0
220
0
230
1
0
SOLID
5
14B
100
AcDbEntity
8
0
62
256
6
ByLayer
370
-1
48
1
60
0
100
AcDbTrace
10
53.279227
20
-5.955
30
0
11
52.220893
21
-5.955
31
0
12
52.75006
22
-2.78
32
0
13
52.75006
23
-2.78
33
0
39
0
210
0
220
0
230
1
0
SOLID
5
14C
100
AcDbEntity
8
0
62
256
6
ByLayer
370
-1
48
1
60
0
100
AcDbTrace
10
52.220893
20
5.955
30
0
11
53.279227
21
5.955
31
0
12
52.75006
22
2.78
32
0
13
52.75006
23
2.78
33
0
39
0
210
0
220
0
230
1
0
MTEXT
5
14D
100
AcDbEntity
8
0
62
256
6
ByLayer
370
18
48
1
60
0
100
AcDbMText
10
45.443559
20
18.353233
30
0
210
0
220
0
230
1
1
\A1;5.6
40
3.50012
41
0
44
1
50
90
71
5
72
5
7
iso_b_vert
0
POINT
5
14E
100
AcDbEntity
8
Defpoints
62
0
6
ByLayer
370
-1
48
1
60
0
100
AcDbPoint
10
44.9882
20
-2.78
30
0
39
0
210
0
220
0
230
1
50
360
0
POINT
5
14F
100
AcDbEntity
8
Defpoints
62
0
6
ByLayer
370
-1
48
1
60
0
100
AcDbPoint
10
44.9882
20
2.78
30
0
39
0
210
0
220
0
230
1
50
360
0
POINT
5
150
100
AcDbEntity
8
Defpoints
62
0
6
ByLayer
370
-1
48
1
60
0
100
AcDbPoint
10
52.75006
20
2.78
30
0
39
0
210
0
220
0
230
1
50
360
0
ENDBLK
5
145
100
AcDbEntity
8
0
100
AcDbBlockEnd
0
BLOCK
5
15D
100
AcDbEntity
8
0
100
AcDbBlockBegin
2
_U1
70
0
10
0
20
0
30
0
3
_U1
0
MTEXT
5
153
100
AcDbEntity
8
2
62
256
6
ByLayer
370
18
48
1
60
0
100
AcDbMText
10
52.060403
20
6.937505
30
0
210
0
220
0
230
1
1
\W0.7346;5.56
40
3.50012
41
0
44
1.084337
50
90
71
7
72
5
7
iso_b_vert
0
LINE
5
154
100
AcDbEntity
8
2
62
256
6
ByLayer
370
13
48
1
60
0
100
AcDbLine
10
46.5757
20
-2.78
30
0
11
55.92506
21
-2.78
31
0
39
0
210
0
220
0
230
1
0
LINE
5
155
100
AcDbEntity
8
2
62
256
6
ByLayer
370
13
48
1
60
0
100
AcDbLine
10
46.5757
20
2.78
30
0
11
55.92506
21
2.78
31
0
39
0
210
0
220
0
230
1
0
LINE
5
156
100
AcDbEntity
8
2
62
256
6
ByLayer
370
13
48
1
60
0
100
AcDbLine
10
52.75006
20
14.99468
30
0
11
52.75006
21
-11.5303
31
0
39
0
210
0
220
0
230
1
0
LINE
5
157
100
AcDbEntity
8
2
62
256
6
ByLayer
370
13
48
1
60
0
100
AcDbLine
10
52.75006
20
-2.78
30
0
11
53.168057
21
-5.954998
31
0
39
0
210
0
220
0
230
1
0
LINE
5
158
100
AcDbEntity
8
2
62
256
6
ByLayer
370
13
48
1
60
0
100
AcDbLine
10
52.75006
20
-2.78
30
0
11
52.332063
21
-5.955002
31
0
39
0
210
0
220
0
230
1
0
LINE
5
159
100
AcDbEntity
8
2
62
256
6
ByLayer
370
13
48
1
60
0
100
AcDbLine
10
53.168057
20
-5.954998
30
0
11
52.332063
21
-5.955002
31
0
39
0
210
0
220
0
230
1
0
LINE
5
15A
100
AcDbEntity
8
2
62
256
6
ByLayer
370
13
48
1
60
0
100
AcDbLine
10
52.75006
20
2.78
30
0
11
52.332063
21
5.954998
31
0
39
0
210
0
220
0
230
1
0
LINE
5
15B
100
AcDbEntity
8
2
62
256
6
ByLayer
370
13
48
1
60
0
100
AcDbLine
10
52.75006
20
2.78
30
0
11
53.168057
21
5.955002
31
0
39
0
210
0
220
0
230
1
0
LINE
5
15C
100
AcDbEntity
8
2
62
256
6
ByLayer
370
13
48
1
60
0
100
AcDbLine
10
52.332063
20
5.954998
30
0
11
53.168057
21
5.955002
31
0
39
0
210
0
220
0
230
1
0
ENDBLK
5
15E
100
AcDbEntity
8
0
100
AcDbBlockEnd
0
BLOCK
5
163
100
AcDbEntity
8
0
100
AcDbBlockBegin
2
*D6
70
1
10
0
20
0
30
0
3
*D6
0
LINE
5
165
100
AcDbEntity
8
0
62
256
6
ByLayer
370
-2
48
1
60
0
100
AcDbLine
10
-37.5875
20
3
30
0
11
-42.42494
21
3
31
0
39
0
210
0
220
0
230
1
0
LINE
5
166
100
AcDbEntity
8
0
62
256
6
ByLayer
370
-2
48
1
60
0
100
AcDbLine
10
-37.5875
20
-3
30
0
11
-42.42494
21
-3
31
0
39
0
210
0
220
0
230
1
0
LINE
5
167
100
AcDbEntity
8
0
62
256
6
ByLayer
370
-2
48
1
60
0
100
AcDbLine
10
-39.24994
20
3
30
0
11
-39.24994
21
23.747151
31
0
39
0
210
0
220
0
230
1
0
LINE
5
168
100
AcDbEntity
8
0
62
256
6
ByLayer
370
-2
48
1
60
0
100
AcDbLine
10
-39.24994
20
6.175
30
0
11
-39.24994
21
9.35
31
0
39
0
210
0
220
0
230
1
0
LINE
5
169
100
AcDbEntity
8
0
62
256
6
ByLayer
370
-2
48
1
60
0
100
AcDbLine
10
-39.24994
20
-6.175
30
0
11
-39.24994
21
-9.35
31
0
39
0
210
0
220
0
230
1
0
SOLID
5
16A
100
AcDbEntity
8
0
62
256
6
ByLayer
370
-1
48
1
60
0
100
AcDbTrace
10
-39.779107
20
6.175
30
0
11
-38.720773
21
6.175
31
0
12
-39.24994
22
3
32
0
13
-39.24994
23
3
33
0
39
0
210
0
220
0
230
1
0
SOLID
5
16B
100
AcDbEntity
8
0
62
256
6
ByLayer
370
-1
48
1
60
0
100
AcDbTrace
10
-38.720773
20
-6.175
30
0
11
-39.779107
21
-6.175
31
0
12
-39.24994
22
-3
32
0
13
-39.24994
23
-3
33
0
39
0
210
0
220
0
230
1
0
MTEXT
5
16C
100
AcDbEntity
8
0
62
256
6
ByLayer
370
18
48
1
60
0
100
AcDbMText
10
-46.556441
20
17.10734
30
0
210
0
220
0
230
1
1
\A1;6
40
3.50012
41
0
44
1
50
90
71
5
72
5
7
iso_b_vert
0
POINT
5
16D
100
AcDbEntity
8
Defpoints
62
0
6
ByLayer
370
-1
48
1
60
0
100
AcDbPoint
10
-36
20
3
30
0
39
0
210
0
220
0
230
1
50
360
0
POINT
5
16E
100
AcDbEntity
8
Defpoints
62
0
6
ByLayer
370
-1
48
1
60
0
100
AcDbPoint
10
-36
20
-3
30
0
39
0
210
0
220
0
230
1
50
360
0
POINT
5
16F
100
AcDbEntity
8
Defpoints
62
0
6
ByLayer
370
-1
48
1
60
0
100
AcDbPoint
10
-39.24994
20
-3
30
0
39
0
210
0
220
0
230
1
50
360
0
ENDBLK
5
164
100
AcDbEntity
8
0
100
AcDbBlockEnd
0
BLOCK
5
17B
100
AcDbEntity
8
0
100
AcDbBlockBegin
2
_U2
70
0
10
0
20
0
30
0
3
_U2
0
MTEXT
5
171
100
AcDbEntity
8
SK2
62
256
6
ByLayer
370
18
48
1
60
0
100
AcDbMText
10
-39.939597
20
13.157505
30
0
210
0
220
0
230
1
1
\W0.7346;6.00
40
3.50012
41
0
44
1.084337
50
90
71
7
72
5
7
iso_b_vert
0
LINE
5
172
100
AcDbEntity
8
SK2
62
256
6
ByLayer
370
13
48
1
60
0
100
AcDbLine
10
-37.5875
20
3
30
0
11
-42.42494
21
3
31
0
39
0
210
0
220
0
230
1
0
LINE
5
173
100
AcDbEntity
8
SK2
62
256
6
ByLayer
370
13
48
1
60
0
100
AcDbLine
10
-37.5875
20
-3
30
0
11
-42.42494
21
-3
31
0
39
0
210
0
220
0
230
1
0
LINE
5
174
100
AcDbEntity
8
SK2
62
256
6
ByLayer
370
13
48
1
60
0
100
AcDbLine
10
-39.24994
20
-11.7503
30
0
11
-39.24994
21
21.21468
31
0
39
0
210
0
220
0
230
1
0
LINE
5
175
100
AcDbEntity
8
SK2
62
256
6
ByLayer
370
13
48
1
60
0
100
AcDbLine
10
-39.24994
20
3
30
0
11
-39.667937
21
6.174998
31
0
39
0
210
0
220
0
230
1
0
LINE
5
176
100
AcDbEntity
8
SK2
62
256
6
ByLayer
370
13
48
1
60
0
100
AcDbLine
10
-39.24994
20
3
30
0
11
-38.831943
21
6.175002
31
0
39
0
210
0
220
0
230
1
0
LINE
5
177
100
AcDbEntity
8
SK2
62
256
6
ByLayer
370
13
48
1
60
0
100
AcDbLine
10
-39.667937
20
6.174998
30
0
11
-38.831943
21
6.175002
31
0
39
0
210
0
220
0
230
1
0
LINE
5
178
100
AcDbEntity
8
SK2
62
256
6
ByLayer
370
13
48
1
60
0
100
AcDbLine
10
-39.24994
20
-3
30
0
11
-38.831943
21
-6.174998
31
0
39
0
210
0
220
0
230
1
0
LINE
5
179
100
AcDbEntity
8
SK2
62
256
6
ByLayer
370
13
48
1
60
0
100
AcDbLine
10
-39.24994
20
-3
30
0
11
-39.667937
21
-6.175002
31
0
39
0
210
0
220
0
230
1
0
LINE
5
17A
100
AcDbEntity
8
SK2
62
256
6
ByLayer
370
13
48
1
60
0
100
AcDbLine
10
-38.831943
20
-6.174998
30
0
11
-39.667937
21
-6.175002
31
0
39
0
210
0
220
0
230
1
0
ENDBLK
5
17C
100
AcDbEntity
8
0
100
AcDbBlockEnd
0
BLOCK
5
181
100
AcDbEntity
8
0
100
AcDbBlockBegin
2
*D8
70
1
10
0
20
0
30
0
3
*D8
0
LINE
5
183
100
AcDbEntity
8
0
62
256
6
ByLayer
370
-2
48
1
60
0
100
AcDbLine
10
-36
20
-4.5875
30
0
11
-36
21
-29.67512
31
0
39
0
210
0
220
0
230
1
0
LINE
5
184
100
AcDbEntity
8
0
62
256
6
ByLayer
370
-2
48
1
60
0
100
AcDbLine
10
0
20
-4.5875
30
0
11
0
21
-29.67512
31
0
39
0
210
0
220
0
230
1
0
LINE
5
185
100
AcDbEntity
8
0
62
256
6
ByLayer
370
-2
48
1
60
0
100
AcDbLine
10
-32.825
20
-26.50012
30
0
11
-3.175
21
-26.50012
31
0
39
0
210
0
220
0
230
1
0
SOLID
5
186
100
AcDbEntity
8
0
62
256
6
ByLayer
370
-1
48
1
60
0
100
AcDbTrace
10
-32.825
20
-25.970953
30
0
11
-32.825
21
-27.029287
31
0
12
-36
22
-26.50012
32
0
13
-36
23
-26.50012
33
0
39
0
210
0
220
0
230
1
0
SOLID
5
187
100
AcDbEntity
8
0
62
256
6
ByLayer
370
-1
48
1
60
0
100
AcDbTrace
10
-3.175
20
-27.029287
30
0
11
-3.175
21
-25.970953
31
0
12
0
22
-26.50012
32
0
13
0
23
-26.50012
33
0
39
0
210
0
220
0
230
1
0
MTEXT
5
188
100
AcDbEntity
8
0
62
256
6
ByLayer
370
18
48
1
60
0
100
AcDbMText
10
-18
20
-19.193619
30
0
210
0
220
0
230
1
1
\A1;36
40
3.50012
41
0
44
1
50
0
71
5
72
5
7
iso_b_vert
0
POINT
5
189
100
AcDbEntity
8
Defpoints
62
0
6
ByLayer
370
-1
48
1
60
0
100
AcDbPoint
10
-36
20
-3
30
0
39
0
210
0
220
0
230
1
50
360
0
POINT
5
18A
100
AcDbEntity
8
Defpoints
62
0
6
ByLayer
370
-1
48
1
60
0
100
AcDbPoint
10
0
20
-3
30
0
39
0
210
0
220
0
230
1
50
360
0
POINT
5
18B
100
AcDbEntity
8
Defpoints
62
0
6
ByLayer
370
-1
48
1
60
0
100
AcDbPoint
10
0
20
-26.50012
30
0
39
0
210
0
220
0
230
1
50
360
0
ENDBLK
5
182
100
AcDbEntity
8
0
100
AcDbBlockEnd
0
BLOCK
5
197
100
AcDbEntity
8
0
100
AcDbBlockBegin
2
_U3
70
0
10
0
20
0
30
0
3
_U3
0
MTEXT
5
18D
100
AcDbEntity
8
SK2
62
256
6
ByLayer
370
18
48
1
60
0
100
AcDbMText
10
-23.229611
20
-25.467451
30
0
210
0
220
0
230
1
1
\W0.7468;36.00
40
3.50012
41
0
44
1.084337
50
0
71
7
72
5
7
iso_b_vert
0
LINE
5
18E
100
AcDbEntity
8
SK2
62
256
6
ByLayer
370
13
48
1
60
0
100
AcDbLine
10
-36
20
-4.5875
30
0
11
-36
21
-29.67512
31
0
39
0
210
0
220
0
230
1
0
LINE
5
18F
100
AcDbEntity
8
SK2
62
256
6
ByLayer
370
13
48
1
60
0
100
AcDbLine
10
0
20
-4.5875
30
0
11
0
21
-29.67512
31
0
39
0
210
0
220
0
230
1
0
LINE
5
190
100
AcDbEntity
8
SK2
62
256
6
ByLayer
370
13
48
1
60
0
100
AcDbLine
10
-36
20
-26.50012
30
0
11
0
21
-26.50012
31
0
39
0
210
0
220
0
230
1
0
LINE
5
191
100
AcDbEntity
8
SK2
62
256
6
ByLayer
370
13
48
1
60
0
100
AcDbLine
10
-36
20
-26.50012
30
0
11
-32.825002
21
-26.082123
31
0
39
0
210
0
220
0
230
1
0
LINE
5
192
100
AcDbEntity
8
SK2
62
256
6
ByLayer
370
13
48
1
60
0
100
AcDbLine
10
-36
20
-26.50012
30
0
11
-32.824998
21
-26.918117
31
0
39
0
210
0
220
0
230
1
0
LINE
5
193
100
AcDbEntity
8
SK2
62
256
6
ByLayer
370
13
48
1
60
0
100
AcDbLine
10
-32.825002
20
-26.082123
30
0
11
-32.824998
21
-26.918117
31
0
39
0
210
0
220
0
230
1
0
LINE
5
194
100
AcDbEntity
8
SK2
62
256
6
ByLayer
370
13
48
1
60
0
100
AcDbLine
10
0
20
-26.50012
30
0
11
-3.174998
21
-26.918117
31
0
39
0
210
0
220
0
230
1
0
LINE
5
195
100
AcDbEntity
8
SK2
62
256
6
ByLayer
370
13
48
1
60
0
100
AcDbLine
10
0
20
-26.50012
30
0
11
-3.175002
21
-26.082123
31
0
39
0
210
0
220
0
230
1
0
LINE
5
196
100
AcDbEntity
8
SK2
62
256
6
ByLayer
370
13
48
1
60
0
100
AcDbLine
10
-3.174998
20
-26.918117
30
0
11
-3.175002
21
-26.082123
31
0
39
0
210
0
220
0
230
1
0
ENDBLK
5
198
100
AcDbEntity
8
0
100
AcDbBlockEnd
0
BLOCK
5
19D
100
AcDbEntity
8
0
100
AcDbBlockBegin
2
*D10
70
1
10
0
20
0
30
0
3
*D10
0
LINE
5
19F
100
AcDbEntity
8
0
62
256
6
ByLayer
370
-2
48
1
60
0
100
AcDbLine
10
2
20
1.6925
30
0
11
2
21
-20.92482
31
0
39
0
210
0
220
0
230
1
0
LINE
5
1A0
100
AcDbEntity
8
0
62
256
6
ByLayer
370
-2
48
1
60
0
100
AcDbLine
10
46
20
-1.5875
30
0
11
46
21
-20.92482
31
0
39
0
210
0
220
0
230
1
0
LINE
5
1A1
100
AcDbEntity
8
0
62
256
6
ByLayer
370
-2
48
1
60
0
100
AcDbLine
10
5.175
20
-17.74982
30
0
11
42.825
21
-17.74982
31
0
39
0
210
0
220
0
230
1
0
SOLID
5
1A2
100
AcDbEntity
8
0
62
256
6
ByLayer
370
-1
48
1
60
0
100
AcDbTrace
10
5.175
20
-17.220653
30
0
11
5.175
21
-18.278987
31
0
12
2
22
-17.74982
32
0
13
2
23
-17.74982
33
0
39
0
210
0
220
0
230
1
0
SOLID
5
1A3
100
AcDbEntity
8
0
62
256
6
ByLayer
370
-1
48
1
60
0
100
AcDbTrace
10
42.825
20
-18.278987
30
0
11
42.825
21
-17.220653
31
0
12
46
22
-17.74982
32
0
13
46
23
-17.74982
33
0
39
0
210
0
220
0
230
1
0
MTEXT
5
1A4
100
AcDbEntity
8
0
62
256
6
ByLayer
370
18
48
1
60
0
100
AcDbMText
10
24
20
-10.443319
30
0
210
0
220
0
230
1
1
\A1;44
40
3.50012
41
0
44
1
50
0
71
5
72
5
7
iso_b_vert
0
POINT
5
1A5
100
AcDbEntity
8
Defpoints
62
0
6
ByLayer
370
-1
48
1
60
0
100
AcDbPoint
10
2
20
3.28
30
0
39
0
210
0
220
0
230
1
50
360
0
POINT
5
1A6
100
AcDbEntity
8
Defpoints
62
0
6
ByLayer
370
-1
48
1
60
0
100
AcDbPoint
10
46
20
0
30
0
39
0
210
0
220
0
230
1
50
360
0
POINT
5
1A7
100
AcDbEntity
8
Defpoints
62
0
6
ByLayer
370
-1
48
1
60
0
100
AcDbPoint
10
46
20
-17.74982
30
0
39
0
210
0
220
0
230
1
50
360
0
ENDBLK
5
19E
100
AcDbEntity
8
0
100
AcDbBlockEnd
0
BLOCK
5
1B3
100
AcDbEntity
8
0
100
AcDbBlockBegin
2
_U4
70
0
10
0
20
0
30
0
3
_U4
0
MTEXT
5
1A9
100
AcDbEntity
8
SK2
62
256
6
ByLayer
370
18
48
1
60
0
100
AcDbMText
10
18.401842
20
-16.717151
30
0
210
0
220
0
230
1
1
\W0.7958;44.00
40
3.50012
41
0
44
1.084337
50
0
71
7
72
5
7
iso_b_vert
0
LINE
5
1AA
100
AcDbEntity
8
SK2
62
256
6
ByLayer
370
13
48
1
60
0
100
AcDbLine
10
2
20
1.6925
30
0
11
2
21
-20.92482
31
0
39
0
210
0
220
0
230
1
0
LINE
5
1AB
100
AcDbEntity
8
SK2
62
256
6
ByLayer
370
13
48
1
60
0
100
AcDbLine
10
46
20
-1.5875
30
0
11
46
21
-20.92482
31
0
39
0
210
0
220
0
230
1
0
LINE
5
1AC
100
AcDbEntity
8
SK2
62
256
6
ByLayer
370
13
48
1
60
0
100
AcDbLine
10
2
20
-17.74982
30
0
11
46
21
-17.74982
31
0
39
0
210
0
220
0
230
1
0
LINE
5
1AD
100
AcDbEntity
8
SK2
62
256
6
ByLayer
370
13
48
1
60
0
100
AcDbLine
10
2
20
-17.74982
30
0
11
5.174998
21
-17.331823
31
0
39
0
210
0
220
0
230
1
0
LINE
5
1AE
100
AcDbEntity
8
SK2
62
256
6
ByLayer
370
13
48
1
60
0
100
AcDbLine
10
2
20
-17.74982
30
0
11
5.175002
21
-18.167817
31
0
39
0
210
0
220
0
230
1
0
LINE
5
1AF
100
AcDbEntity
8
SK2
62
256
6
ByLayer
370
13
48
1
60
0
100
AcDbLine
10
5.174998
20
-17.331823
30
0
11
5.175002
21
-18.167817
31
0
39
0
210
0
220
0
230
1
0
LINE
5
1B0
100
AcDbEntity
8
SK2
62
256
6
ByLayer
370
13
48
1
60
0
100
AcDbLine
10
46
20
-17.74982
30
0
11
42.825002
21
-18.167817
31
0
39
0
210
0
220
0
230
1
0
LINE
5
1B1
100
AcDbEntity
8
SK2
62
256
6
ByLayer
370
13
48
1
60
0
100
AcDbLine
10
46
20
-17.74982
30
0
11
42.824998
21
-17.331823
31
0
39
0
210
0
220
0
230
1
0
LINE
5
1B2
100
AcDbEntity
8
SK2
62
256
6
ByLayer
370
13
48
1
60
0
100
AcDbLine
10
42.825002
20
-18.167817
30
0
11
42.824998
21
-17.331823
31
0
39
0
210
0
220
0
230
1
0
ENDBLK
5
1B4
100
AcDbEntity
8
0
100
AcDbBlockEnd
0
BLOCK
5
1B9
100
AcDbEntity
8
0
100
AcDbBlockBegin
2
*D12
70
1
10
0
20
0
30
0
3
*D12
0
LINE
5
1BB
100
AcDbEntity
8
0
62
256
6
ByLayer
370
-2
48
1
60
0
100
AcDbLine
10
17.2
20
-4.3675
30
0
11
17.2
21
-10.32
31
0
39
0
210
0
220
0
230
1
0
LINE
5
1BC
100
AcDbEntity
8
0
62
256
6
ByLayer
370
-2
48
1
60
0
100
AcDbLine
10
46
20
-1.5875
30
0
11
46
21
-10.32
31
0
39
0
210
0
220
0
230
1
0
LINE
5
1BD
100
AcDbEntity
8
0
62
256
6
ByLayer
370
-2
48
1
60
0
100
AcDbLine
10
20.375
20
-9.82
30
0
11
42.825
21
-9.82
31
0
39
0
210
0
220
0
230
1
0
SOLID
5
1BE
100
AcDbEntity
8
0
62
256
6
ByLayer
370
-1
48
1
60
0
100
AcDbTrace
10
20.375
20
-9.290833
30
0
11
20.375
21
-10.349167
31
0
12
17.2
22
-9.82
32
0
13
17.2
23
-9.82
33
0
39
0
210
0
220
0
230
1
0
SOLID
5
1BF
100
AcDbEntity
8
0
62
256
6
ByLayer
370
-1
48
1
60
0
100
AcDbTrace
10
42.825
20
-10.349167
30
0
11
42.825
21
-9.290833
31
0
12
46
22
-9.82
32
0
13
46
23
-9.82
33
0
39
0
210
0
220
0
230
1
0
MTEXT
5
1C0
100
AcDbEntity
8
0
62
256
6
ByLayer
370
18
48
1
60
0
100
AcDbMText
10
31.6
20
-3.975
30
0
210
0
220
0
230
1
1
\A1;28.8
40
2.8
41
0
44
1
50
0
71
5
72
5
7
iso_b_vert
0
POINT
5
1C1
100
AcDbEntity
8
Defpoints
62
0
6
ByLayer
370
-1
48
1
60
0
100
AcDbPoint
10
17.2
20
-2.78
30
0
39
0
210
0
220
0
230
1
50
360
0
POINT
5
1C2
100
AcDbEntity
8
Defpoints
62
0
6
ByLayer
370
-1
48
1
60
0
100
AcDbPoint
10
46
20
0
30
0
39
0
210
0
220
0
230
1
50
360
0
POINT
5
1C3
100
AcDbEntity
8
Defpoints
62
0
6
ByLayer
370
-1
48
1
60
0
100
AcDbPoint
10
46
20
-9.82
30
0
39
0
210
0
220
0
230
1
50
360
0
ENDBLK
5
1BA
100
AcDbEntity
8
0
100
AcDbBlockEnd
0
BLOCK
5
1CF
100
AcDbEntity
8
0
100
AcDbBlockBegin
2
_U5
70
0
10
0
20
0
30
0
3
_U5
0
MTEXT
5
1C5
100
AcDbEntity
8
SK2
62
256
6
ByLayer
370
18
48
1
60
0
100
AcDbMText
10
27.416454
20
-9.973893
30
0
210
0
220
0
230
1
1
\W0.7468;28.80
40
2.8
41
0
44
1.084337
50
0
71
7
72
5
7
iso_b_vert
0
LINE
5
1C6
100
AcDbEntity
8
SK2
62
256
6
ByLayer
370
13
48
1
60
0
100
AcDbLine
10
17.2
20
-4.3675
30
0
11
17.2
21
-10.32
31
0
39
0
210
0
220
0
230
1
0
LINE
5
1C7
100
AcDbEntity
8
SK2
62
256
6
ByLayer
370
13
48
1
60
0
100
AcDbLine
10
46
20
-1.5875
30
0
11
46
21
-10.32
31
0
39
0
210
0
220
0
230
1
0
LINE
5
1C8
100
AcDbEntity
8
SK2
62
256
6
ByLayer
370
13
48
1
60
0
100
AcDbLine
10
17.2
20
-9.82
30
0
11
46
21
-9.82
31
0
39
0
210
0
220
0
230
1
0
LINE
5
1C9
100
AcDbEntity
8
SK2
62
256
6
ByLayer
370
13
48
1
60
0
100
AcDbLine
10
17.2
20
-9.82
30
0
11
20.374998
21
-9.402003
31
0
39
0
210
0
220
0
230
1
0
LINE
5
1CA
100
AcDbEntity
8
SK2
62
256
6
ByLayer
370
13
48
1
60
0
100
AcDbLine
10
17.2
20
-9.82
30
0
11
20.375002
21
-10.237997
31
0
39
0
210
0
220
0
230
1
0
LINE
5
1CB
100
AcDbEntity
8
SK2
62
256
6
ByLayer
370
13
48
1
60
0
100
AcDbLine
10
20.374998
20
-9.402003
30
0
11
20.375002
21
-10.237997
31
0
39
0
210
0
220
0
230
1
0
LINE
5
1CC
100
AcDbEntity
8
SK2
62
256
6
ByLayer
370
13
48
1
60
0
100
AcDbLine
10
46
20
-9.82
30
0
11
42.825002
21
-10.237997
31
0
39
0
210
0
220
0
230
1
0
LINE
5
1CD
100
AcDbEntity
8
SK2
62
256
6
ByLayer
370
13
48
1
60
0
100
AcDbLine
10
46
20
-9.82
30
0
11
42.824998
21
-9.402003
31
0
39
0
210
0
220
0
230
1
0
LINE
5
1CE
100
AcDbEntity
8
SK2
62
256
6
ByLayer
370
13
48
1
60
0
100
AcDbLine
10
42.825002
20
-10.237997
30
0
11
42.824998
21
-9.402003
31
0
39
0
210
0
220
0
230
1
0
ENDBLK
5
1D0
100
AcDbEntity
8
0
100
AcDbBlockEnd
0
BLOCK
5
1D5
100
AcDbEntity
8
0
100
AcDbBlockBegin
2
*D14
70
1
10
0
20
0
30
0
3
*D14
0
LINE
5
1D7
100
AcDbEntity
8
0
62
256
6
ByLayer
370
-2
48
1
60
0
100
AcDbLine
10
-36
20
-1.5875
30
0
11
-36
21
-39.67512
31
0
39
0
210
0
220
0
230
1
0
LINE
5
1D8
100
AcDbEntity
8
0
62
256
6
ByLayer
370
-2
48
1
60
0
100
AcDbLine
10
46
20
-1.5875
30
0
11
46
21
-39.67512
31
0
39
0
210
0
220
0
230
1
0
LINE
5
1D9
100
AcDbEntity
8
0
62
256
6
ByLayer
370
-2
48
1
60
0
100
AcDbLine
10
-32.825
20
-36.50012
30
0
11
42.825
21
-36.50012
31
0
39
0
210
0
220
0
230
1
0
SOLID
5
1DA
100
AcDbEntity
8
0
62
256
6
ByLayer
370
-1
48
1
60
0
100
AcDbTrace
10
-32.825
20
-35.970953
30
0
11
-32.825
21
-37.029287
31
0
12
-36
22
-36.50012
32
0
13
-36
23
-36.50012
33
0
39
0
210
0
220
0
230
1
0
SOLID
5
1DB
100
AcDbEntity
8
0
62
256
6
ByLayer
370
-1
48
1
60
0
100
AcDbTrace
10
42.825
20
-37.029287
30
0
11
42.825
21
-35.970953
31
0
12
46
22
-36.50012
32
0
13
46
23
-36.50012
33
0
39
0
210
0
220
0
230
1
0
MTEXT
5
1DC
100
AcDbEntity
8
0
62
256
6
ByLayer
370
18
48
1
60
0
100
AcDbMText
10
5
20
-29.19362
30
0
210
0
220
0
230
1
1
\A1;82
40
3.50012
41
0
44
1
50
0
71
5
72
5
7
iso_b_vert
0
POINT
5
1DD
100
AcDbEntity
8
Defpoints
62
0
6
ByLayer
370
-1
48
1
60
0
100
AcDbPoint
10
-36
20
0
30
0
39
0
210
0
220
0
230
1
50
360
0
POINT
5
1DE
100
AcDbEntity
8
Defpoints
62
0
6
ByLayer
370
-1
48
1
60
0
100
AcDbPoint
10
46
20
0
30
0
39
0
210
0
220
0
230
1
50
360
0
POINT
5
1DF
100
AcDbEntity
8
Defpoints
62
0
6
ByLayer
370
-1
48
1
60
0
100
AcDbPoint
10
46
20
-36.50012
30
0
39
0
210
0
220
0
230
1
50
360
0
ENDBLK
5
1D6
100
AcDbEntity
8
0
100
AcDbBlockEnd
0
BLOCK
5
1EB
100
AcDbEntity
8
0
100
AcDbBlockBegin
2
_U6
70
0
10
0
20
0
30
0
3
_U6
0
MTEXT
5
1E1
100
AcDbEntity
8
SK2
62
256
6
ByLayer
370
18
48
1
60
0
100
AcDbMText
10
-0.229611
20
-35.467451
30
0
210
0
220
0
230
1
1
\W0.7468;82.00
40
3.50012
41
0
44
1.084337
50
0
71
7
72
5
7
iso_b_vert
0
LINE
5
1E2
100
AcDbEntity
8
SK2
62
256
6
ByLayer
370
13
48
1
60
0
100
AcDbLine
10
-36
20
-1.5875
30
0
11
-36
21
-39.67512
31
0
39
0
210
0
220
0
230
1
0
LINE
5
1E3
100
AcDbEntity
8
SK2
62
256
6
ByLayer
370
13
48
1
60
0
100
AcDbLine
10
46
20
-1.5875
30
0
11
46
21
-39.67512
31
0
39
0
210
0
220
0
230
1
0
LINE
5
1E4
100
AcDbEntity
8
SK2
62
256
6
ByLayer
370
13
48
1
60
0
100
AcDbLine
10
-36
20
-36.50012
30
0
11
46
21
-36.50012
31
0
39
0
210
0
220
0
230
1
0
LINE
5
1E5
100
AcDbEntity
8
SK2
62
256
6
ByLayer
370
13
48
1
60
0
100
AcDbLine
10
-36
20
-36.50012
30
0
11
-32.825002
21
-36.082123
31
0
39
0
210
0
220
0
230
1
0
LINE
5
1E6
100
AcDbEntity
8
SK2
62
256
6
ByLayer
370
13
48
1
60
0
100
AcDbLine
10
-36
20
-36.50012
30
0
11
-32.824998
21
-36.918117
31
0
39
0
210
0
220
0
230
1
0
LINE
5
1E7
100
AcDbEntity
8
SK2
62
256
6
ByLayer
370
13
48
1
60
0
100
AcDbLine
10
-32.825002
20
-36.082123
30
0
11
-32.824998
21
-36.918117
31
0
39
0
210
0
220
0
230
1
0
LINE
5
1E8
100
AcDbEntity
8
SK2
62
256
6
ByLayer
370
13
48
1
60
0
100
AcDbLine
10
46
20
-36.50012
30
0
11
42.825002
21
-36.918117
31
0
39
0
210
0
220
0
230
1
0
LINE
5
1E9
100
AcDbEntity
8
SK2
62
256
6
ByLayer
370
13
48
1
60
0
100
AcDbLine
10
46
20
-36.50012
30
0
11
42.824998
21
-36.082123
31
0
39
0
210
0
220
0
230
1
0
LINE
5
1EA
100
AcDbEntity
8
SK2
62
256
6
ByLayer
370
13
48
1
60
0
100
AcDbLine
10
42.825002
20
-36.918117
30
0
11
42.824998
21
-36.082123
31
0
39
0
210
0
220
0
230
1
0
ENDBLK
5
1EC
100
AcDbEntity
8
0
100
AcDbBlockEnd
0
ENDSEC
0
SECTION
2
ENTITIES
0
ARC
5
B7
100
AcDbEntity
8
1
62
256
6
ByLayer
370
18
48
1
60
0
100
AcDbCircle
39
0
10
0.854969
20
3.552416
30
0
40
0.799999999999999
210
0
220
0
230
1
100
AcDbArc
50
237.699777
51
270.03581
0
ARC
5
B8
100
AcDbEntity
8
1
62
256
6
ByLayer
370
18
48
1
60
0
100
AcDbCircle
39
0
10
0.854969
20
-3.552416
30
0
40
0.799999999999999
210
0
220
0
230
1
100
AcDbArc
50
89.96419
51
122.300223
0
ARC
5
B9
100
AcDbEntity
8
1
62
256
6
ByLayer
370
18
48
1
60
0
100
AcDbCircle
39
0
10
0
20
2.2
30
0
40
0.799999999999999
210
0
220
0
230
1
100
AcDbArc
50
57.699777
51
90
0
ARC
5
BA
100
AcDbEntity
8
1
62
256
6
ByLayer
370
18
48
1
60
0
100
AcDbCircle
39
0
10
0
20
-2.2
30
0
40
0.799999999999999
210
0
220
0
230
1
100
AcDbArc
50
270
51
302.300223
0
ARC
5
BB
100
AcDbEntity
8
SK2
62
256
6
ByLayer
370
13
48
1
60
0
100
AcDbCircle
39
0
10
46
20
0
30
0
40
20
210
0
220
0
230
1
100
AcDbArc
50
9.606349
51
70.000678
0
ARC
5
BC
100
AcDbEntity
8
SK2
62
256
6
ByLayer
370
13
48
1
60
0
100
AcDbCircle
39
0
10
46
20
0
30
0
40
20
210
0
220
0
230
1
100
AcDbArc
50
289.999322
51
350.393651
0
ELLIPSE
5
BD
100
AcDbEntity
8
1
62
256
6
ByLayer
370
18
48
1
60
0
100
AcDbEllipse
10
3.643131
20
2.626093
30
0
11
2.96850276240997E-05
21
-0.00999995593985968
31
0
210
0
220
0
230
1
40
0.456557
41
0.00991843750327166
42
1.57431500082753
0
ELLIPSE
5
BE
100
AcDbEntity
8
1
62
256
6
ByLayer
370
18
48
1
60
0
100
AcDbEllipse
10
3.602742
20
2.625854
30
0
11
-7.73246656211825E-05
21
0.00999970104033548
31
0
210
0
220
0
230
1
40
0.007814
41
-3.13657719501355
42
-1.56537938983338
0
POINT
5
70
100
AcDbEntity
8
80
62
256
6
ByLayer
370
18
48
1
60
0
100
AcDbPoint
10
0
20
0
30
0
39
0
210
0
220
0
230
1
50
360
0
POINT
5
72
100
AcDbEntity
8
81
62
256
6
ByLayer
370
18
48
1
60
0
100
AcDbPoint
10
46
20
0
30
0
39
0
210
0
220
0
230
1
50
360
0
POINT
5
74
100
AcDbEntity
8
1
62
256
6
ByLayer
370
18
48
1
60
0
100
AcDbPoint
10
-36
20
0
30
0
39
0
210
0
220
0
230
1
50
360
0
POINT
5
76
100
AcDbEntity
8
1
62
256
6
ByLayer
370
18
48
1
60
1
100
AcDbPoint
10
0
20
-3
30
0
39
0
210
0
220
0
230
1
50
360
0
POINT
5
77
100
AcDbEntity
8
1
62
256
6
ByLayer
370
18
48
1
60
1
100
AcDbPoint
10
46
20
0
30
0
39
0
210
0
220
0
230
1
50
360
0
POINT
5
78
100
AcDbEntity
8
1
62
256
6
ByLayer
370
18
48
1
60
1
100
AcDbPoint
10
44.9882
20
-2.78
30
0
39
0
210
0
220
0
230
1
50
360
0
POINT
5
79
100
AcDbEntity
8
1
62
256
6
ByLayer
370
18
48
1
60
1
100
AcDbPoint
10
44.9882
20
2.78
30
0
39
0
210
0
220
0
230
1
50
360
0
POINT
5
7A
100
AcDbEntity
8
1
62
256
6
ByLayer
370
18
48
1
60
1
100
AcDbPoint
10
-36
20
3
30
0
39
0
210
0
220
0
230
1
50
360
0
POINT
5
7B
100
AcDbEntity
8
1
62
256
6
ByLayer
370
18
48
1
60
1
100
AcDbPoint
10
-36
20
-3
30
0
39
0
210
0
220
0
230
1
50
360
0
POINT
5
7C
100
AcDbEntity
8
1
62
256
6
ByLayer
370
18
48
1
60
1
100
AcDbPoint
10
-36
20
-3
30
0
39
0
210
0
220
0
230
1
50
360
0
POINT
5
7D
100
AcDbEntity
8
1
62
256
6
ByLayer
370
18
48
1
60
1
100
AcDbPoint
10
0
20
-3
30
0
39
0
210
0
220
0
230
1
50
360
0
POINT
5
7E
100
AcDbEntity
8
1
62
256
6
ByLayer
370
18
48
1
60
1
100
AcDbPoint
10
2
20
3.28
30
0
39
0
210
0
220
0
230
1
50
360
0
POINT
5
7F
100
AcDbEntity
8
1
62
256
6
ByLayer
370
18
48
1
60
1
100
AcDbPoint
10
46
20
0
30
0
39
0
210
0
220
0
230
1
50
360
0
POINT
5
80
100
AcDbEntity
8
1
62
256
6
ByLayer
370
18
48
1
60
1
100
AcDbPoint
10
17.2
20
-2.78
30
0
39
0
210
0
220
0
230
1
50
360
0
POINT
5
81
100
AcDbEntity
8
1
62
256
6
ByLayer
370
18
48
1
60
1
100
AcDbPoint
10
46
20
0
30
0
39
0
210
0
220
0
230
1
50
360
0
POINT
5
82
100
AcDbEntity
8
1
62
256
6
ByLayer
370
18
48
1
60
1
100
AcDbPoint
10
-36
20
0
30
0
39
0
210
0
220
0
230
1
50
360
0
POINT
5
83
100
AcDbEntity
8
1
62
256
6
ByLayer
370
18
48
1
60
1
100
AcDbPoint
10
46
20
0
30
0
39
0
210
0
220
0
230
1
50
360
0
SPLINE
5
BF
100
AcDbEntity
8
1
62
256
6
ByLayer
370
18
48
1
60
0
100
AcDbSpline
70
4
71
3
72
18
73
14
40
0
40
0
40
0
40
0
40
0.250000000000003
40
0.250000000000003
40
0.500000000000007
40
0.500000000000007
40
0.625000000000005
40
0.625000000000005
40
0.750000000000003
40
0.750000000000003
40
0.875000000000002
40
0.875000000000002
40
1
40
1
40
1
40
1
41
1
10
45.0360677965313
20
2.6649901410633
30
0
41
1
10
45.0913565902441
20
2.50784592859992
30
0
41
1
10
45.1462935846966
20
2.34940023442371
30
0
41
1
10
45.2571437498061
20
2.03176731988501
30
0
41
1
10
45.313102043751
20
1.87264489295046
30
0
41
1
10
45.3983826808733
20
1.63447213807385
30
0
41
1
10
45.4276859401148
20
1.55554449925685
30
0
41
1
10
45.4889018436575
20
1.4012334200294
30
0
41
1
10
45.5208474064883
20
1.32557459928358
30
0
41
1
10
45.5882269622676
20
1.17755492416342
30
0
41
1
10
45.6238129982198
20
1.1048779926756
30
0
41
1
10
45.6970454549312
20
0.967018915217494
30
0
41
1
10
45.7348988777405
20
0.901345996521542
30
0
41
1
10
45.774121420198
20
0.838780620850628
30
0
0
SPLINE
5
C0
100
AcDbEntity
8
1
62
256
6
ByLayer
370
18
48
1
60
0
100
AcDbSpline
70
4
71
3
72
26
73
22
40
0
40
0
40
0
40
0
40
0.0614738555273028
40
0.0614738555273028
40
0.21140999703314
40
0.21140999703314
40
0.286378067786057
40
0.286378067786057
40
0.361346138538975
40
0.361346138538975
40
0.511282280044808
40
0.511282280044808
40
0.66121842155064
40
0.66121842155064
40
0.736186492303557
40
0.736186492303557
40
0.811154563056473
40
0.811154563056473
40
0.961090704562306
40
0.961090704562306
40
1
40
1
40
1
40
1
41
1
10
4.36963338370629
20
0.231884757335564
30
0
41
1
10
4.54694441344151
20
0.143198436824719
30
0
41
1
10
4.72402339131085
20
0.0541956193360988
30
0
41
1
10
5.33279130428357
20
-0.251794101944995
30
0
41
1
10
5.7641766106162
20
-0.468654322330622
30
0
41
1
10
6.41515096757757
20
-0.784745540511267
30
0
41
1
10
6.63319778000607
20
-0.888842288612409
30
1E-16
41
1
10
7.06665968050419
20
-1.09069905144867
30
1E-16
41
1
10
7.28253044031248
20
-1.18868667062125
30
1E-16
41
1
10
7.92861539919645
20
-1.47214545418683
30
1E-16
41
1
10
8.35731582017399
20
-1.64707216563792
30
1E-16
41
1
10
9.21589147873613
20
-1.96058843562616
30
-1E-16
41
1
10
9.64575755214511
20
-2.09917807678778
30
-1E-16
41
1
10
10.295394462007
20
-2.27390199413057
30
-1E-16
41
1
10
10.5133862894188
20
-2.32673518212547
30
-1E-16
41
1
10
10.947053697462
20
-2.41944321988589
30
-1E-16
41
1
10
11.1630131138849
20
-2.45942443310366
30
0
41
1
10
11.8092815185944
20
-2.55993452775672
30
0
41
1
10
12.2379875580018
20
-2.60096279778213
30
0
41
1
10
12.7785109532189
20
-2.61901527097768
30
0
41
1
10
12.8899047578006
20
-2.62091501185185
30
0
41
1
10
13.001374331635
20
-2.62100442362183
30
0
0
SPLINE
5
C1
100
AcDbEntity
8
1
62
256
6
ByLayer
370
18
48
1
60
0
100
AcDbSpline
70
4
71
3
72
26
73
22
40
0
40
0
40
0
40
0
40
0.013320126336511
40
0.013320126336511
40
0.0955434491418037
40
0.0955434491418037
40
0.177766771947096
40
0.177766771947096
40
0.342213417557681
40
0.342213417557681
40
0.506660063168266
40
0.506660063168266
40
0.588883385973556
40
0.588883385973556
40
0.671106708778847
40
0.671106708778847
40
0.835553354389423
40
0.835553354389423
40
0.917776677194712
40
0.917776677194712
40
1
40
1
40
1
40
1
41
1
10
37.1471089942963
20
0.194904929585135
30
0
41
1
10
37.1821613558996
20
0.177212317923107
30
0
41
1
10
37.217235597671
20
0.159494909506122
30
0
41
1
10
37.4689853785536
20
0.0322516976267764
30
0
41
1
10
37.6866552160028
20
-0.0782204578940195
30
0
41
1
10
38.1189851640677
20
-0.296794523218324
30
0
41
1
10
38.3343155113702
20
-0.405241419703259
30
0
41
1
10
38.97885498239
20
-0.726007930398396
30
0
41
1
10
39.4067486010483
20
-0.933557439833038
30
1E-16
41
1
10
40.2639272941703
20
-1.32649516436203
30
1E-16
41
1
10
40.6933447832439
20
-1.51181593497975
30
1E-16
41
1
10
41.342511777222
20
-1.76576822262379
30
1E-16
41
1
10
41.5602095248173
20
-1.84655167909855
30
-1E-16
41
1
10
41.992908445706
20
-1.99715313832823
30
-1E-16
41
1
10
42.2084494458491
20
-2.06719858897827
30
-1E-16
41
1
10
42.8536620143474
20
-2.26053110502519
30
-1E-16
41
1
10
43.2818927319747
20
-2.366982981044
30
-1E-16
41
1
10
43.9254964554621
20
-2.48960012477863
30
0
41
1
10
44.140234760913
20
-2.52427727306315
30
0
41
1
10
44.570673014688
20
-2.58050020272492
30
0
41
1
10
44.7863684419967
20
-2.60182735809093
30
0
41
1
10
45.0028504844598
20
-2.61695309120776
30
0
0
SPLINE
5
C2
100
AcDbEntity
8
1
62
256
6
ByLayer
370
18
48
1
60
0
100
AcDbSpline
70
4
71
3
72
54
73
50
40
0
40
0
40
0
40
0
40
0.0300854835732941
40
0.0300854835732941
40
0.0909256754890518
40
0.0909256754890518
40
0.151765867404809
40
0.151765867404809
40
0.182185963362688
40
0.182185963362688
40
0.212606059320567
40
0.212606059320567
40
0.273446251236326
40
0.273446251236326
40
0.334286443152086
40
0.334286443152086
40
0.364706539109966
40
0.364706539109966
40
0.395126635067847
40
0.395126635067847
40
0.425546731025727
40
0.425546731025727
40
0.455966826983607
40
0.455966826983607
40
0.486386922941488
40
0.486386922941488
40
0.516807018899368
40
0.516807018899368
40
0.547227114857249
40
0.547227114857249
40
0.577647210815129
40
0.577647210815129
40
0.638487402730889
40
0.638487402730889
40
0.699327594646648
40
0.699327594646648
40
0.729747690604528
40
0.729747690604528
40
0.760167786562406
40
0.760167786562406
40
0.821007978478164
40
0.821007978478164
40
0.881848170393922
40
0.881848170393922
40
0.912268266351801
40
0.912268266351801
40
0.94268836230968
40
0.94268836230968
40
1
40
1
40
1
40
1
41
1
10
41.4647915991622
20
-1.83938780853916
30
1E-16
41
1
10
41.2554004119318
20
-1.92332925219603
30
1E-16
41
1
10
41.0468776582444
20
-2.00228274586254
30
-1E-16
41
1
10
40.418166585007
20
-2.22480754934588
30
-1E-16
41
1
10
40.0000088275178
20
-2.3525909000513
30
-1E-16
41
1
10
39.1635490911973
20
-2.56067694646561
30
-1E-16
41
1
10
38.7444851323901
20
-2.64044000571428
30
1E-16
41
1
10
38.1122619619701
20
-2.72131213832898
30
-1E-16
41
1
10
37.9003379716112
20
-2.74178578224411
30
0
41
1
10
37.4769177822395
20
-2.76873843772873
30
0
41
1
10
37.2660147281096
20
-2.77527689786976
30
0
41
1
10
36.6351959687145
20
-2.77456530719283
30
0
41
1
10
36.2174935472122
20
-2.74677367531109
30
0
41
1
10
35.3805309927377
20
-2.63898760869697
30
1E-16
41
1
10
34.9616365968466
20
-2.55904129883152
30
-1E-16
41
1
10
34.3293352200241
20
-2.40113226060029
30
-1E-16
41
1
10
34.1170777291151
20
-2.34212867492516
30
-1E-16
41
1
10
33.6935319985172
20
-2.21325542708453
30
-1E-16
41
1
10
33.4826640667322
20
-2.14348053671293
30
-1E-16
41
1
10
33.062200403515
20
-1.99407860225105
30
-1E-16
41
1
10
32.8527818453418
20
-1.91419828499016
30
1E-16
41
1
10
32.4341220694164
20
-1.74613634631677
30
1E-16
41
1
10
32.2248875875443
20
-1.65797048671143
30
1E-16
41
1
10
31.8062678999237
20
-1.47395975931795
30
1E-16
41
1
10
31.5968220032306
20
-1.37821532319859
30
1E-16
41
1
10
31.1775000932709
20
-1.17938622572453
30
1E-16
41
1
10
30.9674748044817
20
-1.07653588562744
30
1E-16
41
1
10
30.5455752597187
20
-0.865877177617733
30
1E-16
41
1
10
30.3331033177128
20
-0.757633621551349
30
0
41
1
10
29.9095960899871
20
-0.538421152455015
30
0
41
1
10
29.6988135178074
20
-0.427582943043831
30
0
41
1
10
29.0685090333566
20
-0.0930526594213177
30
0
41
1
10
28.6501576092516
20
0.130959381354188
30
0
41
1
10
27.8128366909477
20
0.572759061736406
30
0
41
1
10
27.3943184323287
20
0.791382665550714
30
0
41
1
10
26.7610881386473
20
1.10514785853326
30
-1E-16
41
1
10
26.5485409676068
20
1.20788667508691
30
-1E-16
41
1
10
26.1251715373182
20
1.40657605662915
30
-1E-16
41
1
10
25.9145772653081
20
1.5025233161825
30
-1E-16
41
1
10
25.2839680231982
20
1.7769444875866
30
-1E-16
41
1
10
24.8652794515286
20
1.94246348849848
30
1E-16
41
1
10
24.0284971382685
20
2.23495410569964
30
1E-16
41
1
10
23.6093395273336
20
2.36048557703484
30
1E-16
41
1
10
22.9759991228821
20
2.51349759760859
30
1E-16
41
1
10
22.7635564055897
20
2.55882132294016
30
1E-16
41
1
10
22.3403085961583
20
2.63613894561166
30
-1E-16
41
1
10
22.1295011403236
20
2.66807840250667
30
-1E-16
41
1
10
21.5229044615032
20
2.74087299118276
30
0
41
1
10
21.1287879152035
20
2.76482356612553
30
0
41
1
10
20.7345049241254
20
2.76483776896106
30
0
0
SPLINE
5
C3
100
AcDbEntity
8
1
62
256
6
ByLayer
370
18
48
1
60
0
100
AcDbSpline
70
4
71
3
72
16
73
12
40
0
40
0
40
0
40
0
40
0.0591193241817307
40
0.0591193241817307
40
0.215932770151443
40
0.215932770151443
40
0.372746216121155
40
0.372746216121155
40
0.686373108060577
40
0.686373108060577
40
1
40
1
40
1
40
1
41
1
10
8.27886515119897
20
-2.02289640741895
30
-1E-16
41
1
10
8.19939446905997
20
-2.05145930813251
30
-1E-16
41
1
10
8.11982198621922
20
-2.07933612050402
30
-1E-16
41
1
10
7.8287746405496
20
-2.17859128099843
30
-1E-16
41
1
10
7.61593267829033
20
-2.24585043487528
30
-1E-16
41
1
10
7.19233459548138
20
-2.36871576764784
30
-1E-16
41
1
10
6.98142290248518
20
-2.42423640434944
30
-1E-16
41
1
10
6.34948763567519
20
-2.57168135415401
30
-1E-16
41
1
10
5.92943237865089
20
-2.6449196880566
30
1E-16
41
1
10
5.08929581383717
20
-2.73954296937725
30
0
41
1
10
4.66824726333249
20
-2.76013438181005
30
0
41
1
10
4.24237731047594
20
-2.75336525112462
30
0
0
SPLINE
5
C4
100
AcDbEntity
8
1
62
256
6
ByLayer
370
18
48
1
60
0
100
AcDbSpline
70
4
71
3
72
8
73
4
40
0
40
0
40
0
40
0
40
1
40
1
40
1
40
1
41
1
10
45.000390745849
20
-2.62817570220881
30
0
41
1
10
44.9958420269434
20
-2.64103248382435
30
0
41
1
10
44.991312613356
20
-2.65388824316909
30
0
41
1
10
44.9868029458291
20
-2.66674314716727
30
0
0
SPLINE
5
C5
100
AcDbEntity
8
1
62
256
6
ByLayer
370
18
48
1
60
0
100
AcDbSpline
70
4
71
3
72
10
73
6
40
0
40
0
40
0
40
0
40
0.5
40
0.5
40
1
40
1
40
1
40
1
41
1
10
45.0360677965314
20
2.66499014106319
30
0
41
1
10
45.025287321977
20
2.67237522051656
30
0
41
1
10
45.0158991309766
20
2.67617782055672
30
0
41
1
10
44.9996824721757
20
2.67663764807244
30
0
41
1
10
44.9928094619264
20
2.67334091204387
30
0
41
1
10
44.9868029458292
20
2.66674314716698
30
0
0
SPLINE
5
C6
100
AcDbEntity
8
1
62
256
6
ByLayer
370
18
48
1
60
0
100
AcDbSpline
70
4
71
3
72
30
73
26
40
0
40
0
40
0
40
0
40
0.337753997651599
40
0.337753997651599
40
0.565819678328957
40
0.565819678328957
40
0.716480242069347
40
0.716480242069347
40
0.815999886777705
40
0.815999886777705
40
0.881789154766269
40
0.881789154766269
40
0.925304525765217
40
0.925304525765217
40
0.954097827500202
40
0.954097827500202
40
0.973150528785381
40
0.973150528785381
40
0.98575616994624
40
0.98575616994624
40
0.994097463781092
40
0.994097463781092
40
0.999618041487972
40
0.999618041487972
40
1
40
1
40
1
40
1
41
1
10
44.8638075761536
20
2.77952468122967
30
0
41
1
10
44.8823388672602
20
2.76740301760668
30
0
41
1
10
44.9008897822778
20
2.75520155640291
30
0
41
1
10
44.9319989449892
20
2.73463130260498
30
0
41
1
10
44.9445471168905
20
2.72630449529615
30
0
41
1
10
44.9653990840608
20
2.71241924858043
30
0
41
1
10
44.9736980571067
20
2.7068803498145
30
0
41
1
10
44.987485280228
20
2.69765778166882
30
0
41
1
10
44.9929714093622
20
2.6939825552455
30
0
41
1
10
45.0020870050924
20
2.687866956557
30
0
41
1
10
45.0057155424275
20
2.68543023932682
30
0
41
1
10
45.0117453330908
20
2.68137709306012
30
0
41
1
10
45.0141461792628
20
2.6797622528467
30
0
41
1
10
45.018136151338
20
2.67707685339329
30
0
41
1
10
45.0197250093112
20
2.67600704691736
30
0
41
1
10
45.0223663893867
20
2.67422781873799
30
0
41
1
10
45.0234185273529
20
2.67351890604107
30
0
41
1
10
45.0251676416631
20
2.67234006245147
30
0
41
1
10
45.0258643270705
20
2.67187043592017
30
0
41
1
10
45.0270224874731
20
2.67108959672885
30
0
41
1
10
45.027483803554
20
2.67077853801675
30
0
41
1
10
45.0282506679468
20
2.67026139253474
30
0
41
1
10
45.0285561378264
20
2.67005537894153
30
0
41
1
10
45.0288828128119
20
2.66983504751732
30
0
41
1
10
45.0289039525742
20
2.66982078937519
30
0
41
1
10
45.0289250926523
20
2.66980653094473
30
0
0
SPLINE
5
C7
100
AcDbEntity
8
1
62
256
6
ByLayer
370
18
48
1
60
0
100
AcDbSpline
70
4
71
3
72
8
73
4
40
0
40
0
40
0
40
0
40
1
40
1
40
1
40
1
41
1
10
45.9959536182558
20
0.197354657681728
30
0
41
1
10
45.9807448340076
20
0.145923548929972
30
0
41
1
10
45.9654416427325
20
0.094522682222248
30
0
41
1
10
45.9500444853514
20
0.0431519163152529
30
0
0
SPLINE
5
C8
100
AcDbEntity
8
1
62
256
6
ByLayer
370
18
48
1
60
0
100
AcDbSpline
70
4
71
3
72
8
73
4
40
0
40
0
40
0
40
0
40
1
40
1
40
1
40
1
41
1
10
45.9959536182558
20
0.197354657681757
30
0
41
1
10
46.0013518490797
20
0.065710380915732
30
0
41
1
10
46.0013457422045
20
-0.0658593065820128
30
0
41
1
10
45.9959536182564
20
-0.197354657667972
30
0
0
SPLINE
5
C9
100
AcDbEntity
8
1
62
256
6
ByLayer
370
18
48
1
60
0
100
AcDbSpline
70
4
71
3
72
38
73
34
40
0
40
0
40
0
40
0
40
0.0831117037225092
40
0.0831117037225092
40
0.124667555583765
40
0.124667555583765
40
0.166223407445021
40
0.166223407445021
40
0.332446814890049
40
0.332446814890049
40
0.374002666751307
40
0.374002666751307
40
0.415558518612564
40
0.415558518612564
40
0.457114370473821
40
0.457114370473821
40
0.498670222335078
40
0.498670222335078
40
0.664893629780109
40
0.664893629780109
40
0.706449481641369
40
0.706449481641369
40
0.748005333502628
40
0.748005333502628
40
0.831117037225147
40
0.831117037225147
40
0.914228740947665
40
0.914228740947665
40
0.955784592808925
40
0.955784592808925
40
0.997340444670184
40
0.997340444670184
40
1
40
1
40
1
40
1
41
1
10
44.8524566943805
20
-2.74448482552953
30
0
41
1
10
44.419989893189
20
-2.70735818176863
30
1E-16
41
1
10
43.9888096142801
20
-2.6419906455306
30
1E-16
41
1
10
43.3402677209339
20
-2.50396781285718
30
-1E-16
41
1
10
43.1232512218727
20
-2.45112918611741
30
-1E-16
41
1
10
42.6908095438025
20
-2.33343459016388
30
-1E-16
41
1
10
42.4755238084474
20
-2.26866107625199
30
-1E-16
41
1
10
41.4019574114675
20
-1.91769663498272
30
1E-16
41
1
10
40.5521251297086
20
-1.5502419801486
30
1E-16
41
1
10
39.4728810164282
20
-1.02373920761258
30
1E-16
41
1
10
39.2557290707325
20
-0.914942466452345
30
1E-16
41
1
10
38.8229404324705
20
-0.693791477046204
30
0
41
1
10
38.6069357759254
20
-0.581242077367364
30
0
41
1
10
38.1748253303913
20
-0.35382269894302
30
0
41
1
10
37.9587141874089
20
-0.238963719948231
30
0
41
1
10
37.5256553667064
20
-0.0083010409676092
30
0
41
1
10
37.3085836156329
20
0.107565109932779
30
0
41
1
10
36.2297992681917
20
0.68021380061785
30
0
41
1
10
35.3800084973158
20
1.12231457706679
30
-1E-16
41
1
10
34.3053487896804
20
1.6027613001186
30
-1E-16
41
1
10
34.0897872508357
20
1.69523749049307
30
-1E-16
41
1
10
33.6567179569057
20
1.87174866055636
30
-1E-16
41
1
10
33.4399812685611
20
1.95542768853505
30
1E-16
41
1
10
32.7936991634073
20
2.18921440945047
30
1E-16
41
1
10
32.3658443254669
20
2.32300327199286
30
1E-16
41
1
10
31.51038616534
20
2.54109266154165
30
1E-16
41
1
10
31.0828191013951
20
2.62542618158432
30
0
41
1
10
30.4374144076515
20
2.71116454190985
30
-1E-16
41
1
10
30.2216054609214
20
2.73295454821732
30
0
41
1
10
29.7879001087315
20
2.76236067347392
30
0
41
1
10
29.5717604386428
20
2.76984306566425
30
0
41
1
10
29.342714879721
20
2.77022614089083
30
0
41
1
10
29.3289406635749
20
2.77021997762685
30
0
41
1
10
29.3151692207173
20
2.77018465273639
30
0
0
SPLINE
5
CA
100
AcDbEntity
8
1
62
256
6
ByLayer
370
18
48
1
60
0
100
AcDbSpline
70
4
71
3
72
26
73
22
40
0
40
0
40
0
40
0
40
0.0523011846839118
40
0.0523011846839118
40
0.289225888512932
40
0.289225888512932
40
0.348457064470186
40
0.348457064470186
40
0.407688240427441
40
0.407688240427441
40
0.526150592341952
40
0.526150592341952
40
0.644612944256463
40
0.644612944256463
40
0.703844120213719
40
0.703844120213719
40
0.763075296170975
40
0.763075296170975
40
0.881537648085487
40
0.881537648085487
40
1
40
1
40
1
40
1
41
1
10
14.447999042518
20
-2.65239845991201
30
1E-16
41
1
10
14.2573237618048
20
-2.68036846418153
30
1E-16
41
1
10
14.0672588420997
20
-2.70288094819412
30
1E-16
41
1
10
13.0183610584292
20
-2.79724888909584
30
0
41
1
10
12.1675577030975
20
-2.7623442361907
30
0
41
1
10
11.085524222332
20
-2.5794876088307
30
0
41
1
10
10.868049491236
20
-2.53588986839733
30
-1E-16
41
1
10
10.4361120708503
20
-2.43645887918473
30
-1E-16
41
1
10
10.2209587855169
20
-2.38052216991096
30
-1E-16
41
1
10
9.57690011728954
20
-2.19534688157356
30
-1E-16
41
1
10
9.14933576928661
20
-2.04879811118576
30
-1E-16
41
1
10
8.29227020748158
20
-1.7166533438388
30
1E-16
41
1
10
7.86274280034692
20
-1.53109242401936
30
1E-16
41
1
10
7.21267905107095
20
-1.22930090397446
30
1E-16
41
1
10
6.99544663403276
20
-1.12498779415807
30
1E-16
41
1
10
6.56378090141266
20
-0.912564433703238
30
1E-16
41
1
10
6.34870288281672
20
-0.804140711953238
30
0
41
1
10
5.70474943400012
20
-0.474116628140251
30
0
41
1
10
5.27719161851454
20
-0.247686246052012
30
0
41
1
10
4.41942111351557
20
0.206212848810168
30
0
41
1
10
3.98923571539683
20
0.433723275076232
30
0
41
1
10
3.55522771458834
20
0.656954782718003
30
0
0
SPLINE
5
CB
100
AcDbEntity
8
1
62
256
6
ByLayer
370
18
48
1
60
0
100
AcDbSpline
70
4
71
3
72
8
73
4
40
0
40
0
40
0
40
0
40
1
40
1
40
1
40
1
41
1
10
44.6229873063968
20
-0.0674205862164285
30
0
41
1
10
44.6175640084971
20
0.0634444137581056
30
0
41
1
10
44.6164663828513
20
0.193796574291781
30
0
41
1
10
44.6211982192052
20
0.323631714568023
30
0
0
SPLINE
5
CC
100
AcDbEntity
8
1
62
256
6
ByLayer
370
18
48
1
60
0
100
AcDbSpline
70
4
71
3
72
8
73
4
40
0
40
0
40
0
40
0
40
1
40
1
40
1
40
1
41
1
10
44.8524566943765
20
2.74448482553069
30
0
41
1
10
44.8567332015878
20
2.76543451305915
30
0
41
1
10
44.8604703875718
20
2.77727643996775
30
0
41
1
10
44.8638075761536
20
2.77952468122967
30
0
0
SPLINE
5
CD
100
AcDbEntity
8
1
62
256
6
ByLayer
370
18
48
1
60
0
100
AcDbSpline
70
4
71
3
72
8
73
4
40
0
40
0
40
0
40
0
40
1
40
1
40
1
40
1
41
1
10
45.4563444356766
20
-0.449208437167783
30
0
41
1
10
45.2954590268298
20
-0.180705639218246
30
0
41
1
10
45.0978547652095
20
0.121155268642951
30
0
41
1
10
44.8588199728241
20
0.460654721681692
30
0
0
SPLINE
5
CE
100
AcDbEntity
8
1
62
256
6
ByLayer
370
18
48
1
60
0
100
AcDbSpline
70
4
71
3
72
30
73
26
40
0
40
0
40
0
40
0
40
0.0801635393631189
40
0.0801635393631189
40
0.160327078726238
40
0.160327078726238
40
0.320654157452474
40
0.320654157452474
40
0.400817696815592
40
0.400817696815592
40
0.44089946649715
40
0.44089946649715
40
0.480981236178709
40
0.480981236178709
40
0.641308314904946
40
0.641308314904946
40
0.721471854268064
40
0.721471854268064
40
0.761553623949623
40
0.761553623949623
40
0.801635393631181
40
0.801635393631181
40
0.961962472357414
40
0.961962472357414
40
1
40
1
40
1
40
1
41
1
10
18.2
20
1.14532709801313
30
-1E-16
41
1
10
18.4800593628133
20
1.01009352640179
30
-1E-16
41
1
10
18.7604116525004
20
0.869677599843413
30
-1E-16
41
1
10
19.3198049052391
20
0.583097509498515
30
0
41
1
10
19.5978713945714
20
0.437468677805043
30
0
41
1
10
20.4296197522263
20
-0.0017363750864376
30
0
41
1
10
20.9808389975884
20
-0.297654071246882
30
0
41
1
10
21.8116101962654
20
-0.729186032635226
30
0
41
1
10
22.0891983183625
20
-0.870958630634078
30
1E-16
41
1
10
22.5077689700576
20
-1.07822837218669
30
1E-16
41
1
10
22.6479477757028
20
-1.14655470315344
30
1E-16
41
1
10
22.9276162265881
20
-1.28023421818111
30
1E-16
41
1
10
23.0670445938294
20
-1.34556357670448
30
1E-16
41
1
10
23.7626629325774
20
-1.66393877959541
30
1E-16
41
1
10
24.3142612767892
20
-1.8921814818128
30
1E-16
41
1
10
25.1434400102969
20
-2.18229890046103
30
-1E-16
41
1
10
25.4201301848048
20
-2.27030461494314
30
-1E-16
41
1
10
25.8367267872545
20
-2.38777288322174
30
-1E-16
41
1
10
25.9758534710191
20
-2.42450442742859
30
-1E-16
41
1
10
26.2548320291377
20
-2.49285568567359
30
-1E-16
41
1
10
26.3949715486983
20
-2.52453160541938
30
-1E-16
41
1
10
27.0940613560522
20
-2.66868380924788
30
1E-16
41
1
10
27.6468305861691
20
-2.73832366986395
30
-1E-16
41
1
10
28.3302127198115
20
-2.76673718725746
30
0
41
1
10
28.4612303378553
20
-2.76955716665989
30
0
41
1
10
28.592305328431
20
-2.76974289793117
30
0
0
SPLINE
5
CF
100
AcDbEntity
8
1
62
256
6
ByLayer
370
18
48
1
60
0
100
AcDbSpline
70
4
71
3
72
8
73
4
40
0
40
0
40
0
40
0
40
1
40
1
40
1
40
1
41
1
10
18.2
20
1.10875623277866
30
-1E-16
41
1
10
18.2
20
1.10610157042703
30
-1E-16
41
1
10
18.2
20
1.10293918099833
30
-1E-16
41
1
10
18.2
20
1.09927319704136
30
-1E-16
0
SPLINE
5
D0
100
AcDbEntity
8
1
62
256
6
ByLayer
370
18
48
1
60
0
100
AcDbSpline
70
4
71
3
72
56
73
52
40
0
40
0
40
0
40
0
40
0.0785023126966931
40
0.0785023126966931
40
0.117753469045039
40
0.117753469045039
40
0.157004625393385
40
0.157004625393385
40
0.196255781741731
40
0.196255781741731
40
0.235506938090077
40
0.235506938090077
40
0.274758094438423
40
0.274758094438423
40
0.31400925078677
40
0.31400925078677
40
0.353260407135115
40
0.353260407135115
40
0.392511563483462
40
0.392511563483462
40
0.431762719831807
40
0.431762719831807
40
0.471013876180154
40
0.471013876180154
40
0.5102650325285
40
0.5102650325285
40
0.549516188876846
40
0.549516188876846
40
0.588767345225192
40
0.588767345225192
40
0.628018501573538
40
0.628018501573538
40
0.667269657921884
40
0.667269657921884
40
0.70652081427023
40
0.70652081427023
40
0.745771970618576
40
0.745771970618576
40
0.785023126966922
40
0.785023126966922
40
0.824274283315268
40
0.824274283315268
40
0.863525439663614
40
0.863525439663614
40
0.90277659601196
40
0.90277659601196
40
0.942027752360306
40
0.942027752360306
40
0.981278908708652
40
0.981278908708652
40
1
40
1
40
1
40
1
41
1
10
3.64943856670314
20
2.75411772038268
30
0
41
1
10
4.07843846468427
20
2.75307649781377
30
0
41
1
10
4.50713454912469
20
2.7232268315615
30
0
41
1
10
5.15207381609213
20
2.63817192314229
30
-1E-16
41
1
10
5.36755258820551
20
2.60301988854775
30
0
41
1
10
5.79849304169124
20
2.51932127993493
30
1E-16
41
1
10
6.01265056232305
20
2.47084632534043
30
1E-16
41
1
10
6.43985008274171
20
2.36206561441267
30
1E-16
41
1
10
6.65304057017596
20
2.30194950821209
30
1E-16
41
1
10
7.07858291477845
20
2.1704461259724
30
1E-16
41
1
10
7.29092776842012
20
2.09901369734234
30
1E-16
41
1
10
7.71597575431491
20
1.94630644463695
30
1E-16
41
1
10
7.92870113071342
20
1.86509420516714
30
-1E-16
41
1
10
8.35462971388645
20
1.69299558264055
30
-1E-16
41
1
10
8.56779957765605
20
1.60202218027149
30
-1E-16
41
1
10
8.99588687667412
20
1.4121400745274
30
-1E-16
41
1
10
9.211421940024
20
1.31305996112678
30
-1E-16
41
1
10
9.64165246602306
20
1.10848854303424
30
-1E-16
41
1
10
9.8556294299176
20
1.00324584364549
30
-1E-16
41
1
10
10.2825908691732
20
0.789258641052129
30
0
41
1
10
10.4956216369683
20
0.680606073696111
30
0
41
1
10
10.9209111815206
20
0.460246744867078
30
0
41
1
10
11.1331237976713
20
0.348447247128746
30
0
41
1
10
11.5579436469365
20
0.124012380199957
30
0
41
1
10
11.7705975106122
20
0.0114718853009208
30
0
41
1
10
12.1965070858546
20
-0.214042389878728
30
0
41
1
10
12.4097166184247
20
-0.327111598969225
30
0
41
1
10
12.8379301552394
20
-0.55138150295582
30
0
41
1
10
13.0536483452501
20
-0.662823604647258
30
0
41
1
10
13.4834499129455
20
-0.881798485499388
30
1E-16
41
1
10
13.6972346289741
20
-0.989146513482581
30
1E-16
41
1
10
14.1240971439587
20
-1.19690265508436
30
1E-16
41
1
10
14.3370483644513
20
-1.29757315492597
30
1E-16
41
1
10
14.7620774180407
20
-1.49240389957157
30
1E-16
41
1
10
14.9741820855561
20
-1.58648645274991
30
1E-16
41
1
10
15.3990987321757
20
-1.76558948339834
30
1E-16
41
1
10
15.6117534768458
20
-1.85088255826713
30
1E-16
41
1
10
16.0375944090177
20
-2.01264967477189
30
-1E-16
41
1
10
16.2508134679046
20
-2.08904678416451
30
-1E-16
41
1
10
16.6793198786248
20
-2.2308105699102
30
-1E-16
41
1
10
16.8951285869121
20
-2.29661017756101
30
-1E-16
41
1
10
17.3244848440234
20
-2.4159746707453
30
-1E-16
41
1
10
17.5381052659216
20
-2.46948000640833
30
-1E-16
41
1
10
17.9648553928307
20
-2.56304706329323
30
-1E-16
41
1
10
18.1777259091986
20
-2.60337923163118
30
0
41
1
10
18.6025270874742
20
-2.67110116140438
30
1E-16
41
1
10
18.8144970910093
20
-2.69839724866182
30
1E-16
41
1
10
19.2394957387656
20
-2.73911837971912
30
0
41
1
10
19.452182297347
20
-2.75273031867752
30
0
41
1
10
19.7666900344191
20
-2.76267698584491
30
0
41
1
10
19.8683143670582
20
-2.76430984578286
30
0
41
1
10
19.97009345065
20
-2.76435407281176
30
0
0
SPLINE
5
D1
100
AcDbEntity
8
1
62
256
6
ByLayer
370
18
48
1
60
0
100
AcDbSpline
70
4
71
3
72
30
73
26
40
0
40
0
40
0
40
0
40
0.0072794739446598
40
0.0072794739446598
40
0.0734608423483477
40
0.0734608423483477
40
0.139642210752036
40
0.139642210752036
40
0.205823579155724
40
0.205823579155724
40
0.338186315963103
40
0.338186315963103
40
0.404367684366793
40
0.404367684366793
40
0.470549052770483
40
0.470549052770483
40
0.536730421174172
40
0.536730421174172
40
0.602911789577861
40
0.602911789577861
40
0.735274526385241
40
0.735274526385241
40
0.86763726319262
40
0.86763726319262
40
1
40
1
40
1
40
1
41
1
10
34.9494226916326
20
2.67797077108099
30
-1E-16
41
1
10
34.9728508784446
20
2.68124050696935
30
-1E-16
41
1
10
34.9962843679306
20
2.68443035300962
30
-1E-16
41
1
10
35.2328217792796
20
2.71580967991056
30
-1E-16
41
1
10
35.4467508346475
20
2.73729043810087
30
0
41
1
10
35.876292760218
20
2.76647508535953
30
0
41
1
10
36.0914023060962
20
2.77409966253708
30
0
41
1
10
36.5185210224715
20
2.77502109900107
30
0
41
1
10
36.7315616081807
20
2.76839193027757
30
0
41
1
10
37.3698854882123
20
2.72810661407453
30
1E-16
41
1
10
37.7941829026519
20
2.67414572160905
30
-1E-16
41
1
10
38.4310255302692
20
2.55334310633498
30
1E-16
41
1
10
38.6433508541333
20
2.50634617804764
30
1E-16
41
1
10
39.0695123109737
20
2.3997916860518
30
1E-16
41
1
10
39.2833902775098
20
2.34031233739316
30
1E-16
41
1
10
39.7131505072078
20
2.20919802383511
30
1E-16
41
1
10
39.9281345028329
20
2.13777074199484
30
1E-16
41
1
10
40.3556166190946
20
1.98537702805882
30
1E-16
41
1
10
40.5686437731481
20
1.9042747094723
30
-1E-16
41
1
10
41.206343555176
20
1.64746599189903
30
-1E-16
41
1
10
41.6297135520885
20
1.45831835776534
30
-1E-16
41
1
10
42.4791776626257
20
1.05409073663947
30
-1E-16
41
1
10
42.9051178860564
20
0.838770875614358
30
-1E-16
41
1
10
43.7652269591812
20
0.391361061197188
30
0
41
1
10
44.1937492143262
20
0.16151720056024
30
0
41
1
10
44.6229873064038
20
-0.0674205862174517
30
0
0
SPLINE
5
D2
100
AcDbEntity
8
1
62
256
6
ByLayer
370
18
48
1
60
0
100
AcDbSpline
70
4
71
3
72
22
73
18
40
0
40
0
40
0
40
0
40
0.108887955891693
40
0.108887955891693
40
0.184399514887631
40
0.184399514887631
40
0.25991107388357
40
0.25991107388357
40
0.410934191875447
40
0.410934191875447
40
0.561957309867324
40
0.561957309867324
40
0.637468868863262
40
0.637468868863262
40
0.712980427859201
40
0.712980427859201
40
1
40
1
40
1
40
1
41
1
10
20.7860392224474
20
0.199210230109884
30
0
41
1
10
21.0957131322574
20
0.0434327141088318
30
0
41
1
10
21.4058883111143
20
-0.113791300686103
30
0
41
1
10
21.9338082169641
20
-0.378768676858584
30
0
41
1
10
22.1511775097221
20
-0.487235487191441
30
0
41
1
10
22.5857505657387
20
-0.70100969505549
30
0
41
1
10
22.8026205972113
20
-0.806096612160815
30
0
41
1
10
23.4528411106114
20
-1.1141771788038
30
1E-16
41
1
10
23.8859419665429
20
-1.31006341437069
30
1E-16
41
1
10
24.7558287541933
20
-1.67213560473542
30
1E-16
41
1
10
25.1892725834393
20
-1.83691858533763
30
-1E-16
41
1
10
25.8415747332053
20
-2.05391655049394
30
-1E-16
41
1
10
26.0584495650656
20
-2.12079768870012
30
-1E-16
41
1
10
26.4902702122432
20
-2.24272020983293
30
-1E-16
41
1
10
26.7055105996283
20
-2.29793655747795
30
-1E-16
41
1
10
27.737079407152
20
-2.53393018273931
30
0
41
1
10
28.5481578900836
20
-2.63192381437384
30
0
41
1
10
29.3718573620703
20
-2.63150165409238
30
0
0
SPLINE
5
D3
100
AcDbEntity
8
1
62
256
6
ByLayer
370
18
48
1
60
0
100
AcDbSpline
70
4
71
3
72
10
73
6
40
0
40
0
40
0
40
0
40
0.5
40
0.5
40
1
40
1
40
1
40
1
41
1
10
45.3078471265679
20
0.752026367152808
30
0
41
1
10
45.3861320947512
20
0.76328308695156
30
0
41
1
10
45.464203042465
20
0.775739879292985
30
0
41
1
10
45.6197931748779
20
0.80374735329201
30
0
41
1
10
45.697326368145
20
0.819679788481039
30
0
41
1
10
45.7741214201978
20
0.838780620850486
30
0
0
SPLINE
5
D4
100
AcDbEntity
8
1
62
256
6
ByLayer
370
18
48
1
60
0
100
AcDbSpline
70
4
71
3
72
22
73
18
40
0
40
0
40
0
40
0
40
0.166763946220902
40
0.166763946220902
40
0.333527892441804
40
0.333527892441804
40
0.416909865552253
40
0.416909865552253
40
0.500291838662702
40
0.500291838662702
40
0.6670557848836
40
0.6670557848836
40
0.833819731104498
40
0.833819731104498
40
0.917201704214949
40
0.917201704214949
40
1
40
1
40
1
40
1
41
1
10
44.621198219205
20
0.323631714560747
30
0
41
1
10
44.2006115941265
20
0.547170168476725
30
0
41
1
10
43.7819777431963
20
0.765008131389692
30
0
41
1
10
42.9458098016386
20
1.18431759370512
30
-1E-16
41
1
10
42.5273241109171
20
1.38402873638816
30
-1E-16
41
1
10
41.895274156603
20
1.66214771234519
30
-1E-16
41
1
10
41.6835181289792
20
1.7515979646806
30
-1E-16
41
1
10
41.2600388759613
20
1.92157234345396
30
-1E-16
41
1
10
41.0491913557815
20
2.00146384014943
30
1E-16
41
1
10
40.418166585007
20
2.22480754934588
30
1E-16
41
1
10
40.0000088275179
20
2.35259090005127
30
1E-16
41
1
10
39.1635490911974
20
2.56067694646561
30
1E-16
41
1
10
38.7444851323902
20
2.64044000571425
30
-1E-16
41
1
10
38.1122619619701
20
2.72131213832896
30
1E-16
41
1
10
37.9003379716113
20
2.74178578224411
30
0
41
1
10
37.4783997618236
20
2.76864410286666
30
0
41
1
10
37.2689674281874
20
2.77518501891714
30
0
41
1
10
37.0601576589006
20
2.77504368605292
30
0
0
SPLINE
5
D5
100
AcDbEntity
8
1
62
256
6
ByLayer
370
18
48
1
60
0
100
AcDbSpline
70
4
71
3
72
54
73
50
40
0
40
0
40
0
40
0
40
0.0363193809576812
40
0.0363193809576812
40
0.0970026866490323
40
0.0970026866490323
40
0.127344339494708
40
0.127344339494708
40
0.157685992340383
40
0.157685992340383
40
0.218369298031734
40
0.218369298031734
40
0.279052603723085
40
0.279052603723085
40
0.309394256568761
40
0.309394256568761
40
0.339735909414437
40
0.339735909414437
40
0.400419215105788
40
0.400419215105788
40
0.461102520797139
40
0.461102520797139
40
0.491444173642814
40
0.491444173642814
40
0.521785826488489
40
0.521785826488489
40
0.552127479334164
40
0.552127479334164
40
0.582469132179839
40
0.582469132179839
40
0.64315243787119
40
0.64315243787119
40
0.673494090716865
40
0.673494090716865
40
0.703835743562541
40
0.703835743562541
40
0.764519049253893
40
0.764519049253893
40
0.794860702099568
40
0.794860702099568
40
0.825202354945244
40
0.825202354945244
40
0.855544007790919
40
0.855544007790919
40
0.885885660636595
40
0.885885660636595
40
0.946568966327946
40
0.946568966327946
40
1
40
1
40
1
40
1
41
1
10
25.1987424407161
20
-1.80580577414278
30
0
41
1
10
24.9478148726124
20
-1.90674708568824
30
0
41
1
10
24.697298315148
20
-2.00117996168336
30
-1E-16
41
1
10
24.0284971382685
20
-2.23495410569961
30
-1E-16
41
1
10
23.6093395273336
20
-2.36048557703484
30
-1E-16
41
1
10
22.9759991228822
20
-2.51349759760856
30
-1E-16
41
1
10
22.7635564055898
20
-2.55882132294016
30
-1E-16
41
1
10
22.3403085961584
20
-2.63613894561166
30
1E-16
41
1
10
22.1295011403237
20
-2.66807840250667
30
1E-16
41
1
10
21.4985072544132
20
-2.74380077617889
30
0
41
1
10
21.080266244974
20
-2.76768326648926
30
0
41
1
10
20.2430878043296
20
-2.76145296329292
30
0
41
1
10
19.8234535613984
20
-2.73157504493983
30
0
41
1
10
19.1903233532784
20
-2.64613084655119
30
1E-16
41
1
10
18.977907589601
20
-2.61070303068413
30
0
41
1
10
18.5544313550803
20
-2.52750671802752
30
-1E-16
41
1
10
18.3434793652834
20
-2.47979347597979
30
-1E-16
41
1
10
17.7124341008294
20
-2.31916073764086
30
-1E-16
41
1
10
17.2944633393902
20
-2.18828051910384
30
-1E-16
41
1
10
16.4566033793771
20
-1.88774047943969
30
1E-16
41
1
10
16.0372477189706
20
-1.71754161853622
30
1E-16
41
1
10
15.4039303901608
20
-1.4367316525437
30
1E-16
41
1
10
15.1912427249671
20
-1.33886939861819
30
1E-16
41
1
10
14.7676126153177
20
-1.13799835744464
30
1E-16
41
1
10
14.5566560436093
20
-1.03498458854534
30
1E-16
41
1
10
14.1360660281381
20
-0.824555193401693
30
1E-16
41
1
10
13.9265236702739
20
-0.716965011178502
30
0
41
1
10
13.5075134791984
20
-0.499725272710435
30
0
41
1
10
13.298076918599
20
-0.390023019005014
30
0
41
1
10
12.6695242874651
20
-0.0585431265731131
30
0
41
1
10
12.2505251306249
20
0.166327762290678
30
0
41
1
10
11.6166891854132
20
0.499099611935321
30
0
41
1
10
11.4038719539702
20
0.609651617642186
30
0
41
1
10
10.9802363701571
20
0.82636055409543
30
-1E-16
41
1
10
10.7694142672336
20
0.932670854499975
30
-1E-16
41
1
10
10.138745523001
20
1.24336155340208
30
-1E-16
41
1
10
9.72000215896645
20
1.43829805330068
30
-1E-16
41
1
10
9.0914260189945
20
1.70778531656364
30
-1E-16
41
1
10
8.88202922769258
20
1.7940876479706
30
-1E-16
41
1
10
8.46207377699767
20
1.95740956750939
30
1E-16
41
1
10
8.25150007664516
20
2.034430265174
30
1E-16
41
1
10
7.82877464054963
20
2.17859128099843
30
1E-16
41
1
10
7.61593267829039
20
2.24585043487525
30
1E-16
41
1
10
7.19233459548141
20
2.36871576764784
30
1E-16
41
1
10
6.98142290248524
20
2.42423640434941
30
1E-16
41
1
10
6.34948763567525
20
2.57168135415401
30
1E-16
41
1
10
5.92943237865086
20
2.6449196880566
30
-1E-16
41
1
10
5.1394982445714
20
2.73388874728371
30
0
41
1
10
4.76887242795414
20
2.75483097904584
30
0
41
1
10
4.39486464738548
20
2.75462093826334
30
0
0
SPLINE
5
D6
100
AcDbEntity
8
1
62
256
6
ByLayer
370
18
48
1
60
0
100
AcDbSpline
70
4
71
3
72
28
73
24
40
0
40
0
40
0
40
0
40
0.125000000000003
40
0.125000000000003
40
0.187500000000003
40
0.187500000000003
40
0.250000000000004
40
0.250000000000004
40
0.375000000000005
40
0.375000000000005
40
0.437500000000005
40
0.437500000000005
40
0.500000000000005
40
0.500000000000005
40
0.625000000000004
40
0.625000000000004
40
0.687500000000004
40
0.687500000000004
40
0.750000000000003
40
0.750000000000003
40
0.875000000000002
40
0.875000000000002
40
1
40
1
40
1
40
1
41
1
10
44.6919091857014
20
-0.110074646654567
30
0
41
1
10
44.6965328846847
20
-0.265281046269393
30
0
41
1
10
44.7071271067109
20
-0.417205747555926
30
0
41
1
10
44.7278276694994
20
-0.640730346264661
30
0
41
1
10
44.7355454765552
20
-0.714505614647265
30
0
41
1
10
44.7520757948756
20
-0.860619670933602
30
1E-16
41
1
10
44.7609290030528
20
-0.933268746793175
30
1E-16
41
1
10
44.7881228147813
20
-1.1467027252863
30
1E-16
41
1
10
44.8068964848258
20
-1.28204507942161
30
1E-16
41
1
10
44.8338244015543
20
-1.47517186461786
30
1E-16
41
1
10
44.84260748664
20
-1.53788782242296
30
1E-16
41
1
10
44.8595550841504
20
-1.65995178236798
30
1E-16
41
1
10
44.8677536699761
20
-1.71955826037561
30
1E-16
41
1
10
44.8908127114326
20
-1.89024844482225
30
-1E-16
41
1
10
44.9041806347397
20
-1.99386639825562
30
-1E-16
41
1
10
44.9215789769283
20
-2.13429527327602
30
-1E-16
41
1
10
44.926946944795
20
-2.17859046656903
30
-1E-16
41
1
10
44.9370171397509
20
-2.26201829122527
30
-1E-16
41
1
10
44.9417336181006
20
-2.30126231964502
30
-1E-16
41
1
10
44.9550968346782
20
-2.40893806496655
30
-1E-16
41
1
10
44.9630106882621
20
-2.46811487683101
30
0
41
1
10
44.9804917076325
20
-2.5616498191373
30
0
41
1
10
44.9901277799119
20
-2.59608221689243
30
0
41
1
10
45.0028504844598
20
-2.61695309120776
30
0
0
SPLINE
5
D7
100
AcDbEntity
8
1
62
256
6
ByLayer
370
18
48
1
60
0
100
AcDbSpline
70
4
71
3
72
36
73
32
40
0
40
0
40
0
40
0
40
0.0347347321765437
40
0.0347347321765437
40
0.102883944770029
40
0.102883944770029
40
0.171033157363515
40
0.171033157363515
40
0.239182369957001
40
0.239182369957001
40
0.307331582550486
40
0.307331582550486
40
0.375480795143972
40
0.375480795143972
40
0.443630007737458
40
0.443630007737458
40
0.579928432924429
40
0.579928432924429
40
0.648077645517915
40
0.648077645517915
40
0.682152251814658
40
0.682152251814658
40
0.7162268581114
40
0.7162268581114
40
0.784376070704886
40
0.784376070704886
40
0.852525283298372
40
0.852525283298372
40
0.988823708485345
40
0.988823708485345
40
1
40
1
40
1
40
1
41
1
10
37.079741447307
20
-0.164532365278774
30
0
41
1
10
36.9366965164007
20
-0.0912899224261139
30
0
41
1
10
36.7933679788781
20
-0.0177124487507569
30
0
41
1
10
36.368340257459
20
0.20026235159952
30
0
41
1
10
36.0870246345845
20
0.344338791349429
30
0
41
1
10
35.5240299195656
20
0.628159540171595
30
0
41
1
10
35.2433971194216
20
0.767749577341306
30
0
41
1
10
34.6838684694549
20
1.03791419627962
30
-1E-16
41
1
10
34.4047435481043
20
1.16877959639692
30
-1E-16
41
1
10
33.8460957835308
20
1.41914061383056
30
-1E-16
41
1
10
33.5666854247932
20
1.53915049462131
30
-1E-16
41
1
10
33.0060349541864
20
1.76520910447366
30
-1E-16
41
1
10
32.7238984395588
20
1.87177563104035
30
1E-16
41
1
10
32.163592341884
20
2.06558152924521
30
1E-16
41
1
10
31.8847952504103
20
2.15385766915614
30
1E-16
41
1
10
31.0503801196628
20
2.38888054180694
30
1E-16
41
1
10
30.4965779109681
20
2.50584539150955
30
0
41
1
10
29.661088730545
20
2.61669203509615
30
0
41
1
10
29.3817477967047
20
2.6424825369061
30
0
41
1
10
28.9603232434002
20
2.6636799288635
30
0
41
1
10
28.8193854446938
20
2.66777568949399
30
0
41
1
10
28.5382634865321
20
2.67035846599617
30
0
41
1
10
28.3978814707357
20
2.6689479936835
30
0
41
1
10
27.9768778007935
20
2.65585666561668
30
0
41
1
10
27.6964486278935
20
2.63520440759194
30
0
41
1
10
27.1345234819908
20
2.57089952568455
30
0
41
1
10
26.8524994613322
20
2.52700930562349
30
0
41
1
10
26.0125831690401
20
2.36513440136511
30
1E-16
41
1
10
25.4578024051185
20
2.21397708285926
30
1E-16
41
1
10
24.8568998195761
20
2.01408130374182
30
1E-16
41
1
10
24.8113552932418
20
1.99869441095089
30
1E-16
41
1
10
24.7658022601751
20
1.98307382132529
30
1E-16
0
SPLINE
5
D8
100
AcDbEntity
8
1
62
256
6
ByLayer
370
18
48
1
60
0
100
AcDbSpline
70
4
71
3
72
14
73
10
40
0
40
0
40
0
40
0
40
0.268466328160885
40
0.268466328160885
40
0.536932656321769
40
0.536932656321769
40
0.805398984482654
40
0.805398984482654
40
1
40
1
40
1
40
1
41
1
10
44.858819972824
20
0.460654721681664
30
0
41
1
10
44.8218497608683
20
0.493365846406164
30
0
41
1
10
44.7858886805567
20
0.524651448379785
30
0
41
1
10
44.7175538139688
20
0.58215515762393
30
0
41
1
10
44.6849949658059
20
0.608506802196928
30
0
41
1
10
44.6256878141276
20
0.653588896153337
30
0
41
1
10
44.5993241811962
20
0.672043261049254
30
0
41
1
10
44.5597891058549
20
0.696497777609295
30
0
41
1
10
44.5444941458572
20
0.705189692379832
30
0
41
1
10
44.5327792569785
20
0.709762408463519
30
0
0
SPLINE
5
D9
100
AcDbEntity
8
1
62
256
6
ByLayer
370
18
48
1
60
0
100
AcDbSpline
70
4
71
3
72
8
73
4
40
0
40
0
40
0
40
0
40
1
40
1
40
1
40
1
41
1
10
44.8524566943793
20
-2.74448482552745
30
0
41
1
10
44.897132436189
20
-2.71905733688112
30
0
41
1
10
44.9419096713961
20
-2.69313964311675
30
0
41
1
10
44.9868029458289
20
-2.66674314716718
30
0
0
SPLINE
5
DA
100
AcDbEntity
8
1
62
256
6
ByLayer
370
18
48
1
60
0
100
AcDbSpline
70
4
71
3
72
10
73
6
40
0
40
0
40
0
40
0
40
0.39526228003136
40
0.39526228003136
40
1
40
1
40
1
40
1
41
1
10
7.6368866818286
20
-1.73251361891542
30
0
41
1
10
7.18538731207735
20
-1.86404975941284
30
0
41
1
10
6.73558188932898
20
-1.99707508446269
30
0
41
1
10
5.60206779808092
20
-2.33632387601384
30
0
41
1
10
4.92023243734215
20
-2.54410846997973
30
0
41
1
10
4.24237731041751
20
-2.75336525114267
30
0
0
SPLINE
5
DB
100
AcDbEntity
8
1
62
256
6
ByLayer
370
18
48
1
60
0
100
AcDbSpline
70
4
71
3
72
42
73
38
40
0
40
0
40
0
40
0
40
0.0024756845048592
40
0.0024756845048592
40
0.0388832031355889
40
0.0388832031355889
40
0.0752907217663185
40
0.0752907217663185
40
0.220920796289235
40
0.220920796289235
40
0.257328314919963
40
0.257328314919963
40
0.293735833550692
40
0.293735833550692
40
0.366550870812149
40
0.366550870812149
40
0.439365908073606
40
0.439365908073606
40
0.475773426704335
40
0.475773426704335
40
0.512180945335063
40
0.512180945335063
40
0.657811019857975
40
0.657811019857975
40
0.694218538488703
40
0.694218538488703
40
0.730626057119432
40
0.730626057119432
40
0.803441094380889
40
0.803441094380889
40
0.876256131642345
40
0.876256131642345
40
0.912663650273073
40
0.912663650273073
40
0.949071168903801
40
0.949071168903801
40
1
40
1
40
1
40
1
41
1
10
30.6964270900446
20
-2.67666080028835
30
1E-16
41
1
10
30.681804211114
20
-2.67866691164201
30
1E-16
41
1
10
30.6671783204852
20
-2.68064170664184
30
1E-16
41
1
10
30.4374144076514
20
-2.71116454190985
30
1E-16
41
1
10
30.2216054609214
20
-2.73295454821732
30
0
41
1
10
29.7879001087315
20
-2.76236067347392
30
0
41
1
10
29.5717604386428
20
-2.76984306566425
30
0
41
1
10
28.4954180592883
20
-2.77164323198392
30
0
41
1
10
27.6455431646177
20
-2.65899880224299
30
1E-16
41
1
10
26.5686281861737
20
-2.38889356198979
30
-1E-16
41
1
10
26.3521976715905
20
-2.32828973612311
30
-1E-16
41
1
10
25.9186627277854
20
-2.19504501269003
30
-1E-16
41
1
10
25.7028896198763
20
-2.12288638572457
30
-1E-16
41
1
10
25.0574438741099
20
-1.89152754662285
30
1E-16
41
1
10
24.6298810950731
20
-1.71709824654806
30
1E-16
41
1
10
23.7740181342579
20
-1.33750206112819
30
1E-16
41
1
10
23.3459695907518
20
-1.13193186583459
30
1E-16
41
1
10
22.699050831035
20
-0.807509817415422
30
0
41
1
10
22.4820212750406
20
-0.696250491271428
30
0
41
1
10
22.0489461882621
20
-0.471139693912335
30
0
41
1
10
21.8333484350812
20
-0.357644911790544
30
0
41
1
10
20.7583484953716
20
0.211253940135123
30
0
41
1
10
19.9082292666844
20
0.671483671032348
30
0
41
1
10
18.8286424177224
20
1.1973169847883
30
-1E-16
41
1
10
18.6113241865473
20
1.30059241937334
30
-1E-16
41
1
10
18.1786924900974
20
1.4986398678939
30
-1E-16
41
1
10
17.9632319835998
20
1.59349069507249
30
-1E-16
41
1
10
17.3184712258772
20
1.86436952967608
30
-1E-16
41
1
10
16.8910954686058
20
2.02711062225222
30
1E-16
41
1
10
16.0345923787847
20
2.30820225756261
30
1E-16
41
1
10
15.6059494000457
20
2.42713973811155
30
1E-16
41
1
10
14.9574359688209
20
2.56720499482398
30
1E-16
41
1
10
14.7399536495547
20
2.60767861658118
30
0
41
1
10
14.3076984435907
20
2.67430693848533
30
-1E-16
41
1
10
14.0923909370336
20
2.70061984698253
30
-1E-16
41
1
10
13.5771025975762
20
2.74697965469909
30
0
41
1
10
13.2776500639987
20
2.76029066686101
30
0
41
1
10
12.9782332187586
20
2.75991407273455
30
0
0
SPLINE
5
DC
100
AcDbEntity
8
1
62
256
6
ByLayer
370
18
48
1
60
0
100
AcDbSpline
70
4
71
3
72
12
73
8
40
0
40
0
40
0
40
0
40
0.250000000000015
40
0.250000000000015
40
0.500000000000031
40
0.500000000000031
40
1
40
1
40
1
40
1
41
1
10
3.60281981659668
20
2.62590849745266
30
0
41
1
10
3.58720014139263
20
2.62579985683985
30
0
41
1
10
3.5720309038056
20
2.62906425548053
30
0
41
1
10
3.54598279384234
20
2.64014134804336
30
0
41
1
10
3.53521616409824
20
2.64775830113436
30
0
41
1
10
3.50982994477917
20
2.67344611600672
30
0
41
1
10
3.50204266082443
20
2.69383299275583
30
0
41
1
10
3.50204266082443
20
2.71390463416378
30
0
0
SPLINE
5
DD
100
AcDbEntity
8
1
62
256
6
ByLayer
370
18
48
1
60
0
100
AcDbSpline
70
4
71
3
72
8
73
4
40
0
40
0
40
0
40
0
40
1
40
1
40
1
40
1
41
1
10
44.8524566943765
20
-2.74448482553069
30
0
41
1
10
44.8567332015878
20
-2.76543451305915
30
0
41
1
10
44.8604703875718
20
-2.77727643996775
30
0
41
1
10
44.8638075761536
20
-2.77952468122967
30
0
0
SPLINE
5
DE
100
AcDbEntity
8
1
62
256
6
ByLayer
370
18
48
1
60
0
100
AcDbSpline
70
4
71
3
72
8
73
4
40
0
40
0
40
0
40
0
40
1
40
1
40
1
40
1
41
1
10
45.7741214201981
20
-0.838780620850599
30
0
41
1
10
45.8498169420912
20
-0.625601989230432
30
0
41
1
10
45.9237685989111
20
-0.411796065348938
30
0
41
1
10
45.9959536182624
20
-0.197354657662174
30
0
0
SPLINE
5
DF
100
AcDbEntity
8
1
62
256
6
ByLayer
370
18
48
1
60
0
100
AcDbSpline
70
4
71
3
72
24
73
20
40
0
40
0
40
0
40
0
40
0.0885275904779331
40
0.0885275904779331
40
0.164483624604772
40
0.164483624604772
40
0.240439658731611
40
0.240439658731611
40
0.392351726985288
40
0.392351726985288
40
0.544263795238966
40
0.544263795238966
40
0.696175863492644
40
0.696175863492644
40
0.848087931746322
40
0.848087931746322
40
0.924043965873161
40
0.924043965873161
40
1
40
1
40
1
40
1
41
1
10
8.26691412844858
20
2.01439227345915
30
1E-16
41
1
10
8.55870114757013
20
2.12012802801615
30
1E-16
41
1
10
8.85074274963367
20
2.21648141450939
30
1E-16
41
1
10
9.39549412652627
20
2.37572730527572
30
1E-16
41
1
10
9.64791019133594
20
2.44155477136843
30
1E-16
41
1
10
10.1554773836532
20
2.55570357230886
30
1E-16
41
1
10
10.4078296641998
20
2.60356308720401
30
0
41
1
10
11.1622630907385
20
2.71904731893184
30
-1E-16
41
1
10
11.6618672879015
20
2.75845379771871
30
0
41
1
10
12.6634692238223
20
2.76049222536912
30
0
41
1
10
13.1657073501058
20
2.72302291293428
30
1E-16
41
1
10
14.1804124069188
20
2.570936520983
30
1E-16
41
1
10
14.6818550066809
20
2.45779684167556
30
1E-16
41
1
10
15.6830788782444
20
2.16824172442796
30
1E-16
41
1
10
16.1823660081413
20
1.99131548896082
30
1E-16
41
1
10
16.9366989917078
20
1.68640944722964
30
-1E-16
41
1
10
17.1890950474427
20
1.57818852649703
30
-1E-16
41
1
10
17.6964514241333
20
1.34985433828962
30
-1E-16
41
1
10
17.9486672771001
20
1.23107328385157
30
-1E-16
41
1
10
18.1999999999899
20
1.10875623278295
30
-1E-16
0
SPLINE
5
E0
100
AcDbEntity
8
1
62
256
6
ByLayer
370
18
48
1
60
0
100
AcDbSpline
70
4
71
3
72
18
73
14
40
0
40
0
40
0
40
0
40
0.23461347548167
40
0.23461347548167
40
0.430091726153792
40
0.430091726153792
40
0.627295558838717
40
0.627295558838717
40
0.799216490165818
40
0.799216490165818
40
0.965270636851194
40
0.965270636851194
40
1
40
1
40
1
40
1
41
1
10
45.0028504844598
20
-2.61695309120776
30
0
41
1
10
45.0029557005207
20
-2.61712569218068
30
0
41
1
10
45.0030030294629
20
-2.61748252092684
30
0
41
1
10
45.0029523774338
20
-2.61849358791406
30
0
41
1
10
45.0028758962069
20
-2.61910175571893
30
0
41
1
10
45.0026079456721
20
-2.62056958363837
30
0
41
1
10
45.0024103225618
20
-2.62145630489596
30
0
41
1
10
45.0019512032159
20
-2.62324253234195
30
0
41
1
10
45.0016949773528
20
-2.62414968297298
30
0
41
1
10
45.0011549664986
20
-2.62592055442241
30
0
41
1
10
45.0008660578463
20
-2.62680618737218
30
0
41
1
10
45.0005141817667
20
-2.62782475427869
30
0
41
1
10
45.000452508224
20
-2.62800113319642
30
0
41
1
10
45.0003907458518
20
-2.62817570220125
30
0
0
SPLINE
5
E1
100
AcDbEntity
8
1
62
256
6
ByLayer
370
18
48
1
60
0
100
AcDbSpline
70
4
71
3
72
8
73
4
40
0
40
0
40
0
40
0
40
1
40
1
40
1
40
1
41
1
10
3.64943856670314
20
2.75411772038268
30
0
41
1
10
3.64886688834386
20
2.71145920511887
30
0
41
1
10
3.64828633185471
20
2.66880067707564
30
0
41
1
10
3.64769687245592
20
2.62614214124372
30
0
0
SPLINE
5
E2
100
AcDbEntity
8
1
62
256
6
ByLayer
370
18
48
1
60
0
100
AcDbSpline
70
4
71
3
72
32
73
28
40
0
40
0
40
0
40
0
40
0.0100130503124471
40
0.0100130503124471
40
0.0864481159880433
40
0.0864481159880433
40
0.16288318166364
40
0.16288318166364
40
0.239318247339236
40
0.239318247339236
40
0.315753313014833
40
0.315753313014833
40
0.392188378690429
40
0.392188378690429
40
0.468623444366025
40
0.468623444366025
40
0.545058510041622
40
0.545058510041622
40
0.621493575717219
40
0.621493575717219
40
0.697928641392815
40
0.697928641392815
40
0.774363707068412
40
0.774363707068412
40
0.850798772744009
40
0.850798772744009
40
1
40
1
40
1
40
1
41
1
10
19.6023470787
20
2.62963087004698
30
0
41
1
10
19.6302565354031
20
2.6306321991558
30
0
41
1
10
19.6581580055536
20
2.63152861292849
30
0
41
1
10
19.898979648907
20
2.63837696001988
30
0
41
1
10
20.1114515110755
20
2.63840836707979
30
0
41
1
10
20.5369659749149
20
2.62355767508544
30
0
41
1
10
20.7497837467092
20
2.60948557192486
30
0
41
1
10
21.1758185423764
20
2.5689611558374
30
0
41
1
10
21.389143455553
20
2.54223751275089
30
0
41
1
10
21.8174966885762
20
2.47514480244738
30
0
41
1
10
22.0325466735243
20
2.43501153758152
30
1E-16
41
1
10
22.463632146739
20
2.34279619017877
30
1E-16
41
1
10
22.6786483960416
20
2.29065091685285
30
1E-16
41
1
10
23.1085530166436
20
2.17454886534014
30
1E-16
41
1
10
23.3233178205799
20
2.11086182606874
30
1E-16
41
1
10
23.7528701990012
20
1.97325505358577
30
1E-16
41
1
10
23.9678371091249
20
1.89913136423561
30
1E-16
41
1
10
24.3990181441152
20
1.74091878345155
30
-1E-16
41
1
10
24.614574303113
20
1.65715571734177
30
-1E-16
41
1
10
25.0448416664121
20
1.48186409997959
30
-1E-16
41
1
10
25.2599067052908
20
1.39022132779562
30
-1E-16
41
1
10
25.6906223550683
20
1.20006388801201
30
-1E-16
41
1
10
25.9065558825982
20
1.10133379452833
30
-1E-16
41
1
10
26.3361832553622
20
0.899627431618114
30
-1E-16
41
1
10
26.550184435346
20
0.796695010476668
30
0
41
1
10
27.1804128329602
20
0.488534967718607
30
0
41
1
10
27.5948225200906
20
0.278544908215281
30
0
41
1
10
28.0099481697675
20
0.0682941311531522
30
0
0
SPLINE
5
E3
100
AcDbEntity
8
1
62
256
6
ByLayer
370
18
48
1
60
0
100
AcDbSpline
70
4
71
3
72
22
73
18
40
0
40
0
40
0
40
0
40
0.151357596897174
40
0.151357596897174
40
0.302715193794348
40
0.302715193794348
40
0.454072790691521
40
0.454072790691521
40
0.605430387588695
40
0.605430387588695
40
0.681109186037291
40
0.681109186037291
40
0.756787984485888
40
0.756787984485888
40
0.908145581383063
40
0.908145581383063
40
1
40
1
40
1
40
1
41
1
10
45.9500444853514
20
0.0431519163152814
30
0
41
1
10
45.9351056018507
20
-0.0066898738433565
30
0
41
1
10
45.9181220437446
20
-0.0555106996610846
30
0
41
1
10
45.8800571264128
20
-0.151032862266817
30
0
41
1
10
45.858701239809
20
-0.198175459385965
30
0
41
1
10
45.8140162105303
20
-0.284982986007918
30
0
41
1
10
45.790452513285
20
-0.325335928424579
30
0
41
1
10
45.7410937237499
20
-0.398446420352116
30
0
41
1
10
45.7165444694172
20
-0.429382433059431
30
0
41
1
10
45.6798605363673
20
-0.467259797811096
30
0
41
1
10
45.6675606888283
20
-0.478505571686895
30
0
41
1
10
45.643724876564
20
-0.497347257866579
30
0
41
1
10
45.6321219447319
20
-0.505034664882402
30
0
41
1
10
45.5981349718163
20
-0.523066498962123
30
0
41
1
10
45.5764550509434
20
-0.528248315856757
30
0
41
1
10
45.5446604631061
20
-0.525995676625058
30
0
41
1
10
45.5331646793393
20
-0.522732779291005
30
0
41
1
10
45.5222623216081
20
-0.517323637838814
30
0
0
SPLINE
5
E4
100
AcDbEntity
8
1
62
256
6
ByLayer
370
18
48
1
60
0
100
AcDbSpline
70
4
71
3
72
8
73
4
40
0
40
0
40
0
40
0
40
1
40
1
40
1
40
1
41
1
10
45.4833130998085
20
-0.4865064256484
30
0
41
1
10
45.4738110606571
20
-0.475902037268412
30
0
41
1
10
45.464857580911
20
-0.463416085525779
30
0
41
1
10
45.4563444356765
20
-0.449208437167926
30
0
0
SPLINE
5
E5
100
AcDbEntity
8
1
62
256
6
ByLayer
370
18
48
1
60
0
100
AcDbSpline
70
4
71
3
72
8
73
4
40
0
40
0
40
0
40
0
40
1
40
1
40
1
40
1
41
1
10
44.8524566943793
20
2.74448482552745
30
0
41
1
10
44.897132436189
20
2.71905733688112
30
0
41
1
10
44.9419096713962
20
2.69313964311672
30
0
41
1
10
44.9868029458289
20
2.66674314716718
30
0
0
SPLINE
5
E6
100
AcDbEntity
8
1
62
256
6
ByLayer
370
18
48
1
60
0
100
AcDbSpline
70
4
71
3
72
8
73
4
40
0
40
0
40
0
40
0
40
1
40
1
40
1
40
1
41
1
10
3.64320641727858
20
2.61609407224847
30
0
41
1
10
3.63066305253537
20
2.61605662395306
30
0
41
1
10
3.6169062284763
20
2.615963082088
30
0
41
1
10
3.60281981659668
20
2.6158541535375
30
0
0
SPLINE
5
E7
100
AcDbEntity
8
1
62
256
6
ByLayer
370
18
48
1
60
0
100
AcDbSpline
70
4
71
3
72
18
73
14
40
0
40
0
40
0
40
0
40
0.25
40
0.25
40
0.5
40
0.5
40
0.625
40
0.625
40
0.75
40
0.75
40
0.875
40
0.875
40
1
40
1
40
1
40
1
41
1
10
45.0360677965313
20
-2.66499014106327
30
0
41
1
10
45.0913565902439
20
-2.5078459286004
30
0
41
1
10
45.1462935846962
20
-2.34940023442491
30
0
41
1
10
45.2571437498054
20
-2.03176731988708
30
0
41
1
10
45.3131020437502
20
-1.87264489295285
30
0
41
1
10
45.3983826808722
20
-1.6344721380772
30
0
41
1
10
45.4276859401152
20
-1.55554449925583
30
0
41
1
10
45.4889018436582
20
-1.40123342002772
30
0
41
1
10
45.5208474064883
20
-1.32557459928376
30
0
41
1
10
45.588226962264
20
-1.17755492417123
30
0
41
1
10
45.6238129982166
20
-1.10487799268179
30
0
41
1
10
45.6970454549312
20
-0.967018915217409
30
0
41
1
10
45.7348988777411
20
-0.901345996520689
30
0
41
1
10
45.774121420198
20
-0.838780620850628
30
0
0
SPLINE
5
E8
100
AcDbEntity
8
1
62
256
6
ByLayer
370
18
48
1
60
0
100
AcDbSpline
70
4
71
3
72
24
73
20
40
0
40
0
40
0
40
0
40
0.0862154433184592
40
0.0862154433184592
40
0.172430886636919
40
0.172430886636919
40
0.344861773273842
40
0.344861773273842
40
0.431077216592306
40
0.431077216592306
40
0.51729265991077
40
0.51729265991077
40
0.689723546547702
40
0.689723546547702
40
0.862154433184633
40
0.862154433184633
40
0.948369876503099
40
0.948369876503099
40
1
40
1
40
1
40
1
41
1
10
45.0003907458309
20
-2.62817570219983
30
0
41
1
10
44.7833238428009
20
-2.61330637706584
30
0
41
1
10
44.5662948904951
20
-2.59220690383708
30
0
41
1
10
44.1340589576877
20
-2.53622073606627
30
0
41
1
10
43.9185360453554
20
-2.5015914595395
30
0
41
1
10
43.2728982437445
20
-2.37896826795963
30
-1E-16
41
1
10
42.8437318006125
20
-2.2723135779537
30
-1E-16
41
1
10
42.1976921347584
20
-2.07859198807088
30
-1E-16
41
1
10
41.9819713620199
20
-2.00840241254775
30
-1E-16
41
1
10
41.5490990268364
20
-1.85751191870023
30
-1E-16
41
1
10
41.3314496500286
20
-1.77659900873235
30
1E-16
41
1
10
40.6824308620559
20
-1.522193392476
30
1E-16
41
1
10
40.2531181922478
20
-1.33647337648154
30
1E-16
41
1
10
39.3961338043287
20
-0.942546164146734
30
1E-16
41
1
10
38.9683289562941
20
-0.734407944111325
30
0
41
1
10
38.3238923265507
20
-0.412613733406658
30
0
41
1
10
38.1085886059186
20
-0.303803979763899
30
0
41
1
10
37.7630020289677
20
-0.128456862432586
30
0
41
1
10
37.6330199647742
20
-0.0623477529059357
30
0
41
1
10
37.5030462605963
20
0.0037257556279826
30
0
0
SPLINE
5
E9
100
AcDbEntity
8
1
62
256
6
ByLayer
370
18
48
1
60
0
100
AcDbSpline
70
4
71
3
72
26
73
22
40
0
40
0
40
0
40
0
40
0.0862435945220745
40
0.0862435945220745
40
0.236755281409938
40
0.236755281409938
40
0.312011124853869
40
0.312011124853869
40
0.387266968297801
40
0.387266968297801
40
0.537778655185664
40
0.537778655185664
40
0.688290342073528
40
0.688290342073528
40
0.76354618551746
40
0.76354618551746
40
0.838802028961391
40
0.838802028961391
40
0.989313715849255
40
0.989313715849255
40
1
40
1
40
1
40
1
41
1
10
13.3996392599084
20
-2.62272787205595
30
0
41
1
10
13.1529919262164
20
-2.63257567741675
30
0
41
1
10
12.9070132092861
20
-2.63362334496222
30
0
41
1
10
12.2320917215893
20
-2.61205834120307
30
0
41
1
10
11.8034738942033
20
-2.57155673002717
30
0
41
1
10
11.1573173540827
20
-2.47166672747915
30
0
41
1
10
10.9413923451239
20
-2.43186398517341
30
-1E-16
41
1
10
10.5077799709635
20
-2.33944766364789
30
-1E-16
41
1
10
10.2898128606737
20
-2.28672868719605
30
-1E-16
41
1
10
9.64028090993762
20
-2.11225862271448
30
-1E-16
41
1
10
9.21050049789096
20
-1.97371524199681
30
-1E-16
41
1
10
8.35210145499062
20
-1.66004286303914
30
1E-16
41
1
10
7.92349031576012
20
-1.48491365390114
30
1E-16
41
1
10
7.27752100727042
20
-1.20095612625792
30
1E-16
41
1
10
7.06168622181741
20
-1.10276926145122
30
1E-16
41
1
10
6.62828393924758
20
-0.900449754431037
30
1E-16
41
1
10
6.41026017051513
20
-0.796086862264531
30
0
41
1
10
5.75937684369643
20
-0.479115110029511
30
0
41
1
10
5.3280587755423
20
-0.261567795346707
30
0
41
1
10
4.86571842180163
20
-0.0283087502693036
30
0
41
1
10
4.83506666588389
20
-0.0128440137211498
30
0
41
1
10
4.80441215471186
20
0.0026202509419306
30
0
0
SPLINE
5
EA
100
AcDbEntity
8
1
62
256
6
ByLayer
370
18
48
1
60
0
100
AcDbSpline
70
4
71
3
72
55
73
51
40
0
40
0
40
0
40
0
40
0.125000000000016
40
0.125000000000016
40
0.187500000000025
40
0.187500000000025
40
0.250000000000034
40
0.250000000000034
40
0.28125000000004
40
0.28125000000004
40
0.312500000000045
40
0.312500000000045
40
0.34375000000005
40
0.34375000000005
40
0.359375000000053
40
0.359375000000053
40
0.375000000000055
40
0.375000000000055
40
0.40625000000006
40
0.40625000000006
40
0.437500000000065
40
0.437500000000065
40
0.453125000000067
40
0.453125000000067
40
0.468750000000069
40
0.468750000000069
40
0.500000000000074
40
0.500000000000074
40
0.531250000000079
40
0.531250000000079
40
0.562500000000084
40
0.562500000000084
40
0.625000000000091
40
0.625000000000091
40
0.687500000000099
40
0.687500000000099
40
0.691406250000099
40
0.691406250000099
40
0.6953125000001
40
0.6953125000001
40
0.703125000000098
40
0.703125000000098
40
0.710937500000097
40
0.710937500000097
40
0.718750000000096
40
0.750000000000085
40
0.750000000000085
40
0.875000000000043
40
0.875000000000043
40
1
40
1
40
1
40
1
41
1
10
4.24236715372138
20
-2.75336558860934
30
0
41
1
10
3.92418508565581
20
-2.74830500451446
30
0
41
1
10
3.6142134213321
20
-2.72845947667642
30
0
41
1
10
3.16857941684506
20
-2.66129560911392
30
1E-16
41
1
10
3.02325290539443
20
-2.63258752488963
30
1E-16
41
1
10
2.74219701478151
20
-2.55652940889181
30
-1E-16
41
1
10
2.60842933286108
20
-2.50987460489125
30
-1E-16
41
1
10
2.42367474623907
20
-2.41940290459132
30
-1E-16
41
1
10
2.36516007969203
20
-2.38590404843328
30
-1E-16
41
1
10
2.25739924278415
20
-2.31125920011516
30
-1E-16
41
1
10
2.20792285235638
20
-2.27004333385372
30
-1E-16
41
1
10
2.12080312154472
20
-2.17716967036546
30
-1E-16
41
1
10
2.08323605067741
20
-2.12519586090352
30
-1E-16
41
1
10
2.04136767138246
20
-2.0406341316012
30
-1E-16
41
1
10
2.02970708598383
20
-2.01123026393876
30
-1E-16
41
1
10
2.0115387460983
20
-1.94970300912124
30
-1E-16
41
1
10
2.00506261964688
20
-1.91743893578081
30
-1E-16
41
1
10
1.99452103538923
20
-1.81926917488522
30
1E-16
41
1
10
1.99896323037848
20
-1.75112854430446
30
1E-16
41
1
10
2.03098718999507
20
-1.6095391203576
30
1E-16
41
1
10
2.05809270396725
20
-1.53849388815914
30
1E-16
41
1
10
2.1117852730936
20
-1.43332319977804
30
1E-16
41
1
10
2.13201279172082
20
-1.39822965286461
30
1E-16
41
1
10
2.17569901158853
20
-1.32951938247177
30
1E-16
41
1
10
2.19917810267799
20
-1.29581481406274
30
1E-16
41
1
10
2.2737937013745
20
-1.19637742887286
30
1E-16
41
1
10
2.3290727499168
20
-1.1323073398224
30
1E-16
41
1
10
2.44812903020136
20
-1.00764255438591
30
1E-16
41
1
10
2.51180372869976
20
-0.947243018669013
30
1E-16
41
1
10
2.64305504084581
20
-0.831685824644069
30
1E-16
41
1
10
2.71101027187009
20
-0.776145221226557
30
0
41
1
10
2.92035433547875
20
-0.614827599413758
30
0
41
1
10
3.06716521077297
20
-0.514272790799595
30
0
41
1
10
3.37072559728247
20
-0.323069463401055
30
0
41
1
10
3.52634626448261
20
-0.233209705071118
30
0
41
1
10
3.69452680415529
20
-0.14235711461069
30
0
41
1
10
3.70438379425457
20
-0.136793458446022
30
0
41
1
10
3.72547675627553
20
-0.129335968398777
30
0
41
1
10
3.73657477904209
20
-0.127310631235162
30
0
41
1
10
3.76970464716385
20
-0.124600581576118
30
0
41
1
10
3.79211672915676
20
-0.127805372246144
30
0
41
1
10
3.83470759008472
20
-0.139815560589
30
0
41
1
10
3.85576901162006
20
-0.146867281165612
30
0
41
1
10
3.89804479215673
20
-0.16022017987882
30
0
41
1
10
4.00363039470346
20
-0.193921287839259
30
0
41
1
10
4.10869427544716
20
-0.229204714162222
30
0
41
1
10
4.52707655857836
20
-0.375066764673818
30
0
41
1
10
4.85598551151938
20
-0.507291872207333
30
0
41
1
10
5.50045888078364
20
-0.790455324142584
30
0
41
1
10
5.8166772631491
20
-0.941438704388815
30
1E-16
41
1
10
6.12967269179788
20
-1.09463702120382
30
1E-16
0
SPLINE
5
EB
100
AcDbEntity
8
1
62
256
6
ByLayer
370
18
48
1
60
0
100
AcDbSpline
70
4
71
3
72
8
73
4
40
0
40
0
40
0
40
0
40
1
40
1
40
1
40
1
41
1
10
3.5552277145882
20
0.656954782718088
30
0
41
1
10
3.52301904644801
20
0.673521273507845
30
0
41
1
10
3.50204266082423
20
0.707322841123215
30
0
41
1
10
3.50204266082429
20
0.742423023460873
30
0
0
SPLINE
5
EC
100
AcDbEntity
8
1
62
256
6
ByLayer
370
18
48
1
60
0
100
AcDbSpline
70
4
71
3
72
12
73
8
40
0
40
0
40
0
40
0
40
0.5
40
0.5
40
0.75
40
0.75
40
1
40
1
40
1
40
1
41
1
10
3.50204266082443
20
2.71390463416378
30
0
41
1
10
3.50204266082443
20
2.69151186254899
30
0
41
1
10
3.50982505243059
20
2.66878065306389
30
0
41
1
10
3.5352203416341
20
2.64016324549917
30
0
41
1
10
3.54599197948699
20
2.63168362517521
30
0
41
1
10
3.57204230590491
20
2.61936037066886
30
0
41
1
10
3.58720740590559
20
2.61573336451383
30
0
41
1
10
3.60281981659668
20
2.6158541535375
30
0
0
SPLINE
5
ED
100
AcDbEntity
8
1
62
256
6
ByLayer
370
18
48
1
60
0
100
AcDbSpline
70
4
71
3
72
30
73
26
40
0
40
0
40
0
40
0
40
0.154714933520564
40
0.154714933520564
40
0.232072400280847
40
0.232072400280847
40
0.309429867041129
40
0.309429867041129
40
0.386787333801412
40
0.386787333801412
40
0.464144800561694
40
0.464144800561694
40
0.541502267321976
40
0.541502267321976
40
0.618859734082259
40
0.618859734082259
40
0.696217200842541
40
0.696217200842541
40
0.773574667602823
40
0.773574667602823
40
0.850932134363105
40
0.850932134363105
40
0.928289601123388
40
0.928289601123388
40
1
40
1
40
1
40
1
41
1
10
3.64769687245641
20
2.62614214124372
30
0
41
1
10
4.07734245359907
20
2.62816842943144
30
0
41
1
10
4.50520832095901
20
2.60015497636738
30
0
41
1
10
5.1475297546875
20
2.51836950881409
30
0
41
1
10
5.36169604600866
20
2.48452449456474
30
0
41
1
10
5.79036711924931
20
2.40479093355802
30
1E-16
41
1
10
6.0046955126636
20
2.35908749422742
30
1E-16
41
1
10
6.43474699091507
20
2.25541954400646
30
1E-16
41
1
10
6.6508404300028
20
2.19710840174545
30
1E-16
41
1
10
7.08005249103513
20
2.07046692333949
30
1E-16
41
1
10
7.29377815447918
20
2.00203054895752
30
1E-16
41
1
10
7.72047424296255
20
1.85565639693135
30
1E-16
41
1
10
7.93347373262455
20
1.77769119085943
30
-1E-16
41
1
10
8.35894042117593
20
1.61339093622431
30
-1E-16
41
1
10
8.57136032996894
20
1.52707157773523
30
-1E-16
41
1
10
8.9967620755088
20
1.34712423857874
30
-1E-16
41
1
10
9.20980950106693
20
1.25349021792303
30
-1E-16
41
1
10
9.63665455122518
20
1.05979650703057
30
-1E-16
41
1
10
9.85037464252835
20
0.959714217407281
30
-1E-16
41
1
10
10.2796849308621
20
0.754546767637066
30
0
41
1
10
10.4959266139496
20
0.649221589564235
30
0
41
1
10
10.9257138125348
20
0.43669230437618
30
0
41
1
10
11.1396582359235
20
0.329198020857547
30
0
41
1
10
11.5510694680762
20
0.121830388206689
30
0
41
1
10
11.7486354185324
20
0.0220685229855064
30
0
41
1
10
11.9459438022432
20
-0.0775892329480143
30
0
0
SPLINE
5
EE
100
AcDbEntity
8
1
62
256
6
ByLayer
370
18
48
1
60
0
100
AcDbSpline
70
4
71
3
72
28
73
24
40
0
40
0
40
0
40
0
40
0.0465432760495275
40
0.0465432760495275
40
0.12161858835127
40
0.12161858835127
40
0.196693900653012
40
0.196693900653012
40
0.271769212954755
40
0.271769212954755
40
0.346844525256497
40
0.346844525256497
40
0.421919837558239
40
0.421919837558239
40
0.57207046216172
40
0.57207046216172
40
0.647145774463462
40
0.647145774463462
40
0.722221086765204
40
0.722221086765204
40
0.872371711368689
40
0.872371711368689
40
1
40
1
40
1
40
1
41
1
10
35.9679834186857
20
2.63864378877739
30
0
41
1
10
36.0995233472082
20
2.64348432320728
30
0
41
1
10
36.2310512646022
20
2.64602064073131
30
0
41
1
10
36.5750670257253
20
2.6460355497162
30
0
41
1
10
36.7880777519359
20
2.63861656337977
30
0
41
1
10
37.2157979222542
20
2.60985888785075
30
0
41
1
10
37.4307569979664
20
2.58855697022329
30
0
41
1
10
37.8615069242082
20
2.53287608011246
30
0
41
1
10
38.0758711303823
20
2.49870101382319
30
0
41
1
10
38.503061155651
20
2.41892865191878
30
1E-16
41
1
10
38.7158691442507
20
2.37340156523621
30
1E-16
41
1
10
39.1410273648253
20
2.27027907746864
30
1E-16
41
1
10
39.3533947056163
20
2.21259492892216
30
1E-16
41
1
10
39.9905365371402
20
2.02341993785848
30
1E-16
41
1
10
40.415447547311
20
1.87579555306218
30
1E-16
41
1
10
41.0563603603978
20
1.62701086366249
30
-1E-16
41
1
10
41.2705262534597
20
1.53960481134942
30
-1E-16
41
1
10
41.7009035670273
20
1.35643813140132
30
-1E-16
41
1
10
41.9157409090287
20
1.26122980534052
30
-1E-16
41
1
10
42.5574355430182
20
0.967965986062467
30
-1E-16
41
1
10
42.9826997374277
20
0.761845455417557
30
0
41
1
10
43.7696458579475
20
0.370165125386393
30
0
41
1
10
44.1310932979392
20
0.186015248431858
30
0
41
1
10
44.4942722597833
20
0.001219864255944
30
0
0
SPLINE
5
EF
100
AcDbEntity
8
1
62
256
6
ByLayer
370
18
48
1
60
0
100
AcDbSpline
70
4
71
3
72
16
73
12
40
0
40
0
40
0
40
0
40
0.499344598012749
40
0.499344598012749
40
0.624180747515936
40
0.624180747515936
40
0.749016897019123
40
0.749016897019123
40
0.998689196025497
40
0.998689196025497
40
1
40
1
40
1
40
1
41
1
10
6.12967186693629
20
-1.09463675417831
30
1E-16
41
1
10
7.14504042728763
20
-1.58851207735839
30
1E-16
41
1
10
8.13770465741294
20
-2.00804066343915
30
-1E-16
41
1
10
9.39549412652627
20
-2.37572730527572
30
-1E-16
41
1
10
9.64791019133591
20
-2.44155477136843
30
-1E-16
41
1
10
10.1554773836532
20
-2.55570357230886
30
-1E-16
41
1
10
10.4078296641998
20
-2.60356308720401
30
0
41
1
10
11.1622630907385
20
-2.71904731893184
30
1E-16
41
1
10
11.6618672879015
20
-2.75845379771871
30
0
41
1
10
12.1652975098955
20
-2.75947836251615
30
0
41
1
10
12.1679268035422
20
-2.75948265260882
30
0
41
1
10
12.1705561373342
20
-2.75948588180964
30
0
0
SPLINE
5
F0
100
AcDbEntity
8
1
62
256
6
ByLayer
370
18
48
1
60
0
100
AcDbSpline
70
4
71
3
72
52
73
48
40
0
40
0
40
0
40
0
40
0.0316824314677669
40
0.0316824314677669
40
0.0675221534036185
40
0.0675221534036185
40
0.10336187533947
40
0.10336187533947
40
0.139201597275322
40
0.139201597275322
40
0.175041319211173
40
0.175041319211173
40
0.246720763082876
40
0.246720763082876
40
0.318400206954578
40
0.318400206954578
40
0.354239928890429
40
0.354239928890429
40
0.390079650826281
40
0.390079650826281
40
0.461759094697983
40
0.461759094697983
40
0.533438538569686
40
0.533438538569686
40
0.569278260505538
40
0.569278260505538
40
0.60511798244139
40
0.60511798244139
40
0.676797426313096
40
0.676797426313096
40
0.748476870184802
40
0.748476870184802
40
0.784316592120656
40
0.784316592120656
40
0.82015631405651
40
0.82015631405651
40
0.855996035992364
40
0.855996035992364
40
0.891835757928218
40
0.891835757928218
40
0.927675479864072
40
0.927675479864072
40
0.963515201799926
40
0.963515201799926
40
0.999354923735779
40
0.999354923735779
40
1
40
1
40
1
40
1
41
1
10
18.464023935559
20
2.64875790537656
30
-1E-16
41
1
10
18.6517098631875
20
2.67734035589328
30
-1E-16
41
1
10
18.8391463172261
20
2.70075900763803
30
-1E-16
41
1
10
19.239495738763
20
2.73911837971892
30
0
41
1
10
19.4521822973443
20
2.75273031867738
30
0
41
1
10
19.8780685744231
20
2.76619945965538
30
0
41
1
10
20.0912742949679
20
2.76599194671925
30
0
41
1
10
20.5199623369497
20
2.75151955527613
30
0
41
1
10
20.7358179126121
20
2.73718836134151
30
0
41
1
10
21.1648411961531
20
2.69466085095223
30
-1E-16
41
1
10
21.3784225937161
20
2.66651920730158
30
-1E-16
41
1
10
22.0180163060911
20
2.56276213948999
30
1E-16
41
1
10
22.4418663321465
20
2.46713356878061
30
1E-16
41
1
10
23.291625274712
20
2.22927658448239
30
1E-16
41
1
10
23.7166567715602
20
2.08613801592549
30
1E-16
41
1
10
24.3600055925405
20
1.84090697957171
30
-1E-16
41
1
10
24.5758191416856
20
1.75366058285817
30
-1E-16
41
1
10
25.0044408665639
20
1.57132535479445
30
-1E-16
41
1
10
25.217932871287
20
1.47635217238866
30
-1E-16
41
1
10
25.8571767901156
20
1.18223274096309
30
-1E-16
41
1
10
26.2808944105916
20
0.972484502418723
30
-1E-16
41
1
10
27.1305898435327
20
0.538494772269047
30
0
41
1
10
27.5557175987855
20
0.31267290505798
30
0
41
1
10
28.1993687800886
20
-0.0290137509208819
30
0
41
1
10
28.4150788604052
20
-0.143906338300354
30
0
41
1
10
28.843268794879
20
-0.371369867992087
30
0
41
1
10
29.056702449206
20
-0.483660931414448
30
0
41
1
10
29.6956318954768
20
-0.815248785542508
30
0
41
1
10
30.1191706467514
20
-1.030292194108
30
1E-16
41
1
10
30.9688703751879
20
-1.4349694068523
30
1E-16
41
1
10
31.3940206107228
20
-1.62633539824225
30
1E-16
41
1
10
32.0381132337395
20
-1.88676926314432
30
1E-16
41
1
10
32.2536452479946
20
-1.96954196712485
30
-1E-16
41
1
10
32.6814206638561
20
-2.12388443319759
30
-1E-16
41
1
10
32.8947571400733
20
-2.19522940098179
30
-1E-16
41
1
10
33.3204703737577
20
-2.32646359953091
30
-1E-16
41
1
10
33.5327161815574
20
-2.38647549651844
30
-1E-16
41
1
10
33.9567607066149
20
-2.49441785712128
30
-1E-16
41
1
10
34.1690106606651
20
-2.54196307634908
30
-1E-16
41
1
10
34.5940044520025
20
-2.62435741594857
30
0
41
1
10
34.806625480367
20
-2.65926998535946
30
1E-16
41
1
10
35.2328217792743
20
-2.71580967990997
30
1E-16
41
1
10
35.4467508346422
20
-2.73729043810039
30
0
41
1
10
35.8762927602124
20
-2.76647508535928
30
0
41
1
10
36.0914023060907
20
-2.77409966253694
30
0
41
1
10
36.3088055019402
20
-2.77456867319935
30
0
41
1
10
36.31264917154
20
-2.77457466878209
30
0
41
1
10
36.3164926745519
20
-2.77457836921184
30
0
0
SPLINE
5
F1
100
AcDbEntity
8
1
62
256
6
ByLayer
370
18
48
1
60
0
100
AcDbSpline
70
4
71
3
72
8
73
4
40
0
40
0
40
0
40
0
40
1
40
1
40
1
40
1
41
1
10
45.7741214201981
20
0.838780620850571
30
0
41
1
10
45.8498169420889
20
0.625601989236884
30
0
41
1
10
45.9237685989066
20
0.411796065361926
30
0
41
1
10
45.9959536182558
20
0.197354657681728
30
0
0
SPLINE
5
F2
100
AcDbEntity
8
1
62
256
6
ByLayer
370
18
48
1
60
0
100
AcDbSpline
70
4
71
3
72
26
73
22
40
0
40
0
40
0
40
0
40
0.125
40
0.125
40
0.25
40
0.25
40
0.375
40
0.375
40
0.4375
40
0.4375
40
0.5
40
0.5
40
0.625
40
0.625
40
0.6875
40
0.6875
40
0.75
40
0.75
40
0.875
40
0.875
40
1
40
1
40
1
40
1
41
1
10
3.60281981659668
20
2.6158541535375
30
0
41
1
10
3.60280884995373
20
2.61512153369864
30
0
41
1
10
3.60279488482036
20
2.60202154681161
30
0
41
1
10
3.60276268531942
20
2.55251015644288
30
0
41
1
10
3.60274442526182
20
2.51620491060467
30
0
41
1
10
3.60270411832295
20
2.42056983315189
30
1E-16
41
1
10
3.60268189101174
20
2.36064722250643
30
1E-16
41
1
10
3.60264665447249
20
2.25535725234602
30
1E-16
41
1
10
3.60263457177052
20
2.21766586948405
30
1E-16
41
1
10
3.60260971689914
20
2.13708496982247
30
1E-16
41
1
10
3.60259689494805
20
2.09402051478992
30
1E-16
41
1
10
3.60255771448251
20
1.95825329245145
30
1E-16
41
1
10
3.6025307483236
20
1.8593953970101
30
1E-16
41
1
10
3.60248866188499
20
1.69897723903472
30
-1E-16
41
1
10
3.60247435679179
20
1.64347195632823
30
-1E-16
41
1
10
3.60244508822609
20
1.52833398202444
30
-1E-16
41
1
10
3.60243006250101
20
1.46844976827453
30
-1E-16
41
1
10
3.60238424435846
20
1.28422281666366
30
-1E-16
41
1
10
3.60235299128647
20
1.15646051526238
30
-1E-16
41
1
10
3.60228809894616
20
0.891379852165812
30
-1E-16
41
1
10
3.60225439907745
20
0.753798043713573
30
0
41
1
10
3.60221901486557
20
0.611759780469839
30
0
0
SPLINE
5
F3
100
AcDbEntity
8
1
62
256
6
ByLayer
370
18
48
1
60
0
100
AcDbSpline
70
4
71
3
72
24
73
20
40
0
40
0
40
0
40
0
40
0.0047165695641167
40
0.0047165695641167
40
0.313930869012565
40
0.313930869012565
40
0.391234443874677
40
0.391234443874677
40
0.468538018736789
40
0.468538018736789
40
0.623145168461015
40
0.623145168461015
40
0.777752318185241
40
0.777752318185241
40
0.855055893047353
40
0.855055893047353
40
0.932359467909465
40
0.932359467909465
40
1
40
1
40
1
40
1
41
1
10
29.5321634136942
20
-2.63975223433917
30
0
41
1
10
29.5189205131934
20
-2.63999533476937
30
0
41
1
10
29.5056781261957
20
-2.64021210529142
30
0
41
1
10
28.6243335377947
20
-2.65288117692717
30
0
41
1
10
27.771326447356
20
-2.55543293449267
30
0
41
1
10
26.6971843048712
20
-2.31006194589625
30
-1E-16
41
1
10
26.4819789823486
20
-2.25489763514619
30
-1E-16
41
1
10
26.0502164716403
20
-2.13301071905133
30
-1E-16
41
1
10
25.8333501443011
20
-2.06611118729265
30
-1E-16
41
1
10
25.1811359532787
20
-1.84899660372648
30
-1E-16
41
1
10
24.7477620385399
20
-1.68400428071618
30
1E-16
41
1
10
23.8779624142213
20
-1.32128628236268
30
1E-16
41
1
10
23.4449553732963
20
-1.12496615731726
30
1E-16
41
1
10
22.7948208372617
20
-0.816083648658804
30
0
41
1
10
22.5779807467446
20
-0.710696507575733
30
0
41
1
10
22.1434583348898
20
-0.496267523057355
30
0
41
1
10
21.9261290123756
20
-0.387464683859036
30
0
41
1
10
21.5208631374192
20
-0.183341852362361
30
0
41
1
10
21.3323173789769
20
-0.0877904736877611
30
0
41
1
10
21.1441104842241
20
0.0075604395717903
30
0
0
SPLINE
5
F4
100
AcDbEntity
8
1
62
256
6
ByLayer
370
18
48
1
60
0
100
AcDbSpline
70
4
71
3
72
10
73
6
40
0
40
0
40
0
40
0
40
0.5
40
0.5
40
1
40
1
40
1
40
1
41
1
10
3.50204266082443
20
2.75211830543316
30
0
41
1
10
3.50204266082443
20
2.75342573116359
30
0
41
1
10
3.52102789345886
20
2.75390906514062
30
0
41
1
10
3.58046891192714
20
2.75417614781833
30
0
41
1
10
3.61885216349626
20
2.75419195642206
30
0
41
1
10
3.64943856670317
20
2.75411772038268
30
0
0
SPLINE
5
F5
100
AcDbEntity
8
1
62
256
6
ByLayer
370
18
48
1
60
0
100
AcDbSpline
70
4
71
3
72
16
73
12
40
0
40
0
40
0
40
0
40
0.212247246946389
40
0.212247246946389
40
0.424494493892779
40
0.424494493892779
40
0.636741740839168
40
0.636741740839168
40
0.848988987785558
40
0.848988987785558
40
1
40
1
40
1
40
1
41
1
10
45.0289250926523
20
2.66980653094467
30
0
41
1
10
44.7503889007342
20
2.67229783605333
30
0
41
1
10
44.4726739143126
20
2.66288777721422
30
0
41
1
10
43.9172890691768
20
2.62235168599278
30
0
41
1
10
43.6397814251471
20
2.59109049791758
30
0
41
1
10
43.0833357210293
20
2.50629235371835
30
0
41
1
10
42.8044470379566
20
2.45278902750457
30
1E-16
41
1
10
42.2438677644816
20
2.32445018685613
30
1E-16
41
1
10
41.9618987611989
20
2.25002579472539
30
1E-16
41
1
10
41.480083345379
20
2.10550289439036
30
1E-16
41
1
10
41.280020598166
20
2.04053249625139
30
1E-16
41
1
10
41.07988619617
20
1.97112521026483
30
1E-16
0
SPLINE
5
F6
100
AcDbEntity
8
1
62
256
6
ByLayer
370
18
48
1
60
0
100
AcDbSpline
70
4
71
3
72
14
73
10
40
0
40
0
40
0
40
0
40
0.410638918061709
40
0.410638918061709
40
0.557979188546281
40
0.557979188546281
40
0.705319459030853
40
0.705319459030853
40
1
40
1
40
1
40
1
41
1
10
21.0480925119913
20
-0.327045855772809
30
0
41
1
10
20.6613233390403
20
-0.130238302596069
30
0
41
1
10
20.2742625241906
20
0.0693362396720829
30
0
41
1
10
19.7455161610436
20
0.339394521705287
30
0
41
1
10
19.6056150159244
20
0.410565953821561
30
0
41
1
10
19.3249860151636
20
0.552195502773827
30
0
41
1
10
19.1841256112853
20
0.622771822342003
30
0
41
1
10
18.7621953446774
20
0.831817013269699
30
-1E-16
41
1
10
18.4812254114186
20
0.967679010174805
30
-1E-16
41
1
10
18.2000000000004
20
1.09927319704042
30
-1E-16
0
SPLINE
5
F7
100
AcDbEntity
8
1
62
256
6
ByLayer
370
18
48
1
60
0
100
AcDbSpline
70
4
71
3
72
14
73
10
40
0
40
0
40
0
40
0
40
0.269482734913727
40
0.269482734913727
40
0.503941085094266
40
0.503941085094266
40
0.780102425290794
40
0.780102425290794
40
1
40
1
40
1
40
1
41
1
10
44.6867128408688
20
-0.0966525045685387
30
0
41
1
10
44.6874418550811
20
-0.096968301628749
30
0
41
1
10
44.6881533093354
20
-0.0976568517513101
30
0
41
1
10
44.6893341275263
20
-0.0993795108383893
30
0
41
1
10
44.6898391743197
20
-0.100380274179599
30
0
41
1
10
44.6907782664221
20
-0.102827570249076
30
0
41
1
10
44.6911987701618
20
-0.104359368463434
30
0
41
1
10
44.6917168070287
20
-0.10728689655889
30
0
41
1
10
44.6918676748387
20
-0.108681227323274
30
0
41
1
10
44.6919091857014
20
-0.110074646654539
30
0
0
SPLINE
5
F8
100
AcDbEntity
8
1
62
256
6
ByLayer
370
18
48
1
60
0
100
AcDbSpline
70
4
71
3
72
8
73
4
40
0
40
0
40
0
40
0
40
1
40
1
40
1
40
1
41
1
10
44.8588199728241
20
0.460654721681664
30
0
41
1
10
44.7757353972258
20
0.430418662349752
30
0
41
1
10
44.6957054273932
20
0.385652031799737
30
0
41
1
10
44.6211982192127
20
0.323631714567256
30
0
0
SPLINE
5
F9
100
AcDbEntity
8
1
62
256
6
ByLayer
370
18
48
1
60
0
100
AcDbSpline
70
4
71
3
72
14
73
10
40
0
40
0
40
0
40
0
40
0.0964576258876715
40
0.0964576258876715
40
0.32234321941574
40
0.32234321941574
40
0.548228812943809
40
0.548228812943809
40
1
40
1
40
1
40
1
41
1
10
44.7482812034354
20
0.545050689228788
30
0
41
1
10
44.7607333567684
20
0.551003616472059
30
0
41
1
10
44.7738294488896
20
0.557349368918068
30
0
41
1
10
44.8197074127271
20
0.579821566975454
30
0
41
1
10
44.855835872867
20
0.59781145938652
30
0
41
1
10
44.9330604906333
20
0.634569745734325
30
0
41
1
10
44.9743424546395
20
0.653465280691677
30
0
41
1
10
45.1079496763894
20
0.707388169022693
30
0
41
1
10
45.2058040856337
20
0.737353436373326
30
0
41
1
10
45.307847126568
20
0.75202636715261
30
0
0
SPLINE
5
FA
100
AcDbEntity
8
1
62
256
6
ByLayer
370
18
48
1
60
0
100
AcDbSpline
70
4
71
3
72
28
73
24
40
0
40
0
40
0
40
0
40
0.152706815100261
40
0.152706815100261
40
0.305413630200523
40
0.305413630200523
40
0.381767037750654
40
0.381767037750654
40
0.458120445300785
40
0.458120445300785
40
0.610827260401042
40
0.610827260401042
40
0.687180667951171
40
0.687180667951171
40
0.7635340755013
40
0.7635340755013
40
0.839887483051429
40
0.839887483051429
40
0.916240890601558
40
0.916240890601558
40
0.992594298151687
40
0.992594298151687
40
1
40
1
40
1
40
1
41
1
10
44.6919091857015
20
-0.110074646654624
30
0
41
1
10
44.2637309931674
20
0.10666072729768
30
0
41
1
10
43.8384041942176
20
0.323506524166248
30
0
41
1
10
42.9874476182772
20
0.745903252403366
30
0
41
1
10
42.5620974781872
20
0.951659179564075
30
-1E-16
41
1
10
41.9203143225783
20
1.24458334293973
30
-1E-16
41
1
10
41.7055008237192
20
1.3397003904015
30
-1E-16
41
1
10
41.2749844139287
20
1.52284681516295
30
-1E-16
41
1
10
41.0607486682666
20
1.6102767148613
30
-1E-16
41
1
10
40.4196330167564
20
1.85924699196099
30
1E-16
41
1
10
39.9945895956218
20
2.00716618995281
30
1E-16
41
1
10
39.3572739911627
20
2.1969860985302
30
1E-16
41
1
10
39.1448534182338
20
2.25492988131776
30
1E-16
41
1
10
38.7195974475989
20
2.35864373309647
30
1E-16
41
1
10
38.5067438715824
20
2.40448452045055
30
1E-16
41
1
10
38.0794833316952
20
2.48493600449234
30
0
41
1
10
37.8650939626142
20
2.51948802506635
30
0
41
1
10
37.4343140282919
20
2.5759955438337
30
0
41
1
10
37.2192533786463
20
2.5977539572643
30
0
41
1
10
36.791397494157
20
2.6274712279729
30
0
41
1
10
36.5783168629685
20
2.63541054985231
30
0
41
1
10
36.3452822573092
20
2.63598476368892
30
0
41
1
10
36.324681269273
20
2.6359733611377
30
0
41
1
10
36.3040829052629
20
2.63590070915998
30
0
0
SPLINE
5
FB
100
AcDbEntity
8
1
62
256
6
ByLayer
370
18
48
1
60
0
100
AcDbSpline
70
4
71
3
72
32
73
28
40
0
40
0
40
0
40
0
40
0.0417925309031835
40
0.0417925309031835
40
0.115500797756785
40
0.115500797756785
40
0.189209064610386
40
0.189209064610386
40
0.262917331463988
40
0.262917331463988
40
0.336625598317589
40
0.336625598317589
40
0.41033386517119
40
0.41033386517119
40
0.484042132024791
40
0.484042132024791
40
0.557750398878392
40
0.557750398878392
40
0.631458665731994
40
0.631458665731994
40
0.705166932585595
40
0.705166932585595
40
0.778875199439196
40
0.778875199439196
40
0.852583466292798
40
0.852583466292798
40
1
40
1
40
1
40
1
41
1
10
12.3518800941036
20
-0.292539101852071
30
0
41
1
10
12.2313060610482
20
-0.232058688565047
30
0
41
1
10
12.1107248270469
20
-0.171347601110512
30
0
41
1
10
11.7771753854594
20
-0.003539609561841
30
0
41
1
10
11.5640311596771
20
0.103708871614089
30
0
41
1
10
11.1369384379887
20
0.318235969310052
30
0
41
1
10
10.9229455934432
20
0.425399168205615
30
0
41
1
10
10.4930774453778
20
0.637320331741563
30
0
41
1
10
10.276800960002
20
0.742375080596048
30
0
41
1
10
9.84739394724247
20
0.947074319461535
30
-1E-16
41
1
10
9.63361803981735
20
1.04694884233581
30
-1E-16
41
1
10
9.20666202729541
20
1.24029599850451
30
-1E-16
41
1
10
8.99356094378777
20
1.33379629797369
30
-1E-16
41
1
10
8.56804672422643
20
1.51353778923797
30
-1E-16
41
1
10
8.3555660344459
20
1.59977955640966
30
-1E-16
41
1
10
7.92998449764639
20
1.76398830443938
30
-1E-16
41
1
10
7.71693299565712
20
1.84194438166895
30
1E-16
41
1
10
7.29013668035844
20
1.98836364189094
30
1E-16
41
1
10
7.0763603619402
20
2.05684957252834
30
1E-16
41
1
10
6.64705826973153
20
2.18365040256634
30
1E-16
41
1
10
6.43093181056054
20
2.24207601723842
30
1E-16
41
1
10
6.00079373233191
20
2.34604594985981
30
1E-16
41
1
10
5.78640873002354
20
2.39192167275118
30
1E-16
41
1
10
5.35763270141587
20
2.4720652001067
30
0
41
1
10
5.14341503114304
20
2.50614725163814
30
0
41
1
10
4.50093726065131
20
2.58872628208414
30
0
41
1
10
4.07296292877157
20
2.61737711305278
30
0
41
1
10
3.64320641727858
20
2.61609407224847
30
0
0
SPLINE
5
FC
100
AcDbEntity
8
1
62
256
6
ByLayer
370
18
48
1
60
0
100
AcDbSpline
70
2053
71
3
72
50
73
46
40
0
40
0
40
0
40
0
40
0.0625000000000022
40
0.0625000000000022
40
0.125000000000004
40
0.125000000000004
40
0.187500000000007
40
0.187500000000007
40
0.250000000000009
40
0.250000000000009
40
0.281250000000009
40
0.281250000000009
40
0.31250000000001
40
0.31250000000001
40
0.34375000000001
40
0.34375000000001
40
0.375000000000011
40
0.375000000000011
40
0.406250000000012
40
0.406250000000012
40
0.437500000000012
40
0.437500000000012
40
0.500000000000008
40
0.500000000000008
40
0.562500000000003
40
0.562500000000003
40
0.624999999999999
40
0.624999999999999
40
0.65625
40
0.65625
40
0.6875
40
0.6875
40
0.718750000000001
40
0.718750000000001
40
0.750000000000002
40
0.750000000000002
40
0.781250000000002
40
0.781250000000002
40
0.812500000000003
40
0.812500000000003
40
0.875000000000002
40
0.875000000000002
40
0.937500000000001
40
0.937500000000001
40
1
40
1
40
1
40
1
41
1
10
45.3027777864004
20
-1.11258202594354
30
0
41
1
10
45.2814571536424
20
-1.13797278731241
30
0
41
1
10
45.2615220012564
20
-1.15466345325794
30
0
41
1
10
45.2235728569143
20
-1.17115751842295
30
1E-16
41
1
10
45.2065626624628
20
-1.17049264797646
30
1E-16
41
1
10
45.1755839713405
20
-1.15076598015784
30
1E-16
41
1
10
45.162425494108
20
-1.13223259779875
30
1E-16
41
1
10
45.1403803381685
20
-1.07664727392466
30
1E-16
41
1
10
45.1320837503099
20
-1.04114575538762
30
1E-16
41
1
10
45.1243670825397
20
-0.97543517404327
30
1E-16
41
1
10
45.1227048481277
20
-0.95221795446966
30
1E-16
41
1
10
45.1213220658153
20
-0.90312248617272
30
1E-16
41
1
10
45.1216219085375
20
-0.876869979835078
30
1E-16
41
1
10
45.124526602993
20
-0.82319702782678
30
1E-16
41
1
10
45.12708427305
20
-0.796079533907658
30
0
41
1
10
45.1346776665251
20
-0.741289590877585
30
0
41
1
10
45.1397601380789
20
-0.713643277379816
30
0
41
1
10
45.1520775119284
20
-0.661040211348762
30
0
41
1
10
45.1594740745883
20
-0.635358666969893
30
0
41
1
10
45.1761394309287
20
-0.587560598018996
30
0
41
1
10
45.1853356346143
20
-0.565517132011053
30
0
41
1
10
45.2154383861192
20
-0.50456682444792
30
0
41
1
10
45.2381574934032
20
-0.472489667295889
30
0
41
1
10
45.2848685717456
20
-0.425994129823152
30
0
41
1
10
45.3089972723852
20
-0.411387607472477
30
0
41
1
10
45.3551523676366
20
-0.398705123525588
30
0
41
1
10
45.3776026302483
20
-0.400534617733825
30
0
41
1
10
45.4075155806487
20
-0.415272845076686
30
0
41
1
10
45.4168782091774
20
-0.422152743968013
30
0
41
1
10
45.4342046966321
20
-0.440107214542394
30
0
41
1
10
45.4422213983255
20
-0.451318541118752
30
0
41
1
10
45.4560259491553
20
-0.477660927118961
30
0
41
1
10
45.4618824542117
20
-0.492806833297351
30
0
41
1
10
45.4711914310485
20
-0.527563302614027
30
0
41
1
10
45.4745905675533
20
-0.547175974313035
30
0
41
1
10
45.4783433621178
20
-0.589604779174607
30
0
41
1
10
45.4787368187014
20
-0.612948152956278
30
0
41
1
10
45.4762984870013
20
-0.662071140401451
30
0
41
1
10
45.4735263972662
20
-0.687588550591784
30
0
41
1
10
45.4606168276497
20
-0.767156460874958
30
0
41
1
10
45.4458851214969
20
-0.822680096641477
30
1E-16
41
1
10
45.4101364281672
20
-0.925278032647327
30
-1E-16
41
1
10
45.3891302215548
20
-0.972819645574589
30
-1E-16
41
1
10
45.3461743433858
20
-1.05359498437389
30
0
41
1
10
45.3240984191584
20
-1.08719126457467
30
0
41
1
10
45.3027777864004
20
-1.11258202594354
30
0
0
SPLINE
5
FD
100
AcDbEntity
8
1
62
256
6
ByLayer
370
18
48
1
60
0
100
AcDbSpline
70
4
71
3
72
8
73
4
40
0
40
0
40
0
40
0
40
1
40
1
40
1
40
1
41
1
10
3.64769687245592
20
2.62614214124372
30
0
41
1
10
3.6337655154735
20
2.62610883570869
30
0
41
1
10
3.61847756968848
20
2.62601740291123
30
0
41
1
10
3.60281981659668
20
2.62590849745266
30
0
0
SPLINE
5
FE
100
AcDbEntity
8
1
62
256
6
ByLayer
370
18
48
1
60
0
100
AcDbSpline
70
4
71
3
72
10
73
6
40
0
40
0
40
0
40
0
40
0.5
40
0.5
40
1
40
1
40
1
40
1
41
1
10
45.0360677965313
20
-2.66499014106321
30
0
41
1
10
45.025287321977
20
-2.67237522051656
30
0
41
1
10
45.0158991309766
20
-2.67617782055669
30
0
41
1
10
44.9996824721757
20
-2.67663764807242
30
0
41
1
10
44.9928094619263
20
-2.6733409120439
30
0
41
1
10
44.9868029458291
20
-2.66674314716701
30
0
0
SPLINE
5
FF
100
AcDbEntity
8
1
62
256
6
ByLayer
370
18
48
1
60
0
100
AcDbSpline
70
4
71
3
72
8
73
4
40
0
40
0
40
0
40
0
40
1
40
1
40
1
40
1
41
1
10
45.0289250926523
20
2.66980653094473
30
0
41
1
10
45.0313059400572
20
2.66820135571186
30
0
41
1
10
45.0336868410637
20
2.66659589239853
30
0
41
1
10
45.0360677965313
20
2.66499014106327
30
0
0
SPLINE
5
100
100
AcDbEntity
8
1
62
256
6
ByLayer
370
18
48
1
60
0
100
AcDbSpline
70
4
71
3
72
42
73
38
40
0
40
0
40
0
40
0
40
0.0781286401816201
40
0.0781286401816201
40
0.129343715727084
40
0.129343715727084
40
0.180558791272549
40
0.180558791272549
40
0.231773866818013
40
0.231773866818013
40
0.282988942363477
40
0.282988942363477
40
0.385419093454407
40
0.385419093454407
40
0.436634168999874
40
0.436634168999874
40
0.462241706772606
40
0.462241706772606
40
0.487849244545338
40
0.487849244545338
40
0.590279395636268
40
0.590279395636268
40
0.641494471181733
40
0.641494471181733
40
0.667102008954467
40
0.667102008954467
40
0.692709546727201
40
0.692709546727201
40
0.795139697818135
40
0.795139697818135
40
0.89756984890907
40
0.89756984890907
40
0.923177386681803
40
0.923177386681803
40
0.948784924454536
40
0.948784924454536
40
1
40
1
40
1
40
1
41
1
10
28.5923053838561
20
2.76974289800972
30
0
41
1
10
29.0137076686116
20
2.77034001626075
30
0
41
1
10
29.4357029581636
20
2.74370944545979
30
0
41
1
10
30.139824906365
20
2.65422813548247
30
-1E-16
41
1
10
30.4203876144256
20
2.60687838962366
30
0
41
1
10
30.9789986274438
20
2.4904556940613
30
1E-16
41
1
10
31.2578896740781
20
2.421306576078
30
1E-16
41
1
10
31.8164206629837
20
2.26250735732515
30
1E-16
41
1
10
32.0969299409653
20
2.17252776693007
30
1E-16
41
1
10
32.6546451250177
20
1.97572039129378
30
1E-16
41
1
10
32.9320713087283
20
1.86891251330746
30
-1E-16
41
1
10
33.7623391232329
20
1.52694918732038
30
-1E-16
41
1
10
34.3130582578054
20
1.27004484986784
30
-1E-16
41
1
10
35.1443340077913
20
0.85664383618564
30
-1E-16
41
1
10
35.4222932863764
20
0.714181367243157
30
0
41
1
10
35.8416955402386
20
0.495448371788342
30
0
41
1
10
35.9817320837671
20
0.421790213250716
30
0
41
1
10
36.2605269373224
20
0.274387752372434
30
0
41
1
10
36.3995583447381
20
0.2005018265084
30
0
41
1
10
37.0933790331913
20
-0.168911558749727
30
0
41
1
10
37.6441315474359
20
-0.464435295956037
30
0
41
1
10
38.4730412483176
20
-0.890229953942395
30
1E-16
41
1
10
38.7498098089375
20
-1.02924560423327
30
1E-16
41
1
10
39.1667823556956
20
-1.23128522951978
30
1E-16
41
1
10
39.3060772670279
20
-1.29754967386174
30
1E-16
41
1
10
39.5854783658988
20
-1.42753404731906
30
1E-16
41
1
10
39.7255642401219
20
-1.49123485021923
30
1E-16
41
1
10
40.4226463857942
20
-1.79987271261493
30
1E-16
41
1
10
40.9743485046807
20
-2.01735453427014
30
-1E-16
41
1
10
42.0782477270728
20
-2.37821024154886
30
-1E-16
41
1
10
42.6304606783164
20
-2.52159525021955
30
-1E-16
41
1
10
43.3286117133409
20
-2.64582746992082
30
1E-16
41
1
10
43.4687172168483
20
-2.66792149950885
30
1E-16
41
1
10
43.7481457835938
20
-2.70617553603364
30
1E-16
41
1
10
43.887685572884
20
-2.72237850976163
30
-1E-16
41
1
10
44.3060720996422
20
-2.7621351798185
30
0
41
1
10
44.5846811657249
20
-2.77683181562446
30
0
41
1
10
44.8638075761536
20
-2.77952468122967
30
0
0
SPLINE
5
101
100
AcDbEntity
8
1
62
256
6
ByLayer
370
18
48
1
60
0
100
AcDbSpline
70
4
71
3
72
8
73
4
40
0
40
0
40
0
40
0
40
1
40
1
40
1
40
1
41
1
10
44.6229873064041
20
-0.0674205862172528
30
0
41
1
10
44.6443359358498
20
-0.0777547373367042
30
0
41
1
10
44.6655699880439
20
-0.0874937657495423
30
0
41
1
10
44.6867128408688
20
-0.0966525045685387
30
0
0
SPLINE
5
102
100
AcDbEntity
8
1
62
256
6
ByLayer
370
18
48
1
60
0
100
AcDbSpline
70
4
71
3
72
32
73
28
40
0
40
0
40
0
40
0
40
0.0576966426620089
40
0.0576966426620089
40
0.207363298615794
40
0.207363298615794
40
0.282196626592686
40
0.282196626592686
40
0.357029954569579
40
0.357029954569579
40
0.431863282546471
40
0.431863282546471
40
0.506696610523363
40
0.506696610523363
40
0.581529938500256
40
0.581529938500256
40
0.656363266477148
40
0.656363266477148
40
0.73119659445404
40
0.73119659445404
40
0.806029922430933
40
0.806029922430933
40
0.880863250407826
40
0.880863250407826
40
0.955696578384718
40
0.955696578384718
40
1
40
1
40
1
40
1
41
1
10
28.5339696432492
20
-0.207806406856065
30
0
41
1
10
28.3697786985749
20
-0.124917925137169
30
0
41
1
10
28.2057522600535
20
-0.0419277571179464
30
0
41
1
10
27.6162356909719
20
0.255524305379311
30
0
41
1
10
27.1915839370766
20
0.470215751070754
30
0
41
1
10
26.5509774476127
20
0.782631955485812
30
0
41
1
10
26.3369408264287
20
0.885349597256322
30
-1E-16
41
1
10
25.9072535080443
20
1.08668336910731
30
-1E-16
41
1
10
25.6912813561936
20
1.18525857555525
30
-1E-16
41
1
10
25.2604763886135
20
1.37519642509591
30
-1E-16
41
1
10
25.0453687498377
20
1.46677458885804
30
-1E-16
41
1
10
24.6150205633318
20
1.64199634374097
30
-1E-16
41
1
10
24.399436620753
20
1.72574767445909
30
-1E-16
41
1
10
23.9681614507997
20
1.88404242296758
30
1E-16
41
1
10
23.7531473679404
20
1.95825511536182
30
1E-16
41
1
10
23.3235017596206
20
2.09608946916015
30
1E-16
41
1
10
23.108691668921
20
2.15991483241061
30
1E-16
41
1
10
22.6787056535935
20
2.27638282776084
30
1E-16
41
1
10
22.4636530595417
20
2.32875499051406
30
1E-16
41
1
10
22.0325013039786
20
2.42146755094888
30
1E-16
41
1
10
21.8173795675688
20
2.4618813000811
30
0
41
1
10
21.3889119637436
20
2.52960844485438
30
0
41
1
10
21.1755278828648
20
2.55668390987032
30
0
41
1
10
20.7493738229985
20
2.5979442305684
30
0
41
1
10
20.5364962399981
20
2.61240224675458
30
0
41
1
10
20.1976906030404
20
2.62489271702336
30
0
41
1
10
20.0717995736326
20
2.62693560602617
30
0
41
1
10
19.9458553374194
20
2.62666778678661
30
0
0
SPLINE
5
103
100
AcDbEntity
8
1
62
256
6
ByLayer
370
18
48
1
60
0
100
AcDbSpline
70
4
71
3
72
22
73
18
40
0
40
0
40
0
40
0
40
0.347925925372519
40
0.347925925372519
40
0.582860118741462
40
0.582860118741462
40
0.738058033262899
40
0.738058033262899
40
0.840574849403618
40
0.840574849403618
40
0.908345451983138
40
0.908345451983138
40
0.953171348428587
40
0.953171348428587
40
0.982831800178431
40
0.982831800178431
40
1
40
1
40
1
40
1
41
1
10
44.8638075761536
20
-2.77952468122967
30
0
41
1
10
44.8823388672602
20
-2.76740301760668
30
0
41
1
10
44.9008897822778
20
-2.75520155640299
30
0
41
1
10
44.9319989449891
20
-2.7346313026051
30
0
41
1
10
44.9445471168904
20
-2.72630449529623
30
0
41
1
10
44.9653990840607
20
-2.71241924858049
30
0
41
1
10
44.9736980571066
20
-2.70688034981455
30
0
41
1
10
44.987485280228
20
-2.69765778166882
30
0
41
1
10
44.9929714093622
20
-2.6939825552455
30
0
41
1
10
45.0020870050924
20
-2.687866956557
30
0
41
1
10
45.0057155424275
20
-2.68543023932679
30
0
41
1
10
45.0117453330907
20
-2.68137709306009
30
0
41
1
10
45.0141461792628
20
-2.6797622528467
30
0
41
1
10
45.018136151338
20
-2.67707685339332
30
0
41
1
10
45.0197250093112
20
-2.67600704691736
30
0
41
1
10
45.0222346444934
20
-2.67431656182677
30
0
41
1
10
45.0231549631072
20
-2.67369648810055
30
0
41
1
10
45.0240756589639
20
-2.67307601260671
30
0
0
SPLINE
5
104
100
AcDbEntity
8
SK1
62
256
6
ByLayer
370
18
48
1
60
0
100
AcDbSpline
70
4
71
3
72
10
73
6
40
0
40
0
40
0
40
0
40
0.5
40
0.5
40
1
40
1
40
1
40
1
41
1
10
-35.8509618943233
20
-1.99455466852626
30
0
41
1
10
-35.8741904300927
20
-1.99582157724569
30
0
41
1
10
-35.8986222732874
20
-1.99382517683691
30
0
41
1
10
-35.9485161922248
20
-1.98431160939577
30
0
41
1
10
-35.974056478015
20
-1.97681072387596
30
0
41
1
10
-35.9999999999999
20
-1.9669288862851
30
0
0
SPLINE
5
105
100
AcDbEntity
8
SK1
62
256
6
ByLayer
370
18
48
1
60
0
100
AcDbSpline
70
4
71
3
72
8
73
4
40
0
40
0
40
0
40
0
40
1
40
1
40
1
40
1
41
1
10
-35.8509618943233
20
-1.99455466852623
30
0
41
1
10
-35.8173573806743
20
-2.01957587427566
30
0
41
1
10
-35.7837011350882
20
-2.04456191439618
30
-1E-16
41
1
10
-35.7499999999999
20
-2.06951744014464
30
-1E-16
0
SPLINE
5
106
100
AcDbEntity
8
SK1
62
256
6
ByLayer
370
18
48
1
60
0
100
AcDbSpline
70
4
71
3
72
12
73
8
40
0
40
0
40
0
40
0
40
0.5
40
0.5
40
0.75
40
0.75
40
1
40
1
40
1
40
1
41
1
10
-35.75
20
-2.06951744014475
30
-1E-16
41
1
10
-35.7259913046562
20
-2.08729576165442
30
-1E-16
41
1
10
-35.7033433879313
20
-2.10016060288251
30
-1E-16
41
1
10
-35.6754686754417
20
-2.1089240807718
30
-1E-16
41
1
10
-35.667025596347
20
-2.11007540297482
30
-1E-16
41
1
10
-35.6543350076412
20
-2.10670605373809
30
-1E-16
41
1
10
-35.65
20
-2.10200384096532
30
-1E-16
41
1
10
-35.65
20
-2.09325065695509
30
-1E-16
0
SPLINE
5
107
100
AcDbEntity
8
SK1
62
256
6
ByLayer
370
18
48
1
60
0
100
AcDbSpline
70
4
71
3
72
12
73
8
40
0
40
0
40
0
40
0
40
0.25
40
0.25
40
0.5
40
0.5
40
1
40
1
40
1
40
1
41
1
10
-35.65
20
-1.16557554967031
30
1E-16
41
1
10
-35.65
20
-1.15018050254633
30
1E-16
41
1
10
-35.6543403470552
20
-1.13283499086396
30
1E-16
41
1
10
-35.6670034572333
20
-1.10028755087418
30
1E-16
41
1
10
-35.6754069618006
20
-1.0846018808102
30
1E-16
41
1
10
-35.7033744297257
20
-1.04143137846481
30
1E-16
41
1
10
-35.7260009806424
20
-1.01689424207444
30
1E-16
41
1
10
-35.7500000000001
20
-0.999123085585211
30
1E-16
0
SPLINE
5
108
100
AcDbEntity
8
SK1
62
256
6
ByLayer
370
18
48
1
60
0
100
AcDbSpline
70
4
71
3
72
8
73
4
40
0
40
0
40
0
40
0
40
1
40
1
40
1
40
1
41
1
10
-36.0000000000001
20
-0.592445465657022
30
0
41
1
10
-35.9478735570756
20
-0.701134797857492
30
0
41
1
10
-35.897619057052
20
-0.811369943872222
30
0
41
1
10
-35.8509618943233
20
-0.924160313966922
30
1E-16
0
SPLINE
5
109
100
AcDbEntity
8
SK1
62
256
6
ByLayer
370
18
48
1
60
0
100
AcDbSpline
70
4
71
3
72
8
73
4
40
0
40
0
40
0
40
0
40
1
40
1
40
1
40
1
41
1
10
-35.75
20
-0.999123085585239
30
1E-16
41
1
10
-35.7837020137804
20
-0.974166909169497
30
1E-16
41
1
10
-35.8173582991635
20
-0.949180835828741
30
1E-16
41
1
10
-35.8509618943233
20
-0.924160313966894
30
1E-16
0
SPLINE
5
10A
100
AcDbEntity
8
1
62
256
6
ByLayer
370
18
48
1
60
0
100
AcDbSpline
70
4
71
2
72
6
73
3
40
0
40
0
40
0
40
1
40
1
40
1
41
1
10
3.90092819887926
20
2.61395533886002
30
0
41
1
10
3.75180709247888
20
2.61263553256097
30
0
41
1
10
3.60278786267236
20
2.61073378610772
30
0
0
SPLINE
5
10B
100
AcDbEntity
8
1
62
256
6
ByLayer
370
18
48
1
60
0
100
AcDbSpline
70
4
71
3
72
12
73
8
40
0
40
0
40
0
40
0
40
0.0913421456931819
40
0.256854875776638
40
0.417929479127841
40
0.646021147289005
40
1
40
1
40
1
40
1
41
1
10
44.539046400488
20
0.708458294485922
30
0
41
1
10
44.4417743821675
20
0.740888794807404
30
0
41
1
10
44.1685464952103
20
0.832975710449688
30
-1E-16
41
1
10
43.7255794912718
20
0.987682769483797
30
-1E-16
41
1
10
43.1394196501292
20
1.197828849026
30
-1E-16
41
1
10
42.3570220497409
20
1.48845038488128
30
-1E-16
41
1
10
41.7477115697712
20
1.72585529590222
30
-1E-16
41
1
10
41.3784550579181
20
1.87393406705868
30
-1E-16
0
SPLINE
5
10C
100
AcDbEntity
8
1
62
256
6
ByLayer
370
18
48
1
60
0
100
AcDbSpline
70
4
71
1
72
4
73
2
40
0
40
0
40
1
40
1
41
1
10
45.0240770719587
20
-2.67307511347712
30
0
41
1
10
45.0369109254085
20
-2.66442607153817
30
0
0
SPLINE
5
10D
100
AcDbEntity
8
1
62
256
6
ByLayer
370
18
48
1
60
0
100
AcDbSpline
70
4
71
3
72
29
73
25
40
0
40
0
40
0
40
0
40
2.94803285392E-05
40
6.22850261103E-05
40
9.22169301548E-05
40
0.0001478592142869
40
0.0002472378105061
40
0.0003387105038674
40
0.0009419668201425
40
0.0014130681561944
40
0.0022613674613387
40
0.0038073544861524
40
0.0066724350534544
40
0.0121218667717859
40
0.0229172407187716
40
0.0455955666690087
40
0.0969684952325153
40
0.217040444393541
40
0.333207533674384
40
0.444736752169435
40
0.560379120764476
40
0.682677432901932
40
0.827923580095379
40
1
40
1
40
1
40
1
41
1
10
30.1703743080275
20
0.0782222232042216
30
0
41
1
10
30.1703784907785
20
0.0782237767184881
30
0
41
1
10
30.1703810975048
20
0.0782288733691985
30
0
41
1
10
30.1703607133645
20
0.078243377217575
30
0
41
1
10
30.1702811927077
20
0.0782765579117211
30
0
41
1
10
30.1700870395338
20
0.0783460905095978
30
0
41
1
10
30.1697878311578
20
0.0784483406504251
30
0
41
1
10
30.1685757680571
20
0.0788294038335948
30
0
41
1
10
30.1665353015755
20
0.0794143265076457
30
0
41
1
10
30.1633907517489
20
0.0803593369535633
30
0
41
1
10
30.1586271467262
20
0.0817745206850304
30
0
41
1
10
30.149925898615
20
0.0843687622199809
30
0
41
1
10
30.1335631325478
20
0.0892392468226717
30
0
41
1
10
30.1018176780472
20
0.0986935336190129
30
0
41
1
10
30.0369884517397
20
0.118029538266114
30
0
41
1
10
29.8952941849831
20
0.160546230682144
30
0
41
1
10
29.5702657907128
20
0.2594385118432
30
0
41
1
10
29.0886065950983
20
0.410064067156384
30
0
41
1
10
28.5087835048507
20
0.59859398072706
30
0
41
1
10
27.9380923390394
20
0.790734410514631
30
0
41
1
10
27.3592826944038
20
0.992271648859514
30
-1E-16
41
1
10
26.7270598097851
20
1.2200775769501
30
-1E-16
41
1
10
26.0046721173997
20
1.48964923111453
30
-1E-16
41
1
10
25.4863015425214
20
1.69225394557884
30
-1E-16
41
1
10
25.2060509375578
20
1.80438997785677
30
-1E-16
0
SPLINE
5
10E
100
AcDbEntity
8
1
62
256
6
ByLayer
370
18
48
1
60
0
100
AcDbSpline
70
4
71
3
72
26
73
22
40
0
40
0
40
0
40
0
40
2.04575253423E-05
40
4.95479989477E-05
40
0.0001374474600558
40
0.0001962076256399
40
0.00021967677786
40
0.0002829696785519
40
0.0008835724769331
40
0.0013849816342975
40
0.023492185053784
40
0.0971593426174999
40
0.199963849942714
40
0.303179071071437
40
0.406567402667902
40
0.532046175132865
40
0.621688490111299
40
0.678824277016752
40
0.76795645450369
40
0.889092851669073
40
1
40
1
40
1
40
1
41
1
10
13.9497607916516
20
0.0415826797560896
30
0
41
1
10
13.9497695275053
20
0.041581400895609
30
0
41
1
10
13.9497856629166
20
0.0415798155226526
30
0
41
1
10
13.9497753837449
20
0.0415918060257638
30
0
41
1
10
13.9497271577925
20
0.0416175683957363
30
0
41
1
10
13.9495980842721
20
0.0416669637216671
30
0
41
1
10
13.9494161620989
20
0.0417290952765939
30
0
41
1
10
13.9482561676673
20
0.0420968868905618
30
0
41
1
10
13.9466349947425
20
0.0426390647375001
30
0
41
1
10
13.911247189402
20
0.0540475173351922
30
0
41
1
10
13.7456866705005
20
0.102317151720683
30
0
41
1
10
13.4101648947997
20
0.203120897397611
30
0
41
1
10
12.9320064746904
20
0.350750009099642
30
0
41
1
10
12.4068933592795
20
0.518764674986812
30
0
41
1
10
11.844371435322
20
0.704750912620085
30
0
41
1
10
11.3068957367326
20
0.888857888383967
30
-1E-16
41
1
10
10.8489628439881
20
1.0507972971271
30
-1E-16
41
1
10
10.4531434245078
20
1.19373377407805
30
-1E-16
41
1
10
10.0055373302069
20
1.35879332718557
30
-1E-16
41
1
10
9.46958444079468
20
1.5617055666811
30
-1E-16
41
1
10
9.0842106380511
20
1.71321462688633
30
-1E-16
41
1
10
8.90039826897566
20
1.78665760446512
30
-1E-16
0
SPLINE
5
10F
100
AcDbEntity
8
1
62
256
6
ByLayer
370
18
48
1
60
0
100
AcDbSpline
70
4
71
3
72
17
73
13
40
0
40
0
40
0
40
0
40
0.138486228841108
40
0.244472913175354
40
0.318084413075098
40
0.430757088424533
40
0.577009876116279
40
0.677649900757455
40
0.777178895922775
40
0.868027855521977
40
0.951123385462042
40
1
40
1
40
1
40
1
41
1
10
29.3339609941516
20
-2.63147687601742
30
0
41
1
10
29.5935585965953
20
-2.63171155658952
30
0
41
1
10
30.0518398412556
20
-2.63209431817495
30
0
41
1
10
30.6481455579391
20
-2.63223759811603
30
0
41
1
10
31.1960444196387
20
-2.63275995424368
30
0
41
1
10
31.8194424972278
20
-2.63303686236864
30
0
41
1
10
32.4935052896475
20
-2.63370072229893
30
0
41
1
10
33.14292497727
20
-2.63362782394967
30
0
41
1
10
33.6884857194144
20
-2.63400856168479
30
0
41
1
10
34.2011551085466
20
-2.63514399400489
30
0
41
1
10
34.6188686351119
20
-2.63418319572668
30
0
41
1
10
34.866270036404
20
-2.6342653980914
30
0
41
1
10
34.9578962968672
20
-2.63434251452227
30
0
0
SPLINE
5
110
100
AcDbEntity
8
1
62
256
6
ByLayer
370
18
48
1
60
0
100
AcDbSpline
70
4
71
3
72
17
73
13
40
0
40
0
40
0
40
0
40
0.159809753114368
40
0.271507431799036
40
0.341456562586162
40
0.408720210247931
40
0.47974842099434
40
0.556404431061492
40
0.658279338252808
40
0.766240465491057
40
0.885643051593106
40
1
40
1
40
1
40
1
41
1
10
19.9670071025423
20
2.6267912933431
30
0
41
1
10
19.6734808066855
20
2.62687677631638
30
0
41
1
10
19.1747880434214
20
2.62674451217487
30
0
41
1
10
18.5475851466323
20
2.62553458013917
30
0
41
1
10
18.0903802651868
20
2.62489769273662
30
0
41
1
10
17.7078756890112
20
2.62578148660165
30
0
41
1
10
17.3130506439837
20
2.62506799709564
30
0
41
1
10
16.8546512384873
20
2.62395657579614
30
0
41
1
10
16.328409044276
20
2.62463758212144
30
0
41
1
10
15.7236507853673
20
2.62304957791577
30
0
41
1
10
15.095966532192
20
2.62323251680564
30
0
41
1
10
14.666596693947
20
2.62272147632862
30
0
41
1
10
14.4565466852347
20
2.62245892528921
30
0
0
SPLINE
5
111
100
AcDbEntity
8
1
62
256
6
ByLayer
370
18
48
1
60
0
100
AcDbSpline
70
4
71
3
72
16
73
12
40
0
40
0
40
0
40
0
40
0.16185518475235
40
0.274379844530282
40
0.344958657641999
40
0.413321958295106
40
0.485358083427126
40
0.57100717063307
40
0.735258505466083
40
0.886872682742382
40
1
40
1
40
1
40
1
41
1
10
12.9807211571075
20
-2.62103653779295
30
0
41
1
10
13.2763537235246
20
-2.621297061414
30
0
41
1
10
13.7775211693262
20
-2.62176446317733
30
0
41
1
10
14.4076186331437
20
-2.62221390965598
30
0
41
1
10
14.866948166624
20
-2.6227972866144
30
0
41
1
10
15.2523225903592
20
-2.62328504291185
30
0
41
1
10
15.6652242966383
20
-2.6231675560515
30
0
41
1
10
16.2532747026932
20
-2.6243858104952
30
0
41
1
10
16.9866865272804
20
-2.62406743642737
30
0
41
1
10
17.7702870141205
20
-2.62531538397246
30
0
41
1
10
18.2538617897204
20
-2.62591882245178
30
0
41
1
10
18.460498418132
20
-2.62613116026924
30
0
0
SPLINE
5
112
100
AcDbEntity
8
1
62
256
6
ByLayer
370
18
48
1
60
0
100
AcDbSpline
70
4
71
3
72
16
73
12
40
0
40
0
40
0
40
0
40
0.17259929644139
40
0.29199147216043
40
0.375282640643604
40
0.466345493313973
40
0.56610881766193
40
0.666985787272521
40
0.813582909759778
40
0.926520859523736
40
1
40
1
40
1
40
1
41
1
10
36.3212820686529
20
2.63596917064666
30
0
41
1
10
35.9984886731915
20
2.63552383533852
30
0
41
1
10
35.4524041405186
20
2.63509684289045
30
0
41
1
10
34.7505355281814
20
2.63388034385307
30
0
41
1
10
34.2011551085466
20
2.63514399400489
30
0
41
1
10
33.6884857194144
20
2.63400856168479
30
0
41
1
10
33.14292497727
20
2.63362782394967
30
0
41
1
10
32.4935052896475
20
2.63370072229893
30
0
41
1
10
31.8194424972279
20
2.63303686236864
30
0
41
1
10
31.1966161030084
20
2.63276020818057
30
0
41
1
10
30.8479744029225
20
2.63242811057711
30
0
41
1
10
30.7105504574143
20
2.63233692815149
30
0
0
SPLINE
5
113
100
AcDbEntity
8
1
62
256
6
ByLayer
370
18
48
1
60
0
100
AcDbSpline
70
4
71
2
72
6
73
3
40
0
40
0
40
0
40
1
40
1
40
1
41
1
10
4.79943062420858
20
0.0051337714538988
30
0
41
1
10
4.79941342711737
20
0.0051385408045519
30
0
41
1
10
4.79939623002508
20
0.0051439118334997
30
0
0
LINE
5
84
100
AcDbEntity
8
1
62
256
6
ByLayer
370
18
48
1
60
0
100
AcDbLine
10
0.855469
20
2.752416
30
0
11
0.855469
21
0
31
0
39
0
210
0
220
0
230
1
0
LINE
5
85
100
AcDbEntity
8
1
62
256
6
ByLayer
370
18
48
1
60
0
100
AcDbLine
10
0.855469
20
0
30
0
11
0.855469
21
-2.752416
31
0
39
0
210
0
220
0
230
1
0
LINE
5
86
100
AcDbEntity
8
1
62
256
6
ByLayer
370
18
48
1
60
0
100
AcDbLine
10
45.950044
20
0.043152
30
0
11
45.307847
21
0.752026
31
0
39
0
210
0
220
0
230
1
0
LINE
5
87
100
AcDbEntity
8
1
62
256
6
ByLayer
370
18
48
1
60
0
100
AcDbLine
10
18.2
20
1.145327
30
0
11
18.2
21
1.108756
31
0
39
0
210
0
220
0
230
1
0
LINE
5
88
100
AcDbEntity
8
1
62
256
6
ByLayer
370
18
48
1
60
0
100
AcDbLine
10
0.427485
20
2.876208
30
0
11
0.427485
21
0
31
0
39
0
210
0
220
0
230
1
0
LINE
5
89
100
AcDbEntity
8
1
62
256
6
ByLayer
370
18
48
1
60
0
100
AcDbLine
10
0.427485
20
0
30
0
11
0.427485
21
-2.876208
31
0
39
0
210
0
220
0
230
1
0
LINE
5
8A
100
AcDbEntity
8
1
62
256
6
ByLayer
370
18
48
1
60
0
100
AcDbLine
10
3.502043
20
0.742423
30
0
11
3.502043
21
2.752118
31
0
39
0
210
0
220
0
230
1
0
LINE
5
8B
100
AcDbEntity
8
1
62
256
6
ByLayer
370
18
48
1
60
0
100
AcDbLine
10
0
20
3
30
0
11
0
21
0
31
0
39
0
210
0
220
0
230
1
0
LINE
5
8C
100
AcDbEntity
8
1
62
256
6
ByLayer
370
18
48
1
60
0
100
AcDbLine
10
0
20
0
30
0
11
0
21
-3
31
0
39
0
210
0
220
0
230
1
0
LINE
5
8D
100
AcDbEntity
8
SK1
62
256
6
ByLayer
370
18
48
1
60
0
100
AcDbLine
10
-36
20
-2.065
30
0
11
-36
21
-1.966929
31
0
39
0
210
0
220
0
230
1
0
LINE
5
8F
100
AcDbEntity
8
SK1
62
256
6
ByLayer
370
18
48
1
60
0
100
AcDbLine
10
-35.65
20
-2.093251
30
0
11
-35.65
21
-1.165576
31
0
39
0
210
0
220
0
230
1
0
LINE
5
90
100
AcDbEntity
8
SK1
62
256
6
ByLayer
370
18
48
1
60
0
100
AcDbLine
10
-35.065
20
-3
30
0
11
-35.065
21
3
31
0
39
0
210
0
220
0
230
1
0
LINE
5
91
100
AcDbEntity
8
SK1
62
256
6
ByLayer
370
18
48
1
60
0
100
AcDbLine
10
-35.75
20
-2.069517
30
0
11
-35.75
21
-0.999089
31
0
39
0
210
0
220
0
230
1
0
LINE
5
92
100
AcDbEntity
8
SK1
62
256
6
ByLayer
370
18
48
1
60
0
100
AcDbLine
10
-36
20
-1.966929
30
0
11
-36
21
-0.592465
31
0
39
0
210
0
220
0
230
1
0
LINE
5
93
100
AcDbEntity
8
SK1
62
256
6
ByLayer
370
18
48
1
60
0
100
AcDbLine
10
-36
20
2.065
30
0
11
-36
21
-0.592445
31
0
39
0
210
0
220
0
230
1
0
LINE
5
94
100
AcDbEntity
8
SK1
62
256
6
ByLayer
370
18
48
1
60
0
100
AcDbLine
10
-35.850962
20
-1.994555
30
0
11
-35.850962
21
-0.924116
31
0
39
0
210
0
220
0
230
1
0
LINE
5
95
100
AcDbEntity
8
SK1
62
256
6
ByLayer
370
18
48
1
60
0
100
AcDbLine
10
0
20
3
30
0
11
0
21
-3
31
0
39
0
210
0
220
0
230
1
0
LINE
5
96
100
AcDbEntity
8
SK1
62
256
6
ByLayer
370
18
48
1
60
0
100
AcDbLine
10
-35.065
20
-3
30
0
11
0
21
-3
31
0
39
0
210
0
220
0
230
1
0
LINE
5
97
100
AcDbEntity
8
SK1
62
256
6
ByLayer
370
18
48
1
60
0
100
AcDbLine
10
0
20
3
30
0
11
-35.065
21
3
31
0
39
0
210
0
220
0
230
1
0
LINE
5
98
100
AcDbEntity
8
SK1
62
256
6
ByLayer
370
18
48
1
60
0
100
AcDbLine
10
-36
20
-2.065
30
0
11
-35.065
21
-3
31
0
39
0
210
0
220
0
230
1
0
LINE
5
99
100
AcDbEntity
8
SK1
62
256
6
ByLayer
370
18
48
1
60
0
100
AcDbLine
10
-35.065
20
3
30
0
11
-36
21
2.065
31
0
39
0
210
0
220
0
230
1
0
LINE
5
9A
100
AcDbEntity
8
1
62
256
6
ByLayer
370
18
48
1
60
0
100
AcDbLine
10
0.855469
20
-2.752416
30
0
11
3.603901
21
-2.754134
31
0
39
0
210
0
220
0
230
1
0
LINE
5
9B
100
AcDbEntity
8
1
62
256
6
ByLayer
370
18
48
1
60
0
100
AcDbLine
10
3.603901
20
-2.754134
30
0
11
3.666591
21
-2.754173
31
0
39
0
210
0
220
0
230
1
0
LINE
5
9C
100
AcDbEntity
8
1
62
256
6
ByLayer
370
18
48
1
60
0
100
AcDbLine
10
3.666591
20
-2.754173
30
0
11
4.392691
21
-2.754627
31
0
39
0
210
0
220
0
230
1
0
LINE
5
9D
100
AcDbEntity
8
1
62
256
6
ByLayer
370
18
48
1
60
0
100
AcDbLine
10
12.174116
20
-2.75949
30
0
11
12.984095
21
-2.759996
31
0
39
0
210
0
220
0
230
1
0
LINE
5
9E
100
AcDbEntity
8
1
62
256
6
ByLayer
370
18
48
1
60
0
100
AcDbLine
10
19.969269
20
-2.764362
30
0
11
20.729116
21
-2.764837
31
0
39
0
210
0
220
0
230
1
0
LINE
5
9F
100
AcDbEntity
8
1
62
256
6
ByLayer
370
18
48
1
60
0
100
AcDbLine
10
28.598062
20
-2.769755
30
0
11
29.335176
21
-2.770216
31
0
39
0
210
0
220
0
230
1
0
LINE
5
A0
100
AcDbEntity
8
1
62
256
6
ByLayer
370
18
48
1
60
0
100
AcDbLine
10
36.319854
20
-2.774581
30
0
11
37.061932
21
-2.775045
31
0
39
0
210
0
220
0
230
1
0
LINE
5
A1
100
AcDbEntity
8
1
62
256
6
ByLayer
370
18
48
1
60
0
100
AcDbLine
10
37.061932
20
2.775045
30
0
11
36.319854
21
2.774581
31
0
39
0
210
0
220
0
230
1
0
LINE
5
A2
100
AcDbEntity
8
1
62
256
6
ByLayer
370
18
48
1
60
0
100
AcDbLine
10
29.335176
20
2.770216
30
0
11
28.598062
21
2.769755
31
0
39
0
210
0
220
0
230
1
0
LINE
5
A3
100
AcDbEntity
8
1
62
256
6
ByLayer
370
18
48
1
60
0
100
AcDbLine
10
20.729116
20
2.764837
30
0
11
19.969269
21
2.764362
31
0
39
0
210
0
220
0
230
1
0
LINE
5
A4
100
AcDbEntity
8
1
62
256
6
ByLayer
370
18
48
1
60
0
100
AcDbLine
10
12.984095
20
2.759996
30
0
11
12.174116
21
2.75949
31
0
39
0
210
0
220
0
230
1
0
LINE
5
A5
100
AcDbEntity
8
1
62
256
6
ByLayer
370
18
48
1
60
0
100
AcDbLine
10
4.392691
20
2.754627
30
0
11
3.666591
21
2.754173
31
0
39
0
210
0
220
0
230
1
0
LINE
5
A6
100
AcDbEntity
8
1
62
256
6
ByLayer
370
18
48
1
60
0
100
AcDbLine
10
3.666591
20
2.754173
30
0
11
3.59954
21
2.754131
31
0
39
0
210
0
220
0
230
1
0
LINE
5
A7
100
AcDbEntity
8
1
62
256
6
ByLayer
370
18
48
1
60
0
100
AcDbLine
10
3.59954
20
2.754131
30
0
11
0.855469
21
2.752416
31
0
39
0
210
0
220
0
230
1
0
LINE
5
A8
100
AcDbEntity
8
SK4
62
256
6
ByLayer
370
18
48
0.05
60
0
100
AcDbLine
10
51
20
0
30
0
11
-41
21
0
31
0
39
0
210
0
220
0
230
1
0
LINE
5
AA
100
AcDbEntity
8
4
62
256
6
ByLayer
370
18
48
0.05
60
0
100
AcDbLine
10
-36
20
0
30
0
11
51
21
0
31
0
39
0
210
0
220
0
230
1
0
LINE
5
AC
100
AcDbEntity
8
80
62
256
6
ByLayer
370
18
48
1
60
0
100
AcDbLine
10
0
20
0
30
0
11
-6
21
0
31
0
39
0
210
0
220
0
230
1
0
LINE
5
AD
100
AcDbEntity
8
81
62
256
6
ByLayer
370
18
48
1
60
0
100
AcDbLine
10
46
20
0
30
0
11
52
21
0
31
0
39
0
210
0
220
0
230
1
0
LINE
5
AE
100
AcDbEntity
8
SK2
62
256
6
ByLayer
370
13
48
1
60
0
100
AcDbLine
10
46.542939
20
1.491768
30
0
11
53.926059
21
21.77747
31
0
39
0
210
0
220
0
230
1
0
LINE
5
B0
100
AcDbEntity
8
SK2
62
256
6
ByLayer
370
13
48
1
60
0
100
AcDbLine
10
46.542939
20
-1.491768
30
0
11
53.926059
21
-21.77747
31
0
39
0
210
0
220
0
230
1
0
LINE
5
B1
100
AcDbEntity
8
1
62
256
6
ByLayer
370
13
48
1
60
0
100
AcDbLine
10
52.84018
20
18.793933
30
0
11
55.936781
21
17.977598
31
0
39
0
210
0
220
0
230
1
0
LINE
5
B2
100
AcDbEntity
8
1
62
256
6
ByLayer
370
13
48
1
60
0
100
AcDbLine
10
52.84018
20
18.793933
30
0
11
55.619986
21
17.203953
31
0
39
0
210
0
220
0
230
1
0
LINE
5
B3
100
AcDbEntity
8
1
62
256
6
ByLayer
370
13
48
1
60
0
100
AcDbLine
10
55.936781
20
17.977598
30
0
11
55.619986
21
17.203953
31
0
39
0
210
0
220
0
230
1
0
LINE
5
B4
100
AcDbEntity
8
1
62
256
6
ByLayer
370
13
48
1
60
0
100
AcDbLine
10
52.84018
20
-18.793933
30
0
11
55.619983
21
-17.203955
31
0
39
0
210
0
220
0
230
1
0
LINE
5
B5
100
AcDbEntity
8
1
62
256
6
ByLayer
370
13
48
1
60
0
100
AcDbLine
10
52.84018
20
-18.793933
30
0
11
55.936784
21
-17.977597
31
0
39
0
210
0
220
0
230
1
0
LINE
5
B6
100
AcDbEntity
8
1
62
256
6
ByLayer
370
13
48
1
60
0
100
AcDbLine
10
55.619983
20
-17.203955
30
0
11
55.936784
21
-17.977597
31
0
39
0
210
0
220
0
230
1
0
MTEXT
5
114
100
AcDbEntity
8
SK2
62
256
6
ByLayer
370
18
48
1
60
0
100
AcDbMText
10
59.717388
20
-2.467451
30
0
210
0
220
0
230
1
1
\W0.7237;140.00
40
3.50012
41
0
44
1.084337
50
0
71
7
72
5
7
iso_b_vert
0
MTEXT
5
117
100
AcDbEntity
8
SK6
62
256
6
ByLayer
370
18
48
1
60
0
100
AcDbMText
10
-34.331725
20
-125.187749
30
0
210
0
220
0
230
1
1
\W0.7454;860.1-0556-028A1-GM X1BM
40
3.175
41
0
44
1.084337
50
0
71
7
72
5
7
iso_b_vert
0
DIMENSION
5
11A
100
AcDbEntity
8
SK2
62
256
6
ByLayer
370
18
48
1
60
0
100
AcDbDimension
2
_U0
10
46
20
-26.50012
30
0
11
23
21
-26.50012
31
0
70
32
71
2
72
1
41
1
210
0
220
0
230
1
3
Standard
100
AcDbAlignedDimension
13
0
23
-3
33
0
14
46
24
0
34
0
50
0
100
AcDbRotatedDimension
1001
ACAD
1000
DSTYLE
1002
{
1070
   371
1070
    13
1070
   372
1070
    13
1070
     3
1000

1070
   170
1070
     0
1070
   144
1040
1.0
1070
   277
1070
     2
1070
   284
1070
     8
1070
   278
1070
    46
1070
   146
1040
0.999966
1070
   345
1005
16
1070
   347
1005
16
1070
   346
1005
16
1070
   344
1005
11B
1070
   343
1005
11B
1070
   172
1070
     1
1070
    76
1070
     0
1070
    75
1070
     0
1070
   282
1070
     0
1070
   281
1070
     0
1070
    71
1070
     0
1070
    74
1070
     0
1070
   279
1070
     0
1070
   173
1070
     1
1070
   340
1005
115
1070
   271
1070
     1
1070
   272
1070
     2
1070
    77
1070
     1
1070
    73
1070
     1
1070
   171
1070
     3
1070
   274
1070
     4
1070
   177
1070
   150
1070
   176
1070
     9
1070
   178
1070
    43
1070
    78
1070
     8
1070
    48
1040
-0.1
1070
    41
1040
3.175
1070
   147
1040
1.75006
1070
    42
1040
1.5875
1070
    44
1040
3.175
1070
   140
1040
3.50012
1002
}
1001
ACAD_DSTYLE_DIM_LINETYPE
1070
   380
1005
16
1001
ACAD_DSTYLE_DIM_EXT1_LINETYPE
1070
   381
1005
16
1001
ACAD_DSTYLE_DIM_EXT2_LINETYPE
1070
   382
1005
16
0
DIMENSION
5
140
100
AcDbEntity
8
2
62
256
6
ByLayer
370
18
48
1
60
0
100
AcDbDimension
2
_U1
10
52.75006
20
2.78
30
0
11
52.75006
21
18.353233
31
0
70
32
71
1
72
1
41
1
210
0
220
0
230
1
3
Standard
100
AcDbAlignedDimension
13
44.9882
23
-2.78
33
0
14
44.9882
24
2.78
34
0
50
90
100
AcDbRotatedDimension
1001
ACAD
1000
DSTYLE
1002
{
1070
   371
1070
    13
1070
   372
1070
    13
1070
     3
1000

1070
   170
1070
     0
1070
   144
1040
1.0
1070
   277
1070
     2
1070
   284
1070
     8
1070
   278
1070
    46
1070
   146
1040
0.999966
1070
   345
1005
16
1070
   347
1005
16
1070
   346
1005
16
1070
   344
1005
11B
1070
   343
1005
11B
1070
   172
1070
     1
1070
    76
1070
     0
1070
    75
1070
     0
1070
   282
1070
     0
1070
   281
1070
     0
1070
    71
1070
     0
1070
    74
1070
     0
1070
   279
1070
     0
1070
   173
1070
     1
1070
   340
1005
115
1070
   271
1070
     1
1070
   272
1070
     2
1070
    77
1070
     1
1070
    73
1070
     0
1070
   171
1070
     3
1070
   274
1070
     4
1070
   177
1070
   150
1070
   176
1070
     9
1070
   178
1070
    43
1070
    78
1070
     8
1070
    48
1040
-0.1
1070
    41
1040
3.175
1070
   147
1040
1.75006
1070
    42
1040
1.5875
1070
    44
1040
3.175
1070
   140
1040
3.50012
1002
}
1001
ACAD_DSTYLE_DIM_LINETYPE
1070
   380
1005
16
1001
ACAD_DSTYLE_DIM_EXT1_LINETYPE
1070
   381
1005
16
1001
ACAD_DSTYLE_DIM_EXT2_LINETYPE
1070
   382
1005
16
0
DIMENSION
5
15F
100
AcDbEntity
8
SK2
62
256
6
ByLayer
370
18
48
1
60
0
100
AcDbDimension
2
_U2
10
-39.24994
20
-3
30
0
11
-39.24994
21
17.10734
31
0
70
32
71
1
72
1
41
1
210
0
220
0
230
1
3
Standard
100
AcDbAlignedDimension
13
-36
23
3
33
0
14
-36
24
-3
34
0
50
90
100
AcDbRotatedDimension
1001
ACAD
1000
DSTYLE
1002
{
1070
   371
1070
    13
1070
   372
1070
    13
1070
     3
1000

1070
   170
1070
     0
1070
   144
1040
1.0
1070
   277
1070
     2
1070
   284
1070
     8
1070
   278
1070
    46
1070
   146
1040
0.999966
1070
   345
1005
16
1070
   347
1005
16
1070
   346
1005
16
1070
   344
1005
11B
1070
   343
1005
11B
1070
   172
1070
     1
1070
    76
1070
     0
1070
    75
1070
     0
1070
   282
1070
     0
1070
   281
1070
     0
1070
    71
1070
     0
1070
    74
1070
     0
1070
   279
1070
     0
1070
   173
1070
     1
1070
   340
1005
115
1070
   271
1070
     1
1070
   272
1070
     2
1070
    77
1070
     1
1070
    73
1070
     0
1070
   171
1070
     3
1070
   274
1070
     4
1070
   177
1070
   150
1070
   176
1070
     9
1070
   178
1070
    43
1070
    78
1070
     8
1070
    48
1040
-0.1
1070
    41
1040
3.175
1070
   147
1040
1.75006
1070
    42
1040
1.5875
1070
    44
1040
3.175
1070
   140
1040
3.50012
1002
}
1001
ACAD_DSTYLE_DIM_LINETYPE
1070
   380
1005
16
1001
ACAD_DSTYLE_DIM_EXT1_LINETYPE
1070
   381
1005
16
1001
ACAD_DSTYLE_DIM_EXT2_LINETYPE
1070
   382
1005
16
0
DIMENSION
5
17D
100
AcDbEntity
8
SK2
62
256
6
ByLayer
370
18
48
1
60
0
100
AcDbDimension
2
_U3
10
0
20
-26.50012
30
0
11
-18
21
-26.50012
31
0
70
32
71
1
72
1
41
1
210
0
220
0
230
1
3
Standard
100
AcDbAlignedDimension
13
-36
23
-3
33
0
14
0
24
-3
34
0
50
0
100
AcDbRotatedDimension
1001
ACAD
1000
DSTYLE
1002
{
1070
   371
1070
    13
1070
   372
1070
    13
1070
     3
1000

1070
   170
1070
     0
1070
   144
1040
1.0
1070
   277
1070
     2
1070
   284
1070
     8
1070
   278
1070
    46
1070
   146
1040
0.999966
1070
   345
1005
16
1070
   347
1005
16
1070
   346
1005
16
1070
   344
1005
11B
1070
   343
1005
11B
1070
   172
1070
     1
1070
    76
1070
     0
1070
    75
1070
     0
1070
   282
1070
     0
1070
   281
1070
     0
1070
    71
1070
     0
1070
    74
1070
     0
1070
   279
1070
     0
1070
   173
1070
     1
1070
   340
1005
115
1070
   271
1070
     1
1070
   272
1070
     2
1070
    77
1070
     1
1070
    73
1070
     1
1070
   171
1070
     3
1070
   274
1070
     4
1070
   177
1070
   150
1070
   176
1070
     9
1070
   178
1070
    43
1070
    78
1070
     8
1070
    48
1040
-0.1
1070
    41
1040
3.175
1070
   147
1040
1.75006
1070
    42
1040
1.5875
1070
    44
1040
3.175
1070
   140
1040
3.50012
1002
}
1001
ACAD_DSTYLE_DIM_LINETYPE
1070
   380
1005
16
1001
ACAD_DSTYLE_DIM_EXT1_LINETYPE
1070
   381
1005
16
1001
ACAD_DSTYLE_DIM_EXT2_LINETYPE
1070
   382
1005
16
0
DIMENSION
5
199
100
AcDbEntity
8
SK2
62
256
6
ByLayer
370
18
48
1
60
0
100
AcDbDimension
2
_U4
10
46
20
-17.74982
30
0
11
24
21
-17.74982
31
0
70
32
71
1
72
1
41
1
210
0
220
0
230
1
3
Standard
100
AcDbAlignedDimension
13
2
23
3.28
33
0
14
46
24
0
34
0
50
0
100
AcDbRotatedDimension
1001
ACAD
1000
DSTYLE
1002
{
1070
   371
1070
    13
1070
   372
1070
    13
1070
     3
1000

1070
   170
1070
     0
1070
   144
1040
1.0
1070
   277
1070
     2
1070
   284
1070
     8
1070
   278
1070
    46
1070
   146
1040
0.999966
1070
   345
1005
16
1070
   347
1005
16
1070
   346
1005
16
1070
   344
1005
11B
1070
   343
1005
11B
1070
   172
1070
     1
1070
    76
1070
     0
1070
    75
1070
     0
1070
   282
1070
     0
1070
   281
1070
     0
1070
    71
1070
     0
1070
    74
1070
     0
1070
   279
1070
     0
1070
   173
1070
     1
1070
   340
1005
115
1070
   271
1070
     1
1070
   272
1070
     2
1070
    77
1070
     1
1070
    73
1070
     1
1070
   171
1070
     3
1070
   274
1070
     4
1070
   177
1070
   150
1070
   176
1070
     9
1070
   178
1070
    43
1070
    78
1070
     8
1070
    48
1040
-0.1
1070
    41
1040
3.175
1070
   147
1040
1.75006
1070
    42
1040
1.5875
1070
    44
1040
3.175
1070
   140
1040
3.50012
1002
}
1001
ACAD_DSTYLE_DIM_LINETYPE
1070
   380
1005
16
1001
ACAD_DSTYLE_DIM_EXT1_LINETYPE
1070
   381
1005
16
1001
ACAD_DSTYLE_DIM_EXT2_LINETYPE
1070
   382
1005
16
0
DIMENSION
5
1B5
100
AcDbEntity
8
SK2
62
256
6
ByLayer
370
18
48
1
60
0
100
AcDbDimension
2
_U5
10
46
20
-9.82
30
0
11
31.6
21
-9.82
31
0
70
32
71
1
72
1
41
1
210
0
220
0
230
1
3
Standard
100
AcDbAlignedDimension
13
17.2
23
-2.78
33
0
14
46
24
0
34
0
50
0
100
AcDbRotatedDimension
1001
ACAD
1000
DSTYLE
1002
{
1070
   371
1070
    13
1070
   372
1070
    13
1070
     3
1000

1070
   170
1070
     0
1070
   144
1040
1.0
1070
   277
1070
     2
1070
   284
1070
     8
1070
   278
1070
    46
1070
   146
1040
1.25
1070
   345
1005
16
1070
   347
1005
16
1070
   346
1005
16
1070
   344
1005
11B
1070
   343
1005
11B
1070
   172
1070
     1
1070
    76
1070
     0
1070
    75
1070
     0
1070
   282
1070
     0
1070
   281
1070
     0
1070
    71
1070
     0
1070
    74
1070
     0
1070
   279
1070
     0
1070
   173
1070
     1
1070
   340
1005
115
1070
   271
1070
     1
1070
   272
1070
     2
1070
    77
1070
     1
1070
    73
1070
     1
1070
   171
1070
     3
1070
   274
1070
     4
1070
   177
1070
   150
1070
   176
1070
     9
1070
   178
1070
    43
1070
    78
1070
     8
1070
    48
1040
-0.1
1070
    41
1040
3.175
1070
   147
1040
0.42
1070
    42
1040
1.5875
1070
    44
1040
0.5
1070
   140
1040
2.8
1002
}
1001
ACAD_DSTYLE_DIM_LINETYPE
1070
   380
1005
16
1001
ACAD_DSTYLE_DIM_EXT1_LINETYPE
1070
   381
1005
16
1001
ACAD_DSTYLE_DIM_EXT2_LINETYPE
1070
   382
1005
16
0
DIMENSION
5
1D1
100
AcDbEntity
8
SK2
62
256
6
ByLayer
370
18
48
1
60
0
100
AcDbDimension
2
_U6
10
46
20
-36.50012
30
0
11
5
21
-36.50012
31
0
70
32
71
1
72
1
41
1
210
0
220
0
230
1
3
Standard
100
AcDbAlignedDimension
13
-36
23
0
33
0
14
46
24
0
34
0
50
0
100
AcDbRotatedDimension
1001
ACAD
1000
DSTYLE
1002
{
1070
   371
1070
    13
1070
   372
1070
    13
1070
     3
1000

1070
   170
1070
     0
1070
   144
1040
1.0
1070
   277
1070
     2
1070
   284
1070
     8
1070
   278
1070
    46
1070
   146
1040
0.999966
1070
   345
1005
16
1070
   347
1005
16
1070
   346
1005
16
1070
   344
1005
11B
1070
   343
1005
11B
1070
   172
1070
     1
1070
    76
1070
     0
1070
    75
1070
     0
1070
   282
1070
     0
1070
   281
1070
     0
1070
    71
1070
     0
1070
    74
1070
     0
1070
   279
1070
     0
1070
   173
1070
     1
1070
   340
1005
115
1070
   271
1070
     1
1070
   272
1070
     2
1070
    77
1070
     1
1070
    73
1070
     1
1070
   171
1070
     3
1070
   274
1070
     4
1070
   177
1070
   150
1070
   176
1070
     9
1070
   178
1070
    43
1070
    78
1070
     8
1070
    48
1040
-0.1
1070
    41
1040
3.175
1070
   147
1040
1.75006
1070
    42
1040
1.5875
1070
    44
1040
3.175
1070
   140
1040
3.50012
1002
}
1001
ACAD_DSTYLE_DIM_LINETYPE
1070
   380
1005
16
1001
ACAD_DSTYLE_DIM_EXT1_LINETYPE
1070
   381
1005
16
1001
ACAD_DSTYLE_DIM_EXT2_LINETYPE
1070
   382
1005
16
0
ENDSEC
0
SECTION
2
OBJECTS
0
DICTIONARY
5
25d
330
0
100
AcDbDictionary
280
0
281
1
3
ACAD_GROUP
350
25e
3
ACAD_MLINESTYLE
350
25f
0
DICTIONARY
5
25e
330
0
100
AcDbDictionary
280
0
281
1
0
DICTIONARY
5
25f
330
0
100
AcDbDictionary
280
0
281
1
3
Standard
350
18
0
MLINESTYLE
5
18
330
25f
100
AcDbMlineStyle
2
Standard
70
0
3

62
256
51
90
52
90
71
2
49
-0.5
62
256
6
ByLayer
49
0.5
62
256
6
ByLayer
0
RASTERVARIABLES
5
24b
330

100
AcDbRasterVariables
90
0
70
1
71
1
72
1
0
ENDSEC
0
EOF
