0
SECTION
2
HEADER
9
$ACADVER
1
AC1015
9
$DWGCODEPAGE
3
ANSI_1252
9
$HANDSEED
5
26b
9
$ANGBASE
50
0
9
$ANGDIR
70
0
9
$ATTMODE
70
1
9
$AUNITS
70
0
9
$AUPREC
70
0
9
$CECOLOR
62
256
9
$CELTSCALE
40
1
9
$CELTYPE
6
ByLayer
9
$CELWEIGHT
370
18
9
$CLAYER
8
0
9
$CMLJUST
70
0
9
$CMLSCALE
40
1
9
$CMLSTYLE
2
Standard
9
$DIMSTYLE
2
Standard
9
$TEXTSIZE
40
0.2
9
$TEXTSTYLE
7
Standard
9
$LUNITS
70
2
9
$LUPREC
70
4
9
$EXTNAMES
290
1
9
$INSUNITS
70
4
9
$LTSCALE
40
1
9
$LWDISPLAY
290
1
9
$PDMODE
70
0
9
$PDSIZE
40
0
9
$PLINEGEN
70
0
0
ENDSEC
0
SECTION
2
CLASSES
0
CLASS
1
RASTERVARIABLES
2
AcDbRasterVariables
3
ISM
90
0
280
0
281
0
0
ENDSEC
0
SECTION
2
TABLES
0
TABLE
2
VPORT
5
261
100
AcDbSymbolTable
0
VPORT
5
1
100
AcDbSymbolTableRecord
100
AcDbViewportTableRecord
2
*Active
70
0
10
0
20
0
11
1
21
1
12
-1
22
1
13
0
23
0
14
0.5
24
0.5
15
10
25
10
16
0
26
0
36
1
17
0
27
0
37
0
0
ENDTAB
0
TABLE
2
LTYPE
5
262
100
AcDbSymbolTable
0
LTYPE
5
14
100
AcDbSymbolTableRecord
100
AcDbLinetypeTableRecord
70
0
2
ByBlock
3

72
65
73
0
40
0
0
LTYPE
5
15
100
AcDbSymbolTableRecord
100
AcDbLinetypeTableRecord
70
0
2
ByLayer
3

72
65
73
0
40
0
0
LTYPE
5
16
100
AcDbSymbolTableRecord
100
AcDbLinetypeTableRecord
70
0
2
Continuous
3
Solid line
72
65
73
0
40
0
0
LTYPE
5
6E
100
AcDbSymbolTableRecord
100
AcDbLinetypeTableRecord
70
0
2
CENTER
3
____ _ ____ _ ____ _ ____
72
65
73
4
40
47.5
49
22
74
0
49
-8.5
74
0
49
8.5
74
0
49
-8.5
74
0
0
LTYPE
5
6F
100
AcDbSymbolTableRecord
100
AcDbLinetypeTableRecord
70
0
2
DASHED
3
__ __ __ __ __ __ __ __ __
72
65
73
2
40
25.72
49
12.86
74
0
49
-12.86
74
0
0
ENDTAB
0
TABLE
2
LAYER
5
263
100
AcDbSymbolTable
0
LAYER
5
10
100
AcDbSymbolTableRecord
100
AcDbLayerTableRecord
2
0
70
0
62
7
6
Continuous
290
1
370
-3
390
0
0
LAYER
5
71
100
AcDbSymbolTableRecord
100
AcDbLayerTableRecord
2
80
70
0
62
-6
6
Continuous
290
1
370
-3
390
0
0
LAYER
5
73
100
AcDbSymbolTableRecord
100
AcDbLayerTableRecord
2
81
70
0
62
-3
6
Continuous
290
1
370
-3
390
0
0
LAYER
5
75
100
AcDbSymbolTableRecord
100
AcDbLayerTableRecord
2
1
70
0
62
4
6
Continuous
290
1
370
-3
390
0
0
LAYER
5
AB
100
AcDbSymbolTableRecord
100
AcDbLayerTableRecord
2
4
70
0
62
-2
6
CENTER
290
1
370
-3
390
0
0
LAYER
5
125
100
AcDbSymbolTableRecord
100
AcDbLayerTableRecord
2
Defpoints
70
0
62
7
6
Continuous
290
0
370
-3
390
0
0
LAYER
5
152
100
AcDbSymbolTableRecord
100
AcDbLayerTableRecord
2
2
70
0
62
7
6
Continuous
290
1
370
-3
390
0
0
LAYER
5
24d
100
AcDbSymbolTableRecord
100
AcDbLayerTableRecord
2
SK1
70
0
62
4
6
Continuous
290
1
370
-3
390
0
0
LAYER
5
24e
100
AcDbSymbolTableRecord
100
AcDbLayerTableRecord
2
SK4
70
0
62
2
6
CENTER
290
1
370
-3
390
0
0
LAYER
5
24f
100
AcDbSymbolTableRecord
100
AcDbLayerTableRecord
2
SK2
70
0
62
7
6
Continuous
290
1
370
-3
390
0
0
LAYER
5
250
100
AcDbSymbolTableRecord
100
AcDbLayerTableRecord
2
SK6
70
0
62
5
6
Continuous
290
1
370
-3
390
0
0
ENDTAB
0
TABLE
2
STYLE
5
264
100
AcDbSymbolTable
0
STYLE
5
11
100
AcDbSymbolTableRecord
100
AcDbTextStyleTableRecord
2
Standard
3
txt
70
0
71
0
40
0
41
1
42
0
50
0
0
STYLE
5
116
100
AcDbSymbolTableRecord
100
AcDbTextStyleTableRecord
2
iso_b_vert
3
simplex.shx
70
0
71
0
40
0
41
1
42
0
50
0
0
STYLE
5
117
100
AcDbSymbolTableRecord
100
AcDbTextStyleTableRecord
2
DWGDirectTextStyle
3
simplex
70
0
71
0
40
0
41
1
42
0
50
0
0
ENDTAB
0
TABLE
2
DIMSTYLE
5
265
100
AcDbSymbolTable
100
AcDbDimStyleTable
0
DIMSTYLE
105
27
100
AcDbSymbolTableRecord
100
AcDbDimStyleTableRecord
2
Standard
70
0
3
<>
41
0.18
42
0.0625
44
0.18
140
0.18
147
0.09
73
0
74
0
77
1
271
2
275
0
278
52
280
0
340
11
0
ENDTAB
0
TABLE
2
VIEW
5
266
100
AcDbSymbolTable
0
ENDTAB
0
TABLE
2
UCS
5
267
100
AcDbSymbolTable
0
ENDTAB
0
TABLE
2
APPID
5
268
100
AcDbSymbolTable
0
APPID
5
12
100
AcDbSymbolTableRecord
100
AcDbRegAppTableRecord
2
ACAD
70
0
0
APPID
5
11A
100
AcDbSymbolTableRecord
100
AcDbRegAppTableRecord
2
ACAD_DSTYLE_DIMBREAK
70
0
0
APPID
5
20C
100
AcDbSymbolTableRecord
100
AcDbRegAppTableRecord
2
ACAD_DSTYLE_DIM_LINETYPE
70
0
0
APPID
5
20D
100
AcDbSymbolTableRecord
100
AcDbRegAppTableRecord
2
ACAD_DSTYLE_DIM_EXT1_LINETYPE
70
0
0
APPID
5
20E
100
AcDbSymbolTableRecord
100
AcDbRegAppTableRecord
2
ACAD_DSTYLE_DIM_EXT2_LINETYPE
70
0
0
APPID
5
249
100
AcDbSymbolTableRecord
100
AcDbRegAppTableRecord
2
ACAD_MLEADERVER
70
0
0
ENDTAB
0
TABLE
2
BLOCK_RECORD
5
269
100
AcDbSymbolTable
0
BLOCK_RECORD
5
1F
100
AcDbSymbolTableRecord
100
AcDbBlockTableRecord
2
*Model_Space
340
0
70
0
0
BLOCK_RECORD
5
1B
100
AcDbSymbolTableRecord
100
AcDbBlockTableRecord
2
*Paper_Space
340
0
70
0
0
BLOCK_RECORD
5
23
100
AcDbSymbolTableRecord
100
AcDbBlockTableRecord
2
*Paper_Space0
340
0
70
0
0
BLOCK_RECORD
5
11C
100
AcDbSymbolTableRecord
100
AcDbBlockTableRecord
2
_Closed
340
0
70
0
0
BLOCK_RECORD
5
126
100
AcDbSymbolTableRecord
100
AcDbBlockTableRecord
2
*D2
340
0
70
0
0
BLOCK_RECORD
5
132
100
AcDbSymbolTableRecord
100
AcDbBlockTableRecord
2
_U0
340
0
70
0
0
BLOCK_RECORD
5
144
100
AcDbSymbolTableRecord
100
AcDbBlockTableRecord
2
*D4
340
0
70
0
0
BLOCK_RECORD
5
153
100
AcDbSymbolTableRecord
100
AcDbBlockTableRecord
2
_U1
340
0
70
0
0
BLOCK_RECORD
5
163
100
AcDbSymbolTableRecord
100
AcDbBlockTableRecord
2
*D6
340
0
70
0
0
BLOCK_RECORD
5
171
100
AcDbSymbolTableRecord
100
AcDbBlockTableRecord
2
_U2
340
0
70
0
0
BLOCK_RECORD
5
181
100
AcDbSymbolTableRecord
100
AcDbBlockTableRecord
2
*D8
340
0
70
0
0
BLOCK_RECORD
5
18D
100
AcDbSymbolTableRecord
100
AcDbBlockTableRecord
2
_U3
340
0
70
0
0
BLOCK_RECORD
5
19D
100
AcDbSymbolTableRecord
100
AcDbBlockTableRecord
2
*D10
340
0
70
0
0
BLOCK_RECORD
5
1A9
100
AcDbSymbolTableRecord
100
AcDbBlockTableRecord
2
_U4
340
0
70
0
0
BLOCK_RECORD
5
1B9
100
AcDbSymbolTableRecord
100
AcDbBlockTableRecord
2
*D12
340
0
70
0
0
BLOCK_RECORD
5
1C5
100
AcDbSymbolTableRecord
100
AcDbBlockTableRecord
2
_U5
340
0
70
0
0
BLOCK_RECORD
5
1D5
100
AcDbSymbolTableRecord
100
AcDbBlockTableRecord
2
*D14
340
0
70
0
0
BLOCK_RECORD
5
1E1
100
AcDbSymbolTableRecord
100
AcDbBlockTableRecord
2
_U6
340
0
70
0
0
ENDTAB
0
ENDSEC
0
SECTION
2
BLOCKS
0
BLOCK
5
20
100
AcDbEntity
8
0
100
AcDbBlockBegin
2
*Model_Space
70
0
10
0
20
0
30
0
3
*Model_Space
0
ENDBLK
5
21
100
AcDbEntity
8
0
100
AcDbBlockEnd
0
BLOCK
5
1C
100
AcDbEntity
8
0
100
AcDbBlockBegin
2
*Paper_Space
70
0
10
0
20
0
30
0
3
*Paper_Space
0
ENDBLK
5
1D
100
AcDbEntity
8
0
100
AcDbBlockEnd
0
BLOCK
5
24
100
AcDbEntity
8
0
100
AcDbBlockBegin
2
*Paper_Space0
70
0
10
0
20
0
30
0
3
*Paper_Space0
0
ENDBLK
5
25
100
AcDbEntity
8
0
100
AcDbBlockEnd
0
BLOCK
5
11D
100
AcDbEntity
8
0
100
AcDbBlockBegin
2
_Closed
70
0
10
0
20
0
30
0
3
_Closed
0
LINE
5
11F
100
AcDbEntity
8
0
62
256
6
ByLayer
370
-2
48
1
60
0
100
AcDbLine
10
-1
20
0.166667
30
0
11
0
21
0
31
0
39
0
210
0
220
0
230
1
0
LINE
5
120
100
AcDbEntity
8
0
62
256
6
ByLayer
370
-2
48
1
60
0
100
AcDbLine
10
0
20
0
30
0
11
-1
21
-0.166667
31
0
39
0
210
0
220
0
230
1
0
LINE
5
121
100
AcDbEntity
8
0
62
256
6
ByLayer
370
-2
48
1
60
0
100
AcDbLine
10
-1
20
0.166667
30
0
11
-1
21
-0.166667
31
0
39
0
210
0
220
0
230
1
0
LINE
5
122
100
AcDbEntity
8
0
62
256
6
ByLayer
370
-2
48
1
60
0
100
AcDbLine
10
0
20
0
30
0
11
-1
21
0
31
0
39
0
210
0
220
0
230
1
0
ENDBLK
5
11E
100
AcDbEntity
8
0
100
AcDbBlockEnd
0
BLOCK
5
127
100
AcDbEntity
8
0
100
AcDbBlockBegin
2
*D2
70
1
10
0
20
0
30
0
3
*D2
0
LINE
5
129
100
AcDbEntity
8
0
62
256
6
ByLayer
370
-2
48
1
60
0
100
AcDbLine
10
0
20
-4.5875
30
0
11
0
21
-29.67512
31
0
39
0
210
0
220
0
230
1
0
LINE
5
12A
100
AcDbEntity
8
0
62
256
6
ByLayer
370
-2
48
1
60
0
100
AcDbLine
10
46
20
-1.5875
30
0
11
46
21
-29.67512
31
0
39
0
210
0
220
0
230
1
0
LINE
5
12B
100
AcDbEntity
8
0
62
256
6
ByLayer
370
-2
48
1
60
0
100
AcDbLine
10
3.175
20
-26.50012
30
0
11
42.825
21
-26.50012
31
0
39
0
210
0
220
0
230
1
0
SOLID
5
12C
100
AcDbEntity
8
0
62
256
6
ByLayer
370
-1
48
1
60
0
100
AcDbTrace
10
3.175
20
-25.970953
30
0
11
3.175
21
-27.029287
31
0
12
0
22
-26.50012
32
0
13
0
23
-26.50012
33
0
39
0
210
0
220
0
230
1
0
SOLID
5
12D
100
AcDbEntity
8
0
62
256
6
ByLayer
370
-1
48
1
60
0
100
AcDbTrace
10
42.825
20
-27.029287
30
0
11
42.825
21
-25.970953
31
0
12
46
22
-26.50012
32
0
13
46
23
-26.50012
33
0
39
0
210
0
220
0
230
1
0
MTEXT
5
12E
100
AcDbEntity
8
0
62
256
6
ByLayer
370
18
48
1
60
0
100
AcDbMText
10
23
20
-19.193619
30
0
210
0
220
0
230
1
1
\A1;46
40
3.50012
41
0
44
1
50
0
71
5
72
5
7
iso_b_vert
0
POINT
5
12F
100
AcDbEntity
8
Defpoints
62
0
6
ByLayer
370
-1
48
1
60
0
100
AcDbPoint
10
0
20
-3
30
0
39
0
210
0
220
0
230
1
50
360
0
POINT
5
130
100
AcDbEntity
8
Defpoints
62
0
6
ByLayer
370
-1
48
1
60
0
100
AcDbPoint
10
46
20
0
30
0
39
0
210
0
220
0
230
1
50
360
0
POINT
5
131
100
AcDbEntity
8
Defpoints
62
0
6
ByLayer
370
-1
48
1
60
0
100
AcDbPoint
10
46
20
-26.50012
30
0
39
0
210
0
220
0
230
1
50
360
0
ENDBLK
5
128
100
AcDbEntity
8
0
100
AcDbBlockEnd
0
BLOCK
5
13F
100
AcDbEntity
8
0
100
AcDbBlockBegin
2
_U0
70
0
10
0
20
0
30
0
3
_U0
0
MTEXT
5
133
100
AcDbEntity
8
SK2
62
256
6
ByLayer
370
18
48
1
60
0
100
AcDbMText
10
17.586116
20
-25.467451
30
0
210
0
220
0
230
1
1
\W0.7694;46.00
40
3.50012
41
0
44
1.084337
50
0
71
7
72
5
7
iso_b_vert
0
MTEXT
5
134
100
AcDbEntity
8
SK2
62
256
6
ByLayer
370
18
48
1
60
0
100
AcDbMText
10
14.060056
20
-25.400814
30
0
210
0
220
0
230
1
1
\W0.1790;(
40
3.175
41
0
44
1.084337
50
0
71
7
72
5
7
iso_b_vert
0
MTEXT
5
135
100
AcDbEntity
8
SK2
62
256
6
ByLayer
370
18
48
1
60
0
100
AcDbMText
10
31.942666
20
-25.400814
30
0
210
0
220
0
230
1
1
\W0.1969;)
40
3.175
41
0
44
1.084337
50
0
71
7
72
5
7
iso_b_vert
0
LINE
5
136
100
AcDbEntity
8
SK2
62
256
6
ByLayer
370
13
48
1
60
0
100
AcDbLine
10
0
20
-4.5875
30
0
11
0
21
-29.67512
31
0
39
0
210
0
220
0
230
1
0
LINE
5
137
100
AcDbEntity
8
SK2
62
256
6
ByLayer
370
13
48
1
60
0
100
AcDbLine
10
46
20
-1.5875
30
0
11
46
21
-29.67512
31
0
39
0
210
0
220
0
230
1
0
LINE
5
138
100
AcDbEntity
8
SK2
62
256
6
ByLayer
370
13
48
1
60
0
100
AcDbLine
10
0
20
-26.50012
30
0
11
46
21
-26.50012
31
0
39
0
210
0
220
0
230
1
0
LINE
5
139
100
AcDbEntity
8
SK2
62
256
6
ByLayer
370
13
48
1
60
0
100
AcDbLine
10
0
20
-26.50012
30
0
11
3.174998
21
-26.082123
31
0
39
0
210
0
220
0
230
1
0
LINE
5
13A
100
AcDbEntity
8
SK2
62
256
6
ByLayer
370
13
48
1
60
0
100
AcDbLine
10
0
20
-26.50012
30
0
11
3.175002
21
-26.918117
31
0
39
0
210
0
220
0
230
1
0
LINE
5
13B
100
AcDbEntity
8
SK2
62
256
6
ByLayer
370
13
48
1
60
0
100
AcDbLine
10
3.174998
20
-26.082123
30
0
11
3.175002
21
-26.918117
31
0
39
0
210
0
220
0
230
1
0
LINE
5
13C
100
AcDbEntity
8
SK2
62
256
6
ByLayer
370
13
48
1
60
0
100
AcDbLine
10
46
20
-26.50012
30
0
11
42.825002
21
-26.918117
31
0
39
0
210
0
220
0
230
1
0
LINE
5
13D
100
AcDbEntity
8
SK2
62
256
6
ByLayer
370
13
48
1
60
0
100
AcDbLine
10
46
20
-26.50012
30
0
11
42.824998
21
-26.082123
31
0
39
0
210
0
220
0
230
1
0
LINE
5
13E
100
AcDbEntity
8
SK2
62
256
6
ByLayer
370
13
48
1
60
0
100
AcDbLine
10
42.825002
20
-26.918117
30
0
11
42.824998
21
-26.082123
31
0
39
0
210
0
220
0
230
1
0
ENDBLK
5
140
100
AcDbEntity
8
0
100
AcDbBlockEnd
0
BLOCK
5
145
100
AcDbEntity
8
0
100
AcDbBlockBegin
2
*D4
70
1
10
0
20
0
30
0
3
*D4
0
LINE
5
147
100
AcDbEntity
8
0
62
256
6
ByLayer
370
-2
48
1
60
0
100
AcDbLine
10
46.5775
20
-2.775
30
0
11
55.92506
21
-2.775
31
0
39
0
210
0
220
0
230
1
0
LINE
5
148
100
AcDbEntity
8
0
62
256
6
ByLayer
370
-2
48
1
60
0
100
AcDbLine
10
46.5775
20
2.775
30
0
11
55.92506
21
2.775
31
0
39
0
210
0
220
0
230
1
0
LINE
5
149
100
AcDbEntity
8
0
62
256
6
ByLayer
370
-2
48
1
60
0
100
AcDbLine
10
52.75006
20
2.775
30
0
11
52.75006
21
27.571466
31
0
39
0
210
0
220
0
230
1
0
LINE
5
14A
100
AcDbEntity
8
0
62
256
6
ByLayer
370
-2
48
1
60
0
100
AcDbLine
10
52.75006
20
-5.95
30
0
11
52.75006
21
-9.125
31
0
39
0
210
0
220
0
230
1
0
LINE
5
14B
100
AcDbEntity
8
0
62
256
6
ByLayer
370
-2
48
1
60
0
100
AcDbLine
10
52.75006
20
5.95
30
0
11
52.75006
21
9.125
31
0
39
0
210
0
220
0
230
1
0
SOLID
5
14C
100
AcDbEntity
8
0
62
256
6
ByLayer
370
-1
48
1
60
0
100
AcDbTrace
10
53.279227
20
-5.95
30
0
11
52.220893
21
-5.95
31
0
12
52.75006
22
-2.775
32
0
13
52.75006
23
-2.775
33
0
39
0
210
0
220
0
230
1
0
SOLID
5
14D
100
AcDbEntity
8
0
62
256
6
ByLayer
370
-1
48
1
60
0
100
AcDbTrace
10
52.220893
20
5.95
30
0
11
53.279227
21
5.95
31
0
12
52.75006
22
2.775
32
0
13
52.75006
23
2.775
33
0
39
0
210
0
220
0
230
1
0
MTEXT
5
14E
100
AcDbEntity
8
0
62
256
6
ByLayer
370
18
48
1
60
0
100
AcDbMText
10
45.443559
20
18.348233
30
0
210
0
220
0
230
1
1
\A1;5.6
40
3.50012
41
0
44
1
50
90
71
5
72
5
7
iso_b_vert
0
POINT
5
14F
100
AcDbEntity
8
Defpoints
62
0
6
ByLayer
370
-1
48
1
60
0
100
AcDbPoint
10
44.99
20
-2.775
30
0
39
0
210
0
220
0
230
1
50
360
0
POINT
5
150
100
AcDbEntity
8
Defpoints
62
0
6
ByLayer
370
-1
48
1
60
0
100
AcDbPoint
10
44.99
20
2.775
30
0
39
0
210
0
220
0
230
1
50
360
0
POINT
5
151
100
AcDbEntity
8
Defpoints
62
0
6
ByLayer
370
-1
48
1
60
0
100
AcDbPoint
10
52.75006
20
2.775
30
0
39
0
210
0
220
0
230
1
50
360
0
ENDBLK
5
146
100
AcDbEntity
8
0
100
AcDbBlockEnd
0
BLOCK
5
15E
100
AcDbEntity
8
0
100
AcDbBlockBegin
2
_U1
70
0
10
0
20
0
30
0
3
_U1
0
MTEXT
5
154
100
AcDbEntity
8
2
62
256
6
ByLayer
370
18
48
1
60
0
100
AcDbMText
10
52.060403
20
6.932505
30
0
210
0
220
0
230
1
1
\W0.7346;5.55
40
3.50012
41
0
44
1.084337
50
90
71
7
72
5
7
iso_b_vert
0
LINE
5
155
100
AcDbEntity
8
2
62
256
6
ByLayer
370
13
48
1
60
0
100
AcDbLine
10
46.5775
20
-2.775
30
0
11
55.92506
21
-2.775
31
0
39
0
210
0
220
0
230
1
0
LINE
5
156
100
AcDbEntity
8
2
62
256
6
ByLayer
370
13
48
1
60
0
100
AcDbLine
10
46.5775
20
2.775
30
0
11
55.92506
21
2.775
31
0
39
0
210
0
220
0
230
1
0
LINE
5
157
100
AcDbEntity
8
2
62
256
6
ByLayer
370
13
48
1
60
0
100
AcDbLine
10
52.75006
20
14.98968
30
0
11
52.75006
21
-11.5253
31
0
39
0
210
0
220
0
230
1
0
LINE
5
158
100
AcDbEntity
8
2
62
256
6
ByLayer
370
13
48
1
60
0
100
AcDbLine
10
52.75006
20
-2.775
30
0
11
53.168057
21
-5.949998
31
0
39
0
210
0
220
0
230
1
0
LINE
5
159
100
AcDbEntity
8
2
62
256
6
ByLayer
370
13
48
1
60
0
100
AcDbLine
10
52.75006
20
-2.775
30
0
11
52.332063
21
-5.950002
31
0
39
0
210
0
220
0
230
1
0
LINE
5
15A
100
AcDbEntity
8
2
62
256
6
ByLayer
370
13
48
1
60
0
100
AcDbLine
10
53.168057
20
-5.949998
30
0
11
52.332063
21
-5.950002
31
0
39
0
210
0
220
0
230
1
0
LINE
5
15B
100
AcDbEntity
8
2
62
256
6
ByLayer
370
13
48
1
60
0
100
AcDbLine
10
52.75006
20
2.775
30
0
11
52.332063
21
5.949998
31
0
39
0
210
0
220
0
230
1
0
LINE
5
15C
100
AcDbEntity
8
2
62
256
6
ByLayer
370
13
48
1
60
0
100
AcDbLine
10
52.75006
20
2.775
30
0
11
53.168057
21
5.950002
31
0
39
0
210
0
220
0
230
1
0
LINE
5
15D
100
AcDbEntity
8
2
62
256
6
ByLayer
370
13
48
1
60
0
100
AcDbLine
10
52.332063
20
5.949998
30
0
11
53.168057
21
5.950002
31
0
39
0
210
0
220
0
230
1
0
ENDBLK
5
15F
100
AcDbEntity
8
0
100
AcDbBlockEnd
0
BLOCK
5
164
100
AcDbEntity
8
0
100
AcDbBlockBegin
2
*D6
70
1
10
0
20
0
30
0
3
*D6
0
LINE
5
166
100
AcDbEntity
8
0
62
256
6
ByLayer
370
-2
48
1
60
0
100
AcDbLine
10
-37.5875
20
3
30
0
11
-42.42494
21
3
31
0
39
0
210
0
220
0
230
1
0
LINE
5
167
100
AcDbEntity
8
0
62
256
6
ByLayer
370
-2
48
1
60
0
100
AcDbLine
10
-37.5875
20
-3
30
0
11
-42.42494
21
-3
31
0
39
0
210
0
220
0
230
1
0
LINE
5
168
100
AcDbEntity
8
0
62
256
6
ByLayer
370
-2
48
1
60
0
100
AcDbLine
10
-39.24994
20
3
30
0
11
-39.24994
21
23.747151
31
0
39
0
210
0
220
0
230
1
0
LINE
5
169
100
AcDbEntity
8
0
62
256
6
ByLayer
370
-2
48
1
60
0
100
AcDbLine
10
-39.24994
20
6.175
30
0
11
-39.24994
21
9.35
31
0
39
0
210
0
220
0
230
1
0
LINE
5
16A
100
AcDbEntity
8
0
62
256
6
ByLayer
370
-2
48
1
60
0
100
AcDbLine
10
-39.24994
20
-6.175
30
0
11
-39.24994
21
-9.35
31
0
39
0
210
0
220
0
230
1
0
SOLID
5
16B
100
AcDbEntity
8
0
62
256
6
ByLayer
370
-1
48
1
60
0
100
AcDbTrace
10
-39.779107
20
6.175
30
0
11
-38.720773
21
6.175
31
0
12
-39.24994
22
3
32
0
13
-39.24994
23
3
33
0
39
0
210
0
220
0
230
1
0
SOLID
5
16C
100
AcDbEntity
8
0
62
256
6
ByLayer
370
-1
48
1
60
0
100
AcDbTrace
10
-38.720773
20
-6.175
30
0
11
-39.779107
21
-6.175
31
0
12
-39.24994
22
-3
32
0
13
-39.24994
23
-3
33
0
39
0
210
0
220
0
230
1
0
MTEXT
5
16D
100
AcDbEntity
8
0
62
256
6
ByLayer
370
18
48
1
60
0
100
AcDbMText
10
-46.556441
20
17.10734
30
0
210
0
220
0
230
1
1
\A1;6
40
3.50012
41
0
44
1
50
90
71
5
72
5
7
iso_b_vert
0
POINT
5
16E
100
AcDbEntity
8
Defpoints
62
0
6
ByLayer
370
-1
48
1
60
0
100
AcDbPoint
10
-36
20
3
30
0
39
0
210
0
220
0
230
1
50
360
0
POINT
5
16F
100
AcDbEntity
8
Defpoints
62
0
6
ByLayer
370
-1
48
1
60
0
100
AcDbPoint
10
-36
20
-3
30
0
39
0
210
0
220
0
230
1
50
360
0
POINT
5
170
100
AcDbEntity
8
Defpoints
62
0
6
ByLayer
370
-1
48
1
60
0
100
AcDbPoint
10
-39.24994
20
-3
30
0
39
0
210
0
220
0
230
1
50
360
0
ENDBLK
5
165
100
AcDbEntity
8
0
100
AcDbBlockEnd
0
BLOCK
5
17C
100
AcDbEntity
8
0
100
AcDbBlockBegin
2
_U2
70
0
10
0
20
0
30
0
3
_U2
0
MTEXT
5
172
100
AcDbEntity
8
SK2
62
256
6
ByLayer
370
18
48
1
60
0
100
AcDbMText
10
-39.939597
20
13.157505
30
0
210
0
220
0
230
1
1
\W0.7346;6.00
40
3.50012
41
0
44
1.084337
50
90
71
7
72
5
7
iso_b_vert
0
LINE
5
173
100
AcDbEntity
8
SK2
62
256
6
ByLayer
370
13
48
1
60
0
100
AcDbLine
10
-37.5875
20
3
30
0
11
-42.42494
21
3
31
0
39
0
210
0
220
0
230
1
0
LINE
5
174
100
AcDbEntity
8
SK2
62
256
6
ByLayer
370
13
48
1
60
0
100
AcDbLine
10
-37.5875
20
-3
30
0
11
-42.42494
21
-3
31
0
39
0
210
0
220
0
230
1
0
LINE
5
175
100
AcDbEntity
8
SK2
62
256
6
ByLayer
370
13
48
1
60
0
100
AcDbLine
10
-39.24994
20
-11.7503
30
0
11
-39.24994
21
21.21468
31
0
39
0
210
0
220
0
230
1
0
LINE
5
176
100
AcDbEntity
8
SK2
62
256
6
ByLayer
370
13
48
1
60
0
100
AcDbLine
10
-39.24994
20
3
30
0
11
-39.667937
21
6.174998
31
0
39
0
210
0
220
0
230
1
0
LINE
5
177
100
AcDbEntity
8
SK2
62
256
6
ByLayer
370
13
48
1
60
0
100
AcDbLine
10
-39.24994
20
3
30
0
11
-38.831943
21
6.175002
31
0
39
0
210
0
220
0
230
1
0
LINE
5
178
100
AcDbEntity
8
SK2
62
256
6
ByLayer
370
13
48
1
60
0
100
AcDbLine
10
-39.667937
20
6.174998
30
0
11
-38.831943
21
6.175002
31
0
39
0
210
0
220
0
230
1
0
LINE
5
179
100
AcDbEntity
8
SK2
62
256
6
ByLayer
370
13
48
1
60
0
100
AcDbLine
10
-39.24994
20
-3
30
0
11
-38.831943
21
-6.174998
31
0
39
0
210
0
220
0
230
1
0
LINE
5
17A
100
AcDbEntity
8
SK2
62
256
6
ByLayer
370
13
48
1
60
0
100
AcDbLine
10
-39.24994
20
-3
30
0
11
-39.667937
21
-6.175002
31
0
39
0
210
0
220
0
230
1
0
LINE
5
17B
100
AcDbEntity
8
SK2
62
256
6
ByLayer
370
13
48
1
60
0
100
AcDbLine
10
-38.831943
20
-6.174998
30
0
11
-39.667937
21
-6.175002
31
0
39
0
210
0
220
0
230
1
0
ENDBLK
5
17D
100
AcDbEntity
8
0
100
AcDbBlockEnd
0
BLOCK
5
182
100
AcDbEntity
8
0
100
AcDbBlockBegin
2
*D8
70
1
10
0
20
0
30
0
3
*D8
0
LINE
5
184
100
AcDbEntity
8
0
62
256
6
ByLayer
370
-2
48
1
60
0
100
AcDbLine
10
-36
20
-4.5875
30
0
11
-36
21
-29.67512
31
0
39
0
210
0
220
0
230
1
0
LINE
5
185
100
AcDbEntity
8
0
62
256
6
ByLayer
370
-2
48
1
60
0
100
AcDbLine
10
0
20
-4.5875
30
0
11
0
21
-29.67512
31
0
39
0
210
0
220
0
230
1
0
LINE
5
186
100
AcDbEntity
8
0
62
256
6
ByLayer
370
-2
48
1
60
0
100
AcDbLine
10
-32.825
20
-26.50012
30
0
11
-3.175
21
-26.50012
31
0
39
0
210
0
220
0
230
1
0
SOLID
5
187
100
AcDbEntity
8
0
62
256
6
ByLayer
370
-1
48
1
60
0
100
AcDbTrace
10
-32.825
20
-25.970953
30
0
11
-32.825
21
-27.029287
31
0
12
-36
22
-26.50012
32
0
13
-36
23
-26.50012
33
0
39
0
210
0
220
0
230
1
0
SOLID
5
188
100
AcDbEntity
8
0
62
256
6
ByLayer
370
-1
48
1
60
0
100
AcDbTrace
10
-3.175
20
-27.029287
30
0
11
-3.175
21
-25.970953
31
0
12
0
22
-26.50012
32
0
13
0
23
-26.50012
33
0
39
0
210
0
220
0
230
1
0
MTEXT
5
189
100
AcDbEntity
8
0
62
256
6
ByLayer
370
18
48
1
60
0
100
AcDbMText
10
-18
20
-19.193619
30
0
210
0
220
0
230
1
1
\A1;36
40
3.50012
41
0
44
1
50
0
71
5
72
5
7
iso_b_vert
0
POINT
5
18A
100
AcDbEntity
8
Defpoints
62
0
6
ByLayer
370
-1
48
1
60
0
100
AcDbPoint
10
-36
20
-3
30
0
39
0
210
0
220
0
230
1
50
360
0
POINT
5
18B
100
AcDbEntity
8
Defpoints
62
0
6
ByLayer
370
-1
48
1
60
0
100
AcDbPoint
10
0
20
-3
30
0
39
0
210
0
220
0
230
1
50
360
0
POINT
5
18C
100
AcDbEntity
8
Defpoints
62
0
6
ByLayer
370
-1
48
1
60
0
100
AcDbPoint
10
0
20
-26.50012
30
0
39
0
210
0
220
0
230
1
50
360
0
ENDBLK
5
183
100
AcDbEntity
8
0
100
AcDbBlockEnd
0
BLOCK
5
198
100
AcDbEntity
8
0
100
AcDbBlockBegin
2
_U3
70
0
10
0
20
0
30
0
3
_U3
0
MTEXT
5
18E
100
AcDbEntity
8
SK2
62
256
6
ByLayer
370
18
48
1
60
0
100
AcDbMText
10
-23.229611
20
-25.467451
30
0
210
0
220
0
230
1
1
\W0.7468;36.00
40
3.50012
41
0
44
1.084337
50
0
71
7
72
5
7
iso_b_vert
0
LINE
5
18F
100
AcDbEntity
8
SK2
62
256
6
ByLayer
370
13
48
1
60
0
100
AcDbLine
10
-36
20
-4.5875
30
0
11
-36
21
-29.67512
31
0
39
0
210
0
220
0
230
1
0
LINE
5
190
100
AcDbEntity
8
SK2
62
256
6
ByLayer
370
13
48
1
60
0
100
AcDbLine
10
0
20
-4.5875
30
0
11
0
21
-29.67512
31
0
39
0
210
0
220
0
230
1
0
LINE
5
191
100
AcDbEntity
8
SK2
62
256
6
ByLayer
370
13
48
1
60
0
100
AcDbLine
10
-36
20
-26.50012
30
0
11
0
21
-26.50012
31
0
39
0
210
0
220
0
230
1
0
LINE
5
192
100
AcDbEntity
8
SK2
62
256
6
ByLayer
370
13
48
1
60
0
100
AcDbLine
10
-36
20
-26.50012
30
0
11
-32.825002
21
-26.082123
31
0
39
0
210
0
220
0
230
1
0
LINE
5
193
100
AcDbEntity
8
SK2
62
256
6
ByLayer
370
13
48
1
60
0
100
AcDbLine
10
-36
20
-26.50012
30
0
11
-32.824998
21
-26.918117
31
0
39
0
210
0
220
0
230
1
0
LINE
5
194
100
AcDbEntity
8
SK2
62
256
6
ByLayer
370
13
48
1
60
0
100
AcDbLine
10
-32.825002
20
-26.082123
30
0
11
-32.824998
21
-26.918117
31
0
39
0
210
0
220
0
230
1
0
LINE
5
195
100
AcDbEntity
8
SK2
62
256
6
ByLayer
370
13
48
1
60
0
100
AcDbLine
10
0
20
-26.50012
30
0
11
-3.174998
21
-26.918117
31
0
39
0
210
0
220
0
230
1
0
LINE
5
196
100
AcDbEntity
8
SK2
62
256
6
ByLayer
370
13
48
1
60
0
100
AcDbLine
10
0
20
-26.50012
30
0
11
-3.175002
21
-26.082123
31
0
39
0
210
0
220
0
230
1
0
LINE
5
197
100
AcDbEntity
8
SK2
62
256
6
ByLayer
370
13
48
1
60
0
100
AcDbLine
10
-3.174998
20
-26.918117
30
0
11
-3.175002
21
-26.082123
31
0
39
0
210
0
220
0
230
1
0
ENDBLK
5
199
100
AcDbEntity
8
0
100
AcDbBlockEnd
0
BLOCK
5
19E
100
AcDbEntity
8
0
100
AcDbBlockBegin
2
*D10
70
1
10
0
20
0
30
0
3
*D10
0
LINE
5
1A0
100
AcDbEntity
8
0
62
256
6
ByLayer
370
-2
48
1
60
0
100
AcDbLine
10
2
20
1.6875
30
0
11
2
21
-20.92482
31
0
39
0
210
0
220
0
230
1
0
LINE
5
1A1
100
AcDbEntity
8
0
62
256
6
ByLayer
370
-2
48
1
60
0
100
AcDbLine
10
46
20
-1.5875
30
0
11
46
21
-20.92482
31
0
39
0
210
0
220
0
230
1
0
LINE
5
1A2
100
AcDbEntity
8
0
62
256
6
ByLayer
370
-2
48
1
60
0
100
AcDbLine
10
5.175
20
-17.74982
30
0
11
42.825
21
-17.74982
31
0
39
0
210
0
220
0
230
1
0
SOLID
5
1A3
100
AcDbEntity
8
0
62
256
6
ByLayer
370
-1
48
1
60
0
100
AcDbTrace
10
5.175
20
-17.220653
30
0
11
5.175
21
-18.278987
31
0
12
2
22
-17.74982
32
0
13
2
23
-17.74982
33
0
39
0
210
0
220
0
230
1
0
SOLID
5
1A4
100
AcDbEntity
8
0
62
256
6
ByLayer
370
-1
48
1
60
0
100
AcDbTrace
10
42.825
20
-18.278987
30
0
11
42.825
21
-17.220653
31
0
12
46
22
-17.74982
32
0
13
46
23
-17.74982
33
0
39
0
210
0
220
0
230
1
0
MTEXT
5
1A5
100
AcDbEntity
8
0
62
256
6
ByLayer
370
18
48
1
60
0
100
AcDbMText
10
24
20
-10.443319
30
0
210
0
220
0
230
1
1
\A1;44
40
3.50012
41
0
44
1
50
0
71
5
72
5
7
iso_b_vert
0
POINT
5
1A6
100
AcDbEntity
8
Defpoints
62
0
6
ByLayer
370
-1
48
1
60
0
100
AcDbPoint
10
2
20
3.275
30
0
39
0
210
0
220
0
230
1
50
360
0
POINT
5
1A7
100
AcDbEntity
8
Defpoints
62
0
6
ByLayer
370
-1
48
1
60
0
100
AcDbPoint
10
46
20
0
30
0
39
0
210
0
220
0
230
1
50
360
0
POINT
5
1A8
100
AcDbEntity
8
Defpoints
62
0
6
ByLayer
370
-1
48
1
60
0
100
AcDbPoint
10
46
20
-17.74982
30
0
39
0
210
0
220
0
230
1
50
360
0
ENDBLK
5
19F
100
AcDbEntity
8
0
100
AcDbBlockEnd
0
BLOCK
5
1B4
100
AcDbEntity
8
0
100
AcDbBlockBegin
2
_U4
70
0
10
0
20
0
30
0
3
_U4
0
MTEXT
5
1AA
100
AcDbEntity
8
SK2
62
256
6
ByLayer
370
18
48
1
60
0
100
AcDbMText
10
18.401842
20
-16.717151
30
0
210
0
220
0
230
1
1
\W0.7958;44.00
40
3.50012
41
0
44
1.084337
50
0
71
7
72
5
7
iso_b_vert
0
LINE
5
1AB
100
AcDbEntity
8
SK2
62
256
6
ByLayer
370
13
48
1
60
0
100
AcDbLine
10
2
20
1.6875
30
0
11
2
21
-20.92482
31
0
39
0
210
0
220
0
230
1
0
LINE
5
1AC
100
AcDbEntity
8
SK2
62
256
6
ByLayer
370
13
48
1
60
0
100
AcDbLine
10
46
20
-1.5875
30
0
11
46
21
-20.92482
31
0
39
0
210
0
220
0
230
1
0
LINE
5
1AD
100
AcDbEntity
8
SK2
62
256
6
ByLayer
370
13
48
1
60
0
100
AcDbLine
10
2
20
-17.74982
30
0
11
46
21
-17.74982
31
0
39
0
210
0
220
0
230
1
0
LINE
5
1AE
100
AcDbEntity
8
SK2
62
256
6
ByLayer
370
13
48
1
60
0
100
AcDbLine
10
2
20
-17.74982
30
0
11
5.174998
21
-17.331823
31
0
39
0
210
0
220
0
230
1
0
LINE
5
1AF
100
AcDbEntity
8
SK2
62
256
6
ByLayer
370
13
48
1
60
0
100
AcDbLine
10
2
20
-17.74982
30
0
11
5.175002
21
-18.167817
31
0
39
0
210
0
220
0
230
1
0
LINE
5
1B0
100
AcDbEntity
8
SK2
62
256
6
ByLayer
370
13
48
1
60
0
100
AcDbLine
10
5.174998
20
-17.331823
30
0
11
5.175002
21
-18.167817
31
0
39
0
210
0
220
0
230
1
0
LINE
5
1B1
100
AcDbEntity
8
SK2
62
256
6
ByLayer
370
13
48
1
60
0
100
AcDbLine
10
46
20
-17.74982
30
0
11
42.825002
21
-18.167817
31
0
39
0
210
0
220
0
230
1
0
LINE
5
1B2
100
AcDbEntity
8
SK2
62
256
6
ByLayer
370
13
48
1
60
0
100
AcDbLine
10
46
20
-17.74982
30
0
11
42.824998
21
-17.331823
31
0
39
0
210
0
220
0
230
1
0
LINE
5
1B3
100
AcDbEntity
8
SK2
62
256
6
ByLayer
370
13
48
1
60
0
100
AcDbLine
10
42.825002
20
-18.167817
30
0
11
42.824998
21
-17.331823
31
0
39
0
210
0
220
0
230
1
0
ENDBLK
5
1B5
100
AcDbEntity
8
0
100
AcDbBlockEnd
0
BLOCK
5
1BA
100
AcDbEntity
8
0
100
AcDbBlockBegin
2
*D12
70
1
10
0
20
0
30
0
3
*D12
0
LINE
5
1BC
100
AcDbEntity
8
0
62
256
6
ByLayer
370
-2
48
1
60
0
100
AcDbLine
10
17.2
20
-4.3625
30
0
11
17.2
21
-10.32
31
0
39
0
210
0
220
0
230
1
0
LINE
5
1BD
100
AcDbEntity
8
0
62
256
6
ByLayer
370
-2
48
1
60
0
100
AcDbLine
10
46
20
-1.5875
30
0
11
46
21
-10.32
31
0
39
0
210
0
220
0
230
1
0
LINE
5
1BE
100
AcDbEntity
8
0
62
256
6
ByLayer
370
-2
48
1
60
0
100
AcDbLine
10
20.375
20
-9.82
30
0
11
42.825
21
-9.82
31
0
39
0
210
0
220
0
230
1
0
SOLID
5
1BF
100
AcDbEntity
8
0
62
256
6
ByLayer
370
-1
48
1
60
0
100
AcDbTrace
10
20.375
20
-9.290833
30
0
11
20.375
21
-10.349167
31
0
12
17.2
22
-9.82
32
0
13
17.2
23
-9.82
33
0
39
0
210
0
220
0
230
1
0
SOLID
5
1C0
100
AcDbEntity
8
0
62
256
6
ByLayer
370
-1
48
1
60
0
100
AcDbTrace
10
42.825
20
-10.349167
30
0
11
42.825
21
-9.290833
31
0
12
46
22
-9.82
32
0
13
46
23
-9.82
33
0
39
0
210
0
220
0
230
1
0
MTEXT
5
1C1
100
AcDbEntity
8
0
62
256
6
ByLayer
370
18
48
1
60
0
100
AcDbMText
10
31.6
20
-3.975
30
0
210
0
220
0
230
1
1
\A1;28.8
40
2.8
41
0
44
1
50
0
71
5
72
5
7
iso_b_vert
0
POINT
5
1C2
100
AcDbEntity
8
Defpoints
62
0
6
ByLayer
370
-1
48
1
60
0
100
AcDbPoint
10
17.2
20
-2.775
30
0
39
0
210
0
220
0
230
1
50
360
0
POINT
5
1C3
100
AcDbEntity
8
Defpoints
62
0
6
ByLayer
370
-1
48
1
60
0
100
AcDbPoint
10
46
20
0
30
0
39
0
210
0
220
0
230
1
50
360
0
POINT
5
1C4
100
AcDbEntity
8
Defpoints
62
0
6
ByLayer
370
-1
48
1
60
0
100
AcDbPoint
10
46
20
-9.82
30
0
39
0
210
0
220
0
230
1
50
360
0
ENDBLK
5
1BB
100
AcDbEntity
8
0
100
AcDbBlockEnd
0
BLOCK
5
1D0
100
AcDbEntity
8
0
100
AcDbBlockBegin
2
_U5
70
0
10
0
20
0
30
0
3
_U5
0
MTEXT
5
1C6
100
AcDbEntity
8
SK2
62
256
6
ByLayer
370
18
48
1
60
0
100
AcDbMText
10
27.416454
20
-9.973893
30
0
210
0
220
0
230
1
1
\W0.7468;28.80
40
2.8
41
0
44
1.084337
50
0
71
7
72
5
7
iso_b_vert
0
LINE
5
1C7
100
AcDbEntity
8
SK2
62
256
6
ByLayer
370
13
48
1
60
0
100
AcDbLine
10
17.2
20
-4.3625
30
0
11
17.2
21
-10.32
31
0
39
0
210
0
220
0
230
1
0
LINE
5
1C8
100
AcDbEntity
8
SK2
62
256
6
ByLayer
370
13
48
1
60
0
100
AcDbLine
10
46
20
-1.5875
30
0
11
46
21
-10.32
31
0
39
0
210
0
220
0
230
1
0
LINE
5
1C9
100
AcDbEntity
8
SK2
62
256
6
ByLayer
370
13
48
1
60
0
100
AcDbLine
10
17.2
20
-9.82
30
0
11
46
21
-9.82
31
0
39
0
210
0
220
0
230
1
0
LINE
5
1CA
100
AcDbEntity
8
SK2
62
256
6
ByLayer
370
13
48
1
60
0
100
AcDbLine
10
17.2
20
-9.82
30
0
11
20.374998
21
-9.402003
31
0
39
0
210
0
220
0
230
1
0
LINE
5
1CB
100
AcDbEntity
8
SK2
62
256
6
ByLayer
370
13
48
1
60
0
100
AcDbLine
10
17.2
20
-9.82
30
0
11
20.375002
21
-10.237997
31
0
39
0
210
0
220
0
230
1
0
LINE
5
1CC
100
AcDbEntity
8
SK2
62
256
6
ByLayer
370
13
48
1
60
0
100
AcDbLine
10
20.374998
20
-9.402003
30
0
11
20.375002
21
-10.237997
31
0
39
0
210
0
220
0
230
1
0
LINE
5
1CD
100
AcDbEntity
8
SK2
62
256
6
ByLayer
370
13
48
1
60
0
100
AcDbLine
10
46
20
-9.82
30
0
11
42.825002
21
-10.237997
31
0
39
0
210
0
220
0
230
1
0
LINE
5
1CE
100
AcDbEntity
8
SK2
62
256
6
ByLayer
370
13
48
1
60
0
100
AcDbLine
10
46
20
-9.82
30
0
11
42.824998
21
-9.402003
31
0
39
0
210
0
220
0
230
1
0
LINE
5
1CF
100
AcDbEntity
8
SK2
62
256
6
ByLayer
370
13
48
1
60
0
100
AcDbLine
10
42.825002
20
-10.237997
30
0
11
42.824998
21
-9.402003
31
0
39
0
210
0
220
0
230
1
0
ENDBLK
5
1D1
100
AcDbEntity
8
0
100
AcDbBlockEnd
0
BLOCK
5
1D6
100
AcDbEntity
8
0
100
AcDbBlockBegin
2
*D14
70
1
10
0
20
0
30
0
3
*D14
0
LINE
5
1D8
100
AcDbEntity
8
0
62
256
6
ByLayer
370
-2
48
1
60
0
100
AcDbLine
10
-36
20
-1.5875
30
0
11
-36
21
-39.67512
31
0
39
0
210
0
220
0
230
1
0
LINE
5
1D9
100
AcDbEntity
8
0
62
256
6
ByLayer
370
-2
48
1
60
0
100
AcDbLine
10
46
20
-1.5875
30
0
11
46
21
-39.67512
31
0
39
0
210
0
220
0
230
1
0
LINE
5
1DA
100
AcDbEntity
8
0
62
256
6
ByLayer
370
-2
48
1
60
0
100
AcDbLine
10
-32.825
20
-36.50012
30
0
11
42.825
21
-36.50012
31
0
39
0
210
0
220
0
230
1
0
SOLID
5
1DB
100
AcDbEntity
8
0
62
256
6
ByLayer
370
-1
48
1
60
0
100
AcDbTrace
10
-32.825
20
-35.970953
30
0
11
-32.825
21
-37.029287
31
0
12
-36
22
-36.50012
32
0
13
-36
23
-36.50012
33
0
39
0
210
0
220
0
230
1
0
SOLID
5
1DC
100
AcDbEntity
8
0
62
256
6
ByLayer
370
-1
48
1
60
0
100
AcDbTrace
10
42.825
20
-37.029287
30
0
11
42.825
21
-35.970953
31
0
12
46
22
-36.50012
32
0
13
46
23
-36.50012
33
0
39
0
210
0
220
0
230
1
0
MTEXT
5
1DD
100
AcDbEntity
8
0
62
256
6
ByLayer
370
18
48
1
60
0
100
AcDbMText
10
5
20
-29.19362
30
0
210
0
220
0
230
1
1
\A1;82
40
3.50012
41
0
44
1
50
0
71
5
72
5
7
iso_b_vert
0
POINT
5
1DE
100
AcDbEntity
8
Defpoints
62
0
6
ByLayer
370
-1
48
1
60
0
100
AcDbPoint
10
-36
20
0
30
0
39
0
210
0
220
0
230
1
50
360
0
POINT
5
1DF
100
AcDbEntity
8
Defpoints
62
0
6
ByLayer
370
-1
48
1
60
0
100
AcDbPoint
10
46
20
0
30
0
39
0
210
0
220
0
230
1
50
360
0
POINT
5
1E0
100
AcDbEntity
8
Defpoints
62
0
6
ByLayer
370
-1
48
1
60
0
100
AcDbPoint
10
46
20
-36.50012
30
0
39
0
210
0
220
0
230
1
50
360
0
ENDBLK
5
1D7
100
AcDbEntity
8
0
100
AcDbBlockEnd
0
BLOCK
5
1EC
100
AcDbEntity
8
0
100
AcDbBlockBegin
2
_U6
70
0
10
0
20
0
30
0
3
_U6
0
MTEXT
5
1E2
100
AcDbEntity
8
SK2
62
256
6
ByLayer
370
18
48
1
60
0
100
AcDbMText
10
-0.229611
20
-35.467451
30
0
210
0
220
0
230
1
1
\W0.7468;82.00
40
3.50012
41
0
44
1.084337
50
0
71
7
72
5
7
iso_b_vert
0
LINE
5
1E3
100
AcDbEntity
8
SK2
62
256
6
ByLayer
370
13
48
1
60
0
100
AcDbLine
10
-36
20
-1.5875
30
0
11
-36
21
-39.67512
31
0
39
0
210
0
220
0
230
1
0
LINE
5
1E4
100
AcDbEntity
8
SK2
62
256
6
ByLayer
370
13
48
1
60
0
100
AcDbLine
10
46
20
-1.5875
30
0
11
46
21
-39.67512
31
0
39
0
210
0
220
0
230
1
0
LINE
5
1E5
100
AcDbEntity
8
SK2
62
256
6
ByLayer
370
13
48
1
60
0
100
AcDbLine
10
-36
20
-36.50012
30
0
11
46
21
-36.50012
31
0
39
0
210
0
220
0
230
1
0
LINE
5
1E6
100
AcDbEntity
8
SK2
62
256
6
ByLayer
370
13
48
1
60
0
100
AcDbLine
10
-36
20
-36.50012
30
0
11
-32.825002
21
-36.082123
31
0
39
0
210
0
220
0
230
1
0
LINE
5
1E7
100
AcDbEntity
8
SK2
62
256
6
ByLayer
370
13
48
1
60
0
100
AcDbLine
10
-36
20
-36.50012
30
0
11
-32.824998
21
-36.918117
31
0
39
0
210
0
220
0
230
1
0
LINE
5
1E8
100
AcDbEntity
8
SK2
62
256
6
ByLayer
370
13
48
1
60
0
100
AcDbLine
10
-32.825002
20
-36.082123
30
0
11
-32.824998
21
-36.918117
31
0
39
0
210
0
220
0
230
1
0
LINE
5
1E9
100
AcDbEntity
8
SK2
62
256
6
ByLayer
370
13
48
1
60
0
100
AcDbLine
10
46
20
-36.50012
30
0
11
42.825002
21
-36.918117
31
0
39
0
210
0
220
0
230
1
0
LINE
5
1EA
100
AcDbEntity
8
SK2
62
256
6
ByLayer
370
13
48
1
60
0
100
AcDbLine
10
46
20
-36.50012
30
0
11
42.824998
21
-36.082123
31
0
39
0
210
0
220
0
230
1
0
LINE
5
1EB
100
AcDbEntity
8
SK2
62
256
6
ByLayer
370
13
48
1
60
0
100
AcDbLine
10
42.825002
20
-36.918117
30
0
11
42.824998
21
-36.082123
31
0
39
0
210
0
220
0
230
1
0
ENDBLK
5
1ED
100
AcDbEntity
8
0
100
AcDbBlockEnd
0
ENDSEC
0
SECTION
2
ENTITIES
0
ARC
5
B7
100
AcDbEntity
8
1
62
256
6
ByLayer
370
18
48
1
60
0
100
AcDbCircle
39
0
10
0.862822
20
3.547419
30
0
40
0.800000000000001
210
0
220
0
230
1
100
AcDbArc
50
237.366486
51
270.03581
0
ARC
5
B8
100
AcDbEntity
8
1
62
256
6
ByLayer
370
18
48
1
60
0
100
AcDbCircle
39
0
10
0.862822
20
-3.547419
30
0
40
0.800000000000001
210
0
220
0
230
1
100
AcDbArc
50
89.96419
51
122.633514
0
ARC
5
B9
100
AcDbEntity
8
1
62
256
6
ByLayer
370
18
48
1
60
0
100
AcDbCircle
39
0
10
0
20
2.2
30
0
40
0.800000000000002
210
0
220
0
230
1
100
AcDbArc
50
57.366486
51
90
0
ARC
5
BA
100
AcDbEntity
8
1
62
256
6
ByLayer
370
18
48
1
60
0
100
AcDbCircle
39
0
10
0
20
-2.2
30
0
40
0.800000000000002
210
0
220
0
230
1
100
AcDbArc
50
270
51
302.633514
0
ARC
5
BB
100
AcDbEntity
8
SK2
62
256
6
ByLayer
370
13
48
1
60
0
100
AcDbCircle
39
0
10
46
20
0
30
0
40
20
210
0
220
0
230
1
100
AcDbArc
50
9.606349
51
70.000317
0
ARC
5
BC
100
AcDbEntity
8
SK2
62
256
6
ByLayer
370
13
48
1
60
0
100
AcDbCircle
39
0
10
46
20
0
30
0
40
20
210
0
220
0
230
1
100
AcDbArc
50
289.999683
51
350.393651
0
ELLIPSE
5
BD
100
AcDbEntity
8
1
62
256
6
ByLayer
370
18
48
1
60
0
100
AcDbEllipse
10
3.602763
20
2.62111
30
0
11
-7.74771166101862E-05
21
0.0099996998603159
31
0
210
0
220
0
230
1
40
0.007821
41
-3.13707661515557
42
-1.56589130846832
0
ELLIPSE
5
BE
100
AcDbEntity
8
1
62
256
6
ByLayer
370
18
48
1
60
0
100
AcDbEllipse
10
3.643093
20
2.621355
30
0
11
3.24535166806548E-05
21
-0.00999994733832409
31
0
210
0
220
0
230
1
40
0.455909
41
0.00934846568516698
42
1.5737370582671
0
POINT
5
70
100
AcDbEntity
8
80
62
256
6
ByLayer
370
18
48
1
60
0
100
AcDbPoint
10
0
20
0
30
0
39
0
210
0
220
0
230
1
50
360
0
POINT
5
72
100
AcDbEntity
8
81
62
256
6
ByLayer
370
18
48
1
60
0
100
AcDbPoint
10
46
20
0
30
0
39
0
210
0
220
0
230
1
50
360
0
POINT
5
74
100
AcDbEntity
8
1
62
256
6
ByLayer
370
18
48
1
60
0
100
AcDbPoint
10
-36
20
0
30
0
39
0
210
0
220
0
230
1
50
360
0
POINT
5
76
100
AcDbEntity
8
1
62
256
6
ByLayer
370
18
48
1
60
1
100
AcDbPoint
10
0
20
-3
30
0
39
0
210
0
220
0
230
1
50
360
0
POINT
5
77
100
AcDbEntity
8
1
62
256
6
ByLayer
370
18
48
1
60
1
100
AcDbPoint
10
46
20
0
30
0
39
0
210
0
220
0
230
1
50
360
0
POINT
5
78
100
AcDbEntity
8
1
62
256
6
ByLayer
370
18
48
1
60
1
100
AcDbPoint
10
44.99
20
-2.775
30
0
39
0
210
0
220
0
230
1
50
360
0
POINT
5
79
100
AcDbEntity
8
1
62
256
6
ByLayer
370
18
48
1
60
1
100
AcDbPoint
10
44.99
20
2.775
30
0
39
0
210
0
220
0
230
1
50
360
0
POINT
5
7A
100
AcDbEntity
8
1
62
256
6
ByLayer
370
18
48
1
60
1
100
AcDbPoint
10
-36
20
3
30
0
39
0
210
0
220
0
230
1
50
360
0
POINT
5
7B
100
AcDbEntity
8
1
62
256
6
ByLayer
370
18
48
1
60
1
100
AcDbPoint
10
-36
20
-3
30
0
39
0
210
0
220
0
230
1
50
360
0
POINT
5
7C
100
AcDbEntity
8
1
62
256
6
ByLayer
370
18
48
1
60
1
100
AcDbPoint
10
-36
20
-3
30
0
39
0
210
0
220
0
230
1
50
360
0
POINT
5
7D
100
AcDbEntity
8
1
62
256
6
ByLayer
370
18
48
1
60
1
100
AcDbPoint
10
0
20
-3
30
0
39
0
210
0
220
0
230
1
50
360
0
POINT
5
7E
100
AcDbEntity
8
1
62
256
6
ByLayer
370
18
48
1
60
1
100
AcDbPoint
10
2
20
3.275
30
0
39
0
210
0
220
0
230
1
50
360
0
POINT
5
7F
100
AcDbEntity
8
1
62
256
6
ByLayer
370
18
48
1
60
1
100
AcDbPoint
10
46
20
0
30
0
39
0
210
0
220
0
230
1
50
360
0
POINT
5
80
100
AcDbEntity
8
1
62
256
6
ByLayer
370
18
48
1
60
1
100
AcDbPoint
10
17.2
20
-2.775
30
0
39
0
210
0
220
0
230
1
50
360
0
POINT
5
81
100
AcDbEntity
8
1
62
256
6
ByLayer
370
18
48
1
60
1
100
AcDbPoint
10
46
20
0
30
0
39
0
210
0
220
0
230
1
50
360
0
POINT
5
82
100
AcDbEntity
8
1
62
256
6
ByLayer
370
18
48
1
60
1
100
AcDbPoint
10
-36
20
0
30
0
39
0
210
0
220
0
230
1
50
360
0
POINT
5
83
100
AcDbEntity
8
1
62
256
6
ByLayer
370
18
48
1
60
1
100
AcDbPoint
10
46
20
0
30
0
39
0
210
0
220
0
230
1
50
360
0
SPLINE
5
BF
100
AcDbEntity
8
1
62
256
6
ByLayer
370
18
48
1
60
0
100
AcDbSpline
70
4
71
3
72
16
73
12
40
0
40
0
40
0
40
0
40
0.0970936051410504
40
0.0970936051410504
40
0.322820203855788
40
0.322820203855788
40
0.548546802570525
40
0.548546802570525
40
0.774273401285263
40
0.774273401285263
40
1
40
1
40
1
40
1
41
1
10
44.7506003747474
20
0.543685413725711
30
0
41
1
10
44.7630777633455
20
0.549704908978157
30
0
41
1
10
44.776208470621
20
0.556122081513507
30
0
41
1
10
44.8219969856556
20
0.578737340768612
30
0
41
1
10
44.8579925001037
20
0.596774635418171
30
0
41
1
10
44.9349422786621
20
0.633598022012819
30
0
41
1
10
44.9760962420891
20
0.652512866123686
30
0
41
1
10
45.0649401586211
20
0.68847397056976
30
0
41
1
10
45.1115569769443
20
0.704908249170643
30
0
41
1
10
45.2076750008449
20
0.732510908983699
30
0
41
1
10
45.2578357227715
20
0.743748183619061
30
0
41
1
10
45.3087331275525
20
0.751069941097626
30
0
0
SPLINE
5
C0
100
AcDbEntity
8
1
62
256
6
ByLayer
370
18
48
1
60
0
100
AcDbSpline
70
4
71
3
72
59
73
55
40
0
40
0
40
0
40
0
40
0.125000000000017
40
0.125000000000017
40
0.187500000000025
40
0.187500000000025
40
0.250000000000033
40
0.250000000000033
40
0.281250000000037
40
0.281250000000037
40
0.312500000000042
40
0.312500000000042
40
0.343750000000047
40
0.343750000000047
40
0.359375000000049
40
0.359375000000049
40
0.375000000000052
40
0.375000000000052
40
0.406250000000058
40
0.406250000000058
40
0.42187500000006
40
0.42187500000006
40
0.437500000000063
40
0.437500000000063
40
0.453125000000066
40
0.453125000000066
40
0.468750000000069
40
0.468750000000069
40
0.500000000000075
40
0.500000000000075
40
0.531250000000081
40
0.531250000000081
40
0.562500000000087
40
0.562500000000087
40
0.625000000000098
40
0.625000000000098
40
0.68750000000011
40
0.68750000000011
40
0.69140625000011
40
0.69140625000011
40
0.69531250000011
40
0.69531250000011
40
0.703125000000113
40
0.703125000000113
40
0.707031250000113
40
0.707031250000113
40
0.710937500000113
40
0.710937500000113
40
0.718750000000111
40
0.750000000000098
40
0.750000000000098
40
0.875000000000049
40
0.875000000000049
40
1
40
1
40
1
40
1
41
1
10
4.24665784478671
20
-2.74839554643717
30
0
41
1
10
3.92902575743861
20
-2.74340740669766
30
0
41
1
10
3.61953704308851
20
-2.72371005522012
30
0
41
1
10
3.17443054549557
20
-2.65702987416589
30
1E-16
41
1
10
3.02926388268523
20
-2.62853170160409
30
0
41
1
10
2.74834190413858
20
-2.55304221165721
30
-1E-16
41
1
10
2.61456517385241
20
-2.50674033351302
30
-1E-16
41
1
10
2.42957345640429
20
-2.41701554950814
30
-1E-16
41
1
10
2.37089122250151
20
-2.38377491745058
30
-1E-16
41
1
10
2.26271037111198
20
-2.30974103473278
30
-1E-16
41
1
10
2.2129668447827
20
-2.26887129687606
30
-1E-16
41
1
10
2.12513160318503
20
-2.1768222259233
30
-1E-16
41
1
10
2.08703560646128
20
-2.1252444205897
30
-1E-16
41
1
10
2.04422601573793
20
-2.04129511561081
30
-1E-16
41
1
10
2.03222762919478
20
-2.01210562636976
30
-1E-16
41
1
10
2.01332541850718
20
-1.95103203036055
30
-1E-16
41
1
10
2.00643363006915
20
-1.91894720239256
30
-1E-16
41
1
10
1.9946238934034
20
-1.82119709793335
30
1E-16
41
1
10
1.99819497679604
20
-1.75333316636147
30
1E-16
41
1
10
2.02086266732994
20
-1.64755123098311
30
1E-16
41
1
10
2.03129243719187
20
-1.61187873611041
30
1E-16
41
1
10
2.05698234396235
20
-1.54127288726332
30
1E-16
41
1
10
2.07228744176388
20
-1.50610960035868
30
1E-16
41
1
10
2.10734139034469
20
-1.436049424119
30
1E-16
41
1
10
2.12721216575403
20
-1.40097168432448
30
1E-16
41
1
10
2.17030409735781
20
-1.33217203364919
30
1E-16
41
1
10
2.19350436465257
20
-1.2984292976999
30
1E-16
41
1
10
2.26732381115389
20
-1.1988915329737
30
1E-16
41
1
10
2.32212505606881
20
-1.13477305897808
30
1E-16
41
1
10
2.44028824102955
20
-1.01003250217298
30
1E-16
41
1
10
2.50362692742576
20
-0.949531289548077
30
1E-16
41
1
10
2.634234743902
20
-0.833834183927166
30
1E-16
41
1
10
2.70188910391232
20
-0.778241466882719
30
0
41
1
10
2.91036948906839
20
-0.616799781406741
30
0
41
1
10
3.05663668173355
20
-0.516216140763021
30
0
41
1
10
3.3592325532133
20
-0.324943803125166
30
0
41
1
10
3.51441386521748
20
-0.235062704227886
30
0
41
1
10
3.6821364483497
20
-0.144203393534809
30
0
41
1
10
3.69184358264658
20
-0.138529550616028
30
0
41
1
10
3.71216496360532
20
-0.129013614362293
30
0
41
1
10
3.72299128279013
20
-0.125742879106781
30
0
41
1
10
3.75595822277162
20
-0.120491483926855
30
0
41
1
10
3.77862265056922
20
-0.122119015581745
30
0
41
1
10
3.81094010589675
20
-0.129540762825371
30
0
41
1
10
3.82148345700745
20
-0.132926310766209
30
0
41
1
10
3.84260765802171
20
-0.139547556604327
30
0
41
1
10
3.85317491136382
20
-0.142838789345376
30
0
41
1
10
3.88484932179398
20
-0.152809398091733
30
0
41
1
10
3.99032948198899
20
-0.186364180969718
30
0
41
1
10
4.09527824331616
20
-0.221496822686873
30
0
41
1
10
4.51330411793674
20
-0.366791080958109
30
0
41
1
10
4.84135620240019
20
-0.498317015720886
30
0
41
1
10
5.48606139280741
20
-0.781030157278849
30
0
41
1
10
5.80324842013368
20
-0.932295028331225
30
1E-16
41
1
10
6.11595746889421
20
-1.08527187059732
30
1E-16
0
SPLINE
5
C1
100
AcDbEntity
8
1
62
256
6
ByLayer
370
18
48
1
60
0
100
AcDbSpline
70
4
71
3
72
16
73
12
40
0
40
0
40
0
40
0
40
0.454455795554805
40
0.454455795554805
40
0.720701548913419
40
0.720701548913419
40
0.872366109232074
40
0.872366109232074
40
0.959638328124381
40
0.959638328124381
40
1
40
1
40
1
40
1
41
1
10
44.8660988051768
20
-2.77453108533021
30
0
41
1
10
44.889442391516
20
-2.75925636157916
30
0
41
1
10
44.9128113053673
20
-2.743857640117
30
0
41
1
10
44.9499405587815
20
-2.71922578989933
30
0
41
1
10
44.963686472166
20
-2.71007038289949
30
0
41
1
10
44.9852490550591
20
-2.695655669671
30
0
41
1
10
44.9930687004579
20
-2.69041728168929
30
0
41
1
10
45.0053540786061
20
-2.68216981000481
30
0
41
1
10
45.0098295730442
20
-2.67916158678455
30
0
41
1
10
45.0163984648119
20
-2.67474054815745
30
0
41
1
10
45.0184789516139
20
-2.6733394933336
30
0
41
1
10
45.0205699993439
20
-2.67193056411145
30
0
0
SPLINE
5
C2
100
AcDbEntity
8
1
62
256
6
ByLayer
370
18
48
1
60
0
100
AcDbSpline
70
4
71
3
72
30
73
26
40
0
40
0
40
0
40
0
40
0.154631201507158
40
0.154631201507158
40
0.231946802260737
40
0.231946802260737
40
0.309262403014317
40
0.309262403014317
40
0.386578003767897
40
0.386578003767897
40
0.463893604521476
40
0.463893604521476
40
0.541209205275056
40
0.541209205275056
40
0.618524806028636
40
0.618524806028636
40
0.695840406782216
40
0.695840406782216
40
0.773156007535795
40
0.773156007535795
40
0.850471608289375
40
0.850471608289375
40
0.927787209042955
40
0.927787209042955
40
1
40
1
40
1
40
1
41
1
10
3.64765203120947
20
2.62139914951493
30
0
41
1
10
4.0773193057305
20
2.62354478601998
30
0
41
1
10
4.50523781630736
20
2.59568716951583
30
0
41
1
10
5.14767374602638
20
2.51418325734039
30
0
41
1
10
5.36188408214079
20
2.48043998633628
30
0
41
1
10
5.79065371125881
20
2.40092353705771
30
1E-16
41
1
10
6.00503588994522
20
2.35533642802403
30
1E-16
41
1
10
6.43520635321158
20
2.25190889467842
30
1E-16
41
1
10
6.65124587113706
20
2.19375371856663
30
1E-16
41
1
10
7.08035209046682
20
2.06744878838953
30
1E-16
41
1
10
7.29403749596935
20
1.99918741461997
30
1E-16
41
1
10
7.72067703076146
20
1.85316964227164
30
1E-16
41
1
10
7.93366007242881
20
1.77538585629785
30
-1E-16
41
1
10
8.35911395217533
20
1.61145199628163
30
-1E-16
41
1
10
8.57153763255721
20
1.52531772756237
30
-1E-16
41
1
10
8.99696703036292
20
1.34573910983784
30
-1E-16
41
1
10
9.21003822558333
20
1.25228851021862
30
-1E-16
41
1
10
9.63694735566304
20
1.0589581179928
30
-1E-16
41
1
10
9.85070789762136
20
0.959055996674039
30
-1E-16
41
1
10
10.2801164570407
20
0.754243353910027
30
0
41
1
10
10.4963686374644
20
0.649115441597417
30
0
41
1
10
10.9260652298335
20
0.437033211589238
30
0
41
1
10
11.1399741689342
20
0.329757428698287
30
0
41
1
10
11.5528292864767
20
0.122046266706207
30
0
41
1
10
11.7518681621195
20
0.0217225720934948
30
0
41
1
10
11.9506529251407
20
-0.0785014137594828
30
0
0
SPLINE
5
C3
100
AcDbEntity
8
1
62
256
6
ByLayer
370
18
48
1
60
0
100
AcDbSpline
70
4
71
3
72
28
73
24
40
0
40
0
40
0
40
0
40
0.0356803681813628
40
0.0356803681813628
40
0.11160505855895
40
0.11160505855895
40
0.187529748936537
40
0.187529748936537
40
0.263454439314125
40
0.263454439314125
40
0.339379129691712
40
0.339379129691712
40
0.4153038200693
40
0.4153038200693
40
0.567153200824474
40
0.567153200824474
40
0.643077891202061
40
0.643077891202061
40
0.719002581579649
40
0.719002581579649
40
0.870851962334827
40
0.870851962334827
40
1
40
1
40
1
40
1
41
1
10
36.0643873661353
20
2.63695172422922
30
0
41
1
10
36.1640480406782
20
2.63977634462137
30
0
41
1
10
36.2637007244554
20
2.64124913482777
30
0
41
1
10
36.5755639838766
20
2.64132595405923
30
0
41
1
10
36.7882616148803
20
2.63397736981963
30
0
41
1
10
37.2151427540487
20
2.60544644576714
30
0
41
1
10
37.4293166232869
20
2.58433678844781
30
0
41
1
10
37.8593900922451
20
2.52901847536256
30
0
41
1
10
38.074870467643
20
2.49482328697667
30
0
41
1
10
38.5028865296076
20
2.41516174422577
30
1E-16
41
1
10
38.7160124325024
20
2.36969628848325
30
1E-16
41
1
10
39.1415807981099
20
2.26674890595533
30
1E-16
41
1
10
39.3540389743786
20
2.20917662698909
30
1E-16
41
1
10
39.9911381894176
20
2.02045513866764
30
1E-16
41
1
10
40.41559825629
20
1.87329949080217
30
1E-16
41
1
10
41.0551931161982
20
1.62560870043703
30
-1E-16
41
1
10
41.2688146110134
20
1.53863012320858
30
-1E-16
41
1
10
41.6978677215909
20
1.35647169802777
30
-1E-16
41
1
10
41.9136282066931
20
1.26109532646095
30
-1E-16
41
1
10
42.5569848762581
20
0.967717327383667
30
-1E-16
41
1
10
42.9831184529806
20
0.761568969642042
30
0
41
1
10
43.7714725663469
20
0.369925050122731
30
0
41
1
10
44.1335278601312
20
0.185798045567566
30
0
41
1
10
44.497157051585
20
0.0010990128521655
30
0
0
SPLINE
5
C4
100
AcDbEntity
8
1
62
256
6
ByLayer
370
18
48
1
60
0
100
AcDbSpline
70
4
71
3
72
26
73
22
40
0
40
0
40
0
40
0
40
0.0873316470011723
40
0.0873316470011723
40
0.163387343084408
40
0.163387343084408
40
0.239443039167644
40
0.239443039167644
40
0.391554431334115
40
0.391554431334115
40
0.543665823500586
40
0.543665823500586
40
0.695777215667058
40
0.695777215667058
40
0.771832911750293
40
0.771832911750293
40
0.847888607833529
40
0.847888607833529
40
0.923944303916764
40
0.923944303916764
40
1
40
1
40
1
40
1
41
1
10
8.27273582843364
20
2.01231427009148
30
1E-16
41
1
10
8.56109599821195
20
2.11652714081114
30
1E-16
41
1
10
8.8497207496946
20
2.21159110874811
30
1E-16
41
1
10
9.39181508002162
20
2.37004465547437
30
1E-16
41
1
10
9.64506114765396
20
2.43607703328365
30
1E-16
41
1
10
10.1541495682769
20
2.55052322784036
30
1E-16
41
1
10
10.4072556371341
20
2.59850068965713
30
0
41
1
10
11.163959998933
20
2.71421882714509
30
-1E-16
41
1
10
11.6650884969653
20
2.75362684265267
30
0
41
1
10
12.669788952852
20
2.7553310987737
30
0
41
1
10
13.1736425086397
20
2.71752305374861
30
-1E-16
41
1
10
14.1915779926852
20
2.56442245623063
30
1E-16
41
1
10
14.6975217731485
20
2.45017014111031
30
1E-16
41
1
10
15.4596914571202
20
2.22873619625213
30
1E-16
41
1
10
15.7143776203852
20
2.14640074104187
30
1E-16
41
1
10
16.2220700610584
20
1.96748736136527
30
1E-16
41
1
10
16.4754538021786
20
1.87067103409788
30
-1E-16
41
1
10
16.9829148620494
20
1.66456510286341
30
-1E-16
41
1
10
17.2374069990507
20
1.55487757778607
30
-1E-16
41
1
10
17.7454583153378
20
1.32533964525311
30
-1E-16
41
1
10
17.9981052583935
20
1.20595583195171
30
-1E-16
41
1
10
18.2499999999872
20
1.08311820058796
30
-1E-16
0
SPLINE
5
C5
100
AcDbEntity
8
1
62
256
6
ByLayer
370
18
48
1
60
0
100
AcDbSpline
70
4
71
3
72
16
73
12
40
0
40
0
40
0
40
0
40
0.213675513907274
40
0.213675513907274
40
0.427351027814549
40
0.427351027814549
40
0.641026541721824
40
0.641026541721824
40
0.854702055629098
40
0.854702055629098
40
1
40
1
40
1
40
1
41
1
10
45.0311569288743
20
2.66479079328656
30
0
41
1
10
44.7516244200454
20
2.66734933778068
30
0
41
1
10
44.47187197469
20
2.65819347357549
30
0
41
1
10
43.9141666301965
20
2.61747261226154
30
0
41
1
10
43.636047446922
20
2.58592558393099
30
0
41
1
10
43.079392565993
20
2.50084104158501
30
0
41
1
10
42.8009100713203
20
2.44739102070838
30
1E-16
41
1
10
42.2421764638447
20
2.31960469735191
30
1E-16
41
1
10
41.9628392173081
20
2.24553737565549
30
1E-16
41
1
10
41.494615590614
20
2.10535550280596
30
1E-16
41
1
10
41.3052020806941
20
2.04429359426149
30
1E-16
41
1
10
41.1156434778989
20
1.97924362577487
30
1E-16
0
SPLINE
5
C6
100
AcDbEntity
8
1
62
256
6
ByLayer
370
18
48
1
60
0
100
AcDbSpline
70
4
71
3
72
10
73
6
40
0
40
0
40
0
40
0
40
0.373112177542281
40
0.373112177542281
40
1
40
1
40
1
40
1
41
1
10
20.9185582803839
20
-0.259782555975619
30
0
41
1
10
20.5856147202753
20
-0.0902467830977116
30
0
41
1
10
20.2525466386015
20
0.0808733479420312
30
0
41
1
10
19.3630700993139
20
0.534575551213607
30
0
41
1
10
18.8080701297272
20
0.812888216160587
30
0
41
1
10
18.2500000000016
20
1.07454694848343
30
-1E-16
0
SPLINE
5
C7
100
AcDbEntity
8
1
62
256
6
ByLayer
370
18
48
1
60
0
100
AcDbSpline
70
4
71
3
72
12
73
8
40
0
40
0
40
0
40
0
40
0.5
40
0.5
40
0.75
40
0.75
40
1
40
1
40
1
40
1
41
1
10
3.50206250426106
20
2.70920361284871
30
0
41
1
10
3.50206250426106
20
2.68680095201617
30
0
41
1
10
3.50984528152526
20
2.66405963308946
30
0
41
1
10
3.53524111442326
20
2.63542967057637
30
0
41
1
10
3.54601291757362
20
2.62694637532857
30
0
41
1
10
3.57206340160627
20
2.61461792547055
30
0
41
1
10
3.58722849472034
20
2.61098949327683
30
0
41
1
10
3.60284079953055
20
2.61111051332938
30
0
0
SPLINE
5
C8
100
AcDbEntity
8
1
62
256
6
ByLayer
370
18
48
1
60
0
100
AcDbSpline
70
4
71
3
72
18
73
14
40
0
40
0
40
0
40
0
40
0.25
40
0.25
40
0.5
40
0.5
40
0.625
40
0.625
40
0.75
40
0.75
40
0.875
40
0.875
40
1
40
1
40
1
40
1
41
1
10
45.0377835141485
20
-2.66032106591666
30
0
41
1
10
45.0929811304073
20
-2.50345044858949
30
0
41
1
10
45.1478174717813
20
-2.34529233701431
30
0
41
1
10
45.2584654130631
20
-2.02820707464113
30
0
41
1
10
45.3143060791313
20
-1.86939809701826
30
0
41
1
10
45.3993895973563
20
-1.63165298368901
30
0
41
1
10
45.4287133443882
20
-1.55279522601626
30
0
41
1
10
45.4897703364229
20
-1.39895375999504
30
0
41
1
10
45.5215809690841
20
-1.32364009422693
30
0
41
1
10
45.5885496511172
20
-1.17651020500219
30
0
41
1
10
45.6239467672541
20
-1.10415315713135
30
0
41
1
10
45.6973755805557
20
-0.965849170926958
30
0
41
1
10
45.7352421046506
20
-0.9001448329401
30
0
41
1
10
45.7743822012776
20
-0.837681712909216
30
0
0
SPLINE
5
C9
100
AcDbEntity
8
1
62
256
6
ByLayer
370
18
48
1
60
0
100
AcDbSpline
70
4
71
3
72
42
73
38
40
0
40
0
40
0
40
0
40
0.0022941640114305
40
0.0022941640114305
40
0.0387096387366955
40
0.0387096387366955
40
0.0751251134619603
40
0.0751251134619603
40
0.220787012363016
40
0.220787012363016
40
0.25720248708828
40
0.25720248708828
40
0.293617961813545
40
0.293617961813545
40
0.366448911264074
40
0.366448911264074
40
0.439279860714602
40
0.439279860714602
40
0.475695335439867
40
0.475695335439867
40
0.512110810165132
40
0.512110810165132
40
0.657772709066193
40
0.657772709066193
40
0.694188183791458
40
0.694188183791458
40
0.730603658516723
40
0.730603658516723
40
0.803434607967254
40
0.803434607967254
40
0.876265557417785
40
0.876265557417785
40
0.91268103214305
40
0.91268103214305
40
0.949096506868316
40
0.949096506868316
40
1
40
1
40
1
40
1
41
1
10
30.695099394512
20
-2.67225242934927
30
1E-16
41
1
10
30.6815530421486
20
-2.67410336242094
30
1E-16
41
1
10
30.6680041400233
20
-2.67592745819422
30
1E-16
41
1
10
30.439347749279
20
-2.70625147410456
30
1E-16
41
1
10
30.2235798053746
20
-2.72800164830858
30
0
41
1
10
29.7899813896146
20
-2.75735912180375
30
0
41
1
10
29.5736809172969
20
-2.76484107561618
30
0
41
1
10
28.4970906304213
20
-2.76665022125059
30
0
41
1
10
27.6471751244343
20
-2.65416250887995
30
1E-16
41
1
10
26.5704851863794
20
-2.38460645295209
30
-1E-16
41
1
10
26.3542354953049
20
-2.32416858920806
30
-1E-16
41
1
10
25.9205334532782
20
-2.19111994912535
30
-1E-16
41
1
10
25.7046896321859
20
-2.11906849229712
30
-1E-16
41
1
10
25.0590707284345
20
-1.88806493558013
30
1E-16
41
1
10
24.6314446909966
20
-1.71391641071634
30
1E-16
41
1
10
23.775572692335
20
-1.33499278177493
30
1E-16
41
1
10
23.3475782503874
20
-1.12981386090649
30
1E-16
41
1
10
22.7008441731052
20
-0.806070341182817
30
0
41
1
10
22.483965904033
20
-0.695091440681807
30
0
41
1
10
22.0506979327123
20
-0.470288006427381
30
0
41
1
10
21.8350197138247
20
-0.356955453643451
30
0
41
1
10
20.7596977719315
20
0.211085688680498
30
0
41
1
10
19.9095747333479
20
0.670471997281851
30
0
41
1
10
18.8303863333725
20
1.19515435260561
30
-1E-16
41
1
10
18.6131645820385
20
1.29819830250426
30
-1E-16
41
1
10
18.1803175875126
20
1.49598628804983
30
-1E-16
41
1
10
17.9647685579317
20
1.59070216917118
30
-1E-16
41
1
10
17.3197990570062
20
1.86116576523077
30
-1E-16
41
1
10
16.8923604450575
20
2.02361776851768
30
1E-16
41
1
10
16.0358980890646
20
2.30415395177286
30
1E-16
41
1
10
15.6073583513658
20
2.42282561795352
30
1E-16
41
1
10
14.9591423606447
20
2.56256337075203
30
1E-16
41
1
10
14.7416771673036
20
2.60296361943884
30
0
41
1
10
14.3091873511874
20
2.66950107435812
30
-1E-16
41
1
10
14.0937847084221
20
2.69577021813262
30
-1E-16
41
1
10
13.5785359017962
20
2.74201950801358
30
0
41
1
10
13.2792369817036
20
2.75528855985675
30
0
41
1
10
12.9800201529579
20
2.7549134045328
30
0
0
SPLINE
5
CA
100
AcDbEntity
8
1
62
256
6
ByLayer
370
18
48
1
60
0
100
AcDbSpline
70
4
71
3
72
56
73
52
40
0
40
0
40
0
40
0
40
0.0784961546976723
40
0.0784961546976723
40
0.117744232046508
40
0.117744232046508
40
0.156992309395345
40
0.156992309395345
40
0.196240386744181
40
0.196240386744181
40
0.235488464093017
40
0.235488464093017
40
0.274736541441853
40
0.274736541441853
40
0.313984618790689
40
0.313984618790689
40
0.353232696139525
40
0.353232696139525
40
0.392480773488361
40
0.392480773488361
40
0.431728850837197
40
0.431728850837197
40
0.470976928186033
40
0.470976928186033
40
0.51022500553487
40
0.51022500553487
40
0.549473082883706
40
0.549473082883706
40
0.588721160232542
40
0.588721160232542
40
0.627969237581378
40
0.627969237581378
40
0.667217314930214
40
0.667217314930214
40
0.70646539227905
40
0.70646539227905
40
0.745713469627887
40
0.745713469627887
40
0.784961546976723
40
0.784961546976723
40
0.824209624325559
40
0.824209624325559
40
0.863457701674395
40
0.863457701674395
40
0.902705779023231
40
0.902705779023231
40
0.941953856372067
40
0.941953856372067
40
0.981201933720903
40
0.981201933720903
40
1
40
1
40
1
40
1
41
1
10
3.64939234731472
20
2.74912425087928
30
0
41
1
10
4.07842310686868
20
2.74820325194472
30
0
41
1
10
4.5071524459662
20
2.71851885555969
30
0
41
1
10
5.15213574048147
20
2.63377544929975
30
-1E-16
41
1
10
5.36762685604177
20
2.59873829532484
30
0
41
1
10
5.79859604757752
20
2.51528935416559
30
1E-16
41
1
10
6.0127694716368
20
2.46694816290099
30
1E-16
41
1
10
6.44000193630629
20
2.35845197582543
30
1E-16
41
1
10
6.65320839471903
20
2.29848582913831
30
1E-16
41
1
10
7.07878134248179
20
2.16729698016306
30
1E-16
41
1
10
7.29114121995582
20
2.09602956363526
30
1E-16
41
1
10
7.71621581927403
20
1.9436667576459
30
1E-16
41
1
10
7.92895234755321
20
1.86263341728323
30
-1E-16
41
1
10
8.35489811604808
20
1.6909054363646
30
-1E-16
41
1
10
8.56807449287689
20
1.60012441234605
30
-1E-16
41
1
10
8.99616776544411
20
1.41064118870449
30
-1E-16
41
1
10
9.21168632019604
20
1.31177498526299
30
-1E-16
41
1
10
9.6419771266597
20
1.1075902269651
30
-1E-16
41
1
10
9.85598270095326
20
1.00254262157165
30
-1E-16
41
1
10
10.2829962582171
20
0.788950226601457
30
0
41
1
10
10.4960500866366
20
0.680496675230671
30
0
41
1
10
10.9213781387967
20
0.46053589398511
30
0
41
1
10
11.1336066572302
20
0.348936663008431
30
0
41
1
10
11.5584497371181
20
0.124905435336586
30
0
41
1
10
11.7711104696951
20
0.012567548207528
30
0
41
1
10
12.1970223448056
20
-0.21254303725874
30
0
41
1
10
12.4102277530514
20
-0.325410400462232
30
0
41
1
10
12.8384201150117
20
-0.549276601732771
30
0
41
1
10
13.0541041807001
20
-0.660508894484195
30
0
41
1
10
13.4839974770184
20
-0.879159968198053
30
1E-16
41
1
10
13.6978238410057
20
-0.986349403423816
30
1E-16
41
1
10
14.1247566660447
20
-1.19379750360878
30
1E-16
41
1
10
14.3377372050753
20
-1.2943180728972
30
1E-16
41
1
10
14.7628123520456
20
-1.48885963441654
30
1E-16
41
1
10
14.9749344175202
20
-1.58280170641873
30
1E-16
41
1
10
15.3998694330669
20
-1.76163666140704
30
1E-16
41
1
10
15.6125258040562
20
-1.84680169202846
30
1E-16
41
1
10
16.0383533714874
20
-2.00832804686471
30
-1E-16
41
1
10
16.2515579354488
20
-2.08461160896465
30
-1E-16
41
1
10
16.6800148961421
20
-2.22616722279079
30
-1E-16
41
1
10
16.8957857347235
20
-2.29187250349344
30
-1E-16
41
1
10
17.3252630949704
20
-2.41112627613688
30
-1E-16
41
1
10
17.5389368348307
20
-2.46458295891125
30
-1E-16
41
1
10
17.9657739760902
20
-2.55806917885002
30
-1E-16
41
1
10
18.1786793243183
20
-2.59836898189468
30
0
41
1
10
18.6035324873266
20
-2.66604545654676
30
1E-16
41
1
10
18.8155205708904
20
-2.69332792493555
30
1E-16
41
1
10
19.240531571704
20
-2.73404480302079
30
0
41
1
10
19.4532137423983
20
-2.7476658958615
30
0
41
1
10
19.7681245095874
20
-2.75765929916489
30
0
41
1
10
19.8701652664432
20
-2.75930621133009
30
0
41
1
10
19.9723597575056
20
-2.75935442280482
30
0
0
SPLINE
5
CB
100
AcDbEntity
8
1
62
256
6
ByLayer
370
18
48
1
60
0
100
AcDbSpline
70
4
71
3
72
32
73
28
40
0
40
0
40
0
40
0
40
0.0068851178633958
40
0.0068851178633958
40
0.0730927766725046
40
0.0730927766725046
40
0.139300435481613
40
0.139300435481613
40
0.205508094290722
40
0.205508094290722
40
0.337923411908939
40
0.337923411908939
40
0.404131070718046
40
0.404131070718046
40
0.470338729527153
40
0.470338729527153
40
0.53654638833626
40
0.53654638833626
40
0.602754047145366
40
0.602754047145366
40
0.735169364763577
40
0.735169364763577
40
0.867584682381787
40
0.867584682381787
40
0.933792341190893
40
0.933792341190893
40
1
40
1
40
1
40
1
41
1
10
34.9552805156374
20
2.67359120205981
30
-1E-16
41
1
10
34.9774259177379
20
2.67666938504408
30
-1E-16
41
1
10
34.999575853539
20
2.67967626279526
30
-1E-16
41
1
10
35.2347730899398
20
2.71083622609848
30
-1E-16
41
1
10
35.4486232450279
20
2.73228526892547
30
0
41
1
10
35.8779578527001
20
2.76144222034097
30
0
41
1
10
36.0932385955203
20
2.76908399488008
30
0
41
1
10
36.5205872136657
20
2.7700348433473
30
0
41
1
10
36.7337209359718
20
2.76342535927066
30
0
41
1
10
37.3722578513013
20
2.72322709517553
30
1E-16
41
1
10
37.7966102425907
20
2.66936152063786
30
-1E-16
41
1
10
38.4333938480418
20
2.54880298676065
30
1E-16
41
1
10
38.6456757453106
20
2.50190427703626
30
1E-16
41
1
10
39.0717012299172
20
2.3955898176072
30
1E-16
41
1
10
39.285486755518
20
2.33625235183709
30
1E-16
41
1
10
39.7150082772066
20
2.20547213711785
30
1E-16
41
1
10
39.9302507924838
20
2.13410367774287
30
1E-16
41
1
10
40.3579720113332
20
1.98191378644751
30
1E-16
41
1
10
40.5710949884962
20
1.90092509283139
30
-1E-16
41
1
10
41.2090089707478
20
1.64449890931547
30
-1E-16
41
1
10
41.6324250578786
20
1.45566401893373
30
-1E-16
41
1
10
42.4817750648107
20
1.05221842201286
30
-1E-16
41
1
10
42.907554206256
20
0.837365611106748
30
-1E-16
41
1
10
43.5522211132835
20
0.502640950254715
30
0
41
1
10
43.7673080275533
20
0.389275713742819
30
0
41
1
10
44.1964372730823
20
0.161596452254031
30
0
41
1
10
44.4108063213623
20
0.0470800540987568
30
0
41
1
10
44.6254601256533
20
-0.0672070492884984
30
0
0
SPLINE
5
CC
100
AcDbEntity
8
1
62
256
6
ByLayer
370
18
48
1
60
0
100
AcDbSpline
70
4
71
3
72
8
73
4
40
0
40
0
40
0
40
0
40
1
40
1
40
1
40
1
41
1
10
44.6254601256532
20
-0.0672070492884131
30
0
41
1
10
44.620049307347
20
0.063405859490075
30
0
41
1
10
44.6189552318426
20
0.193514040282508
30
0
41
1
10
44.6236804121601
20
0.323113626979875
30
0
0
SPLINE
5
CD
100
AcDbEntity
8
1
62
256
6
ByLayer
370
18
48
1
60
0
100
AcDbSpline
70
4
71
3
72
22
73
18
40
0
40
0
40
0
40
0
40
0.110022134465332
40
0.110022134465332
40
0.185431204563344
40
0.185431204563344
40
0.260840274661357
40
0.260840274661357
40
0.411658414857383
40
0.411658414857383
40
0.562476555053409
40
0.562476555053409
40
0.637885625151422
40
0.637885625151422
40
0.713294695249436
40
0.713294695249436
40
1
40
1
40
1
40
1
41
1
10
20.7724246542592
20
0.206580558226506
30
0
41
1
10
21.0856820399914
20
0.0493255658653027
30
0
41
1
10
21.3994373632576
20
-0.109445525742217
30
0
41
1
10
21.9309249936603
20
-0.375754448995963
30
0
41
1
10
22.1482415933361
20
-0.484013817356299
30
0
41
1
10
22.5827494879852
20
-0.697415131190098
30
0
41
1
10
22.7995858185143
20
-0.802325105463666
30
0
41
1
10
23.4497040999459
20
-1.1099038317212
30
1E-16
41
1
10
23.8827175012309
20
-1.30549283496589
30
1E-16
41
1
10
24.7524504002412
20
-1.66708904277652
30
1E-16
41
1
10
25.1856331700331
20
-1.83161066659878
30
-1E-16
41
1
10
25.8372600970085
20
-2.04827284810298
30
-1E-16
41
1
10
26.0548249108969
20
-2.11535390484732
30
-1E-16
41
1
10
26.487406684868
20
-2.237445044872
30
-1E-16
41
1
10
26.7029394126989
20
-2.29271345595922
30
-1E-16
41
1
10
27.7357090937262
20
-2.52892748835674
30
0
41
1
10
28.5465218233459
20
-2.62676870076277
30
0
41
1
10
29.3686161158422
20
-2.62675251868728
30
0
0
SPLINE
5
CE
100
AcDbEntity
8
1
62
256
6
ByLayer
370
18
48
1
60
0
100
AcDbSpline
70
4
71
3
72
10
73
6
40
0
40
0
40
0
40
0
40
0.5
40
0.5
40
1
40
1
40
1
40
1
41
1
10
3.50206250426106
20
2.74716604255545
30
0
41
1
10
3.50206250426106
20
2.74845771150768
30
0
41
1
10
3.52103128945396
20
2.74892510278889
30
0
41
1
10
3.58044094179647
20
2.74917482009823
30
0
41
1
10
3.61880461081876
20
2.74918991347363
30
0
41
1
10
3.64939234731472
20
2.74912425087928
30
0
0
SPLINE
5
CF
100
AcDbEntity
8
1
62
256
6
ByLayer
370
18
48
1
60
0
100
AcDbSpline
70
4
71
3
72
22
73
18
40
0
40
0
40
0
40
0
40
0.425470699768057
40
0.425470699768057
40
0.674735354544319
40
0.674735354544319
40
0.816726780858525
40
0.816726780858525
40
0.898432795843311
40
0.898432795843311
40
0.944989349142285
40
0.944989349142285
40
0.971184062273039
40
0.971184062273039
40
0.986082893531977
40
0.986082893531977
40
1
40
1
40
1
40
1
41
1
10
44.8660988051768
20
2.77453108533021
30
0
41
1
10
44.8894423915163
20
2.75925636157896
30
0
41
1
10
44.9128113053679
20
2.7438576401166
30
0
41
1
10
44.9499405587823
20
2.71922578989876
30
0
41
1
10
44.9636864721668
20
2.71007038289895
30
0
41
1
10
44.9852490550599
20
2.69565566967052
30
0
41
1
10
44.9930687004586
20
2.69041728168887
30
0
41
1
10
45.0053540786067
20
2.68216981000444
30
0
41
1
10
45.0098295730447
20
2.67916158678418
30
0
41
1
10
45.0168805205293
20
2.6744161118564
30
0
41
1
10
45.0194447431205
20
2.67268905906187
30
0
41
1
10
45.0234808245155
20
2.66996891311834
30
0
41
1
10
45.0249400346146
20
2.66898511751674
30
0
41
1
10
45.0272404067531
20
2.66743374630005
30
0
41
1
10
45.0280794754079
20
2.666867798293
30
0
41
1
10
45.029690273236
20
2.66578108324003
30
0
41
1
10
45.0304930561467
20
2.6652394899921
30
0
41
1
10
45.0311569288732
20
2.66479079328238
30
0
0
SPLINE
5
D0
100
AcDbEntity
8
1
62
256
6
ByLayer
370
18
48
1
60
0
100
AcDbSpline
70
4
71
3
72
22
73
18
40
0
40
0
40
0
40
0
40
0.151357351278947
40
0.151357351278947
40
0.302714702557893
40
0.302714702557893
40
0.45407205383684
40
0.45407205383684
40
0.605429405115786
40
0.605429405115786
40
0.68110808075526
40
0.68110808075526
40
0.756786756394733
40
0.756786756394733
40
0.908144107673697
40
0.908144107673697
40
1
40
1
40
1
40
1
41
1
10
45.9501343333988
20
0.0430743049554394
30
0
41
1
10
45.9352223183936
20
-0.0066778416957334
30
0
41
1
10
45.9182693062553
20
-0.0554108602727865
30
0
41
1
10
45.8802728510052
20
-0.150761220427825
30
0
41
1
10
45.8589553742694
20
-0.197819028703265
30
0
41
1
10
45.8143507137484
20
-0.284470426680258
30
0
41
1
10
45.7908293972537
20
-0.324750791862357
30
0
41
1
10
45.74155938252
20
-0.397729790099419
30
0
41
1
10
45.7170542815223
20
-0.428610162496142
30
0
41
1
10
45.6804363267693
20
-0.466419402491113
30
0
41
1
10
45.6681586012583
20
-0.477644950154911
30
0
41
1
10
45.6443656591599
20
-0.496452748409809
30
0
41
1
10
45.6327835959102
20
-0.504126329154047
30
0
41
1
10
45.5988577506438
20
-0.522125731877509
30
0
41
1
10
45.5772168224343
20
-0.527298228957619
30
0
41
1
10
45.5454792073478
20
-0.525049626232203
30
0
41
1
10
45.5340039057548
20
-0.521792497338566
30
0
41
1
10
45.5231209852482
20
-0.516392913468707
30
0
0
SPLINE
5
D1
100
AcDbEntity
8
1
62
256
6
ByLayer
370
18
48
1
60
0
100
AcDbSpline
70
4
71
3
72
8
73
4
40
0
40
0
40
0
40
0
40
1
40
1
40
1
40
1
41
1
10
45.4842423303727
20
-0.485631344428185
30
0
41
1
10
45.4747574044293
20
-0.475046043669892
30
0
41
1
10
45.4658200486343
20
-0.462582572246078
30
0
41
1
10
45.4573222334538
20
-0.448400508323886
30
0
0
SPLINE
5
D2
100
AcDbEntity
8
1
62
256
6
ByLayer
370
18
48
1
60
0
100
AcDbSpline
70
4
71
3
72
8
73
4
40
0
40
0
40
0
40
0
40
1
40
1
40
1
40
1
41
1
10
45.9959608959202
20
0.196999703261923
30
0
41
1
10
46.0013494831003
20
0.0655906017891255
30
0
41
1
10
46.0013432565494
20
-0.0657424459366212
30
0
41
1
10
45.9959608959206
20
-0.196999703252914
30
0
0
SPLINE
5
D3
100
AcDbEntity
8
1
62
256
6
ByLayer
370
18
48
1
60
0
100
AcDbSpline
70
4
71
3
72
8
73
4
40
0
40
0
40
0
40
0
40
1
40
1
40
1
40
1
41
1
10
44.6254601256532
20
-0.0672070492884131
30
0
41
1
10
44.6467687933493
20
-0.077503489644954
30
0
41
1
10
44.667963215083
20
-0.0872070924025365
30
0
41
1
10
44.6890666854273
20
-0.0963326178167847
30
0
0
SPLINE
5
D4
100
AcDbEntity
8
1
62
256
6
ByLayer
370
18
48
1
60
0
100
AcDbSpline
70
4
71
3
72
52
73
48
40
0
40
0
40
0
40
0
40
0.0312994110498756
40
0.0312994110498756
40
0.0671519814413552
40
0.0671519814413552
40
0.103004551832835
40
0.103004551832835
40
0.138857122224314
40
0.138857122224314
40
0.174709692615794
40
0.174709692615794
40
0.246414833398752
40
0.246414833398752
40
0.31811997418171
40
0.31811997418171
40
0.35397254457319
40
0.35397254457319
40
0.389825114964669
40
0.389825114964669
40
0.461530255747628
40
0.461530255747628
40
0.533235396530586
40
0.533235396530586
40
0.569087966922065
40
0.569087966922065
40
0.604940537313544
40
0.604940537313544
40
0.676645678096502
40
0.676645678096502
40
0.748350818879461
40
0.748350818879461
40
0.78420338927094
40
0.78420338927094
40
0.820055959662419
40
0.820055959662419
40
0.855908530053898
40
0.855908530053898
40
0.891761100445376
40
0.891761100445376
40
0.927613670836856
40
0.927613670836856
40
0.963466241228335
40
0.963466241228335
40
0.999318811619814
40
0.999318811619814
40
1
40
1
40
1
40
1
41
1
10
18.4720190933755
20
2.64478130412851
30
-1E-16
41
1
10
18.6573844207898
20
2.67286335337764
30
-1E-16
41
1
10
18.8425080753776
20
2.69591338020123
30
-1E-16
41
1
10
19.240531571704
20
2.73404480302079
30
0
41
1
10
19.4532137423982
20
2.7476658958615
30
0
41
1
10
19.8790694970145
20
2.76118003620968
30
0
41
1
10
20.0922496301453
20
2.76100844467558
30
0
41
1
10
20.5208594899501
20
2.74663901829817
30
0
41
1
10
20.7366879886818
20
2.73237628576618
30
0
41
1
10
21.165859044073
20
2.68998405624734
30
-1E-16
41
1
10
21.3795036165711
20
2.66191822049939
30
-1E-16
41
1
10
22.0192510589031
20
2.55841750147829
30
1E-16
41
1
10
22.4431593418724
20
2.46299935652201
30
1E-16
41
1
10
23.292928894967
20
2.22566853186001
30
1E-16
41
1
10
23.7179147240351
20
2.08284674676724
30
1E-16
41
1
10
24.3611007540953
20
1.83818932893121
30
-1E-16
41
1
10
24.5769138199926
20
1.75112480418426
30
-1E-16
41
1
10
25.0057074052405
20
1.56908460872171
30
-1E-16
41
1
10
25.2192717135942
20
1.47426714158519
30
-1E-16
41
1
10
25.8586887017046
20
1.18064076561407
30
-1E-16
41
1
10
26.2824664647417
20
0.971258029104547
30
-1E-16
41
1
10
27.1321547118404
20
0.53808197970767
30
0
41
1
10
27.5572169491612
20
0.31270946091567
30
0
41
1
10
28.2006584893316
20
-0.028245625212918
30
0
41
1
10
28.4164100658529
20
-0.142954009078551
30
0
41
1
10
28.8447935407149
20
-0.370114479292113
30
0
41
1
10
29.0583071626784
20
-0.482247707624623
30
0
41
1
10
29.6974254769477
20
-0.813347805970011
30
0
41
1
10
30.1210245250256
20
-1.02804428194187
30
1E-16
41
1
10
30.9706961085579
20
-1.43200823520934
30
1E-16
41
1
10
31.3957599406343
20
-1.62300688381265
30
1E-16
41
1
10
32.0395939689124
20
-1.88291238360952
30
1E-16
41
1
10
32.2552248872265
20
-1.96559401347619
30
-1E-16
41
1
10
32.6832129684435
20
-2.11976538168602
30
-1E-16
41
1
10
32.8966359653771
20
-2.19102311978659
30
-1E-16
41
1
10
33.3224827773969
20
-2.32208706046069
30
-1E-16
41
1
10
33.534775661679
20
-2.38201602858172
30
-1E-16
41
1
10
33.9588772189067
20
-2.48979916766362
30
-1E-16
41
1
10
34.171135182832
20
-2.53726926541353
30
-1E-16
41
1
10
34.5961018941692
20
-2.61953152452398
30
0
41
1
10
34.8086883497132
20
-2.65438664755456
30
1E-16
41
1
10
35.2347730899398
20
-2.71083622609848
30
1E-16
41
1
10
35.4486232450279
20
-2.73228526892547
30
0
41
1
10
35.8779578527001
20
-2.76144222034097
30
0
41
1
10
36.0932385955203
20
-2.76908399488008
30
0
41
1
10
36.3109726541422
20
-2.76956845203546
30
0
41
1
10
36.3150322085456
20
-2.76957492738384
30
0
41
1
10
36.319091569535
20
-2.769578847182
30
0
0
SPLINE
5
D5
100
AcDbEntity
8
1
62
256
6
ByLayer
370
18
48
1
60
0
100
AcDbSpline
70
4
71
3
72
22
73
18
40
0
40
0
40
0
40
0
40
0.166763939101679
40
0.166763939101679
40
0.333527878203357
40
0.333527878203357
40
0.416909847754196
40
0.416909847754196
40
0.500291817305036
40
0.500291817305036
40
0.667055756406715
40
0.667055756406715
40
0.833819695508393
40
0.833819695508393
40
0.91720166505923
40
0.91720166505923
40
1
40
1
40
1
40
1
41
1
10
44.6236804121598
20
0.323113626972287
30
0
41
1
10
44.2036588907194
20
0.545948894312232
30
0
41
1
10
43.7855799307091
20
0.763096185554588
30
0
41
1
10
42.9505552742356
20
1.18113878178278
30
-1E-16
41
1
10
42.5326501955542
20
1.38025592391941
30
-1E-16
41
1
10
41.9015155940212
20
1.65758956194131
30
-1E-16
41
1
10
41.6901127392721
20
1.74677829498657
30
-1E-16
41
1
10
41.2671493128208
20
1.91636877452885
30
-1E-16
41
1
10
41.0565622012704
20
1.99609185597265
30
1E-16
41
1
10
40.4263249679575
20
2.21899616054199
30
1E-16
41
1
10
40.0087016816689
20
2.34658087464257
30
1E-16
41
1
10
39.1733979737919
20
2.55452175397406
30
1E-16
41
1
10
38.75494732609
20
2.63432346072693
30
-1E-16
41
1
10
38.1237004287223
20
2.71545202050163
30
-1E-16
41
1
10
37.9123162411325
20
2.73604219205089
30
0
41
1
10
37.490459762495
20
2.76325347778052
30
0
41
1
10
37.2805707434349
20
2.77001507727778
30
0
41
1
10
37.070819261344
20
2.77004628832535
30
0
0
SPLINE
5
D6
100
AcDbEntity
8
1
62
256
6
ByLayer
370
18
48
1
60
0
100
AcDbSpline
70
4
71
3
72
56
73
52
40
0
40
0
40
0
40
0
40
0.0060370641542401
40
0.0060370641542401
40
0.0363741279168723
40
0.0363741279168723
40
0.0970482554421366
40
0.0970482554421366
40
0.157722382967401
40
0.157722382967401
40
0.188059446730033
40
0.188059446730033
40
0.218396510492665
40
0.218396510492665
40
0.27907063801793
40
0.27907063801793
40
0.339744765543196
40
0.339744765543196
40
0.370081829305828
40
0.370081829305828
40
0.400418893068461
40
0.400418893068461
40
0.461093020593726
40
0.461093020593726
40
0.491430084356358
40
0.491430084356358
40
0.521767148118991
40
0.521767148118991
40
0.552104211881623
40
0.552104211881623
40
0.582441275644255
40
0.582441275644255
40
0.643115403169518
40
0.643115403169518
40
0.67345246693215
40
0.67345246693215
40
0.703789530694781
40
0.703789530694781
40
0.764463658220043
40
0.764463658220043
40
0.794800721982674
40
0.794800721982674
40
0.825137785745304
40
0.825137785745304
40
0.855474849507935
40
0.855474849507935
40
0.885811913270566
40
0.885811913270566
40
0.946486040795827
40
0.946486040795827
40
1
40
1
40
1
40
1
41
1
10
25.1946482054811
20
-1.80520669645793
30
1E-16
41
1
10
25.1525549425979
20
-1.82209116951128
30
0
41
1
10
25.1104519159399
20
-1.83880273702749
30
0
41
1
10
24.8567091832252
20
-1.93843956647882
30
-1E-16
41
1
10
24.6443368758665
20
-2.01719199206536
30
-1E-16
41
1
10
24.011274255371
20
-2.23729404129176
30
-1E-16
41
1
10
23.5921841634627
20
-2.36157061555977
30
-1E-16
41
1
10
22.7553470903305
20
-2.56216783554956
30
-1E-16
41
1
10
22.3381122056552
20
-2.63871816998443
30
1E-16
41
1
10
21.7084305915094
20
-2.71392969227358
30
1E-16
41
1
10
21.4980261333464
20
-2.73250168934743
30
0
41
1
10
21.0756419622387
20
-2.7562031347974
30
0
41
1
10
20.8633941109083
20
-2.76129790110244
30
0
41
1
10
20.2303303634394
20
-2.7558246495181
30
0
41
1
10
19.8109472058906
20
-2.72506732512923
30
0
41
1
10
18.9747574448306
20
-2.6114835981243
30
0
41
1
10
18.5571148630626
20
-2.52887585899276
30
-1E-16
41
1
10
17.9274202990778
20
-2.36897043149713
30
-1E-16
41
1
10
17.7170626277846
20
-2.30960488800989
30
-1E-16
41
1
10
17.2949136762329
20
-2.17891321765771
30
-1E-16
41
1
10
17.0825950522068
20
-2.10764844064133
30
-1E-16
41
1
10
16.447468409747
20
-1.87991086968344
30
1E-16
41
1
10
16.0253757266009
20
-1.70839214644354
30
1E-16
41
1
10
15.3904303457866
20
-1.42683016307635
30
1E-16
41
1
10
15.178069695415
20
-1.3291330351382
30
1E-16
41
1
10
14.7558201697296
20
-1.1289965788836
30
1E-16
41
1
10
14.5454520592031
20
-1.0263573078218
30
1E-16
41
1
10
14.1258944888449
20
-0.816577688131588
30
0
41
1
10
13.9167617623741
20
-0.709325443206779
30
0
41
1
10
13.498389764568
20
-0.4927227024057
30
0
41
1
10
13.2891860550115
20
-0.383312531671038
30
0
41
1
10
12.6610865739177
20
-0.0526005340249753
30
0
41
1
10
12.2420568021381
20
0.171902021582355
30
0
41
1
10
11.6076311098044
20
0.504239894883568
30
0
41
1
10
11.3950669214559
20
0.614406422318297
30
0
41
1
10
10.9729309446395
20
0.829834957459667
30
-1E-16
41
1
10
10.7627698345374
20
0.935579650954196
30
-1E-16
41
1
10
10.1337649054555
20
1.2446754440015
30
-1E-16
41
1
10
9.71574030862919
20
1.43875663569369
30
-1E-16
41
1
10
9.08774031329224
20
1.70728068656965
30
-1E-16
41
1
10
8.87844925150679
20
1.79331229092986
30
-1E-16
41
1
10
8.45851471413062
20
1.95614456154857
30
1E-16
41
1
10
8.24786161285883
20
2.03295377378959
30
1E-16
41
1
10
7.82480817546491
20
2.17675290077935
30
1E-16
41
1
10
7.61216826253815
20
2.24369867854074
30
1E-16
41
1
10
7.19002809747849
20
2.36573203617033
30
1E-16
41
1
10
6.97978185879157
20
2.42088926725651
30
1E-16
41
1
10
6.34969730252053
20
2.56742101711097
30
1E-16
41
1
10
5.930684482061
20
2.6402830398294
30
-1E-16
41
1
10
5.14177576065768
20
2.72894689278496
30
0
41
1
10
4.77115831883495
20
2.74984575147903
30
0
41
1
10
4.3970286052332
20
2.74962125573677
30
0
0
SPLINE
5
D7
100
AcDbEntity
8
1
62
256
6
ByLayer
370
18
48
1
60
0
100
AcDbSpline
70
4
71
3
72
14
73
10
40
0
40
0
40
0
40
0
40
0.269710363644157
40
0.269710363644157
40
0.539420727288314
40
0.539420727288314
40
0.809131090932471
40
0.809131090932471
40
1
40
1
40
1
40
1
41
1
10
44.8611919565848
20
0.459372407397723
30
0
41
1
10
44.824389055456
20
0.491907321689638
30
0
41
1
10
44.7886014932266
20
0.523010627742536
30
0
41
1
10
44.720639090893
20
0.580123371423923
30
0
41
1
10
44.6882872254348
20
0.606258178950753
30
0
41
1
10
44.6293849439703
20
0.650914694068859
30
0
41
1
10
44.6032578396265
20
0.669119259601558
30
0
41
1
10
44.56445201201
20
0.69299799543748
30
0
41
1
10
44.5496553114969
20
0.701353739923803
30
0
41
1
10
44.5382496297707
20
0.705810102641436
30
0
0
SPLINE
5
D8
100
AcDbEntity
8
1
62
256
6
ByLayer
370
18
48
1
60
0
100
AcDbSpline
70
4
71
3
72
26
73
22
40
0
40
0
40
0
40
0
40
0.0614646073541182
40
0.0614646073541182
40
0.211378277926585
40
0.211378277926585
40
0.286335113212818
40
0.286335113212818
40
0.361291948499051
40
0.361291948499051
40
0.511205619071515
40
0.511205619071515
40
0.66111928964398
40
0.66111928964398
40
0.736076124930211
40
0.736076124930211
40
0.811032960216443
40
0.811032960216443
40
0.960946630788905
40
0.960946630788905
40
1
40
1
40
1
40
1
41
1
10
4.3695633574479
20
0.232389835377035
30
0
41
1
10
4.5468604225008
20
0.143874314346249
30
0
41
1
10
4.72393004142245
20
0.0550390327159676
30
0
41
1
10
5.33267997693866
20
-0.250387446880325
30
0
41
1
10
5.76407690530303
20
-0.466869613003723
30
0
41
1
10
6.41509212067953
20
-0.782437599190359
30
0
41
1
10
6.63308357854538
20
-0.886330831372391
30
1E-16
41
1
10
7.0663603762365
20
-1.08776657472794
30
1E-16
41
1
10
7.28215169831154
20
-1.18555971083913
30
1E-16
41
1
10
7.92803280522193
20
-1.46848288290758
30
1E-16
41
1
10
8.35664309257828
20
-1.64311657306413
30
1E-16
41
1
10
9.21511055463461
20
-1.95616803175554
30
-1E-16
41
1
10
9.64495868184787
20
-2.09458569542508
30
-1E-16
41
1
10
10.294611173972
20
-2.26913365448951
30
-1E-16
41
1
10
10.5125872493646
20
-2.32191338432582
30
-1E-16
41
1
10
10.9461011241113
20
-2.41452165523742
30
-1E-16
41
1
10
11.161993448815
20
-2.45447226916389
30
0
41
1
10
11.808085177792
20
-2.55494303644986
30
0
41
1
10
12.2367061307887
20
-2.59601518901908
30
0
41
1
10
12.7775808617052
20
-2.61421023381209
30
0
41
1
10
12.8893894996559
20
-2.61614066892463
30
0
41
1
10
13.0012761125327
20
-2.6162505774079
30
0
0
SPLINE
5
D9
100
AcDbEntity
8
1
62
256
6
ByLayer
370
18
48
1
60
0
100
AcDbSpline
70
4
71
3
72
26
73
22
40
0
40
0
40
0
40
0
40
0.0139686995332216
40
0.0139686995332216
40
0.09613797457212
40
0.09613797457212
40
0.178307249611019
40
0.178307249611019
40
0.342645799688816
40
0.342645799688816
40
0.506984349766613
40
0.506984349766613
40
0.589153624805511
40
0.589153624805511
40
0.67132289984441
40
0.67132289984441
40
0.835661449922207
40
0.835661449922207
40
0.917830724961103
40
0.917830724961103
40
1
40
1
40
1
40
1
41
1
10
37.1383744808216
20
0.19985177823375
30
0
41
1
10
37.1750737331401
20
0.181364025406111
30
0
41
1
10
37.2117939552143
20
0.162850423682073
30
0
41
1
10
37.4646721308134
20
0.0352762157206143
30
0
41
1
10
37.6822443004846
20
-0.0749471711782803
30
0
41
1
10
38.1157759510184
20
-0.293748206585491
30
0
41
1
10
38.3315910822983
20
-0.402255959380312
30
0
41
1
10
38.9772417587188
20
-0.723046075825636
30
0
41
1
10
39.405423900187
20
-0.930396134826026
30
1E-16
41
1
10
40.2622744938714
20
-1.32259162719606
30
1E-16
41
1
10
40.6910813497515
20
-1.50737656405528
30
1E-16
41
1
10
41.3386125596102
20
-1.76043820106244
30
1E-16
41
1
10
41.5556434666076
20
-1.84093399369007
30
-1E-16
41
1
10
41.9897180165354
20
-1.99191611859683
30
-1E-16
41
1
10
42.2058805045843
20
-2.06211149432832
30
-1E-16
41
1
10
42.8527689316168
20
-2.25579015745924
30
-1E-16
41
1
10
43.2818656220778
20
-2.36233338277035
30
-1E-16
41
1
10
43.9264183151293
20
-2.48497959238532
30
0
41
1
10
44.1414142277553
20
-2.51964887078174
30
0
41
1
10
44.5722484286631
20
-2.57583986549034
30
0
41
1
10
44.7880800209377
20
-2.59714360297747
30
0
41
1
10
45.0046443489005
20
-2.61224698491202
30
0
0
SPLINE
5
DA
100
AcDbEntity
8
1
62
256
6
ByLayer
370
18
48
1
60
0
100
AcDbSpline
70
4
71
3
72
10
73
6
40
0
40
0
40
0
40
0
40
0.5
40
0.5
40
1
40
1
40
1
40
1
41
1
10
45.3087331275524
20
0.751069941097825
30
0
41
1
10
45.3865765663859
20
0.762267973352891
30
0
41
1
10
45.4643357622485
20
0.774625220078605
30
0
41
1
10
45.6196207062203
20
0.802552041054781
30
0
41
1
10
45.69712182852
20
0.818460475561011
30
0
41
1
10
45.7743822012774
20
0.837681712909102
30
0
0
SPLINE
5
DB
100
AcDbEntity
8
1
62
256
6
ByLayer
370
18
48
1
60
0
100
AcDbSpline
70
4
71
3
72
18
73
14
40
0
40
0
40
0
40
0
40
0.234476760752713
40
0.234476760752713
40
0.429959842566146
40
0.429959842566146
40
0.627162918799552
40
0.627162918799552
40
0.799146888313889
40
0.799146888313889
40
0.965310223279191
40
0.965310223279191
40
1
40
1
40
1
40
1
41
1
10
45.0046443489005
20
-2.61224698491202
30
0
41
1
10
45.0047494874307
20
-2.61241945411067
30
0
41
1
10
45.0047967695554
20
-2.61277604814777
30
0
41
1
10
45.0047461488284
20
-2.61378661324932
30
0
41
1
10
45.0046696622101
20
-2.61439473290835
30
0
41
1
10
45.0044017318642
20
-2.61586237409279
30
0
41
1
10
45.0042041439532
20
-2.61674892692057
30
0
41
1
10
45.0037450708162
20
-2.61853507938019
30
0
41
1
10
45.0034888241155
20
-2.61944236426552
30
0
41
1
10
45.0029486807658
20
-2.6212138181333
30
0
41
1
10
45.0026596486752
20
-2.62209990223113
30
0
41
1
10
45.0023077211198
20
-2.6231186989229
30
0
41
1
10
45.0022461300226
20
-2.6232948598055
30
0
41
1
10
45.0021844497697
20
-2.62346921775176
30
0
0
SPLINE
5
DC
100
AcDbEntity
8
1
62
256
6
ByLayer
370
18
48
1
60
0
100
AcDbSpline
70
4
71
3
72
8
73
4
40
0
40
0
40
0
40
0
40
1
40
1
40
1
40
1
41
1
10
3.64316815028121
20
2.61135557454688
30
0
41
1
10
3.63063992573086
20
2.6113147151386
30
0
41
1
10
3.61690497669954
20
2.61121948411952
30
0
41
1
10
3.60284079953055
20
2.61111051332938
30
0
0
SPLINE
5
DD
100
AcDbEntity
8
1
62
256
6
ByLayer
370
18
48
1
60
0
100
AcDbSpline
70
4
71
3
72
8
73
4
40
0
40
0
40
0
40
0
40
1
40
1
40
1
40
1
41
1
10
18.25
20
1.08311820058233
30
-1E-16
41
1
10
18.25
20
1.08075944567963
30
-1E-16
41
1
10
18.25
20
1.07790022209716
30
-1E-16
41
1
10
18.25
20
1.07454694848778
30
-1E-16
0
SPLINE
5
DE
100
AcDbEntity
8
1
62
256
6
ByLayer
370
18
48
1
60
0
100
AcDbSpline
70
4
71
3
72
30
73
26
40
0
40
0
40
0
40
0
40
0.0803923126379543
40
0.0803923126379543
40
0.160784625275909
40
0.160784625275909
40
0.321569250551817
40
0.321569250551817
40
0.401961563189772
40
0.401961563189772
40
0.442157719508749
40
0.442157719508749
40
0.482353875827726
40
0.482353875827726
40
0.643138501103631
40
0.643138501103631
40
0.723530813741584
40
0.723530813741584
40
0.763726970060561
40
0.763726970060561
40
0.803923126379539
40
0.803923126379539
40
0.964707751655447
40
0.964707751655447
40
1
40
1
40
1
40
1
41
1
10
18.25
20
1.11984738299378
30
-1E-16
41
1
10
18.529544165048
20
0.984506114560162
30
-1E-16
41
1
10
18.8094856334791
20
0.844077914940101
30
-1E-16
41
1
10
19.3676169360984
20
0.558009413618322
30
0
41
1
10
19.645121151385
20
0.412759615710911
30
0
41
1
10
20.475342326081
20
-0.0250236502303949
30
0
41
1
10
21.0256726822725
20
-0.319775632021674
30
0
41
1
10
21.8552907202738
20
-0.749225708241624
30
0
41
1
10
22.1325175772507
20
-0.89026194981497
30
1E-16
41
1
10
22.5505956848913
20
-1.09633215776699
30
1E-16
41
1
10
22.6905958983966
20
-1.16422942890841
30
1E-16
41
1
10
22.9695468494557
20
-1.29684514681028
30
1E-16
41
1
10
23.1086360879775
20
-1.36163620165939
30
1E-16
41
1
10
23.80265514289
20
-1.67729048857174
30
1E-16
41
1
10
24.3532664249115
20
-1.90329602098194
30
1E-16
41
1
10
25.1812513333446
20
-2.19014085781376
30
-1E-16
41
1
10
25.4575913874124
20
-2.27706743864016
30
-1E-16
41
1
10
25.8737352980724
20
-2.39292602253386
30
-1E-16
41
1
10
26.0127235892236
20
-2.42912213147858
30
-1E-16
41
1
10
26.2914507256079
20
-2.49640425919244
30
-1E-16
41
1
10
26.4314437177321
20
-2.5275344543675
30
-1E-16
41
1
10
27.1285924493538
20
-2.66876441453977
30
1E-16
41
1
10
27.6801146488683
20
-2.73635690543466
30
0
41
1
10
28.3524425482391
20
-2.76217078792803
30
0
41
1
10
28.4734461056983
20
-2.76457895568055
30
0
41
1
10
28.5945042792185
20
-2.76474398899754
30
0
0
SPLINE
5
DF
100
AcDbEntity
8
1
62
256
6
ByLayer
370
18
48
1
60
0
100
AcDbSpline
70
4
71
3
72
8
73
4
40
0
40
0
40
0
40
0
40
1
40
1
40
1
40
1
41
1
10
44.2702133878171
20
2.75066360735036
30
0
41
1
10
44.4687770764986
20
2.76464930381857
30
0
41
1
10
44.6673060151233
20
2.77262876337403
30
0
41
1
10
44.8660988051768
20
2.77453108533018
30
0
0
SPLINE
5
E0
100
AcDbEntity
8
1
62
256
6
ByLayer
370
18
48
1
60
0
100
AcDbSpline
70
2053
71
3
72
50
73
46
40
0
40
0
40
0
40
0
40
0.0624999999999952
40
0.0624999999999952
40
0.12499999999999
40
0.12499999999999
40
0.187499999999986
40
0.187499999999986
40
0.249999999999981
40
0.249999999999981
40
0.281249999999979
40
0.281249999999979
40
0.312499999999978
40
0.312499999999978
40
0.343749999999976
40
0.343749999999976
40
0.374999999999974
40
0.374999999999974
40
0.406249999999973
40
0.406249999999973
40
0.437499999999971
40
0.437499999999971
40
0.499999999999973
40
0.499999999999973
40
0.562499999999976
40
0.562499999999976
40
0.624999999999978
40
0.624999999999978
40
0.656249999999979
40
0.656249999999979
40
0.68749999999998
40
0.68749999999998
40
0.718749999999982
40
0.718749999999982
40
0.749999999999983
40
0.749999999999983
40
0.781249999999984
40
0.781249999999984
40
0.812499999999985
40
0.812499999999985
40
0.87499999999999
40
0.87499999999999
40
0.937499999999995
40
0.937499999999995
40
1
40
1
40
1
40
1
41
1
10
45.303126876146
20
-1.11311537199222
30
0
41
1
10
45.2818219643312
20
-1.13854018558388
30
0
41
1
10
45.2619019223859
20
-1.15526533503271
30
0
41
1
10
45.2239810540633
20
-1.17182836494513
30
1E-16
41
1
10
45.2069844099695
20
-1.17119601684581
30
1E-16
41
1
10
45.1760261168854
20
-1.15153066321491
30
1E-16
41
1
10
45.1628759562686
20
-1.13302625618866
30
1E-16
41
1
10
45.1408350284713
20
-1.0774913936144
30
1E-16
41
1
10
45.1325358568764
20
-1.04201204141211
30
1E-16
41
1
10
45.1248036065351
20
-0.976336545996617
30
1E-16
41
1
10
45.1231341913679
20
-0.953129831075302
30
1E-16
41
1
10
45.1217329616913
20
-0.904050786903298
30
1E-16
41
1
10
45.1220214447568
20
-0.877804077575803
30
1E-16
41
1
10
45.1248996696046
20
-0.824142238065349
30
1E-16
41
1
10
45.1274424958271
20
-0.797027241057123
30
0
41
1
10
45.1350037343306
20
-0.742235794326291
30
0
41
1
10
45.1400688415605
20
-0.714585571847721
30
0
41
1
10
45.1523519258182
20
-0.661968789414345
30
0
41
1
10
45.1597311032086
20
-0.636277235849775
30
0
41
1
10
45.17636428582
20
-0.588453572384907
30
0
41
1
10
45.1855453977145
20
-0.56639578037101
30
0
41
1
10
45.2156065106961
20
-0.505398941758102
30
0
41
1
10
45.2383046542674
20
-0.473286744737862
30
0
41
1
10
45.2849837921168
20
-0.426726838006886
30
0
41
1
10
45.3091016663429
20
-0.412089731124553
30
0
41
1
10
45.3552426215287
20
-0.399349453552588
30
0
41
1
10
45.3776899370049
20
-0.401151094768522
30
0
41
1
10
45.4076028434285
20
-0.415847819871857
30
0
41
1
10
45.4169665766572
20
-0.422714048847325
30
0
41
1
10
45.4342973797433
20
-0.440641612711744
30
0
41
1
10
45.4423168555811
20
-0.451839113430481
30
0
41
1
10
45.4561283904109
20
-0.478153002590261
30
0
41
1
10
45.4619896174965
20
-0.493285101557888
30
0
41
1
10
45.4713102786381
20
-0.528015519274106
30
0
41
1
10
45.4747160330798
20
-0.547614137223519
30
0
41
1
10
45.4784841401632
20
-0.59001871084692
30
0
41
1
10
45.4788862693939
20
-0.613351789496051
30
0
41
1
10
45.4764665016966
20
-0.662455516957948
30
0
41
1
10
45.4737041878097
20
-0.687965792158479
30
0
41
1
10
45.4608247067272
20
-0.76752063050364
30
0
41
1
10
45.4461136147279
20
-0.823046242491017
30
1E-16
41
1
10
45.4104024997844
20
-0.925669275987786
30
-1E-16
41
1
10
45.3894138296278
20
-0.973232878600697
30
-1E-16
41
1
10
45.3464913996258
20
-1.0540623517681
30
0
41
1
10
45.3244317879607
20
-1.08769055840057
30
0
41
1
10
45.303126876146
20
-1.11311537199222
30
0
0
SPLINE
5
E1
100
AcDbEntity
8
1
62
256
6
ByLayer
370
18
48
1
60
0
100
AcDbSpline
70
4
71
3
72
8
73
4
40
0
40
0
40
0
40
0
40
1
40
1
40
1
40
1
41
1
10
45.457322233454
20
-0.448400508323715
30
0
41
1
10
45.2967985631044
20
-0.18050141831344
30
0
41
1
10
45.0996547581375
20
0.120666601348745
30
0
41
1
10
44.8611919565848
20
0.459372407397751
30
0
0
SPLINE
5
E2
100
AcDbEntity
8
1
62
256
6
ByLayer
370
18
48
1
60
0
100
AcDbSpline
70
4
71
3
72
8
73
4
40
0
40
0
40
0
40
0
40
1
40
1
40
1
40
1
41
1
10
44.8548122420113
20
-2.73960016133671
30
0
41
1
10
44.8992738139789
20
-2.71431243891126
30
0
41
1
10
44.9438350304715
20
-2.68853858591666
30
0
41
1
10
44.9885098304688
20
-2.66228899769018
30
0
0
SPLINE
5
E3
100
AcDbEntity
8
1
62
256
6
ByLayer
370
18
48
1
60
0
100
AcDbSpline
70
4
71
3
72
56
73
52
40
0
40
0
40
0
40
0
40
0.030349105311637
40
0.030349105311637
40
0.0911689124661531
40
0.0911689124661531
40
0.151988719620669
40
0.151988719620669
40
0.182398623197927
40
0.182398623197927
40
0.212808526775185
40
0.212808526775185
40
0.243218430352443
40
0.243218430352443
40
0.273628333929701
40
0.273628333929701
40
0.334448141084216
40
0.334448141084216
40
0.39526794823873
40
0.39526794823873
40
0.425677851815987
40
0.425677851815987
40
0.456087755393245
40
0.456087755393245
40
0.486497658970502
40
0.486497658970502
40
0.516907562547759
40
0.516907562547759
40
0.577727369702274
40
0.577727369702274
40
0.608137273279531
40
0.608137273279531
40
0.638547176856788
40
0.638547176856788
40
0.699366984011304
40
0.699366984011304
40
0.729776887588563
40
0.729776887588563
40
0.76018679116582
40
0.76018679116582
40
0.790596694743078
40
0.790596694743078
40
0.821006598320337
40
0.821006598320337
40
0.881826405474853
40
0.881826405474853
40
0.942646212629369
40
0.942646212629369
40
0.973056116206627
40
0.973056116206627
40
1
40
1
40
1
40
1
41
1
10
41.477362595915
20
-1.83208206517094
30
1E-16
41
1
10
41.2663072647534
20
-1.91668753223615
30
1E-16
41
1
10
41.056142191929
20
-1.9962404062093
30
-1E-16
41
1
10
40.4263249679575
20
-2.21899616054196
30
-1E-16
41
1
10
40.0087016816688
20
-2.34658087464257
30
-1E-16
41
1
10
39.1733979737919
20
-2.55452175397406
30
-1E-16
41
1
10
38.75494732609
20
-2.63432346072693
30
1E-16
41
1
10
38.1237004287223
20
-2.7154520205016
30
1E-16
41
1
10
37.9123162411325
20
-2.73604219205089
30
0
41
1
10
37.4889781787287
20
-2.76334904535207
30
0
41
1
10
37.2776117978952
20
-2.77011006285215
30
0
41
1
10
36.8551557014602
20
-2.7699818274013
30
0
41
1
10
36.6440227079505
20
-2.76309266457756
30
0
41
1
10
36.2216278990574
20
-2.73554443920483
30
0
41
1
10
36.0096693706015
20
-2.71484393956521
30
1E-16
41
1
10
35.3753653608942
20
-2.63309480352194
30
1E-16
41
1
10
34.9560291869373
20
-2.55256315003825
30
-1E-16
41
1
10
34.119937670717
20
-2.34377746049978
30
-1E-16
41
1
10
33.7023216163313
20
-2.21633508067501
30
-1E-16
41
1
10
33.0736916708096
20
-1.99377991861616
30
-1E-16
41
1
10
32.8639584694194
20
-1.91408586787932
30
1E-16
41
1
10
32.4426512799317
20
-1.7454640133603
30
1E-16
41
1
10
32.230415495202
20
-1.65626165149664
30
1E-16
41
1
10
31.8076315319311
20
-1.47078050183023
30
1E-16
41
1
10
31.5970884039308
20
-1.37466547331712
30
1E-16
41
1
10
31.1775313499288
20
-1.17602156261083
30
1E-16
41
1
10
30.9683663867236
20
-1.07374546747985
30
1E-16
41
1
10
30.3410517641948
20
-0.761094438366342
30
0
41
1
10
29.9234012362807
20
-0.544373548549032
30
0
41
1
10
29.2951528055831
20
-0.211613836471145
30
0
41
1
10
29.0852413772087
20
-0.0997902327406734
30
0
41
1
10
28.6636346681423
20
0.12413524012365
30
0
41
1
10
28.4515234606233
20
0.236679525925609
30
0
41
1
10
27.8163326190605
20
0.571264685943618
30
0
41
1
10
27.3949843053062
20
0.790948214020773
30
0
41
1
10
26.7603081502992
20
1.10478685351467
30
-1E-16
41
1
10
26.5480846064865
20
1.20714383433563
30
-1E-16
41
1
10
26.1248463837176
20
1.40537075658006
30
-1E-16
41
1
10
25.9137781452395
20
1.50133824747744
30
-1E-16
41
1
10
25.4913174027192
20
1.68472800149598
30
-1E-16
41
1
10
25.2799665863587
20
1.77223963145471
30
-1E-16
41
1
10
24.8567091832251
20
1.93843956647882
30
1E-16
41
1
10
24.6443368758665
20
2.01719199206536
30
1E-16
41
1
10
24.011274255371
20
2.23729404129176
30
1E-16
41
1
10
23.5921841634627
20
2.36157061555977
30
1E-16
41
1
10
22.7553470903306
20
2.56216783554956
30
1E-16
41
1
10
22.3381122056552
20
2.63871816998443
30
-1E-16
41
1
10
21.7084305915094
20
2.71392969227358
30
-1E-16
41
1
10
21.4980261333464
20
2.73250168934743
30
0
41
1
10
21.0997129345412
20
2.75485242879094
30
0
41
1
10
20.9117630057463
20
2.76004876753771
30
0
41
1
10
20.7245717884111
20
2.75982789385967
30
0
0
SPLINE
5
E4
100
AcDbEntity
8
1
62
256
6
ByLayer
370
18
48
1
60
0
100
AcDbSpline
70
4
71
3
72
16
73
12
40
0
40
0
40
0
40
0
40
0.0605922148023535
40
0.0605922148023535
40
0.217160179001962
40
0.217160179001962
40
0.37372814320157
40
0.37372814320157
40
0.686864071600785
40
0.686864071600785
40
1
40
1
40
1
40
1
41
1
10
8.28153744366918
20
-2.0191889524875
30
-1E-16
41
1
10
8.19992684686039
20
-2.04846737293766
30
-1E-16
41
1
10
8.1181962918063
20
-2.07702801671042
30
-1E-16
41
1
10
7.82480817546491
20
-2.17675290077935
30
-1E-16
41
1
10
7.61216826253812
20
-2.24369867854074
30
-1E-16
41
1
10
7.19002809747843
20
-2.36573203617033
30
-1E-16
41
1
10
6.97978185879157
20
-2.42088926725651
30
-1E-16
41
1
10
6.3496973025205
20
-2.56742101711097
30
-1E-16
41
1
10
5.930684482061
20
-2.6402830398294
30
1E-16
41
1
10
5.09230720927889
20
-2.73450656305656
30
0
41
1
10
4.67196501849634
20
-2.75506854320005
30
0
41
1
10
4.24665802767399
20
-2.74839553809386
30
0
0
SPLINE
5
E5
100
AcDbEntity
8
1
62
256
6
ByLayer
370
18
48
1
60
0
100
AcDbSpline
70
4
71
3
72
10
73
6
40
0
40
0
40
0
40
0
40
0.5
40
0.5
40
1
40
1
40
1
40
1
41
1
10
44.8548122420084
20
-2.73960016134018
30
0
41
1
10
44.856979926151
20
-2.75004782250701
30
0
41
1
10
44.8590362257505
20
-2.75821330884312
30
0
41
1
10
44.8627768986322
20
-2.76989803345902
30
0
41
1
10
44.8644925729179
20
-2.77341720254299
30
0
41
1
10
44.8660988051768
20
-2.77453108533018
30
0
0
SPLINE
5
E6
100
AcDbEntity
8
1
62
256
6
ByLayer
370
18
48
1
60
0
100
AcDbSpline
70
4
71
3
72
8
73
4
40
0
40
0
40
0
40
0
40
1
40
1
40
1
40
1
41
1
10
3.55531391219159
20
0.656616431864393
30
0
41
1
10
3.52307026974853
20
0.673169507646804
30
0
41
1
10
3.50206250426086
20
0.706990194582716
30
0
41
1
10
3.50206250426089
20
0.742110680444483
30
0
0
SPLINE
5
E7
100
AcDbEntity
8
1
62
256
6
ByLayer
370
18
48
1
60
0
100
AcDbSpline
70
4
71
3
72
36
73
32
40
0
40
0
40
0
40
0
40
0.0445107444734582
40
0.0445107444734582
40
0.111656905133919
40
0.111656905133919
40
0.178803065794379
40
0.178803065794379
40
0.245949226454839
40
0.245949226454839
40
0.313095387115299
40
0.313095387115299
40
0.38024154777576
40
0.38024154777576
40
0.44738770843622
40
0.44738770843622
40
0.51453386909668
40
0.51453386909668
40
0.581680029757141
40
0.581680029757141
40
0.648826190417601
40
0.648826190417601
40
0.715972351078061
40
0.715972351078061
40
0.783118511738522
40
0.783118511738522
40
0.850264672398982
40
0.850264672398982
40
0.984556993719901
40
0.984556993719901
40
1
40
1
40
1
40
1
41
1
10
37.2175505197422
20
-0.233952032746316
30
0
41
1
10
37.03238029662
20
-0.139487845110949
30
0
41
1
10
36.8471559036794
20
-0.0445089196456649
30
0
41
1
10
36.3835251925202
20
0.192859431285541
30
0
41
1
10
36.1050841937271
20
0.335238734563035
30
0
41
1
10
35.5473105341458
20
0.616074093076776
30
0
41
1
10
35.267777063053
20
0.755032169884231
30
0
41
1
10
34.7086052899948
20
1.02497618212448
30
-1E-16
41
1
10
34.4289316462649
20
1.15611229180777
30
-1E-16
41
1
10
33.8702142469677
20
1.40674374767903
30
-1E-16
41
1
10
33.591805784514
20
1.52636324447894
30
-1E-16
41
1
10
33.0353201558302
20
1.75120938436362
30
-1E-16
41
1
10
32.7572459902436
20
1.85648103095284
30
1E-16
41
1
10
32.1998750895109
20
2.05036367671102
30
1E-16
41
1
10
31.9202560717456
20
2.13935471378491
30
1E-16
41
1
10
31.3610984271287
20
2.29816802920351
30
1E-16
41
1
10
31.0813562971945
20
2.36788952937795
30
1E-16
41
1
10
30.5227257139584
20
2.48591943741448
30
0
41
1
10
30.2442499311267
20
2.53429670170644
30
0
41
1
10
29.6875464902134
20
2.60925748824892
30
0
41
1
10
29.4092296324914
20
2.63554834682716
30
0
41
1
10
28.8512484631155
20
2.66522685592372
30
0
41
1
10
28.571382227893
20
2.66859840409063
30
0
41
1
10
28.0137321841175
20
2.652871758299
30
0
41
1
10
27.7352436117017
20
2.6334834441067
30
0
41
1
10
27.1775744336685
20
2.57212370448053
30
0
41
1
10
26.8978000160164
20
2.52986680310752
30
0
41
1
10
26.0605252603177
20
2.37164548777031
30
1E-16
41
1
10
25.5042696054738
20
2.22361122671947
30
1E-16
41
1
10
24.8808329646848
20
2.0181274025114
30
1E-16
41
1
10
24.8165290668512
20
1.99646634904116
30
1E-16
41
1
10
24.7522220708516
20
1.97435342965281
30
1E-16
0
SPLINE
5
E8
100
AcDbEntity
8
1
62
256
6
ByLayer
370
18
48
1
60
0
100
AcDbSpline
70
4
71
3
72
8
73
4
40
0
40
0
40
0
40
0
40
1
40
1
40
1
40
1
41
1
10
3.64939234731472
20
2.74912425087928
30
0
41
1
10
3.64882109542066
20
2.70654922307369
30
0
41
1
10
3.64824099786455
20
2.66397418751754
30
0
41
1
10
3.64765203120891
20
2.62139914951493
30
0
0
SPLINE
5
E9
100
AcDbEntity
8
1
62
256
6
ByLayer
370
18
48
1
60
0
100
AcDbSpline
70
4
71
3
72
42
73
38
40
0
40
0
40
0
40
0
40
0.020088248898464
40
0.020088248898464
40
0.118079424008616
40
0.118079424008616
40
0.167075011563692
40
0.167075011563692
40
0.216070599118769
40
0.216070599118769
40
0.265066186673846
40
0.265066186673846
40
0.314061774228923
40
0.314061774228923
40
0.412052949339076
40
0.412052949339076
40
0.461048536894153
40
0.461048536894153
40
0.51004412444923
40
0.51004412444923
40
0.608035299559381
40
0.608035299559381
40
0.657030887114457
40
0.657030887114457
40
0.681528680891995
40
0.681528680891995
40
0.706026474669533
40
0.706026474669533
40
0.804017649779689
40
0.804017649779689
40
0.902008824889844
40
0.902008824889844
40
0.926506618667384
40
0.926506618667384
40
0.951004412444923
40
0.951004412444923
40
1
40
1
40
1
40
1
41
1
10
27.8922918817744
20
2.7386622413897
30
0
41
1
10
28.0053807124308
20
2.74689474253691
30
0
41
1
10
28.118409211467
20
2.75318512920316
30
0
41
1
10
28.7827433002422
20
2.77869209108888
30
0
41
1
10
29.3338497355257
20
2.7534066459113
30
0
41
1
10
30.1693647452907
20
2.64508796451523
30
-1E-16
41
1
10
30.4493426149976
20
2.59716644833816
30
0
41
1
10
31.006832492044
20
2.47979020978468
30
1E-16
41
1
10
31.2852181304005
20
2.41024083412725
30
1E-16
41
1
10
31.8428380629055
20
2.25077690099951
30
1E-16
41
1
10
32.122864240958
20
2.1605514138146
30
1E-16
41
1
10
32.6792174626268
20
1.96358344149274
30
1E-16
41
1
10
32.9560187484791
20
1.85677286161271
30
-1E-16
41
1
10
33.7845467521423
20
1.51497758553828
30
-1E-16
41
1
10
34.3342894229054
20
1.25842217798478
30
-1E-16
41
1
10
35.1643221739033
20
0.845813258454086
30
-1E-16
41
1
10
35.4419031552117
20
0.703658407475871
30
0
41
1
10
36.0004110992379
20
0.412700861394967
30
0
41
1
10
36.278828838029
20
0.265224551884813
30
0
41
1
10
37.1096136039993
20
-0.176375734362267
30
0
41
1
10
37.6593211883282
20
-0.470715832911708
30
0
41
1
10
38.486831337488
20
-0.894737393211301
30
1E-16
41
1
10
38.7631607833347
20
-1.03316351046084
30
1E-16
41
1
10
39.1795063597649
20
-1.23433375474406
30
1E-16
41
1
10
39.3185976334235
20
-1.30031076220095
30
1E-16
41
1
10
39.5976008581573
20
-1.4297265259033
30
1E-16
41
1
10
39.7373601918119
20
-1.4930858515979
30
1E-16
41
1
10
40.4329370351366
20
-1.80011062169359
30
1E-16
41
1
10
40.983566563734
20
-2.0164589725396
30
-1E-16
41
1
10
42.085467184382
20
-2.37543259480268
30
-1E-16
41
1
10
42.6367477359291
20
-2.51807414486396
30
-1E-16
41
1
10
43.3337725954721
20
-2.64163790056617
30
1E-16
41
1
10
43.4736123206066
20
-2.66360427931031
30
1E-16
41
1
10
43.7525052404769
20
-2.70163500508713
30
1E-16
41
1
10
43.8917809398209
20
-2.7177424244845
30
1E-16
41
1
10
44.3093840023306
20
-2.75726126367141
30
0
41
1
10
44.5874822592487
20
-2.77186490024107
30
0
41
1
10
44.8660988051768
20
-2.77453108533018
30
0
0
SPLINE
5
EA
100
AcDbEntity
8
1
62
256
6
ByLayer
370
18
48
1
60
0
100
AcDbSpline
70
4
71
3
72
18
73
14
40
0
40
0
40
0
40
0
40
0.249999999999997
40
0.249999999999997
40
0.499999999999993
40
0.499999999999993
40
0.624999999999995
40
0.624999999999995
40
0.749999999999996
40
0.749999999999996
40
0.874999999999998
40
0.874999999999998
40
1
40
1
40
1
40
1
41
1
10
45.0377835141485
20
2.66032106591666
30
0
41
1
10
45.0929811304074
20
2.50345044858918
30
0
41
1
10
45.1478174717815
20
2.34529233701352
30
0
41
1
10
45.2584654130635
20
2.02820707463988
30
0
41
1
10
45.3143060791318
20
1.86939809701693
30
0
41
1
10
45.3993895973569
20
1.63165298368722
30
0
41
1
10
45.4287133443884
20
1.55279522601583
30
0
41
1
10
45.4897703364227
20
1.39895375999561
30
0
41
1
10
45.5215809690839
20
1.3236400942275
30
0
41
1
10
45.5885496511173
20
1.1765102050019
30
0
41
1
10
45.6239467672549
20
1.10415315712976
30
0
41
1
10
45.6973755805559
20
0.965849170926674
30
0
41
1
10
45.7352421046506
20
0.900144832940128
30
0
41
1
10
45.7743822012776
20
0.837681712909216
30
0
0
SPLINE
5
EB
100
AcDbEntity
8
1
62
256
6
ByLayer
370
18
48
1
60
0
100
AcDbSpline
70
4
71
3
72
10
73
6
40
0
40
0
40
0
40
0
40
0.401815970115499
40
0.401815970115499
40
1
40
1
40
1
40
1
41
1
10
7.6115047989947
20
-1.73730054575947
30
0
41
1
10
7.15635443723994
20
-1.86984979487286
30
0
41
1
10
6.70292611451828
20
-2.003899475711
30
0
41
1
10
5.57911829139232
20
-2.34012170255986
30
0
41
1
10
4.91100632171757
20
-2.54354664360895
30
0
41
1
10
4.24665802767399
20
-2.74839553809386
30
0
0
SPLINE
5
EC
100
AcDbEntity
8
1
62
256
6
ByLayer
370
18
48
1
60
0
100
AcDbSpline
70
4
71
3
72
24
73
20
40
0
40
0
40
0
40
0
40
0.0871817824836538
40
0.0871817824836538
40
0.174363564967308
40
0.174363564967308
40
0.348727129934615
40
0.348727129934615
40
0.435908912418269
40
0.435908912418269
40
0.523090694901922
40
0.523090694901922
40
0.697454259869234
40
0.697454259869234
40
0.871817824836546
40
0.871817824836546
40
0.9589996073202
40
0.9589996073202
40
1
40
1
40
1
40
1
41
1
10
45.0021844497549
20
-2.62346921775077
30
0
41
1
10
44.7856564986527
20
-2.60866512748936
30
0
41
1
10
44.5697781583423
20
-2.58773557467836
30
0
41
1
10
44.1389380459938
20
-2.53212900256128
30
0
41
1
10
43.923940469637
20
-2.49772107033806
30
0
41
1
10
43.2793857417566
20
-2.37575631854176
30
-1E-16
41
1
10
42.8502911155726
20
-2.2695337015563
30
-1E-16
41
1
10
42.2033879391277
20
-2.07611680479434
30
-1E-16
41
1
10
41.9872170653026
20
-2.0059720732246
30
-1E-16
41
1
10
41.5531149481712
20
-1.85501280293858
30
-1E-16
41
1
10
41.3360526336934
20
-1.77448365906093
30
1E-16
41
1
10
40.6884716186763
20
-1.52123026764883
30
1E-16
41
1
10
40.2596515784865
20
-1.3361823016956
30
1E-16
41
1
10
39.4027911087914
20
-0.943192362511667
30
1E-16
41
1
10
38.9746086354031
20
-0.735316702037863
30
0
41
1
10
38.3289477807356
20
-0.413535458360741
30
0
41
1
10
38.1131253640638
20
-0.304667036471841
30
0
41
1
10
37.794398151037
20
-0.143242734967174
30
0
41
1
10
37.6922677285079
20
-0.0914195415007839
30
0
41
1
10
37.5901913518092
20
-0.0396174218648184
30
0
0
SPLINE
5
ED
100
AcDbEntity
8
1
62
256
6
ByLayer
370
18
48
1
60
0
100
AcDbSpline
70
4
71
3
72
26
73
22
40
0
40
0
40
0
40
0
40
0.0870876063995426
40
0.0870876063995426
40
0.237497423250002
40
0.237497423250002
40
0.312702331675231
40
0.312702331675231
40
0.38790724010046
40
0.38790724010046
40
0.538317056950918
40
0.538317056950918
40
0.688726873801376
40
0.688726873801376
40
0.763931782226605
40
0.763931782226605
40
0.839136690651833
40
0.839136690651833
40
0.989546507502291
40
0.989546507502291
40
1
40
1
40
1
40
1
41
1
10
13.4081618374523
20
-2.61772034004414
30
0
41
1
10
13.1588795046586
20
-2.62781662442043
30
0
41
1
10
12.9102935964883
20
-2.62894163547921
30
0
41
1
10
12.2327410373917
20
-2.60726090034714
30
0
41
1
10
11.8041149191137
20
-2.5667832606884
30
0
41
1
10
11.1579991580492
20
-2.46701475665694
30
0
41
1
10
10.9420966436434
20
-2.4272668075424
30
-1E-16
41
1
10
10.5085496293066
20
-2.33499239934832
30
-1E-16
41
1
10
10.2905469241075
20
-2.28234298689225
30
-1E-16
41
1
10
9.64084180475487
20
-2.1080838958141
30
-1E-16
41
1
10
9.21097903205333
20
-1.96972142448837
30
-1E-16
41
1
10
8.35249320836988
20
-1.65650833185438
30
1E-16
41
1
10
7.92387754597274
20
-1.48165765270531
30
1E-16
41
1
10
7.27797180645598
20
-1.19820053374741
30
1E-16
41
1
10
7.06217001506639
20
-1.10019412188069
30
1E-16
41
1
10
6.62886008788962
20
-0.898263832723046
30
1E-16
41
1
10
6.41084325073246
20
-0.794085616143946
30
0
41
1
10
5.75976886967101
20
-0.477573272669787
30
0
41
1
10
5.32834151940372
20
-0.260356478602063
30
0
41
1
10
4.86655846808733
20
-0.0277987874646328
30
0
41
1
10
4.83654843165718
20
-0.0126851719499257
30
0
41
1
10
4.80653589463611
20
0.0024279271624437
30
0
0
SPLINE
5
EE
100
AcDbEntity
8
1
62
256
6
ByLayer
370
18
48
1
60
0
100
AcDbSpline
70
4
71
3
72
10
73
6
40
0
40
0
40
0
40
0
40
0.5
40
0.5
40
1
40
1
40
1
40
1
41
1
10
45.0377835141489
20
-2.66032106591604
30
0
41
1
10
45.026989528336
20
-2.66779230508905
30
0
41
1
10
45.0175917807522
20
-2.67166464420589
30
0
41
1
10
45.001363305577
20
-2.67219750107887
30
0
41
1
10
44.9944999039382
20
-2.6689023027642
30
0
41
1
10
44.9885098304691
20
-2.66228899769001
30
0
0
SPLINE
5
EF
100
AcDbEntity
8
1
62
256
6
ByLayer
370
18
48
1
60
0
100
AcDbSpline
70
4
71
3
72
38
73
34
40
0
40
0
40
0
40
0
40
0.0831151548136141
40
0.0831151548136141
40
0.12467273222042
40
0.12467273222042
40
0.166230309627226
40
0.166230309627226
40
0.332460619254452
40
0.332460619254452
40
0.374018196661257
40
0.374018196661257
40
0.415575774068062
40
0.415575774068062
40
0.457133351474867
40
0.457133351474867
40
0.498690928881672
40
0.498690928881672
40
0.664921238508892
40
0.664921238508892
40
0.706478815915697
40
0.706478815915697
40
0.748036393322503
40
0.748036393322503
40
0.831151548136116
40
0.831151548136116
40
0.914266702949729
40
0.914266702949729
40
0.955824280356535
40
0.955824280356535
40
0.997381857763342
40
0.997381857763342
40
1
40
1
40
1
40
1
41
1
10
44.8548122420125
20
-2.73960016133896
30
0
41
1
10
44.4223292601483
20
-2.7025648018205
30
1E-16
41
1
10
43.9911297604805
20
-2.63733579372061
30
1E-16
41
1
10
43.3425642267781
20
-2.49958916459883
30
-1E-16
41
1
10
43.1255419991426
20
-2.44685473092176
30
-1E-16
41
1
10
42.6930831405816
20
-2.32938706632919
30
-1E-16
41
1
10
42.4777878076435
20
-2.26473654430993
30
-1E-16
41
1
10
41.4041738579025
20
-1.91443093784963
30
1E-16
41
1
10
40.5543041555234
20
-1.5476417978166
30
1E-16
41
1
10
39.4750934910278
20
-1.02212363317332
30
1E-16
41
1
10
39.2579408140286
20
-0.913526081051941
30
1E-16
41
1
10
38.8251258661291
20
-0.692765553207494
30
0
41
1
10
38.6091109180029
20
-0.580415561123544
30
0
41
1
10
38.1769879451318
20
-0.353402260112603
30
0
41
1
10
37.9608745619129
20
-0.238749969831531
30
0
41
1
10
37.5278214397112
20
-0.008506687884335
30
0
41
1
10
37.3107236755473
20
0.107164785731357
30
0
41
1
10
36.2317964828549
20
0.678860825946828
30
0
41
1
10
35.3819498839126
20
1.12019561356513
30
-1E-16
41
1
10
34.3073723945058
20
1.59975377577285
30
-1E-16
41
1
10
34.091835060377
20
1.69205612460755
30
-1E-16
41
1
10
33.6588323553922
20
1.86823105797305
30
-1E-16
41
1
10
33.4420132647447
20
1.95179679390731
30
1E-16
41
1
10
32.7956119368181
20
2.18521587605326
30
1E-16
41
1
10
32.3677055126017
20
2.31878227754234
30
1E-16
41
1
10
31.5122123249061
20
2.53649306321077
30
1E-16
41
1
10
31.084662298032
20
2.62067097237505
30
0
41
1
10
30.439347749279
20
2.70625147410456
30
-1E-16
41
1
10
30.2235798053745
20
2.72800164830858
30
0
41
1
10
29.7899813896146
20
2.75735912180375
30
0
41
1
10
29.5736809172969
20
2.76484107561618
30
0
41
1
10
29.3447977453144
20
2.76522570010746
30
0
41
1
10
29.3312354479162
20
2.76522023214289
30
0
41
1
10
29.3176758786732
20
2.76518654295919
30
0
0
SPLINE
5
F0
100
AcDbEntity
8
1
62
256
6
ByLayer
370
18
48
1
60
0
100
AcDbSpline
70
4
71
3
72
26
73
22
40
0
40
0
40
0
40
0
40
0.054541184421833
40
0.054541184421833
40
0.290905888316376
40
0.290905888316376
40
0.349997064290011
40
0.349997064290011
40
0.409088240263646
40
0.409088240263646
40
0.527270592210917
40
0.527270592210917
40
0.645452944158188
40
0.645452944158188
40
0.704544120131823
40
0.704544120131823
40
0.763635296105458
40
0.763635296105458
40
0.881817648052729
40
0.881817648052729
40
1
40
1
40
1
40
1
41
1
10
14.4754948394734
20
-2.64379288227718
30
1E-16
41
1
10
14.2760186590701
20
-2.67350510479343
30
1E-16
41
1
10
14.0772391155267
20
-2.69725536843717
30
1E-16
41
1
10
13.0193887120306
20
-2.79220916422051
30
0
41
1
10
12.1686390842756
20
-2.75724166350031
30
0
41
1
10
11.0872059848247
20
-2.57479691738348
30
0
41
1
10
10.8696462611502
20
-2.53126361833574
30
-1E-16
41
1
10
10.4374579208639
20
-2.43194365032369
30
-1E-16
41
1
10
10.2222040893875
20
-2.37607234443334
30
-1E-16
41
1
10
9.57791937316316
20
-2.19113540425298
30
-1E-16
41
1
10
9.15030482010565
20
-2.04480221188049
30
-1E-16
41
1
10
8.29335255791236
20
-1.71326009271198
30
1E-16
41
1
10
7.86398884041412
20
-1.52808612731556
30
1E-16
41
1
10
7.21435277737743
20
-1.22703301425173
30
1E-16
41
1
10
6.99691201572455
20
-1.12281004503697
30
1E-16
41
1
10
6.56494442735988
20
-0.910616303003053
30
1E-16
41
1
10
6.34972894425434
20
-0.802315144029166
30
0
41
1
10
5.70540358558469
20
-0.472685237138222
30
0
41
1
10
5.27765081814158
20
-0.24655502287888
30
0
41
1
10
4.41960537495515
20
0.206666520927399
30
0
41
1
10
3.98933925430501
20
0.433798727810597
30
0
41
1
10
3.55531391219171
20
0.656616431864336
30
0
0
SPLINE
5
F1
100
AcDbEntity
8
1
62
256
6
ByLayer
370
18
48
1
60
0
100
AcDbSpline
70
4
71
3
72
8
73
4
40
0
40
0
40
0
40
0
40
1
40
1
40
1
40
1
41
1
10
45.0021844497677
20
-2.62346921775722
30
0
41
1
10
44.9976065237206
20
-2.63641011449386
30
0
41
1
10
44.9930481671445
20
-2.64934998432889
30
0
41
1
10
44.988509830469
20
-2.6622889976903
30
0
0
SPLINE
5
F2
100
AcDbEntity
8
1
62
256
6
ByLayer
370
18
48
1
60
0
100
AcDbSpline
70
4
71
3
72
8
73
4
40
0
40
0
40
0
40
0
40
1
40
1
40
1
40
1
41
1
10
44.8611919565848
20
0.459372407397723
30
0
41
1
10
44.7781984093654
20
0.429381961075166
30
0
41
1
10
44.6982010300928
20
0.384902274005952
30
0
41
1
10
44.623680412168
20
0.32311362697908
30
0
0
SPLINE
5
F3
100
AcDbEntity
8
1
62
256
6
ByLayer
370
18
48
1
60
0
100
AcDbSpline
70
4
71
3
72
14
73
10
40
0
40
0
40
0
40
0
40
0.500704093016032
40
0.500704093016032
40
0.625880116270038
40
0.625880116270038
40
0.751056139524044
40
0.751056139524044
40
1
40
1
40
1
40
1
41
1
10
6.11594293959166
20
-1.08527283892269
30
1E-16
41
1
10
7.13443672762972
20
-1.58037961252379
30
1E-16
41
1
10
8.13010897545209
20
-2.0012494181683
30
-1E-16
41
1
10
9.39181508002156
20
-2.37004465547437
30
-1E-16
41
1
10
9.64506114765393
20
-2.43607703328362
30
-1E-16
41
1
10
10.1541495682769
20
-2.55052322784039
30
-1E-16
41
1
10
10.4072556371341
20
-2.59850068965713
30
0
41
1
10
11.1611224467005
20
-2.71378489775876
30
1E-16
41
1
10
11.6594508727234
20
-2.75318232244237
30
0
41
1
10
12.1589619462114
20
-2.75446093208223
30
0
0
SPLINE
5
F4
100
AcDbEntity
8
1
62
256
6
ByLayer
370
18
48
1
60
0
100
AcDbSpline
70
4
71
3
72
8
73
4
40
0
40
0
40
0
40
0
40
1
40
1
40
1
40
1
41
1
10
3.64765203120888
20
2.62139914951493
30
0
41
1
10
3.63373747598703
20
2.62136204535736
30
0
41
1
10
3.6184738398984
20
2.62126871718371
30
0
41
1
10
3.60284079953055
20
2.62115976296099
30
0
0
SPLINE
5
F5
100
AcDbEntity
8
1
62
256
6
ByLayer
370
18
48
1
60
0
100
AcDbSpline
70
4
71
3
72
8
73
4
40
0
40
0
40
0
40
0
40
1
40
1
40
1
40
1
41
1
10
45.7743822012776
20
-0.837681712909188
30
0
41
1
10
45.8499923092593
20
-0.624750730138885
30
0
41
1
10
45.9238594657365
20
-0.411192791021563
30
0
41
1
10
45.9959608959245
20
-0.196999703249105
30
0
0
SPLINE
5
F6
100
AcDbEntity
8
1
62
256
6
ByLayer
370
18
48
1
60
0
100
AcDbSpline
70
4
71
3
72
8
73
4
40
0
40
0
40
0
40
0
40
1
40
1
40
1
40
1
41
1
10
44.8548122420112
20
2.73960016133671
30
0
41
1
10
44.8992738139789
20
2.71431243891126
30
0
41
1
10
44.9438350304715
20
2.68853858591666
30
0
41
1
10
44.9885098304688
20
2.66228899769018
30
0
0
SPLINE
5
F7
100
AcDbEntity
8
1
62
256
6
ByLayer
370
18
48
1
60
0
100
AcDbSpline
70
4
71
3
72
14
73
10
40
0
40
0
40
0
40
0
40
0.269581225622889
40
0.269581225622889
40
0.504094108362085
40
0.504094108362085
40
0.780186666857049
40
0.780186666857049
40
1
40
1
40
1
40
1
41
1
10
44.689066685435
20
-0.096332617824487
30
0
41
1
10
44.6897957658466
20
-0.0966478854903414
30
0
41
1
10
44.6905073499547
20
-0.0973358974605674
30
0
41
1
10
44.6916883272667
20
-0.0990577536261128
30
0
41
1
10
44.6921934262683
20
-0.100058159340534
30
0
41
1
10
44.6931323075548
20
-0.102504249343411
30
0
41
1
10
44.6935526294382
20
-0.104035065304515
30
0
41
1
10
44.6940703420504
20
-0.106960635041986
30
0
41
1
10
44.6942210796923
20
-0.108353962536512
30
0
41
1
10
44.6942625257515
20
-0.109746357194439
30
0
0
SPLINE
5
F8
100
AcDbEntity
8
1
62
256
6
ByLayer
370
18
48
1
60
0
100
AcDbSpline
70
4
71
3
72
26
73
22
40
0
40
0
40
0
40
0
40
0.125
40
0.125
40
0.250000000000001
40
0.250000000000001
40
0.375000000000001
40
0.375000000000001
40
0.437500000000001
40
0.437500000000001
40
0.500000000000001
40
0.500000000000001
40
0.625000000000001
40
0.625000000000001
40
0.687500000000001
40
0.687500000000001
40
0.750000000000001
40
0.750000000000001
40
0.875
40
0.875
40
1
40
1
40
1
40
1
41
1
10
3.60284079953055
20
2.61111051332938
30
0
41
1
10
3.6028298512401
20
2.61045195540589
30
0
41
1
10
3.60281589748331
20
2.59744554118225
30
0
41
1
10
3.6027837025988
20
2.54815356334311
30
0
41
1
10
3.60276543622729
20
2.5119747863462
30
0
41
1
10
3.60272509678751
20
2.41662757192779
30
0
41
1
10
3.60270284274159
20
2.35686733234971
30
1E-16
41
1
10
3.60266754979824
20
2.25183896832618
30
1E-16
41
1
10
3.60265544571564
20
2.21423825893646
30
1E-16
41
1
10
3.60263054287708
20
2.13384573417176
30
1E-16
41
1
10
3.60261769423079
20
2.09087938511246
30
1E-16
41
1
10
3.60257842660923
20
1.9554139445394
30
1E-16
41
1
10
3.60255139329269
20
1.85676671659516
30
1E-16
41
1
10
3.60250919413952
20
1.6966783424642
30
-1E-16
41
1
10
3.60249484947781
20
1.64128529449343
30
-1E-16
41
1
10
3.60246549805044
20
1.52637644387693
30
-1E-16
41
1
10
3.60245042876903
20
1.46660928355013
30
-1E-16
41
1
10
3.60240447696319
20
1.28274042061116
30
-1E-16
41
1
10
3.60237313065713
20
1.15522009771152
30
-1E-16
41
1
10
3.60230804786684
20
0.89062949338313
30
-1E-16
41
1
10
3.60227425018238
20
0.753294631790254
30
0
41
1
10
3.60223876970795
20
0.611508954484492
30
0
0
SPLINE
5
F9
100
AcDbEntity
8
1
62
256
6
ByLayer
370
18
48
1
60
0
100
AcDbSpline
70
4
71
3
72
12
73
8
40
0
40
0
40
0
40
0
40
0.249999999999999
40
0.249999999999999
40
0.499999999999998
40
0.499999999999998
40
1
40
1
40
1
40
1
41
1
10
3.60284079953055
20
2.62115976296099
30
0
41
1
10
3.58722121769645
20
2.62105090253729
30
0
41
1
10
3.57205197959939
20
2.6243169490028
30
0
41
1
10
3.54600371581245
20
2.63539992541016
30
0
41
1
10
3.53523692957498
20
2.64302100612107
30
0
41
1
10
3.509850182625
20
2.66872285419811
30
0
41
1
10
3.50206250426106
20
2.6891209718458
30
0
41
1
10
3.50206250426106
20
2.70920361284871
30
0
0
SPLINE
5
FA
100
AcDbEntity
8
1
62
256
6
ByLayer
370
18
48
1
60
0
100
AcDbSpline
70
4
71
3
72
28
73
24
40
0
40
0
40
0
40
0
40
0.152718465025284
40
0.152718465025284
40
0.305436930050569
40
0.305436930050569
40
0.381796162563211
40
0.381796162563211
40
0.458155395075852
40
0.458155395075852
40
0.610873860101137
40
0.610873860101137
40
0.687233092613779
40
0.687233092613779
40
0.763592325126421
40
0.763592325126421
40
0.839951557639063
40
0.839951557639063
40
0.916310790151705
40
0.916310790151705
40
0.992670022664347
40
0.992670022664347
40
1
40
1
40
1
40
1
41
1
10
44.6942625257515
20
-0.109746357194325
30
0
41
1
10
44.2658775468111
20
0.106715553943076
30
0
41
1
10
43.840121072488
20
0.323387623437327
30
0
41
1
10
42.9878826140924
20
0.74562446901561
30
0
41
1
10
42.561669730382
20
0.95140439657348
30
-1E-16
41
1
10
41.9182368491664
20
1.24443824872947
30
-1E-16
41
1
10
41.7024486697976
20
1.33974668608269
30
-1E-16
41
1
10
41.2732550028026
20
1.52188596299121
30
-1E-16
41
1
10
41.0595634007781
20
1.60888844560785
30
-1E-16
41
1
10
40.419766506873
20
1.85676421136452
30
1E-16
41
1
10
39.9951771606952
20
2.00421235372625
30
1E-16
41
1
10
39.3579120277512
20
2.19357589996048
30
1E-16
41
1
10
39.1454039653309
20
2.25140694946643
30
1E-16
41
1
10
38.7197457658751
20
2.35494415782747
30
1E-16
41
1
10
38.5065785665779
20
2.40072277279535
30
1E-16
41
1
10
38.0785016203044
20
2.48106360860049
30
0
41
1
10
37.8630198563028
20
2.51563580088964
30
0
41
1
10
37.4328188009782
20
2.57179229802878
30
0
41
1
10
37.2185787662025
20
2.59335153524842
30
0
41
1
10
36.7915620543242
20
2.62283932906072
30
0
41
1
10
36.5787953541095
20
2.63070699647403
30
0
41
1
10
36.3461951149064
20
2.63123223870664
30
0
41
1
10
36.3258248332752
20
2.63121759500004
30
0
41
1
10
36.3054562217503
20
2.63114317966725
30
0
0
SPLINE
5
FB
100
AcDbEntity
8
1
62
256
6
ByLayer
370
18
48
1
60
0
100
AcDbSpline
70
4
71
3
72
32
73
28
40
0
40
0
40
0
40
0
40
0.0423572589585541
40
0.0423572589585541
40
0.116022085192512
40
0.116022085192512
40
0.189686911426469
40
0.189686911426469
40
0.263351737660427
40
0.263351737660427
40
0.337016563894384
40
0.337016563894384
40
0.410681390128342
40
0.410681390128342
40
0.484346216362299
40
0.484346216362299
40
0.558011042596256
40
0.558011042596256
40
0.631675868830214
40
0.631675868830214
40
0.705340695064172
40
0.705340695064172
40
0.77900552129813
40
0.77900552129813
40
0.852670347532087
40
0.852670347532087
40
1
40
1
40
1
40
1
41
1
10
12.3572131508712
20
-0.293385966422676
30
0
41
1
10
12.2349383988071
20
-0.232166864271193
30
0
41
1
10
12.1126601389494
20
-0.170709844425119
30
0
41
1
10
11.7774222862834
20
-0.0023546720604202
30
0
41
1
10
11.5642947874065
20
0.104689429890016
30
0
41
1
10
11.1372541097431
20
0.318793327178326
30
0
41
1
10
10.9232965774836
20
0.425738336094696
30
0
41
1
10
10.4935185624872
20
0.637213097878799
30
0
41
1
10
10.2772325643181
20
0.742070212595735
30
0
41
1
10
9.84772801566044
20
0.946414511553741
30
-1E-16
41
1
10
9.63391196484562
20
1.04610886783271
30
-1E-16
41
1
10
9.20689234590259
20
1.23909277891533
30
-1E-16
41
1
10
8.9937676568712
20
1.33240973826881
30
-1E-16
41
1
10
8.56822601205181
20
1.51178280248035
30
-1E-16
41
1
10
8.35574161565035
20
1.59783968704369
30
-1E-16
41
1
10
7.9301728797389
20
1.76168247615576
30
-1E-16
41
1
10
7.71713775070194
20
1.83945736252346
30
1E-16
41
1
10
7.29039773341185
20
1.98552076217473
30
1E-16
41
1
10
7.07666149391869
20
2.05383198487706
30
1E-16
41
1
10
6.64746472376089
20
2.1802967982637
30
1E-16
41
1
10
6.43139234573181
20
2.23856651255142
30
1E-16
41
1
10
6.00113637695191
20
2.34229629129047
30
1E-16
41
1
10
5.78669808899855
20
2.38805587757974
30
1E-16
41
1
10
5.35782444081886
20
2.46798271513782
30
0
41
1
10
5.14356315654166
20
2.50196327219661
30
0
41
1
10
4.50097208660708
20
2.58426157755892
30
0
41
1
10
4.07294578886791
20
2.61275724642215
30
0
41
1
10
3.64316815028121
20
2.61135557454688
30
0
0
SPLINE
5
FC
100
AcDbEntity
8
1
62
256
6
ByLayer
370
18
48
1
60
0
100
AcDbSpline
70
4
71
3
72
32
73
28
40
0
40
0
40
0
40
0
40
0.0097516160216607
40
0.0097516160216607
40
0.0859362901618658
40
0.0859362901618658
40
0.16212096430207
40
0.16212096430207
40
0.238305638442275
40
0.238305638442275
40
0.31449031258248
40
0.31449031258248
40
0.390674986722684
40
0.390674986722684
40
0.466859660862889
40
0.466859660862889
40
0.543044335003094
40
0.543044335003094
40
0.619229009143299
40
0.619229009143299
40
0.695413683283503
40
0.695413683283503
40
0.771598357423707
40
0.771598357423707
40
0.847783031563912
40
0.847783031563912
40
1
40
1
40
1
40
1
41
1
10
19.6046350706227
20
2.62487852782007
30
0
41
1
10
19.6319051148654
20
2.62585641523532
30
0
41
1
10
19.6591675811065
20
2.62673435886555
30
0
41
1
10
19.8993536705844
20
2.63360467170472
30
0
41
1
10
20.1118307746396
20
2.63368350470753
30
0
41
1
10
20.5373573663615
20
2.61895177003726
30
0
41
1
10
20.7501825776417
20
2.6049499355484
30
0
41
1
10
21.176233290835
20
2.56458731120952
30
0
41
1
10
21.3895661489332
20
2.53795609437108
30
0
41
1
10
21.8179333671885
20
2.47107001347675
30
0
41
1
10
22.032989284018
20
2.43105011887525
30
1E-16
41
1
10
22.4640875508567
20
2.33908114183925
30
1E-16
41
1
10
22.6791112016927
20
2.28706865766554
30
1E-16
41
1
10
23.1090310704306
20
2.17124855546194
30
1E-16
41
1
10
23.3238043417252
20
2.10771000449552
30
1E-16
41
1
10
23.753372599533
20
1.97041572867033
30
1E-16
41
1
10
23.9683463934603
20
1.89645627585745
30
1E-16
41
1
10
24.3995381929028
20
1.73858620748257
30
-1E-16
41
1
10
24.6150804893779
20
1.65500735527209
30
-1E-16
41
1
10
25.045220324713
20
1.48013845948347
30
-1E-16
41
1
10
25.2601770315748
20
1.38873240031717
30
-1E-16
41
1
10
25.6905841556491
20
1.1991054737579
30
-1E-16
41
1
10
25.9062424991784
20
1.10071050549806
30
-1E-16
41
1
10
26.3367716200065
20
0.898984840844037
30
-1E-16
41
1
10
26.5511344367858
20
0.796074917811353
30
0
41
1
10
27.1920138460799
20
0.483294679584304
30
0
41
1
10
27.6163742003711
20
0.268471048654902
30
0
41
1
10
28.0412111371826
20
0.0536994652383669
30
0
0
SPLINE
5
FD
100
AcDbEntity
8
1
62
256
6
ByLayer
370
18
48
1
60
0
100
AcDbSpline
70
4
71
3
72
28
73
24
40
0
40
0
40
0
40
0
40
0.124999999999998
40
0.124999999999998
40
0.187499999999998
40
0.187499999999998
40
0.249999999999998
40
0.249999999999998
40
0.374999999999997
40
0.374999999999997
40
0.437499999999997
40
0.437499999999997
40
0.499999999999997
40
0.499999999999997
40
0.624999999999998
40
0.624999999999998
40
0.687499999999999
40
0.687499999999999
40
0.749999999999999
40
0.749999999999999
40
0.875
40
0.875
40
1
40
1
40
1
40
1
41
1
10
44.6942625257515
20
-0.109746357194325
30
0
41
1
10
44.6988742643028
20
-0.264679304555642
30
0
41
1
10
44.7094470167908
20
-0.416337100214918
30
0
41
1
10
44.7301080827724
20
-0.639470029566667
30
0
41
1
10
44.7378114807
20
-0.713116201451669
30
0
41
1
10
44.7543113919196
20
-0.85897492323798
30
1E-16
41
1
10
44.7631485520803
20
-0.931497389600793
30
1E-16
41
1
10
44.7902932701407
20
-1.14455787464507
30
1E-16
41
1
10
44.8090336227766
20
-1.27966396622335
30
1E-16
41
1
10
44.8359141758052
20
-1.47245439541103
30
1E-16
41
1
10
44.8446818870944
20
-1.53506126189993
30
1E-16
41
1
10
44.8615999199629
20
-1.6569131575288
30
1E-16
41
1
10
44.8697842293914
20
-1.71641602950888
30
1E-16
41
1
10
44.892802995351
20
-1.88680827599384
30
-1E-16
41
1
10
44.9061476942422
20
-1.99024584976794
30
-1E-16
41
1
10
44.9235157986333
20
-2.13043074944523
30
-1E-16
41
1
10
44.9288744360617
20
-2.17464907564917
30
-1E-16
41
1
10
44.9389271048192
20
-2.25793225300256
30
-1E-16
41
1
10
44.9436353194411
20
-2.29710794238173
30
-1E-16
41
1
10
44.9569749773274
20
-2.40459552301525
30
-1E-16
41
1
10
44.9648748103764
20
-2.46366918731852
30
0
41
1
10
44.9823249075446
20
-2.55704104394644
30
0
41
1
10
44.9919439893577
20
-2.59141332071167
30
0
41
1
10
45.0046443489004
20
-2.61224698491202
30
0
0
SPLINE
5
FE
100
AcDbEntity
8
1
62
256
6
ByLayer
370
18
48
1
60
0
100
AcDbSpline
70
4
71
3
72
24
73
20
40
0
40
0
40
0
40
0
40
0.0093866427786393
40
0.0093866427786393
40
0.317197835605766
40
0.317197835605766
40
0.394150633812548
40
0.394150633812548
40
0.47110343201933
40
0.47110343201933
40
0.625009028432894
40
0.625009028432894
40
0.778914624846458
40
0.778914624846458
40
0.85586742305324
40
0.85586742305324
40
0.932820221260021
40
0.932820221260021
40
1
40
1
40
1
40
1
41
1
10
29.5733990563082
20
-2.63420358638126
30
0
41
1
10
29.5469487716399
20
-2.63479285945545
30
0
41
1
10
29.5205126426007
20
-2.63527723668756
30
0
41
1
10
28.6278151809365
20
-2.64807654736723
30
0
41
1
10
27.7751769462453
20
-2.55123157384224
30
0
41
1
10
26.6997939382279
20
-2.30612139194795
30
-1E-16
41
1
10
26.4842543255368
20
-2.25098535632208
30
-1E-16
41
1
10
26.0516517238848
20
-2.12908416032462
30
-1E-16
41
1
10
25.8340674650313
20
-2.06206241911298
30
-1E-16
41
1
10
25.1823718231949
20
-1.84546909723585
30
-1E-16
41
1
10
24.7491619838613
20
-1.68083426875336
30
1E-16
41
1
10
23.8793439164484
20
-1.31874403564353
30
1E-16
41
1
10
23.4462959465699
20
-1.12275095190179
30
1E-16
41
1
10
22.796123743215
20
-0.814397265271566
30
0
41
1
10
22.5792716396344
20
-0.70919146005312
30
0
41
1
10
22.1447284169751
20
-0.49513371444769
30
0
41
1
10
21.927385180039
20
-0.386518009253621
30
0
41
1
10
21.522525060972
20
-0.182965028374809
30
0
41
1
10
21.3343962094428
20
-0.0877974752154103
30
0
41
1
10
21.1466055913452
20
0.0071712618797335
30
0
0
SPLINE
5
FF
100
AcDbEntity
8
1
62
256
6
ByLayer
370
18
48
1
60
0
100
AcDbSpline
70
4
71
3
72
10
73
6
40
0
40
0
40
0
40
0
40
0.5
40
0.5
40
1
40
1
40
1
40
1
41
1
10
45.0377835141488
20
2.66032106591604
30
0
41
1
10
45.026989528336
20
2.66779230508905
30
0
41
1
10
45.0175917807522
20
2.67166464420586
30
0
41
1
10
45.001363305577
20
2.67219750107884
30
0
41
1
10
44.9944999039382
20
2.6689023027642
30
0
41
1
10
44.9885098304691
20
2.66228899769001
30
0
0
SPLINE
5
100
100
AcDbEntity
8
1
62
256
6
ByLayer
370
18
48
1
60
0
100
AcDbSpline
70
4
71
3
72
8
73
4
40
0
40
0
40
0
40
0
40
1
40
1
40
1
40
1
41
1
10
45.7743822012776
20
0.837681712909188
30
0
41
1
10
45.8499923092578
20
0.624750730143148
30
0
41
1
10
45.9238594657336
20
0.411192791030118
30
0
41
1
10
45.9959608959202
20
0.196999703261923
30
0
0
SPLINE
5
101
100
AcDbEntity
8
1
62
256
6
ByLayer
370
18
48
1
60
0
100
AcDbSpline
70
4
71
3
72
32
73
28
40
0
40
0
40
0
40
0
40
0.0564339912372476
40
0.0564339912372476
40
0.206324978222614
40
0.206324978222614
40
0.281270471715297
40
0.281270471715297
40
0.35621596520798
40
0.35621596520798
40
0.431161458700664
40
0.431161458700664
40
0.506106952193347
40
0.506106952193347
40
0.58105244568603
40
0.58105244568603
40
0.655997939178714
40
0.655997939178714
40
0.730943432671397
40
0.730943432671397
40
0.80588892616408
40
0.80588892616408
40
0.880834419656763
40
0.880834419656763
40
0.955779913149446
40
0.955779913149446
40
1
40
1
40
1
40
1
41
1
10
28.5241034570755
20
-0.201147685465003
30
0
41
1
10
28.3638856674121
20
-0.120401527901635
30
0
41
1
10
28.2037753481729
20
-0.0395434673515354
30
0
41
1
10
27.6182413983822
20
0.255363719415982
30
0
41
1
10
27.1933532240055
20
0.46978684753185
30
0
41
1
10
26.5519251480638
20
0.782015655147717
30
0
41
1
10
26.3375306381105
20
0.884708683207634
30
-1E-16
41
1
10
25.9069499745159
20
1.0860574063021
30
-1E-16
41
1
10
25.6912348656726
20
1.18430627241366
30
-1E-16
41
1
10
25.2607382289774
20
1.37371406785917
30
-1E-16
41
1
10
25.0457391235548
20
1.46505547878607
30
-1E-16
41
1
10
24.6155192095482
20
1.63985425941718
30
-1E-16
41
1
10
24.3999500469258
20
1.72342105748228
30
-1E-16
41
1
10
23.9686644900789
20
1.88137316332978
30
1E-16
41
1
10
23.7536436947566
20
1.95542151809914
30
1E-16
41
1
10
23.3239825277577
20
2.09294323265459
30
1E-16
41
1
10
23.1091641230072
20
2.15662008293538
30
1E-16
41
1
10
22.6791631347335
20
2.27280602942332
30
1E-16
41
1
10
22.4641032531738
20
2.32504530654228
30
1E-16
41
1
10
22.0329389311105
20
2.41751139791589
30
1E-16
41
1
10
21.81781151256
20
2.45781172466838
30
0
41
1
10
21.3893302527229
20
2.52533210435803
30
0
41
1
10
21.1759383664997
20
2.55231504643894
30
0
41
1
10
20.7497686427047
20
2.59341347500939
30
0
41
1
10
20.5368837336096
20
2.60780120830711
30
0
41
1
10
20.1984937939845
20
2.62018134192934
30
0
41
1
10
20.0730240340865
20
2.6221951428949
30
0
41
1
10
19.9475025039111
20
2.62191699131873
30
0
0
SPLINE
5
102
100
AcDbEntity
8
1
62
256
6
ByLayer
370
18
48
1
60
0
100
AcDbSpline
70
4
71
3
72
8
73
4
40
0
40
0
40
0
40
0
40
1
40
1
40
1
40
1
41
1
10
45.9959608959202
20
0.196999703261952
30
0
41
1
10
45.9807794642012
20
0.145661091772297
30
0
41
1
10
45.9655037966363
20
0.094352672679463
30
0
41
1
10
45.9501343333988
20
0.0430743049554394
30
0
0
SPLINE
5
103
100
AcDbEntity
8
1
62
256
6
ByLayer
370
18
48
1
60
0
100
AcDbSpline
70
4
71
3
72
10
73
6
40
0
40
0
40
0
40
0
40
0.5
40
0.5
40
1
40
1
40
1
40
1
41
1
10
44.8548122420083
20
2.73960016134018
30
0
41
1
10
44.8569799261509
20
2.75004782250701
30
0
41
1
10
44.8590362257505
20
2.75821330884312
30
0
41
1
10
44.8627768986322
20
2.76989803345902
30
0
41
1
10
44.8644925729179
20
2.77341720254302
30
0
41
1
10
44.8660988051768
20
2.77453108533018
30
0
0
SPLINE
5
104
100
AcDbEntity
8
1
62
256
6
ByLayer
370
18
48
1
60
0
100
AcDbSpline
70
4
71
3
72
8
73
4
40
0
40
0
40
0
40
0
40
1
40
1
40
1
40
1
41
1
10
45.031156928874
20
2.66479079328187
30
0
41
1
10
45.033365743043
20
2.66330113843384
30
0
41
1
10
45.035574604628
20
2.66181122925659
30
0
41
1
10
45.0377835141485
20
2.66032106591629
30
0
0
SPLINE
5
105
100
AcDbEntity
8
SK1
62
256
6
ByLayer
370
18
48
1
60
0
100
AcDbSpline
70
4
71
3
72
8
73
4
40
0
40
0
40
0
40
0
40
1
40
1
40
1
40
1
41
1
10
-35.75
20
-1.00027424866664
30
1E-16
41
1
10
-35.7837020139353
20
-0.975304061055738
30
1E-16
41
1
10
-35.8173582993255
20
-0.950303959843751
30
1E-16
41
1
10
-35.8509618943233
20
-0.925269390896858
30
1E-16
0
SPLINE
5
106
100
AcDbEntity
8
SK1
62
256
6
ByLayer
370
18
48
1
60
0
100
AcDbSpline
70
4
71
3
72
12
73
8
40
0
40
0
40
0
40
0
40
0.5
40
0.5
40
0.75
40
0.75
40
1
40
1
40
1
40
1
41
1
10
-35.75
20
-2.07008909583303
30
-1E-16
41
1
10
-35.7259913046562
20
-2.08787739857891
30
-1E-16
41
1
10
-35.7033433879313
20
-2.10075592785407
30
-1E-16
41
1
10
-35.6754686754417
20
-2.10954320930392
30
-1E-16
41
1
10
-35.667025596347
20
-2.11070321971809
30
-1E-16
41
1
10
-35.6543350076412
20
-2.10735181683808
30
-1E-16
41
1
10
-35.65
20
-2.1026591294868
30
-1E-16
41
1
10
-35.65
20
-2.09391433419256
30
-1E-16
0
SPLINE
5
107
100
AcDbEntity
8
SK1
62
256
6
ByLayer
370
18
48
1
60
0
100
AcDbSpline
70
4
71
3
72
8
73
4
40
0
40
0
40
0
40
0
40
1
40
1
40
1
40
1
41
1
10
-36.0000000000001
20
-0.593535987081282
30
0
41
1
10
-35.9478735570756
20
-0.702237356075358
30
0
41
1
10
-35.897619057052
20
-0.812479294332945
30
0
41
1
10
-35.8509618943233
20
-0.925269390896887
30
1E-16
0
SPLINE
5
108
100
AcDbEntity
8
SK1
62
256
6
ByLayer
370
18
48
1
60
0
100
AcDbSpline
70
4
71
3
72
8
73
4
40
0
40
0
40
0
40
0
40
1
40
1
40
1
40
1
41
1
10
-35.8509618943233
20
-1.99508423806304
30
0
41
1
10
-35.8173573816528
20
-2.02011949067313
30
0
41
1
10
-35.7837011360242
20
-2.04511955867579
30
-1E-16
41
1
10
-35.7499999999999
20
-2.07008909583288
30
-1E-16
0
SPLINE
5
109
100
AcDbEntity
8
SK1
62
256
6
ByLayer
370
18
48
1
60
0
100
AcDbSpline
70
4
71
3
72
10
73
6
40
0
40
0
40
0
40
0
40
0.5
40
0.5
40
1
40
1
40
1
40
1
41
1
10
-35.8509618943233
20
-1.99508423806304
30
0
41
1
10
-35.8741904300927
20
-1.99632019586358
30
0
41
1
10
-35.8986222732874
20
-1.99429278813295
30
0
41
1
10
-35.9485161922248
20
-1.98471812007972
30
0
41
1
10
-35.974056478015
20
-1.97718703289024
30
0
41
1
10
-35.9999999999999
20
-1.96727526766361
30
0
0
SPLINE
5
10A
100
AcDbEntity
8
SK1
62
256
6
ByLayer
370
18
48
1
60
0
100
AcDbSpline
70
4
71
3
72
12
73
8
40
0
40
0
40
0
40
0
40
0.250000000000001
40
0.250000000000001
40
0.500000000000002
40
0.500000000000002
40
1
40
1
40
1
40
1
41
1
10
-35.65
20
-1.16674146664855
30
1E-16
41
1
10
-35.65
20
-1.15135109913177
30
1E-16
41
1
10
-35.6543403470552
20
-1.13400799849958
30
1E-16
41
1
10
-35.6670034572333
20
-1.10146208974507
30
1E-16
41
1
10
-35.6754069618006
20
-1.08577563814029
30
1E-16
41
1
10
-35.7033744297257
20
-1.04259986061268
30
1E-16
41
1
10
-35.7260009806424
20
-1.01805538236945
30
1E-16
41
1
10
-35.7500000000001
20
-1.00027424866661
30
1E-16
0
SPLINE
5
10B
100
AcDbEntity
8
1
62
256
6
ByLayer
370
18
48
1
60
0
100
AcDbSpline
70
4
71
2
72
6
73
3
40
0
40
0
40
0
40
1
40
1
40
1
41
1
10
3.90197736384218
20
2.60926291967192
30
0
41
1
10
3.75234204239803
20
2.60794354039896
30
0
41
1
10
3.6028087752662
20
2.60603791859208
30
0
0
SPLINE
5
10C
100
AcDbEntity
8
1
62
256
6
ByLayer
370
18
48
1
60
0
100
AcDbSpline
70
4
71
1
72
4
73
2
40
0
40
0
40
1
40
1
41
1
10
45.020568732575
20
-2.67193145679357
30
0
41
1
10
45.0385139338823
20
-2.65984015909038
30
0
0
SPLINE
5
10D
100
AcDbEntity
8
1
62
256
6
ByLayer
370
18
48
1
60
0
100
AcDbSpline
70
4
71
3
72
13
73
9
40
0
40
0
40
0
40
0
40
0.0832941930372728
40
0.217731400732416
40
0.348620636086796
40
0.487320597865535
40
0.700794516607706
40
1
40
1
40
1
40
1
41
1
10
44.544562084464
20
0.704518986530161
30
0
41
1
10
44.4559761906149
20
0.733989548719165
30
0
41
1
10
44.2246545102038
20
0.811763004807403
30
0
41
1
10
43.8555097801417
20
0.940080009385497
30
-1E-16
41
1
10
43.4286214159774
20
1.0915373970943
30
-1E-16
41
1
10
42.9196282393681
20
1.27673954556766
30
-1E-16
41
1
10
42.2356247357521
20
1.53327456428767
30
-1E-16
41
1
10
41.7000828760802
20
1.74276485792009
30
-1E-16
41
1
10
41.3884800787187
20
1.86762888797765
30
-1E-16
0
SPLINE
5
10E
100
AcDbEntity
8
1
62
256
6
ByLayer
370
18
48
1
60
0
100
AcDbSpline
70
4
71
3
72
27
73
23
40
0
40
0
40
0
40
0
40
1.13833926234E-05
40
8.32476895476E-05
40
0.0001428402875548
40
0.0001973679950359
40
0.0003035402825294
40
0.0013953780035238
40
0.002257662252921
40
0.0038203732376154
40
0.0066848508195595
40
0.012103134771291
40
0.0228099798984725
40
0.0452249890442875
40
0.0957927919894013
40
0.216049182848173
40
0.332848709656204
40
0.444523715836477
40
0.559985946071003
40
0.68218504284093
40
0.82679621448677
40
1
40
1
40
1
40
1
41
1
10
30.1712326337101
20
0.0759533104320269
30
0
41
1
10
30.1712347600369
20
0.075953756840164
30
0
41
1
10
30.1712479469072
20
0.0759577172931358
30
0
41
1
10
30.1712403845036
20
0.0759733360143855
30
0
41
1
10
30.171127417193
20
0.0760222834007322
30
0
41
1
10
30.1708843756747
20
0.076108129621133
30
0
41
1
10
30.1689571840535
20
0.0767146350692656
30
0
41
1
10
30.1654172778772
20
0.0777418233639082
30
0
41
1
10
30.1596328767962
20
0.079472553085651
30
0
41
1
10
30.1508392195176
20
0.0820842645374
30
0
41
1
10
30.1345260774137
20
0.0869420112117325
30
0
41
1
10
30.1029760428733
20
0.0963315848837283
30
0
41
1
10
30.0388264338035
20
0.115463773414717
30
0
41
1
10
29.899148285758
20
0.157368274900875
30
0
41
1
10
29.5758803311296
20
0.255703451811087
30
0
41
1
10
29.0944725117737
20
0.406150788064707
30
0
41
1
10
28.5133931423059
20
0.594993270917854
30
0
41
1
10
27.942076037427
20
0.787268423555076
30
0
41
1
10
27.3638561718815
20
0.988517248835649
30
-1E-16
41
1
10
26.7335395195899
20
1.21553233391853
30
-1E-16
41
1
10
26.0109599296289
20
1.48503027156477
30
-1E-16
41
1
10
25.492104995037
20
1.68769173389043
30
-1E-16
41
1
10
25.2101962638001
20
1.80042802879728
30
-1E-16
0
SPLINE
5
10F
100
AcDbEntity
8
1
62
256
6
ByLayer
370
18
48
1
60
0
100
AcDbSpline
70
4
71
3
72
26
73
22
40
0
40
0
40
0
40
0
40
5.08880584588E-05
40
9.74944575311E-05
40
0.0001362284712189
40
0.0003745157077337
40
0.0005485722049618
40
0.0008618274209044
40
0.0014290008808229
40
0.0024666972644888
40
0.0250276463386548
40
0.0986254804288656
40
0.201740674107667
40
0.305268129325524
40
0.408850363691331
40
0.534546307345408
40
0.624247823934819
40
0.68113023496156
40
0.770014782511916
40
0.890888354894921
40
1
40
1
40
1
40
1
41
1
10
13.933587112498
20
0.0442584165402593
30
0
41
1
10
13.9336011669198
20
0.0442577456217634
30
0
41
1
10
13.9336125666767
20
0.0442611425131645
30
0
41
1
10
13.9335530465726
20
0.0442881077925108
30
0
41
1
10
13.9332119308391
20
0.0444070918941861
30
0
41
1
10
13.9324712897949
20
0.0446452173381999
30
0
41
1
10
13.931377054679
20
0.04499927098081
30
0
41
1
10
13.9297543447785
20
0.0455225183590073
30
0
41
1
10
13.9268188280297
20
0.0464668157567587
30
0
41
1
10
13.8897848810891
20
0.0583208401956483
30
0
41
1
10
13.7245680368619
20
0.106725075974708
30
0
41
1
10
13.389338049728
20
0.207397688370918
30
0
41
1
10
12.9137234574521
20
0.354485430747161
30
0
41
1
10
12.3905687373623
20
0.522007143937856
30
0
41
1
10
11.8305354075771
20
0.707321107301141
30
0
41
1
10
11.2957665844734
20
0.890602983272998
30
-1E-16
41
1
10
10.8407750584338
20
1.05156573893854
30
-1E-16
41
1
10
10.4482597167412
20
1.19334033409072
30
-1E-16
41
1
10
10.0048182337361
20
1.35686490792597
30
-1E-16
41
1
10
9.47613342209308
20
1.55696017087052
30
-1E-16
41
1
10
9.09662492502156
20
1.70609263579613
30
-1E-16
41
1
10
8.91694076217769
20
1.77783395743089
30
-1E-16
0
SPLINE
5
110
100
AcDbEntity
8
1
62
256
6
ByLayer
370
18
48
1
60
0
100
AcDbSpline
70
4
71
3
72
17
73
13
40
0
40
0
40
0
40
0
40
0.138395106567359
40
0.244317037101301
40
0.317888750519353
40
0.430464619408818
40
0.576579196488237
40
0.67714365575568
40
0.776617150618359
40
0.867440771028358
40
0.950539084397573
40
1
40
1
40
1
40
1
41
1
10
29.3357251038601
20
-2.62672685615127
30
0
41
1
10
29.5953308259075
20
-2.62696107396772
30
0
41
1
10
30.0536357286886
20
-2.62734323283723
30
0
41
1
10
30.6499855540326
20
-2.62748572366712
30
0
41
1
10
31.1978844957424
20
-2.62800839921721
30
0
41
1
10
31.8211969016397
20
-2.62828259038972
30
0
41
1
10
32.4951418499707
20
-2.62894648903773
30
0
41
1
10
33.1445042081044
20
-2.62887207752601
30
0
41
1
10
33.6901477194789
20
-2.62925421142984
30
0
41
1
10
34.2030241800127
20
-2.63038564647442
30
0
41
1
10
34.6220795382466
20
-2.62942513201466
30
0
41
1
10
34.8707528649331
20
-2.62950868153249
30
0
41
1
10
34.9635384129544
20
-2.6295870206099
30
0
0
SPLINE
5
111
100
AcDbEntity
8
1
62
256
6
ByLayer
370
18
48
1
60
0
100
AcDbSpline
70
4
71
3
72
17
73
13
40
0
40
0
40
0
40
0
40
0.160508170321323
40
0.272694941535656
40
0.342949366011187
40
0.410506901038308
40
0.48184882277684
40
0.558889039922357
40
0.661382830278591
40
0.769939320442752
40
0.889861564990594
40
1
40
1
40
1
40
1
41
1
10
19.9696256747589
20
2.6220430803867
30
0
41
1
10
19.6760704270287
20
2.62212172120559
30
0
41
1
10
19.1773267594512
20
2.62198096004792
30
0
41
1
10
18.5500609987075
20
2.62079234589857
30
0
41
1
10
18.092810205249
20
2.62014423350263
30
0
41
1
10
17.7102627622378
20
2.62102358446182
30
0
41
1
10
17.3153028876815
20
2.62032423371994
30
0
41
1
10
16.8564446318795
20
2.61920295955949
30
0
41
1
10
16.3295169623297
20
2.61988593364094
30
0
41
1
10
15.7241594242204
20
2.61829906603691
30
0
41
1
10
15.104821143652
20
2.61847721983185
30
0
41
1
10
14.684042399827
20
2.61798913935914
30
0
41
1
10
14.4826012178348
20
2.61773876650318
30
0
0
SPLINE
5
112
100
AcDbEntity
8
1
62
256
6
ByLayer
370
18
48
1
60
0
100
AcDbSpline
70
4
71
3
72
16
73
12
40
0
40
0
40
0
40
0
40
0.161690657955422
40
0.274105552187698
40
0.344616600520429
40
0.412911304302587
40
0.484875497061344
40
0.570392604058343
40
0.73429112987833
40
0.885677496141107
40
1
40
1
40
1
40
1
41
1
10
12.9824630315149
20
-2.61628520684408
30
0
41
1
10
13.2781145504291
20
-2.61654644697671
30
0
41
1
10
13.7793225534422
20
-2.61701496172128
30
0
41
1
10
14.4094760956721
20
-2.61746273495487
30
0
41
1
10
14.8688523794313
20
-2.61804816543795
30
0
41
1
10
15.2542627407019
20
-2.61853324606253
30
0
41
1
10
15.6671127082197
20
-2.61841683704554
30
0
41
1
10
16.2547811389425
20
-2.61963690191971
30
0
41
1
10
16.9876831817585
20
-2.61931572414287
30
0
41
1
10
17.773255048324
20
-2.62056729017758
30
0
41
1
10
18.2591217193859
20
-2.62117174867638
30
0
41
1
10
18.4681672891618
20
-2.62138530615022
30
0
0
SPLINE
5
113
100
AcDbEntity
8
1
62
256
6
ByLayer
370
18
48
1
60
0
100
AcDbSpline
70
4
71
3
72
17
73
13
40
0
40
0
40
0
40
0
40
0.1725071427799
40
0.291864689777584
40
0.375155307710518
40
0.466189110445388
40
0.565892805010754
40
0.666689988670308
40
0.813142701373168
40
0.92597909123441
40
0.999721062936613
40
1
40
1
40
1
40
1
41
1
10
36.3239298648268
20
2.63121691553553
30
0
41
1
10
36.0010734070863
20
2.63076519013259
30
0
41
1
10
35.4548276947068
20
2.63033084187111
30
0
41
1
10
34.7526852488389
20
2.62912577139059
30
0
41
1
10
34.2030241800127
20
2.63038564647442
30
0
41
1
10
33.6901477194789
20
2.62925421142984
30
0
41
1
10
33.1445042081044
20
2.62887207752601
30
0
41
1
10
32.4951418499707
20
2.62894648903773
30
0
41
1
10
31.8211969016397
20
2.62828259038972
30
0
41
1
10
31.1978844957423
20
2.62800839921721
30
0
41
1
10
30.8481645307311
20
2.62767477916219
30
0
41
1
10
30.7096263157811
20
2.62758337549212
30
0
41
1
10
30.7091042545812
20
2.6275830316269
30
0
0
SPLINE
5
114
100
AcDbEntity
8
1
62
256
6
ByLayer
370
18
48
1
60
0
100
AcDbSpline
70
4
71
2
72
6
73
3
40
0
40
0
40
0
40
1
40
1
40
1
41
1
10
4.80116592465825
20
0.005132529389499
30
0
41
1
10
4.80114885506299
20
0.0051373045254763
30
0
41
1
10
4.80113178546679
20
0.0051426766472389
30
0
0
LINE
5
84
100
AcDbEntity
8
1
62
256
6
ByLayer
370
18
48
1
60
0
100
AcDbLine
10
18.25
20
1.119847
30
0
11
18.25
21
1.083118
31
0
39
0
210
0
220
0
230
1
0
LINE
5
85
100
AcDbEntity
8
1
62
256
6
ByLayer
370
18
48
1
60
0
100
AcDbLine
10
45.950134
20
0.043074
30
0
11
45.308733
21
0.75107
31
0
39
0
210
0
220
0
230
1
0
LINE
5
86
100
AcDbEntity
8
1
62
256
6
ByLayer
370
18
48
1
60
0
100
AcDbLine
10
3.502063
20
0.742111
30
0
11
3.502063
21
2.747166
31
0
39
0
210
0
220
0
230
1
0
LINE
5
87
100
AcDbEntity
8
1
62
256
6
ByLayer
370
18
48
1
60
0
100
AcDbLine
10
0
20
3
30
0
11
0
21
0
31
0
39
0
210
0
220
0
230
1
0
LINE
5
88
100
AcDbEntity
8
1
62
256
6
ByLayer
370
18
48
1
60
0
100
AcDbLine
10
0
20
0
30
0
11
0
21
-3
31
0
39
0
210
0
220
0
230
1
0
LINE
5
89
100
AcDbEntity
8
1
62
256
6
ByLayer
370
18
48
1
60
0
100
AcDbLine
10
0.863322
20
2.74742
30
0
11
0.863322
21
0
31
0
39
0
210
0
220
0
230
1
0
LINE
5
8A
100
AcDbEntity
8
1
62
256
6
ByLayer
370
18
48
1
60
0
100
AcDbLine
10
0.863322
20
0
30
0
11
0.863322
21
-2.74742
31
0
39
0
210
0
220
0
230
1
0
LINE
5
8B
100
AcDbEntity
8
1
62
256
6
ByLayer
370
18
48
1
60
0
100
AcDbLine
10
0.431411
20
2.87371
30
0
11
0.431411
21
0
31
0
39
0
210
0
220
0
230
1
0
LINE
5
8C
100
AcDbEntity
8
1
62
256
6
ByLayer
370
18
48
1
60
0
100
AcDbLine
10
0.431411
20
0
30
0
11
0.431411
21
-2.87371
31
0
39
0
210
0
220
0
230
1
0
LINE
5
8D
100
AcDbEntity
8
SK1
62
256
6
ByLayer
370
18
48
1
60
0
100
AcDbLine
10
-36
20
2.065
30
0
11
-36
21
-0.593536
31
0
39
0
210
0
220
0
230
1
0
LINE
5
8F
100
AcDbEntity
8
SK1
62
256
6
ByLayer
370
18
48
1
60
0
100
AcDbLine
10
-35.065
20
-3
30
0
11
-35.065
21
3
31
0
39
0
210
0
220
0
230
1
0
LINE
5
90
100
AcDbEntity
8
SK1
62
256
6
ByLayer
370
18
48
1
60
0
100
AcDbLine
10
-35.65
20
-2.093914
30
0
11
-35.65
21
-1.166741
31
0
39
0
210
0
220
0
230
1
0
LINE
5
91
100
AcDbEntity
8
SK1
62
256
6
ByLayer
370
18
48
1
60
0
100
AcDbLine
10
0
20
3
30
0
11
0
21
-3
31
0
39
0
210
0
220
0
230
1
0
LINE
5
92
100
AcDbEntity
8
SK1
62
256
6
ByLayer
370
18
48
1
60
0
100
AcDbLine
10
-35.850962
20
-1.995084
30
0
11
-35.850962
21
-0.925231
31
0
39
0
210
0
220
0
230
1
0
LINE
5
93
100
AcDbEntity
8
SK1
62
256
6
ByLayer
370
18
48
1
60
0
100
AcDbLine
10
-36
20
-2.065
30
0
11
-36
21
-1.967275
31
0
39
0
210
0
220
0
230
1
0
LINE
5
94
100
AcDbEntity
8
SK1
62
256
6
ByLayer
370
18
48
1
60
0
100
AcDbLine
10
-36
20
-1.967275
30
0
11
-36
21
-0.59356
31
0
39
0
210
0
220
0
230
1
0
LINE
5
95
100
AcDbEntity
8
SK1
62
256
6
ByLayer
370
18
48
1
60
0
100
AcDbLine
10
-35.75
20
-2.070089
30
0
11
-35.75
21
-1.000259
31
0
39
0
210
0
220
0
230
1
0
LINE
5
96
100
AcDbEntity
8
SK1
62
256
6
ByLayer
370
18
48
1
60
0
100
AcDbLine
10
-36
20
-2.065
30
0
11
-35.065
21
-3
31
0
39
0
210
0
220
0
230
1
0
LINE
5
97
100
AcDbEntity
8
SK1
62
256
6
ByLayer
370
18
48
1
60
0
100
AcDbLine
10
-35.065
20
3
30
0
11
-36
21
2.065
31
0
39
0
210
0
220
0
230
1
0
LINE
5
98
100
AcDbEntity
8
SK1
62
256
6
ByLayer
370
18
48
1
60
0
100
AcDbLine
10
-35.065
20
-3
30
0
11
0
21
-3
31
0
39
0
210
0
220
0
230
1
0
LINE
5
99
100
AcDbEntity
8
SK1
62
256
6
ByLayer
370
18
48
1
60
0
100
AcDbLine
10
0
20
3
30
0
11
-35.065
21
3
31
0
39
0
210
0
220
0
230
1
0
LINE
5
9A
100
AcDbEntity
8
1
62
256
6
ByLayer
370
18
48
1
60
0
100
AcDbLine
10
0.863322
20
-2.74742
30
0
11
3.598916
21
-2.749129
31
0
39
0
210
0
220
0
230
1
0
LINE
5
9B
100
AcDbEntity
8
1
62
256
6
ByLayer
370
18
48
1
60
0
100
AcDbLine
10
3.598916
20
-2.749129
30
0
11
3.667589
21
-2.749172
31
0
39
0
210
0
220
0
230
1
0
LINE
5
9C
100
AcDbEntity
8
1
62
256
6
ByLayer
370
18
48
1
60
0
100
AcDbLine
10
3.667589
20
-2.749172
30
0
11
4.395127
21
-2.749627
31
0
39
0
210
0
220
0
230
1
0
LINE
5
9D
100
AcDbEntity
8
1
62
256
6
ByLayer
370
18
48
1
60
0
100
AcDbLine
10
12.175575
20
-2.75449
30
0
11
12.985398
21
-2.754996
31
0
39
0
210
0
220
0
230
1
0
LINE
5
9E
100
AcDbEntity
8
1
62
256
6
ByLayer
370
18
48
1
60
0
100
AcDbLine
10
19.971798
20
-2.759362
30
0
11
20.731775
21
-2.759837
31
0
39
0
210
0
220
0
230
1
0
LINE
5
9F
100
AcDbEntity
8
1
62
256
6
ByLayer
370
18
48
1
60
0
100
AcDbLine
10
28.599687
20
-2.764755
30
0
11
29.337009
21
-2.765216
31
0
39
0
210
0
220
0
230
1
0
LINE
5
A0
100
AcDbEntity
8
1
62
256
6
ByLayer
370
18
48
1
60
0
100
AcDbLine
10
36.322451
20
-2.769581
30
0
11
37.064601
21
-2.770045
31
0
39
0
210
0
220
0
230
1
0
LINE
5
A1
100
AcDbEntity
8
1
62
256
6
ByLayer
370
18
48
1
60
0
100
AcDbLine
10
37.064601
20
2.770045
30
0
11
36.322451
21
2.769581
31
0
39
0
210
0
220
0
230
1
0
LINE
5
A2
100
AcDbEntity
8
1
62
256
6
ByLayer
370
18
48
1
60
0
100
AcDbLine
10
29.337009
20
2.765216
30
0
11
28.599687
21
2.764755
31
0
39
0
210
0
220
0
230
1
0
LINE
5
A3
100
AcDbEntity
8
1
62
256
6
ByLayer
370
18
48
1
60
0
100
AcDbLine
10
20.731775
20
2.759837
30
0
11
19.971798
21
2.759362
31
0
39
0
210
0
220
0
230
1
0
LINE
5
A4
100
AcDbEntity
8
1
62
256
6
ByLayer
370
18
48
1
60
0
100
AcDbLine
10
12.985398
20
2.754996
30
0
11
12.175575
21
2.75449
31
0
39
0
210
0
220
0
230
1
0
LINE
5
A5
100
AcDbEntity
8
1
62
256
6
ByLayer
370
18
48
1
60
0
100
AcDbLine
10
4.395127
20
2.749627
30
0
11
3.667589
21
2.749172
31
0
39
0
210
0
220
0
230
1
0
LINE
5
A6
100
AcDbEntity
8
1
62
256
6
ByLayer
370
18
48
1
60
0
100
AcDbLine
10
3.667589
20
2.749172
30
0
11
3.598916
21
2.749129
31
0
39
0
210
0
220
0
230
1
0
LINE
5
A7
100
AcDbEntity
8
1
62
256
6
ByLayer
370
18
48
1
60
0
100
AcDbLine
10
3.598916
20
2.749129
30
0
11
0.863322
21
2.74742
31
0
39
0
210
0
220
0
230
1
0
LINE
5
A8
100
AcDbEntity
8
SK4
62
256
6
ByLayer
370
18
48
0.05
60
0
100
AcDbLine
10
51
20
0
30
0
11
-41
21
0
31
0
39
0
210
0
220
0
230
1
0
LINE
5
AA
100
AcDbEntity
8
4
62
256
6
ByLayer
370
18
48
0.05
60
0
100
AcDbLine
10
-36
20
0
30
0
11
51
21
0
31
0
39
0
210
0
220
0
230
1
0
LINE
5
AC
100
AcDbEntity
8
80
62
256
6
ByLayer
370
18
48
1
60
0
100
AcDbLine
10
0
20
0
30
0
11
-6
21
0
31
0
39
0
210
0
220
0
230
1
0
LINE
5
AD
100
AcDbEntity
8
81
62
256
6
ByLayer
370
18
48
1
60
0
100
AcDbLine
10
46
20
0
30
0
11
52
21
0
31
0
39
0
210
0
220
0
230
1
0
LINE
5
AE
100
AcDbEntity
8
SK2
62
256
6
ByLayer
370
13
48
1
60
0
100
AcDbLine
10
46.542949
20
1.491765
30
0
11
53.926196
21
21.77742
31
0
39
0
210
0
220
0
230
1
0
LINE
5
B0
100
AcDbEntity
8
SK2
62
256
6
ByLayer
370
13
48
1
60
0
100
AcDbLine
10
46.542949
20
-1.491765
30
0
11
53.926196
21
-21.77742
31
0
39
0
210
0
220
0
230
1
0
LINE
5
B1
100
AcDbEntity
8
1
62
256
6
ByLayer
370
13
48
1
60
0
100
AcDbLine
10
52.840299
20
18.79389
30
0
11
55.936894
21
17.977535
31
0
39
0
210
0
220
0
230
1
0
LINE
5
B2
100
AcDbEntity
8
1
62
256
6
ByLayer
370
13
48
1
60
0
100
AcDbLine
10
52.840299
20
18.79389
30
0
11
55.620094
21
17.203893
31
0
39
0
210
0
220
0
230
1
0
LINE
5
B3
100
AcDbEntity
8
1
62
256
6
ByLayer
370
13
48
1
60
0
100
AcDbLine
10
55.936894
20
17.977535
30
0
11
55.620094
21
17.203893
31
0
39
0
210
0
220
0
230
1
0
LINE
5
B4
100
AcDbEntity
8
1
62
256
6
ByLayer
370
13
48
1
60
0
100
AcDbLine
10
52.840299
20
-18.79389
30
0
11
55.620092
21
-17.203894
31
0
39
0
210
0
220
0
230
1
0
LINE
5
B5
100
AcDbEntity
8
1
62
256
6
ByLayer
370
13
48
1
60
0
100
AcDbLine
10
52.840299
20
-18.79389
30
0
11
55.936897
21
-17.977534
31
0
39
0
210
0
220
0
230
1
0
LINE
5
B6
100
AcDbEntity
8
1
62
256
6
ByLayer
370
13
48
1
60
0
100
AcDbLine
10
55.620092
20
-17.203894
30
0
11
55.936897
21
-17.977534
31
0
39
0
210
0
220
0
230
1
0
MTEXT
5
115
100
AcDbEntity
8
SK2
62
256
6
ByLayer
370
18
48
1
60
0
100
AcDbMText
10
59.717388
20
-2.467451
30
0
210
0
220
0
230
1
1
\W0.7237;140.00
40
3.50012
41
0
44
1.084337
50
0
71
7
72
5
7
iso_b_vert
0
MTEXT
5
118
100
AcDbEntity
8
SK6
62
256
6
ByLayer
370
18
48
1
60
0
100
AcDbMText
10
-34.331725
20
-125.174065
30
0
210
0
220
0
230
1
1
\W0.7454;860.1-0555-028A1-GM X1BM
40
3.175
41
0
44
1.084337
50
0
71
7
72
5
7
iso_b_vert
0
DIMENSION
5
11B
100
AcDbEntity
8
SK2
62
256
6
ByLayer
370
18
48
1
60
0
100
AcDbDimension
2
_U0
10
46
20
-26.50012
30
0
11
23
21
-26.50012
31
0
70
32
71
2
72
1
41
1
210
0
220
0
230
1
3
Standard
100
AcDbAlignedDimension
13
0
23
-3
33
0
14
46
24
0
34
0
50
0
100
AcDbRotatedDimension
1001
ACAD
1000
DSTYLE
1002
{
1070
   371
1070
    13
1070
   372
1070
    13
1070
     3
1000

1070
   170
1070
     0
1070
   144
1040
1.0
1070
   277
1070
     2
1070
   284
1070
     8
1070
   278
1070
    46
1070
   146
1040
0.999966
1070
   345
1005
16
1070
   347
1005
16
1070
   346
1005
16
1070
   344
1005
11C
1070
   343
1005
11C
1070
   172
1070
     1
1070
    76
1070
     0
1070
    75
1070
     0
1070
   282
1070
     0
1070
   281
1070
     0
1070
    71
1070
     0
1070
    74
1070
     0
1070
   279
1070
     0
1070
   173
1070
     1
1070
   340
1005
116
1070
   271
1070
     1
1070
   272
1070
     2
1070
    77
1070
     1
1070
    73
1070
     1
1070
   171
1070
     3
1070
   274
1070
     4
1070
   177
1070
   150
1070
   176
1070
     9
1070
   178
1070
    43
1070
    78
1070
     8
1070
    48
1040
-0.1
1070
    41
1040
3.175
1070
   147
1040
1.75006
1070
    42
1040
1.5875
1070
    44
1040
3.175
1070
   140
1040
3.50012
1002
}
1001
ACAD_DSTYLE_DIM_LINETYPE
1070
   380
1005
16
1001
ACAD_DSTYLE_DIM_EXT1_LINETYPE
1070
   381
1005
16
1001
ACAD_DSTYLE_DIM_EXT2_LINETYPE
1070
   382
1005
16
0
DIMENSION
5
141
100
AcDbEntity
8
2
62
256
6
ByLayer
370
18
48
1
60
0
100
AcDbDimension
2
_U1
10
52.75006
20
2.775
30
0
11
52.75006
21
18.348233
31
0
70
32
71
1
72
1
41
1
210
0
220
0
230
1
3
Standard
100
AcDbAlignedDimension
13
44.99
23
-2.775
33
0
14
44.99
24
2.775
34
0
50
90
100
AcDbRotatedDimension
1001
ACAD
1000
DSTYLE
1002
{
1070
   371
1070
    13
1070
   372
1070
    13
1070
     3
1000

1070
   170
1070
     0
1070
   144
1040
1.0
1070
   277
1070
     2
1070
   284
1070
     8
1070
   278
1070
    46
1070
   146
1040
0.999966
1070
   345
1005
16
1070
   347
1005
16
1070
   346
1005
16
1070
   344
1005
11C
1070
   343
1005
11C
1070
   172
1070
     1
1070
    76
1070
     0
1070
    75
1070
     0
1070
   282
1070
     0
1070
   281
1070
     0
1070
    71
1070
     0
1070
    74
1070
     0
1070
   279
1070
     0
1070
   173
1070
     1
1070
   340
1005
116
1070
   271
1070
     1
1070
   272
1070
     2
1070
    77
1070
     1
1070
    73
1070
     0
1070
   171
1070
     3
1070
   274
1070
     4
1070
   177
1070
   150
1070
   176
1070
     9
1070
   178
1070
    43
1070
    78
1070
     8
1070
    48
1040
-0.1
1070
    41
1040
3.175
1070
   147
1040
1.75006
1070
    42
1040
1.5875
1070
    44
1040
3.175
1070
   140
1040
3.50012
1002
}
1001
ACAD_DSTYLE_DIM_LINETYPE
1070
   380
1005
16
1001
ACAD_DSTYLE_DIM_EXT1_LINETYPE
1070
   381
1005
16
1001
ACAD_DSTYLE_DIM_EXT2_LINETYPE
1070
   382
1005
16
0
DIMENSION
5
160
100
AcDbEntity
8
SK2
62
256
6
ByLayer
370
18
48
1
60
0
100
AcDbDimension
2
_U2
10
-39.24994
20
-3
30
0
11
-39.24994
21
17.10734
31
0
70
32
71
1
72
1
41
1
210
0
220
0
230
1
3
Standard
100
AcDbAlignedDimension
13
-36
23
3
33
0
14
-36
24
-3
34
0
50
90
100
AcDbRotatedDimension
1001
ACAD
1000
DSTYLE
1002
{
1070
   371
1070
    13
1070
   372
1070
    13
1070
     3
1000

1070
   170
1070
     0
1070
   144
1040
1.0
1070
   277
1070
     2
1070
   284
1070
     8
1070
   278
1070
    46
1070
   146
1040
0.999966
1070
   345
1005
16
1070
   347
1005
16
1070
   346
1005
16
1070
   344
1005
11C
1070
   343
1005
11C
1070
   172
1070
     1
1070
    76
1070
     0
1070
    75
1070
     0
1070
   282
1070
     0
1070
   281
1070
     0
1070
    71
1070
     0
1070
    74
1070
     0
1070
   279
1070
     0
1070
   173
1070
     1
1070
   340
1005
116
1070
   271
1070
     1
1070
   272
1070
     2
1070
    77
1070
     1
1070
    73
1070
     0
1070
   171
1070
     3
1070
   274
1070
     4
1070
   177
1070
   150
1070
   176
1070
     9
1070
   178
1070
    43
1070
    78
1070
     8
1070
    48
1040
-0.1
1070
    41
1040
3.175
1070
   147
1040
1.75006
1070
    42
1040
1.5875
1070
    44
1040
3.175
1070
   140
1040
3.50012
1002
}
1001
ACAD_DSTYLE_DIM_LINETYPE
1070
   380
1005
16
1001
ACAD_DSTYLE_DIM_EXT1_LINETYPE
1070
   381
1005
16
1001
ACAD_DSTYLE_DIM_EXT2_LINETYPE
1070
   382
1005
16
0
DIMENSION
5
17E
100
AcDbEntity
8
SK2
62
256
6
ByLayer
370
18
48
1
60
0
100
AcDbDimension
2
_U3
10
0
20
-26.50012
30
0
11
-18
21
-26.50012
31
0
70
32
71
1
72
1
41
1
210
0
220
0
230
1
3
Standard
100
AcDbAlignedDimension
13
-36
23
-3
33
0
14
0
24
-3
34
0
50
0
100
AcDbRotatedDimension
1001
ACAD
1000
DSTYLE
1002
{
1070
   371
1070
    13
1070
   372
1070
    13
1070
     3
1000

1070
   170
1070
     0
1070
   144
1040
1.0
1070
   277
1070
     2
1070
   284
1070
     8
1070
   278
1070
    46
1070
   146
1040
0.999966
1070
   345
1005
16
1070
   347
1005
16
1070
   346
1005
16
1070
   344
1005
11C
1070
   343
1005
11C
1070
   172
1070
     1
1070
    76
1070
     0
1070
    75
1070
     0
1070
   282
1070
     0
1070
   281
1070
     0
1070
    71
1070
     0
1070
    74
1070
     0
1070
   279
1070
     0
1070
   173
1070
     1
1070
   340
1005
116
1070
   271
1070
     1
1070
   272
1070
     2
1070
    77
1070
     1
1070
    73
1070
     1
1070
   171
1070
     3
1070
   274
1070
     4
1070
   177
1070
   150
1070
   176
1070
     9
1070
   178
1070
    43
1070
    78
1070
     8
1070
    48
1040
-0.1
1070
    41
1040
3.175
1070
   147
1040
1.75006
1070
    42
1040
1.5875
1070
    44
1040
3.175
1070
   140
1040
3.50012
1002
}
1001
ACAD_DSTYLE_DIM_LINETYPE
1070
   380
1005
16
1001
ACAD_DSTYLE_DIM_EXT1_LINETYPE
1070
   381
1005
16
1001
ACAD_DSTYLE_DIM_EXT2_LINETYPE
1070
   382
1005
16
0
DIMENSION
5
19A
100
AcDbEntity
8
SK2
62
256
6
ByLayer
370
18
48
1
60
0
100
AcDbDimension
2
_U4
10
46
20
-17.74982
30
0
11
24
21
-17.74982
31
0
70
32
71
1
72
1
41
1
210
0
220
0
230
1
3
Standard
100
AcDbAlignedDimension
13
2
23
3.275
33
0
14
46
24
0
34
0
50
0
100
AcDbRotatedDimension
1001
ACAD
1000
DSTYLE
1002
{
1070
   371
1070
    13
1070
   372
1070
    13
1070
     3
1000

1070
   170
1070
     0
1070
   144
1040
1.0
1070
   277
1070
     2
1070
   284
1070
     8
1070
   278
1070
    46
1070
   146
1040
0.999966
1070
   345
1005
16
1070
   347
1005
16
1070
   346
1005
16
1070
   344
1005
11C
1070
   343
1005
11C
1070
   172
1070
     1
1070
    76
1070
     0
1070
    75
1070
     0
1070
   282
1070
     0
1070
   281
1070
     0
1070
    71
1070
     0
1070
    74
1070
     0
1070
   279
1070
     0
1070
   173
1070
     1
1070
   340
1005
116
1070
   271
1070
     1
1070
   272
1070
     2
1070
    77
1070
     1
1070
    73
1070
     1
1070
   171
1070
     3
1070
   274
1070
     4
1070
   177
1070
   150
1070
   176
1070
     9
1070
   178
1070
    43
1070
    78
1070
     8
1070
    48
1040
-0.1
1070
    41
1040
3.175
1070
   147
1040
1.75006
1070
    42
1040
1.5875
1070
    44
1040
3.175
1070
   140
1040
3.50012
1002
}
1001
ACAD_DSTYLE_DIM_LINETYPE
1070
   380
1005
16
1001
ACAD_DSTYLE_DIM_EXT1_LINETYPE
1070
   381
1005
16
1001
ACAD_DSTYLE_DIM_EXT2_LINETYPE
1070
   382
1005
16
0
DIMENSION
5
1B6
100
AcDbEntity
8
SK2
62
256
6
ByLayer
370
18
48
1
60
0
100
AcDbDimension
2
_U5
10
46
20
-9.82
30
0
11
31.6
21
-9.82
31
0
70
32
71
1
72
1
41
1
210
0
220
0
230
1
3
Standard
100
AcDbAlignedDimension
13
17.2
23
-2.775
33
0
14
46
24
0
34
0
50
0
100
AcDbRotatedDimension
1001
ACAD
1000
DSTYLE
1002
{
1070
   371
1070
    13
1070
   372
1070
    13
1070
     3
1000

1070
   170
1070
     0
1070
   144
1040
1.0
1070
   277
1070
     2
1070
   284
1070
     8
1070
   278
1070
    46
1070
   146
1040
1.25
1070
   345
1005
16
1070
   347
1005
16
1070
   346
1005
16
1070
   344
1005
11C
1070
   343
1005
11C
1070
   172
1070
     1
1070
    76
1070
     0
1070
    75
1070
     0
1070
   282
1070
     0
1070
   281
1070
     0
1070
    71
1070
     0
1070
    74
1070
     0
1070
   279
1070
     0
1070
   173
1070
     1
1070
   340
1005
116
1070
   271
1070
     1
1070
   272
1070
     2
1070
    77
1070
     1
1070
    73
1070
     1
1070
   171
1070
     3
1070
   274
1070
     4
1070
   177
1070
   150
1070
   176
1070
     9
1070
   178
1070
    43
1070
    78
1070
     8
1070
    48
1040
-0.1
1070
    41
1040
3.175
1070
   147
1040
0.42
1070
    42
1040
1.5875
1070
    44
1040
0.5
1070
   140
1040
2.8
1002
}
1001
ACAD_DSTYLE_DIM_LINETYPE
1070
   380
1005
16
1001
ACAD_DSTYLE_DIM_EXT1_LINETYPE
1070
   381
1005
16
1001
ACAD_DSTYLE_DIM_EXT2_LINETYPE
1070
   382
1005
16
0
DIMENSION
5
1D2
100
AcDbEntity
8
SK2
62
256
6
ByLayer
370
18
48
1
60
0
100
AcDbDimension
2
_U6
10
46
20
-36.50012
30
0
11
5
21
-36.50012
31
0
70
32
71
1
72
1
41
1
210
0
220
0
230
1
3
Standard
100
AcDbAlignedDimension
13
-36
23
0
33
0
14
46
24
0
34
0
50
0
100
AcDbRotatedDimension
1001
ACAD
1000
DSTYLE
1002
{
1070
   371
1070
    13
1070
   372
1070
    13
1070
     3
1000

1070
   170
1070
     0
1070
   144
1040
1.0
1070
   277
1070
     2
1070
   284
1070
     8
1070
   278
1070
    46
1070
   146
1040
0.999966
1070
   345
1005
16
1070
   347
1005
16
1070
   346
1005
16
1070
   344
1005
11C
1070
   343
1005
11C
1070
   172
1070
     1
1070
    76
1070
     0
1070
    75
1070
     0
1070
   282
1070
     0
1070
   281
1070
     0
1070
    71
1070
     0
1070
    74
1070
     0
1070
   279
1070
     0
1070
   173
1070
     1
1070
   340
1005
116
1070
   271
1070
     1
1070
   272
1070
     2
1070
    77
1070
     1
1070
    73
1070
     1
1070
   171
1070
     3
1070
   274
1070
     4
1070
   177
1070
   150
1070
   176
1070
     9
1070
   178
1070
    43
1070
    78
1070
     8
1070
    48
1040
-0.1
1070
    41
1040
3.175
1070
   147
1040
1.75006
1070
    42
1040
1.5875
1070
    44
1040
3.175
1070
   140
1040
3.50012
1002
}
1001
ACAD_DSTYLE_DIM_LINETYPE
1070
   380
1005
16
1001
ACAD_DSTYLE_DIM_EXT1_LINETYPE
1070
   381
1005
16
1001
ACAD_DSTYLE_DIM_EXT2_LINETYPE
1070
   382
1005
16
0
ENDSEC
0
SECTION
2
OBJECTS
0
DICTIONARY
5
25e
330
0
100
AcDbDictionary
280
0
281
1
3
ACAD_GROUP
350
25f
3
ACAD_MLINESTYLE
350
260
0
DICTIONARY
5
25f
330
0
100
AcDbDictionary
280
0
281
1
0
DICTIONARY
5
260
330
0
100
AcDbDictionary
280
0
281
1
3
Standard
350
18
0
MLINESTYLE
5
18
330
260
100
AcDbMlineStyle
2
Standard
70
0
3

62
256
51
90
52
90
71
2
49
-0.5
62
256
6
ByLayer
49
0.5
62
256
6
ByLayer
0
RASTERVARIABLES
5
24c
330

100
AcDbRasterVariables
90
0
70
1
71
1
72
1
0
ENDSEC
0
EOF
