0
SECTION
2
HEADER
9
$ACADVER
1
AC1015
9
$DWGCODEPAGE
3
ANSI_1252
9
$HANDSEED
5
26a
9
$ANGBASE
50
0
9
$ANGDIR
70
0
9
$ATTMODE
70
1
9
$AUNITS
70
0
9
$AUPREC
70
0
9
$CECOLOR
62
256
9
$CELTSCALE
40
1
9
$CELTYPE
6
ByLayer
9
$CELWEIGHT
370
18
9
$CLAYER
8
0
9
$CMLJUST
70
0
9
$CMLSCALE
40
1
9
$CMLSTYLE
2
Standard
9
$DIMSTYLE
2
Standard
9
$TEXTSIZE
40
0.2
9
$TEXTSTYLE
7
Standard
9
$LUNITS
70
2
9
$LUPREC
70
4
9
$EXTNAMES
290
1
9
$INSUNITS
70
4
9
$LTSCALE
40
1
9
$LWDISPLAY
290
1
9
$PDMODE
70
0
9
$PDSIZE
40
0
9
$PLINEGEN
70
0
0
ENDSEC
0
SECTION
2
CLASSES
0
CLASS
1
RASTERVARIABLES
2
AcDbRasterVariables
3
ISM
90
0
280
0
281
0
0
ENDSEC
0
SECTION
2
TABLES
0
TABLE
2
VPORT
5
260
100
AcDbSymbolTable
0
VPORT
5
1
100
AcDbSymbolTableRecord
100
AcDbViewportTableRecord
2
*Active
70
0
10
0
20
0
11
1
21
1
12
-1
22
1
13
0
23
0
14
0.5
24
0.5
15
10
25
10
16
0
26
0
36
1
17
0
27
0
37
0
0
ENDTAB
0
TABLE
2
LTYPE
5
261
100
AcDbSymbolTable
0
LTYPE
5
14
100
AcDbSymbolTableRecord
100
AcDbLinetypeTableRecord
70
0
2
ByBlock
3

72
65
73
0
40
0
0
LTYPE
5
15
100
AcDbSymbolTableRecord
100
AcDbLinetypeTableRecord
70
0
2
ByLayer
3

72
65
73
0
40
0
0
LTYPE
5
16
100
AcDbSymbolTableRecord
100
AcDbLinetypeTableRecord
70
0
2
Continuous
3
Solid line
72
65
73
0
40
0
0
LTYPE
5
6E
100
AcDbSymbolTableRecord
100
AcDbLinetypeTableRecord
70
0
2
CENTER
3
____ _ ____ _ ____ _ ____
72
65
73
4
40
47.5
49
22
74
0
49
-8.5
74
0
49
8.5
74
0
49
-8.5
74
0
0
LTYPE
5
6F
100
AcDbSymbolTableRecord
100
AcDbLinetypeTableRecord
70
0
2
DASHED
3
__ __ __ __ __ __ __ __ __
72
65
73
2
40
25.72
49
12.86
74
0
49
-12.86
74
0
0
ENDTAB
0
TABLE
2
LAYER
5
262
100
AcDbSymbolTable
0
LAYER
5
10
100
AcDbSymbolTableRecord
100
AcDbLayerTableRecord
2
0
70
0
62
7
6
Continuous
290
1
370
-3
390
0
0
LAYER
5
71
100
AcDbSymbolTableRecord
100
AcDbLayerTableRecord
2
80
70
0
62
-6
6
Continuous
290
1
370
-3
390
0
0
LAYER
5
73
100
AcDbSymbolTableRecord
100
AcDbLayerTableRecord
2
81
70
0
62
-3
6
Continuous
290
1
370
-3
390
0
0
LAYER
5
75
100
AcDbSymbolTableRecord
100
AcDbLayerTableRecord
2
1
70
0
62
4
6
Continuous
290
1
370
-3
390
0
0
LAYER
5
A7
100
AcDbSymbolTableRecord
100
AcDbLayerTableRecord
2
4
70
0
62
-2
6
CENTER
290
1
370
-3
390
0
0
LAYER
5
124
100
AcDbSymbolTableRecord
100
AcDbLayerTableRecord
2
Defpoints
70
0
62
7
6
Continuous
290
0
370
-3
390
0
0
LAYER
5
151
100
AcDbSymbolTableRecord
100
AcDbLayerTableRecord
2
2
70
0
62
7
6
Continuous
290
1
370
-3
390
0
0
LAYER
5
24c
100
AcDbSymbolTableRecord
100
AcDbLayerTableRecord
2
SK1
70
0
62
4
6
Continuous
290
1
370
-3
390
0
0
LAYER
5
24d
100
AcDbSymbolTableRecord
100
AcDbLayerTableRecord
2
SK4
70
0
62
2
6
CENTER
290
1
370
-3
390
0
0
LAYER
5
24e
100
AcDbSymbolTableRecord
100
AcDbLayerTableRecord
2
SK2
70
0
62
7
6
Continuous
290
1
370
-3
390
0
0
LAYER
5
24f
100
AcDbSymbolTableRecord
100
AcDbLayerTableRecord
2
SK6
70
0
62
5
6
Continuous
290
1
370
-3
390
0
0
ENDTAB
0
TABLE
2
STYLE
5
263
100
AcDbSymbolTable
0
STYLE
5
11
100
AcDbSymbolTableRecord
100
AcDbTextStyleTableRecord
2
Standard
3
txt
70
0
71
0
40
0
41
1
42
0
50
0
0
STYLE
5
115
100
AcDbSymbolTableRecord
100
AcDbTextStyleTableRecord
2
iso_b_vert
3
simplex.shx
70
0
71
0
40
0
41
1
42
0
50
0
0
STYLE
5
116
100
AcDbSymbolTableRecord
100
AcDbTextStyleTableRecord
2
DWGDirectTextStyle
3
simplex
70
0
71
0
40
0
41
1
42
0
50
0
0
ENDTAB
0
TABLE
2
DIMSTYLE
5
264
100
AcDbSymbolTable
100
AcDbDimStyleTable
0
DIMSTYLE
105
27
100
AcDbSymbolTableRecord
100
AcDbDimStyleTableRecord
2
Standard
70
0
3
<>
41
0.18
42
0.0625
44
0.18
140
0.18
147
0.09
73
0
74
0
77
1
271
2
275
0
278
52
280
0
340
11
0
ENDTAB
0
TABLE
2
VIEW
5
265
100
AcDbSymbolTable
0
ENDTAB
0
TABLE
2
UCS
5
266
100
AcDbSymbolTable
0
ENDTAB
0
TABLE
2
APPID
5
267
100
AcDbSymbolTable
0
APPID
5
12
100
AcDbSymbolTableRecord
100
AcDbRegAppTableRecord
2
ACAD
70
0
0
APPID
5
119
100
AcDbSymbolTableRecord
100
AcDbRegAppTableRecord
2
ACAD_DSTYLE_DIMBREAK
70
0
0
APPID
5
20B
100
AcDbSymbolTableRecord
100
AcDbRegAppTableRecord
2
ACAD_DSTYLE_DIM_LINETYPE
70
0
0
APPID
5
20C
100
AcDbSymbolTableRecord
100
AcDbRegAppTableRecord
2
ACAD_DSTYLE_DIM_EXT1_LINETYPE
70
0
0
APPID
5
20D
100
AcDbSymbolTableRecord
100
AcDbRegAppTableRecord
2
ACAD_DSTYLE_DIM_EXT2_LINETYPE
70
0
0
APPID
5
248
100
AcDbSymbolTableRecord
100
AcDbRegAppTableRecord
2
ACAD_MLEADERVER
70
0
0
ENDTAB
0
TABLE
2
BLOCK_RECORD
5
268
100
AcDbSymbolTable
0
BLOCK_RECORD
5
1F
100
AcDbSymbolTableRecord
100
AcDbBlockTableRecord
2
*Model_Space
340
0
70
0
0
BLOCK_RECORD
5
1B
100
AcDbSymbolTableRecord
100
AcDbBlockTableRecord
2
*Paper_Space
340
0
70
0
0
BLOCK_RECORD
5
23
100
AcDbSymbolTableRecord
100
AcDbBlockTableRecord
2
*Paper_Space0
340
0
70
0
0
BLOCK_RECORD
5
11B
100
AcDbSymbolTableRecord
100
AcDbBlockTableRecord
2
_Closed
340
0
70
0
0
BLOCK_RECORD
5
125
100
AcDbSymbolTableRecord
100
AcDbBlockTableRecord
2
*D2
340
0
70
0
0
BLOCK_RECORD
5
131
100
AcDbSymbolTableRecord
100
AcDbBlockTableRecord
2
_U0
340
0
70
0
0
BLOCK_RECORD
5
143
100
AcDbSymbolTableRecord
100
AcDbBlockTableRecord
2
*D4
340
0
70
0
0
BLOCK_RECORD
5
152
100
AcDbSymbolTableRecord
100
AcDbBlockTableRecord
2
_U1
340
0
70
0
0
BLOCK_RECORD
5
162
100
AcDbSymbolTableRecord
100
AcDbBlockTableRecord
2
*D6
340
0
70
0
0
BLOCK_RECORD
5
170
100
AcDbSymbolTableRecord
100
AcDbBlockTableRecord
2
_U2
340
0
70
0
0
BLOCK_RECORD
5
180
100
AcDbSymbolTableRecord
100
AcDbBlockTableRecord
2
*D8
340
0
70
0
0
BLOCK_RECORD
5
18C
100
AcDbSymbolTableRecord
100
AcDbBlockTableRecord
2
_U3
340
0
70
0
0
BLOCK_RECORD
5
19C
100
AcDbSymbolTableRecord
100
AcDbBlockTableRecord
2
*D10
340
0
70
0
0
BLOCK_RECORD
5
1A8
100
AcDbSymbolTableRecord
100
AcDbBlockTableRecord
2
_U4
340
0
70
0
0
BLOCK_RECORD
5
1B8
100
AcDbSymbolTableRecord
100
AcDbBlockTableRecord
2
*D12
340
0
70
0
0
BLOCK_RECORD
5
1C4
100
AcDbSymbolTableRecord
100
AcDbBlockTableRecord
2
_U5
340
0
70
0
0
BLOCK_RECORD
5
1D4
100
AcDbSymbolTableRecord
100
AcDbBlockTableRecord
2
*D14
340
0
70
0
0
BLOCK_RECORD
5
1E0
100
AcDbSymbolTableRecord
100
AcDbBlockTableRecord
2
_U6
340
0
70
0
0
ENDTAB
0
ENDSEC
0
SECTION
2
BLOCKS
0
BLOCK
5
20
100
AcDbEntity
8
0
100
AcDbBlockBegin
2
*Model_Space
70
0
10
0
20
0
30
0
3
*Model_Space
0
ENDBLK
5
21
100
AcDbEntity
8
0
100
AcDbBlockEnd
0
BLOCK
5
1C
100
AcDbEntity
8
0
100
AcDbBlockBegin
2
*Paper_Space
70
0
10
0
20
0
30
0
3
*Paper_Space
0
ENDBLK
5
1D
100
AcDbEntity
8
0
100
AcDbBlockEnd
0
BLOCK
5
24
100
AcDbEntity
8
0
100
AcDbBlockBegin
2
*Paper_Space0
70
0
10
0
20
0
30
0
3
*Paper_Space0
0
ENDBLK
5
25
100
AcDbEntity
8
0
100
AcDbBlockEnd
0
BLOCK
5
11C
100
AcDbEntity
8
0
100
AcDbBlockBegin
2
_Closed
70
0
10
0
20
0
30
0
3
_Closed
0
LINE
5
11E
100
AcDbEntity
8
0
62
256
6
ByLayer
370
-2
48
1
60
0
100
AcDbLine
10
-1
20
0.166667
30
0
11
0
21
0
31
0
39
0
210
0
220
0
230
1
0
LINE
5
11F
100
AcDbEntity
8
0
62
256
6
ByLayer
370
-2
48
1
60
0
100
AcDbLine
10
0
20
0
30
0
11
-1
21
-0.166667
31
0
39
0
210
0
220
0
230
1
0
LINE
5
120
100
AcDbEntity
8
0
62
256
6
ByLayer
370
-2
48
1
60
0
100
AcDbLine
10
-1
20
0.166667
30
0
11
-1
21
-0.166667
31
0
39
0
210
0
220
0
230
1
0
LINE
5
121
100
AcDbEntity
8
0
62
256
6
ByLayer
370
-2
48
1
60
0
100
AcDbLine
10
0
20
0
30
0
11
-1
21
0
31
0
39
0
210
0
220
0
230
1
0
ENDBLK
5
11D
100
AcDbEntity
8
0
100
AcDbBlockEnd
0
BLOCK
5
126
100
AcDbEntity
8
0
100
AcDbBlockBegin
2
*D2
70
1
10
0
20
0
30
0
3
*D2
0
LINE
5
128
100
AcDbEntity
8
0
62
256
6
ByLayer
370
-2
48
1
60
0
100
AcDbLine
10
0
20
-5.5875
30
0
11
0
21
-30.67512
31
0
39
0
210
0
220
0
230
1
0
LINE
5
129
100
AcDbEntity
8
0
62
256
6
ByLayer
370
-2
48
1
60
0
100
AcDbLine
10
55
20
-1.5875
30
0
11
55
21
-30.67512
31
0
39
0
210
0
220
0
230
1
0
LINE
5
12A
100
AcDbEntity
8
0
62
256
6
ByLayer
370
-2
48
1
60
0
100
AcDbLine
10
3.175
20
-27.50012
30
0
11
51.825
21
-27.50012
31
0
39
0
210
0
220
0
230
1
0
SOLID
5
12B
100
AcDbEntity
8
0
62
256
6
ByLayer
370
-1
48
1
60
0
100
AcDbTrace
10
3.175
20
-26.970953
30
0
11
3.175
21
-28.029287
31
0
12
0
22
-27.50012
32
0
13
0
23
-27.50012
33
0
39
0
210
0
220
0
230
1
0
SOLID
5
12C
100
AcDbEntity
8
0
62
256
6
ByLayer
370
-1
48
1
60
0
100
AcDbTrace
10
51.825
20
-28.029287
30
0
11
51.825
21
-26.970953
31
0
12
55
22
-27.50012
32
0
13
55
23
-27.50012
33
0
39
0
210
0
220
0
230
1
0
MTEXT
5
12D
100
AcDbEntity
8
0
62
256
6
ByLayer
370
18
48
1
60
0
100
AcDbMText
10
27.5
20
-20.193619
30
0
210
0
220
0
230
1
1
\A1;55
40
3.50012
41
0
44
1
50
0
71
5
72
5
7
iso_b_vert
0
POINT
5
12E
100
AcDbEntity
8
Defpoints
62
0
6
ByLayer
370
-1
48
1
60
0
100
AcDbPoint
10
0
20
-4
30
0
39
0
210
0
220
0
230
1
50
360
0
POINT
5
12F
100
AcDbEntity
8
Defpoints
62
0
6
ByLayer
370
-1
48
1
60
0
100
AcDbPoint
10
55
20
0
30
0
39
0
210
0
220
0
230
1
50
360
0
POINT
5
130
100
AcDbEntity
8
Defpoints
62
0
6
ByLayer
370
-1
48
1
60
0
100
AcDbPoint
10
55
20
-27.50012
30
0
39
0
210
0
220
0
230
1
50
360
0
ENDBLK
5
127
100
AcDbEntity
8
0
100
AcDbBlockEnd
0
BLOCK
5
13E
100
AcDbEntity
8
0
100
AcDbBlockBegin
2
_U0
70
0
10
0
20
0
30
0
3
_U0
0
MTEXT
5
132
100
AcDbEntity
8
SK2
62
256
6
ByLayer
370
18
48
1
60
0
100
AcDbMText
10
22.270389
20
-26.467451
30
0
210
0
220
0
230
1
1
\W0.7468;55.00
40
3.50012
41
0
44
1.084337
50
0
71
7
72
5
7
iso_b_vert
0
MTEXT
5
133
100
AcDbEntity
8
SK2
62
256
6
ByLayer
370
18
48
1
60
0
100
AcDbMText
10
18.744329
20
-26.400814
30
0
210
0
220
0
230
1
1
\W0.1790;(
40
3.175
41
0
44
1.084337
50
0
71
7
72
5
7
iso_b_vert
0
MTEXT
5
134
100
AcDbEntity
8
SK2
62
256
6
ByLayer
370
18
48
1
60
0
100
AcDbMText
10
36.258393
20
-26.400814
30
0
210
0
220
0
230
1
1
\W0.1969;)
40
3.175
41
0
44
1.084337
50
0
71
7
72
5
7
iso_b_vert
0
LINE
5
135
100
AcDbEntity
8
SK2
62
256
6
ByLayer
370
13
48
1
60
0
100
AcDbLine
10
0
20
-5.5875
30
0
11
0
21
-30.67512
31
0
39
0
210
0
220
0
230
1
0
LINE
5
136
100
AcDbEntity
8
SK2
62
256
6
ByLayer
370
13
48
1
60
0
100
AcDbLine
10
55
20
-1.5875
30
0
11
55
21
-30.67512
31
0
39
0
210
0
220
0
230
1
0
LINE
5
137
100
AcDbEntity
8
SK2
62
256
6
ByLayer
370
13
48
1
60
0
100
AcDbLine
10
0
20
-27.50012
30
0
11
55
21
-27.50012
31
0
39
0
210
0
220
0
230
1
0
LINE
5
138
100
AcDbEntity
8
SK2
62
256
6
ByLayer
370
13
48
1
60
0
100
AcDbLine
10
0
20
-27.50012
30
0
11
3.174998
21
-27.082123
31
0
39
0
210
0
220
0
230
1
0
LINE
5
139
100
AcDbEntity
8
SK2
62
256
6
ByLayer
370
13
48
1
60
0
100
AcDbLine
10
0
20
-27.50012
30
0
11
3.175002
21
-27.918117
31
0
39
0
210
0
220
0
230
1
0
LINE
5
13A
100
AcDbEntity
8
SK2
62
256
6
ByLayer
370
13
48
1
60
0
100
AcDbLine
10
3.174998
20
-27.082123
30
0
11
3.175002
21
-27.918117
31
0
39
0
210
0
220
0
230
1
0
LINE
5
13B
100
AcDbEntity
8
SK2
62
256
6
ByLayer
370
13
48
1
60
0
100
AcDbLine
10
55
20
-27.50012
30
0
11
51.825002
21
-27.918117
31
0
39
0
210
0
220
0
230
1
0
LINE
5
13C
100
AcDbEntity
8
SK2
62
256
6
ByLayer
370
13
48
1
60
0
100
AcDbLine
10
55
20
-27.50012
30
0
11
51.824998
21
-27.082123
31
0
39
0
210
0
220
0
230
1
0
LINE
5
13D
100
AcDbEntity
8
SK2
62
256
6
ByLayer
370
13
48
1
60
0
100
AcDbLine
10
51.825002
20
-27.918117
30
0
11
51.824998
21
-27.082123
31
0
39
0
210
0
220
0
230
1
0
ENDBLK
5
13F
100
AcDbEntity
8
0
100
AcDbBlockEnd
0
BLOCK
5
144
100
AcDbEntity
8
0
100
AcDbBlockBegin
2
*D4
70
1
10
0
20
0
30
0
3
*D4
0
LINE
5
146
100
AcDbEntity
8
0
62
256
6
ByLayer
370
-2
48
1
60
0
100
AcDbLine
10
55.4228
20
-3.2
30
0
11
64.92506
21
-3.2
31
0
39
0
210
0
220
0
230
1
0
LINE
5
147
100
AcDbEntity
8
0
62
256
6
ByLayer
370
-2
48
1
60
0
100
AcDbLine
10
55.4228
20
3.2
30
0
11
64.92506
21
3.2
31
0
39
0
210
0
220
0
230
1
0
LINE
5
148
100
AcDbEntity
8
0
62
256
6
ByLayer
370
-2
48
1
60
0
100
AcDbLine
10
61.75006
20
3.2
30
0
11
61.75006
21
27.996466
31
0
39
0
210
0
220
0
230
1
0
LINE
5
149
100
AcDbEntity
8
0
62
256
6
ByLayer
370
-2
48
1
60
0
100
AcDbLine
10
61.75006
20
-6.375
30
0
11
61.75006
21
-9.55
31
0
39
0
210
0
220
0
230
1
0
LINE
5
14A
100
AcDbEntity
8
0
62
256
6
ByLayer
370
-2
48
1
60
0
100
AcDbLine
10
61.75006
20
6.375
30
0
11
61.75006
21
9.55
31
0
39
0
210
0
220
0
230
1
0
SOLID
5
14B
100
AcDbEntity
8
0
62
256
6
ByLayer
370
-1
48
1
60
0
100
AcDbTrace
10
62.279227
20
-6.375
30
0
11
61.220893
21
-6.375
31
0
12
61.75006
22
-3.2
32
0
13
61.75006
23
-3.2
33
0
39
0
210
0
220
0
230
1
0
SOLID
5
14C
100
AcDbEntity
8
0
62
256
6
ByLayer
370
-1
48
1
60
0
100
AcDbTrace
10
61.220893
20
6.375
30
0
11
62.279227
21
6.375
31
0
12
61.75006
22
3.2
32
0
13
61.75006
23
3.2
33
0
39
0
210
0
220
0
230
1
0
MTEXT
5
14D
100
AcDbEntity
8
0
62
256
6
ByLayer
370
18
48
1
60
0
100
AcDbMText
10
54.443559
20
18.773233
30
0
210
0
220
0
230
1
1
\A1;6.4
40
3.50012
41
0
44
1
50
90
71
5
72
5
7
iso_b_vert
0
POINT
5
14E
100
AcDbEntity
8
Defpoints
62
0
6
ByLayer
370
-1
48
1
60
0
100
AcDbPoint
10
53.8353
20
-3.2
30
0
39
0
210
0
220
0
230
1
50
360
0
POINT
5
14F
100
AcDbEntity
8
Defpoints
62
0
6
ByLayer
370
-1
48
1
60
0
100
AcDbPoint
10
53.8353
20
3.2
30
0
39
0
210
0
220
0
230
1
50
360
0
POINT
5
150
100
AcDbEntity
8
Defpoints
62
0
6
ByLayer
370
-1
48
1
60
0
100
AcDbPoint
10
61.75006
20
3.2
30
0
39
0
210
0
220
0
230
1
50
360
0
ENDBLK
5
145
100
AcDbEntity
8
0
100
AcDbBlockEnd
0
BLOCK
5
15D
100
AcDbEntity
8
0
100
AcDbBlockBegin
2
_U1
70
0
10
0
20
0
30
0
3
_U1
0
MTEXT
5
153
100
AcDbEntity
8
2
62
256
6
ByLayer
370
18
48
1
60
0
100
AcDbMText
10
61.060403
20
7.357505
30
0
210
0
220
0
230
1
1
\W0.7640;6.40
40
3.50012
41
0
44
1.084337
50
90
71
7
72
5
7
iso_b_vert
0
LINE
5
154
100
AcDbEntity
8
2
62
256
6
ByLayer
370
13
48
1
60
0
100
AcDbLine
10
55.4228
20
-3.2
30
0
11
64.92506
21
-3.2
31
0
39
0
210
0
220
0
230
1
0
LINE
5
155
100
AcDbEntity
8
2
62
256
6
ByLayer
370
13
48
1
60
0
100
AcDbLine
10
55.4228
20
3.2
30
0
11
64.92506
21
3.2
31
0
39
0
210
0
220
0
230
1
0
LINE
5
156
100
AcDbEntity
8
2
62
256
6
ByLayer
370
13
48
1
60
0
100
AcDbLine
10
61.75006
20
-3.2
30
0
11
61.75006
21
15.783226
31
0
39
0
210
0
220
0
230
1
0
LINE
5
157
100
AcDbEntity
8
2
62
256
6
ByLayer
370
13
48
1
60
0
100
AcDbLine
10
61.75006
20
-3.2
30
0
11
61.332063
21
-0.025002
31
0
39
0
210
0
220
0
230
1
0
LINE
5
158
100
AcDbEntity
8
2
62
256
6
ByLayer
370
13
48
1
60
0
100
AcDbLine
10
61.75006
20
-3.2
30
0
11
62.168057
21
-0.024998
31
0
39
0
210
0
220
0
230
1
0
LINE
5
159
100
AcDbEntity
8
2
62
256
6
ByLayer
370
13
48
1
60
0
100
AcDbLine
10
61.332063
20
-0.025002
30
0
11
62.168057
21
-0.024998
31
0
39
0
210
0
220
0
230
1
0
LINE
5
15A
100
AcDbEntity
8
2
62
256
6
ByLayer
370
13
48
1
60
0
100
AcDbLine
10
61.75006
20
3.2
30
0
11
62.168057
21
0.025002
31
0
39
0
210
0
220
0
230
1
0
LINE
5
15B
100
AcDbEntity
8
2
62
256
6
ByLayer
370
13
48
1
60
0
100
AcDbLine
10
61.75006
20
3.2
30
0
11
61.332063
21
0.024998
31
0
39
0
210
0
220
0
230
1
0
LINE
5
15C
100
AcDbEntity
8
2
62
256
6
ByLayer
370
13
48
1
60
0
100
AcDbLine
10
62.168057
20
0.025002
30
0
11
61.332063
21
0.024998
31
0
39
0
210
0
220
0
230
1
0
ENDBLK
5
15E
100
AcDbEntity
8
0
100
AcDbBlockEnd
0
BLOCK
5
163
100
AcDbEntity
8
0
100
AcDbBlockBegin
2
*D6
70
1
10
0
20
0
30
0
3
*D6
0
LINE
5
165
100
AcDbEntity
8
0
62
256
6
ByLayer
370
-2
48
1
60
0
100
AcDbLine
10
-37.5875
20
4
30
0
11
-42.42494
21
4
31
0
39
0
210
0
220
0
230
1
0
LINE
5
166
100
AcDbEntity
8
0
62
256
6
ByLayer
370
-2
48
1
60
0
100
AcDbLine
10
-37.5875
20
-4
30
0
11
-42.42494
21
-4
31
0
39
0
210
0
220
0
230
1
0
LINE
5
167
100
AcDbEntity
8
0
62
256
6
ByLayer
370
-2
48
1
60
0
100
AcDbLine
10
-39.24994
20
4
30
0
11
-39.24994
21
24.830487
31
0
39
0
210
0
220
0
230
1
0
LINE
5
168
100
AcDbEntity
8
0
62
256
6
ByLayer
370
-2
48
1
60
0
100
AcDbLine
10
-39.24994
20
7.175
30
0
11
-39.24994
21
10.35
31
0
39
0
210
0
220
0
230
1
0
LINE
5
169
100
AcDbEntity
8
0
62
256
6
ByLayer
370
-2
48
1
60
0
100
AcDbLine
10
-39.24994
20
-7.175
30
0
11
-39.24994
21
-10.35
31
0
39
0
210
0
220
0
230
1
0
SOLID
5
16A
100
AcDbEntity
8
0
62
256
6
ByLayer
370
-1
48
1
60
0
100
AcDbTrace
10
-39.779107
20
7.175
30
0
11
-38.720773
21
7.175
31
0
12
-39.24994
22
4
32
0
13
-39.24994
23
4
33
0
39
0
210
0
220
0
230
1
0
SOLID
5
16B
100
AcDbEntity
8
0
62
256
6
ByLayer
370
-1
48
1
60
0
100
AcDbTrace
10
-38.720773
20
-7.175
30
0
11
-39.779107
21
-7.175
31
0
12
-39.24994
22
-4
32
0
13
-39.24994
23
-4
33
0
39
0
210
0
220
0
230
1
0
MTEXT
5
16C
100
AcDbEntity
8
0
62
256
6
ByLayer
370
18
48
1
60
0
100
AcDbMText
10
-46.556441
20
18.10734
30
0
210
0
220
0
230
1
1
\A1;8
40
3.50012
41
0
44
1
50
90
71
5
72
5
7
iso_b_vert
0
POINT
5
16D
100
AcDbEntity
8
Defpoints
62
0
6
ByLayer
370
-1
48
1
60
0
100
AcDbPoint
10
-36
20
4
30
0
39
0
210
0
220
0
230
1
50
360
0
POINT
5
16E
100
AcDbEntity
8
Defpoints
62
0
6
ByLayer
370
-1
48
1
60
0
100
AcDbPoint
10
-36
20
-4
30
0
39
0
210
0
220
0
230
1
50
360
0
POINT
5
16F
100
AcDbEntity
8
Defpoints
62
0
6
ByLayer
370
-1
48
1
60
0
100
AcDbPoint
10
-39.24994
20
-4
30
0
39
0
210
0
220
0
230
1
50
360
0
ENDBLK
5
164
100
AcDbEntity
8
0
100
AcDbBlockEnd
0
BLOCK
5
17B
100
AcDbEntity
8
0
100
AcDbBlockBegin
2
_U2
70
0
10
0
20
0
30
0
3
_U2
0
MTEXT
5
171
100
AcDbEntity
8
SK2
62
256
6
ByLayer
370
18
48
1
60
0
100
AcDbMText
10
-39.939597
20
14.157505
30
0
210
0
220
0
230
1
1
\W0.7346;8.00
40
3.50012
41
0
44
1.084337
50
90
71
7
72
5
7
iso_b_vert
0
LINE
5
172
100
AcDbEntity
8
SK2
62
256
6
ByLayer
370
13
48
1
60
0
100
AcDbLine
10
-37.5875
20
4
30
0
11
-42.42494
21
4
31
0
39
0
210
0
220
0
230
1
0
LINE
5
173
100
AcDbEntity
8
SK2
62
256
6
ByLayer
370
13
48
1
60
0
100
AcDbLine
10
-37.5875
20
-4
30
0
11
-42.42494
21
-4
31
0
39
0
210
0
220
0
230
1
0
LINE
5
174
100
AcDbEntity
8
SK2
62
256
6
ByLayer
370
13
48
1
60
0
100
AcDbLine
10
-39.24994
20
-4
30
0
11
-39.24994
21
22.21468
31
0
39
0
210
0
220
0
230
1
0
LINE
5
175
100
AcDbEntity
8
SK2
62
256
6
ByLayer
370
13
48
1
60
0
100
AcDbLine
10
-39.24994
20
4
30
0
11
-38.831943
21
0.825002
31
0
39
0
210
0
220
0
230
1
0
LINE
5
176
100
AcDbEntity
8
SK2
62
256
6
ByLayer
370
13
48
1
60
0
100
AcDbLine
10
-39.24994
20
4
30
0
11
-39.667937
21
0.824998
31
0
39
0
210
0
220
0
230
1
0
LINE
5
177
100
AcDbEntity
8
SK2
62
256
6
ByLayer
370
13
48
1
60
0
100
AcDbLine
10
-38.831943
20
0.825002
30
0
11
-39.667937
21
0.824998
31
0
39
0
210
0
220
0
230
1
0
LINE
5
178
100
AcDbEntity
8
SK2
62
256
6
ByLayer
370
13
48
1
60
0
100
AcDbLine
10
-39.24994
20
-4
30
0
11
-39.667937
21
-0.825002
31
0
39
0
210
0
220
0
230
1
0
LINE
5
179
100
AcDbEntity
8
SK2
62
256
6
ByLayer
370
13
48
1
60
0
100
AcDbLine
10
-39.24994
20
-4
30
0
11
-38.831943
21
-0.824998
31
0
39
0
210
0
220
0
230
1
0
LINE
5
17A
100
AcDbEntity
8
SK2
62
256
6
ByLayer
370
13
48
1
60
0
100
AcDbLine
10
-39.667937
20
-0.825002
30
0
11
-38.831943
21
-0.824998
31
0
39
0
210
0
220
0
230
1
0
ENDBLK
5
17C
100
AcDbEntity
8
0
100
AcDbBlockEnd
0
BLOCK
5
181
100
AcDbEntity
8
0
100
AcDbBlockBegin
2
*D8
70
1
10
0
20
0
30
0
3
*D8
0
LINE
5
183
100
AcDbEntity
8
0
62
256
6
ByLayer
370
-2
48
1
60
0
100
AcDbLine
10
-36
20
-5.5875
30
0
11
-36
21
-30.67512
31
0
39
0
210
0
220
0
230
1
0
LINE
5
184
100
AcDbEntity
8
0
62
256
6
ByLayer
370
-2
48
1
60
0
100
AcDbLine
10
0
20
-5.5875
30
0
11
0
21
-30.67512
31
0
39
0
210
0
220
0
230
1
0
LINE
5
185
100
AcDbEntity
8
0
62
256
6
ByLayer
370
-2
48
1
60
0
100
AcDbLine
10
-32.825
20
-27.50012
30
0
11
-3.175
21
-27.50012
31
0
39
0
210
0
220
0
230
1
0
SOLID
5
186
100
AcDbEntity
8
0
62
256
6
ByLayer
370
-1
48
1
60
0
100
AcDbTrace
10
-32.825
20
-26.970953
30
0
11
-32.825
21
-28.029287
31
0
12
-36
22
-27.50012
32
0
13
-36
23
-27.50012
33
0
39
0
210
0
220
0
230
1
0
SOLID
5
187
100
AcDbEntity
8
0
62
256
6
ByLayer
370
-1
48
1
60
0
100
AcDbTrace
10
-3.175
20
-28.029287
30
0
11
-3.175
21
-26.970953
31
0
12
0
22
-27.50012
32
0
13
0
23
-27.50012
33
0
39
0
210
0
220
0
230
1
0
MTEXT
5
188
100
AcDbEntity
8
0
62
256
6
ByLayer
370
18
48
1
60
0
100
AcDbMText
10
-18
20
-20.193619
30
0
210
0
220
0
230
1
1
\A1;36
40
3.50012
41
0
44
1
50
0
71
5
72
5
7
iso_b_vert
0
POINT
5
189
100
AcDbEntity
8
Defpoints
62
0
6
ByLayer
370
-1
48
1
60
0
100
AcDbPoint
10
-36
20
-4
30
0
39
0
210
0
220
0
230
1
50
360
0
POINT
5
18A
100
AcDbEntity
8
Defpoints
62
0
6
ByLayer
370
-1
48
1
60
0
100
AcDbPoint
10
0
20
-4
30
0
39
0
210
0
220
0
230
1
50
360
0
POINT
5
18B
100
AcDbEntity
8
Defpoints
62
0
6
ByLayer
370
-1
48
1
60
0
100
AcDbPoint
10
0
20
-27.50012
30
0
39
0
210
0
220
0
230
1
50
360
0
ENDBLK
5
182
100
AcDbEntity
8
0
100
AcDbBlockEnd
0
BLOCK
5
197
100
AcDbEntity
8
0
100
AcDbBlockBegin
2
_U3
70
0
10
0
20
0
30
0
3
_U3
0
MTEXT
5
18D
100
AcDbEntity
8
SK2
62
256
6
ByLayer
370
18
48
1
60
0
100
AcDbMText
10
-23.229611
20
-26.467451
30
0
210
0
220
0
230
1
1
\W0.7468;36.00
40
3.50012
41
0
44
1.084337
50
0
71
7
72
5
7
iso_b_vert
0
LINE
5
18E
100
AcDbEntity
8
SK2
62
256
6
ByLayer
370
13
48
1
60
0
100
AcDbLine
10
-36
20
-5.5875
30
0
11
-36
21
-30.67512
31
0
39
0
210
0
220
0
230
1
0
LINE
5
18F
100
AcDbEntity
8
SK2
62
256
6
ByLayer
370
13
48
1
60
0
100
AcDbLine
10
0
20
-5.5875
30
0
11
0
21
-30.67512
31
0
39
0
210
0
220
0
230
1
0
LINE
5
190
100
AcDbEntity
8
SK2
62
256
6
ByLayer
370
13
48
1
60
0
100
AcDbLine
10
-36
20
-27.50012
30
0
11
0
21
-27.50012
31
0
39
0
210
0
220
0
230
1
0
LINE
5
191
100
AcDbEntity
8
SK2
62
256
6
ByLayer
370
13
48
1
60
0
100
AcDbLine
10
-36
20
-27.50012
30
0
11
-32.825002
21
-27.082123
31
0
39
0
210
0
220
0
230
1
0
LINE
5
192
100
AcDbEntity
8
SK2
62
256
6
ByLayer
370
13
48
1
60
0
100
AcDbLine
10
-36
20
-27.50012
30
0
11
-32.824998
21
-27.918117
31
0
39
0
210
0
220
0
230
1
0
LINE
5
193
100
AcDbEntity
8
SK2
62
256
6
ByLayer
370
13
48
1
60
0
100
AcDbLine
10
-32.825002
20
-27.082123
30
0
11
-32.824998
21
-27.918117
31
0
39
0
210
0
220
0
230
1
0
LINE
5
194
100
AcDbEntity
8
SK2
62
256
6
ByLayer
370
13
48
1
60
0
100
AcDbLine
10
0
20
-27.50012
30
0
11
-3.174998
21
-27.918117
31
0
39
0
210
0
220
0
230
1
0
LINE
5
195
100
AcDbEntity
8
SK2
62
256
6
ByLayer
370
13
48
1
60
0
100
AcDbLine
10
0
20
-27.50012
30
0
11
-3.175002
21
-27.082123
31
0
39
0
210
0
220
0
230
1
0
LINE
5
196
100
AcDbEntity
8
SK2
62
256
6
ByLayer
370
13
48
1
60
0
100
AcDbLine
10
-3.174998
20
-27.918117
30
0
11
-3.175002
21
-27.082123
31
0
39
0
210
0
220
0
230
1
0
ENDBLK
5
198
100
AcDbEntity
8
0
100
AcDbBlockEnd
0
BLOCK
5
19D
100
AcDbEntity
8
0
100
AcDbBlockBegin
2
*D10
70
1
10
0
20
0
30
0
3
*D10
0
LINE
5
19F
100
AcDbEntity
8
0
62
256
6
ByLayer
370
-2
48
1
60
0
100
AcDbLine
10
2
20
2.1125
30
0
11
2
21
-21.92482
31
0
39
0
210
0
220
0
230
1
0
LINE
5
1A0
100
AcDbEntity
8
0
62
256
6
ByLayer
370
-2
48
1
60
0
100
AcDbLine
10
55
20
-1.5875
30
0
11
55
21
-21.92482
31
0
39
0
210
0
220
0
230
1
0
LINE
5
1A1
100
AcDbEntity
8
0
62
256
6
ByLayer
370
-2
48
1
60
0
100
AcDbLine
10
5.175
20
-18.74982
30
0
11
51.825
21
-18.74982
31
0
39
0
210
0
220
0
230
1
0
SOLID
5
1A2
100
AcDbEntity
8
0
62
256
6
ByLayer
370
-1
48
1
60
0
100
AcDbTrace
10
5.175
20
-18.220653
30
0
11
5.175
21
-19.278987
31
0
12
2
22
-18.74982
32
0
13
2
23
-18.74982
33
0
39
0
210
0
220
0
230
1
0
SOLID
5
1A3
100
AcDbEntity
8
0
62
256
6
ByLayer
370
-1
48
1
60
0
100
AcDbTrace
10
51.825
20
-19.278987
30
0
11
51.825
21
-18.220653
31
0
12
55
22
-18.74982
32
0
13
55
23
-18.74982
33
0
39
0
210
0
220
0
230
1
0
MTEXT
5
1A4
100
AcDbEntity
8
0
62
256
6
ByLayer
370
18
48
1
60
0
100
AcDbMText
10
28.5
20
-11.443319
30
0
210
0
220
0
230
1
1
\A1;53
40
3.50012
41
0
44
1
50
0
71
5
72
5
7
iso_b_vert
0
POINT
5
1A5
100
AcDbEntity
8
Defpoints
62
0
6
ByLayer
370
-1
48
1
60
0
100
AcDbPoint
10
2
20
3.7
30
0
39
0
210
0
220
0
230
1
50
360
0
POINT
5
1A6
100
AcDbEntity
8
Defpoints
62
0
6
ByLayer
370
-1
48
1
60
0
100
AcDbPoint
10
55
20
0
30
0
39
0
210
0
220
0
230
1
50
360
0
POINT
5
1A7
100
AcDbEntity
8
Defpoints
62
0
6
ByLayer
370
-1
48
1
60
0
100
AcDbPoint
10
55
20
-18.74982
30
0
39
0
210
0
220
0
230
1
50
360
0
ENDBLK
5
19E
100
AcDbEntity
8
0
100
AcDbBlockEnd
0
BLOCK
5
1B3
100
AcDbEntity
8
0
100
AcDbBlockBegin
2
_U4
70
0
10
0
20
0
30
0
3
_U4
0
MTEXT
5
1A9
100
AcDbEntity
8
SK2
62
256
6
ByLayer
370
18
48
1
60
0
100
AcDbMText
10
23.270389
20
-17.717151
30
0
210
0
220
0
230
1
1
\W0.7468;53.00
40
3.50012
41
0
44
1.084337
50
0
71
7
72
5
7
iso_b_vert
0
LINE
5
1AA
100
AcDbEntity
8
SK2
62
256
6
ByLayer
370
13
48
1
60
0
100
AcDbLine
10
2
20
2.1125
30
0
11
2
21
-21.92482
31
0
39
0
210
0
220
0
230
1
0
LINE
5
1AB
100
AcDbEntity
8
SK2
62
256
6
ByLayer
370
13
48
1
60
0
100
AcDbLine
10
55
20
-1.5875
30
0
11
55
21
-21.92482
31
0
39
0
210
0
220
0
230
1
0
LINE
5
1AC
100
AcDbEntity
8
SK2
62
256
6
ByLayer
370
13
48
1
60
0
100
AcDbLine
10
2
20
-18.74982
30
0
11
55
21
-18.74982
31
0
39
0
210
0
220
0
230
1
0
LINE
5
1AD
100
AcDbEntity
8
SK2
62
256
6
ByLayer
370
13
48
1
60
0
100
AcDbLine
10
2
20
-18.74982
30
0
11
5.174998
21
-18.331823
31
0
39
0
210
0
220
0
230
1
0
LINE
5
1AE
100
AcDbEntity
8
SK2
62
256
6
ByLayer
370
13
48
1
60
0
100
AcDbLine
10
2
20
-18.74982
30
0
11
5.175002
21
-19.167817
31
0
39
0
210
0
220
0
230
1
0
LINE
5
1AF
100
AcDbEntity
8
SK2
62
256
6
ByLayer
370
13
48
1
60
0
100
AcDbLine
10
5.174998
20
-18.331823
30
0
11
5.175002
21
-19.167817
31
0
39
0
210
0
220
0
230
1
0
LINE
5
1B0
100
AcDbEntity
8
SK2
62
256
6
ByLayer
370
13
48
1
60
0
100
AcDbLine
10
55
20
-18.74982
30
0
11
51.825002
21
-19.167817
31
0
39
0
210
0
220
0
230
1
0
LINE
5
1B1
100
AcDbEntity
8
SK2
62
256
6
ByLayer
370
13
48
1
60
0
100
AcDbLine
10
55
20
-18.74982
30
0
11
51.824998
21
-18.331823
31
0
39
0
210
0
220
0
230
1
0
LINE
5
1B2
100
AcDbEntity
8
SK2
62
256
6
ByLayer
370
13
48
1
60
0
100
AcDbLine
10
51.825002
20
-19.167817
30
0
11
51.824998
21
-18.331823
31
0
39
0
210
0
220
0
230
1
0
ENDBLK
5
1B4
100
AcDbEntity
8
0
100
AcDbBlockEnd
0
BLOCK
5
1B9
100
AcDbEntity
8
0
100
AcDbBlockBegin
2
*D12
70
1
10
0
20
0
30
0
3
*D12
0
LINE
5
1BB
100
AcDbEntity
8
0
62
256
6
ByLayer
370
-2
48
1
60
0
100
AcDbLine
10
21.9
20
-4.7875
30
0
11
21.9
21
-11.32
31
0
39
0
210
0
220
0
230
1
0
LINE
5
1BC
100
AcDbEntity
8
0
62
256
6
ByLayer
370
-2
48
1
60
0
100
AcDbLine
10
55
20
-1.5875
30
0
11
55
21
-11.32
31
0
39
0
210
0
220
0
230
1
0
LINE
5
1BD
100
AcDbEntity
8
0
62
256
6
ByLayer
370
-2
48
1
60
0
100
AcDbLine
10
25.075
20
-10.82
30
0
11
51.825
21
-10.82
31
0
39
0
210
0
220
0
230
1
0
SOLID
5
1BE
100
AcDbEntity
8
0
62
256
6
ByLayer
370
-1
48
1
60
0
100
AcDbTrace
10
25.075
20
-10.290833
30
0
11
25.075
21
-11.349167
31
0
12
21.9
22
-10.82
32
0
13
21.9
23
-10.82
33
0
39
0
210
0
220
0
230
1
0
SOLID
5
1BF
100
AcDbEntity
8
0
62
256
6
ByLayer
370
-1
48
1
60
0
100
AcDbTrace
10
51.825
20
-11.349167
30
0
11
51.825
21
-10.290833
31
0
12
55
22
-10.82
32
0
13
55
23
-10.82
33
0
39
0
210
0
220
0
230
1
0
MTEXT
5
1C0
100
AcDbEntity
8
0
62
256
6
ByLayer
370
18
48
1
60
0
100
AcDbMText
10
38.45
20
-4.975
30
0
210
0
220
0
230
1
1
\A1;33.1
40
2.8
41
0
44
1
50
0
71
5
72
5
7
iso_b_vert
0
POINT
5
1C1
100
AcDbEntity
8
Defpoints
62
0
6
ByLayer
370
-1
48
1
60
0
100
AcDbPoint
10
21.9
20
-3.2
30
0
39
0
210
0
220
0
230
1
50
360
0
POINT
5
1C2
100
AcDbEntity
8
Defpoints
62
0
6
ByLayer
370
-1
48
1
60
0
100
AcDbPoint
10
55
20
0
30
0
39
0
210
0
220
0
230
1
50
360
0
POINT
5
1C3
100
AcDbEntity
8
Defpoints
62
0
6
ByLayer
370
-1
48
1
60
0
100
AcDbPoint
10
55
20
-10.82
30
0
39
0
210
0
220
0
230
1
50
360
0
ENDBLK
5
1BA
100
AcDbEntity
8
0
100
AcDbBlockEnd
0
BLOCK
5
1CF
100
AcDbEntity
8
0
100
AcDbBlockBegin
2
_U5
70
0
10
0
20
0
30
0
3
_U5
0
MTEXT
5
1C5
100
AcDbEntity
8
SK2
62
256
6
ByLayer
370
18
48
1
60
0
100
AcDbMText
10
34.616401
20
-10.973893
30
0
210
0
220
0
230
1
1
\W0.6864;33.10
40
2.8
41
0
44
1.084337
50
0
71
7
72
5
7
iso_b_vert
0
LINE
5
1C6
100
AcDbEntity
8
SK2
62
256
6
ByLayer
370
13
48
1
60
0
100
AcDbLine
10
21.9
20
-4.7875
30
0
11
21.9
21
-11.32
31
0
39
0
210
0
220
0
230
1
0
LINE
5
1C7
100
AcDbEntity
8
SK2
62
256
6
ByLayer
370
13
48
1
60
0
100
AcDbLine
10
55
20
-1.5875
30
0
11
55
21
-11.32
31
0
39
0
210
0
220
0
230
1
0
LINE
5
1C8
100
AcDbEntity
8
SK2
62
256
6
ByLayer
370
13
48
1
60
0
100
AcDbLine
10
21.9
20
-10.82
30
0
11
55
21
-10.82
31
0
39
0
210
0
220
0
230
1
0
LINE
5
1C9
100
AcDbEntity
8
SK2
62
256
6
ByLayer
370
13
48
1
60
0
100
AcDbLine
10
21.9
20
-10.82
30
0
11
25.074998
21
-10.402003
31
0
39
0
210
0
220
0
230
1
0
LINE
5
1CA
100
AcDbEntity
8
SK2
62
256
6
ByLayer
370
13
48
1
60
0
100
AcDbLine
10
21.9
20
-10.82
30
0
11
25.075002
21
-11.237997
31
0
39
0
210
0
220
0
230
1
0
LINE
5
1CB
100
AcDbEntity
8
SK2
62
256
6
ByLayer
370
13
48
1
60
0
100
AcDbLine
10
25.074998
20
-10.402003
30
0
11
25.075002
21
-11.237997
31
0
39
0
210
0
220
0
230
1
0
LINE
5
1CC
100
AcDbEntity
8
SK2
62
256
6
ByLayer
370
13
48
1
60
0
100
AcDbLine
10
55
20
-10.82
30
0
11
51.825002
21
-11.237997
31
0
39
0
210
0
220
0
230
1
0
LINE
5
1CD
100
AcDbEntity
8
SK2
62
256
6
ByLayer
370
13
48
1
60
0
100
AcDbLine
10
55
20
-10.82
30
0
11
51.824998
21
-10.402003
31
0
39
0
210
0
220
0
230
1
0
LINE
5
1CE
100
AcDbEntity
8
SK2
62
256
6
ByLayer
370
13
48
1
60
0
100
AcDbLine
10
51.825002
20
-11.237997
30
0
11
51.824998
21
-10.402003
31
0
39
0
210
0
220
0
230
1
0
ENDBLK
5
1D0
100
AcDbEntity
8
0
100
AcDbBlockEnd
0
BLOCK
5
1D5
100
AcDbEntity
8
0
100
AcDbBlockBegin
2
*D14
70
1
10
0
20
0
30
0
3
*D14
0
LINE
5
1D7
100
AcDbEntity
8
0
62
256
6
ByLayer
370
-2
48
1
60
0
100
AcDbLine
10
-36
20
-1.5875
30
0
11
-36
21
-40.67512
31
0
39
0
210
0
220
0
230
1
0
LINE
5
1D8
100
AcDbEntity
8
0
62
256
6
ByLayer
370
-2
48
1
60
0
100
AcDbLine
10
55
20
-1.5875
30
0
11
55
21
-40.67512
31
0
39
0
210
0
220
0
230
1
0
LINE
5
1D9
100
AcDbEntity
8
0
62
256
6
ByLayer
370
-2
48
1
60
0
100
AcDbLine
10
-32.825
20
-37.50012
30
0
11
51.825
21
-37.50012
31
0
39
0
210
0
220
0
230
1
0
SOLID
5
1DA
100
AcDbEntity
8
0
62
256
6
ByLayer
370
-1
48
1
60
0
100
AcDbTrace
10
-32.825
20
-36.970953
30
0
11
-32.825
21
-38.029287
31
0
12
-36
22
-37.50012
32
0
13
-36
23
-37.50012
33
0
39
0
210
0
220
0
230
1
0
SOLID
5
1DB
100
AcDbEntity
8
0
62
256
6
ByLayer
370
-1
48
1
60
0
100
AcDbTrace
10
51.825
20
-38.029287
30
0
11
51.825
21
-36.970953
31
0
12
55
22
-37.50012
32
0
13
55
23
-37.50012
33
0
39
0
210
0
220
0
230
1
0
MTEXT
5
1DC
100
AcDbEntity
8
0
62
256
6
ByLayer
370
18
48
1
60
0
100
AcDbMText
10
9.5
20
-30.193619
30
0
210
0
220
0
230
1
1
\A1;91
40
3.50012
41
0
44
1
50
0
71
5
72
5
7
iso_b_vert
0
POINT
5
1DD
100
AcDbEntity
8
Defpoints
62
0
6
ByLayer
370
-1
48
1
60
0
100
AcDbPoint
10
-36
20
0
30
0
39
0
210
0
220
0
230
1
50
360
0
POINT
5
1DE
100
AcDbEntity
8
Defpoints
62
0
6
ByLayer
370
-1
48
1
60
0
100
AcDbPoint
10
55
20
0
30
0
39
0
210
0
220
0
230
1
50
360
0
POINT
5
1DF
100
AcDbEntity
8
Defpoints
62
0
6
ByLayer
370
-1
48
1
60
0
100
AcDbPoint
10
55
20
-37.50012
30
0
39
0
210
0
220
0
230
1
50
360
0
ENDBLK
5
1D6
100
AcDbEntity
8
0
100
AcDbBlockEnd
0
BLOCK
5
1EB
100
AcDbEntity
8
0
100
AcDbBlockBegin
2
_U6
70
0
10
0
20
0
30
0
3
_U6
0
MTEXT
5
1E1
100
AcDbEntity
8
SK2
62
256
6
ByLayer
370
18
48
1
60
0
100
AcDbMText
10
4.707837
20
-36.467451
30
0
210
0
220
0
230
1
1
\W0.6864;91.00
40
3.50012
41
0
44
1.084337
50
0
71
7
72
5
7
iso_b_vert
0
LINE
5
1E2
100
AcDbEntity
8
SK2
62
256
6
ByLayer
370
13
48
1
60
0
100
AcDbLine
10
-36
20
-1.5875
30
0
11
-36
21
-40.67512
31
0
39
0
210
0
220
0
230
1
0
LINE
5
1E3
100
AcDbEntity
8
SK2
62
256
6
ByLayer
370
13
48
1
60
0
100
AcDbLine
10
55
20
-1.5875
30
0
11
55
21
-40.67512
31
0
39
0
210
0
220
0
230
1
0
LINE
5
1E4
100
AcDbEntity
8
SK2
62
256
6
ByLayer
370
13
48
1
60
0
100
AcDbLine
10
-36
20
-37.50012
30
0
11
55
21
-37.50012
31
0
39
0
210
0
220
0
230
1
0
LINE
5
1E5
100
AcDbEntity
8
SK2
62
256
6
ByLayer
370
13
48
1
60
0
100
AcDbLine
10
-36
20
-37.50012
30
0
11
-32.825002
21
-37.082123
31
0
39
0
210
0
220
0
230
1
0
LINE
5
1E6
100
AcDbEntity
8
SK2
62
256
6
ByLayer
370
13
48
1
60
0
100
AcDbLine
10
-36
20
-37.50012
30
0
11
-32.824998
21
-37.918117
31
0
39
0
210
0
220
0
230
1
0
LINE
5
1E7
100
AcDbEntity
8
SK2
62
256
6
ByLayer
370
13
48
1
60
0
100
AcDbLine
10
-32.825002
20
-37.082123
30
0
11
-32.824998
21
-37.918117
31
0
39
0
210
0
220
0
230
1
0
LINE
5
1E8
100
AcDbEntity
8
SK2
62
256
6
ByLayer
370
13
48
1
60
0
100
AcDbLine
10
55
20
-37.50012
30
0
11
51.825002
21
-37.918117
31
0
39
0
210
0
220
0
230
1
0
LINE
5
1E9
100
AcDbEntity
8
SK2
62
256
6
ByLayer
370
13
48
1
60
0
100
AcDbLine
10
55
20
-37.50012
30
0
11
51.824998
21
-37.082123
31
0
39
0
210
0
220
0
230
1
0
LINE
5
1EA
100
AcDbEntity
8
SK2
62
256
6
ByLayer
370
13
48
1
60
0
100
AcDbLine
10
51.825002
20
-37.918117
30
0
11
51.824998
21
-37.082123
31
0
39
0
210
0
220
0
230
1
0
ENDBLK
5
1EC
100
AcDbEntity
8
0
100
AcDbBlockEnd
0
ENDSEC
0
SECTION
2
ENTITIES
0
ARC
5
B3
100
AcDbEntity
8
1
62
256
6
ByLayer
370
18
48
1
60
0
100
AcDbCircle
39
0
10
1.404051
20
3.96723
30
0
40
0.8
210
0
220
0
230
1
100
AcDbArc
50
208.653957
51
270.03581
0
ARC
5
B4
100
AcDbEntity
8
1
62
256
6
ByLayer
370
18
48
1
60
0
100
AcDbCircle
39
0
10
1.404051
20
-3.96723
30
0
40
0.8
210
0
220
0
230
1
100
AcDbArc
50
89.96419
51
151.346043
0
ARC
5
B5
100
AcDbEntity
8
1
62
256
6
ByLayer
370
18
48
1
60
0
100
AcDbCircle
39
0
10
0
20
3.2
30
0
40
0.800000000000002
210
0
220
0
230
1
100
AcDbArc
50
28.653957
51
90
0
ARC
5
B6
100
AcDbEntity
8
1
62
256
6
ByLayer
370
18
48
1
60
0
100
AcDbCircle
39
0
10
0
20
-3.2
30
0
40
0.800000000000002
210
0
220
0
230
1
100
AcDbArc
50
270
51
331.346043
0
ARC
5
B7
100
AcDbEntity
8
SK2
62
256
6
ByLayer
370
13
48
1
60
0
100
AcDbCircle
39
0
10
55
20
0
30
0
40
20
210
0
220
0
230
1
100
AcDbArc
50
9.606349
51
70.000075
0
ARC
5
B8
100
AcDbEntity
8
SK2
62
256
6
ByLayer
370
13
48
1
60
0
100
AcDbCircle
39
0
10
55
20
0
30
0
40
20
210
0
220
0
230
1
100
AcDbArc
50
289.999925
51
350.393651
0
ELLIPSE
5
B9
100
AcDbEntity
8
1
62
256
6
ByLayer
370
18
48
1
60
0
100
AcDbEllipse
10
3.638208
20
2.36843
30
0
11
-0.00259943667793109
21
-0.00965623782626684
31
0
210
0
220
0
230
1
40
0.322403
41
0.714712226630002
42
2.27955267842232
0
ELLIPSE
5
BA
100
AcDbEntity
8
1
62
256
6
ByLayer
370
18
48
1
60
0
100
AcDbEllipse
10
3.565675
20
-1.329695
30
0
11
0.00195369500474327
21
0.00980729707046958
31
0
210
0
220
0
230
1
40
0.49697
41
1.2484185388052
42
2.65564475609803
0
ELLIPSE
5
BB
100
AcDbEntity
8
1
62
256
6
ByLayer
370
18
48
1
60
0
100
AcDbEllipse
10
3.602428
20
2.372997
30
0
11
-1.33867064149251E-05
21
0.00999999103980056
31
0
210
0
220
0
230
1
40
0.011199
41
-2.4748752082269
42
-0.904651523189863
0
ELLIPSE
5
BC
100
AcDbEntity
8
1
62
256
6
ByLayer
370
18
48
1
60
0
100
AcDbEllipse
10
3.601864
20
-1.340513
30
0
11
-0.00364312994814008
21
-0.00931276565693376
31
0
210
0
220
0
230
1
40
0.176078
41
-1.99803084993237
42
-0.429427078620145
0
POINT
5
70
100
AcDbEntity
8
80
62
256
6
ByLayer
370
18
48
1
60
0
100
AcDbPoint
10
0
20
0
30
0
39
0
210
0
220
0
230
1
50
360
0
POINT
5
72
100
AcDbEntity
8
81
62
256
6
ByLayer
370
18
48
1
60
0
100
AcDbPoint
10
55
20
0
30
0
39
0
210
0
220
0
230
1
50
360
0
POINT
5
74
100
AcDbEntity
8
1
62
256
6
ByLayer
370
18
48
1
60
0
100
AcDbPoint
10
-36
20
0
30
0
39
0
210
0
220
0
230
1
50
360
0
POINT
5
76
100
AcDbEntity
8
1
62
256
6
ByLayer
370
18
48
1
60
1
100
AcDbPoint
10
0
20
-4
30
0
39
0
210
0
220
0
230
1
50
360
0
POINT
5
77
100
AcDbEntity
8
1
62
256
6
ByLayer
370
18
48
1
60
1
100
AcDbPoint
10
55
20
0
30
0
39
0
210
0
220
0
230
1
50
360
0
POINT
5
78
100
AcDbEntity
8
1
62
256
6
ByLayer
370
18
48
1
60
1
100
AcDbPoint
10
53.8353
20
-3.2
30
0
39
0
210
0
220
0
230
1
50
360
0
POINT
5
79
100
AcDbEntity
8
1
62
256
6
ByLayer
370
18
48
1
60
1
100
AcDbPoint
10
53.8353
20
3.2
30
0
39
0
210
0
220
0
230
1
50
360
0
POINT
5
7A
100
AcDbEntity
8
1
62
256
6
ByLayer
370
18
48
1
60
1
100
AcDbPoint
10
-36
20
4
30
0
39
0
210
0
220
0
230
1
50
360
0
POINT
5
7B
100
AcDbEntity
8
1
62
256
6
ByLayer
370
18
48
1
60
1
100
AcDbPoint
10
-36
20
-4
30
0
39
0
210
0
220
0
230
1
50
360
0
POINT
5
7C
100
AcDbEntity
8
1
62
256
6
ByLayer
370
18
48
1
60
1
100
AcDbPoint
10
-36
20
-4
30
0
39
0
210
0
220
0
230
1
50
360
0
POINT
5
7D
100
AcDbEntity
8
1
62
256
6
ByLayer
370
18
48
1
60
1
100
AcDbPoint
10
0
20
-4
30
0
39
0
210
0
220
0
230
1
50
360
0
POINT
5
7E
100
AcDbEntity
8
1
62
256
6
ByLayer
370
18
48
1
60
1
100
AcDbPoint
10
2
20
3.7
30
0
39
0
210
0
220
0
230
1
50
360
0
POINT
5
7F
100
AcDbEntity
8
1
62
256
6
ByLayer
370
18
48
1
60
1
100
AcDbPoint
10
55
20
0
30
0
39
0
210
0
220
0
230
1
50
360
0
POINT
5
80
100
AcDbEntity
8
1
62
256
6
ByLayer
370
18
48
1
60
1
100
AcDbPoint
10
21.9
20
-3.2
30
0
39
0
210
0
220
0
230
1
50
360
0
POINT
5
81
100
AcDbEntity
8
1
62
256
6
ByLayer
370
18
48
1
60
1
100
AcDbPoint
10
55
20
0
30
0
39
0
210
0
220
0
230
1
50
360
0
POINT
5
82
100
AcDbEntity
8
1
62
256
6
ByLayer
370
18
48
1
60
1
100
AcDbPoint
10
-36
20
0
30
0
39
0
210
0
220
0
230
1
50
360
0
POINT
5
83
100
AcDbEntity
8
1
62
256
6
ByLayer
370
18
48
1
60
1
100
AcDbPoint
10
55
20
0
30
0
39
0
210
0
220
0
230
1
50
360
0
SPLINE
5
BD
100
AcDbEntity
8
1
62
256
6
ByLayer
370
18
48
1
60
0
100
AcDbSpline
70
4
71
3
72
8
73
4
40
0
40
0
40
0
40
0
40
1
40
1
40
1
40
1
41
1
10
53.8835434438508
20
-3.07194225958503
30
0
41
1
10
53.8851410029081
20
-3.07086589404852
30
0
41
1
10
53.8867385895576
20
-3.06978944016362
30
0
41
1
10
53.8883362040633
20
-3.06871289793659
30
0
0
SPLINE
5
BE
100
AcDbEntity
8
1
62
256
6
ByLayer
370
18
48
1
60
0
100
AcDbSpline
70
4
71
3
72
8
73
4
40
0
40
0
40
0
40
0
40
1
40
1
40
1
40
1
41
1
10
3.64391700507025
20
2.49072929087413
30
1E-16
41
1
10
3.64337269949687
20
2.45185141145635
30
1E-16
41
1
10
3.64282161007279
20
2.41296802153715
30
1E-16
41
1
10
3.64226378862088
20
2.37407883879226
30
1E-16
0
SPLINE
5
BF
100
AcDbEntity
8
1
62
256
6
ByLayer
370
18
48
1
60
0
100
AcDbSpline
70
4
71
3
72
38
73
34
40
0
40
0
40
0
40
0
40
0.0757573825902702
40
0.0757573825902702
40
0.113636073885405
40
0.113636073885405
40
0.15151476518054
40
0.15151476518054
40
0.189393456475675
40
0.189393456475675
40
0.227272147770811
40
0.227272147770811
40
0.303029530361079
40
0.303029530361079
40
0.454544295541618
40
0.454544295541618
40
0.530301678131888
40
0.530301678131888
40
0.606059060722157
40
0.606059060722157
40
0.643937752017292
40
0.643937752017292
40
0.681816443312428
40
0.681816443312428
40
0.757573825902697
40
0.757573825902697
40
0.833331208492967
40
0.833331208492967
40
0.871209899788101
40
0.871209899788101
40
0.909088591083236
40
0.909088591083236
40
1
40
1
40
1
40
1
41
1
10
53.678950176521
20
-3.16049153981478
30
0
41
1
10
53.1552112086961
20
-3.12220010409408
30
0
41
1
10
52.6322668277136
20
-3.05685757164352
30
0
41
1
10
51.8459785652993
20
-2.92032762479317
30
0
41
1
10
51.5836583481887
20
-2.86839589635417
30
0
41
1
10
51.0602423243984
20
-2.75272270868592
30
-1E-16
41
1
10
50.7988455217935
20
-2.6889331984423
30
-1E-16
41
1
10
50.2760904197334
20
-2.55015587194399
30
-1E-16
41
1
10
50.0147331955737
20
-2.47516559813036
30
2E-16
41
1
10
49.4914421245213
20
-2.31478399690462
30
1E-16
41
1
10
49.2290945802671
20
-2.22925107865402
30
1E-16
41
1
10
48.4432350987754
20
-1.95934560650818
30
1E-16
41
1
10
47.9231937813487
20
-1.76237208792486
30
1E-16
41
1
10
46.3677430578288
20
-1.13424519780119
30
1E-16
41
1
10
45.3371235519631
20
-0.665464959657186
30
0
41
1
10
43.7731529721633
20
0.054328721393091
30
0
41
1
10
43.247446918125
20
0.297906305941723
30
0
41
1
10
42.2010910131676
20
0.773702512878657
30
0
41
1
10
41.6787826004461
20
1.00651101639383
30
-1E-16
41
1
10
40.893038744066
20
1.34055881313267
30
-1E-16
41
1
10
40.6304479216008
20
1.44949064103753
30
-1E-16
41
1
10
40.1065088419157
20
1.66024899808306
30
-1E-16
41
1
10
39.8449257589739
20
1.76213972870318
30
-1E-16
41
1
10
39.0603924397013
20
2.05567064228785
30
-1E-16
41
1
10
38.5377253490964
20
2.23527089414162
30
-1E-16
41
1
10
37.4882932624765
20
2.55420209813457
30
1E-16
41
1
10
36.9653020796608
20
2.69246320710781
30
1E-16
41
1
10
36.1807162953326
20
2.8636392350914
30
0
41
1
10
35.9191339056547
20
2.91470015347326
30
0
41
1
10
35.3952789322527
20
3.00422551884876
30
0
41
1
10
35.1325211682154
20
3.04271698353745
30
0
41
1
10
34.2430434620692
20
3.15059151866933
30
0
41
1
10
33.6202936059537
20
3.18793309058429
30
0
41
1
10
32.9987148965096
20
3.18684729703608
30
0
0
SPLINE
5
C0
100
AcDbEntity
8
1
62
256
6
ByLayer
370
18
48
1
60
0
100
AcDbSpline
70
4
71
3
72
26
73
22
40
0
40
0
40
0
40
0
40
0.0403069640171312
40
0.0403069640171312
40
0.12028138368237
40
0.12028138368237
40
0.200255803347609
40
0.200255803347609
40
0.280230223012849
40
0.280230223012849
40
0.360204642678088
40
0.360204642678088
40
0.520153482008566
40
0.520153482008566
40
0.600127901673805
40
0.600127901673805
40
0.680102321339045
40
0.680102321339045
40
0.840051160669523
40
0.840051160669523
40
1
40
1
40
1
40
1
41
1
10
13.3832992905118
20
-3.02744034934992
30
0
41
1
10
13.2516341828865
20
-3.04554471423697
30
0
41
1
10
13.119766817723
20
-3.06203122339315
30
0
41
1
10
12.7255466396838
20
-3.10627368786086
30
0
41
1
10
12.4627486282367
20
-3.12911675150443
30
0
41
1
10
11.9387075252517
20
-3.16111574886062
30
0
41
1
10
11.676981088401
20
-3.17033497388269
30
0
41
1
10
11.1535626620104
20
-3.17516918396171
30
0
41
1
10
10.8918670016695
20
-3.17078174771041
30
0
41
1
10
10.3678952319129
20
-3.14841040147149
30
0
41
1
10
10.1053547087135
20
-3.13040119752355
30
0
41
1
10
9.3179243892433
20
-3.05624989394966
30
0
41
1
10
8.79479674087213
20
-2.98019476440902
30
0
41
1
10
8.00937784596854
20
-2.82890392576519
30
0
41
1
10
7.74745158333113
20
-2.77227539114594
30
-1E-16
41
1
10
7.22274161204123
20
-2.64719902934496
30
-1E-16
41
1
10
6.95991625557781
20
-2.57871233270734
30
-1E-16
41
1
10
6.17416994779649
20
-2.35773732841875
30
1E-16
41
1
10
5.65235160875682
20
-2.18939611941289
30
1E-16
41
1
10
4.607915172162
20
-1.81849971279323
30
1E-16
41
1
10
4.08522974892261
20
-1.61610571771755
30
1E-16
41
1
10
3.56007229562249
20
-1.40021598262808
30
1E-16
0
SPLINE
5
C1
100
AcDbEntity
8
1
62
256
6
ByLayer
370
18
48
1
60
0
100
AcDbSpline
70
4
71
3
72
20
73
16
40
0
40
0
40
0
40
0
40
0.106128934740786
40
0.106128934740786
40
0.212257869481572
40
0.212257869481572
40
0.424515738963144
40
0.424515738963144
40
0.636773608444718
40
0.636773608444718
40
0.742902543185504
40
0.742902543185504
40
0.849031477926289
40
0.849031477926289
40
1
40
1
40
1
40
1
41
1
10
23
20
-0.833537829666085
30
1E-16
41
1
10
23.3209223786155
20
-0.975871323522796
30
1E-16
41
1
10
23.6414913263401
20
-1.11533819880171
30
1E-16
41
1
10
24.2829736741879
20
-1.38638775890391
30
1E-16
41
1
10
24.6045627854913
20
-1.51825344119493
30
1E-16
41
1
10
25.5652111544967
20
-1.89647535893087
30
1E-16
41
1
10
26.2002014058691
20
-2.12547556716777
30
1E-16
41
1
10
27.4676650634403
20
-2.52417914193555
30
-1E-16
41
1
10
28.1001788738054
20
-2.69384215430267
30
-1E-16
41
1
10
29.0531363410501
20
-2.89569026563837
30
0
41
1
10
29.3714870303819
20
-2.9542062094244
30
0
41
1
10
30.0106402806508
20
-3.05242899982844
30
0
41
1
10
30.3321405376934
20
-3.09217215745693
30
0
41
1
10
31.1086485837893
20
-3.16377086712231
30
0
41
1
10
31.5634741408873
20
-3.18538169060139
30
0
41
1
10
32.0187322089635
20
-3.18633532466649
30
0
0
SPLINE
5
C2
100
AcDbEntity
8
1
62
256
6
ByLayer
370
18
48
1
60
0
100
AcDbSpline
70
4
71
3
72
8
73
4
40
0
40
0
40
0
40
0
40
1
40
1
40
1
40
1
41
1
10
53.5739017528002
20
3.19823029386822
30
0
41
1
10
53.6132080655925
20
3.19883167378129
30
0
41
1
10
53.6525284439875
20
3.19927774925023
30
0
41
1
10
53.6918638608312
20
3.19956791206406
30
0
0
SPLINE
5
C3
100
AcDbEntity
8
1
62
256
6
ByLayer
370
18
48
1
60
0
100
AcDbSpline
70
4
71
3
72
22
73
18
40
0
40
0
40
0
40
0
40
0.0658805359986474
40
0.0658805359986474
40
0.204576922596509
40
0.204576922596509
40
0.34327330919437
40
0.34327330919437
40
0.412621502493301
40
0.412621502493301
40
0.48196969579223
40
0.48196969579223
40
0.620666082390091
40
0.620666082390091
40
0.89805885558581
40
0.89805885558581
40
1
40
1
40
1
40
1
41
1
10
21.7126955679146
20
0.197774480420122
30
0
41
1
10
21.9615554643951
20
0.0894180237293085
30
0
41
1
10
22.2098404233044
20
-0.0190889497644662
30
0
41
1
10
22.9799272373712
20
-0.354494095879346
30
0
41
1
10
23.500218644427
20
-0.580617940490441
30
0
41
1
10
24.5423045577414
20
-1.01903507259121
30
1E-16
41
1
10
25.0637577359302
20
-1.23188137511133
30
1E-16
41
1
10
25.8498511410831
20
-1.53431068671819
30
1E-16
41
1
10
26.1125364152772
20
-1.63229571311314
30
1E-16
41
1
10
26.639737058804
20
-1.82142182850168
30
1E-16
41
1
10
26.9039330197242
20
-1.91243837126271
30
1E-16
41
1
10
27.6948595575805
20
-2.17192749524838
30
1E-16
41
1
10
28.2217672823469
20
-2.32732706561006
30
-1E-16
41
1
10
29.8052048871584
20
-2.73023521728788
30
-1E-16
41
1
10
30.8448817739979
20
-2.907864097139
30
0
41
1
10
32.2685788296059
20
-3.01257574893063
30
0
41
1
10
32.6512570585816
20
-3.02676225867029
30
0
41
1
10
33.0349319332162
20
-3.02716048524559
30
0
0
SPLINE
5
C4
100
AcDbEntity
8
1
62
256
6
ByLayer
370
18
48
1
60
0
100
AcDbSpline
70
4
71
3
72
24
73
20
40
0
40
0
40
0
40
0
40
0.295377666612533
40
0.295377666612533
40
0.443066499918802
40
0.443066499918802
40
0.59075533322507
40
0.59075533322507
40
0.664599749878205
40
0.664599749878205
40
0.738444166531339
40
0.738444166531339
40
0.886132999837611
40
0.886132999837611
40
0.959977416490746
40
0.959977416490746
40
0.996899624817312
40
0.996899624817312
40
1
40
1
40
1
40
1
41
1
10
5.53853633916802
20
2.22320636959552
30
-1E-16
41
1
10
5.1544378181415
20
2.34840300942139
30
-1E-16
41
1
10
4.77703234828078
20
2.47028472056394
30
1E-16
41
1
10
4.22430838939212
20
2.64386924524627
30
1E-16
41
1
10
4.04231837195593
20
2.70017124775782
30
1E-16
41
1
10
3.68395469872465
20
2.80841589117543
30
1E-16
41
1
10
3.50755555797184
20
2.86038226009003
30
0
41
1
10
3.24865940560864
20
2.9335145439826
30
0
41
1
10
3.1634944654503
20
2.95702618613919
30
0
41
1
10
2.99767845723221
20
3.00144418924461
30
0
41
1
10
2.91678591662972
20
3.02242074093701
30
0
41
1
10
2.68137916947731
20
3.08082246880809
30
0
41
1
10
2.53370571456969
20
3.11398906801412
30
0
41
1
10
2.3358996129071
20
3.14868134681305
30
0
41
1
10
2.27394831852516
20
3.15763544620592
30
0
41
1
10
2.19272230894424
20
3.16531493642989
30
0
41
1
10
2.16747150085445
20
3.16693805703872
30
0
41
1
10
2.14238705913405
20
3.167526087613
30
0
41
1
10
2.14045802089532
20
3.16756391579238
30
0
41
1
10
2.13854360581101
20
3.16759394052227
30
0
0
SPLINE
5
C5
100
AcDbEntity
8
1
62
256
6
ByLayer
370
18
48
1
60
0
100
AcDbSpline
70
4
71
3
72
8
73
4
40
0
40
0
40
0
40
0
40
1
40
1
40
1
40
1
41
1
10
5.09197644759814
20
2.36565659289096
30
-1E-16
41
1
10
5.41783848810513
20
2.44996607338092
30
-1E-16
41
1
10
5.73927307455736
20
2.53573844920322
30
1E-16
41
1
10
6.05750386469913
20
2.61817107291
30
1E-16
0
SPLINE
5
C6
100
AcDbEntity
8
1
62
256
6
ByLayer
370
18
48
1
60
0
100
AcDbSpline
70
4
71
3
72
12
73
8
40
0
40
0
40
0
40
0
40
0.510953185030188
40
0.510953185030188
40
0.766429777545285
40
0.766429777545285
40
1
40
1
40
1
40
1
41
1
10
6.05748245411144
20
-2.61816582892831
30
-1E-16
41
1
10
6.76644490163068
20
-2.80142794310018
30
-1E-16
41
1
10
7.46844887163502
20
-2.94190482018186
30
0
41
1
10
8.51926870205918
20
-3.08224470868336
30
0
41
1
10
8.869483199342
20
-3.11716328275551
30
0
41
1
10
9.54028779637915
20
-3.1611231539614
30
0
41
1
10
9.8609313580736
20
-3.17205961952698
30
0
41
1
10
10.1823773492378
20
-3.17270159614242
30
0
0
SPLINE
5
C7
100
AcDbEntity
8
1
62
256
6
ByLayer
370
18
48
1
60
0
100
AcDbSpline
70
4
71
3
72
14
73
10
40
0
40
0
40
0
40
0
40
0.274757416843703
40
0.274757416843703
40
0.513775821261497
40
0.513775821261497
40
0.786302310081677
40
0.786302310081677
40
1
40
1
40
1
40
1
41
1
10
53.4882383415292
20
-0.0348402673747046
30
0
41
1
10
53.4889831187925
20
-0.0351520742097193
30
0
41
1
10
53.4897165853009
20
-0.0358315956081867
30
0
41
1
10
53.4909407807417
20
-0.037548310989024
30
0
41
1
10
53.4914676936633
20
-0.0385509651692928
30
0
41
1
10
53.4924304325901
20
-0.0409704004155174
30
0
41
1
10
53.492858647785
20
-0.0424637346722818
30
0
41
1
10
53.4933843596067
20
-0.045294632885458
30
0
41
1
10
53.4935383409835
20
-0.0466300117395519
30
0
41
1
10
53.4935853738378
20
-0.0479590525684159
30
0
0
SPLINE
5
C8
100
AcDbEntity
8
1
62
256
6
ByLayer
370
18
48
1
60
0
100
AcDbSpline
70
4
71
3
72
30
73
26
40
0
40
0
40
0
40
0
40
0.0625000000000001
40
0.0625000000000001
40
0.125
40
0.125
40
0.25
40
0.25
40
0.3125
40
0.3125
40
0.375
40
0.375
40
0.4375
40
0.4375
40
0.5
40
0.5
40
0.625
40
0.625
40
0.6875
40
0.6875
40
0.75
40
0.75
40
0.875
40
0.875
40
1
40
1
40
1
40
1
41
1
10
3.6025075683529
20
2.36513897178514
30
1E-16
41
1
10
3.6025009780858
20
2.31184848354889
30
1E-16
41
1
10
3.60249358273109
20
2.25579746652838
30
1E-16
41
1
10
3.60247736604805
20
2.13820276790742
30
-1E-16
41
1
10
3.6024685181655
20
2.07648806282981
30
-1E-16
41
1
10
3.60244041057524
20
1.88547427129075
30
-1E-16
41
1
10
3.60241954001481
20
1.74978304485279
30
-1E-16
41
1
10
3.60238575981759
20
1.53398053023483
30
-1E-16
41
1
10
3.6023740809359
20
1.45999101539701
30
-1E-16
41
1
10
3.60234993247008
20
1.30780893996598
30
-1E-16
41
1
10
3.60233743022997
20
1.22941383619317
30
-1E-16
41
1
10
3.60231202524096
20
1.07067715270185
30
-1E-16
41
1
10
3.60229908368808
20
0.990089549235165
30
-1E-16
41
1
10
3.60227272035536
20
0.826482755393414
30
-1E-16
41
1
10
3.60225925405689
20
0.743189480148033
30
0
41
1
10
3.60221838652794
20
0.491587417702732
30
0
41
1
10
3.60219074059904
20
0.322830089801244
30
0
41
1
10
3.6021481764956
20
0.0682115170910436
30
0
41
1
10
3.60213380177808
20
-0.0169098154949268
30
0
41
1
10
3.60210454215633
20
-0.18765722552385
30
0
41
1
10
3.6020895893966
20
-0.273664954165639
30
0
41
1
10
3.60204421574599
20
-0.529554535547618
30
0
41
1
10
3.60201349048998
20
-0.6962328660818
30
0
41
1
10
3.60194968048475
20
-1.0220098158417
30
1E-16
41
1
10
3.60191648335211
20
-1.18163407713755
30
1E-16
41
1
10
3.60188148392251
20
-1.33607069916573
30
1E-16
0
SPLINE
5
C9
100
AcDbEntity
8
1
62
256
6
ByLayer
370
18
48
1
60
0
100
AcDbSpline
70
4
71
3
72
24
73
20
40
0
40
0
40
0
40
0
40
0.0787153667926731
40
0.0787153667926731
40
0.157430733585346
40
0.157430733585346
40
0.314861467170693
40
0.314861467170693
40
0.47229220075604
40
0.47229220075604
40
0.629722934341386
40
0.629722934341386
40
0.708438301134058
40
0.708438301134058
40
0.787153667926729
40
0.787153667926729
40
0.944584401512076
40
0.944584401512076
40
1
40
1
40
1
40
1
41
1
10
53.8569242936744
20
-3.02373968841152
30
0
41
1
10
53.5933836346622
20
-3.00810910717695
30
0
41
1
10
53.3299792250289
20
-2.98661809472731
30
0
41
1
10
52.8030390112635
20
-2.92993147925162
30
0
41
1
10
52.539420698379
20
-2.89510781723362
30
0
41
1
10
51.7480307720904
20
-2.77186462652011
30
-1E-16
41
1
10
51.2243559775733
20
-2.66545111096596
30
-1E-16
41
1
10
50.1805910837265
20
-2.41040410369112
30
-1E-16
41
1
10
49.66051814382
20
-2.26165606559289
30
1E-16
41
1
10
48.6196169026546
20
-1.92854855956924
30
1E-16
41
1
10
48.098829867956
20
-1.7441121533108
30
1E-16
41
1
10
47.3141336161099
20
-1.44633060941357
30
1E-16
41
1
10
47.0519417559478
20
-1.34355035596272
30
1E-16
41
1
10
46.5258193160229
20
-1.13190241501278
30
1E-16
41
1
10
46.2615516923569
20
-1.02286395722723
30
1E-16
41
1
10
45.4730746069246
20
-0.691648350060802
30
0
41
1
10
44.9507724943606
20
-0.464495585092266
30
0
41
1
10
44.2462019386746
20
-0.155730433992375
30
0
41
1
10
44.0629222282897
20
-0.0751589332526237
30
0
41
1
10
43.8797084052941
20
0.0053786595193515
30
0
0
SPLINE
5
CA
100
AcDbEntity
8
1
62
256
6
ByLayer
370
18
48
1
60
0
100
AcDbSpline
70
4
71
3
72
16
73
12
40
0
40
0
40
0
40
0
40
0.2096417803019
40
0.2096417803019
40
0.308436557764163
40
0.308436557764163
40
0.407231335226426
40
0.407231335226426
40
0.604820890150951
40
0.604820890150951
40
1
40
1
40
1
40
1
41
1
10
11.5561163268671
20
-3.0208608550158
30
0
41
1
10
11.0033368066548
20
-3.0306093639085
30
0
41
1
10
10.4501733066847
20
-3.01156352778807
30
0
41
1
10
9.63210987898717
20
-2.94072716251287
30
0
41
1
10
9.36943892039258
20
-2.91161444442278
30
0
41
1
10
8.84228776789894
20
-2.84064867812796
30
0
41
1
10
8.57776156827796
20
-2.79875350860732
30
-1E-16
41
1
10
7.78823664510514
20
-2.65579783063595
30
-1E-16
41
1
10
7.26472492585967
20
-2.53711909136575
30
-1E-16
41
1
10
5.69653969713661
20
-2.12048808549403
30
1E-16
41
1
10
4.65432881103351
20
-1.76135888572159
30
1E-16
41
1
10
3.59786924560325
20
-1.34871344043134
30
1E-16
0
SPLINE
5
CB
100
AcDbEntity
8
1
62
256
6
ByLayer
370
18
48
1
60
0
100
AcDbSpline
70
4
71
3
72
8
73
4
40
0
40
0
40
0
40
0
40
1
40
1
40
1
40
1
41
1
10
53.6789501765196
20
-3.16049153981251
30
0
41
1
10
53.7336766328785
20
-3.12854592236687
30
0
41
1
10
53.7885078540859
20
-3.09609942258473
30
0
41
1
10
53.8434597478566
20
-3.0631648499903
30
0
0
SPLINE
5
CC
100
AcDbEntity
8
1
62
256
6
ByLayer
370
18
48
1
60
0
100
AcDbSpline
70
2053
71
3
72
46
73
42
40
0
40
0
40
0
40
0
40
0.0624999999999976
40
0.0624999999999976
40
0.093749999999998
40
0.093749999999998
40
0.124999999999998
40
0.124999999999998
40
0.156249999999999
40
0.156249999999999
40
0.187499999999999
40
0.187499999999999
40
0.21875
40
0.21875
40
0.25
40
0.25
40
0.312500000000001
40
0.312500000000001
40
0.375000000000002
40
0.375000000000002
40
0.500000000000004
40
0.500000000000004
40
0.562500000000006
40
0.562500000000006
40
0.625000000000007
40
0.625000000000007
40
0.656250000000008
40
0.656250000000008
40
0.687500000000009
40
0.687500000000009
40
0.71875000000001
40
0.71875000000001
40
0.750000000000011
40
0.750000000000011
40
0.812500000000008
40
0.812500000000008
40
0.875000000000005
40
0.875000000000005
40
0.937500000000003
40
0.937500000000003
40
1
40
1
40
1
40
1
41
1
10
0.490085882437313
20
-3.78852874775622
30
0
41
1
10
0.48419051032306
20
-3.79943936615089
30
0
41
1
10
0.4757196018966
20
-3.8114091349608
30
0
41
1
10
0.456721616357299
20
-3.83187108999323
30
0
41
1
10
0.449330748661453
20
-3.83911326068579
30
0
41
1
10
0.431112583028323
20
-3.85494064893277
30
0
41
1
10
0.420405030662209
20
-3.86343429140911
30
0
41
1
10
0.393936379130992
20
-3.881807161328
30
0
41
1
10
0.377865148449558
20
-3.89184133396554
30
0
41
1
10
0.340809466980062
20
-3.91143118450861
30
0
41
1
10
0.319806942858122
20
-3.92078409267589
30
0
41
1
10
0.282597622209863
20
-3.93448354362613
30
0
41
1
10
0.266340714610067
20
-3.93909609972226
30
0
41
1
10
0.238231982481864
20
-3.94544286601237
30
0
41
1
10
0.226548999095797
20
-3.947159210905
30
0
41
1
10
0.195706890135369
20
-3.94983917413907
30
0
41
1
10
0.180988578849451
20
-3.94830606984576
30
0
41
1
10
0.15871026425998
20
-3.94191496021264
30
0
41
1
10
0.151100250702939
20
-3.93688596192993
30
0
41
1
10
0.13713690974916
20
-3.91813571653708
30
0
41
1
10
0.138737782229612
20
-3.90096139853569
30
0
41
1
10
0.159497158886609
20
-3.8676890113108
30
0
41
1
10
0.169480660736639
20
-3.85546061337047
30
0
41
1
10
0.198453859619548
20
-3.82774502833274
30
0
41
1
10
0.216471593308768
20
-3.81282470061635
30
0
41
1
10
0.257190426094297
20
-3.78609184842784
30
0
41
1
10
0.273153764363627
20
-3.7764906212212
30
0
41
1
10
0.309535276690468
20
-3.75735151804935
30
0
41
1
10
0.330675965457118
20
-3.74763565394341
30
0
41
1
10
0.368766735899811
20
-3.73295385315294
30
0
41
1
10
0.385565984007485
20
-3.72786797769942
30
0
41
1
10
0.413312500433847
20
-3.72118576533478
30
0
41
1
10
0.424481234127399
20
-3.71945825961396
30
0
41
1
10
0.453517185885857
20
-3.71691360885316
30
0
41
1
10
0.466180499960643
20
-3.71871737991665
30
0
41
1
10
0.485553893177666
20
-3.72554711028681
30
0
41
1
10
0.491789053172965
20
-3.7306785139659
30
0
41
1
10
0.499456205580145
20
-3.74322062907353
30
0
41
1
10
0.500871984692878
20
-3.75067265292529
30
0
41
1
10
0.499157963408322
20
-3.76782533828134
30
0
41
1
10
0.495981254551566
20
-3.77761812936154
30
0
41
1
10
0.490085882437313
20
-3.78852874775622
30
0
0
SPLINE
5
CD
100
AcDbEntity
8
1
62
256
6
ByLayer
370
18
48
1
60
0
100
AcDbSpline
70
4
71
3
72
28
73
24
40
0
40
0
40
0
40
0
40
0.141733130287473
40
0.141733130287473
40
0.283466260574947
40
0.283466260574947
40
0.42519939086242
40
0.42519939086242
40
0.496065956006157
40
0.496065956006157
40
0.566932521149893
40
0.566932521149893
40
0.63779908629363
40
0.63779908629363
40
0.708665651437367
40
0.708665651437367
40
0.850398781724837
40
0.850398781724837
40
0.921265346868572
40
0.921265346868572
40
0.992131912012307
40
0.992131912012307
40
1
40
1
40
1
40
1
41
1
10
53.4935853738377
20
-0.0479590525684159
30
0
41
1
10
52.9726087181336
20
0.18131309101031
30
0
41
1
10
52.4542351837008
20
0.409100351609084
30
0
41
1
10
51.4187588412634
20
0.852779599526599
30
-1E-16
41
1
10
50.9020727613909
20
1.06909759292964
30
-1E-16
41
1
10
49.8663098677979
20
1.48115878798387
30
-1E-16
41
1
10
49.3473199447992
20
1.67679223767075
30
-1E-16
41
1
10
48.5637702259682
20
1.94821170083446
30
-1E-16
41
1
10
48.30139368417
20
2.03509450554029
30
-1E-16
41
1
10
47.7795289487417
20
2.19888898805729
30
-1E-16
41
1
10
47.5194532176349
20
2.27602864884048
30
-1E-16
41
1
10
47.0004283758782
20
2.42012967866654
30
1E-16
41
1
10
46.7415183390197
20
2.48702343142358
30
1E-16
41
1
10
46.2247088782374
20
2.60924722269854
30
1E-16
41
1
10
45.96673692276
20
2.66472731530593
30
1E-16
41
1
10
45.1922967500999
20
2.81542698038811
30
0
41
1
10
44.6755295806011
20
2.8945071580992
30
0
41
1
10
43.8982622989002
20
2.9753943489649
30
0
41
1
10
43.6388215305453
20
2.99596725131178
30
0
41
1
10
43.1187662151065
20
3.0229217256271
30
0
41
1
10
42.858012869358
20
3.02993206305794
30
0
41
1
10
42.5670965499974
20
3.03144618183757
30
0
41
1
10
42.5380320491804
20
3.0315231540886
30
0
41
1
10
42.5089753604106
20
3.03152468399898
30
0
0
SPLINE
5
CE
100
AcDbEntity
8
1
62
256
6
ByLayer
370
18
48
1
60
0
100
AcDbSpline
70
4
71
3
72
24
73
20
40
0
40
0
40
0
40
0
40
0.0766389269397892
40
0.0766389269397892
40
0.192059061072315
40
0.192059061072315
40
0.307479195204842
40
0.307479195204842
40
0.422899329337368
40
0.422899329337368
40
0.538319463469894
40
0.538319463469894
40
0.653739597602421
40
0.653739597602421
40
0.769159731734947
40
0.769159731734947
40
0.884579865867474
40
0.884579865867474
40
1
40
1
40
1
40
1
41
1
10
10.3932415332285
20
-0.224880069336194
30
0
41
1
10
10.219934661903
20
-0.149717353155239
30
0
41
1
10
10.0469727420753
20
-0.0745244511534793
30
0
41
1
10
9.6144138443006
20
0.113920617993074
30
0
41
1
10
9.35521097488737
20
0.227083577459069
30
0
41
1
10
8.83722893057308
20
0.451086331310648
30
0
41
1
10
8.57849253446815
20
0.561995916301839
30
0
41
1
10
8.06153891200157
20
0.781284611457494
30
0
41
1
10
7.80329308451857
20
0.889621746823764
30
-1E-16
41
1
10
7.28635376696849
20
1.10194651083319
30
-1E-16
41
1
10
7.02767601163904
20
1.20595459473526
30
-1E-16
41
1
10
6.50986553505476
20
1.40907434996151
30
-1E-16
41
1
10
6.25062139192536
20
1.50806194811671
30
-1E-16
41
1
10
5.73051331265793
20
1.69940333566126
30
-1E-16
41
1
10
5.46976965496393
20
1.79189566675794
30
-1E-16
41
1
10
4.946607214273
20
1.96951136048776
30
-1E-16
41
1
10
4.68424692081513
20
2.05461208059711
30
-1E-16
41
1
10
4.16094255281214
20
2.21502390578434
30
-1E-16
41
1
10
3.89956561522723
20
2.29048538766628
30
1E-16
41
1
10
3.63828547128867
20
2.3605874750294
30
1E-16
0
SPLINE
5
CF
100
AcDbEntity
8
1
62
256
6
ByLayer
370
18
48
1
60
0
100
AcDbSpline
70
4
71
3
72
8
73
4
40
0
40
0
40
0
40
0
40
1
40
1
40
1
40
1
41
1
10
3.56167104597083
20
-1.33791348638502
30
1E-16
41
1
10
3.56113190222501
20
-1.35868857356499
30
1E-16
41
1
10
3.56059896826162
20
-1.37945594883135
30
1E-16
41
1
10
3.56007229562246
20
-1.40021598262803
30
1E-16
0
SPLINE
5
D0
100
AcDbEntity
8
1
62
256
6
ByLayer
370
18
48
1
60
0
100
AcDbSpline
70
4
71
3
72
44
73
40
40
0
40
0
40
0
40
0
40
0.0134102689363678
40
0.0134102689363678
40
0.144231686686563
40
0.144231686686563
40
0.20964239556166
40
0.20964239556166
40
0.242347749999209
40
0.242347749999209
40
0.275053104436757
40
0.275053104436757
40
0.340463813311853
40
0.340463813311853
40
0.3731691677494
40
0.3731691677494
40
0.405874522186947
40
0.405874522186947
40
0.536695939937135
40
0.536695939937135
40
0.569401294374682
40
0.569401294374682
40
0.602106648812229
40
0.602106648812229
40
0.667517357687324
40
0.667517357687324
40
0.700222712124871
40
0.700222712124871
40
0.732928066562417
40
0.732928066562417
40
0.798338775437513
40
0.798338775437513
40
0.929160193187702
40
0.929160193187702
40
0.961865547625249
40
0.961865547625249
40
0.994570902062796
40
0.994570902062796
40
1
40
1
40
1
40
1
41
1
10
35.1931606202779
20
-3.03203882263492
30
0
41
1
10
35.0856429373167
20
-3.04728853329084
30
0
41
1
10
34.9781822686721
20
-3.06143497604694
30
0
41
1
10
33.824491615106
20
-3.20135286502776
30
0
41
1
10
32.7922947840101
20
-3.22047376420937
30
0
41
1
10
31.2379060022251
20
-3.09010110963027
30
0
41
1
10
30.7189532484542
20
-3.02015600144694
30
0
41
1
10
29.9355664763554
20
-2.87699322485685
30
0
41
1
10
29.6731588690655
20
-2.82277074173712
30
0
41
1
10
29.1487314983297
20
-2.70240805396034
30
-1E-16
41
1
10
28.886946341642
20
-2.63640186187956
30
-1E-16
41
1
10
28.1019485153709
20
-2.42217892912197
30
1E-16
41
1
10
27.5793325641437
20
-2.25740352406558
30
1E-16
41
1
10
26.792660653995
20
-1.98280152196602
30
1E-16
41
1
10
26.5301169425058
20
-1.8866348358388
30
1E-16
41
1
10
26.0076838483059
20
-1.68763449305933
30
1E-16
41
1
10
25.7472560449493
20
-1.5846874059757
30
1E-16
41
1
10
24.4478340875738
20
-1.05531183578932
30
1E-16
41
1
10
23.4167321443634
20
-0.585311720066471
30
0
41
1
10
22.1158444311797
20
0.011485332308979
30
0
41
1
10
21.8551524021949
20
0.131499311757636
30
0
41
1
10
21.3319825641745
20
0.371143816758149
30
0
41
1
10
21.0690983606962
20
0.490877172558356
30
0
41
1
10
20.2826802255898
20
0.844976738822112
30
-1E-16
41
1
10
19.7600738470524
20
1.07546483297165
30
-1E-16
41
1
10
18.9746027545401
20
1.40437149802491
30
-1E-16
41
1
10
18.7126324449698
20
1.51143635977317
30
-1E-16
41
1
10
18.1876425961077
20
1.718889293996
30
-1E-16
41
1
10
17.9257872298091
20
1.818766190057
30
-1E-16
41
1
10
17.1429262748852
20
2.10506950845613
30
-1E-16
41
1
10
16.6241154782587
20
2.27868815415161
30
-1E-16
41
1
10
15.0695872203966
20
2.73692494532733
30
1E-16
41
1
10
14.0361206035763
20
2.95919085126371
30
0
41
1
10
12.7255466396838
20
3.10627368786086
30
0
41
1
10
12.4627486282367
20
3.12911675150443
30
0
41
1
10
11.9387075252517
20
3.16111574886062
30
0
41
1
10
11.676981088401
20
3.17033497388269
30
0
41
1
10
11.3718280729922
20
3.17315331903134
30
0
41
1
10
11.3283846442424
20
3.17336705257205
30
0
41
1
10
11.2849401993817
20
3.17339330838277
30
0
0
SPLINE
5
D1
100
AcDbEntity
8
1
62
256
6
ByLayer
370
18
48
1
60
0
100
AcDbSpline
70
4
71
3
72
16
73
12
40
0
40
0
40
0
40
0
40
0.409040005081343
40
0.409040005081343
40
0.613560007622013
40
0.613560007622013
40
0.71582000889235
40
0.71582000889235
40
0.818080010162686
40
0.818080010162686
40
1
40
1
40
1
40
1
41
1
10
3.60188148392246
20
-1.33607069916576
30
1E-16
41
1
10
4.65823752955433
20
-1.74793193731645
30
1E-16
41
1
10
5.70041727299201
20
-2.10677984430765
30
1E-16
41
1
10
7.26856321732961
20
-2.52367473741992
30
-1E-16
41
1
10
7.79205655542071
20
-2.64256255623187
30
-1E-16
41
1
10
8.58153536455239
20
-2.78599819915513
30
-1E-16
41
1
10
8.84603887466795
20
-2.8280812767276
30
0
41
1
10
9.37315874838569
20
-2.899480066526
30
0
41
1
10
9.6358199631253
20
-2.92883772738557
30
0
41
1
10
10.3639876071347
20
-2.9926400252485
30
0
41
1
10
10.8281250355333
20
-3.01310761881655
30
0
41
1
10
11.2917131403198
20
-3.01336878810031
30
0
0
SPLINE
5
D2
100
AcDbEntity
8
1
62
256
6
ByLayer
370
18
48
1
60
0
100
AcDbSpline
70
4
71
3
72
24
73
20
40
0
40
0
40
0
40
0
40
0.091115709753207
40
0.091115709753207
40
0.242596424794337
40
0.242596424794337
40
0.318336782314902
40
0.318336782314902
40
0.394077139835467
40
0.394077139835467
40
0.5455578548766
40
0.5455578548766
40
0.697038569917734
40
0.697038569917734
40
0.848519284958867
40
0.848519284958867
40
0.924259642479433
40
0.924259642479433
40
1
40
1
40
1
40
1
41
1
10
43.4930888061342
20
0.185528181517981
30
0
41
1
10
43.8060878801727
20
0.0486492618745729
30
0
41
1
10
44.1190862574128
20
-0.0888058409942118
30
0
41
1
10
44.9536710834683
20
-0.453444156049557
30
0
41
1
10
45.4759603083308
20
-0.67998746034408
30
0
41
1
10
46.2643920934499
20
-1.01041885931278
30
1E-16
41
1
10
46.5286382637655
20
-1.1192179405881
30
1E-16
41
1
10
47.0547362209728
20
-1.33045936596943
30
1E-16
41
1
10
47.3169194578375
20
-1.43306836147809
30
1E-16
41
1
10
48.1016007939481
20
-1.73042182795797
30
1E-16
41
1
10
48.6223881876965
20
-1.91469528788454
30
1E-16
41
1
10
49.6632929622333
20
-2.24771201378403
30
1E-16
41
1
10
50.183368334723
20
-2.39653152664522
30
-1E-16
41
1
10
51.2271144548465
20
-2.65195131616576
30
-1E-16
41
1
10
51.7507665611889
20
-2.75866729172358
30
-1E-16
41
1
10
52.5420873333767
20
-2.88253572710408
30
0
41
1
10
52.8056926520732
20
-2.9175975738633
30
0
41
1
10
53.3326018095358
20
-2.97481401046409
30
0
41
1
10
53.5959666187162
20
-2.99662715000392
30
0
41
1
10
53.85952003817
20
-3.01254380977366
30
0
0
SPLINE
5
D3
100
AcDbEntity
8
1
62
256
6
ByLayer
370
18
48
1
60
0
100
AcDbSpline
70
4
71
3
72
40
73
36
40
0
40
0
40
0
40
0
40
0.0255784771689931
40
0.0255784771689931
40
0.0698703645704026
40
0.0698703645704026
40
0.114162251971812
40
0.114162251971812
40
0.158454139373222
40
0.158454139373222
40
0.202746026774631
40
0.202746026774631
40
0.291329801577451
40
0.291329801577451
40
0.33562168897886
40
0.33562168897886
40
0.37991357638027
40
0.37991357638027
40
0.424205463781679
40
0.424205463781679
40
0.468497351183089
40
0.468497351183089
40
0.557081125985908
40
0.557081125985908
40
0.645664900788727
40
0.645664900788727
40
0.689956788190136
40
0.689956788190136
40
0.734248675591544
40
0.734248675591544
40
0.778540562992953
40
0.778540562992953
40
0.822832450394362
40
0.822832450394362
40
1
40
1
40
1
40
1
41
1
10
32.0187330954334
20
3.18633532652339
30
0
41
1
10
32.2035558978032
20
3.18672246598641
30
0
41
1
10
32.3884499844848
20
3.1837049980912
30
0
41
1
10
32.893990712562
20
3.16612128388996
30
0
41
1
10
33.2153412800365
20
3.14468219444336
30
0
41
1
10
33.8561990497467
20
3.08186904710593
30
0
41
1
10
34.1761302856526
20
3.04050019437946
30
0
41
1
10
34.816074268634
20
2.93856912110166
30
0
41
1
10
35.1360891767406
20
2.87800934904206
30
0
41
1
10
35.777266331529
20
2.73853573032861
30
1E-16
41
1
10
36.098476297103
20
2.65956734498209
30
1E-16
41
1
10
37.0592747191781
20
2.39846700783028
30
-1E-16
41
1
10
37.6981192647018
20
2.19173501450672
30
-1E-16
41
1
10
38.660280585193
20
1.84223664623596
30
-1E-16
41
1
10
38.9812529813924
20
1.71929394207641
30
-1E-16
41
1
10
39.6215513585213
20
1.46375250432757
30
-1E-16
41
1
10
39.9413390518332
20
1.3309927750031
30
-1E-16
41
1
10
40.5812429424769
20
1.0575653790508
30
-1E-16
41
1
10
40.9013589044001
20
0.916895862996995
30
-1E-16
41
1
10
41.5430397181384
20
0.629912012397881
30
0
41
1
10
41.8636194322465
20
0.484048439403807
30
0
41
1
10
42.8237523874641
20
0.0439563289846205
30
0
41
1
10
43.46284503669
20
-0.253469113861712
30
0
41
1
10
44.7464998071254
20
-0.837098705795569
30
1E-16
41
1
10
45.3852957326897
20
-1.12054536239026
30
1E-16
41
1
10
46.345422798656
20
-1.51985716889251
30
1E-16
41
1
10
46.6661526094112
20
-1.64882247984397
30
1E-16
41
1
10
47.3075522129234
20
-1.89540169268321
30
1E-16
41
1
10
47.6275503399948
20
-2.01275918521236
30
1E-16
41
1
10
48.2672517865263
20
-2.23378714256825
30
1E-16
41
1
10
48.5869581049247
20
-2.33745426859701
30
1E-16
41
1
10
49.2271433407682
20
-2.52944317436538
30
-1E-16
41
1
10
49.5482812712874
20
-2.61793105092684
30
-1E-16
41
1
10
51.1493535037423
20
-3.01580488288405
30
0
41
1
10
52.4126564795459
20
-3.19013167258822
30
0
41
1
10
53.6918638608311
20
-3.19956791206406
30
0
0
SPLINE
5
D4
100
AcDbEntity
8
1
62
256
6
ByLayer
370
18
48
1
60
0
100
AcDbSpline
70
4
71
3
72
36
73
32
40
0
40
0
40
0
40
0
40
0.0398792005433377
40
0.0398792005433377
40
0.108283353396468
40
0.108283353396468
40
0.176687506249599
40
0.176687506249599
40
0.245091659102729
40
0.245091659102729
40
0.31349581195586
40
0.31349581195586
40
0.38189996480899
40
0.38189996480899
40
0.450304117662121
40
0.450304117662121
40
0.518708270515251
40
0.518708270515251
40
0.587112423368382
40
0.587112423368382
40
0.723920729074641
40
0.723920729074641
40
0.79232488192777
40
0.79232488192777
40
0.860729034780899
40
0.860729034780899
40
0.929133187634028
40
0.929133187634028
40
0.997537340487157
40
0.997537340487157
40
1
40
1
40
1
40
1
41
1
10
32.1562759116704
20
-0.229411971699733
30
0
41
1
10
32.0050423978315
20
-0.163458854263041
30
0
41
1
10
31.8536231563145
20
-0.0972975838490697
30
0
41
1
10
31.4418016605568
20
0.0824696538996932
30
0
41
1
10
31.1809937752366
20
0.196474732357643
30
0
41
1
10
30.6575609420099
20
0.424248185579955
30
0
41
1
10
30.3956153339844
20
0.537410161894229
30
0
41
1
10
29.872386950166
20
0.760481367139533
30
0
41
1
10
29.6109781937907
20
0.870665956117222
30
-1E-16
41
1
10
29.0879261855093
20
1.08698862641097
30
-1E-16
41
1
10
28.8258365649887
20
1.193106168572
30
-1E-16
41
1
10
28.3023094097887
20
1.39949772214055
30
-1E-16
41
1
10
28.0416381077852
20
1.49957648650792
30
-1E-16
41
1
10
27.5216680968435
20
1.69243478167883
30
-1E-16
41
1
10
27.2621884718969
20
1.78521363731124
30
-1E-16
41
1
10
26.7441064884865
20
1.96263056067684
30
-1E-16
41
1
10
26.4856171094203
20
2.04719945471311
30
-1E-16
41
1
10
25.9689039823786
20
2.20732878281504
30
-1E-16
41
1
10
25.7105539710402
20
2.2830201069429
30
1E-16
41
1
10
24.9354843933846
20
2.49509886329977
30
1E-16
41
1
10
24.4185332425961
20
2.61671224872319
30
1E-16
41
1
10
23.6392732254069
20
2.76590118090624
30
1E-16
41
1
10
23.3790388898673
20
2.80954960927067
30
1E-16
41
1
10
22.8567117219479
20
2.88550567470415
30
0
41
1
10
22.5942195363377
20
2.91788302028306
30
0
41
1
10
22.0721203778726
20
2.96952151506696
30
0
41
1
10
21.8122471545716
20
2.98820542934695
30
0
41
1
10
21.2932230107008
20
3.01380576076554
30
0
41
1
10
21.0340676732948
20
3.02075715794274
30
0
41
1
10
20.7660016824231
20
3.0212158698603
30
0
41
1
10
20.75668698786
20
3.02122254137768
30
0
41
1
10
20.7473730041318
20
3.02122000789387
30
0
0
SPLINE
5
D5
100
AcDbEntity
8
1
62
256
6
ByLayer
370
18
48
1
60
0
100
AcDbSpline
70
4
71
3
72
34
73
30
40
0
40
0
40
0
40
0
40
0.330054342876947
40
0.330054342876947
40
0.554680411670967
40
0.554680411670967
40
0.70421662681257
40
0.70421662681257
40
0.803757679597775
40
0.803757679597775
40
0.870046116528548
40
0.870046116528548
40
0.914203694165865
40
0.914203694165865
40
0.943636451854913
40
0.943636451854913
40
0.963323581989474
40
0.963323581989474
40
0.976254640199229
40
0.976254640199229
40
0.984746714183869
40
0.984746714183869
40
0.990491997837551
40
0.990491997837551
40
0.995233533689256
40
0.995233533689256
40
0.998669460125411
40
0.998669460125411
40
1
40
1
40
1
40
1
41
1
10
53.6918638608312
20
3.19956791206406
30
0
41
1
10
53.7129135188036
20
3.18572143899732
30
0
41
1
10
53.7339803956924
20
3.17180605333334
30
0
41
1
10
53.7694128937871
20
3.14830771275359
30
0
41
1
10
53.7837697709544
20
3.13876055217182
30
0
41
1
10
53.8076971492836
20
3.1228068855155
30
0
41
1
10
53.8172634334538
20
3.11641729773066
30
0
41
1
10
53.8332039500834
20
3.10575172641342
30
0
41
1
10
53.839576102018
20
3.10148330330853
30
0
41
1
10
53.8501946570043
20
3.09436230859677
30
0
41
1
10
53.8544400889277
20
3.09151309136587
30
0
41
1
10
53.8615149255605
20
3.08676142553668
30
0
41
1
10
53.8643450235046
20
3.08485968726725
30
0
41
1
10
53.8690579429808
20
3.08169122363793
30
0
41
1
10
53.87092279522
20
3.08043727384361
30
0
41
1
10
53.8740476425655
20
3.0783351832207
30
0
41
1
10
53.8753073873958
20
3.0774874883152
30
0
41
1
10
53.8774243172383
20
3.07606251673153
30
0
41
1
10
53.8782724142296
20
3.07549151410532
30
0
41
1
10
53.8796840503341
20
3.07454096955442
30
0
41
1
10
53.8802445695096
20
3.07416351061141
30
0
41
1
10
53.8811761452101
20
3.07353617624273
30
0
41
1
10
53.8815502586147
20
3.07328424254703
30
0
41
1
10
53.8822199864527
20
3.07283325338494
30
0
41
1
10
53.8825196352227
20
3.07263147774577
30
0
41
1
10
53.8830069627699
20
3.07230335874851
30
0
41
1
10
53.8832065112971
20
3.07216901445241
30
0
41
1
10
53.8834344614674
20
3.07201559288512
30
0
41
1
10
53.8834930971681
20
3.07197613304373
30
0
41
1
10
53.8835434441118
20
3.07194225940944
30
0
0
SPLINE
5
D6
100
AcDbEntity
8
1
62
256
6
ByLayer
370
18
48
1
60
0
100
AcDbSpline
70
4
71
3
72
12
73
8
40
0
40
0
40
0
40
0
40
0.250000000000016
40
0.250000000000016
40
0.500000000000032
40
0.500000000000032
40
1
40
1
40
1
40
1
41
1
10
3.60250756835285
20
2.3791771388947
30
1E-16
41
1
10
3.58688056859285
20
2.3791660145576
30
1E-16
41
1
10
3.5717024767977
20
2.37949388201665
30
1E-16
41
1
10
3.54564026718128
20
2.38057717405249
30
1E-16
41
1
10
3.53486891953682
20
2.38131094954727
30
1E-16
41
1
10
3.50948403380949
20
2.38369583467607
30
1E-16
41
1
10
3.50170979169675
20
2.38547042695885
30
1E-16
41
1
10
3.50170979169678
20
2.38707087027584
30
1E-16
0
SPLINE
5
D7
100
AcDbEntity
8
1
62
256
6
ByLayer
370
18
48
1
60
0
100
AcDbSpline
70
4
71
3
72
8
73
4
40
0
40
0
40
0
40
0
40
1
40
1
40
1
40
1
41
1
10
53.8835434443865
20
3.07194225922413
30
0
41
1
10
53.8851410032652
20
3.07086589380793
30
0
41
1
10
53.8867385897361
20
3.06978944004331
30
0
41
1
10
53.8883362040633
20
3.06871289793659
30
0
0
SPLINE
5
D8
100
AcDbEntity
8
1
62
256
6
ByLayer
370
18
48
1
60
0
100
AcDbSpline
70
4
71
3
72
12
73
8
40
0
40
0
40
0
40
0
40
0.499999999999969
40
0.499999999999969
40
0.749999999999984
40
0.749999999999984
40
1
40
1
40
1
40
1
41
1
10
3.50170979169678
20
2.38707087027584
30
1E-16
41
1
10
3.50170979169675
20
2.38226142140454
30
1E-16
41
1
10
3.5094798033054
20
2.37723053135613
30
1E-16
41
1
10
3.5348725901618
20
2.37074882659044
30
1E-16
41
1
10
3.54564829564558
20
2.36880150639035
30
1E-16
41
1
10
3.57171241089048
20
2.36595592810468
30
1E-16
41
1
10
3.58688688947237
20
2.36511012859023
30
1E-16
41
1
10
3.60250756835285
20
2.36513897178512
30
1E-16
0
SPLINE
5
D9
100
AcDbEntity
8
1
62
256
6
ByLayer
370
18
48
1
60
0
100
AcDbSpline
70
4
71
3
72
58
73
54
40
0
40
0
40
0
40
0
40
0.0214950655012384
40
0.0214950655012384
40
0.0541118966511963
40
0.0541118966511963
40
0.0867287278011541
40
0.0867287278011541
40
0.119345558951112
40
0.119345558951112
40
0.15196239010107
40
0.15196239010107
40
0.184579221251028
40
0.184579221251028
40
0.217196052400986
40
0.217196052400986
40
0.249812883550944
40
0.249812883550944
40
0.282429714700902
40
0.282429714700902
40
0.31504654585086
40
0.31504654585086
40
0.347663377000817
40
0.347663377000817
40
0.380280208150775
40
0.380280208150775
40
0.412897039300733
40
0.412897039300733
40
0.47813070160065
40
0.47813070160065
40
0.51074753275061
40
0.51074753275061
40
0.543364363900569
40
0.543364363900569
40
0.608598026200488
40
0.608598026200488
40
0.673831688500407
40
0.673831688500407
40
0.739065350800326
40
0.739065350800326
40
0.804299013100244
40
0.804299013100244
40
0.836915844250203
40
0.836915844250203
40
0.869532675400163
40
0.869532675400163
40
0.902149506550122
40
0.902149506550122
40
0.934766337700081
40
0.934766337700081
40
0.967383168850041
40
0.967383168850041
40
1
40
1
40
1
40
1
41
1
10
18.6939351593112
20
3.03510873834773
30
0
41
1
10
18.8643228037319
20
3.05843947117586
30
0
41
1
10
19.0349947573846
20
3.07905677996726
30
0
41
1
10
19.4658252729019
20
3.12377157257276
30
0
41
1
10
19.726816018606
20
3.1442741037458
30
0
41
1
10
20.2469027839037
20
3.17187161717524
30
0
41
1
10
20.5064234722362
20
3.17896048886598
30
0
41
1
10
21.0258396863425
20
3.17969164331421
30
0
41
1
10
21.2855370337762
20
3.17339183940146
30
0
41
1
10
21.8049334760177
20
3.14734800382601
30
0
41
1
10
22.0646634630263
20
3.12754983711113
30
0
41
1
10
22.5856923480726
20
3.07494062626273
30
0
41
1
10
22.8460490159502
20
3.0421304501896
30
0
41
1
10
23.365615141583
20
2.9636775854369
30
0
41
1
10
23.6250014179532
20
2.91799334945432
30
0
41
1
10
24.1443464003269
20
2.81494816817434
30
0
41
1
10
24.4040361523536
20
2.7573639327554
30
1E-16
41
1
10
24.9239446300874
20
2.6304907631841
30
1E-16
41
1
10
25.1844937651584
20
2.56107978688971
30
1E-16
41
1
10
25.7048446954755
20
2.41217236431751
30
-1E-16
41
1
10
25.9647097881544
20
2.33270752897641
30
-1E-16
41
1
10
26.4838526719909
20
2.16381614844676
30
-1E-16
41
1
10
26.7432882710963
20
2.07461141051939
30
-1E-16
41
1
10
27.2627550998908
20
1.88815163155286
30
-1E-16
41
1
10
27.5226615992605
20
1.79069899953089
30
-1E-16
41
1
10
28.0430947889498
20
1.58770575467725
30
-1E-16
41
1
10
28.3034183561593
20
1.4826236322159
30
-1E-16
41
1
10
29.0831214079191
20
1.16001138679189
30
-1E-16
41
1
10
29.6014151314878
20
0.932879686044203
30
-1E-16
41
1
10
30.3811626019105
20
0.583512583657779
30
0
41
1
10
30.6418086670948
20
0.465097245771886
30
0
41
1
10
31.1615169790665
20
0.227128593337312
30
0
41
1
10
31.4205182789826
20
0.108000763938975
30
0
41
1
10
32.1957171628556
20
-0.248181314157733
30
0
41
1
10
32.7095602016323
20
-0.485259232701424
30
0
41
1
10
33.7372513403981
20
-0.945621080440588
30
1E-16
41
1
10
34.2503013146973
20
-1.17064146169346
30
1E-16
41
1
10
35.2807872223678
20
-1.59761334545712
30
1E-16
41
1
10
35.797597843414
20
-1.80128571839853
30
1E-16
41
1
10
36.8392827389695
20
-2.17615672146968
30
1E-16
41
1
10
37.3576406188262
20
-2.34673258555813
30
1E-16
41
1
10
38.1363338967636
20
-2.57007655627575
30
-1E-16
41
1
10
38.3958684751254
20
-2.63944469231052
30
-1E-16
41
1
10
38.9154013360051
20
-2.76718324382028
30
-1E-16
41
1
10
39.1760330604126
20
-2.82523146361342
30
0
41
1
10
39.69609497916
20
-2.92901981106496
30
0
41
1
10
39.9555974766104
20
-2.97490883648211
30
0
41
1
10
40.4742468293001
20
-3.0539971346808
30
0
41
1
10
40.7337778047951
20
-3.08695254932437
30
0
41
1
10
41.2531485432775
20
-3.13991910251428
30
0
41
1
10
41.5128721855037
20
-3.15994348782218
30
0
41
1
10
42.0333887827387
20
-3.18654425765888
30
0
41
1
10
42.2936334612755
20
-3.19309966059751
30
0
41
1
10
42.5532951802402
20
-3.19293582771047
30
0
0
SPLINE
5
DA
100
AcDbEntity
8
1
62
256
6
ByLayer
370
18
48
1
60
0
100
AcDbSpline
70
4
71
3
72
8
73
4
40
0
40
0
40
0
40
0
40
1
40
1
40
1
40
1
41
1
10
53.4122478120808
20
-0.0013514789146996
30
0
41
1
10
53.4049195168029
20
0.149214733710437
30
0
41
1
10
53.4028648075343
20
0.299134443962373
30
0
41
1
10
53.4079404198546
20
0.448419160727326
30
0
0
SPLINE
5
DB
100
AcDbEntity
8
1
62
256
6
ByLayer
370
18
48
1
60
0
100
AcDbSpline
70
4
71
3
72
28
73
24
40
0
40
0
40
0
40
0
40
0.0755629421829934
40
0.0755629421829934
40
0.151125884365987
40
0.151125884365987
40
0.22668882654898
40
0.22668882654898
40
0.302251768731974
40
0.302251768731974
40
0.45337765309796
40
0.45337765309796
40
0.604503537463947
40
0.604503537463947
40
0.680066479646939
40
0.680066479646939
40
0.755629421829931
40
0.755629421829931
40
0.906755306195914
40
0.906755306195914
40
0.982318248378907
40
0.982318248378907
40
1
40
1
40
1
40
1
41
1
10
53.4079404198544
20
0.448419160721215
30
0
41
1
10
53.1585408558026
20
0.562275517454594
30
0
41
1
10
52.9092608410606
20
0.675133706792991
30
0
41
1
10
52.411130271531
20
0.899218588775113
30
-1E-16
41
1
10
52.1620203442509
20
1.00988772646301
30
-1E-16
41
1
10
51.6625399118607
20
1.22605345398148
30
-1E-16
41
1
10
51.4128960178639
20
1.33144069832866
30
-1E-16
41
1
10
50.9154265429217
20
1.53643982358099
30
-1E-16
41
1
10
50.6673467485822
20
1.63612250879891
30
-1E-16
41
1
10
49.9245967307079
20
1.92572569332589
30
-1E-16
41
1
10
49.4299503892121
20
2.10352181574757
30
-1E-16
41
1
10
48.4395705099234
20
2.42554196222679
30
-1E-16
41
1
10
47.9445096763881
20
2.57053166364534
30
1E-16
41
1
10
47.1964036962239
20
2.75555003447414
30
1E-16
41
1
10
46.9461550281912
20
2.81217131984906
30
0
41
1
10
46.4473107865915
20
2.91414694088453
30
0
41
1
10
46.1985867046039
20
2.95980760613691
30
0
41
1
10
45.4518836287564
20
3.07849336038944
30
0
41
1
10
44.9533119542348
20
3.13365886841814
30
0
41
1
10
44.2044407591846
20
3.18018982467103
30
0
41
1
10
43.9550286228306
20
3.18947321459194
30
0
41
1
10
43.6474550843656
20
3.19317092443092
30
0
41
1
10
43.5891322324604
20
3.19353198411471
30
0
41
1
10
43.5308116890219
20
3.19355363478033
30
0
0
SPLINE
5
DC
100
AcDbEntity
8
1
62
256
6
ByLayer
370
18
48
1
60
0
100
AcDbSpline
70
4
71
3
72
56
73
52
40
0
40
0
40
0
40
0
40
0.0157114628831394
40
0.0157114628831394
40
0.049652446921652
40
0.049652446921652
40
0.0835934309601645
40
0.0835934309601645
40
0.117534414998677
40
0.117534414998677
40
0.185416383075702
40
0.185416383075702
40
0.219357367114214
40
0.219357367114214
40
0.253298351152726
40
0.253298351152726
40
0.287239335191238
40
0.287239335191238
40
0.32118031922975
40
0.32118031922975
40
0.355121303268263
40
0.355121303268263
40
0.389062287306775
40
0.389062287306775
40
0.456944255383799
40
0.456944255383799
40
0.490885239422311
40
0.490885239422311
40
0.524826223460824
40
0.524826223460824
40
0.592708191537848
40
0.592708191537848
40
0.626649175576361
40
0.626649175576361
40
0.660590159614873
40
0.660590159614873
40
0.728472127691899
40
0.728472127691899
40
0.762413111730412
40
0.762413111730412
40
0.796354095768924
40
0.796354095768924
40
0.830295079807437
40
0.830295079807437
40
0.86423606384595
40
0.86423606384595
40
0.932118031922975
40
0.932118031922975
40
0.966059015961487
40
0.966059015961487
40
1
40
1
40
1
40
1
41
1
10
27.5934714176163
20
-2.12518070439745
30
1E-16
41
1
10
27.4779420503548
20
-2.16489622765505
30
1E-16
41
1
10
27.3624565579243
20
-2.20368805077999
30
1E-16
41
1
10
26.9976408708557
20
-2.32286835492323
30
1E-16
41
1
10
26.7482754707702
20
-2.39950132460217
30
1E-16
41
1
10
26.2496918554136
20
-2.54340534269761
30
-1E-16
41
1
10
26.0004050070289
20
-2.61058159783445
30
-1E-16
41
1
10
25.5019529109713
20
-2.73532676771248
30
-1E-16
41
1
10
25.2522686855471
20
-2.79253388258371
30
-1E-16
41
1
10
24.5023867697905
20
-2.94665127741322
30
0
41
1
10
24.0038172689793
20
-3.02659103854984
30
0
41
1
10
23.25671150256
20
-3.11115251480311
30
0
41
1
10
23.0074773496728
20
-3.13322937084914
30
0
41
1
10
22.5079798175201
20
-3.16504502277891
30
0
41
1
10
22.2576041586442
20
-3.17483656004285
30
0
41
1
10
21.7580791778384
20
-3.18199664304123
30
0
41
1
10
21.5090187441314
20
-3.1793635495639
30
0
41
1
10
21.0108021982008
20
-3.16165445517922
30
0
41
1
10
20.7615634896419
20
-3.14664400564692
30
0
41
1
10
20.262637439264
20
-3.10455801343858
30
0
41
1
10
20.012984164186
20
-3.07747483411842
30
0
41
1
10
19.5132504046002
20
-3.01104801554732
30
0
41
1
10
19.2635581242234
20
-2.97159425384075
30
0
41
1
10
18.515223731442
20
-2.83691274937109
30
0
41
1
10
18.0164131871241
20
-2.72554220077058
30
-1E-16
41
1
10
17.2685315579678
20
-2.52570380334745
30
-1E-16
41
1
10
17.0188509902113
20
-2.45381460701671
30
2E-16
41
1
10
16.5187716812256
20
-2.30140125943461
30
1E-16
41
1
10
16.2689903970558
20
-2.22095575753573
30
1E-16
41
1
10
15.5205306167587
20
-1.96685901890984
30
1E-16
41
1
10
15.0231633382398
20
-1.77950607941128
30
1E-16
41
1
10
14.2737782543044
20
-1.48168860242123
30
1E-16
41
1
10
14.0233314062007
20
-1.37920552495041
30
1E-16
41
1
10
13.5236188599481
20
-1.16942361174469
30
1E-16
41
1
10
13.2744448387275
20
-1.06152283970283
30
1E-16
41
1
10
12.5269187307718
20
-0.732986977656509
30
0
41
1
10
12.0279982388213
20
-0.50879658671505
30
0
41
1
10
11.2781671078549
20
-0.1660628000663
30
0
41
1
10
11.0283797603669
20
-0.0504249704450501
30
0
41
1
10
10.529407744104
20
0.178816569826751
30
0
41
1
10
10.2799534689394
20
0.292603466458303
30
0
41
1
10
9.78119307657539
20
0.518724986716251
30
0
41
1
10
9.53181852960464
20
0.630911387531228
30
0
41
1
10
9.03329524118675
20
0.853964269815435
30
-1E-16
41
1
10
8.78388997347548
20
0.964272979011412
30
-1E-16
41
1
10
8.03345509841637
20
1.28775507425715
30
-1E-16
41
1
10
7.53398281760352
20
1.49280602667665
30
-1E-16
41
1
10
6.7873436971872
20
1.78457148176389
30
-1E-16
41
1
10
6.5386398889743
20
1.87877236663965
30
-1E-16
41
1
10
6.03967451687453
20
2.0577501936327
30
-1E-16
41
1
10
5.78956103730542
20
2.14281442485614
30
-1E-16
41
1
10
5.53858722153228
20
2.2231897845179
30
-1E-16
0
SPLINE
5
DD
100
AcDbEntity
8
1
62
256
6
ByLayer
370
18
48
1
60
0
100
AcDbSpline
70
4
71
3
72
8
73
4
40
0
40
0
40
0
40
0
40
1
40
1
40
1
40
1
41
1
10
54.4633679974279
20
-0.336464117349664
30
0
41
1
10
54.385207750915
20
-0.127824259584713
30
0
41
1
10
54.2922132037747
20
0.0906359428547034
30
0
41
1
10
54.184495459814
20
0.318842938965758
30
0
0
SPLINE
5
DE
100
AcDbEntity
8
1
62
256
6
ByLayer
370
18
48
1
60
0
100
AcDbSpline
70
4
71
3
72
8
73
4
40
0
40
0
40
0
40
0
40
1
40
1
40
1
40
1
41
1
10
54.7018780271382
20
1.03581815585253
30
0
41
1
10
54.8031295464401
20
0.750459124834293
30
0
41
1
10
54.9015349258997
20
0.464081763254512
30
0
41
1
10
54.9970490688206
20
0.176669935804568
30
0
0
SPLINE
5
DF
100
AcDbEntity
8
1
62
256
6
ByLayer
370
18
48
1
60
0
100
AcDbSpline
70
4
71
3
72
18
73
14
40
0
40
0
40
0
40
0
40
0.250000000000004
40
0.250000000000004
40
0.375000000000003
40
0.375000000000003
40
0.500000000000003
40
0.500000000000003
40
0.625000000000002
40
0.625000000000002
40
0.750000000000001
40
0.750000000000001
40
1
40
1
40
1
40
1
41
1
10
53.8883362040633
20
-3.06871289793659
30
0
41
1
10
53.9502214246199
20
-2.89480389909926
30
0
41
1
10
54.0113176705068
20
-2.71986335709747
30
0
41
1
10
54.1028712917016
20
-2.45668448792654
30
0
41
1
10
54.1333273242636
20
-2.36895748848616
30
0
41
1
10
54.1942703103249
20
-2.19355363024911
30
0
41
1
10
54.2245639863322
20
-2.10579148181219
30
0
41
1
10
54.2876978918607
20
-1.93144399867094
30
0
41
1
10
54.3203588214225
20
-1.8447705270377
30
0
41
1
10
54.3888249363039
20
-1.67277908973546
30
0
41
1
10
54.4248690130737
20
-1.5868406965345
30
0
41
1
10
54.5366173740861
20
-1.3369311404274
30
0
41
1
10
54.6159821080166
20
-1.18114294729818
30
0
41
1
10
54.7018780271385
20
-1.03581815585218
30
0
0
SPLINE
5
E0
100
AcDbEntity
8
1
62
256
6
ByLayer
370
18
48
1
60
0
100
AcDbSpline
70
4
71
3
72
26
73
22
40
0
40
0
40
0
40
0
40
0.124999999999992
40
0.124999999999992
40
0.249999999999985
40
0.249999999999985
40
0.312499999999981
40
0.312499999999981
40
0.374999999999977
40
0.374999999999977
40
0.437499999999973
40
0.437499999999973
40
0.49999999999997
40
0.49999999999997
40
0.624999999999977
40
0.624999999999977
40
0.749999999999985
40
0.749999999999985
40
0.874999999999992
40
0.874999999999992
40
1
40
1
40
1
40
1
41
1
10
54.9553757886276
20
0.0385226619372645
30
0
41
1
10
54.9398857478194
20
-0.0125501681045819
30
0
41
1
10
54.9220767765124
20
-0.0624553601773528
30
0
41
1
10
54.8816463647907
20
-0.159762609898792
30
0
41
1
10
54.8589598609445
20
-0.207048171758004
30
0
41
1
10
54.8232833282748
20
-0.271157795861114
30
0
41
1
10
54.8110348747444
20
-0.291582942948651
30
0
41
1
10
54.7857878254166
20
-0.330373774654532
30
0
41
1
10
54.7728189456031
20
-0.348651502608902
30
0
41
1
10
54.7471760385875
20
-0.381541966449021
30
0
41
1
10
54.7343722767299
20
-0.396362472531479
30
0
41
1
10
54.7087830960677
20
-0.422686620890062
30
0
41
1
10
54.6958810606596
20
-0.434262376792958
30
0
41
1
10
54.6584192847497
20
-0.462734373172566
30
0
41
1
10
54.6345799428588
20
-0.473875919978866
30
0
41
1
10
54.5903531116802
20
-0.480754286482579
30
0
41
1
10
54.5701500071803
20
-0.476534741263379
30
0
41
1
10
54.5334222280272
20
-0.455102780778759
30
0
41
1
10
54.51725096379
20
-0.438235416175843
30
0
41
1
10
54.4879757257615
20
-0.394382425897788
30
0
41
1
10
54.4749159683801
20
-0.367290107856832
30
0
41
1
10
54.4633679974275
20
-0.336464117350147
30
0
0
SPLINE
5
E1
100
AcDbEntity
8
1
62
256
6
ByLayer
370
18
48
1
60
0
100
AcDbSpline
70
4
71
3
72
40
73
36
40
0
40
0
40
0
40
0
40
0.0121438974373379
40
0.0121438974373379
40
0.0708104173809761
40
0.0708104173809761
40
0.129476937324614
40
0.129476937324614
40
0.188143457268253
40
0.188143457268253
40
0.246809977211891
40
0.246809977211891
40
0.305476497155529
40
0.305476497155529
40
0.364143017099167
40
0.364143017099167
40
0.422809537042806
40
0.422809537042806
40
0.481476056986444
40
0.481476056986444
40
0.540142576930082
40
0.540142576930082
40
0.59880909687372
40
0.59880909687372
40
0.657475616817358
40
0.657475616817358
40
0.716142136760997
40
0.716142136760997
40
0.774808656704635
40
0.774808656704635
40
0.892141696591911
40
0.892141696591911
40
0.95080821653555
40
0.95080821653555
40
1
40
1
40
1
40
1
41
1
10
43.4670839649887
20
-0.254193618479036
30
0
41
1
10
43.4005091261167
20
-0.224747647684723
30
0
41
1
10
43.3339216864237
20
-0.195245859709928
30
0
41
1
10
42.9455702159885
20
-0.0229232800785439
30
0
41
1
10
42.6229778287569
20
0.120546802336236
30
0
41
1
10
41.9796859499288
20
0.404948081210733
30
0
41
1
10
41.658377985484
20
0.545766615962208
30
0
41
1
10
41.0160074164484
20
0.824016342951182
30
-1E-16
41
1
10
40.6947371574631
20
0.960910409543146
30
-1E-16
41
1
10
40.050966883904
20
1.22783090482207
30
-1E-16
41
1
10
39.7283403555998
20
1.35764870772854
30
-1E-16
41
1
10
39.0850958684146
20
1.60762871123148
30
-1E-16
41
1
10
38.7639921788415
20
1.72800008014525
30
-1E-16
41
1
10
38.1214273922641
20
1.95632540203385
30
-1E-16
41
1
10
37.8000077249809
20
2.06436594392869
30
-1E-16
41
1
10
37.1559420875209
20
2.26672761846092
30
-1E-16
41
1
10
36.8335007438524
20
2.36162855195903
30
1E-16
41
1
10
36.1888084959847
20
2.53451269274643
30
1E-16
41
1
10
35.8664251263036
20
2.61292049984695
30
1E-16
41
1
10
35.2223773194275
20
2.75192507314276
30
1E-16
41
1
10
34.9007867809619
20
2.81313781187603
30
0
41
1
10
34.2567985850846
20
2.91643352925931
30
0
41
1
10
33.9342637086341
20
2.95885614219316
30
0
41
1
10
33.2907414658587
20
3.02383890779836
30
0
41
1
10
32.9695609231948
20
3.04690084039186
30
0
41
1
10
32.3271357536869
20
3.07296372440609
30
0
41
1
10
32.0058711844493
20
3.07590800738748
30
0
41
1
10
31.3621596953202
20
3.06186072884339
30
0
41
1
10
31.0395095329624
20
3.04495738648328
30
0
41
1
10
30.0746940849135
20
2.96530089379888
30
0
41
1
10
29.4328804934098
20
2.87225612028374
30
0
41
1
10
28.467538573638
20
2.6798998133435
30
1E-16
41
1
10
28.144964312543
20
2.60671397876246
30
1E-16
41
1
10
27.5536162311843
20
2.45727549557168
30
1E-16
41
1
10
27.2841373579607
20
2.38338341966076
30
1E-16
41
1
10
27.0147603697752
20
2.30423877228509
30
0
0
SPLINE
5
E2
100
AcDbEntity
8
1
62
256
6
ByLayer
370
18
48
1
60
0
100
AcDbSpline
70
4
71
3
72
26
73
22
40
0
40
0
40
0
40
0
40
0.125000000000007
40
0.125000000000007
40
0.187500000000011
40
0.187500000000011
40
0.250000000000015
40
0.250000000000015
40
0.375000000000023
40
0.375000000000023
40
0.43750000000002
40
0.43750000000002
40
0.500000000000018
40
0.500000000000018
40
0.625000000000014
40
0.625000000000014
40
0.750000000000009
40
0.750000000000009
40
0.875000000000005
40
0.875000000000005
40
1
40
1
40
1
40
1
41
1
10
54.1844954598134
20
0.318842938964906
30
0
41
1
10
54.1547356431759
20
0.336551260720199
30
0
41
1
10
54.125379692346
20
0.358325340757688
30
0
41
1
10
54.0820644307674
20
0.395644567186139
30
0
41
1
10
54.066827562653
20
0.405384851199614
30
0
41
1
10
54.0364770564678
20
0.425972923772662
30
0
41
1
10
54.021047791425
20
0.435644341831306
30
0
41
1
10
53.9739778681508
20
0.461488110496362
30
0
41
1
10
53.9416746522
20
0.473984488551594
30
0
41
1
10
53.8923601954743
20
0.487190861335193
30
0
41
1
10
53.8757845146839
20
0.490716604790123
30
0
41
1
10
53.8425300232982
20
0.497311039494633
30
0
41
1
10
53.8258459939902
20
0.500361865237124
30
0
41
1
10
53.7755148293254
20
0.507316755508555
30
0
41
1
10
53.7415673285591
20
0.509740419623569
30
0
41
1
10
53.6738343987744
20
0.50936723607964
30
0
41
1
10
53.6400576396848
20
0.506445846945297
30
0
41
1
10
53.5729009023614
20
0.496229665969452
30
0
41
1
10
53.5395217105366
20
0.488945048414763
30
0
41
1
10
53.473259828133
20
0.471598867680712
30
0
41
1
10
53.4404055870779
20
0.461021375128894
30
0
41
1
10
53.4079404198667
20
0.448419160726047
30
0
0
SPLINE
5
E3
100
AcDbEntity
8
1
62
256
6
ByLayer
370
18
48
1
60
0
100
AcDbSpline
70
2053
71
3
72
54
73
50
40
0
40
0
40
0
40
0
40
0.062499999999998
40
0.062499999999998
40
0.124999999999996
40
0.124999999999996
40
0.187499999999994
40
0.187499999999994
40
0.218749999999993
40
0.218749999999993
40
0.249999999999992
40
0.249999999999992
40
0.281249999999991
40
0.281249999999991
40
0.31249999999999
40
0.31249999999999
40
0.343749999999989
40
0.343749999999989
40
0.374999999999988
40
0.374999999999988
40
0.406249999999987
40
0.406249999999987
40
0.437499999999986
40
0.437499999999986
40
0.499999999999988
40
0.499999999999988
40
0.56249999999999
40
0.56249999999999
40
0.624999999999992
40
0.624999999999992
40
0.656249999999993
40
0.656249999999993
40
0.687499999999994
40
0.687499999999994
40
0.749999999999996
40
0.749999999999996
40
0.781249999999998
40
0.781249999999998
40
0.812499999999999
40
0.812499999999999
40
0.84375
40
0.84375
40
0.875000000000001
40
0.875000000000001
40
0.937500000000003
40
0.937500000000003
40
0.968750000000001
40
0.968750000000001
40
1
40
1
40
1
40
1
41
1
10
54.1570700741758
20
-1.44978815532562
30
0
41
1
10
54.1320485793209
20
-1.48513196928133
30
1E-16
41
1
10
54.108660457574
20
-1.50972104534645
30
1E-16
41
1
10
54.0642811349827
20
-1.53769626998792
30
1E-16
41
1
10
54.044384996169
20
-1.54032586630089
30
1E-16
41
1
10
54.008107960146
20
-1.52218338031705
30
1E-16
41
1
10
53.9925582753957
20
-1.50182484578693
30
1E-16
41
1
10
53.9726410459206
20
-1.45370627251572
30
1E-16
41
1
10
53.9667682553334
20
-1.43513555954885
30
1E-16
41
1
10
53.9564770629431
20
-1.39291799503363
30
1E-16
41
1
10
53.9520260040856
20
-1.36904073035896
30
1E-16
41
1
10
53.944906270728
20
-1.31666282921751
30
1E-16
41
1
10
53.9422818793048
20
-1.28864940435432
30
1E-16
41
1
10
53.9390617623885
20
-1.22887971657479
30
1E-16
41
1
10
53.938482918587
20
-1.19663754182403
30
1E-16
41
1
10
53.9398146001068
20
-1.13086521802859
30
1E-16
41
1
10
53.9416825217066
20
-1.09731040024155
30
1E-16
41
1
10
53.948225378954
20
-1.0288161491861
30
1E-16
41
1
10
53.9529264854212
20
-0.994123796445763
30
1E-16
41
1
10
53.9649889222397
20
-0.927313514380074
30
1E-16
41
1
10
53.9725152734408
20
-0.894297218115128
30
1E-16
41
1
10
53.9900330439725
20
-0.832254299270488
30
1E-16
41
1
10
53.9999454521549
20
-0.803310734505459
30
0
41
1
10
54.0331533439543
20
-0.722397082431002
30
0
41
1
10
54.0591782769006
20
-0.678590512811212
30
0
41
1
10
54.113934212112
20
-0.613385776218166
30
0
41
1
10
54.1428293229998
20
-0.591670644612236
30
0
41
1
10
54.1988001869949
20
-0.569389076879361
30
0
41
1
10
54.2264259030455
20
-0.568623627714061
30
0
41
1
10
54.2636077001903
20
-0.582690204828765
30
0
41
1
10
54.275350772839
20
-0.589880783981698
30
0
41
1
10
54.2972902679347
20
-0.609613957002836
30
0
41
1
10
54.307469906456
20
-0.622228110324215
30
0
41
1
10
54.3340966807665
20
-0.667466234107678
30
0
41
1
10
54.3472563490081
20
-0.708778549532468
30
0
41
1
10
54.3561778636267
20
-0.784873472982838
30
0
41
1
10
54.3573966077338
20
-0.813078161814929
30
0
41
1
10
54.3559489758093
20
-0.872511128560006
30
1E-16
41
1
10
54.3533519292781
20
-0.903663762381512
30
1E-16
41
1
10
54.3444146796266
20
-0.969028109144602
30
-1E-16
41
1
10
54.338095270718
20
-1.00277469839764
30
0
41
1
10
54.3226432476075
20
-1.06962956195878
30
0
41
1
10
54.31331806019
20
-1.10353414153047
30
0
41
1
10
54.2826529960013
20
-1.20124819960182
30
0
41
1
10
54.2582147797814
20
-1.26275340737325
30
0
41
1
10
54.2205523074934
20
-1.34253375221894
30
0
41
1
10
54.2076430759882
20
-1.36742740066961
30
0
41
1
10
54.1822245953985
20
-1.41207635760318
30
0
41
1
10
54.1695808216032
20
-1.43211624834777
30
0
41
1
10
54.1570700741758
20
-1.44978815532562
30
0
0
SPLINE
5
E4
100
AcDbEntity
8
1
62
256
6
ByLayer
370
18
48
1
60
0
100
AcDbSpline
70
4
71
3
72
18
73
14
40
0
40
0
40
0
40
0
40
0.0340632078628244
40
0.0340632078628244
40
0.227250566290259
40
0.227250566290259
40
0.420437924717695
40
0.420437924717695
40
0.61362528314513
40
0.61362528314513
40
0.806812641572565
40
0.806812641572565
40
1
40
1
40
1
40
1
41
1
10
53.6663273240533
20
0.562855425377478
30
0
41
1
10
53.6669039488183
20
0.566908329272195
30
0
41
1
10
53.6676719635938
20
0.571028861120766
30
0
41
1
10
53.6740771223939
20
0.598964791210818
30
0
41
1
10
53.6854061803154
20
0.624397969924132
30
0
41
1
10
53.7203229483827
20
0.678856045151747
30
0
41
1
10
53.7437800545083
20
0.707282330566045
30
0
41
1
10
53.8011401057767
20
0.763847752557808
30
0
41
1
10
53.8358406817819
20
0.792570136376753
30
0
41
1
10
53.9137384216854
20
0.84363190994182
30
0
41
1
10
53.9583069630957
20
0.866638351645037
30
0
41
1
10
54.0525815084675
20
0.902242618833242
30
0
41
1
10
54.1026133529513
20
0.915275683644836
30
0
41
1
10
54.1538556622937
20
0.923261802668833
30
0
0
SPLINE
5
E5
100
AcDbEntity
8
1
62
256
6
ByLayer
370
18
48
1
60
0
100
AcDbSpline
70
4
71
3
72
8
73
4
40
0
40
0
40
0
40
0
40
1
40
1
40
1
40
1
41
1
10
53.4122478120808
20
-0.0013514789146996
30
0
41
1
10
53.4377211888371
20
-0.0131340127987301
30
0
41
1
10
53.4630427367053
20
-0.0242919300616222
30
0
41
1
10
53.4882383415292
20
-0.0348402673747046
30
0
0
SPLINE
5
E6
100
AcDbEntity
8
1
62
256
6
ByLayer
370
18
48
1
60
0
100
AcDbSpline
70
4
71
3
72
12
73
8
40
0
40
0
40
0
40
0
40
0.0333734336483868
40
0.0333734336483868
40
0.557955028352564
40
0.557955028352564
40
1
40
1
40
1
40
1
41
1
10
6.05748245714392
20
2.6181658396178
30
1E-16
41
1
10
6.05578923030521
20
2.61219721844353
30
1E-16
41
1
10
6.05409090865632
20
2.60623501444513
30
1E-16
41
1
10
6.02561659649089
20
2.50666857415371
30
1E-16
41
1
10
5.99774959637159
20
2.41433960351509
30
1E-16
41
1
10
5.9414997286959
20
2.24716821348059
30
1E-16
41
1
10
5.91424334270391
20
2.17178239771891
30
1E-16
41
1
10
5.88579854094101
20
2.09738386311747
30
1E-16
0
SPLINE
5
E7
100
AcDbEntity
8
1
62
256
6
ByLayer
370
18
48
1
60
0
100
AcDbSpline
70
4
71
3
72
10
73
6
40
0
40
0
40
0
40
0
40
0.5
40
0.5
40
1
40
1
40
1
40
1
41
1
10
3.5616710459708
20
-1.33791348638502
30
1E-16
41
1
10
3.54095715250855
20
-1.33338806560249
30
1E-16
41
1
10
3.52602133023871
20
-1.32608798354761
30
1E-16
41
1
10
3.50644973081626
20
-1.30982332740018
30
1E-16
41
1
10
3.50170979169684
20
-1.30067901909615
30
1E-16
41
1
10
3.50170979169675
20
-1.29160887833552
30
1E-16
0
SPLINE
5
E8
100
AcDbEntity
8
1
62
256
6
ByLayer
370
18
48
1
60
0
100
AcDbSpline
70
4
71
3
72
36
73
32
40
0
40
0
40
0
40
0
40
0.125000000000001
40
0.125000000000001
40
0.187500000000001
40
0.187500000000001
40
0.250000000000001
40
0.250000000000001
40
0.312500000000001
40
0.312500000000001
40
0.375000000000001
40
0.375000000000001
40
0.4375
40
0.4375
40
0.5
40
0.5
40
0.5625
40
0.5625
40
0.625
40
0.625
40
0.6875
40
0.6875
40
0.75
40
0.75
40
0.8125
40
0.8125
40
0.875
40
0.875
40
0.9375
40
0.9375
40
1
40
1
40
1
40
1
41
1
10
6.05748245411144
20
2.61816582892831
30
1E-16
41
1
10
6.76644490163073
20
2.80142794310018
30
1E-16
41
1
10
7.46844887163502
20
2.94190482018186
30
0
41
1
10
8.51926870205912
20
3.08224470868336
30
0
41
1
10
8.86948319934197
20
3.11716328275548
30
0
41
1
10
9.57033582714232
20
3.16309229306418
30
0
41
1
10
9.92107951364173
20
3.17402258247822
30
0
41
1
10
10.6246074438036
20
3.17119815620722
30
0
41
1
10
10.9780997162763
20
3.15746748856824
30
0
41
1
10
11.6865057279551
20
3.10516091591728
30
0
41
1
10
12.0398351162571
20
3.06672245869339
30
0
41
1
10
12.7463083861135
20
2.96618484503801
30
0
41
1
10
13.0997050892138
20
2.90431004013638
30
0
41
1
10
13.8074035367968
20
2.7577827154355
30
1E-16
41
1
10
14.1617382482863
20
2.67313012139633
30
1E-16
41
1
10
14.8685777430462
20
2.48407955030041
30
1E-16
41
1
10
15.2218312091107
20
2.3798377976068
30
-1E-16
41
1
10
15.9286634289075
20
2.15287635710609
30
-1E-16
41
1
10
16.2828662681796
20
2.02999202675716
30
-1E-16
41
1
10
16.9905678124854
20
1.76983337307163
30
-1E-16
41
1
10
17.3439066077713
20
1.63282772769853
30
-1E-16
41
1
10
18.0503562620915
20
1.34650038572283
30
-1E-16
41
1
10
18.4034903226551
20
1.19719081847822
30
-1E-16
41
1
10
19.1115963335044
20
0.890273189443519
30
-1E-16
41
1
10
19.4656329025339
20
0.732952074147761
30
0
41
1
10
20.172188780377
20
0.41376394759979
30
0
41
1
10
20.525066809153
20
0.251684266211015
30
0
41
1
10
21.2321563303429
20
-0.0727997619158032
30
0
41
1
10
21.5867160180736
20
-0.23577080670546
30
0
41
1
10
22.2938593090924
20
-0.558292026169141
30
0
41
1
10
22.6467290331166
20
-0.718106238489895
30
0
41
1
10
23
20
-0.874123922196134
30
1E-16
0
SPLINE
5
E9
100
AcDbEntity
8
1
62
256
6
ByLayer
370
18
48
1
60
0
100
AcDbSpline
70
4
71
3
72
8
73
4
40
0
40
0
40
0
40
0
40
1
40
1
40
1
40
1
41
1
10
3.63828547128867
20
2.3605874750294
30
1E-16
41
1
10
3.62696110224482
20
2.36362583032147
30
1E-16
41
1
10
3.61488903224173
20
2.36515580264629
30
1E-16
41
1
10
3.60250756835285
20
2.36513897178512
30
1E-16
0
SPLINE
5
EA
100
AcDbEntity
8
1
62
256
6
ByLayer
370
18
48
1
60
0
100
AcDbSpline
70
4
71
3
72
18
73
14
40
0
40
0
40
0
40
0
40
0.188130303831841
40
0.188130303831841
40
0.376260607663682
40
0.376260607663682
40
0.564390911495522
40
0.564390911495522
40
0.752521215327363
40
0.752521215327363
40
0.940651519159204
40
0.940651519159204
40
1
40
1
40
1
40
1
41
1
10
53.8835434444732
20
3.07194225929538
30
0
41
1
10
53.5616285483376
20
3.07434754266407
30
0
41
1
10
53.240395719009
20
3.06692628961588
30
0
41
1
10
52.5979279401258
20
3.03193181239982
30
0
41
1
10
52.2767170704117
20
3.00437365566145
30
0
41
1
10
51.6334105283883
20
2.93017633467821
30
0
41
1
10
51.3112339126936
20
2.88368985693884
30
0
41
1
10
50.6665621910429
20
2.77193475598
30
1E-16
41
1
10
50.3441901006536
20
2.7067396854811
30
1E-16
41
1
10
49.7001591411706
20
2.55953759602949
30
1E-16
41
1
10
49.3785742466927
20
2.47758692519744
30
1E-16
41
1
10
48.9550326853331
20
2.35935170679102
30
-1E-16
41
1
10
48.8534079193228
20
2.33019792961375
30
-1E-16
41
1
10
48.751770300378
20
2.3002911869485
30
-1E-16
0
SPLINE
5
EB
100
AcDbEntity
8
1
62
256
6
ByLayer
370
18
48
1
60
0
100
AcDbSpline
70
4
71
3
72
10
73
6
40
0
40
0
40
0
40
0
40
0.5
40
0.5
40
1
40
1
40
1
40
1
41
1
10
3.50170979169678
20
2.43360052817511
30
-1E-16
41
1
10
3.50170979169678
20
2.45521982216789
30
-2E-16
41
1
10
3.51950966722092
20
2.47550333741137
30
1E-16
41
1
10
3.57635009835178
20
2.49800174166893
30
1E-16
41
1
10
3.61331169340931
20
2.49952232734853
30
1E-16
41
1
10
3.64391700507031
20
2.49072929087421
30
1E-16
0
SPLINE
5
EC
100
AcDbEntity
8
1
62
256
6
ByLayer
370
18
48
1
60
0
100
AcDbSpline
70
4
71
3
72
18
73
14
40
0
40
0
40
0
40
0
40
0.249999999999997
40
0.249999999999997
40
0.374999999999999
40
0.374999999999999
40
0.5
40
0.5
40
0.625000000000002
40
0.625000000000002
40
0.750000000000004
40
0.750000000000004
40
1
40
1
40
1
40
1
41
1
10
53.8883362040633
20
3.06871289793662
30
0
41
1
10
53.9502214246199
20
2.89480389909929
30
0
41
1
10
54.0113176705068
20
2.71986335709747
30
0
41
1
10
54.1028712917016
20
2.45668448792654
30
0
41
1
10
54.1333273242637
20
2.36895748848622
30
0
41
1
10
54.1942703103249
20
2.1935536302492
30
0
41
1
10
54.2245639863322
20
2.1057914818123
30
0
41
1
10
54.2876978918607
20
1.93144399867106
30
0
41
1
10
54.3203588214224
20
1.84477052703778
30
0
41
1
10
54.3888249363039
20
1.67277908973554
30
0
41
1
10
54.4248690130736
20
1.58684069653458
30
0
41
1
10
54.536617374086
20
1.3369311404274
30
0
41
1
10
54.6159821080166
20
1.18114294729818
30
0
41
1
10
54.7018780271385
20
1.03581815585218
30
0
0
SPLINE
5
ED
100
AcDbEntity
8
1
62
256
6
ByLayer
370
18
48
1
60
0
100
AcDbSpline
70
4
71
3
72
10
73
6
40
0
40
0
40
0
40
0
40
0.5
40
0.5
40
1
40
1
40
1
40
1
41
1
10
53.8883362040633
20
-3.06871289793659
30
0
41
1
10
53.8780895239405
20
-3.07560112516572
30
0
41
1
10
53.8693894702893
20
-3.07853322514234
30
0
41
1
10
53.8546204600486
20
-3.07652944123853
30
0
41
1
10
53.8485852233292
20
-3.07163211490936
30
0
41
1
10
53.8434597478563
20
-3.06316484999056
30
0
0
SPLINE
5
EE
100
AcDbEntity
8
1
62
256
6
ByLayer
370
18
48
1
60
0
100
AcDbSpline
70
4
71
3
72
34
73
30
40
0
40
0
40
0
40
0
40
0.330054343636713
40
0.330054343636713
40
0.554680412947233
40
0.554680412947233
40
0.70421662843295
40
0.70421662843295
40
0.803757681447431
40
0.803757681447431
40
0.870046118530774
40
0.870046118530774
40
0.914203696269819
40
0.914203696269819
40
0.94363645402669
40
0.94363645402669
40
0.963323584206681
40
0.963323584206681
40
0.976254642446261
40
0.976254642446261
40
0.984746716450509
40
0.984746716450509
40
0.990492000117433
40
0.990492000117433
40
0.995233535980555
40
0.995233535980555
40
0.998669462423955
40
0.998669462423955
40
1
40
1
40
1
40
1
41
1
10
53.6918638608312
20
-3.19956791206406
30
0
41
1
10
53.7129135188036
20
-3.18572143899732
30
0
41
1
10
53.7339803956924
20
-3.17180605333334
30
0
41
1
10
53.7694128937871
20
-3.14830771275362
30
0
41
1
10
53.7837697709543
20
-3.13876055217187
30
0
41
1
10
53.8076971492835
20
-3.12280688551556
30
0
41
1
10
53.8172634334537
20
-3.11641729773075
30
0
41
1
10
53.8332039500833
20
-3.10575172641347
30
0
41
1
10
53.8395761020179
20
-3.10148330330858
30
0
41
1
10
53.8501946570042
20
-3.09436230859683
30
0
41
1
10
53.8544400889276
20
-3.09151309136593
30
0
41
1
10
53.8615149255604
20
-3.08676142553674
30
0
41
1
10
53.8643450235045
20
-3.08485968726731
30
0
41
1
10
53.8690579429808
20
-3.08169122363796
30
0
41
1
10
53.8709227952199
20
-3.08043727384367
30
0
41
1
10
53.8740476425655
20
-3.07833518322073
30
0
41
1
10
53.8753073873958
20
-3.07748748831523
30
0
41
1
10
53.8774243172383
20
-3.07606251673155
30
0
41
1
10
53.8782724142296
20
-3.07549151410532
30
0
41
1
10
53.8796840503341
20
-3.07454096955442
30
0
41
1
10
53.8802445695096
20
-3.07416351061141
30
0
41
1
10
53.8811761452101
20
-3.07353617624273
30
0
41
1
10
53.8815502586147
20
-3.07328424254703
30
0
41
1
10
53.8822199864527
20
-3.07283325338491
30
0
41
1
10
53.8825196352228
20
-3.07263147774575
30
0
41
1
10
53.8830069627699
20
-3.07230335874848
30
0
41
1
10
53.8832065112971
20
-3.07216901445241
30
0
41
1
10
53.8834344613576
20
-3.07201559295899
30
0
41
1
10
53.8834930969659
20
-3.07197613317982
30
0
41
1
10
53.8835434438508
20
-3.07194225958506
30
0
0
SPLINE
5
EF
100
AcDbEntity
8
1
62
256
6
ByLayer
370
18
48
1
60
0
100
AcDbSpline
70
4
71
3
72
10
73
6
40
0
40
0
40
0
40
0
40
0.5
40
0.5
40
1
40
1
40
1
40
1
41
1
10
3.5616710459708
20
-1.32566693797139
30
1E-16
41
1
10
3.54095971602911
20
-1.32237354608935
30
1E-16
41
1
10
3.52601813755456
20
-1.31704572613393
30
1E-16
41
1
10
3.50644606811008
20
-1.30509621752381
30
1E-16
41
1
10
3.50170979169684
20
-1.29834270757004
30
1E-16
41
1
10
3.50170979169678
20
-1.29160887833558
30
1E-16
0
SPLINE
5
F0
100
AcDbEntity
8
1
62
256
6
ByLayer
370
18
48
1
60
0
100
AcDbSpline
70
4
71
3
72
8
73
4
40
0
40
0
40
0
40
0
40
1
40
1
40
1
40
1
41
1
10
53.8569242936744
20
-3.0237396884115
30
0
41
1
10
53.8524191328895
20
-3.03688106962414
30
0
41
1
10
53.8479308469744
20
-3.05002276469423
30
0
41
1
10
53.8434597478563
20
-3.0631648499905
30
0
0
SPLINE
5
F1
100
AcDbEntity
8
1
62
256
6
ByLayer
370
18
48
1
60
0
100
AcDbSpline
70
4
71
3
72
28
73
24
40
0
40
0
40
0
40
0
40
0.124999999999999
40
0.124999999999999
40
0.187499999999999
40
0.187499999999999
40
0.249999999999999
40
0.249999999999999
40
0.374999999999999
40
0.374999999999999
40
0.437499999999999
40
0.437499999999999
40
0.499999999999998
40
0.499999999999998
40
0.624999999999998
40
0.624999999999998
40
0.687499999999999
40
0.687499999999999
40
0.749999999999999
40
0.749999999999999
40
0.875
40
0.875
40
1
40
1
40
1
40
1
41
1
10
53.4935853738378
20
-0.0479590525684159
30
0
41
1
10
53.5000328966573
20
-0.23015129265633
30
0
41
1
10
53.5140514512973
20
-0.408729180789834
30
0
41
1
10
53.5410879333066
20
-0.671904998832815
30
0
41
1
10
53.551122073853
20
-0.758841548535145
30
0
41
1
10
53.5725315616876
20
-0.931184795340045
30
1E-16
41
1
10
53.583965177809
20
-1.01699760068826
30
1E-16
41
1
10
53.6188738813839
20
-1.26876556565742
30
1E-16
41
1
10
53.642807112914
20
-1.42872076504148
30
1E-16
41
1
10
53.6767790977129
20
-1.65744215160132
30
1E-16
41
1
10
53.687797021475
20
-1.73179977035053
30
1E-16
41
1
10
53.7088946031087
20
-1.87668629274199
30
1E-16
41
1
10
53.7189965378578
20
-1.94739658303115
30
1E-16
41
1
10
53.7470259136073
20
-2.14961210259418
30
1E-16
41
1
10
53.7628258878966
20
-2.27263217966595
30
1E-16
41
1
10
53.7825053434937
20
-2.43963693976255
30
-1E-16
41
1
10
53.7884085218438
20
-2.49236655945756
30
-1E-16
41
1
10
53.7991277076618
20
-2.5917568441985
30
-1E-16
41
1
10
53.8039310057309
20
-2.63830814313877
30
-1E-16
41
1
10
53.8170204752853
20
-2.76598927748327
30
-1E-16
41
1
10
53.8240534760017
20
-2.83628200840624
30
0
41
1
10
53.8393472675891
20
-2.94735378053932
30
0
41
1
10
53.8476712905373
20
-2.9881402771139
30
0
41
1
10
53.8595200381698
20
-3.01254380977366
30
0
0
SPLINE
5
F2
100
AcDbEntity
8
1
62
256
6
ByLayer
370
18
48
1
60
0
100
AcDbSpline
70
4
71
3
72
8
73
4
40
0
40
0
40
0
40
0
40
1
40
1
40
1
40
1
41
1
10
54.1538556622937
20
0.923261802668833
30
0
41
1
10
54.3382886155245
20
0.9520056968326
30
0
41
1
10
54.5218116093388
20
0.987181386478454
30
0
41
1
10
54.7018780271417
20
1.03581815585377
30
0
0
SPLINE
5
F3
100
AcDbEntity
8
1
62
256
6
ByLayer
370
18
48
1
60
0
100
AcDbSpline
70
4
71
3
72
8
73
4
40
0
40
0
40
0
40
0
40
1
40
1
40
1
40
1
41
1
10
54.9970490688206
20
0.176669935804568
30
0
41
1
10
54.983226674983
20
0.130598826557048
30
0
41
1
10
54.9693354943403
20
0.0845497632296599
30
0
41
1
10
54.9553757886276
20
0.0385226619372645
30
0
0
SPLINE
5
F4
100
AcDbEntity
8
1
62
256
6
ByLayer
370
18
48
1
60
0
100
AcDbSpline
70
4
71
3
72
16
73
12
40
0
40
0
40
0
40
0
40
0.223047255736169
40
0.223047255736169
40
0.44812897936612
40
0.44812897936612
40
0.645319331879901
40
0.645319331879901
40
0.821997678140841
40
0.821997678140841
40
1
40
1
40
1
40
1
41
1
10
53.8595200381699
20
-3.01254380977363
30
0
41
1
10
53.8595984420029
20
-3.01270528932901
30
0
41
1
10
53.8596215146791
20
-3.01304348491999
30
0
41
1
10
53.859533353564
20
-3.01408060255284
30
0
41
1
10
53.8594184213896
20
-3.01480209816018
30
0
41
1
10
53.8590735778549
20
-3.01643853340232
30
0
41
1
10
53.8588539855583
20
-3.01734379526445
30
0
41
1
10
53.8583648540621
20
-3.01916197624809
30
0
41
1
10
53.8580966082105
20
-3.02008784611385
30
0
41
1
10
53.8575310405144
20
-3.02192441979113
30
0
41
1
10
53.8572267551687
20
-3.02285741983349
30
0
41
1
10
53.8569242936744
20
-3.02373968841152
30
0
0
SPLINE
5
F5
100
AcDbEntity
8
1
62
256
6
ByLayer
370
18
48
1
60
0
100
AcDbSpline
70
4
71
3
72
50
73
46
40
0
40
0
40
0
40
0
40
0.0908141513035156
40
0.0908141513035156
40
0.136221226955273
40
0.136221226955273
40
0.181628302607031
40
0.181628302607031
40
0.227035378258789
40
0.227035378258789
40
0.272442453910547
40
0.272442453910547
40
0.317849529562305
40
0.317849529562305
40
0.363256605214063
40
0.363256605214063
40
0.40866368086582
40
0.40866368086582
40
0.454070756517578
40
0.454070756517578
40
0.499477832169336
40
0.499477832169336
40
0.544884907821094
40
0.544884907821094
40
0.590291983472852
40
0.590291983472852
40
0.635699059124609
40
0.635699059124609
40
0.681106134776367
40
0.681106134776367
40
0.726513210428125
40
0.726513210428125
40
0.771920286079883
40
0.771920286079883
40
0.817327361731641
40
0.817327361731641
40
0.862734437383398
40
0.862734437383398
40
0.908141513035156
40
0.908141513035156
40
0.953548588686914
40
0.953548588686914
40
0.998955664338672
40
0.998955664338672
40
1
40
1
40
1
40
1
41
1
10
3.64391700507028
20
2.49072929087421
30
1E-16
41
1
10
4.16345815354299
20
2.34146290473041
30
-1E-16
41
1
10
4.68321864131366
20
2.17312672534621
30
-1E-16
41
1
10
5.46468332115663
20
1.89581932460902
30
-1E-16
41
1
10
5.72573368381779
20
1.7991284241227
30
-1E-16
41
1
10
6.24646006004531
20
1.5985100220249
30
-1E-16
41
1
10
6.50614776877245
20
1.49417836119767
30
-1E-16
41
1
10
7.0254855884406
20
1.27996413444032
30
-1E-16
41
1
10
7.28528172711418
20
1.17039440684076
30
-1E-16
41
1
10
7.80501848811286
20
0.946131354508765
30
-1E-16
41
1
10
8.06496189633879
20
0.831424429369605
30
-1E-16
41
1
10
8.58604486977876
20
0.599047435817482
30
0
41
1
10
8.84661422635585
20
0.481663656701613
30
0
41
1
10
9.36657124235515
20
0.24514105248403
30
0
41
1
10
9.62614037183243
20
0.125878892759658
30
0
41
1
10
10.1455796601176
20
-0.112188027440368
30
0
41
1
10
10.4054695376073
20
-0.230948777464135
30
0
41
1
10
10.9256351636964
20
-0.467825551419963
30
0
41
1
10
11.1862285181133
20
-0.586136636246664
30
0
41
1
10
11.706846611247
20
-0.818934958568491
30
1E-16
41
1
10
11.9668789138764
20
-0.933379316470933
30
1E-16
41
1
10
12.4864442106771
20
-1.15827904152445
30
1E-16
41
1
10
12.7459544358685
20
-1.26876563783492
30
1E-16
41
1
10
13.2655156775733
20
-1.48359893736793
30
1E-16
41
1
10
13.5255870157119
20
-1.58792117540256
30
1E-16
41
1
10
14.0463792922186
20
-1.79021549687093
30
1E-16
41
1
10
14.306721456473
20
-1.88804265863746
30
1E-16
41
1
10
14.825127484293
20
-2.07407885924366
30
1E-16
41
1
10
15.0836598908767
20
-2.16246609597854
30
1E-16
41
1
10
15.5994964903573
20
-2.32995609217474
30
1E-16
41
1
10
15.8567811421497
20
-2.40905539213554
30
1E-16
41
1
10
16.3711531285435
20
-2.55644671044888
30
-1E-16
41
1
10
16.6282657517497
20
-2.62474647349578
30
-1E-16
41
1
10
17.1421784546492
20
-2.75077190234467
30
-1E-16
41
1
10
17.3990055511279
20
-2.80841379207683
30
-1E-16
41
1
10
17.913714521363
20
-2.91151197955887
30
0
41
1
10
18.1714807920978
20
-2.95712893810261
30
0
41
1
10
18.6878333941443
20
-3.0363399150861
30
0
41
1
10
18.9464449869194
20
-3.06986642673323
30
0
41
1
10
19.4658252729019
20
-3.12377157257276
30
0
41
1
10
19.726816018606
20
-3.1442741037458
30
0
41
1
10
20.2469027839037
20
-3.17187161717524
30
0
41
1
10
20.5064234722362
20
-3.17896048886598
30
0
41
1
10
20.7721047108738
20
-3.17933447414825
30
0
41
1
10
20.7780778367666
20
-3.17933935640261
30
0
41
1
10
20.7840509571095
20
-3.179340712163
30
0
0
SPLINE
5
F6
100
AcDbEntity
8
1
62
256
6
ByLayer
370
18
48
1
60
0
100
AcDbSpline
70
4
71
3
72
34
73
30
40
0
40
0
40
0
40
0
40
0.0474497505149537
40
0.0474497505149537
40
0.106984141107768
40
0.106984141107768
40
0.166518531700584
40
0.166518531700584
40
0.226052922293399
40
0.226052922293399
40
0.285587312886214
40
0.285587312886214
40
0.345121703479029
40
0.345121703479029
40
0.404656094071844
40
0.404656094071844
40
0.464190484664659
40
0.464190484664659
40
0.523724875257474
40
0.523724875257474
40
0.642793656443105
40
0.642793656443105
40
0.702328047035919
40
0.702328047035919
40
0.761862437628734
40
0.761862437628734
40
0.880931218814367
40
0.880931218814367
40
1
40
1
40
1
40
1
41
1
10
40.3728649546613
20
3.03772023921311
30
0
41
1
10
40.5796154326056
20
3.0671094285062
30
0
41
1
10
40.7864902654337
20
3.09232828026825
30
0
41
1
10
41.2531485432775
20
3.13991910251428
30
0
41
1
10
41.5128721855037
20
3.15994348782218
30
0
41
1
10
42.0333887827386
20
3.18654425765888
30
0
41
1
10
42.2936334612755
20
3.19309966059754
30
0
41
1
10
42.8129568992049
20
3.19277199482346
30
0
41
1
10
43.0721036335923
20
3.18585353600332
30
0
41
1
10
43.5904246082669
20
3.15846785204206
30
0
41
1
10
43.8498793083815
20
3.13810056162913
30
0
41
1
10
44.3697134807597
20
3.08438053680499
30
0
41
1
10
44.63056310364
20
3.05093366339636
30
0
41
1
10
45.1502237706381
20
2.9715639708609
30
0
41
1
10
45.409087575457
20
2.92565895272915
30
0
41
1
10
45.9251982118595
20
2.82172434228426
30
0
41
1
10
46.1823926145051
20
2.76361026902666
30
1E-16
41
1
10
46.6963390120889
20
2.63655607032962
30
1E-16
41
1
10
46.9531563079591
20
2.56772909465033
30
1E-16
41
1
10
47.7234696339661
20
2.34603637113892
30
-1E-16
41
1
10
48.2367941223768
20
2.17787775027051
30
-1E-16
41
1
10
49.0094081827745
20
1.89943366808211
30
-1E-16
41
1
10
49.2673023771144
20
1.80209513822965
30
-1E-16
41
1
10
49.7846374159951
20
1.59972601604585
30
-1E-16
41
1
10
50.0444362977474
20
1.49464745510474
30
-1E-16
41
1
10
50.8247902909772
20
1.17008742634411
30
-1E-16
41
1
10
51.3423300534242
20
0.942935274054918
30
-1E-16
41
1
10
52.3770630476935
20
0.477838931282605
30
0
41
1
10
52.8937805840852
20
0.238881835425815
30
0
41
1
10
53.4122478120809
20
-0.0013514789147564
30
0
0
SPLINE
5
F7
100
AcDbEntity
8
1
62
256
6
ByLayer
370
18
48
1
60
0
100
AcDbSpline
70
4
71
3
72
8
73
4
40
0
40
0
40
0
40
0
40
1
40
1
40
1
40
1
41
1
10
3.59786924560328
20
-1.34871344043134
30
1E-16
41
1
10
3.58540770926518
20
-1.34384605470294
30
1E-16
41
1
10
3.57323874469185
20
-1.34021206749517
30
1E-16
41
1
10
3.5616710459708
20
-1.33791348638502
30
1E-16
0
SPLINE
5
F8
100
AcDbEntity
8
1
62
256
6
ByLayer
370
18
48
1
60
0
100
AcDbSpline
70
4
71
3
72
24
73
20
40
0
40
0
40
0
40
0
40
0.124517492068981
40
0.124517492068981
40
0.249034984137962
40
0.249034984137962
40
0.373552476206943
40
0.373552476206943
40
0.498069968275925
40
0.498069968275925
40
0.622587460344906
40
0.622587460344906
40
0.747104952413887
40
0.747104952413887
40
0.871622444482868
40
0.871622444482868
40
0.996139936551849
40
0.996139936551849
40
1
40
1
40
1
40
1
41
1
10
3.64226378862088
20
2.37407883879226
30
1E-16
41
1
10
3.90350099696829
20
2.30403082010153
30
1E-16
41
1
10
4.16483732381602
20
2.22859430613207
30
-1E-16
41
1
10
4.68806574859622
20
2.0681749111244
30
-1E-16
41
1
10
4.95039317085462
20
1.98304074118599
30
-1E-16
41
1
10
5.47348301387757
20
1.80530494307891
30
-1E-16
41
1
10
5.73418556624813
20
1.71272591412566
30
-1E-16
41
1
10
6.25419863667761
20
1.52115134923321
30
-1E-16
41
1
10
6.51338685290364
20
1.42201564579108
30
-1E-16
41
1
10
7.03109518155026
20
1.21857983061577
30
-1E-16
41
1
10
7.28971973498039
20
1.11438554253587
30
-1E-16
41
1
10
7.80654618864722
20
0.901632244270672
30
-1E-16
41
1
10
8.0647342914711
20
0.793057636431911
30
0
41
1
10
8.58157795619721
20
0.573254277720054
30
0
41
1
10
8.84026057973776
20
0.462063178854208
30
0
41
1
10
9.35813333547395
20
0.237442234587263
30
0
41
1
10
9.61728191078274
20
0.123946517623807
30
0
41
1
10
9.88524136713627
20
0.0068259580430379
30
0
41
1
10
9.89329916338679
20
0.0033043579594221
30
0
41
1
10
9.90135773509687
20
-0.0002172521881221
30
0
0
SPLINE
5
F9
100
AcDbEntity
8
1
62
256
6
ByLayer
370
18
48
1
60
0
100
AcDbSpline
70
4
71
3
72
28
73
24
40
0
40
0
40
0
40
0
40
0.0208445090374075
40
0.0208445090374075
40
0.0907841869633059
40
0.0907841869633059
40
0.160723864889204
40
0.160723864889204
40
0.300603220741003
40
0.300603220741003
40
0.370542898666903
40
0.370542898666903
40
0.440482576592803
40
0.440482576592803
40
0.510422254518702
40
0.510422254518702
40
0.580361932444602
40
0.580361932444602
40
0.720241288296402
40
0.720241288296402
40
0.860120644148201
40
0.860120644148201
40
1
40
1
40
1
40
1
41
1
10
42.3588868486915
20
3.04058490401232
30
0
41
1
10
42.4367953721877
20
3.04141207163679
30
0
41
1
10
42.5147703964312
20
3.04167981132113
30
0
41
1
10
42.8546298555837
20
3.04050032998055
30
0
41
1
10
43.1153544367477
20
3.03391301552654
30
0
41
1
10
43.6353426107765
20
3.00781529011931
30
0
41
1
10
43.8947454364406
20
2.98765502227184
30
0
41
1
10
44.6718842561388
20
2.90788745122305
30
0
41
1
10
45.1885520922785
20
2.82944121165062
30
0
41
1
10
45.9628233283244
20
2.67951598764779
30
1E-16
41
1
10
46.2207337564266
20
2.62426920702353
30
1E-16
41
1
10
46.7374168848035
20
2.50248194977357
30
1E-16
41
1
10
46.9962641638069
20
2.4357808293725
30
1E-16
41
1
10
47.5151669462068
20
2.29198406599295
30
-1E-16
41
1
10
47.7751821774399
20
2.21496325816904
30
-1E-16
41
1
10
48.2969280529125
20
2.0513454709525
30
-1E-16
41
1
10
48.559262544182
20
1.9645124432835
30
-1E-16
41
1
10
49.342746658421
20
1.69311100475397
30
-1E-16
41
1
10
49.8616647225818
20
1.49737234494268
30
-1E-16
41
1
10
50.8972571246941
20
1.08484641302155
30
-1E-16
41
1
10
51.4138398499604
20
0.868173078702483
30
-1E-16
41
1
10
52.4491065584865
20
0.423536038568301
30
0
41
1
10
52.9673687930358
20
0.195146888591722
30
0
41
1
10
53.4882383415292
20
-0.0348402673747046
30
0
0
SPLINE
5
FA
100
AcDbEntity
8
1
62
256
6
ByLayer
370
18
48
1
60
0
100
AcDbSpline
70
4
71
3
72
34
73
30
40
0
40
0
40
0
40
0
40
0.0383124302243549
40
0.0383124302243549
40
0.107216029837905
40
0.107216029837905
40
0.176119629451456
40
0.176119629451456
40
0.245023229065007
40
0.245023229065007
40
0.313926828678557
40
0.313926828678557
40
0.451734027905659
40
0.451734027905659
40
0.52063762751921
40
0.52063762751921
40
0.589541227132762
40
0.589541227132762
40
0.658444826746313
40
0.658444826746313
40
0.727348426359865
40
0.727348426359865
40
0.796252025973416
40
0.796252025973416
40
0.865155625586967
40
0.865155625586967
40
0.934059225200519
40
0.934059225200519
40
1
40
1
40
1
40
1
41
1
10
20.3449599237773
20
3.02486779107599
30
0
41
1
10
20.4885603044346
20
3.02903932701796
30
0
41
1
10
20.6322245663866
20
3.0312313909723
30
0
41
1
10
21.034759914774
20
3.03115704096578
30
0
41
1
10
21.2938597392804
20
3.02457889455388
30
0
41
1
10
21.812774356916
20
2.99968351393605
30
0
41
1
10
22.0725937689636
20
2.98134621038059
30
0
41
1
10
22.5945943416201
20
2.9303366937342
30
0
41
1
10
22.8570505931756
20
2.89824533414699
30
0
41
1
10
23.3793111414553
20
2.82280642757127
30
0
41
1
10
23.6395083782027
20
2.77940397978392
30
1E-16
41
1
10
24.418640163158
20
2.6308408897311
30
1E-16
41
1
10
24.9354859901885
20
2.50953096959668
30
1E-16
41
1
10
25.7103916271412
20
2.29775988937143
30
1E-16
41
1
10
25.9686852051852
20
2.2221362713411
30
-1E-16
41
1
10
26.4852828896271
20
2.06209220882496
30
-1E-16
41
1
10
26.7437141072165
20
1.97754377898386
30
-1E-16
41
1
10
27.2616817518498
20
1.80009733410921
30
-1E-16
41
1
10
27.5211054234196
20
1.70726786579408
30
-1E-16
41
1
10
28.0409655815502
20
1.51425812172386
30
-1E-16
41
1
10
28.3015832299325
20
1.41407830213939
30
-1E-16
41
1
10
28.8250122013631
20
1.20740859381161
30
-1E-16
41
1
10
29.087078053084
20
1.10110820668441
30
-1E-16
41
1
10
29.6100567167773
20
0.884380984251919
30
-1E-16
41
1
10
29.8714267105606
20
0.773968417830616
30
0
41
1
10
30.3945755877112
20
0.550379264630237
30
0
41
1
10
30.6564701543222
20
0.436934314290852
30
0
41
1
10
31.1686003201606
20
0.213434010783772
30
0
41
1
10
31.4182016654415
20
0.104010032393461
30
0
41
1
10
31.6671878651773
20
-0.0050495535162725
30
0
0
SPLINE
5
FB
100
AcDbEntity
8
1
62
256
6
ByLayer
370
18
48
1
60
0
100
AcDbSpline
70
4
71
3
72
22
73
18
40
0
40
0
40
0
40
0
40
0.130459016060303
40
0.130459016060303
40
0.410865546611078
40
0.410865546611078
40
0.551068811886468
40
0.551068811886468
40
0.621170444524162
40
0.621170444524162
40
0.691272077161855
40
0.691272077161855
40
0.83147534243724
40
0.83147534243724
40
0.971678607712624
40
0.971678607712624
40
1
40
1
40
1
40
1
41
1
10
33.3381764492991
20
-3.03410277434614
30
0
41
1
10
32.8516796902618
20
-3.04357061151066
30
0
41
1
10
32.3671880777522
20
-3.03093224235025
30
0
41
1
10
30.8417217368285
20
-2.92044891852578
30
0
41
1
10
29.8020680064358
20
-2.74359049528826
30
-1E-16
41
1
10
28.2185222369529
20
-2.34111436786242
30
-1E-16
41
1
10
27.6915793526251
20
-2.18572573304405
30
1E-16
41
1
10
26.9005991523117
20
-1.92608498554154
30
1E-16
41
1
10
26.6363846073877
20
-1.83498357978212
30
1E-16
41
1
10
26.1091479481669
20
-1.64562885028377
30
1E-16
41
1
10
25.8464483466453
20
-1.54750587203603
30
1E-16
41
1
10
25.060326611649
20
-1.24457712034396
30
1E-16
41
1
10
24.5388715920996
20
-1.031289960506
30
1E-16
41
1
10
23.4967808973683
20
-0.591812723252701
30
0
41
1
10
22.9764986730645
20
-0.365045188926757
30
0
41
1
10
22.3489332423291
20
-0.0908557780954311
30
0
41
1
10
22.243415068557
20
-0.044683009210047
30
0
41
1
10
22.1378221386457
20
0.0015336387740206
30
0
0
SPLINE
5
FC
100
AcDbEntity
8
1
62
256
6
ByLayer
370
18
48
1
60
0
100
AcDbSpline
70
4
71
3
72
8
73
4
40
0
40
0
40
0
40
0
40
1
40
1
40
1
40
1
41
1
10
53.6789501765167
20
-3.16049153981624
30
0
41
1
10
53.683836537193
20
-3.1841407508895
30
0
41
1
10
53.6880923811917
20
-3.19735074106498
30
0
41
1
10
53.6918638608312
20
-3.19956791206406
30
0
0
SPLINE
5
FD
100
AcDbEntity
8
1
62
256
6
ByLayer
370
18
48
1
60
0
100
AcDbSpline
70
4
71
3
72
8
73
4
40
0
40
0
40
0
40
0
40
1
40
1
40
1
40
1
41
1
10
3.60188148392248
20
-1.33607069916573
30
1E-16
41
1
10
3.58802702813281
20
-1.33120792657044
30
1E-16
41
1
10
3.57450705202382
20
-1.32770804292457
30
1E-16
41
1
10
3.56167104597085
20
-1.32566693797125
30
1E-16
0
SPLINE
5
FE
100
AcDbEntity
8
1
62
256
6
ByLayer
370
18
48
1
60
0
100
AcDbSpline
70
4
71
3
72
8
73
4
40
0
40
0
40
0
40
0
40
1
40
1
40
1
40
1
41
1
10
5.08777185978201
20
-2.36456889542029
30
1E-16
41
1
10
5.41507361679305
20
-2.44922824252956
30
1E-16
41
1
10
5.73790444721999
20
-2.53538392806391
30
-1E-16
41
1
10
6.05750386469913
20
-2.61817107291
30
-1E-16
0
SPLINE
5
FF
100
AcDbEntity
8
1
62
256
6
ByLayer
370
18
48
1
60
0
100
AcDbSpline
70
4
71
3
72
8
73
4
40
0
40
0
40
0
40
0
40
1
40
1
40
1
40
1
41
1
10
3.64226378862088
20
2.37407883879226
30
1E-16
41
1
10
3.62968415672256
20
2.37747151066924
30
1E-16
41
1
10
3.61626906299307
20
2.37918693524128
30
1E-16
41
1
10
3.60250756835285
20
2.3791771388947
30
1E-16
0
SPLINE
5
100
100
AcDbEntity
8
1
62
256
6
ByLayer
370
18
48
1
60
0
100
AcDbSpline
70
4
71
3
72
10
73
6
40
0
40
0
40
0
40
0
40
0.5
40
0.5
40
1
40
1
40
1
40
1
41
1
10
3.56007229562249
20
-1.40021598262808
30
1E-16
41
1
10
3.54262557073361
20
-1.39304371688041
30
1E-16
41
1
10
3.52784636670754
20
-1.38145071279263
30
1E-16
41
1
10
3.50734458786118
20
-1.3526764977855
30
1E-16
41
1
10
3.50170979169678
20
-1.33551306816929
30
1E-16
41
1
10
3.50170979169678
20
-1.3180629226336
30
1E-16
0
SPLINE
5
101
100
AcDbEntity
8
1
62
256
6
ByLayer
370
18
48
1
60
0
100
AcDbSpline
70
4
71
3
72
70
73
66
40
0
40
0
40
0
40
0
40
0.0152233872613878
40
0.0152233872613878
40
0.0694944543095774
40
0.0694944543095774
40
0.0966299878336722
40
0.0966299878336722
40
0.123765521357767
40
0.123765521357767
40
0.178036588405955
40
0.178036588405955
40
0.20517212193005
40
0.20517212193005
40
0.232307655454144
40
0.232307655454144
40
0.259443188978238
40
0.259443188978238
40
0.286578722502332
40
0.286578722502332
40
0.313714256026426
40
0.313714256026426
40
0.34084978955052
40
0.34084978955052
40
0.367985323074615
40
0.367985323074615
40
0.395120856598709
40
0.395120856598709
40
0.422256390122803
40
0.422256390122803
40
0.449391923646897
40
0.449391923646897
40
0.476527457170991
40
0.476527457170991
40
0.503662990695085
40
0.503662990695085
40
0.557934057743274
40
0.557934057743274
40
0.585069591267367
40
0.585069591267367
40
0.612205124791461
40
0.612205124791461
40
0.666476191839647
40
0.666476191839647
40
0.69361172536374
40
0.69361172536374
40
0.720747258887834
40
0.720747258887834
40
0.775018325936023
40
0.775018325936023
40
0.802153859460117
40
0.802153859460117
40
0.829289392984211
40
0.829289392984211
40
0.856424926508306
40
0.856424926508306
40
0.883560460032401
40
0.883560460032401
40
0.93783152708059
40
0.93783152708059
40
0.964967060604685
40
0.964967060604685
40
0.992102594128779
40
0.992102594128779
40
1
40
1
40
1
40
1
41
1
10
49.351367610467
20
-2.12510979794996
30
1E-16
41
1
10
49.2125256742675
20
-2.17288235183636
30
1E-16
41
1
10
49.0736644481283
20
-2.21936751630707
30
1E-16
41
1
10
48.4395705099232
20
-2.42554196222684
30
1E-16
41
1
10
47.944509676388
20
-2.5705316636454
30
-1E-16
41
1
10
47.1964036962236
20
-2.75555003447423
30
-1E-16
41
1
10
46.9461550281909
20
-2.81217131984911
30
0
41
1
10
46.4473107865912
20
-2.91414694088459
30
0
41
1
10
46.1985867046036
20
-2.95980760613693
30
0
41
1
10
45.4518836287562
20
-3.07849336038947
30
0
41
1
10
44.9533119542345
20
-3.13365886841817
30
0
41
1
10
44.2044407591843
20
-3.18018982467106
30
0
41
1
10
43.9550286228303
20
-3.18947321459194
30
0
41
1
10
43.4565303049983
20
-3.19546625984467
30
0
41
1
10
43.207309045122
20
-3.19225110451444
30
0
41
1
10
42.7090442036707
20
-3.17350959172322
30
0
41
1
10
42.4599508894038
20
-3.15798340957789
30
0
41
1
10
41.9617395243261
20
-3.11439891708244
30
0
41
1
10
41.7120565894973
20
-3.08639858974291
30
0
41
1
10
41.2124515044356
20
-3.01877032393861
30
0
41
1
10
40.9629547045793
20
-2.97915098115769
30
0
41
1
10
40.4644842966229
20
-2.88845258078851
30
0
41
1
10
40.2156367707668
20
-2.83723603294052
30
0
41
1
10
39.7178073614598
20
-2.72380062556101
30
-1E-16
41
1
10
39.4686403009992
20
-2.66179527879709
30
-1E-16
41
1
10
38.9693291341732
20
-2.52790059039586
30
-1E-16
41
1
10
38.7190965730615
20
-2.45578287802115
30
2E-16
41
1
10
38.2199755028715
20
-2.30237036831645
30
1E-16
41
1
10
37.9711305857119
20
-2.22054707173672
30
1E-16
41
1
10
37.4731701295148
20
-2.04926257818374
30
1E-16
41
1
10
37.2240247372505
20
-1.959891765821
30
1E-16
41
1
10
36.7253523783762
20
-1.77389046959056
30
1E-16
41
1
10
36.475797343035
20
-1.67731518243144
30
1E-16
41
1
10
35.9763920815799
20
-1.47658545323122
30
1E-16
41
1
10
35.7268872251395
20
-1.37271993485729
30
1E-16
41
1
10
34.9789484801526
20
-1.05599255982364
30
1E-16
41
1
10
34.4805119855113
20
-0.837140528348129
30
1E-16
41
1
10
33.7330231695246
20
-0.49745737211714
30
0
41
1
10
33.4833377437575
20
-0.382869785084694
30
0
41
1
10
32.9835743632205
20
-0.153755289148393
30
0
41
1
10
32.7339801314839
20
-0.0391739629163794
30
0
41
1
10
31.9860269482331
20
0.304585525675009
30
0
41
1
10
31.4889375434402
20
0.534705941195114
30
0
41
1
10
30.7398304073345
20
0.868740087749728
30
-1E-16
41
1
10
30.4895263050375
20
0.978796970954022
30
-1E-16
41
1
10
29.9901978036992
20
1.19446654330261
30
-1E-16
41
1
10
29.7412477480289
20
1.30078607112517
30
-1E-16
41
1
10
28.9941183545069
20
1.61025112098076
30
-1E-16
41
1
10
28.4953475123979
20
1.80350608623331
30
-1E-16
41
1
10
27.7459941845912
20
2.07342475940186
30
-1E-16
41
1
10
27.4963958841313
20
2.15993190157937
30
-1E-16
41
1
10
26.9976408708554
20
2.32286835492329
30
-1E-16
41
1
10
26.7482754707699
20
2.39950132460223
30
-1E-16
41
1
10
26.2496918554134
20
2.54340534269767
30
1E-16
41
1
10
26.0004050070287
20
2.61058159783451
30
1E-16
41
1
10
25.501952910971
20
2.73532676771254
30
1E-16
41
1
10
25.2522686855467
20
2.79253388258377
30
1E-16
41
1
10
24.5023867697903
20
2.94665127741325
30
0
41
1
10
24.0038172689791
20
3.02659103854987
30
0
41
1
10
23.2567115025598
20
3.11115251480314
30
0
41
1
10
23.0074773496725
20
3.13322937084914
30
0
41
1
10
22.5079798175198
20
3.16504502277891
30
0
41
1
10
22.2576041586439
20
3.17483656004285
30
0
41
1
10
21.9351518957563
20
3.17945852101377
30
0
41
1
10
21.8625215886754
20
3.17997417731803
30
0
41
1
10
21.7899322611541
20
3.17996336538786
30
0
0
SPLINE
5
102
100
AcDbEntity
8
1
62
256
6
ByLayer
370
18
48
1
60
0
100
AcDbSpline
70
4
71
3
72
8
73
4
40
0
40
0
40
0
40
0
40
1
40
1
40
1
40
1
41
1
10
54.9970490688206
20
0.176669935804568
30
0
41
1
10
55.0009859787009
20
0.0588200820304507
30
0
41
1
10
55.0009813115182
20
-0.058959792305501
30
0
41
1
10
54.9970490688211
20
-0.176669935789192
30
0
0
SPLINE
5
103
100
AcDbEntity
8
1
62
256
6
ByLayer
370
18
48
1
60
0
100
AcDbSpline
70
4
71
3
72
8
73
4
40
0
40
0
40
0
40
0
40
1
40
1
40
1
40
1
41
1
10
54.7018780271382
20
-1.03581815585253
30
0
41
1
10
54.8031295464426
20
-0.750459124827074
30
0
41
1
10
54.9015349259047
20
-0.464081763239989
30
0
41
1
10
54.9970490688279
20
-0.176669935782741
30
0
0
SPLINE
5
104
100
AcDbEntity
8
SK1
62
256
6
ByLayer
370
18
48
1
60
0
100
AcDbSpline
70
4
71
3
72
8
73
4
40
0
40
0
40
0
40
0
40
1
40
1
40
1
40
1
41
1
10
-35.6009618943233
20
-1.63075778735657
30
1E-16
41
1
10
-35.5673238395621
20
-1.64108131500728
30
1E-16
41
1
10
-35.5336693683795
20
-1.65140004156217
30
1E-16
41
1
10
-35.5
20
-1.66171441132883
30
1E-16
0
SPLINE
5
105
100
AcDbEntity
8
SK1
62
256
6
ByLayer
370
18
48
1
60
0
100
AcDbSpline
70
4
71
3
72
10
73
6
40
0
40
0
40
0
40
0
40
0.5
40
0.5
40
1
40
1
40
1
40
1
41
1
10
-36.0000000000001
20
0.404447602627385
30
0
41
1
10
-35.9272396278271
20
0.320416582294285
30
0
41
1
10
-35.8568055726535
20
0.229552501436217
30
0
41
1
10
-35.7224295033876
20
0.0298155888350209
30
0
41
1
10
-35.6578574543336
20
-0.0802614315813628
30
0
41
1
10
-35.6009618943233
20
-0.198967780610957
30
0
0
SPLINE
5
106
100
AcDbEntity
8
SK1
62
256
6
ByLayer
370
18
48
1
60
0
100
AcDbSpline
70
4
71
3
72
12
73
8
40
0
40
0
40
0
40
0
40
0.5
40
0.5
40
0.75
40
0.75
40
1
40
1
40
1
40
1
41
1
10
-35.5
20
-1.66171441132894
30
1E-16
41
1
10
-35.4764535706457
20
-1.66892769125468
30
1E-16
41
1
10
-35.453758325367
20
-1.66883465263706
30
1E-16
41
1
10
-35.4256589034923
20
-1.65609505560243
30
1E-16
41
1
10
-35.4170915256394
20
-1.64954446995188
30
1E-16
41
1
10
-35.4042768359918
20
-1.63076732471794
30
1E-16
41
1
10
-35.4
20
-1.61813506902396
30
1E-16
41
1
10
-35.4
20
-1.60322164890192
30
1E-16
0
SPLINE
5
107
100
AcDbEntity
8
SK1
62
256
6
ByLayer
370
18
48
1
60
0
100
AcDbSpline
70
4
71
3
72
12
73
8
40
0
40
0
40
0
40
0
40
0.249999999999999
40
0.249999999999999
40
0.499999999999998
40
0.499999999999998
40
1
40
1
40
1
40
1
41
1
10
-35.4
20
-0.362336976389059
30
0
41
1
10
-35.4
20
-0.345443732735703
30
0
41
1
10
-35.4042405317345
20
-0.328423953273187
30
0
41
1
10
-35.4170629445097
20
-0.298552996154257
30
0
41
1
10
-35.4255309618335
20
-0.285543101563007
30
0
41
1
10
-35.4538111153162
20
-0.25217327352641
30
0
41
1
10
-35.4764597265186
20
-0.237135798701246
30
0
41
1
10
-35.5
20
-0.229924404583073
30
0
0
SPLINE
5
108
100
AcDbEntity
8
SK1
62
256
6
ByLayer
370
18
48
1
60
0
100
AcDbSpline
70
4
71
3
72
10
73
6
40
0
40
0
40
0
40
0
40
0.715715267794788
40
0.715715267794788
40
1
40
1
40
1
40
1
41
1
10
-36.0000000000001
20
-0.404447602627385
30
0
41
1
10
-35.9272396278271
20
-0.320416582294285
30
0
41
1
10
-35.8568055726535
20
-0.229552501436217
30
0
41
1
10
-35.7629302039752
20
-0.0900159276136208
30
0
41
1
10
-35.7366555959543
20
-0.0487371972057247
30
0
41
1
10
-35.7111108411551
20
-0.0059468200587673
30
0
0
SPLINE
5
109
100
AcDbEntity
8
SK1
62
256
6
ByLayer
370
18
48
1
60
0
100
AcDbSpline
70
4
71
3
72
8
73
4
40
0
40
0
40
0
40
0
40
1
40
1
40
1
40
1
41
1
10
-35.5
20
-0.229924404583187
30
0
41
1
10
-35.5336694846008
20
-0.219609999212992
30
0
41
1
10
-35.5673239594917
20
-0.209291271455243
30
0
41
1
10
-35.6009618943233
20
-0.198967780610957
30
0
0
SPLINE
5
10A
100
AcDbEntity
8
SK1
62
256
6
ByLayer
370
18
48
1
60
0
100
AcDbSpline
70
4
71
3
72
10
73
6
40
0
40
0
40
0
40
0
40
0.5
40
0.5
40
1
40
1
40
1
40
1
41
1
10
-35.6009618943233
20
-1.63075778735657
30
1E-16
41
1
10
-35.657625994603
20
-1.69989858611021
30
1E-16
41
1
10
-35.7212304684705
20
-1.75337187146857
30
1E-16
41
1
10
-35.8564778377541
20
-1.8368389964597
30
1E-16
41
1
10
-35.9271669955654
20
-1.86624974365347
30
1E-16
41
1
10
-36.0000000000001
20
-1.88641640816573
30
1E-16
0
SPLINE
5
10B
100
AcDbEntity
8
1
62
256
6
ByLayer
370
18
48
1
60
0
100
AcDbSpline
70
4
71
3
72
17
73
13
40
0
40
0
40
0
40
0
40
0.0046533983009972
40
0.0576189751609919
40
0.158581818556104
40
0.222273094898411
40
0.292980905152882
40
0.371385123417461
40
0.493544766666877
40
0.645102761706003
40
0.82613676235419
40
1
40
1
40
1
40
1
41
1
10
11.4872506821777
20
0.146408499488132
30
0
41
1
10
11.4802954651467
20
0.148558981418034
30
0
41
1
10
11.3941877602024
20
0.175188055721918
30
0
41
1
10
11.1577994006564
20
0.248573482966265
30
0
41
1
10
10.8343165975209
20
0.349297556483151
30
0
41
1
10
10.4806660392185
20
0.461825968509373
30
0
41
1
10
10.1618511575783
20
0.565232626978258
30
0
41
1
10
9.75563571074241
20
0.699735125099068
30
0
41
1
10
9.22952821783221
20
0.878672503110835
30
-1E-16
41
1
10
8.55282329264145
20
1.11711592452869
30
-1E-16
41
1
10
7.80253518982485
20
1.39209242430195
30
-1E-16
41
1
10
7.27991085263778
20
1.59286877695681
30
-1E-16
41
1
10
7.02458071251493
20
1.69308510931535
30
-1E-16
0
SPLINE
5
10C
100
AcDbEntity
8
1
62
256
6
ByLayer
370
18
48
1
60
0
100
AcDbSpline
70
4
71
3
72
12
73
8
40
0
40
0
40
0
40
0
40
0.0405847923952191
40
0.220011146041603
40
0.417083175003021
40
0.695197611920172
40
1
40
1
40
1
40
1
41
1
10
53.9323710139811
20
0.476596130592213
30
0
41
1
10
53.8863184810851
20
0.491181688689892
30
0
41
1
10
53.6367976142992
20
0.570722646873236
30
0
41
1
10
53.165489435863
20
0.72856611960438
30
0
41
1
10
52.4281651665324
20
0.982088977128399
30
-1E-16
41
1
10
51.5540213175279
20
1.29691470037332
30
-1E-16
41
1
10
50.9053080659142
20
1.54425787979159
30
-1E-16
41
1
10
50.5673031402095
20
1.67685615376698
30
-1E-16
0
SPLINE
5
10D
100
AcDbEntity
8
1
62
256
6
ByLayer
370
18
48
1
60
0
100
AcDbSpline
70
4
71
1
72
4
73
2
40
0
40
0
40
1
40
1
41
1
10
50.5673031402095
20
1.67685615376698
30
-1E-16
41
1
10
50.3848499053766
20
1.7464132315811
30
-1E-16
0
SPLINE
5
10E
100
AcDbEntity
8
1
62
256
6
ByLayer
370
18
48
1
60
0
100
AcDbSpline
70
4
71
3
72
27
73
23
40
0
40
0
40
0
40
0
40
1.43564175266E-05
40
3.80172162142E-05
40
5.92633671887E-05
40
7.89259504856E-05
40
9.75472125795E-05
40
0.0001322034982721
40
0.0003059358282291
40
0.0004406525526201
40
0.0006816442389512
40
0.0011132865244473
40
0.0018882214165911
40
0.0032852513300549
40
0.0058220977914614
40
0.108752666179042
40
0.257296175551374
40
0.426460689105043
40
0.551439857883835
40
0.675299711318545
40
0.829353959312907
40
1
40
1
40
1
40
1
41
1
10
33.708863524369
20
0.001664640303062
30
0
41
1
10
33.7088730992245
20
0.0016635192368142
30
0
41
1
10
33.7088957126475
20
0.0016613064959472
30
0
41
1
10
33.7089180599311
20
0.0016612598531651
30
0
41
1
10
33.708911296755
20
0.0016741475115225
30
0
41
1
10
33.7088869213244
20
0.0016875952655937
30
0
41
1
10
33.7088338119596
20
0.0017107812553263
30
0
41
1
10
33.708567982251
20
0.0018063649655176
30
0
41
1
10
33.7079496799356
20
0.001981515720729
30
0
41
1
10
33.7070932522632
20
0.0022411916577028
30
0
41
1
10
33.7057892717766
20
0.0026298572748829
30
0
41
1
10
33.703478764225
20
0.0033223571147118
30
0
41
1
10
33.6993049376425
20
0.0045704881970323
30
0
41
1
10
33.6917636936029
20
0.0068261581632214
30
0
41
1
10
33.5204021130375
20
0.0580194838235855
30
0
41
1
10
33.1083138987566
20
0.182731995740909
30
0
41
1
10
32.4174300598666
20
0.397120796559648
30
0
41
1
10
31.6913411684924
20
0.634398956354801
30
0
41
1
10
31.0090619970979
20
0.866918158282431
30
-1E-16
41
1
10
30.3536318927437
20
1.09823406231081
30
-1E-16
41
1
10
29.6268754951479
20
1.36401931369039
30
-1E-16
41
1
10
29.1037429816341
20
1.56436802308849
30
-1E-16
41
1
10
28.8295857962005
20
1.67177131776339
30
-1E-16
0
SPLINE
5
10F
100
AcDbEntity
8
1
62
256
6
ByLayer
370
18
48
1
60
0
100
AcDbSpline
70
4
71
3
72
21
73
17
40
0
40
0
40
0
40
0
40
0.0003809728424326
40
0.0008199769219069
40
0.001258256397768
40
0.0021376163269976
40
0.008381989713917
40
0.0132696206838882
40
0.0219894655184103
40
0.0375348856595757
40
0.0652124953831802
40
0.114375036948321
40
0.201330039803177
40
0.353937911411592
40
0.617913171602407
40
1
40
1
40
1
40
1
41
1
10
11.8241840920727
20
0.0423462225175513
30
0
41
1
10
11.8241869718505
20
0.042350070591425
30
0
41
1
10
11.8241808676713
20
0.0423619299851055
30
0
41
1
10
11.8241281582631
20
0.0423913852779094
30
0
41
1
10
11.8240061801402
20
0.0424433760708212
30
0
41
1
10
11.8232510444856
20
0.0427076362570062
30
0
41
1
10
11.8218102502422
20
0.043123481731584
30
0
41
1
10
11.8196039093322
20
0.0438121299917498
30
0
41
1
10
11.8163038908161
20
0.0448229759766718
30
0
41
1
10
11.8104609856505
20
0.0466243656761094
30
0
41
1
10
11.8000476919694
20
0.0498282800347454
30
0
41
1
10
11.7816022046383
20
0.0555091794772409
30
0
41
1
10
11.749090265189
20
0.0655241505646416
30
0
41
1
10
11.692426107655
20
0.082993722094443
30
0
41
1
10
11.6026306808115
20
0.110710362275284
30
0
41
1
10
11.5301049936078
20
0.133140092906359
30
0
41
1
10
11.4872506821777
20
0.146408499488132
30
0
0
SPLINE
5
110
100
AcDbEntity
8
1
62
256
6
ByLayer
370
18
48
1
60
0
100
AcDbSpline
70
4
71
3
72
18
73
14
40
0
40
0
40
0
40
0
40
0.107640485145721
40
0.182837296505527
40
0.251453525026542
40
0.340863924450254
40
0.434062436363905
40
0.522972320247866
40
0.600328069566663
40
0.721541071043793
40
0.851665717134088
40
0.922726751345775
40
1
40
1
40
1
40
1
41
1
10
33.0156779850253
20
-3.02711189723283
30
0
41
1
10
33.2791029458449
20
-3.02733214057102
30
0
41
1
10
33.7265687467777
20
-3.02767126177156
30
0
41
1
10
34.34229450777
20
-3.02808545346628
30
0
41
1
10
34.9128742247158
20
-3.02835762794391
30
0
41
1
10
35.5280388494751
20
-3.02868687750686
30
0
41
1
10
36.1927295510292
20
-3.02933811092788
30
0
41
1
10
36.827945590939
20
-3.02898166220757
30
0
41
1
10
37.5317373522229
20
-3.03050058622526
30
0
41
1
10
38.3364194884193
20
-3.02927343291387
30
0
41
1
10
39.1257127380767
20
-3.03118050562537
30
0
41
1
10
39.8074243979289
20
-3.03025568273282
30
0
41
1
10
40.1705721244312
20
-3.03140145914824
30
0
41
1
10
40.3597492910995
20
-3.03166967359999
30
0
0
SPLINE
5
111
100
AcDbEntity
8
1
62
256
6
ByLayer
370
18
48
1
60
0
100
AcDbSpline
70
4
71
3
72
20
73
16
40
0
40
0
40
0
40
0
40
0.115179473527737
40
0.188198819654818
40
0.247634582614323
40
0.315911256678292
40
0.388711899317347
40
0.463090438485514
40
0.536300915518272
40
0.601731937432036
40
0.721437977563084
40
0.845175761902719
40
0.913170233611307
40
0.990000207485826
40
1
40
1
40
1
40
1
41
1
10
20.7765759499654
20
3.02121691717559
30
0
41
1
10
20.4918053862937
20
3.020639761556
30
0
41
1
10
20.0265061771622
20
3.0200273488332
30
0
41
1
10
19.4141060005572
20
3.0200915064668
30
0
41
1
10
18.9179431140941
20
3.0203151041683
30
0
41
1
10
18.4220929384298
20
3.01885243472742
30
0
41
1
10
17.8893415538225
20
3.01907897023793
30
0
41
1
10
17.3443763577714
20
3.01908662256392
30
0
41
1
10
16.8176390601332
20
3.01771875308381
30
0
41
1
10
16.1788185485169
20
3.01805822472619
30
0
41
1
10
15.4150564954126
20
3.01674025559905
30
0
41
1
10
14.6449561896128
20
3.01663276874899
30
0
41
1
10
13.9808799721
20
3.01574106857751
30
0
41
1
10
13.5980427428645
20
3.01555383630821
30
0
41
1
10
13.3833381910773
20
3.01539361979178
30
0
41
1
10
13.3586116529869
20
3.01537451389123
30
0
0
SPLINE
5
112
100
AcDbEntity
8
1
62
256
6
ByLayer
370
18
48
1
60
0
100
AcDbSpline
70
4
71
3
72
22
73
18
40
0
40
0
40
0
40
0
40
0.0940535803301137
40
0.168940829402338
40
0.254260239747618
40
0.307015137071848
40
0.359490637989894
40
0.415761331189619
40
0.478125889144361
40
0.545596147979485
40
0.616818152828483
40
0.688215311977703
40
0.775812471222831
40
0.848770462360232
40
0.920027706827228
40
0.970391389827103
40
1
40
1
40
1
40
1
41
1
10
11.2610192768211
20
-3.01345608687069
30
0
41
1
10
11.4938923082493
20
-3.01366173231205
30
0
41
1
10
11.9122501348843
20
-3.01404092631807
30
0
41
1
10
12.5420948102595
20
-3.01446902559729
30
0
41
1
10
13.0697349859826
20
-3.01515168076074
30
0
41
1
10
13.5413961398011
20
-3.01551235317305
30
0
41
1
10
13.9414578693279
20
-3.01574079992608
30
0
41
1
10
14.3653390015
20
-3.0162274824369
30
0
41
1
10
14.826365465415
20
-3.01669559142542
30
0
41
1
10
15.3244158747479
20
-3.01681884498367
30
0
41
1
10
15.844862536941
20
-3.01750573764082
30
0
41
1
10
16.4151637344089
20
-3.01797248597742
30
0
41
1
10
16.9897675421612
20
-3.01795145917015
30
0
41
1
10
17.5640231800123
20
-3.01932890977818
30
0
41
1
10
18.0460432167434
20
-3.01894154295266
30
0
41
1
10
18.4206771730004
20
-3.01905156588492
30
0
41
1
10
18.6187846808252
20
-3.01947269991439
30
0
41
1
10
18.6921310177111
20
-3.01962709613741
30
0
0
SPLINE
5
113
100
AcDbEntity
8
1
62
256
6
ByLayer
370
18
48
1
60
0
100
AcDbSpline
70
4
71
3
72
21
73
17
40
0
40
0
40
0
40
0
40
0.0962406392187681
40
0.173320113620501
40
0.262066919945226
40
0.314998571464586
40
0.3671246010445
40
0.42141093406844
40
0.479906289946519
40
0.542889507912645
40
0.61105139380028
40
0.682917432352121
40
0.787493384309931
40
0.876230584080433
40
0.962438639943524
40
1
40
1
40
1
40
1
41
1
10
42.5340187334576
20
3.03152387976405
30
0
41
1
10
42.2996732668567
20
3.03163770699422
30
0
41
1
10
41.8773439036139
20
3.0317813099694
30
0
41
1
10
41.2383855311617
20
3.03059152576657
30
0
41
1
10
40.7036129768966
20
3.03169125017155
30
0
41
1
10
40.2333583995003
20
3.03154139729776
30
0
41
1
10
39.844182660183
20
3.03047200985975
30
0
41
1
10
39.4418898982107
20
3.03068256710415
30
0
41
1
10
39.0129734361647
20
3.03094514103188
30
0
41
1
10
38.5502388522587
20
3.02999371002338
30
0
41
1
10
38.0548659807232
20
3.02979346013015
30
0
41
1
10
37.4580057246722
20
3.03033843678796
30
0
41
1
10
36.8109380603296
20
3.02893363056236
30
0
41
1
10
36.1288764030408
20
3.02932867654525
30
0
41
1
10
35.6103295434697
20
3.02879680420423
30
0
41
1
10
35.3083276514536
20
3.02854382111852
30
0
41
1
10
35.2166774719785
20
3.02848304359588
30
0
0
LINE
5
84
100
AcDbEntity
8
1
62
256
6
ByLayer
370
18
48
1
60
0
100
AcDbLine
10
0.702025
20
3.583615
30
0
11
0.702025
21
0
31
0
39
0
210
0
220
0
230
1
0
LINE
5
85
100
AcDbEntity
8
1
62
256
6
ByLayer
370
18
48
1
60
0
100
AcDbLine
10
0.702025
20
0
30
0
11
0.702025
21
-3.583615
31
0
39
0
210
0
220
0
230
1
0
LINE
5
86
100
AcDbEntity
8
1
62
256
6
ByLayer
370
18
48
1
60
0
100
AcDbLine
10
1.404551
20
3.16723
30
0
11
1.404551
21
0
31
0
39
0
210
0
220
0
230
1
0
LINE
5
87
100
AcDbEntity
8
1
62
256
6
ByLayer
370
18
48
1
60
0
100
AcDbLine
10
1.404551
20
0
30
0
11
1.404551
21
-3.16723
31
0
39
0
210
0
220
0
230
1
0
LINE
5
88
100
AcDbEntity
8
1
62
256
6
ByLayer
370
18
48
1
60
0
100
AcDbLine
10
3.50171
20
-1.318063
30
0
11
3.50171
21
2.433601
31
0
39
0
210
0
220
0
230
1
0
LINE
5
89
100
AcDbEntity
8
1
62
256
6
ByLayer
370
18
48
1
60
0
100
AcDbLine
10
54.955376
20
0.038523
30
0
11
54.153856
21
0.923262
31
0
39
0
210
0
220
0
230
1
0
LINE
5
8A
100
AcDbEntity
8
1
62
256
6
ByLayer
370
18
48
1
60
0
100
AcDbLine
10
23
20
-0.833538
30
0
11
23
21
-0.874124
31
0
39
0
210
0
220
0
230
1
0
LINE
5
8B
100
AcDbEntity
8
1
62
256
6
ByLayer
370
18
48
1
60
0
100
AcDbLine
10
0
20
4
30
0
11
0
21
0
31
0
39
0
210
0
220
0
230
1
0
LINE
5
8C
100
AcDbEntity
8
1
62
256
6
ByLayer
370
18
48
1
60
0
100
AcDbLine
10
0
20
0
30
0
11
0
21
-4
31
0
39
0
210
0
220
0
230
1
0
LINE
5
8D
100
AcDbEntity
8
SK1
62
256
6
ByLayer
370
18
48
1
60
0
100
AcDbLine
10
-36
20
2.76
30
0
11
-36
21
0.404448
31
0
39
0
210
0
220
0
230
1
0
LINE
5
8F
100
AcDbEntity
8
SK1
62
256
6
ByLayer
370
18
48
1
60
0
100
AcDbLine
10
-35.4
20
-1.603222
30
0
11
-35.4
21
-0.362337
31
0
39
0
210
0
220
0
230
1
0
LINE
5
90
100
AcDbEntity
8
SK1
62
256
6
ByLayer
370
18
48
1
60
0
100
AcDbLine
10
-36
20
-1.886416
30
0
11
-36
21
-0.404448
31
0
39
0
210
0
220
0
230
1
0
LINE
5
91
100
AcDbEntity
8
SK1
62
256
6
ByLayer
370
18
48
1
60
0
100
AcDbLine
10
0
20
4
30
0
11
0
21
-4
31
0
39
0
210
0
220
0
230
1
0
LINE
5
92
100
AcDbEntity
8
SK1
62
256
6
ByLayer
370
18
48
1
60
0
100
AcDbLine
10
-35.5
20
-1.661714
30
0
11
-35.5
21
-0.229951
31
0
39
0
210
0
220
0
230
1
0
LINE
5
93
100
AcDbEntity
8
SK1
62
256
6
ByLayer
370
18
48
1
60
0
100
AcDbLine
10
-36
20
-2.76
30
0
11
-36
21
-1.886416
31
0
39
0
210
0
220
0
230
1
0
LINE
5
94
100
AcDbEntity
8
SK1
62
256
6
ByLayer
370
18
48
1
60
0
100
AcDbLine
10
-34.76
20
-4
30
0
11
-34.76
21
4
31
0
39
0
210
0
220
0
230
1
0
LINE
5
95
100
AcDbEntity
8
SK1
62
256
6
ByLayer
370
18
48
1
60
0
100
AcDbLine
10
-35.600962
20
-1.630758
30
0
11
-35.600962
21
-0.198969
31
0
39
0
210
0
220
0
230
1
0
LINE
5
96
100
AcDbEntity
8
SK1
62
256
6
ByLayer
370
18
48
1
60
0
100
AcDbLine
10
-36
20
-2.76
30
0
11
-34.76
21
-4
31
0
39
0
210
0
220
0
230
1
0
LINE
5
97
100
AcDbEntity
8
SK1
62
256
6
ByLayer
370
18
48
1
60
0
100
AcDbLine
10
-34.76
20
4
30
0
11
-36
21
2.76
31
0
39
0
210
0
220
0
230
1
0
LINE
5
98
100
AcDbEntity
8
SK1
62
256
6
ByLayer
370
18
48
1
60
0
100
AcDbLine
10
-34.76
20
-4
30
0
11
0
21
-4
31
0
39
0
210
0
220
0
230
1
0
LINE
5
99
100
AcDbEntity
8
SK1
62
256
6
ByLayer
370
18
48
1
60
0
100
AcDbLine
10
0
20
4
30
0
11
-34.76
21
4
31
0
39
0
210
0
220
0
230
1
0
LINE
5
9A
100
AcDbEntity
8
1
62
256
6
ByLayer
370
18
48
1
60
0
100
AcDbLine
10
1.404551
20
-3.16723
30
0
11
2.135273
21
-3.167686
31
0
39
0
210
0
220
0
230
1
0
LINE
5
9B
100
AcDbEntity
8
1
62
256
6
ByLayer
370
18
48
1
60
0
100
AcDbLine
10
10.202987
20
-3.172729
30
0
11
11.266613
21
-3.173394
31
0
39
0
210
0
220
0
230
1
0
LINE
5
9C
100
AcDbEntity
8
1
62
256
6
ByLayer
370
18
48
1
60
0
100
AcDbLine
10
20.778805
20
-3.179339
30
0
11
21.783863
21
-3.179967
31
0
39
0
210
0
220
0
230
1
0
LINE
5
9D
100
AcDbEntity
8
1
62
256
6
ByLayer
370
18
48
1
60
0
100
AcDbLine
10
32.039987
20
-3.186377
30
0
11
33.016109
21
-3.186987
31
0
39
0
210
0
220
0
230
1
0
LINE
5
9E
100
AcDbEntity
8
1
62
256
6
ByLayer
370
18
48
1
60
0
100
AcDbLine
10
42.53264
20
-3.192935
30
0
11
43.514099
21
-3.193548
31
0
39
0
210
0
220
0
230
1
0
LINE
5
9F
100
AcDbEntity
8
1
62
256
6
ByLayer
370
18
48
1
60
0
100
AcDbLine
10
43.514099
20
3.193548
30
0
11
42.53264
21
3.192935
31
0
39
0
210
0
220
0
230
1
0
LINE
5
A0
100
AcDbEntity
8
1
62
256
6
ByLayer
370
18
48
1
60
0
100
AcDbLine
10
33.016109
20
3.186987
30
0
11
32.039987
21
3.186377
31
0
39
0
210
0
220
0
230
1
0
LINE
5
A1
100
AcDbEntity
8
1
62
256
6
ByLayer
370
18
48
1
60
0
100
AcDbLine
10
21.783863
20
3.179967
30
0
11
20.778805
21
3.179339
31
0
39
0
210
0
220
0
230
1
0
LINE
5
A2
100
AcDbEntity
8
1
62
256
6
ByLayer
370
18
48
1
60
0
100
AcDbLine
10
11.266613
20
3.173394
30
0
11
10.202987
21
3.172729
31
0
39
0
210
0
220
0
230
1
0
LINE
5
A3
100
AcDbEntity
8
1
62
256
6
ByLayer
370
18
48
1
60
0
100
AcDbLine
10
2.135273
20
3.167686
30
0
11
1.404551
21
3.16723
31
0
39
0
210
0
220
0
230
1
0
LINE
5
A4
100
AcDbEntity
8
SK4
62
256
6
ByLayer
370
18
48
0.05
60
0
100
AcDbLine
10
60
20
0
30
0
11
-41
21
0
31
0
39
0
210
0
220
0
230
1
0
LINE
5
A6
100
AcDbEntity
8
4
62
256
6
ByLayer
370
18
48
0.05
60
0
100
AcDbLine
10
-36
20
0
30
0
11
60
21
0
31
0
39
0
210
0
220
0
230
1
0
LINE
5
A8
100
AcDbEntity
8
80
62
256
6
ByLayer
370
18
48
1
60
0
100
AcDbLine
10
0
20
0
30
0
11
-6
21
0
31
0
39
0
210
0
220
0
230
1
0
LINE
5
A9
100
AcDbEntity
8
81
62
256
6
ByLayer
370
18
48
1
60
0
100
AcDbLine
10
55
20
0
30
0
11
61
21
0
31
0
39
0
210
0
220
0
230
1
0
LINE
5
AA
100
AcDbEntity
8
SK2
62
256
6
ByLayer
370
13
48
1
60
0
100
AcDbLine
10
55.542955
20
1.491763
30
0
11
62.926288
21
21.777387
31
0
39
0
210
0
220
0
230
1
0
LINE
5
AC
100
AcDbEntity
8
SK2
62
256
6
ByLayer
370
13
48
1
60
0
100
AcDbLine
10
55.542955
20
-1.491763
30
0
11
62.926288
21
-21.777387
31
0
39
0
210
0
220
0
230
1
0
LINE
5
AD
100
AcDbEntity
8
1
62
256
6
ByLayer
370
13
48
1
60
0
100
AcDbLine
10
61.840378
20
18.793861
30
0
11
64.93697
21
17.977493
31
0
39
0
210
0
220
0
230
1
0
LINE
5
AE
100
AcDbEntity
8
1
62
256
6
ByLayer
370
13
48
1
60
0
100
AcDbLine
10
61.840378
20
18.793861
30
0
11
64.620167
21
17.203852
31
0
39
0
210
0
220
0
230
1
0
LINE
5
AF
100
AcDbEntity
8
1
62
256
6
ByLayer
370
13
48
1
60
0
100
AcDbLine
10
64.93697
20
17.977493
30
0
11
64.620167
21
17.203852
31
0
39
0
210
0
220
0
230
1
0
LINE
5
B0
100
AcDbEntity
8
1
62
256
6
ByLayer
370
13
48
1
60
0
100
AcDbLine
10
61.840378
20
-18.793861
30
0
11
64.620164
21
-17.203853
31
0
39
0
210
0
220
0
230
1
0
LINE
5
B1
100
AcDbEntity
8
1
62
256
6
ByLayer
370
13
48
1
60
0
100
AcDbLine
10
61.840378
20
-18.793861
30
0
11
64.936973
21
-17.977492
31
0
39
0
210
0
220
0
230
1
0
LINE
5
B2
100
AcDbEntity
8
1
62
256
6
ByLayer
370
13
48
1
60
0
100
AcDbLine
10
64.620164
20
-17.203853
30
0
11
64.936973
21
-17.977492
31
0
39
0
210
0
220
0
230
1
0
MTEXT
5
114
100
AcDbEntity
8
SK2
62
256
6
ByLayer
370
18
48
1
60
0
100
AcDbMText
10
68.717388
20
-2.467451
30
0
210
0
220
0
230
1
1
\W0.7237;140.00
40
3.50012
41
0
44
1.084337
50
0
71
7
72
5
7
iso_b_vert
0
MTEXT
5
117
100
AcDbEntity
8
SK6
62
256
6
ByLayer
370
18
48
1
60
0
100
AcDbMText
10
-29.831725
20
-121.388305
30
0
210
0
220
0
230
1
1
\W0.7494;860.1-0640-033A1-GM X1BM
40
3.175
41
0
44
1.084337
50
0
71
7
72
5
7
iso_b_vert
0
DIMENSION
5
11A
100
AcDbEntity
8
SK2
62
256
6
ByLayer
370
18
48
1
60
0
100
AcDbDimension
2
_U0
10
55
20
-27.50012
30
0
11
27.5
21
-27.50012
31
0
70
32
71
2
72
1
41
1
210
0
220
0
230
1
3
Standard
100
AcDbAlignedDimension
13
0
23
-4
33
0
14
55
24
0
34
0
50
0
100
AcDbRotatedDimension
1001
ACAD
1000
DSTYLE
1002
{
1070
   371
1070
    13
1070
   372
1070
    13
1070
     3
1000

1070
   170
1070
     0
1070
   144
1040
1.0
1070
   277
1070
     2
1070
   284
1070
     8
1070
   278
1070
    46
1070
   146
1040
0.999966
1070
   345
1005
16
1070
   347
1005
16
1070
   346
1005
16
1070
   344
1005
11B
1070
   343
1005
11B
1070
   172
1070
     1
1070
    76
1070
     0
1070
    75
1070
     0
1070
   282
1070
     0
1070
   281
1070
     0
1070
    71
1070
     0
1070
    74
1070
     0
1070
   279
1070
     0
1070
   173
1070
     1
1070
   340
1005
115
1070
   271
1070
     1
1070
   272
1070
     2
1070
    77
1070
     1
1070
    73
1070
     1
1070
   171
1070
     3
1070
   274
1070
     4
1070
   177
1070
   150
1070
   176
1070
     9
1070
   178
1070
    43
1070
    78
1070
     8
1070
    48
1040
-0.1
1070
    41
1040
3.175
1070
   147
1040
1.75006
1070
    42
1040
1.5875
1070
    44
1040
3.175
1070
   140
1040
3.50012
1002
}
1001
ACAD_DSTYLE_DIM_LINETYPE
1070
   380
1005
16
1001
ACAD_DSTYLE_DIM_EXT1_LINETYPE
1070
   381
1005
16
1001
ACAD_DSTYLE_DIM_EXT2_LINETYPE
1070
   382
1005
16
0
DIMENSION
5
140
100
AcDbEntity
8
2
62
256
6
ByLayer
370
18
48
1
60
0
100
AcDbDimension
2
_U1
10
61.75006
20
3.2
30
0
11
61.75006
21
18.773233
31
0
70
32
71
1
72
1
41
1
210
0
220
0
230
1
3
Standard
100
AcDbAlignedDimension
13
53.8353
23
-3.2
33
0
14
53.8353
24
3.2
34
0
50
90
100
AcDbRotatedDimension
1001
ACAD
1000
DSTYLE
1002
{
1070
   371
1070
    13
1070
   372
1070
    13
1070
     3
1000

1070
   170
1070
     0
1070
   144
1040
1.0
1070
   277
1070
     2
1070
   284
1070
     8
1070
   278
1070
    46
1070
   146
1040
0.999966
1070
   345
1005
16
1070
   347
1005
16
1070
   346
1005
16
1070
   344
1005
11B
1070
   343
1005
11B
1070
   172
1070
     1
1070
    76
1070
     0
1070
    75
1070
     0
1070
   282
1070
     0
1070
   281
1070
     0
1070
    71
1070
     0
1070
    74
1070
     0
1070
   279
1070
     0
1070
   173
1070
     1
1070
   340
1005
115
1070
   271
1070
     1
1070
   272
1070
     2
1070
    77
1070
     1
1070
    73
1070
     0
1070
   171
1070
     3
1070
   274
1070
     4
1070
   177
1070
   150
1070
   176
1070
     9
1070
   178
1070
    43
1070
    78
1070
     8
1070
    48
1040
-0.1
1070
    41
1040
3.175
1070
   147
1040
1.75006
1070
    42
1040
1.5875
1070
    44
1040
3.175
1070
   140
1040
3.50012
1002
}
1001
ACAD_DSTYLE_DIM_LINETYPE
1070
   380
1005
16
1001
ACAD_DSTYLE_DIM_EXT1_LINETYPE
1070
   381
1005
16
1001
ACAD_DSTYLE_DIM_EXT2_LINETYPE
1070
   382
1005
16
0
DIMENSION
5
15F
100
AcDbEntity
8
SK2
62
256
6
ByLayer
370
18
48
1
60
0
100
AcDbDimension
2
_U2
10
-39.24994
20
-4
30
0
11
-39.24994
21
18.10734
31
0
70
32
71
1
72
1
41
1
210
0
220
0
230
1
3
Standard
100
AcDbAlignedDimension
13
-36
23
4
33
0
14
-36
24
-4
34
0
50
90
100
AcDbRotatedDimension
1001
ACAD
1000
DSTYLE
1002
{
1070
   371
1070
    13
1070
   372
1070
    13
1070
     3
1000

1070
   170
1070
     0
1070
   144
1040
1.0
1070
   277
1070
     2
1070
   284
1070
     8
1070
   278
1070
    46
1070
   146
1040
0.999966
1070
   345
1005
16
1070
   347
1005
16
1070
   346
1005
16
1070
   344
1005
11B
1070
   343
1005
11B
1070
   172
1070
     1
1070
    76
1070
     0
1070
    75
1070
     0
1070
   282
1070
     0
1070
   281
1070
     0
1070
    71
1070
     0
1070
    74
1070
     0
1070
   279
1070
     0
1070
   173
1070
     1
1070
   340
1005
115
1070
   271
1070
     1
1070
   272
1070
     2
1070
    77
1070
     1
1070
    73
1070
     0
1070
   171
1070
     3
1070
   274
1070
     4
1070
   177
1070
   150
1070
   176
1070
     9
1070
   178
1070
    43
1070
    78
1070
     8
1070
    48
1040
-0.1
1070
    41
1040
3.175
1070
   147
1040
1.75006
1070
    42
1040
1.5875
1070
    44
1040
3.175
1070
   140
1040
3.50012
1002
}
1001
ACAD_DSTYLE_DIM_LINETYPE
1070
   380
1005
16
1001
ACAD_DSTYLE_DIM_EXT1_LINETYPE
1070
   381
1005
16
1001
ACAD_DSTYLE_DIM_EXT2_LINETYPE
1070
   382
1005
16
0
DIMENSION
5
17D
100
AcDbEntity
8
SK2
62
256
6
ByLayer
370
18
48
1
60
0
100
AcDbDimension
2
_U3
10
0
20
-27.50012
30
0
11
-18
21
-27.50012
31
0
70
32
71
1
72
1
41
1
210
0
220
0
230
1
3
Standard
100
AcDbAlignedDimension
13
-36
23
-4
33
0
14
0
24
-4
34
0
50
0
100
AcDbRotatedDimension
1001
ACAD
1000
DSTYLE
1002
{
1070
   371
1070
    13
1070
   372
1070
    13
1070
     3
1000

1070
   170
1070
     0
1070
   144
1040
1.0
1070
   277
1070
     2
1070
   284
1070
     8
1070
   278
1070
    46
1070
   146
1040
0.999966
1070
   345
1005
16
1070
   347
1005
16
1070
   346
1005
16
1070
   344
1005
11B
1070
   343
1005
11B
1070
   172
1070
     1
1070
    76
1070
     0
1070
    75
1070
     0
1070
   282
1070
     0
1070
   281
1070
     0
1070
    71
1070
     0
1070
    74
1070
     0
1070
   279
1070
     0
1070
   173
1070
     1
1070
   340
1005
115
1070
   271
1070
     1
1070
   272
1070
     2
1070
    77
1070
     1
1070
    73
1070
     1
1070
   171
1070
     3
1070
   274
1070
     4
1070
   177
1070
   150
1070
   176
1070
     9
1070
   178
1070
    43
1070
    78
1070
     8
1070
    48
1040
-0.1
1070
    41
1040
3.175
1070
   147
1040
1.75006
1070
    42
1040
1.5875
1070
    44
1040
3.175
1070
   140
1040
3.50012
1002
}
1001
ACAD_DSTYLE_DIM_LINETYPE
1070
   380
1005
16
1001
ACAD_DSTYLE_DIM_EXT1_LINETYPE
1070
   381
1005
16
1001
ACAD_DSTYLE_DIM_EXT2_LINETYPE
1070
   382
1005
16
0
DIMENSION
5
199
100
AcDbEntity
8
SK2
62
256
6
ByLayer
370
18
48
1
60
0
100
AcDbDimension
2
_U4
10
55
20
-18.74982
30
0
11
28.5
21
-18.74982
31
0
70
32
71
1
72
1
41
1
210
0
220
0
230
1
3
Standard
100
AcDbAlignedDimension
13
2
23
3.7
33
0
14
55
24
0
34
0
50
0
100
AcDbRotatedDimension
1001
ACAD
1000
DSTYLE
1002
{
1070
   371
1070
    13
1070
   372
1070
    13
1070
     3
1000

1070
   170
1070
     0
1070
   144
1040
1.0
1070
   277
1070
     2
1070
   284
1070
     8
1070
   278
1070
    46
1070
   146
1040
0.999966
1070
   345
1005
16
1070
   347
1005
16
1070
   346
1005
16
1070
   344
1005
11B
1070
   343
1005
11B
1070
   172
1070
     1
1070
    76
1070
     0
1070
    75
1070
     0
1070
   282
1070
     0
1070
   281
1070
     0
1070
    71
1070
     0
1070
    74
1070
     0
1070
   279
1070
     0
1070
   173
1070
     1
1070
   340
1005
115
1070
   271
1070
     1
1070
   272
1070
     2
1070
    77
1070
     1
1070
    73
1070
     1
1070
   171
1070
     3
1070
   274
1070
     4
1070
   177
1070
   150
1070
   176
1070
     9
1070
   178
1070
    43
1070
    78
1070
     8
1070
    48
1040
-0.1
1070
    41
1040
3.175
1070
   147
1040
1.75006
1070
    42
1040
1.5875
1070
    44
1040
3.175
1070
   140
1040
3.50012
1002
}
1001
ACAD_DSTYLE_DIM_LINETYPE
1070
   380
1005
16
1001
ACAD_DSTYLE_DIM_EXT1_LINETYPE
1070
   381
1005
16
1001
ACAD_DSTYLE_DIM_EXT2_LINETYPE
1070
   382
1005
16
0
DIMENSION
5
1B5
100
AcDbEntity
8
SK2
62
256
6
ByLayer
370
18
48
1
60
0
100
AcDbDimension
2
_U5
10
55
20
-10.82
30
0
11
38.45
21
-10.82
31
0
70
32
71
1
72
1
41
1
210
0
220
0
230
1
3
Standard
100
AcDbAlignedDimension
13
21.9
23
-3.2
33
0
14
55
24
0
34
0
50
0
100
AcDbRotatedDimension
1001
ACAD
1000
DSTYLE
1002
{
1070
   371
1070
    13
1070
   372
1070
    13
1070
     3
1000

1070
   170
1070
     0
1070
   144
1040
1.0
1070
   277
1070
     2
1070
   284
1070
     8
1070
   278
1070
    46
1070
   146
1040
1.25
1070
   345
1005
16
1070
   347
1005
16
1070
   346
1005
16
1070
   344
1005
11B
1070
   343
1005
11B
1070
   172
1070
     1
1070
    76
1070
     0
1070
    75
1070
     0
1070
   282
1070
     0
1070
   281
1070
     0
1070
    71
1070
     0
1070
    74
1070
     0
1070
   279
1070
     0
1070
   173
1070
     1
1070
   340
1005
115
1070
   271
1070
     1
1070
   272
1070
     2
1070
    77
1070
     1
1070
    73
1070
     1
1070
   171
1070
     3
1070
   274
1070
     4
1070
   177
1070
   150
1070
   176
1070
     9
1070
   178
1070
    43
1070
    78
1070
     8
1070
    48
1040
-0.1
1070
    41
1040
3.175
1070
   147
1040
0.42
1070
    42
1040
1.5875
1070
    44
1040
0.5
1070
   140
1040
2.8
1002
}
1001
ACAD_DSTYLE_DIM_LINETYPE
1070
   380
1005
16
1001
ACAD_DSTYLE_DIM_EXT1_LINETYPE
1070
   381
1005
16
1001
ACAD_DSTYLE_DIM_EXT2_LINETYPE
1070
   382
1005
16
0
DIMENSION
5
1D1
100
AcDbEntity
8
SK2
62
256
6
ByLayer
370
18
48
1
60
0
100
AcDbDimension
2
_U6
10
55
20
-37.50012
30
0
11
9.5
21
-37.50012
31
0
70
32
71
1
72
1
41
1
210
0
220
0
230
1
3
Standard
100
AcDbAlignedDimension
13
-36
23
0
33
0
14
55
24
0
34
0
50
0
100
AcDbRotatedDimension
1001
ACAD
1000
DSTYLE
1002
{
1070
   371
1070
    13
1070
   372
1070
    13
1070
     3
1000

1070
   170
1070
     0
1070
   144
1040
1.0
1070
   277
1070
     2
1070
   284
1070
     8
1070
   278
1070
    46
1070
   146
1040
0.999966
1070
   345
1005
16
1070
   347
1005
16
1070
   346
1005
16
1070
   344
1005
11B
1070
   343
1005
11B
1070
   172
1070
     1
1070
    76
1070
     0
1070
    75
1070
     0
1070
   282
1070
     0
1070
   281
1070
     0
1070
    71
1070
     0
1070
    74
1070
     0
1070
   279
1070
     0
1070
   173
1070
     1
1070
   340
1005
115
1070
   271
1070
     1
1070
   272
1070
     2
1070
    77
1070
     1
1070
    73
1070
     1
1070
   171
1070
     3
1070
   274
1070
     4
1070
   177
1070
   150
1070
   176
1070
     9
1070
   178
1070
    43
1070
    78
1070
     8
1070
    48
1040
-0.1
1070
    41
1040
3.175
1070
   147
1040
1.75006
1070
    42
1040
1.5875
1070
    44
1040
3.175
1070
   140
1040
3.50012
1002
}
1001
ACAD_DSTYLE_DIM_LINETYPE
1070
   380
1005
16
1001
ACAD_DSTYLE_DIM_EXT1_LINETYPE
1070
   381
1005
16
1001
ACAD_DSTYLE_DIM_EXT2_LINETYPE
1070
   382
1005
16
0
ENDSEC
0
SECTION
2
OBJECTS
0
DICTIONARY
5
25d
330
0
100
AcDbDictionary
280
0
281
1
3
ACAD_GROUP
350
25e
3
ACAD_MLINESTYLE
350
25f
0
DICTIONARY
5
25e
330
0
100
AcDbDictionary
280
0
281
1
0
DICTIONARY
5
25f
330
0
100
AcDbDictionary
280
0
281
1
3
Standard
350
18
0
MLINESTYLE
5
18
330
25f
100
AcDbMlineStyle
2
Standard
70
0
3

62
256
51
90
52
90
71
2
49
-0.5
62
256
6
ByLayer
49
0.5
62
256
6
ByLayer
0
RASTERVARIABLES
5
24b
330

100
AcDbRasterVariables
90
0
70
1
71
1
72
1
0
ENDSEC
0
EOF
