0
SECTION
2
HEADER
9
$ACADVER
1
AC1015
9
$DWGCODEPAGE
3
ANSI_1252
9
$HANDSEED
5
271
9
$ANGBASE
50
0
9
$ANGDIR
70
0
9
$ATTMODE
70
1
9
$AUNITS
70
0
9
$AUPREC
70
0
9
$CECOLOR
62
256
9
$CELTSCALE
40
1
9
$CELTYPE
6
ByLayer
9
$CELWEIGHT
370
18
9
$CLAYER
8
0
9
$CMLJUST
70
0
9
$CMLSCALE
40
1
9
$CMLSTYLE
2
Standard
9
$DIMSTYLE
2
Standard
9
$TEXTSIZE
40
0.2
9
$TEXTSTYLE
7
Standard
9
$LUNITS
70
2
9
$LUPREC
70
4
9
$EXTNAMES
290
1
9
$INSUNITS
70
4
9
$LTSCALE
40
1
9
$LWDISPLAY
290
1
9
$PDMODE
70
0
9
$PDSIZE
40
0
9
$PLINEGEN
70
0
0
ENDSEC
0
SECTION
2
CLASSES
0
CLASS
1
RASTERVARIABLES
2
AcDbRasterVariables
3
ISM
90
0
280
0
281
0
0
ENDSEC
0
SECTION
2
TABLES
0
TABLE
2
VPORT
5
267
100
AcDbSymbolTable
0
VPORT
5
1
100
AcDbSymbolTableRecord
100
AcDbViewportTableRecord
2
*Active
70
0
10
0
20
0
11
1
21
1
12
-1
22
1
13
0
23
0
14
0.5
24
0.5
15
10
25
10
16
0
26
0
36
1
17
0
27
0
37
0
0
ENDTAB
0
TABLE
2
LTYPE
5
268
100
AcDbSymbolTable
0
LTYPE
5
14
100
AcDbSymbolTableRecord
100
AcDbLinetypeTableRecord
70
0
2
ByBlock
3

72
65
73
0
40
0
0
LTYPE
5
15
100
AcDbSymbolTableRecord
100
AcDbLinetypeTableRecord
70
0
2
ByLayer
3

72
65
73
0
40
0
0
LTYPE
5
16
100
AcDbSymbolTableRecord
100
AcDbLinetypeTableRecord
70
0
2
Continuous
3
Solid line
72
65
73
0
40
0
0
LTYPE
5
6E
100
AcDbSymbolTableRecord
100
AcDbLinetypeTableRecord
70
0
2
CENTER
3
____ _ ____ _ ____ _ ____
72
65
73
4
40
47.5
49
22
74
0
49
-8.5
74
0
49
8.5
74
0
49
-8.5
74
0
0
LTYPE
5
6F
100
AcDbSymbolTableRecord
100
AcDbLinetypeTableRecord
70
0
2
DASHED
3
__ __ __ __ __ __ __ __ __
72
65
73
2
40
25.72
49
12.86
74
0
49
-12.86
74
0
0
ENDTAB
0
TABLE
2
LAYER
5
269
100
AcDbSymbolTable
0
LAYER
5
10
100
AcDbSymbolTableRecord
100
AcDbLayerTableRecord
2
0
70
0
62
7
6
Continuous
290
1
370
-3
390
0
0
LAYER
5
71
100
AcDbSymbolTableRecord
100
AcDbLayerTableRecord
2
80
70
0
62
-6
6
Continuous
290
1
370
-3
390
0
0
LAYER
5
73
100
AcDbSymbolTableRecord
100
AcDbLayerTableRecord
2
81
70
0
62
-3
6
Continuous
290
1
370
-3
390
0
0
LAYER
5
75
100
AcDbSymbolTableRecord
100
AcDbLayerTableRecord
2
1
70
0
62
4
6
Continuous
290
1
370
-3
390
0
0
LAYER
5
A9
100
AcDbSymbolTableRecord
100
AcDbLayerTableRecord
2
4
70
0
62
-2
6
CENTER
290
1
370
-3
390
0
0
LAYER
5
12B
100
AcDbSymbolTableRecord
100
AcDbLayerTableRecord
2
Defpoints
70
0
62
7
6
Continuous
290
0
370
-3
390
0
0
LAYER
5
158
100
AcDbSymbolTableRecord
100
AcDbLayerTableRecord
2
2
70
0
62
7
6
Continuous
290
1
370
-3
390
0
0
LAYER
5
253
100
AcDbSymbolTableRecord
100
AcDbLayerTableRecord
2
SK1
70
0
62
4
6
Continuous
290
1
370
-3
390
0
0
LAYER
5
254
100
AcDbSymbolTableRecord
100
AcDbLayerTableRecord
2
SK4
70
0
62
2
6
CENTER
290
1
370
-3
390
0
0
LAYER
5
255
100
AcDbSymbolTableRecord
100
AcDbLayerTableRecord
2
SK2
70
0
62
7
6
Continuous
290
1
370
-3
390
0
0
LAYER
5
256
100
AcDbSymbolTableRecord
100
AcDbLayerTableRecord
2
SK6
70
0
62
5
6
Continuous
290
1
370
-3
390
0
0
ENDTAB
0
TABLE
2
STYLE
5
26a
100
AcDbSymbolTable
0
STYLE
5
11
100
AcDbSymbolTableRecord
100
AcDbTextStyleTableRecord
2
Standard
3
txt
70
0
71
0
40
0
41
1
42
0
50
0
0
STYLE
5
11C
100
AcDbSymbolTableRecord
100
AcDbTextStyleTableRecord
2
iso_b_vert
3
simplex.shx
70
0
71
0
40
0
41
1
42
0
50
0
0
STYLE
5
11D
100
AcDbSymbolTableRecord
100
AcDbTextStyleTableRecord
2
DWGDirectTextStyle
3
simplex
70
0
71
0
40
0
41
1
42
0
50
0
0
ENDTAB
0
TABLE
2
DIMSTYLE
5
26b
100
AcDbSymbolTable
100
AcDbDimStyleTable
0
DIMSTYLE
105
27
100
AcDbSymbolTableRecord
100
AcDbDimStyleTableRecord
2
Standard
70
0
3
<>
41
0.18
42
0.0625
44
0.18
140
0.18
147
0.09
73
0
74
0
77
1
271
2
275
0
278
52
280
0
340
11
0
ENDTAB
0
TABLE
2
VIEW
5
26c
100
AcDbSymbolTable
0
ENDTAB
0
TABLE
2
UCS
5
26d
100
AcDbSymbolTable
0
ENDTAB
0
TABLE
2
APPID
5
26e
100
AcDbSymbolTable
0
APPID
5
12
100
AcDbSymbolTableRecord
100
AcDbRegAppTableRecord
2
ACAD
70
0
0
APPID
5
120
100
AcDbSymbolTableRecord
100
AcDbRegAppTableRecord
2
ACAD_DSTYLE_DIMBREAK
70
0
0
APPID
5
212
100
AcDbSymbolTableRecord
100
AcDbRegAppTableRecord
2
ACAD_DSTYLE_DIM_LINETYPE
70
0
0
APPID
5
213
100
AcDbSymbolTableRecord
100
AcDbRegAppTableRecord
2
ACAD_DSTYLE_DIM_EXT1_LINETYPE
70
0
0
APPID
5
214
100
AcDbSymbolTableRecord
100
AcDbRegAppTableRecord
2
ACAD_DSTYLE_DIM_EXT2_LINETYPE
70
0
0
APPID
5
24F
100
AcDbSymbolTableRecord
100
AcDbRegAppTableRecord
2
ACAD_MLEADERVER
70
0
0
ENDTAB
0
TABLE
2
BLOCK_RECORD
5
26f
100
AcDbSymbolTable
0
BLOCK_RECORD
5
1F
100
AcDbSymbolTableRecord
100
AcDbBlockTableRecord
2
*Model_Space
340
0
70
0
0
BLOCK_RECORD
5
1B
100
AcDbSymbolTableRecord
100
AcDbBlockTableRecord
2
*Paper_Space
340
0
70
0
0
BLOCK_RECORD
5
23
100
AcDbSymbolTableRecord
100
AcDbBlockTableRecord
2
*Paper_Space0
340
0
70
0
0
BLOCK_RECORD
5
122
100
AcDbSymbolTableRecord
100
AcDbBlockTableRecord
2
_Closed
340
0
70
0
0
BLOCK_RECORD
5
12C
100
AcDbSymbolTableRecord
100
AcDbBlockTableRecord
2
*D2
340
0
70
0
0
BLOCK_RECORD
5
138
100
AcDbSymbolTableRecord
100
AcDbBlockTableRecord
2
_U0
340
0
70
0
0
BLOCK_RECORD
5
14A
100
AcDbSymbolTableRecord
100
AcDbBlockTableRecord
2
*D4
340
0
70
0
0
BLOCK_RECORD
5
159
100
AcDbSymbolTableRecord
100
AcDbBlockTableRecord
2
_U1
340
0
70
0
0
BLOCK_RECORD
5
169
100
AcDbSymbolTableRecord
100
AcDbBlockTableRecord
2
*D6
340
0
70
0
0
BLOCK_RECORD
5
177
100
AcDbSymbolTableRecord
100
AcDbBlockTableRecord
2
_U2
340
0
70
0
0
BLOCK_RECORD
5
187
100
AcDbSymbolTableRecord
100
AcDbBlockTableRecord
2
*D8
340
0
70
0
0
BLOCK_RECORD
5
193
100
AcDbSymbolTableRecord
100
AcDbBlockTableRecord
2
_U3
340
0
70
0
0
BLOCK_RECORD
5
1A3
100
AcDbSymbolTableRecord
100
AcDbBlockTableRecord
2
*D10
340
0
70
0
0
BLOCK_RECORD
5
1AF
100
AcDbSymbolTableRecord
100
AcDbBlockTableRecord
2
_U4
340
0
70
0
0
BLOCK_RECORD
5
1BF
100
AcDbSymbolTableRecord
100
AcDbBlockTableRecord
2
*D12
340
0
70
0
0
BLOCK_RECORD
5
1CB
100
AcDbSymbolTableRecord
100
AcDbBlockTableRecord
2
_U5
340
0
70
0
0
BLOCK_RECORD
5
1DB
100
AcDbSymbolTableRecord
100
AcDbBlockTableRecord
2
*D14
340
0
70
0
0
BLOCK_RECORD
5
1E7
100
AcDbSymbolTableRecord
100
AcDbBlockTableRecord
2
_U6
340
0
70
0
0
ENDTAB
0
ENDSEC
0
SECTION
2
BLOCKS
0
BLOCK
5
20
100
AcDbEntity
8
0
100
AcDbBlockBegin
2
*Model_Space
70
0
10
0
20
0
30
0
3
*Model_Space
0
ENDBLK
5
21
100
AcDbEntity
8
0
100
AcDbBlockEnd
0
BLOCK
5
1C
100
AcDbEntity
8
0
100
AcDbBlockBegin
2
*Paper_Space
70
0
10
0
20
0
30
0
3
*Paper_Space
0
ENDBLK
5
1D
100
AcDbEntity
8
0
100
AcDbBlockEnd
0
BLOCK
5
24
100
AcDbEntity
8
0
100
AcDbBlockBegin
2
*Paper_Space0
70
0
10
0
20
0
30
0
3
*Paper_Space0
0
ENDBLK
5
25
100
AcDbEntity
8
0
100
AcDbBlockEnd
0
BLOCK
5
123
100
AcDbEntity
8
0
100
AcDbBlockBegin
2
_Closed
70
0
10
0
20
0
30
0
3
_Closed
0
LINE
5
125
100
AcDbEntity
8
0
62
256
6
ByLayer
370
-2
48
1
60
0
100
AcDbLine
10
-1
20
0.166667
30
0
11
0
21
0
31
0
39
0
210
0
220
0
230
1
0
LINE
5
126
100
AcDbEntity
8
0
62
256
6
ByLayer
370
-2
48
1
60
0
100
AcDbLine
10
0
20
0
30
0
11
-1
21
-0.166667
31
0
39
0
210
0
220
0
230
1
0
LINE
5
127
100
AcDbEntity
8
0
62
256
6
ByLayer
370
-2
48
1
60
0
100
AcDbLine
10
-1
20
0.166667
30
0
11
-1
21
-0.166667
31
0
39
0
210
0
220
0
230
1
0
LINE
5
128
100
AcDbEntity
8
0
62
256
6
ByLayer
370
-2
48
1
60
0
100
AcDbLine
10
0
20
0
30
0
11
-1
21
0
31
0
39
0
210
0
220
0
230
1
0
ENDBLK
5
124
100
AcDbEntity
8
0
100
AcDbBlockEnd
0
BLOCK
5
12D
100
AcDbEntity
8
0
100
AcDbBlockBegin
2
*D2
70
1
10
0
20
0
30
0
3
*D2
0
LINE
5
12F
100
AcDbEntity
8
0
62
256
6
ByLayer
370
-2
48
1
60
0
100
AcDbLine
10
0
20
-4.5875
30
0
11
0
21
-29.67512
31
0
39
0
210
0
220
0
230
1
0
LINE
5
130
100
AcDbEntity
8
0
62
256
6
ByLayer
370
-2
48
1
60
0
100
AcDbLine
10
38
20
-1.5875
30
0
11
38
21
-29.67512
31
0
39
0
210
0
220
0
230
1
0
LINE
5
131
100
AcDbEntity
8
0
62
256
6
ByLayer
370
-2
48
1
60
0
100
AcDbLine
10
3.175
20
-26.50012
30
0
11
34.825
21
-26.50012
31
0
39
0
210
0
220
0
230
1
0
SOLID
5
132
100
AcDbEntity
8
0
62
256
6
ByLayer
370
-1
48
1
60
0
100
AcDbTrace
10
3.175
20
-25.970953
30
0
11
3.175
21
-27.029287
31
0
12
0
22
-26.50012
32
0
13
0
23
-26.50012
33
0
39
0
210
0
220
0
230
1
0
SOLID
5
133
100
AcDbEntity
8
0
62
256
6
ByLayer
370
-1
48
1
60
0
100
AcDbTrace
10
34.825
20
-27.029287
30
0
11
34.825
21
-25.970953
31
0
12
38
22
-26.50012
32
0
13
38
23
-26.50012
33
0
39
0
210
0
220
0
230
1
0
MTEXT
5
134
100
AcDbEntity
8
0
62
256
6
ByLayer
370
18
48
1
60
0
100
AcDbMText
10
19
20
-19.193619
30
0
210
0
220
0
230
1
1
\A1;38
40
3.50012
41
0
44
1
50
0
71
5
72
5
7
iso_b_vert
0
POINT
5
135
100
AcDbEntity
8
Defpoints
62
0
6
ByLayer
370
-1
48
1
60
0
100
AcDbPoint
10
0
20
-3
30
0
39
0
210
0
220
0
230
1
50
360
0
POINT
5
136
100
AcDbEntity
8
Defpoints
62
0
6
ByLayer
370
-1
48
1
60
0
100
AcDbPoint
10
38
20
0
30
0
39
0
210
0
220
0
230
1
50
360
0
POINT
5
137
100
AcDbEntity
8
Defpoints
62
0
6
ByLayer
370
-1
48
1
60
0
100
AcDbPoint
10
38
20
-26.50012
30
0
39
0
210
0
220
0
230
1
50
360
0
ENDBLK
5
12E
100
AcDbEntity
8
0
100
AcDbBlockEnd
0
BLOCK
5
145
100
AcDbEntity
8
0
100
AcDbBlockBegin
2
_U0
70
0
10
0
20
0
30
0
3
_U0
0
MTEXT
5
139
100
AcDbEntity
8
SK2
62
256
6
ByLayer
370
18
48
1
60
0
100
AcDbMText
10
13.770389
20
-25.467451
30
0
210
0
220
0
230
1
1
\W0.7468;38.00
40
3.50012
41
0
44
1.084337
50
0
71
7
72
5
7
iso_b_vert
0
MTEXT
5
13A
100
AcDbEntity
8
SK2
62
256
6
ByLayer
370
18
48
1
60
0
100
AcDbMText
10
10.244329
20
-25.400814
30
0
210
0
220
0
230
1
1
\W0.1790;(
40
3.175
41
0
44
1.084337
50
0
71
7
72
5
7
iso_b_vert
0
MTEXT
5
13B
100
AcDbEntity
8
SK2
62
256
6
ByLayer
370
18
48
1
60
0
100
AcDbMText
10
27.758393
20
-25.400814
30
0
210
0
220
0
230
1
1
\W0.1969;)
40
3.175
41
0
44
1.084337
50
0
71
7
72
5
7
iso_b_vert
0
LINE
5
13C
100
AcDbEntity
8
SK2
62
256
6
ByLayer
370
13
48
1
60
0
100
AcDbLine
10
0
20
-4.5875
30
0
11
0
21
-29.67512
31
0
39
0
210
0
220
0
230
1
0
LINE
5
13D
100
AcDbEntity
8
SK2
62
256
6
ByLayer
370
13
48
1
60
0
100
AcDbLine
10
38
20
-1.5875
30
0
11
38
21
-29.67512
31
0
39
0
210
0
220
0
230
1
0
LINE
5
13E
100
AcDbEntity
8
SK2
62
256
6
ByLayer
370
13
48
1
60
0
100
AcDbLine
10
0
20
-26.50012
30
0
11
38
21
-26.50012
31
0
39
0
210
0
220
0
230
1
0
LINE
5
13F
100
AcDbEntity
8
SK2
62
256
6
ByLayer
370
13
48
1
60
0
100
AcDbLine
10
0
20
-26.50012
30
0
11
3.174998
21
-26.082123
31
0
39
0
210
0
220
0
230
1
0
LINE
5
140
100
AcDbEntity
8
SK2
62
256
6
ByLayer
370
13
48
1
60
0
100
AcDbLine
10
0
20
-26.50012
30
0
11
3.175002
21
-26.918117
31
0
39
0
210
0
220
0
230
1
0
LINE
5
141
100
AcDbEntity
8
SK2
62
256
6
ByLayer
370
13
48
1
60
0
100
AcDbLine
10
3.174998
20
-26.082123
30
0
11
3.175002
21
-26.918117
31
0
39
0
210
0
220
0
230
1
0
LINE
5
142
100
AcDbEntity
8
SK2
62
256
6
ByLayer
370
13
48
1
60
0
100
AcDbLine
10
38
20
-26.50012
30
0
11
34.825002
21
-26.918117
31
0
39
0
210
0
220
0
230
1
0
LINE
5
143
100
AcDbEntity
8
SK2
62
256
6
ByLayer
370
13
48
1
60
0
100
AcDbLine
10
38
20
-26.50012
30
0
11
34.824998
21
-26.082123
31
0
39
0
210
0
220
0
230
1
0
LINE
5
144
100
AcDbEntity
8
SK2
62
256
6
ByLayer
370
13
48
1
60
0
100
AcDbLine
10
34.825002
20
-26.918117
30
0
11
34.824998
21
-26.082123
31
0
39
0
210
0
220
0
230
1
0
ENDBLK
5
146
100
AcDbEntity
8
0
100
AcDbBlockEnd
0
BLOCK
5
14B
100
AcDbEntity
8
0
100
AcDbBlockBegin
2
*D4
70
1
10
0
20
0
30
0
3
*D4
0
LINE
5
14D
100
AcDbEntity
8
0
62
256
6
ByLayer
370
-2
48
1
60
0
100
AcDbLine
10
38.7322
20
-2.35
30
0
11
47.92506
21
-2.35
31
0
39
0
210
0
220
0
230
1
0
LINE
5
14E
100
AcDbEntity
8
0
62
256
6
ByLayer
370
-2
48
1
60
0
100
AcDbLine
10
38.7322
20
2.35
30
0
11
47.92506
21
2.35
31
0
39
0
210
0
220
0
230
1
0
LINE
5
14F
100
AcDbEntity
8
0
62
256
6
ByLayer
370
-2
48
1
60
0
100
AcDbLine
10
44.75006
20
2.35
30
0
11
44.75006
21
27.146466
31
0
39
0
210
0
220
0
230
1
0
LINE
5
150
100
AcDbEntity
8
0
62
256
6
ByLayer
370
-2
48
1
60
0
100
AcDbLine
10
44.75006
20
-5.525
30
0
11
44.75006
21
-8.7
31
0
39
0
210
0
220
0
230
1
0
LINE
5
151
100
AcDbEntity
8
0
62
256
6
ByLayer
370
-2
48
1
60
0
100
AcDbLine
10
44.75006
20
5.525
30
0
11
44.75006
21
8.7
31
0
39
0
210
0
220
0
230
1
0
SOLID
5
152
100
AcDbEntity
8
0
62
256
6
ByLayer
370
-1
48
1
60
0
100
AcDbTrace
10
45.279227
20
-5.525
30
0
11
44.220893
21
-5.525
31
0
12
44.75006
22
-2.35
32
0
13
44.75006
23
-2.35
33
0
39
0
210
0
220
0
230
1
0
SOLID
5
153
100
AcDbEntity
8
0
62
256
6
ByLayer
370
-1
48
1
60
0
100
AcDbTrace
10
44.220893
20
5.525
30
0
11
45.279227
21
5.525
31
0
12
44.75006
22
2.35
32
0
13
44.75006
23
2.35
33
0
39
0
210
0
220
0
230
1
0
MTEXT
5
154
100
AcDbEntity
8
0
62
256
6
ByLayer
370
18
48
1
60
0
100
AcDbMText
10
37.443559
20
17.923233
30
0
210
0
220
0
230
1
1
\A1;4.7
40
3.50012
41
0
44
1
50
90
71
5
72
5
7
iso_b_vert
0
POINT
5
155
100
AcDbEntity
8
Defpoints
62
0
6
ByLayer
370
-1
48
1
60
0
100
AcDbPoint
10
37.1447
20
-2.35
30
0
39
0
210
0
220
0
230
1
50
360
0
POINT
5
156
100
AcDbEntity
8
Defpoints
62
0
6
ByLayer
370
-1
48
1
60
0
100
AcDbPoint
10
37.1447
20
2.35
30
0
39
0
210
0
220
0
230
1
50
360
0
POINT
5
157
100
AcDbEntity
8
Defpoints
62
0
6
ByLayer
370
-1
48
1
60
0
100
AcDbPoint
10
44.75006
20
2.35
30
0
39
0
210
0
220
0
230
1
50
360
0
ENDBLK
5
14C
100
AcDbEntity
8
0
100
AcDbBlockEnd
0
BLOCK
5
164
100
AcDbEntity
8
0
100
AcDbBlockBegin
2
_U1
70
0
10
0
20
0
30
0
3
_U1
0
MTEXT
5
15A
100
AcDbEntity
8
2
62
256
6
ByLayer
370
18
48
1
60
0
100
AcDbMText
10
44.060403
20
6.507505
30
0
210
0
220
0
230
1
1
\W0.7640;4.70
40
3.50012
41
0
44
1.084337
50
90
71
7
72
5
7
iso_b_vert
0
LINE
5
15B
100
AcDbEntity
8
2
62
256
6
ByLayer
370
13
48
1
60
0
100
AcDbLine
10
38.7322
20
-2.35
30
0
11
47.92506
21
-2.35
31
0
39
0
210
0
220
0
230
1
0
LINE
5
15C
100
AcDbEntity
8
2
62
256
6
ByLayer
370
13
48
1
60
0
100
AcDbLine
10
38.7322
20
2.35
30
0
11
47.92506
21
2.35
31
0
39
0
210
0
220
0
230
1
0
LINE
5
15D
100
AcDbEntity
8
2
62
256
6
ByLayer
370
13
48
1
60
0
100
AcDbLine
10
44.75006
20
14.933226
30
0
11
44.75006
21
-11.1003
31
0
39
0
210
0
220
0
230
1
0
LINE
5
15E
100
AcDbEntity
8
2
62
256
6
ByLayer
370
13
48
1
60
0
100
AcDbLine
10
44.75006
20
-2.35
30
0
11
45.168057
21
-5.524998
31
0
39
0
210
0
220
0
230
1
0
LINE
5
15F
100
AcDbEntity
8
2
62
256
6
ByLayer
370
13
48
1
60
0
100
AcDbLine
10
44.75006
20
-2.35
30
0
11
44.332063
21
-5.525002
31
0
39
0
210
0
220
0
230
1
0
LINE
5
160
100
AcDbEntity
8
2
62
256
6
ByLayer
370
13
48
1
60
0
100
AcDbLine
10
45.168057
20
-5.524998
30
0
11
44.332063
21
-5.525002
31
0
39
0
210
0
220
0
230
1
0
LINE
5
161
100
AcDbEntity
8
2
62
256
6
ByLayer
370
13
48
1
60
0
100
AcDbLine
10
44.75006
20
2.35
30
0
11
44.332063
21
5.524998
31
0
39
0
210
0
220
0
230
1
0
LINE
5
162
100
AcDbEntity
8
2
62
256
6
ByLayer
370
13
48
1
60
0
100
AcDbLine
10
44.75006
20
2.35
30
0
11
45.168057
21
5.525002
31
0
39
0
210
0
220
0
230
1
0
LINE
5
163
100
AcDbEntity
8
2
62
256
6
ByLayer
370
13
48
1
60
0
100
AcDbLine
10
44.332063
20
5.524998
30
0
11
45.168057
21
5.525002
31
0
39
0
210
0
220
0
230
1
0
ENDBLK
5
165
100
AcDbEntity
8
0
100
AcDbBlockEnd
0
BLOCK
5
16A
100
AcDbEntity
8
0
100
AcDbBlockBegin
2
*D6
70
1
10
0
20
0
30
0
3
*D6
0
LINE
5
16C
100
AcDbEntity
8
0
62
256
6
ByLayer
370
-2
48
1
60
0
100
AcDbLine
10
-37.5875
20
3
30
0
11
-42.42494
21
3
31
0
39
0
210
0
220
0
230
1
0
LINE
5
16D
100
AcDbEntity
8
0
62
256
6
ByLayer
370
-2
48
1
60
0
100
AcDbLine
10
-37.5875
20
-3
30
0
11
-42.42494
21
-3
31
0
39
0
210
0
220
0
230
1
0
LINE
5
16E
100
AcDbEntity
8
0
62
256
6
ByLayer
370
-2
48
1
60
0
100
AcDbLine
10
-39.24994
20
3
30
0
11
-39.24994
21
23.747151
31
0
39
0
210
0
220
0
230
1
0
LINE
5
16F
100
AcDbEntity
8
0
62
256
6
ByLayer
370
-2
48
1
60
0
100
AcDbLine
10
-39.24994
20
6.175
30
0
11
-39.24994
21
9.35
31
0
39
0
210
0
220
0
230
1
0
LINE
5
170
100
AcDbEntity
8
0
62
256
6
ByLayer
370
-2
48
1
60
0
100
AcDbLine
10
-39.24994
20
-6.175
30
0
11
-39.24994
21
-9.35
31
0
39
0
210
0
220
0
230
1
0
SOLID
5
171
100
AcDbEntity
8
0
62
256
6
ByLayer
370
-1
48
1
60
0
100
AcDbTrace
10
-39.779107
20
6.175
30
0
11
-38.720773
21
6.175
31
0
12
-39.24994
22
3
32
0
13
-39.24994
23
3
33
0
39
0
210
0
220
0
230
1
0
SOLID
5
172
100
AcDbEntity
8
0
62
256
6
ByLayer
370
-1
48
1
60
0
100
AcDbTrace
10
-38.720773
20
-6.175
30
0
11
-39.779107
21
-6.175
31
0
12
-39.24994
22
-3
32
0
13
-39.24994
23
-3
33
0
39
0
210
0
220
0
230
1
0
MTEXT
5
173
100
AcDbEntity
8
0
62
256
6
ByLayer
370
18
48
1
60
0
100
AcDbMText
10
-46.556441
20
17.10734
30
0
210
0
220
0
230
1
1
\A1;6
40
3.50012
41
0
44
1
50
90
71
5
72
5
7
iso_b_vert
0
POINT
5
174
100
AcDbEntity
8
Defpoints
62
0
6
ByLayer
370
-1
48
1
60
0
100
AcDbPoint
10
-36
20
3
30
0
39
0
210
0
220
0
230
1
50
360
0
POINT
5
175
100
AcDbEntity
8
Defpoints
62
0
6
ByLayer
370
-1
48
1
60
0
100
AcDbPoint
10
-36
20
-3
30
0
39
0
210
0
220
0
230
1
50
360
0
POINT
5
176
100
AcDbEntity
8
Defpoints
62
0
6
ByLayer
370
-1
48
1
60
0
100
AcDbPoint
10
-39.24994
20
-3
30
0
39
0
210
0
220
0
230
1
50
360
0
ENDBLK
5
16B
100
AcDbEntity
8
0
100
AcDbBlockEnd
0
BLOCK
5
182
100
AcDbEntity
8
0
100
AcDbBlockBegin
2
_U2
70
0
10
0
20
0
30
0
3
_U2
0
MTEXT
5
178
100
AcDbEntity
8
SK2
62
256
6
ByLayer
370
18
48
1
60
0
100
AcDbMText
10
-39.939597
20
13.157505
30
0
210
0
220
0
230
1
1
\W0.7346;6.00
40
3.50012
41
0
44
1.084337
50
90
71
7
72
5
7
iso_b_vert
0
LINE
5
179
100
AcDbEntity
8
SK2
62
256
6
ByLayer
370
13
48
1
60
0
100
AcDbLine
10
-37.5875
20
3
30
0
11
-42.42494
21
3
31
0
39
0
210
0
220
0
230
1
0
LINE
5
17A
100
AcDbEntity
8
SK2
62
256
6
ByLayer
370
13
48
1
60
0
100
AcDbLine
10
-37.5875
20
-3
30
0
11
-42.42494
21
-3
31
0
39
0
210
0
220
0
230
1
0
LINE
5
17B
100
AcDbEntity
8
SK2
62
256
6
ByLayer
370
13
48
1
60
0
100
AcDbLine
10
-39.24994
20
-11.7503
30
0
11
-39.24994
21
21.21468
31
0
39
0
210
0
220
0
230
1
0
LINE
5
17C
100
AcDbEntity
8
SK2
62
256
6
ByLayer
370
13
48
1
60
0
100
AcDbLine
10
-39.24994
20
3
30
0
11
-39.667937
21
6.174998
31
0
39
0
210
0
220
0
230
1
0
LINE
5
17D
100
AcDbEntity
8
SK2
62
256
6
ByLayer
370
13
48
1
60
0
100
AcDbLine
10
-39.24994
20
3
30
0
11
-38.831943
21
6.175002
31
0
39
0
210
0
220
0
230
1
0
LINE
5
17E
100
AcDbEntity
8
SK2
62
256
6
ByLayer
370
13
48
1
60
0
100
AcDbLine
10
-39.667937
20
6.174998
30
0
11
-38.831943
21
6.175002
31
0
39
0
210
0
220
0
230
1
0
LINE
5
17F
100
AcDbEntity
8
SK2
62
256
6
ByLayer
370
13
48
1
60
0
100
AcDbLine
10
-39.24994
20
-3
30
0
11
-38.831943
21
-6.174998
31
0
39
0
210
0
220
0
230
1
0
LINE
5
180
100
AcDbEntity
8
SK2
62
256
6
ByLayer
370
13
48
1
60
0
100
AcDbLine
10
-39.24994
20
-3
30
0
11
-39.667937
21
-6.175002
31
0
39
0
210
0
220
0
230
1
0
LINE
5
181
100
AcDbEntity
8
SK2
62
256
6
ByLayer
370
13
48
1
60
0
100
AcDbLine
10
-38.831943
20
-6.174998
30
0
11
-39.667937
21
-6.175002
31
0
39
0
210
0
220
0
230
1
0
ENDBLK
5
183
100
AcDbEntity
8
0
100
AcDbBlockEnd
0
BLOCK
5
188
100
AcDbEntity
8
0
100
AcDbBlockBegin
2
*D8
70
1
10
0
20
0
30
0
3
*D8
0
LINE
5
18A
100
AcDbEntity
8
0
62
256
6
ByLayer
370
-2
48
1
60
0
100
AcDbLine
10
-36
20
-4.5875
30
0
11
-36
21
-29.67512
31
0
39
0
210
0
220
0
230
1
0
LINE
5
18B
100
AcDbEntity
8
0
62
256
6
ByLayer
370
-2
48
1
60
0
100
AcDbLine
10
0
20
-4.5875
30
0
11
0
21
-29.67512
31
0
39
0
210
0
220
0
230
1
0
LINE
5
18C
100
AcDbEntity
8
0
62
256
6
ByLayer
370
-2
48
1
60
0
100
AcDbLine
10
-32.825
20
-26.50012
30
0
11
-3.175
21
-26.50012
31
0
39
0
210
0
220
0
230
1
0
SOLID
5
18D
100
AcDbEntity
8
0
62
256
6
ByLayer
370
-1
48
1
60
0
100
AcDbTrace
10
-32.825
20
-25.970953
30
0
11
-32.825
21
-27.029287
31
0
12
-36
22
-26.50012
32
0
13
-36
23
-26.50012
33
0
39
0
210
0
220
0
230
1
0
SOLID
5
18E
100
AcDbEntity
8
0
62
256
6
ByLayer
370
-1
48
1
60
0
100
AcDbTrace
10
-3.175
20
-27.029287
30
0
11
-3.175
21
-25.970953
31
0
12
0
22
-26.50012
32
0
13
0
23
-26.50012
33
0
39
0
210
0
220
0
230
1
0
MTEXT
5
18F
100
AcDbEntity
8
0
62
256
6
ByLayer
370
18
48
1
60
0
100
AcDbMText
10
-18
20
-19.193619
30
0
210
0
220
0
230
1
1
\A1;36
40
3.50012
41
0
44
1
50
0
71
5
72
5
7
iso_b_vert
0
POINT
5
190
100
AcDbEntity
8
Defpoints
62
0
6
ByLayer
370
-1
48
1
60
0
100
AcDbPoint
10
-36
20
-3
30
0
39
0
210
0
220
0
230
1
50
360
0
POINT
5
191
100
AcDbEntity
8
Defpoints
62
0
6
ByLayer
370
-1
48
1
60
0
100
AcDbPoint
10
0
20
-3
30
0
39
0
210
0
220
0
230
1
50
360
0
POINT
5
192
100
AcDbEntity
8
Defpoints
62
0
6
ByLayer
370
-1
48
1
60
0
100
AcDbPoint
10
0
20
-26.50012
30
0
39
0
210
0
220
0
230
1
50
360
0
ENDBLK
5
189
100
AcDbEntity
8
0
100
AcDbBlockEnd
0
BLOCK
5
19E
100
AcDbEntity
8
0
100
AcDbBlockBegin
2
_U3
70
0
10
0
20
0
30
0
3
_U3
0
MTEXT
5
194
100
AcDbEntity
8
SK2
62
256
6
ByLayer
370
18
48
1
60
0
100
AcDbMText
10
-23.229611
20
-25.467451
30
0
210
0
220
0
230
1
1
\W0.7468;36.00
40
3.50012
41
0
44
1.084337
50
0
71
7
72
5
7
iso_b_vert
0
LINE
5
195
100
AcDbEntity
8
SK2
62
256
6
ByLayer
370
13
48
1
60
0
100
AcDbLine
10
-36
20
-4.5875
30
0
11
-36
21
-29.67512
31
0
39
0
210
0
220
0
230
1
0
LINE
5
196
100
AcDbEntity
8
SK2
62
256
6
ByLayer
370
13
48
1
60
0
100
AcDbLine
10
0
20
-4.5875
30
0
11
0
21
-29.67512
31
0
39
0
210
0
220
0
230
1
0
LINE
5
197
100
AcDbEntity
8
SK2
62
256
6
ByLayer
370
13
48
1
60
0
100
AcDbLine
10
-36
20
-26.50012
30
0
11
0
21
-26.50012
31
0
39
0
210
0
220
0
230
1
0
LINE
5
198
100
AcDbEntity
8
SK2
62
256
6
ByLayer
370
13
48
1
60
0
100
AcDbLine
10
-36
20
-26.50012
30
0
11
-32.825002
21
-26.082123
31
0
39
0
210
0
220
0
230
1
0
LINE
5
199
100
AcDbEntity
8
SK2
62
256
6
ByLayer
370
13
48
1
60
0
100
AcDbLine
10
-36
20
-26.50012
30
0
11
-32.824998
21
-26.918117
31
0
39
0
210
0
220
0
230
1
0
LINE
5
19A
100
AcDbEntity
8
SK2
62
256
6
ByLayer
370
13
48
1
60
0
100
AcDbLine
10
-32.825002
20
-26.082123
30
0
11
-32.824998
21
-26.918117
31
0
39
0
210
0
220
0
230
1
0
LINE
5
19B
100
AcDbEntity
8
SK2
62
256
6
ByLayer
370
13
48
1
60
0
100
AcDbLine
10
0
20
-26.50012
30
0
11
-3.174998
21
-26.918117
31
0
39
0
210
0
220
0
230
1
0
LINE
5
19C
100
AcDbEntity
8
SK2
62
256
6
ByLayer
370
13
48
1
60
0
100
AcDbLine
10
0
20
-26.50012
30
0
11
-3.175002
21
-26.082123
31
0
39
0
210
0
220
0
230
1
0
LINE
5
19D
100
AcDbEntity
8
SK2
62
256
6
ByLayer
370
13
48
1
60
0
100
AcDbLine
10
-3.174998
20
-26.918117
30
0
11
-3.175002
21
-26.082123
31
0
39
0
210
0
220
0
230
1
0
ENDBLK
5
19F
100
AcDbEntity
8
0
100
AcDbBlockEnd
0
BLOCK
5
1A4
100
AcDbEntity
8
0
100
AcDbBlockBegin
2
*D10
70
1
10
0
20
0
30
0
3
*D10
0
LINE
5
1A6
100
AcDbEntity
8
0
62
256
6
ByLayer
370
-2
48
1
60
0
100
AcDbLine
10
2
20
1.2625
30
0
11
2
21
-20.92482
31
0
39
0
210
0
220
0
230
1
0
LINE
5
1A7
100
AcDbEntity
8
0
62
256
6
ByLayer
370
-2
48
1
60
0
100
AcDbLine
10
38
20
-1.5875
30
0
11
38
21
-20.92482
31
0
39
0
210
0
220
0
230
1
0
LINE
5
1A8
100
AcDbEntity
8
0
62
256
6
ByLayer
370
-2
48
1
60
0
100
AcDbLine
10
5.175
20
-17.74982
30
0
11
34.825
21
-17.74982
31
0
39
0
210
0
220
0
230
1
0
SOLID
5
1A9
100
AcDbEntity
8
0
62
256
6
ByLayer
370
-1
48
1
60
0
100
AcDbTrace
10
5.175
20
-17.220653
30
0
11
5.175
21
-18.278987
31
0
12
2
22
-17.74982
32
0
13
2
23
-17.74982
33
0
39
0
210
0
220
0
230
1
0
SOLID
5
1AA
100
AcDbEntity
8
0
62
256
6
ByLayer
370
-1
48
1
60
0
100
AcDbTrace
10
34.825
20
-18.278987
30
0
11
34.825
21
-17.220653
31
0
12
38
22
-17.74982
32
0
13
38
23
-17.74982
33
0
39
0
210
0
220
0
230
1
0
MTEXT
5
1AB
100
AcDbEntity
8
0
62
256
6
ByLayer
370
18
48
1
60
0
100
AcDbMText
10
20
20
-10.443319
30
0
210
0
220
0
230
1
1
\A1;36
40
3.50012
41
0
44
1
50
0
71
5
72
5
7
iso_b_vert
0
POINT
5
1AC
100
AcDbEntity
8
Defpoints
62
0
6
ByLayer
370
-1
48
1
60
0
100
AcDbPoint
10
2
20
2.85
30
0
39
0
210
0
220
0
230
1
50
360
0
POINT
5
1AD
100
AcDbEntity
8
Defpoints
62
0
6
ByLayer
370
-1
48
1
60
0
100
AcDbPoint
10
38
20
0
30
0
39
0
210
0
220
0
230
1
50
360
0
POINT
5
1AE
100
AcDbEntity
8
Defpoints
62
0
6
ByLayer
370
-1
48
1
60
0
100
AcDbPoint
10
38
20
-17.74982
30
0
39
0
210
0
220
0
230
1
50
360
0
ENDBLK
5
1A5
100
AcDbEntity
8
0
100
AcDbBlockEnd
0
BLOCK
5
1BA
100
AcDbEntity
8
0
100
AcDbBlockBegin
2
_U4
70
0
10
0
20
0
30
0
3
_U4
0
MTEXT
5
1B0
100
AcDbEntity
8
SK2
62
256
6
ByLayer
370
18
48
1
60
0
100
AcDbMText
10
14.770389
20
-16.717151
30
0
210
0
220
0
230
1
1
\W0.7468;36.00
40
3.50012
41
0
44
1.084337
50
0
71
7
72
5
7
iso_b_vert
0
LINE
5
1B1
100
AcDbEntity
8
SK2
62
256
6
ByLayer
370
13
48
1
60
0
100
AcDbLine
10
2
20
1.2625
30
0
11
2
21
-20.92482
31
0
39
0
210
0
220
0
230
1
0
LINE
5
1B2
100
AcDbEntity
8
SK2
62
256
6
ByLayer
370
13
48
1
60
0
100
AcDbLine
10
38
20
-1.5875
30
0
11
38
21
-20.92482
31
0
39
0
210
0
220
0
230
1
0
LINE
5
1B3
100
AcDbEntity
8
SK2
62
256
6
ByLayer
370
13
48
1
60
0
100
AcDbLine
10
2
20
-17.74982
30
0
11
38
21
-17.74982
31
0
39
0
210
0
220
0
230
1
0
LINE
5
1B4
100
AcDbEntity
8
SK2
62
256
6
ByLayer
370
13
48
1
60
0
100
AcDbLine
10
2
20
-17.74982
30
0
11
5.174998
21
-17.331823
31
0
39
0
210
0
220
0
230
1
0
LINE
5
1B5
100
AcDbEntity
8
SK2
62
256
6
ByLayer
370
13
48
1
60
0
100
AcDbLine
10
2
20
-17.74982
30
0
11
5.175002
21
-18.167817
31
0
39
0
210
0
220
0
230
1
0
LINE
5
1B6
100
AcDbEntity
8
SK2
62
256
6
ByLayer
370
13
48
1
60
0
100
AcDbLine
10
5.174998
20
-17.331823
30
0
11
5.175002
21
-18.167817
31
0
39
0
210
0
220
0
230
1
0
LINE
5
1B7
100
AcDbEntity
8
SK2
62
256
6
ByLayer
370
13
48
1
60
0
100
AcDbLine
10
38
20
-17.74982
30
0
11
34.825002
21
-18.167817
31
0
39
0
210
0
220
0
230
1
0
LINE
5
1B8
100
AcDbEntity
8
SK2
62
256
6
ByLayer
370
13
48
1
60
0
100
AcDbLine
10
38
20
-17.74982
30
0
11
34.824998
21
-17.331823
31
0
39
0
210
0
220
0
230
1
0
LINE
5
1B9
100
AcDbEntity
8
SK2
62
256
6
ByLayer
370
13
48
1
60
0
100
AcDbLine
10
34.825002
20
-18.167817
30
0
11
34.824998
21
-17.331823
31
0
39
0
210
0
220
0
230
1
0
ENDBLK
5
1BB
100
AcDbEntity
8
0
100
AcDbBlockEnd
0
BLOCK
5
1C0
100
AcDbEntity
8
0
100
AcDbBlockBegin
2
*D12
70
1
10
0
20
0
30
0
3
*D12
0
LINE
5
1C2
100
AcDbEntity
8
0
62
256
6
ByLayer
370
-2
48
1
60
0
100
AcDbLine
10
13.7
20
-3.9375
30
0
11
13.7
21
-10.32
31
0
39
0
210
0
220
0
230
1
0
LINE
5
1C3
100
AcDbEntity
8
0
62
256
6
ByLayer
370
-2
48
1
60
0
100
AcDbLine
10
38
20
-1.5875
30
0
11
38
21
-10.32
31
0
39
0
210
0
220
0
230
1
0
LINE
5
1C4
100
AcDbEntity
8
0
62
256
6
ByLayer
370
-2
48
1
60
0
100
AcDbLine
10
16.875
20
-9.82
30
0
11
34.825
21
-9.82
31
0
39
0
210
0
220
0
230
1
0
SOLID
5
1C5
100
AcDbEntity
8
0
62
256
6
ByLayer
370
-1
48
1
60
0
100
AcDbTrace
10
16.875
20
-9.290833
30
0
11
16.875
21
-10.349167
31
0
12
13.7
22
-9.82
32
0
13
13.7
23
-9.82
33
0
39
0
210
0
220
0
230
1
0
SOLID
5
1C6
100
AcDbEntity
8
0
62
256
6
ByLayer
370
-1
48
1
60
0
100
AcDbTrace
10
34.825
20
-10.349167
30
0
11
34.825
21
-9.290833
31
0
12
38
22
-9.82
32
0
13
38
23
-9.82
33
0
39
0
210
0
220
0
230
1
0
MTEXT
5
1C7
100
AcDbEntity
8
0
62
256
6
ByLayer
370
18
48
1
60
0
100
AcDbMText
10
25.85
20
-3.975
30
0
210
0
220
0
230
1
1
\A1;24.3
40
2.8
41
0
44
1
50
0
71
5
72
5
7
iso_b_vert
0
POINT
5
1C8
100
AcDbEntity
8
Defpoints
62
0
6
ByLayer
370
-1
48
1
60
0
100
AcDbPoint
10
13.7
20
-2.35
30
0
39
0
210
0
220
0
230
1
50
360
0
POINT
5
1C9
100
AcDbEntity
8
Defpoints
62
0
6
ByLayer
370
-1
48
1
60
0
100
AcDbPoint
10
38
20
0
30
0
39
0
210
0
220
0
230
1
50
360
0
POINT
5
1CA
100
AcDbEntity
8
Defpoints
62
0
6
ByLayer
370
-1
48
1
60
0
100
AcDbPoint
10
38
20
-9.82
30
0
39
0
210
0
220
0
230
1
50
360
0
ENDBLK
5
1C1
100
AcDbEntity
8
0
100
AcDbBlockEnd
0
BLOCK
5
1D6
100
AcDbEntity
8
0
100
AcDbBlockBegin
2
_U5
70
0
10
0
20
0
30
0
3
_U5
0
MTEXT
5
1CC
100
AcDbEntity
8
SK2
62
256
6
ByLayer
370
18
48
1
60
0
100
AcDbMText
10
21.519041
20
-9.973893
30
0
210
0
220
0
230
1
1
\W0.7694;24.30
40
2.8
41
0
44
1.084337
50
0
71
7
72
5
7
iso_b_vert
0
LINE
5
1CD
100
AcDbEntity
8
SK2
62
256
6
ByLayer
370
13
48
1
60
0
100
AcDbLine
10
13.7
20
-3.9375
30
0
11
13.7
21
-10.32
31
0
39
0
210
0
220
0
230
1
0
LINE
5
1CE
100
AcDbEntity
8
SK2
62
256
6
ByLayer
370
13
48
1
60
0
100
AcDbLine
10
38
20
-1.5875
30
0
11
38
21
-10.32
31
0
39
0
210
0
220
0
230
1
0
LINE
5
1CF
100
AcDbEntity
8
SK2
62
256
6
ByLayer
370
13
48
1
60
0
100
AcDbLine
10
13.7
20
-9.82
30
0
11
38
21
-9.82
31
0
39
0
210
0
220
0
230
1
0
LINE
5
1D0
100
AcDbEntity
8
SK2
62
256
6
ByLayer
370
13
48
1
60
0
100
AcDbLine
10
13.7
20
-9.82
30
0
11
16.874998
21
-9.402003
31
0
39
0
210
0
220
0
230
1
0
LINE
5
1D1
100
AcDbEntity
8
SK2
62
256
6
ByLayer
370
13
48
1
60
0
100
AcDbLine
10
13.7
20
-9.82
30
0
11
16.875002
21
-10.237997
31
0
39
0
210
0
220
0
230
1
0
LINE
5
1D2
100
AcDbEntity
8
SK2
62
256
6
ByLayer
370
13
48
1
60
0
100
AcDbLine
10
16.874998
20
-9.402003
30
0
11
16.875002
21
-10.237997
31
0
39
0
210
0
220
0
230
1
0
LINE
5
1D3
100
AcDbEntity
8
SK2
62
256
6
ByLayer
370
13
48
1
60
0
100
AcDbLine
10
38
20
-9.82
30
0
11
34.825002
21
-10.237997
31
0
39
0
210
0
220
0
230
1
0
LINE
5
1D4
100
AcDbEntity
8
SK2
62
256
6
ByLayer
370
13
48
1
60
0
100
AcDbLine
10
38
20
-9.82
30
0
11
34.824998
21
-9.402003
31
0
39
0
210
0
220
0
230
1
0
LINE
5
1D5
100
AcDbEntity
8
SK2
62
256
6
ByLayer
370
13
48
1
60
0
100
AcDbLine
10
34.825002
20
-10.237997
30
0
11
34.824998
21
-9.402003
31
0
39
0
210
0
220
0
230
1
0
ENDBLK
5
1D7
100
AcDbEntity
8
0
100
AcDbBlockEnd
0
BLOCK
5
1DC
100
AcDbEntity
8
0
100
AcDbBlockBegin
2
*D14
70
1
10
0
20
0
30
0
3
*D14
0
LINE
5
1DE
100
AcDbEntity
8
0
62
256
6
ByLayer
370
-2
48
1
60
0
100
AcDbLine
10
-36
20
-1.5875
30
0
11
-36
21
-39.67512
31
0
39
0
210
0
220
0
230
1
0
LINE
5
1DF
100
AcDbEntity
8
0
62
256
6
ByLayer
370
-2
48
1
60
0
100
AcDbLine
10
38
20
-1.5875
30
0
11
38
21
-39.67512
31
0
39
0
210
0
220
0
230
1
0
LINE
5
1E0
100
AcDbEntity
8
0
62
256
6
ByLayer
370
-2
48
1
60
0
100
AcDbLine
10
-32.825
20
-36.50012
30
0
11
34.825
21
-36.50012
31
0
39
0
210
0
220
0
230
1
0
SOLID
5
1E1
100
AcDbEntity
8
0
62
256
6
ByLayer
370
-1
48
1
60
0
100
AcDbTrace
10
-32.825
20
-35.970953
30
0
11
-32.825
21
-37.029287
31
0
12
-36
22
-36.50012
32
0
13
-36
23
-36.50012
33
0
39
0
210
0
220
0
230
1
0
SOLID
5
1E2
100
AcDbEntity
8
0
62
256
6
ByLayer
370
-1
48
1
60
0
100
AcDbTrace
10
34.825
20
-37.029287
30
0
11
34.825
21
-35.970953
31
0
12
38
22
-36.50012
32
0
13
38
23
-36.50012
33
0
39
0
210
0
220
0
230
1
0
MTEXT
5
1E3
100
AcDbEntity
8
0
62
256
6
ByLayer
370
18
48
1
60
0
100
AcDbMText
10
1
20
-29.19362
30
0
210
0
220
0
230
1
1
\A1;74
40
3.50012
41
0
44
1
50
0
71
5
72
5
7
iso_b_vert
0
POINT
5
1E4
100
AcDbEntity
8
Defpoints
62
0
6
ByLayer
370
-1
48
1
60
0
100
AcDbPoint
10
-36
20
0
30
0
39
0
210
0
220
0
230
1
50
360
0
POINT
5
1E5
100
AcDbEntity
8
Defpoints
62
0
6
ByLayer
370
-1
48
1
60
0
100
AcDbPoint
10
38
20
0
30
0
39
0
210
0
220
0
230
1
50
360
0
POINT
5
1E6
100
AcDbEntity
8
Defpoints
62
0
6
ByLayer
370
-1
48
1
60
0
100
AcDbPoint
10
38
20
-36.50012
30
0
39
0
210
0
220
0
230
1
50
360
0
ENDBLK
5
1DD
100
AcDbEntity
8
0
100
AcDbBlockEnd
0
BLOCK
5
1F2
100
AcDbEntity
8
0
100
AcDbBlockBegin
2
_U6
70
0
10
0
20
0
30
0
3
_U6
0
MTEXT
5
1E8
100
AcDbEntity
8
SK2
62
256
6
ByLayer
370
18
48
1
60
0
100
AcDbMText
10
-4.413884
20
-35.467451
30
0
210
0
220
0
230
1
1
\W0.7694;74.00
40
3.50012
41
0
44
1.084337
50
0
71
7
72
5
7
iso_b_vert
0
LINE
5
1E9
100
AcDbEntity
8
SK2
62
256
6
ByLayer
370
13
48
1
60
0
100
AcDbLine
10
-36
20
-1.5875
30
0
11
-36
21
-39.67512
31
0
39
0
210
0
220
0
230
1
0
LINE
5
1EA
100
AcDbEntity
8
SK2
62
256
6
ByLayer
370
13
48
1
60
0
100
AcDbLine
10
38
20
-1.5875
30
0
11
38
21
-39.67512
31
0
39
0
210
0
220
0
230
1
0
LINE
5
1EB
100
AcDbEntity
8
SK2
62
256
6
ByLayer
370
13
48
1
60
0
100
AcDbLine
10
-36
20
-36.50012
30
0
11
38
21
-36.50012
31
0
39
0
210
0
220
0
230
1
0
LINE
5
1EC
100
AcDbEntity
8
SK2
62
256
6
ByLayer
370
13
48
1
60
0
100
AcDbLine
10
-36
20
-36.50012
30
0
11
-32.825002
21
-36.082123
31
0
39
0
210
0
220
0
230
1
0
LINE
5
1ED
100
AcDbEntity
8
SK2
62
256
6
ByLayer
370
13
48
1
60
0
100
AcDbLine
10
-36
20
-36.50012
30
0
11
-32.824998
21
-36.918117
31
0
39
0
210
0
220
0
230
1
0
LINE
5
1EE
100
AcDbEntity
8
SK2
62
256
6
ByLayer
370
13
48
1
60
0
100
AcDbLine
10
-32.825002
20
-36.082123
30
0
11
-32.824998
21
-36.918117
31
0
39
0
210
0
220
0
230
1
0
LINE
5
1EF
100
AcDbEntity
8
SK2
62
256
6
ByLayer
370
13
48
1
60
0
100
AcDbLine
10
38
20
-36.50012
30
0
11
34.825002
21
-36.918117
31
0
39
0
210
0
220
0
230
1
0
LINE
5
1F0
100
AcDbEntity
8
SK2
62
256
6
ByLayer
370
13
48
1
60
0
100
AcDbLine
10
38
20
-36.50012
30
0
11
34.824998
21
-36.082123
31
0
39
0
210
0
220
0
230
1
0
LINE
5
1F1
100
AcDbEntity
8
SK2
62
256
6
ByLayer
370
13
48
1
60
0
100
AcDbLine
10
34.825002
20
-36.918117
30
0
11
34.824998
21
-36.082123
31
0
39
0
210
0
220
0
230
1
0
ENDBLK
5
1F3
100
AcDbEntity
8
0
100
AcDbBlockEnd
0
ENDSEC
0
SECTION
2
ENTITIES
0
ARC
5
B5
100
AcDbEntity
8
1
62
256
6
ByLayer
370
18
48
1
60
0
100
AcDbCircle
39
0
10
1.303672
20
3.127598
30
0
40
0.799999999999995
210
0
220
0
230
1
100
AcDbArc
50
215.432883
51
270.03581
0
ARC
5
B6
100
AcDbEntity
8
1
62
256
6
ByLayer
370
18
48
1
60
0
100
AcDbCircle
39
0
10
1.303672
20
-3.127598
30
0
40
0.799999999999995
210
0
220
0
230
1
100
AcDbArc
50
89.96419
51
144.567117
0
ARC
5
B7
100
AcDbEntity
8
1
62
256
6
ByLayer
370
18
48
1
60
0
100
AcDbCircle
39
0
10
0
20
2.2
30
0
40
0.800000000000001
210
0
220
0
230
1
100
AcDbArc
50
35.432883
51
90
0
ARC
5
B8
100
AcDbEntity
8
1
62
256
6
ByLayer
370
18
48
1
60
0
100
AcDbCircle
39
0
10
0
20
-2.2
30
0
40
0.800000000000001
210
0
220
0
230
1
100
AcDbArc
50
270
51
324.567117
0
ARC
5
B9
100
AcDbEntity
8
SK2
62
256
6
ByLayer
370
13
48
1
60
0
100
AcDbCircle
39
0
10
38
20
0
30
0
40
20
210
0
220
0
230
1
100
AcDbArc
50
9.606349
51
70.000647
0
ARC
5
BA
100
AcDbEntity
8
SK2
62
256
6
ByLayer
370
13
48
1
60
0
100
AcDbCircle
39
0
10
38
20
0
30
0
40
20
210
0
220
0
230
1
100
AcDbArc
50
289.999353
51
350.393651
0
ELLIPSE
5
BB
100
AcDbEntity
8
1
62
256
6
ByLayer
370
18
48
1
60
0
100
AcDbEllipse
10
3.554372
20
-2.225662
30
0
11
-0.00491196171428078
21
0.00871048977483126
31
0
210
0
220
0
230
1
40
0.508224
41
0.091770732047776
42
1.3752336145193
0
ELLIPSE
5
BC
100
AcDbEntity
8
1
62
256
6
ByLayer
370
18
48
1
60
0
100
AcDbEllipse
10
3.602237
20
-2.214619
30
0
11
-0.000515319427564968
21
-0.00998671346778179
31
0
210
0
220
0
230
1
40
0.525357
41
-3.04772504629641
42
-1.47927072369914
0
POINT
5
70
100
AcDbEntity
8
80
62
256
6
ByLayer
370
18
48
1
60
0
100
AcDbPoint
10
0
20
0
30
0
39
0
210
0
220
0
230
1
50
360
0
POINT
5
72
100
AcDbEntity
8
81
62
256
6
ByLayer
370
18
48
1
60
0
100
AcDbPoint
10
38
20
0
30
0
39
0
210
0
220
0
230
1
50
360
0
POINT
5
74
100
AcDbEntity
8
1
62
256
6
ByLayer
370
18
48
1
60
0
100
AcDbPoint
10
-36
20
0
30
0
39
0
210
0
220
0
230
1
50
360
0
POINT
5
76
100
AcDbEntity
8
1
62
256
6
ByLayer
370
18
48
1
60
1
100
AcDbPoint
10
0
20
-3
30
0
39
0
210
0
220
0
230
1
50
360
0
POINT
5
77
100
AcDbEntity
8
1
62
256
6
ByLayer
370
18
48
1
60
1
100
AcDbPoint
10
38
20
0
30
0
39
0
210
0
220
0
230
1
50
360
0
POINT
5
78
100
AcDbEntity
8
1
62
256
6
ByLayer
370
18
48
1
60
1
100
AcDbPoint
10
37.1447
20
-2.35
30
0
39
0
210
0
220
0
230
1
50
360
0
POINT
5
79
100
AcDbEntity
8
1
62
256
6
ByLayer
370
18
48
1
60
1
100
AcDbPoint
10
37.1447
20
2.35
30
0
39
0
210
0
220
0
230
1
50
360
0
POINT
5
7A
100
AcDbEntity
8
1
62
256
6
ByLayer
370
18
48
1
60
1
100
AcDbPoint
10
-36
20
3
30
0
39
0
210
0
220
0
230
1
50
360
0
POINT
5
7B
100
AcDbEntity
8
1
62
256
6
ByLayer
370
18
48
1
60
1
100
AcDbPoint
10
-36
20
-3
30
0
39
0
210
0
220
0
230
1
50
360
0
POINT
5
7C
100
AcDbEntity
8
1
62
256
6
ByLayer
370
18
48
1
60
1
100
AcDbPoint
10
-36
20
-3
30
0
39
0
210
0
220
0
230
1
50
360
0
POINT
5
7D
100
AcDbEntity
8
1
62
256
6
ByLayer
370
18
48
1
60
1
100
AcDbPoint
10
0
20
-3
30
0
39
0
210
0
220
0
230
1
50
360
0
POINT
5
7E
100
AcDbEntity
8
1
62
256
6
ByLayer
370
18
48
1
60
1
100
AcDbPoint
10
2
20
2.85
30
0
39
0
210
0
220
0
230
1
50
360
0
POINT
5
7F
100
AcDbEntity
8
1
62
256
6
ByLayer
370
18
48
1
60
1
100
AcDbPoint
10
38
20
0
30
0
39
0
210
0
220
0
230
1
50
360
0
POINT
5
80
100
AcDbEntity
8
1
62
256
6
ByLayer
370
18
48
1
60
1
100
AcDbPoint
10
13.7
20
-2.35
30
0
39
0
210
0
220
0
230
1
50
360
0
POINT
5
81
100
AcDbEntity
8
1
62
256
6
ByLayer
370
18
48
1
60
1
100
AcDbPoint
10
38
20
0
30
0
39
0
210
0
220
0
230
1
50
360
0
POINT
5
82
100
AcDbEntity
8
1
62
256
6
ByLayer
370
18
48
1
60
1
100
AcDbPoint
10
-36
20
0
30
0
39
0
210
0
220
0
230
1
50
360
0
POINT
5
83
100
AcDbEntity
8
1
62
256
6
ByLayer
370
18
48
1
60
1
100
AcDbPoint
10
38
20
0
30
0
39
0
210
0
220
0
230
1
50
360
0
SPLINE
5
BD
100
AcDbEntity
8
SK1
62
256
6
ByLayer
370
18
48
1
60
0
100
AcDbSpline
70
4
71
3
72
12
73
8
40
0
40
0
40
0
40
0
40
0.500000000000001
40
0.500000000000001
40
0.750000000000001
40
0.750000000000001
40
1
40
1
40
1
40
1
41
1
10
-35.75
20
1.32781919580737
30
-1E-16
41
1
10
-35.7259913046562
20
1.34832469392038
30
-1E-16
41
1
10
-35.7033433879313
20
1.37476505619918
30
-1E-16
41
1
10
-35.6754686754417
20
1.4187591606136
30
-1E-16
41
1
10
-35.667025596347
20
1.43451809804651
30
-1E-16
41
1
10
-35.6543350076412
20
1.46623105069074
30
-1E-16
41
1
10
-35.65
20
1.48263819994392
30
-1E-16
41
1
10
-35.65
20
1.49641441537071
30
-1E-16
0
SPLINE
5
BE
100
AcDbEntity
8
SK1
62
256
6
ByLayer
370
18
48
1
60
0
100
AcDbSpline
70
4
71
3
72
8
73
4
40
0
40
0
40
0
40
0
40
1
40
1
40
1
40
1
41
1
10
-36.0000000000001
20
2.04338366580473
30
0
41
1
10
-35.9478735570755
20
2.08084371521136
30
0
41
1
10
-35.897619057052
20
2.10911802200153
30
0
41
1
10
-35.8509618943233
20
2.12508570888664
30
0
0
SPLINE
5
BF
100
AcDbEntity
8
SK1
62
256
6
ByLayer
370
18
48
1
60
0
100
AcDbSpline
70
4
71
3
72
12
73
8
40
0
40
0
40
0
40
0
40
0.249999999999999
40
0.249999999999999
40
0.499999999999999
40
0.499999999999999
40
1
40
1
40
1
40
1
41
1
10
-35.65
20
2.26231244724772
30
0
41
1
10
-35.65
20
2.26846350223874
30
0
41
1
10
-35.6543403470551
20
2.27025903269765
30
0
41
1
10
-35.6670034572333
20
2.26825745361384
30
0
41
1
10
-35.6754069618004
20
2.26456610813531
30
0
41
1
10
-35.7033744297257
20
2.24880032718443
30
0
41
1
10
-35.7260009806423
20
2.23204492811288
30
0
41
1
10
-35.7500000000001
20
2.21154769412712
30
0
0
SPLINE
5
C0
100
AcDbEntity
8
SK1
62
256
6
ByLayer
370
18
48
1
60
0
100
AcDbSpline
70
4
71
3
72
8
73
4
40
0
40
0
40
0
40
0
40
1
40
1
40
1
40
1
41
1
10
-35.75
20
2.21154769412698
30
0
41
1
10
-35.7837019745142
20
2.18276329893556
30
0
41
1
10
-35.817358258121
20
2.15394438883465
30
0
41
1
10
-35.8509618943233
20
2.12508570888664
30
0
0
SPLINE
5
C1
100
AcDbEntity
8
SK1
62
256
6
ByLayer
370
18
48
1
60
0
100
AcDbSpline
70
4
71
3
72
8
73
4
40
0
40
0
40
0
40
0
40
1
40
1
40
1
40
1
41
1
10
-35.8509618943234
20
1.241357210567
30
-1E-16
41
1
10
-35.8173575862837
20
1.27021646748642
30
-1E-16
41
1
10
-35.7837013317807
20
1.29903534956583
30
-1E-16
41
1
10
-35.7499999999999
20
1.32781919580739
30
-1E-16
0
SPLINE
5
C2
100
AcDbEntity
8
SK1
62
256
6
ByLayer
370
18
48
1
60
0
100
AcDbSpline
70
4
71
3
72
10
73
6
40
0
40
0
40
0
40
0
40
0.5
40
0.5
40
1
40
1
40
1
40
1
41
1
10
-35.8509618943233
20
1.24135721056697
30
-1E-16
41
1
10
-35.8741904300927
20
1.18600086973055
30
-1E-16
41
1
10
-35.8986222732874
20
1.13006712742742
30
-1E-16
41
1
10
-35.9485161922248
20
1.01903426783721
30
-1E-16
41
1
10
-35.974056478015
20
0.963743040222028
30
-1E-16
41
1
10
-35.9999999999999
20
0.908596132497792
30
-1E-16
0
SPLINE
5
C3
100
AcDbEntity
8
1
62
256
6
ByLayer
370
18
48
1
60
0
100
AcDbSpline
70
4
71
3
72
8
73
4
40
0
40
0
40
0
40
0
40
1
40
1
40
1
40
1
41
1
10
37.8021470758881
20
-0.728490135644904
30
0
41
1
10
37.8685464618752
20
-0.541840830310434
30
0
41
1
10
37.9333643978526
20
-0.354622874270575
30
0
41
1
10
37.9965794974543
20
-0.166828577511666
30
0
0
SPLINE
5
C4
100
AcDbEntity
8
1
62
256
6
ByLayer
370
18
48
1
60
0
100
AcDbSpline
70
4
71
3
72
60
73
56
40
0
40
0
40
0
40
0
40
0.125000000000007
40
0.125000000000007
40
0.156250000000009
40
0.156250000000009
40
0.18750000000001
40
0.18750000000001
40
0.218750000000011
40
0.218750000000011
40
0.250000000000012
40
0.250000000000012
40
0.281250000000014
40
0.281250000000014
40
0.312500000000015
40
0.312500000000015
40
0.343750000000016
40
0.343750000000016
40
0.359375000000017
40
0.359375000000017
40
0.375000000000017
40
0.375000000000017
40
0.406250000000018
40
0.406250000000018
40
0.43750000000002
40
0.43750000000002
40
0.468750000000021
40
0.468750000000021
40
0.500000000000022
40
0.500000000000022
40
0.562500000000025
40
0.562500000000025
40
0.625000000000027
40
0.625000000000027
40
0.65625000000003
40
0.65625000000003
40
0.664062500000032
40
0.667968750000032
40
0.667968750000032
40
0.671875000000032
40
0.671875000000032
40
0.679687500000032
40
0.679687500000032
40
0.687500000000032
40
0.687500000000032
40
0.695312500000032
40
0.695312500000032
40
0.703125000000032
40
0.718750000000032
40
0.718750000000032
40
0.750000000000029
40
0.750000000000029
40
0.875000000000015
40
0.875000000000015
40
1
40
1
40
1
40
1
41
1
10
3.36374927532168
20
0.0171352863024197
30
0
41
1
10
3.13216116897371
20
0.166343271459453
30
0
41
1
10
2.91005504427804
20
0.325311046170128
30
0
41
1
10
2.65242041332917
20
0.544407066464004
30
0
41
1
10
2.60193342883676
20
0.589286423659814
30
0
41
1
10
2.5034929220061
20
0.681625175391929
30
0
41
1
10
2.45534261570793
20
0.729288737321951
30
0
41
1
10
2.36328013369422
20
0.826798020555572
30
-1E-16
41
1
10
2.31945936477504
20
0.876515251090012
30
-1E-16
41
1
10
2.23728908599964
20
0.978334067677537
30
-1E-16
41
1
10
2.19870874599775
20
1.03078491000289
30
-1E-16
41
1
10
2.12987553714942
20
1.13689053451449
30
-1E-16
41
1
10
2.09966934634227
20
1.19037915963111
30
-1E-16
41
1
10
2.04957428179407
20
1.29845057324033
30
-1E-16
41
1
10
2.02953356459
20
1.35370588616914
30
-1E-16
41
1
10
2.00353445488548
20
1.46208758713314
30
-1E-16
41
1
10
1.99750377179217
20
1.51488001210728
30
-1E-16
41
1
10
1.99974167573271
20
1.59186178648923
30
-1E-16
41
1
10
2.00241202583072
20
1.61722727832242
30
-1E-16
41
1
10
2.01138064279024
20
1.66593915889803
30
-1E-16
41
1
10
2.01766966923668
20
1.68944966316451
30
-1E-16
41
1
10
2.04163343974028
20
1.75761254454341
30
-1E-16
41
1
10
2.06472512039534
20
1.80029571581059
30
-1E-16
41
1
10
2.12137106441503
20
1.87776586502085
30
1E-16
41
1
10
2.15471686546317
20
1.91262375950362
30
1E-16
41
1
10
2.22933840131702
20
1.9763095835153
30
1E-16
41
1
10
2.2709172610007
20
2.00528028250824
30
1E-16
41
1
10
2.35906871413977
20
2.05739777394925
30
1E-16
41
1
10
2.40555346491703
20
2.08057197596241
30
1E-16
41
1
10
2.55064733745175
20
2.14345228723937
30
0
41
1
10
2.65481735843446
20
2.17661559291889
30
0
41
1
10
2.87341252355438
20
2.23129544764092
30
0
41
1
10
2.98708465213491
20
2.25252615575192
30
0
41
1
10
3.16147187354687
20
2.2777940563351
30
0
41
1
10
3.220268494436
20
2.28510820092683
30
0
41
1
10
3.29445506313215
20
2.29305975405683
30
0
41
1
10
3.31676130269608
20
2.29535542429934
30
0
41
1
10
3.33914063376523
20
2.29752127195616
30
0
41
1
10
3.35407610824743
20
2.29893682240564
30
0
41
1
10
3.36144242082793
20
2.29966472816062
30
0
41
1
10
3.38458815565946
20
2.30149347274323
30
0
41
1
10
3.4017304859255
20
2.30201337233424
30
0
41
1
10
3.43598560533735
20
2.30206915438484
30
0
41
1
10
3.45288642666964
20
2.3016205677223
30
0
41
1
10
3.48571526450081
20
2.30004435301109
30
0
41
1
10
3.50179653959151
20
2.2990846937611
30
0
41
1
10
3.5341665313608
20
2.29721544146182
30
0
41
1
10
3.58265376046609
20
2.29431696050108
30
0
41
1
10
3.63094213384571
20
2.29112334442115
30
0
41
1
10
3.72723059726206
20
2.28431308913557
30
0
41
1
10
3.79102362715875
20
2.27921021800441
30
0
41
1
10
4.10804844776075
20
2.25045457216683
30
0
41
1
10
4.35477984903724
20
2.21693289060005
30
0
41
1
10
4.83405335484665
20
2.1207515608927
30
0
41
1
10
5.06733501278512
20
2.05798945360095
30
1E-16
41
1
10
5.29752818484644
20
1.97849128794326
30
1E-16
0
SPLINE
5
C5
100
AcDbEntity
8
1
62
256
6
ByLayer
370
18
48
1
60
0
100
AcDbSpline
70
4
71
3
72
8
73
4
40
0
40
0
40
0
40
0
40
1
40
1
40
1
40
1
41
1
10
37.8021470758881
20
0.728490135644932
30
0
41
1
10
37.8685464618706
20
0.541840830323252
30
0
41
1
10
37.9333643978438
20
0.354622874296297
30
0
41
1
10
37.9965794974413
20
0.166828577550348
30
0
0
SPLINE
5
C6
100
AcDbEntity
8
1
62
256
6
ByLayer
370
18
48
1
60
0
100
AcDbSpline
70
4
71
3
72
8
73
4
40
0
40
0
40
0
40
0
40
1
40
1
40
1
40
1
41
1
10
3.59696511840366
20
-2.21526260798828
30
0
41
1
10
3.58022325995168
20
-2.21443873201491
30
0
41
1
10
3.56385930626087
20
-2.21805587797178
30
0
41
1
10
3.54907545264788
20
-2.22641775404199
30
0
0
SPLINE
5
C7
100
AcDbEntity
8
1
62
256
6
ByLayer
370
18
48
1
60
0
100
AcDbSpline
70
4
71
3
72
8
73
4
40
0
40
0
40
0
40
0
40
1
40
1
40
1
40
1
41
1
10
37.0230917250562
20
-2.31735984755895
30
0
41
1
10
37.0268141777144
20
-2.33587998695395
30
0
41
1
10
37.0300693838322
20
-2.34665595615991
30
0
41
1
10
37.0328416568596
20
-2.3492906142252
30
0
0
SPLINE
5
C8
100
AcDbEntity
8
1
62
256
6
ByLayer
370
18
48
1
60
0
100
AcDbSpline
70
4
71
3
72
8
73
4
40
0
40
0
40
0
40
0
40
1
40
1
40
1
40
1
41
1
10
37.0230917250562
20
2.31735984755895
30
0
41
1
10
37.0268141777143
20
2.33587998695384
30
0
41
1
10
37.0300693838322
20
2.34665595615976
30
0
41
1
10
37.0328416568596
20
2.34929061422514
30
0
0
SPLINE
5
C9
100
AcDbEntity
8
1
62
256
6
ByLayer
370
18
48
1
60
0
100
AcDbSpline
70
4
71
3
72
8
73
4
40
0
40
0
40
0
40
0
40
1
40
1
40
1
40
1
41
1
10
37.9965794974498
20
0.166828577547591
30
0
41
1
10
37.9837230808069
20
0.123352402744672
30
0
41
1
10
37.9707869291494
20
0.0799020304558837
30
0
41
1
10
37.9577714174733
20
0.0364773393312134
30
0
0
SPLINE
5
CA
100
AcDbEntity
8
1
62
256
6
ByLayer
370
18
48
1
60
0
100
AcDbSpline
70
4
71
3
72
8
73
4
40
0
40
0
40
0
40
0
40
1
40
1
40
1
40
1
41
1
10
3.60225813942731
20
-2.20465131348786
30
0
41
1
10
3.58362312729696
20
-2.2037856766174
30
0
41
1
10
3.56543562407714
20
-2.20789285635715
30
0
41
1
10
3.54907545264788
20
-2.21721650945341
30
0
0
SPLINE
5
CB
100
AcDbEntity
8
1
62
256
6
ByLayer
370
18
48
1
60
0
100
AcDbSpline
70
4
71
3
72
14
73
10
40
0
40
0
40
0
40
0
40
0.449726267284745
40
0.449726267284745
40
0.674589400927102
40
0.674589400927102
40
0.899452534569459
40
0.899452534569459
40
1
40
1
40
1
40
1
41
1
10
37.0539792720593
20
0.362868808067731
30
0
41
1
10
36.981793150689
20
0.430597371040818
30
0
41
1
10
36.9134399684246
20
0.492665607309505
30
0
41
1
10
36.8199736489015
20
0.572383426092188
30
0
41
1
10
36.7901159054652
20
0.59690257889406
30
0
41
1
10
36.7353061137256
20
0.639706108013087
30
0
41
1
10
36.7095003762665
20
0.658885864267461
30
0
41
1
10
36.6800083071496
20
0.677145221839311
30
0
41
1
10
36.6720612262838
20
0.681420859336015
30
0
41
1
10
36.665513017917
20
0.684056766377182
30
0
0
SPLINE
5
CC
100
AcDbEntity
8
1
62
256
6
ByLayer
370
18
48
1
60
0
100
AcDbSpline
70
4
71
3
72
8
73
4
40
0
40
0
40
0
40
0
40
1
40
1
40
1
40
1
41
1
10
37.9965794974458
20
0.166828577545715
30
0
41
1
10
38.0011483887881
20
0.0554090373342717
30
0
41
1
10
38.0011319757793
20
-0.0558092941309951
30
0
41
1
10
37.9965794974469
20
-0.166828577518572
30
0
0
SPLINE
5
CD
100
AcDbEntity
8
1
62
256
6
ByLayer
370
18
48
1
60
0
100
AcDbSpline
70
4
71
3
72
20
73
16
40
0
40
0
40
0
40
0
40
0.125
40
0.125
40
0.25
40
0.25
40
0.375
40
0.375
40
0.5
40
0.5
40
0.625
40
0.625
40
0.75
40
0.75
40
1
40
1
40
1
40
1
41
1
10
3.60236011461564
20
-0.487713276574453
30
0
41
1
10
3.60235048267071
20
-0.602574994945286
30
0
41
1
10
3.60234056840784
20
-0.715378209167511
30
0
41
1
10
3.60232191031696
20
-0.933013662072199
30
1E-16
41
1
10
3.60231322540162
20
-1.03717983742163
30
1E-16
41
1
10
3.60229795240036
20
-1.23646867762602
30
1E-16
41
1
10
3.60229135163044
20
-1.33177465443006
30
1E-16
41
1
10
3.60228066031695
20
-1.51214425690381
30
1E-16
41
1
10
3.60227663128029
20
-1.59630957489028
30
1E-16
41
1
10
3.60227095650251
20
-1.74965360767047
30
1E-16
41
1
10
3.60226930762434
20
-1.8184955967424
30
-1E-16
41
1
10
3.60226739645395
20
-1.94093432958783
30
-1E-16
41
1
10
3.60226713851358
20
-1.99469562371243
30
0
41
1
10
3.60226636297958
20
-2.13093857193752
30
0
41
1
10
3.60226595175337
20
-2.18585850367481
30
0
41
1
10
3.60225813942731
20
-2.20465131348786
30
0
0
SPLINE
5
CE
100
AcDbEntity
8
1
62
256
6
ByLayer
370
18
48
1
60
0
100
AcDbSpline
70
4
71
3
72
40
73
36
40
0
40
0
40
0
40
0
40
0.0215393902985828
40
0.0215393902985828
40
0.064276263526534
40
0.064276263526534
40
0.149750009982437
40
0.149750009982437
40
0.192486883210388
40
0.192486883210388
40
0.235223756438339
40
0.235223756438339
40
0.406171249350142
40
0.406171249350142
40
0.448908122578093
40
0.448908122578093
40
0.491644995806044
40
0.491644995806044
40
0.577118742261948
40
0.577118742261948
40
0.6198556154899
40
0.6198556154899
40
0.662592488717852
40
0.662592488717852
40
0.748066235173755
40
0.748066235173755
40
0.790803108401708
40
0.790803108401708
40
0.833539981629659
40
0.833539981629659
40
0.919013728085562
40
0.919013728085562
40
0.961750601313514
40
0.961750601313514
40
1
40
1
40
1
40
1
41
1
10
27.3561833915486
20
-2.25550967756584
30
0
41
1
10
27.2685329817834
20
-2.27106152440322
30
0
41
1
10
27.1807335689727
20
-2.28460685233091
30
0
41
1
10
26.9180810981731
20
-2.31890497636243
30
0
41
1
10
26.7418651070029
20
-2.33363755756423
30
0
41
1
10
26.2168993161419
20
-2.35222879710179
30
0
41
1
10
25.8705740138575
20
-2.33101086669157
30
0
41
1
10
25.350398041493
20
-2.25102570328374
30
0
41
1
10
25.1768392905361
20
-2.21633834523072
30
0
41
1
10
24.828298045658
20
-2.13122593860999
30
0
41
1
10
24.6528258063541
20
-2.08061060904527
30
-1E-16
41
1
10
23.7750887205609
20
-1.79059047987317
30
1E-16
41
1
10
23.090148194775
20
-1.44877602237918
30
1E-16
41
1
10
22.2120497657869
20
-0.933700345436336
30
1E-16
41
1
10
22.0366453629365
20
-0.827117512954914
30
1E-16
41
1
10
21.6880527182656
20
-0.610337820679206
30
0
41
1
10
21.514427326317
20
-0.499842438279927
30
0
41
1
10
20.9940341398898
20
-0.164407270640765
30
0
41
1
10
20.6476286975104
20
0.0642940076570255
30
0
41
1
10
20.1221991743056
20
0.404806733310466
30
0
41
1
10
19.9459218617799
20
0.517992396493128
30
0
41
1
10
19.5965690220805
20
0.737783856476767
30
0
41
1
10
19.4226990965007
20
0.844885958387835
30
-1E-16
41
1
10
18.9019280529337
20
1.15569647944216
30
-1E-16
41
1
10
18.5557964456432
20
1.3488231994545
30
-1E-16
41
1
10
18.0316696530689
20
1.60839572831091
30
-1E-16
41
1
10
17.855365282554
20
1.69021772973346
30
-1E-16
41
1
10
17.5050306401895
20
1.8400332663071
30
1E-16
41
1
10
17.330816550781
20
1.90816921610752
30
1E-16
41
1
10
16.8094289753057
20
2.09128426462681
30
1E-16
41
1
10
16.4634531336418
20
2.18494373799567
30
0
41
1
10
15.9403969126559
20
2.27827465093063
30
0
41
1
10
15.7650032673796
20
2.30158240729798
30
0
41
1
10
15.432027892008
20
2.3297963294539
30
0
41
1
10
15.2756004764913
20
2.33632890330091
30
0
41
1
10
15.1196342085517
20
2.33623324101521
30
0
0
SPLINE
5
CF
100
AcDbEntity
8
1
62
256
6
ByLayer
370
18
48
1
60
0
100
AcDbSpline
70
4
71
3
72
12
73
8
40
0
40
0
40
0
40
0
40
0.222394013064716
40
0.222394013064716
40
0.611197006532357
40
0.611197006532357
40
1
40
1
40
1
40
1
41
1
10
4.90319192010719
20
-2.23350060118713
30
0
41
1
10
4.80328810707258
20
-2.2519481276324
30
0
41
1
10
4.70313422257175
20
-2.26782810056128
30
0
41
1
10
4.4268924241922
20
-2.30417944474547
30
0
41
1
10
4.25065408104641
20
-2.31906463743121
30
0
41
1
10
3.89920261106522
20
-2.33193501917842
30
0
41
1
10
3.72352831923683
20
-2.32999836373798
30
0
41
1
10
3.54749072879335
20
-2.31960771044365
30
0
0
SPLINE
5
D0
100
AcDbEntity
8
1
62
256
6
ByLayer
370
18
48
1
60
0
100
AcDbSpline
70
4
71
3
72
18
73
14
40
0
40
0
40
0
40
0
40
0.255344138417393
40
0.255344138417393
40
0.449223128460921
40
0.449223128460921
40
0.612382605812993
40
0.612382605812993
40
0.776366512334598
40
0.776366512334598
40
0.928408545095089
40
0.928408545095089
40
1
40
1
40
1
40
1
41
1
10
37.1572311932855
20
-2.21241399042873
30
0
41
1
10
37.1573484482792
20
-2.21260499396428
30
0
41
1
10
37.1574028536886
20
-2.21299656046122
30
0
41
1
10
37.1573463657448
20
-2.21408099850859
30
0
41
1
10
37.1572704667436
20
-2.2146925298959
30
0
41
1
10
37.1570226516242
20
-2.2160546072007
30
0
41
1
10
37.1568643788212
20
-2.21678429186397
30
0
41
1
10
37.1564712522159
20
-2.2183657238848
30
0
41
1
10
37.1562302180682
20
-2.21924048169294
30
0
41
1
10
37.1557239344409
20
-2.22092880460957
30
0
41
1
10
37.1554557534812
20
-2.22176268477949
30
0
41
1
10
37.1550558202685
20
-2.22293521026239
30
0
41
1
10
37.15492524054
20
-2.22330758057018
30
0
41
1
10
37.1547947690387
20
-2.22367019465119
30
0
0
SPLINE
5
D1
100
AcDbEntity
8
1
62
256
6
ByLayer
370
18
48
1
60
0
100
AcDbSpline
70
4
71
3
72
18
73
14
40
0
40
0
40
0
40
0
40
0.25
40
0.25
40
0.5
40
0.5
40
0.625
40
0.625
40
0.75
40
0.75
40
0.875
40
0.875
40
1
40
1
40
1
40
1
41
1
10
37.9577714174732
20
0.0364773393312134
30
0
41
1
10
37.940900391839
20
-0.0198108109431701
30
0
41
1
10
37.9209722353231
20
-0.07457319074868
30
0
41
1
10
37.8747943471896
20
-0.180790002170539
30
0
41
1
10
37.8492719843266
20
-0.230432803044977
30
0
41
1
10
37.8087288817028
20
-0.296461189621795
30
0
41
1
10
37.7946505618886
20
-0.317296596780949
30
0
41
1
10
37.7668722899676
20
-0.354241862529847
30
0
41
1
10
37.7530312875235
20
-0.370613717964147
30
0
41
1
10
37.7254137201153
20
-0.399027568844701
30
0
41
1
10
37.7115841429213
20
-0.411050602614978
30
0
41
1
10
37.6851548491175
20
-0.429587759143232
30
0
41
1
10
37.672391993283
20
-0.436291250726526
30
0
41
1
10
37.6600046159327
20
-0.440465606970435
30
0
0
SPLINE
5
D2
100
AcDbEntity
8
1
62
256
6
ByLayer
370
18
48
1
60
0
100
AcDbSpline
70
4
71
3
72
14
73
10
40
0
40
0
40
0
40
0
40
0.25
40
0.25
40
0.5
40
0.5
40
0.75
40
0.75
40
1
40
1
40
1
40
1
41
1
10
3.50204525364887
20
-0.601279638769
30
0
41
1
10
3.50204525364887
20
-0.583775349254125
30
0
41
1
10
3.50701809518256
20
-0.566520223906991
30
0
41
1
10
3.52533409190218
20
-0.536704483329913
30
0
41
1
10
3.53883034028888
20
-0.524094001019307
30
0
41
1
10
3.57045306960873
20
-0.507496487632295
30
0
41
1
10
3.58850593888576
20
-0.503465399532615
30
0
41
1
10
3.62436365320232
20
-0.505008599654076
30
0
41
1
10
3.64203515616237
20
-0.510565394315563
30
0
41
1
10
3.65715415153411
20
-0.520300128714496
30
0
0
SPLINE
5
D3
100
AcDbEntity
8
1
62
256
6
ByLayer
370
18
48
1
60
0
100
AcDbSpline
70
4
71
3
72
24
73
20
40
0
40
0
40
0
40
0
40
0.195408065781383
40
0.195408065781383
40
0.293112098672074
40
0.293112098672074
40
0.390816131562765
40
0.390816131562765
40
0.586224197344148
40
0.586224197344148
40
0.683928230234836
40
0.683928230234836
40
0.73278024668018
40
0.73278024668018
40
0.781632263125525
40
0.781632263125525
40
0.977040328906902
40
0.977040328906902
40
1
40
1
40
1
40
1
41
1
10
36.832221241667
20
0.179745302920537
30
0
41
1
10
36.4846238862741
20
0.407100852843257
30
0
41
1
10
36.1392269105147
20
0.630777382220998
30
0
41
1
10
35.6177354850642
20
0.950597113425459
30
-1E-16
41
1
10
35.4432032065675
20
1.05438986685005
30
-1E-16
41
1
10
35.0917905562342
20
1.2549039927184
30
-1E-16
41
1
10
34.9168465598242
20
1.35054513196639
30
-1E-16
41
1
10
34.3950103508492
20
1.62124348483982
30
-1E-16
41
1
10
34.0495303732975
20
1.77968561524926
30
-1E-16
41
1
10
33.5284030428809
20
1.9777593420261
30
1E-16
41
1
10
33.3543148016656
20
2.0372747331644
30
1E-16
41
1
10
33.0917623106872
20
2.11579051834306
30
1E-16
41
1
10
33.0037933328141
20
2.1401895865512
30
0
41
1
10
32.828525868975
20
2.1848515930194
30
0
41
1
10
32.7411297500345
20
2.20514678280571
30
0
41
1
10
32.3050263858681
20
2.29648022897194
30
0
41
1
10
31.9593190725665
20
2.33732339192866
30
0
41
1
10
31.5717005976536
20
2.34601062793337
30
0
41
1
10
31.5309216248024
20
2.34646679860725
30
0
41
1
10
31.4901124763299
20
2.34646455281612
30
0
0
SPLINE
5
D4
100
AcDbEntity
8
1
62
256
6
ByLayer
370
18
48
1
60
0
100
AcDbSpline
70
4
71
3
72
52
73
48
40
0
40
0
40
0
40
0
40
0.0523877960202109
40
0.0523877960202109
40
0.0899678348929275
40
0.0899678348929275
40
0.127547873765644
40
0.127547873765644
40
0.202707951511079
40
0.202707951511079
40
0.221497970947437
40
0.221497970947437
40
0.240287990383795
40
0.240287990383795
40
0.277868029256511
40
0.277868029256511
40
0.353028107001946
40
0.353028107001946
40
0.390608145874663
40
0.390608145874663
40
0.42818818474738
40
0.42818818474738
40
0.503348262492813
40
0.503348262492813
40
0.54092830136553
40
0.54092830136553
40
0.559718320801888
40
0.559718320801888
40
0.578508340238247
40
0.578508340238247
40
0.653668417983679
40
0.653668417983679
40
0.691248456856395
40
0.691248456856395
40
0.728828495729111
40
0.728828495729111
40
0.803988573474544
40
0.803988573474544
40
0.841568612347259
40
0.841568612347259
40
0.860358631783616
40
0.860358631783616
40
0.879148651219974
40
0.879148651219974
40
0.954308728965403
40
0.954308728965403
40
1
40
1
40
1
40
1
41
1
10
22.9338708073581
20
-1.71196064706501
30
1E-16
41
1
10
22.6920327321278
20
-1.81975767320094
30
0
41
1
10
22.4498417050299
20
-1.91577571688347
30
-1E-16
41
1
10
22.0312458223399
20
-2.05811936814544
30
-1E-16
41
1
10
21.8550437691218
20
-2.11094623797135
30
-1E-16
41
1
10
21.5052856183038
20
-2.19994392898209
30
0
41
1
10
21.3311751611295
20
-2.23640094878982
30
0
41
1
10
20.8099318545833
20
-2.32168776463513
30
0
41
1
10
20.4643302254667
20
-2.34645027919513
30
0
41
1
10
20.0280521413492
20
-2.33554933761158
30
0
41
1
10
19.9405847321523
20
-2.33128328378282
30
0
41
1
10
19.7651267811449
20
-2.31853592258969
30
0
41
1
10
19.6769779079024
20
-2.31002803840545
30
0
41
1
10
19.4137766563187
20
-2.27837792318692
30
0
41
1
10
19.2394721822591
20
-2.24908148333867
30
0
41
1
10
18.7180190427796
20
-2.1379106776526
30
0
41
1
10
18.3718146617103
20
-2.03318508603192
30
-1E-16
41
1
10
17.8492893675587
20
-1.83400710602558
30
-1E-16
41
1
10
17.6746845502818
20
-1.7604456998333
30
1E-16
41
1
10
17.3228386711025
20
-1.60029965295681
30
1E-16
41
1
10
17.1478795211175
20
-1.51478822594348
30
1E-16
41
1
10
16.6250032393117
20
-1.2441582708754
30
1E-16
41
1
10
16.2793846394804
20
-1.04417710424701
30
1E-16
41
1
10
15.7575282006168
20
-0.725636991115238
30
0
41
1
10
15.5829947971959
20
-0.616395738545009
30
0
41
1
10
15.3197624052283
20
-0.448647565472527
30
0
41
1
10
15.2316021782631
20
-0.392004842605019
30
0
41
1
10
15.0561490568411
20
-0.278518208827592
30
0
41
1
10
14.9687379896148
20
-0.221559932407132
30
0
41
1
10
14.532515080929
20
0.0631383803326173
30
0
41
1
10
14.1860765274341
20
0.29043046182602
30
0
41
1
10
13.6647724626067
20
0.622317693532978
30
0
41
1
10
13.4908539041583
20
0.731619313182165
30
0
41
1
10
13.1409955129006
20
0.944918978133842
30
-1E-16
41
1
10
12.9644217662736
20
1.04923302606576
30
-1E-16
41
1
10
12.4390677208324
20
1.34710761522521
30
-1E-16
41
1
10
12.0928967310967
20
1.52772520905725
30
-1E-16
41
1
10
11.571910743854
20
1.76276316339047
30
-1E-16
41
1
10
11.3979308209285
20
1.83512210579903
30
1E-16
41
1
10
11.1359497495238
20
1.93402365084106
30
1E-16
41
1
10
11.048442793308
20
1.9653717470056
30
1E-16
41
1
10
10.8729628676017
20
2.02468318625878
30
1E-16
41
1
10
10.7848565896391
20
2.05271302503002
30
1E-16
41
1
10
10.3462145687956
20
2.18272282018293
30
0
41
1
10
9.99898956724957
20
2.25512308243839
30
0
41
1
10
9.44060591222896
20
2.31976807662104
30
0
41
1
10
9.22954924098039
20
2.33224248758256
30
0
41
1
10
9.01734690677557
20
2.33239929078627
30
0
0
SPLINE
5
D5
100
AcDbEntity
8
1
62
256
6
ByLayer
370
18
48
1
60
0
100
AcDbSpline
70
4
71
3
72
18
73
14
40
0
40
0
40
0
40
0
40
0.499999999999988
40
0.499999999999988
40
0.562499999999989
40
0.562499999999989
40
0.624999999999991
40
0.624999999999991
40
0.749999999999994
40
0.749999999999994
40
0.874999999999997
40
0.874999999999997
40
1
40
1
40
1
40
1
41
1
10
37.1888926902756
20
-2.24589730648631
30
0
41
1
10
37.2801797553289
20
-1.98688785110329
30
0
41
1
10
37.3721957904622
20
-1.72310090198445
30
0
41
1
10
37.4816905685624
20
-1.42950943790277
30
0
41
1
10
37.4939289713139
20
-1.39692808256174
30
0
41
1
10
37.5185504878745
20
-1.33184064970098
30
0
41
1
10
37.530874570122
20
-1.29928321923495
30
0
41
1
10
37.5687288166532
20
-1.20222304487518
30
0
41
1
10
37.5951012431401
20
-1.13833007663666
30
0
41
1
10
37.6500054543627
20
-1.01465054591316
30
0
41
1
10
37.6786157444295
20
-0.954599789982041
30
0
41
1
10
37.738614853211
20
-0.838139535325638
30
0
41
1
10
37.7700406840757
20
-0.781755342159784
30
0
41
1
10
37.8021470758881
20
-0.728490135644932
30
0
0
SPLINE
5
D6
100
AcDbEntity
8
1
62
256
6
ByLayer
370
18
48
1
60
0
100
AcDbSpline
70
4
71
3
72
18
73
14
40
0
40
0
40
0
40
0
40
0.49999999999999
40
0.49999999999999
40
0.562499999999991
40
0.562499999999991
40
0.624999999999992
40
0.624999999999992
40
0.749999999999995
40
0.749999999999995
40
0.874999999999997
40
0.874999999999997
40
1
40
1
40
1
40
1
41
1
10
37.1888926902756
20
2.24589730648634
30
0
41
1
10
37.2801797553289
20
1.98688785110332
30
0
41
1
10
37.3721957904622
20
1.72310090198448
30
0
41
1
10
37.4816905685624
20
1.42950943790282
30
0
41
1
10
37.493928971314
20
1.39692808256177
30
0
41
1
10
37.5185504878745
20
1.33184064970101
30
0
41
1
10
37.530874570122
20
1.29928321923498
30
0
41
1
10
37.5687288166532
20
1.20222304487521
30
0
41
1
10
37.5951012431401
20
1.13833007663669
30
0
41
1
10
37.6500054543627
20
1.01465054591318
30
0
41
1
10
37.6786157444294
20
0.954599789982041
30
0
41
1
10
37.7386148532111
20
0.838139535325638
30
0
41
1
10
37.7700406840757
20
0.781755342159784
30
0
41
1
10
37.8021470758881
20
0.728490135644932
30
0
0
SPLINE
5
D7
100
AcDbEntity
8
1
62
256
6
ByLayer
370
18
48
1
60
0
100
AcDbSpline
70
4
71
3
72
32
73
28
40
0
40
0
40
0
40
0
40
0.03287674527663
40
0.03287674527663
40
0.119863976530129
40
0.119863976530129
40
0.206851207783629
40
0.206851207783629
40
0.293838439037129
40
0.293838439037129
40
0.380825670290628
40
0.380825670290628
40
0.467812901544128
40
0.467812901544128
40
0.554800132797628
40
0.554800132797628
40
0.641787364051127
40
0.641787364051127
40
0.728774595304627
40
0.728774595304627
40
0.815761826558126
40
0.815761826558126
40
0.902749057811626
40
0.902749057811626
40
0.989736289065126
40
0.989736289065126
40
1
40
1
40
1
40
1
41
1
10
25.6930725736951
20
-0.226042836994196
30
0
41
1
10
25.6273494322645
20
-0.185310328605169
30
0
41
1
10
25.561484841791
20
-0.144433116431145
30
0
41
1
10
25.3206899221191
20
0.0048178999548441
30
0
41
1
10
25.1463729859593
20
0.113178196697078
30
0
41
1
10
24.8003073776802
20
0.327644630953785
30
0
41
1
10
24.6279184689214
20
0.433669860918286
30
0
41
1
10
24.282953835343
20
0.641387768772802
30
0
41
1
10
24.1106318196642
20
0.743314165324449
30
0
41
1
10
23.7656891716371
20
0.941830307951278
30
-1E-16
41
1
10
23.5928632480884
20
1.03832360719633
30
-1E-16
41
1
10
23.2452367928402
20
1.22416798462584
30
-1E-16
41
1
10
23.0698949122361
20
1.3139041935168
30
-1E-16
41
1
10
22.7224001355802
20
1.48168353996144
30
-1E-16
41
1
10
22.5494528389304
20
1.5602321062307
30
-1E-16
41
1
10
22.2039607572552
20
1.70593900547601
30
-1E-16
41
1
10
22.0316191657513
20
1.77295433016513
30
-1E-16
41
1
10
21.687024757726
20
1.89370186654847
30
1E-16
41
1
10
21.5145240039356
20
1.94786379155201
30
1E-16
41
1
10
21.1680803577161
20
2.04299937062609
30
0
41
1
10
20.9942102675653
20
2.08362644487011
30
0
41
1
10
20.6447358551838
20
2.14935243733242
30
0
41
1
10
20.4698318735195
20
2.17502494330967
30
0
41
1
10
20.1201452576869
20
2.21114966139069
30
0
41
1
10
19.9464108120456
20
2.22086181083992
30
0
41
1
10
19.7526963504094
20
2.22270683858383
30
0
41
1
10
19.7322551133081
20
2.22279834130427
30
0
41
1
10
19.7118162796312
20
2.22278650511416
30
0
0
SPLINE
5
D8
100
AcDbEntity
8
1
62
256
6
ByLayer
370
18
48
1
60
0
100
AcDbSpline
70
4
71
3
72
22
73
18
40
0
40
0
40
0
40
0
40
0.101480741655217
40
0.101480741655217
40
0.202961483310434
40
0.202961483310434
40
0.405922966620861
40
0.405922966620861
40
0.507403708276075
40
0.507403708276075
40
0.60888444993129
40
0.60888444993129
40
0.811845933241723
40
0.811845933241723
40
0.91332667489694
40
0.91332667489694
40
1
40
1
40
1
40
1
41
1
10
37.1547947686815
20
-2.22367019462141
30
0
41
1
10
36.9798592158811
20
-2.20896246078422
30
0
41
1
10
36.8055934614734
20
-2.18723291710668
30
0
41
1
10
36.4578201697466
20
-2.12785256057481
30
0
41
1
10
36.2842588843156
20
-2.09056941690787
30
0
41
1
10
35.763412613915
20
-1.95692613799122
30
-1E-16
41
1
10
35.4161064756634
20
-1.83882773579131
30
-1E-16
41
1
10
34.8883530638187
20
-1.62222856410335
30
1E-16
41
1
10
34.7126025587104
20
-1.54395388298042
30
1E-16
41
1
10
34.3639833695264
20
-1.37834929706474
30
1E-16
41
1
10
34.1905709739947
20
-1.29077960930982
30
1E-16
41
1
10
33.6714124812714
20
-1.01614184873725
30
1E-16
41
1
10
33.3265986179339
20
-0.81730865527345
30
1E-16
41
1
10
32.8060459201985
20
-0.503553514701252
30
0
41
1
10
32.6318616530058
20
-0.396498446886909
30
0
41
1
10
32.3066254011197
20
-0.194920445268878
30
0
41
1
10
32.1557979489954
20
-0.100780073354969
30
0
41
1
10
32.0061147016518
20
-0.0071055405960294
30
0
0
SPLINE
5
D9
100
AcDbEntity
8
1
62
256
6
ByLayer
370
18
48
1
60
0
100
AcDbSpline
70
4
71
3
72
24
73
20
40
0
40
0
40
0
40
0
40
0.0185928206236046
40
0.0185928206236046
40
0.109734322501505
40
0.109734322501505
40
0.200875824379405
40
0.200875824379405
40
0.383158828135207
40
0.383158828135207
40
0.565441831891009
40
0.565441831891009
40
0.656583333768909
40
0.656583333768909
40
0.74772483564681
40
0.74772483564681
40
0.930007839402615
40
0.930007839402615
40
1
40
1
40
1
40
1
41
1
10
15.2618704837381
20
-2.22727511369047
30
0
41
1
10
15.2263483023663
20
-2.22810945441987
30
0
41
1
10
15.1908203912276
20
-2.22860871579033
30
0
41
1
10
14.9810727004921
20
-2.22956877892406
30
0
41
1
10
14.8067731588874
20
-2.22266213968879
30
0
41
1
10
14.4569590028989
20
-2.19330222419541
30
0
41
1
10
14.2807493470233
20
-2.17024882456354
30
0
41
1
10
13.7516686725824
20
-2.07743798629539
30
0
41
1
10
13.40350076659
20
-1.98593287388854
30
-1E-16
41
1
10
12.7066606250322
20
-1.74903784663658
30
1E-16
41
1
10
12.358766657447
20
-1.60454020277609
30
1E-16
41
1
10
11.8301897694032
20
-1.35320739019866
30
1E-16
41
1
10
11.6535050870436
20
-1.2639437847337
30
1E-16
41
1
10
11.3030449184002
20
-1.07845434861437
30
1E-16
41
1
10
11.1285173848912
20
-0.981901066632588
30
1E-16
41
1
10
10.6054618660711
20
-0.683406534948659
30
0
41
1
10
10.2580404203682
20
-0.472192932567225
30
0
41
1
10
9.77220483860992
20
-0.17251854515456
30
0
41
1
10
9.63657905018491
20
-0.0881615593348215
30
0
41
1
10
9.5012316124571
20
-0.0039757576473392
30
0
0
SPLINE
5
DA
100
AcDbEntity
8
1
62
256
6
ByLayer
370
18
48
1
60
0
100
AcDbSpline
70
4
71
3
72
38
73
34
40
0
40
0
40
0
40
0
40
0.0980969235774958
40
0.0980969235774958
40
0.147145385366245
40
0.147145385366245
40
0.196193847154994
40
0.196193847154994
40
0.294290770732493
40
0.294290770732493
40
0.343339232521242
40
0.343339232521242
40
0.392387694309991
40
0.392387694309991
40
0.490484617887487
40
0.490484617887487
40
0.539533079676234
40
0.539533079676234
40
0.58858154146498
40
0.58858154146498
40
0.686678465042473
40
0.686678465042473
40
0.735726926831219
40
0.735726926831219
40
0.784775388619964
40
0.784775388619964
40
0.882872312197454
40
0.882872312197454
40
0.931920773986198
40
0.931920773986198
40
0.980969235774941
40
0.980969235774941
40
1
40
1
40
1
40
1
41
1
10
37.0230917250602
20
-2.31735984755798
30
0
41
1
10
36.6736976610413
20
-2.27893338138946
30
0
41
1
10
36.3266532070396
20
-2.20784639115405
30
0
41
1
10
35.8042896132191
20
-2.05602637857814
30
-1E-16
41
1
10
35.6298856405049
20
-1.99783482187561
30
-1E-16
41
1
10
35.2793025782167
20
-1.86686584531003
30
-1E-16
41
1
10
35.1036616739829
20
-1.79426077985045
30
1E-16
41
1
10
34.5802405099968
20
-1.55959588035964
30
1E-16
41
1
10
34.2335691558448
20
-1.37981347383919
30
1E-16
41
1
10
33.7102818234063
20
-1.08330590945849
30
1E-16
41
1
10
33.5347677656165
20
-0.979776959917501
30
1E-16
41
1
10
33.1838118372615
20
-0.766268334698736
30
0
41
1
10
33.0095279985263
20
-0.656921681973955
30
0
41
1
10
32.4881784225126
20
-0.324310921520151
30
0
41
1
10
32.142370277095
20
-0.0968678186969782
30
0
41
1
10
31.6211945888926
20
0.244998078976494
30
0
41
1
10
31.4468960198562
20
0.358820187241179
30
0
41
1
10
31.095899302875
20
0.584264083335199
30
0
41
1
10
30.9206633468443
20
0.694948214142698
30
0
41
1
10
30.3980136024751
20
1.01608723607441
30
-1E-16
41
1
10
30.0521196360247
20
1.21698738135834
30
-1E-16
41
1
10
29.5313358093197
20
1.49077305470917
30
-1E-16
41
1
10
29.3572612149442
20
1.57723275546044
30
-1E-16
41
1
10
29.007113483106
20
1.73913139384308
30
-1E-16
41
1
10
28.8309654551943
20
1.81456251929049
30
1E-16
41
1
10
28.3073393176665
20
2.0186248727197
30
1E-16
41
1
10
27.9615096388036
20
2.1265963447058
30
1E-16
41
1
10
27.4411341391708
20
2.24241371099214
30
0
41
1
10
27.2673529671869
20
2.27329577326717
30
0
41
1
10
26.9180810981732
20
2.31890497636243
30
0
41
1
10
26.7418651070029
20
2.33363755756423
30
0
41
1
10
26.4989810733882
20
2.34223909946923
30
0
41
1
10
26.4312230787577
20
2.34337854208337
30
0
41
1
10
26.3635725134853
20
2.34326396529121
30
0
0
SPLINE
5
DB
100
AcDbEntity
8
1
62
256
6
ByLayer
370
18
48
1
60
0
100
AcDbSpline
70
4
71
3
72
44
73
40
40
0
40
0
40
0
40
0
40
0.0004274199890358
40
0.0004274199890358
40
0.0431697723876909
40
0.0431697723876909
40
0.0859121247863462
40
0.0859121247863462
40
0.171396829583658
40
0.171396829583658
40
0.214139181982313
40
0.214139181982313
40
0.256881534380969
40
0.256881534380969
40
0.342366239178279
40
0.342366239178279
40
0.385108591576935
40
0.385108591576935
40
0.427850943975591
40
0.427850943975591
40
0.513335648772903
40
0.513335648772903
40
0.556078001171558
40
0.556078001171558
40
0.598820353570214
40
0.598820353570214
40
0.684305058367526
40
0.684305058367526
40
0.727047410766182
40
0.727047410766182
40
0.769789763164837
40
0.769789763164837
40
0.855274467962148
40
0.855274467962148
40
0.94075917275946
40
0.94075917275946
40
0.983501525158116
40
0.983501525158116
40
1
40
1
40
1
40
1
41
1
10
16.1199793011925
20
-2.2462286877103
30
0
41
1
10
16.1182359307455
20
-2.24654135972
30
0
41
1
10
16.1164924926349
20
-2.24685324614879
30
0
41
1
10
15.9403969126559
20
-2.27827465093063
30
0
41
1
10
15.7650032673796
20
-2.30158240729798
30
0
41
1
10
15.4135776227885
20
-2.33135967166481
30
0
41
1
10
15.2389073922354
20
-2.33776822812433
30
0
41
1
10
14.716459471194
20
-2.3322419560059
30
0
41
1
10
14.3707570959277
20
-2.29543854696576
30
0
41
1
10
13.8483952681871
20
-2.19250319246766
30
0
41
1
10
13.6739001879391
20
-2.15011675441505
30
0
41
1
10
13.322541725306
20
-2.04962275454963
30
-1E-16
41
1
10
13.1468366968208
20
-1.99182826791753
30
-1E-16
41
1
10
12.6233932975012
20
-1.79915482609036
30
1E-16
41
1
10
12.277479747743
20
-1.64407463060795
30
1E-16
41
1
10
11.7557952414759
20
-1.37968755845157
30
1E-16
41
1
10
11.5816556573209
20
-1.28598785894377
30
1E-16
41
1
10
11.231284128573
20
-1.08922911896369
30
1E-16
41
1
10
11.0547724112179
20
-0.985960766596321
30
1E-16
41
1
10
10.5300877344643
20
-0.669433072207909
30
0
41
1
10
10.1838538937895
20
-0.447606402199995
30
0
41
1
10
9.66262207702908
20
-0.109780597351886
30
0
41
1
10
9.48876725948912
20
0.0039924503420252
30
0
41
1
10
9.13924567926085
20
0.231416559645226
30
0
41
1
10
8.9628132635932
20
0.34560775145539
30
0
41
1
10
8.43663533997798
20
0.681385170766134
30
0
41
1
10
8.08995045592769
20
0.896308485274659
30
-1E-16
41
1
10
7.56895467573537
20
1.19543758525509
30
-1E-16
41
1
10
7.39528496198716
20
1.29148550369635
30
-1E-16
41
1
10
7.0465571082436
20
1.47430785717376
30
-1E-16
41
1
10
6.87120858741122
20
1.56125862033443
30
-1E-16
41
1
10
6.34338432946808
20
1.80488689164272
30
-1E-16
41
1
10
5.99585426386221
20
1.94119080980306
30
1E-16
41
1
10
5.3011099834502
20
2.156123848584
30
0
41
1
10
4.95407254933821
20
2.23480650303767
30
0
41
1
10
4.4268924241922
20
2.30417944474547
30
0
41
1
10
4.25065408104643
20
2.31906463743121
30
0
41
1
10
4.00709851322927
20
2.32798380096361
30
0
41
1
10
3.93927634516012
20
2.32922041307509
30
0
41
1
10
3.87143798934758
20
2.32920493996536
30
0
0
SPLINE
5
DC
100
AcDbEntity
8
1
62
256
6
ByLayer
370
18
48
1
60
0
100
AcDbSpline
70
4
71
3
72
8
73
4
40
0
40
0
40
0
40
0
40
1
40
1
40
1
40
1
41
1
10
14.4999999999997
20
2.3356068758533
30
0
41
1
10
14.4999999999997
20
2.30711364160254
30
0
41
1
10
14.5
20
2.27836226224011
30
0
41
1
10
14.5
20
2.24935460196067
30
0
0
SPLINE
5
DD
100
AcDbEntity
8
1
62
256
6
ByLayer
370
18
48
1
60
0
100
AcDbSpline
70
4
71
3
72
16
73
12
40
0
40
0
40
0
40
0
40
0.0447682533713503
40
0.0447682533713503
40
0.150905114107867
40
0.150905114107867
40
0.575452557053934
40
0.575452557053934
40
0.787726278526967
40
0.787726278526967
40
1
40
1
40
1
40
1
41
1
10
11.7918646766913
20
1.67433694504823
30
-1E-16
41
1
10
11.8325750672387
20
1.69284980291073
30
-1E-16
41
1
10
11.873249837455
20
1.71101987098058
30
-1E-16
41
1
10
12.0100586294954
20
1.77099674004955
30
-1E-16
41
1
10
12.1059967981843
20
1.81118325210747
30
-1E-16
41
1
10
12.584687318327
20
2.00186373182012
30
1E-16
41
1
10
12.9643865608027
20
2.12164621732992
30
1E-16
41
1
10
13.5382381154321
20
2.24550236779325
30
0
41
1
10
13.7301830677379
20
2.27751969121033
30
0
41
1
10
14.1168480652327
20
2.32179178612469
30
0
41
1
10
14.3087721055984
20
2.33370222538284
30
0
41
1
10
14.49999999999
20
2.33560687586413
30
0
0
SPLINE
5
DE
100
AcDbEntity
8
1
62
256
6
ByLayer
370
18
48
1
60
0
100
AcDbSpline
70
4
71
3
72
22
73
18
40
0
40
0
40
0
40
0
40
0.174550538293513
40
0.174550538293513
40
0.349101076587026
40
0.349101076587026
40
0.436376345733786
40
0.436376345733786
40
0.523651614880544
40
0.523651614880544
40
0.698202153174058
40
0.698202153174058
40
0.785477422320812
40
0.785477422320812
40
0.872752691467566
40
0.872752691467566
40
1
40
1
40
1
40
1
41
1
10
36.897632389715
20
-0.197832740698345
30
0
41
1
10
36.5517173824915
20
0.0143391414342489
30
0
41
1
10
36.2109493401756
20
0.229672937402114
30
0
41
1
10
35.5277888096491
20
0.648298379037698
30
0
41
1
10
35.1854569687559
20
0.851464597582861
30
-1E-16
41
1
10
34.6653498052409
20
1.13790953802786
30
-1E-16
41
1
10
34.4905546156673
20
1.23059955825971
30
-1E-16
41
1
10
34.1441031992864
20
1.40477387748751
30
-1E-16
41
1
10
33.9716733267911
20
1.48666594811789
30
-1E-16
41
1
10
33.4551742910403
20
1.71614724078387
30
-1E-16
41
1
10
33.1118865569373
20
1.84732490805953
30
1E-16
41
1
10
32.5930568274865
20
2.00395020271915
30
0
41
1
10
32.4188754928334
20
2.04974580408907
30
0
41
1
10
32.0709389251515
20
2.12545028051235
30
0
41
1
10
31.8981764569826
20
2.15521049365799
30
0
41
1
10
31.4740161882605
20
2.2111793623767
30
0
41
1
10
31.223163971863
20
2.22904900349559
30
0
41
1
10
30.9719186881698
20
2.23036025892966
30
0
0
SPLINE
5
DF
100
AcDbEntity
8
1
62
256
6
ByLayer
370
18
48
1
60
0
100
AcDbSpline
70
4
71
3
72
32
73
28
40
0
40
0
40
0
40
0
40
0.0649842175487288
40
0.0649842175487288
40
0.151841255647524
40
0.151841255647524
40
0.238698293746319
40
0.238698293746319
40
0.325555331845115
40
0.325555331845115
40
0.41241236994391
40
0.41241236994391
40
0.455840888993308
40
0.455840888993308
40
0.499269408042705
40
0.499269408042705
40
0.586126446141498
40
0.586126446141498
40
0.67298348424029
40
0.67298348424029
40
0.759840522339083
40
0.759840522339083
40
0.846697560437876
40
0.846697560437876
40
0.933554598536668
40
0.933554598536668
40
1
40
1
40
1
40
1
41
1
10
14.4408212813898
20
-0.223833621215789
30
0
41
1
10
14.3106822936999
20
-0.143516353593611
30
0
41
1
10
14.1799731433701
20
-0.0626060777167368
30
0
41
1
10
13.8752257243042
20
0.126029384806515
30
0
41
1
10
13.7021848842929
20
0.233496438217685
30
0
41
1
10
13.3567169939461
20
0.445122979497967
30
0
41
1
10
13.1842665590472
20
0.549272242721912
30
0
41
1
10
12.8395290430867
20
0.753222695632076
30
0
41
1
10
12.6674018973072
20
0.853068535909046
30
-1E-16
41
1
10
12.3218323652534
20
1.04651165521011
30
-1E-16
41
1
10
12.1483942950575
20
1.14013062671035
30
-1E-16
41
1
10
11.8868373545304
20
1.27484449961972
30
-1E-16
41
1
10
11.7993472726978
20
1.31881290121004
30
-1E-16
41
1
10
11.6253653070459
20
1.40380066514885
30
-1E-16
41
1
10
11.5386333099996
20
1.44495502139839
30
-1E-16
41
1
10
11.2786594757026
20
1.56444578483902
30
-1E-16
41
1
10
11.1057780260752
20
1.63873538443414
30
-1E-16
41
1
10
10.7607878478126
20
1.7750323161946
30
-1E-16
41
1
10
10.5888622999651
20
1.83662833026335
30
1E-16
41
1
10
10.2438523017482
20
1.94772349064851
30
1E-16
41
1
10
10.0708403123324
20
1.99715826726006
30
0
41
1
10
9.72354513286115
20
2.08151655371503
30
0
41
1
10
9.54866360976132
20
2.11598447328592
30
0
41
1
10
9.20031502086442
20
2.17057412418137
30
0
41
1
10
9.02676234431692
20
2.19063915555662
30
0
41
1
10
8.72158403010414
20
2.21162925031308
30
0
41
1
10
8.58975052287931
20
2.21567530244411
30
0
41
1
10
8.45784118754381
20
2.215471377039
30
0
0
SPLINE
5
E0
100
AcDbEntity
8
1
62
256
6
ByLayer
370
18
48
1
60
0
100
AcDbSpline
70
4
71
3
72
8
73
4
40
0
40
0
40
0
40
0
40
1
40
1
40
1
40
1
41
1
10
36.8412349700319
20
-0.159482450485825
30
0
41
1
10
36.8583282642396
20
-0.168118571088854
30
0
41
1
10
36.8753307209454
20
-0.17618049972387
30
0
41
1
10
36.8922646448044
20
-0.183685426562562
30
0
0
SPLINE
5
E1
100
AcDbEntity
8
1
62
256
6
ByLayer
370
18
48
1
60
0
100
AcDbSpline
70
4
71
3
72
8
73
4
40
0
40
0
40
0
40
0
40
1
40
1
40
1
40
1
41
1
10
37.1838073814938
20
2.24933672489163
30
0
41
1
10
37.1855024588183
20
2.24819053320621
30
0
41
1
10
37.1871975615882
20
2.24704406041431
30
0
41
1
10
37.1888926902752
20
2.2458973064862
30
0
0
SPLINE
5
E2
100
AcDbEntity
8
1
62
256
6
ByLayer
370
18
48
1
60
0
100
AcDbSpline
70
4
71
3
72
10
73
6
40
0
40
0
40
0
40
0
40
0.5
40
0.5
40
1
40
1
40
1
40
1
41
1
10
3.54907545264788
20
-2.22641775404199
30
0
41
1
10
3.53271477787857
20
-2.2346304419564
30
0
41
1
10
3.52117505105676
20
-2.24541914857471
30
0
41
1
10
3.50581378236646
20
-2.26855687775688
30
0
41
1
10
3.50204525364887
20
-2.2811233878808
30
0
41
1
10
3.50204525364887
20
-2.29334364384059
30
0
0
SPLINE
5
E3
100
AcDbEntity
8
1
62
256
6
ByLayer
370
18
48
1
60
0
100
AcDbSpline
70
4
71
3
72
56
73
52
40
0
40
0
40
0
40
0
40
0.0371051755105669
40
0.0371051755105669
40
0.0790355602073268
40
0.0790355602073268
40
0.120965944904087
40
0.120965944904087
40
0.162896329600846
40
0.162896329600846
40
0.204826714297606
40
0.204826714297606
40
0.246757098994366
40
0.246757098994366
40
0.288687483691126
40
0.288687483691126
40
0.330617868387886
40
0.330617868387886
40
0.372548253084646
40
0.372548253084646
40
0.414478637781406
40
0.414478637781406
40
0.456409022478165
40
0.456409022478165
40
0.498339407174925
40
0.498339407174925
40
0.540269791871685
40
0.540269791871685
40
0.582200176568445
40
0.582200176568445
40
0.624130561265205
40
0.624130561265205
40
0.666060945961965
40
0.666060945961965
40
0.707991330658725
40
0.707991330658725
40
0.728956523007104
40
0.728956523007104
40
0.749921715355484
40
0.749921715355484
40
0.791852100052244
40
0.791852100052244
40
0.833782484749004
40
0.833782484749004
40
0.875712869445764
40
0.875712869445764
40
0.917643254142524
40
0.917643254142524
40
0.959573638839284
40
0.959573638839284
40
1
40
1
40
1
40
1
41
1
10
7.35724586328209
20
2.21911049450614
30
0
41
1
10
7.51144459290364
20
2.25001758510345
30
0
41
1
10
7.66486541781237
20
2.27466049571905
30
0
41
1
10
7.99081984184011
20
2.31339487275059
30
0
41
1
10
8.1633355118895
20
2.32584302630079
30
0
41
1
10
8.5076078998874
20
2.33468783971588
30
0
41
1
10
8.67932241725319
20
2.33099754461884
30
0
41
1
10
9.02434917999207
20
2.30746055624579
30
0
41
1
10
9.19748904710104
20
2.28767455549291
30
0
41
1
10
9.54515879113657
20
2.23164824370923
30
0
41
1
10
9.71964739944818
20
2.19520926633834
30
0
41
1
10
10.0663204529912
20
2.10827123023734
30
1E-16
41
1
10
10.2390520734702
20
2.05760533109461
30
1E-16
41
1
10
10.583411740521
20
1.94213095743677
30
1E-16
41
1
10
10.755015696075
20
1.87722739237069
30
1E-16
41
1
10
11.0996149089339
20
1.73542036430243
30
-1E-16
41
1
10
11.2723426999324
20
1.65832387339142
30
-1E-16
41
1
10
11.6189001290346
20
1.49169770411271
30
-1E-16
41
1
10
11.7935020750066
20
1.40167836533956
30
-1E-16
41
1
10
12.1411205306167
20
1.21436812762943
30
-1E-16
41
1
10
12.314078722288
20
1.11675448520444
30
-1E-16
41
1
10
12.6587398061194
20
0.914325529707895
30
-1E-16
41
1
10
12.8304792323407
20
0.809541371673504
30
0
41
1
10
13.1748169287977
20
0.595848787727107
30
0
41
1
10
13.3471754521694
20
0.486602803541103
30
0
41
1
10
13.6927986496813
20
0.264012979057583
30
0
41
1
10
13.8664598924801
20
0.150523660224934
30
0
41
1
10
14.2152347211022
20
-0.0766109948541498
30
0
41
1
10
14.3885111896207
20
-0.189579590890816
30
0
41
1
10
14.733537437563
20
-0.413308335514273
30
0
41
1
10
14.9054032108305
20
-0.523872880074435
30
0
41
1
10
15.2498597851343
20
-0.739416682519447
30
0
41
1
10
15.4220397766847
20
-0.845028606028166
30
1E-16
41
1
10
15.7667253081315
20
-1.05121179509129
30
1E-16
41
1
10
15.939300858523
20
-1.15165712613188
30
1E-16
41
1
10
16.2006037114332
20
-1.29537458097201
30
1E-16
41
1
10
16.2881031549917
20
-1.3423141167562
30
1E-16
41
1
10
16.4621310516281
20
-1.43344290608428
30
1E-16
41
1
10
16.5488253527596
20
-1.47774611120551
30
1E-16
41
1
10
16.8081578261695
20
-1.60662818772588
30
1E-16
41
1
10
16.980111006195
20
-1.68706772076305
30
1E-16
41
1
10
17.324392333839
20
-1.83478110524527
30
-1E-16
41
1
10
17.4963746674745
20
-1.90245908207484
30
-1E-16
41
1
10
17.8405597911264
20
-2.02482176035298
30
-1E-16
41
1
10
18.0129852683867
20
-2.07928905635546
30
-1E-16
41
1
10
18.3600104997827
20
-2.17349401519726
30
0
41
1
10
18.5350229195799
20
-2.21347088852772
30
0
41
1
10
18.8816384325602
20
-2.277111668396
30
0
41
1
10
19.0541137004087
20
-2.30080244537044
30
0
41
1
10
19.3925466641178
20
-2.33145541564741
30
0
41
1
10
19.5581699346651
20
-2.33902363378238
30
0
41
1
10
19.7239344657269
20
-2.33907577546586
30
0
0
SPLINE
5
E4
100
AcDbEntity
8
1
62
256
6
ByLayer
370
18
48
1
60
0
100
AcDbSpline
70
4
71
3
72
30
73
26
40
0
40
0
40
0
40
0
40
0.021078349928568
40
0.021078349928568
40
0.0963800153186762
40
0.0963800153186762
40
0.246983346098893
40
0.246983346098893
40
0.284634178793948
40
0.284634178793948
40
0.322285011489003
40
0.322285011489003
40
0.397586676879114
40
0.397586676879114
40
0.548190007659338
40
0.548190007659338
40
0.623491673049449
40
0.623491673049449
40
0.698793338439559
40
0.698793338439559
40
0.849396669219779
40
0.849396669219779
40
0.92469833460989
40
0.92469833460989
40
1
40
1
40
1
40
1
41
1
10
29.962775121409
20
2.25285459559677
30
0
41
1
10
30.011092298393
20
2.26173706062221
30
0
41
1
10
30.0593326920879
20
2.26999488896567
30
0
41
1
10
30.279634457466
20
2.30486743971261
30
0
41
1
10
30.4515096132767
20
2.32389672274485
30
0
41
1
10
30.9673178336138
20
2.35687275971154
30
0
41
1
10
31.3112360995171
20
2.34685164997091
30
0
41
1
10
31.7452717881399
20
2.29301540121867
30
0
41
1
10
31.8324748924533
20
2.28013721802961
30
0
41
1
10
32.0060718011891
20
2.25042018585319
30
0
41
1
10
32.0925583368855
20
2.23357121283559
30
0
41
1
10
32.3515808660107
20
2.17737385772372
30
0
41
1
10
32.5236934967973
20
2.1324089762002
30
0
41
1
10
33.0394338026392
20
1.9762637080583
30
1E-16
41
1
10
33.3824925858954
20
1.84388346900789
30
1E-16
41
1
10
33.9017467604259
20
1.60721349481753
30
-1E-16
41
1
10
34.0763627423639
20
1.5215861205487
30
-1E-16
41
1
10
34.4229704554765
20
1.34143093686106
30
-1E-16
41
1
10
34.5953157356145
20
1.24675261163256
30
-1E-16
41
1
10
35.1113800525773
20
0.951647667062417
30
-1E-16
41
1
10
35.4541005075937
20
0.740175487610543
30
0
41
1
10
35.9716162327594
20
0.408400744565597
30
0
41
1
10
36.1451075029738
20
0.29516400966935
30
0
41
1
10
36.4932053224593
20
0.0674004210249564
30
0
41
1
10
36.6669439724662
20
-0.0466288243975725
30
0
41
1
10
36.8412349700317
20
-0.159482450486706
30
0
0
SPLINE
5
E5
100
AcDbEntity
8
1
62
256
6
ByLayer
370
18
48
1
60
0
100
AcDbSpline
70
4
71
3
72
34
73
30
40
0
40
0
40
0
40
0
40
0.0625000000000083
40
0.0625000000000083
40
0.125000000000016
40
0.125000000000016
40
0.250000000000024
40
0.250000000000024
40
0.312500000000023
40
0.312500000000023
40
0.375000000000022
40
0.375000000000022
40
0.43750000000002
40
0.43750000000002
40
0.500000000000019
40
0.500000000000019
40
0.625000000000016
40
0.625000000000016
40
0.687500000000014
40
0.687500000000014
40
0.750000000000011
40
0.750000000000011
40
0.812500000000008
40
0.812500000000008
40
0.875000000000005
40
0.875000000000005
40
0.937500000000003
40
0.937500000000003
40
1
40
1
40
1
40
1
41
1
10
37.6600046159326
20
-0.440465606970463
30
0
41
1
10
37.6574670179471
20
-0.471776993938903
30
0
41
1
10
37.651745790935
20
-0.505524183963303
30
0
41
1
10
37.6350929913491
20
-0.573315077322604
30
0
41
1
10
37.6241584993498
20
-0.607459799249341
30
0
41
1
10
37.587192751453
20
-0.703856834648718
30
0
41
1
10
37.5569656320759
20
-0.760768613371823
30
0
41
1
10
37.5131741152197
20
-0.824433035517643
30
1E-16
41
1
10
37.4985957699926
20
-0.842394286933654
30
1E-16
41
1
10
37.4706774077196
20
-0.870618563953116
30
1E-16
41
1
10
37.4573742670744
20
-0.880934935603563
30
1E-16
41
1
10
37.4318129004064
20
-0.894050038758365
30
1E-16
41
1
10
37.4197498705012
20
-0.896659916597514
30
1E-16
41
1
10
37.3975732005721
20
-0.893811194292056
30
1E-16
41
1
10
37.3872006966171
20
-0.888253726490632
30
1E-16
41
1
10
37.3596888322725
20
-0.859527243897446
30
1E-16
41
1
10
37.3454058118395
20
-0.823645797788203
30
1E-16
41
1
10
37.3332271870419
20
-0.748721166739699
30
0
41
1
10
37.3306954620788
20
-0.719769604398635
30
0
41
1
10
37.3296160256168
20
-0.657979512822862
30
0
41
1
10
37.3310706204863
20
-0.6239215746875
30
0
41
1
10
37.3385395628625
20
-0.555414060712167
30
0
41
1
10
37.3446733698715
20
-0.519998386832299
30
0
41
1
10
37.3613024682838
20
-0.453025868800523
30
0
41
1
10
37.3719551314802
20
-0.420841647701508
30
0
41
1
10
37.3962938503253
20
-0.363788221870152
30
0
41
1
10
37.4101926033636
20
-0.338342248890484
30
0
41
1
10
37.4393530156858
20
-0.295862268116906
30
0
41
1
10
37.4548983313336
20
-0.278353957476582
30
0
41
1
10
37.4704634764366
20
-0.264887814546711
30
0
0
SPLINE
5
E6
100
AcDbEntity
8
1
62
256
6
ByLayer
370
18
48
1
60
0
100
AcDbSpline
70
4
71
3
72
24
73
20
40
0
40
0
40
0
40
0
40
0.215494330712548
40
0.215494330712548
40
0.323241496068823
40
0.323241496068823
40
0.430988661425097
40
0.430988661425097
40
0.538735826781371
40
0.538735826781371
40
0.646482992137646
40
0.646482992137646
40
0.75423015749392
40
0.75423015749392
40
0.861977322850194
40
0.861977322850194
40
0.969724488206468
40
0.969724488206468
40
1
40
1
40
1
40
1
41
1
10
3.65715415153409
20
-0.520300128714496
30
0
41
1
10
4.00379757411025
20
-0.743494961899188
30
0
41
1
10
4.34865199721079
20
-0.954596049322817
30
1E-16
41
1
10
4.86815748406406
20
-1.2473128644194
30
1E-16
41
1
10
5.0416902743533
20
-1.34089700086639
30
1E-16
41
1
10
5.38972472676389
20
-1.51959188525151
30
1E-16
41
1
10
5.56433541286063
20
-1.60474509500395
30
1E-16
41
1
10
5.91127241350014
20
-1.76141809180348
30
1E-16
41
1
10
6.08432120875955
20
-1.83328194740685
30
-1E-16
41
1
10
6.42997633348804
20
-1.96391801607365
30
-1E-16
41
1
10
6.60255623360086
20
-2.02267577617678
30
-1E-16
41
1
10
6.94882579374371
20
-2.12569789258217
30
0
41
1
10
7.12256197076704
20
-2.16997186433664
30
0
41
1
10
7.47153581810579
20
-2.24349917601916
30
0
41
1
10
7.64496553632816
20
-2.27229571875796
30
0
41
1
10
7.9908198418392
20
-2.31339487275051
30
0
41
1
10
8.16333551188859
20
-2.32584302630073
30
0
41
1
10
8.38383967319575
20
-2.33150807012072
30
0
41
1
10
8.43217434766615
20
-2.33211018118908
30
0
41
1
10
8.48050280683603
20
-2.33207253165165
30
0
0
SPLINE
5
E7
100
AcDbEntity
8
1
62
256
6
ByLayer
370
18
48
1
60
0
100
AcDbSpline
70
4
71
3
72
52
73
48
40
0
40
0
40
0
40
0
40
0.0024021932713065
40
0.0024021932713065
40
0.0445553220254546
40
0.0445553220254546
40
0.128861579533751
40
0.128861579533751
40
0.149938143910825
40
0.149938143910825
40
0.1710147082879
40
0.1710147082879
40
0.21316783704205
40
0.21316783704205
40
0.297474094550351
40
0.297474094550351
40
0.339627223304502
40
0.339627223304502
40
0.381780352058653
40
0.381780352058653
40
0.466086609566954
40
0.466086609566954
40
0.508239738321104
40
0.508239738321104
40
0.550392867075254
40
0.550392867075254
40
0.592545995829405
40
0.592545995829405
40
0.634699124583555
40
0.634699124583555
40
0.676852253337708
40
0.676852253337708
40
0.719005382091861
40
0.719005382091861
40
0.761158510846014
40
0.761158510846014
40
0.803311639600167
40
0.803311639600167
40
0.84546476835432
40
0.84546476835432
40
0.887617897108473
40
0.887617897108473
40
0.929771025862625
40
0.929771025862625
40
0.971924154616778
40
0.971924154616778
40
1
40
1
40
1
40
1
41
1
10
18.6786856344101
20
2.23977192845666
30
0
41
1
10
18.6885724555813
20
2.2416380732154
30
0
41
1
10
18.6984543338164
20
2.24347792014487
30
0
41
1
10
18.8816384325571
20
2.27711166839555
30
0
41
1
10
19.0541137004055
20
2.30080244537007
30
0
41
1
10
19.5710339920454
20
2.3476215913588
30
0
41
1
10
19.913483330213
20
2.34665366629596
30
0
41
1
10
20.346027738776
20
2.30479716565605
30
0
41
1
10
20.4327350760074
20
2.29440245181633
30
0
41
1
10
20.6065229681833
20
2.26948380660136
30
0
41
1
10
20.6937651000465
20
2.25490118497564
30
0
41
1
10
20.9545577679488
20
2.2052868358756
30
0
41
1
10
21.1274855613176
20
2.16451830942
30
0
41
1
10
21.6450964307066
20
2.02086489039718
30
1E-16
41
1
10
21.9875118427246
20
1.89576910571372
30
1E-16
41
1
10
22.5052697915031
20
1.67101812301732
30
-1E-16
41
1
10
22.6783087068822
20
1.58970429499328
30
-1E-16
41
1
10
23.0262956312081
20
1.4148851617949
30
-1E-16
41
1
10
23.2002395864831
20
1.32251405522038
30
-1E-16
41
1
10
23.7188044990607
20
1.0344427099723
30
-1E-16
41
1
10
24.0611877769317
20
0.825847898080013
30
-1E-16
41
1
10
24.5781256366585
20
0.500232808335454
30
0
41
1
10
24.7506704440987
20
0.389093002718823
30
0
41
1
10
25.0973961789991
20
0.163218116562888
30
0
41
1
10
25.2722535924841
20
0.0489357180857439
30
0
41
1
10
25.6187775716282
20
-0.177206543211724
30
0
41
1
10
25.7910006506811
20
-0.289854842381089
30
0
41
1
10
26.1347168440365
20
-0.512229262787656
30
0
41
1
10
26.3066715172161
20
-0.621257965161533
30
0
41
1
10
26.6509342757087
20
-0.834813533600993
30
1E-16
41
1
10
26.8230535452648
20
-0.939609041303356
30
1E-16
41
1
10
27.1686352988942
20
-1.14311822415647
30
1E-16
41
1
10
27.3433894501138
20
-1.24151173019516
30
1E-16
41
1
10
27.690948129491
20
-1.42817999693648
30
1E-16
41
1
10
27.863430468109
20
-1.5166890422185
30
1E-16
41
1
10
28.2073843510496
20
-1.68222828104112
30
1E-16
41
1
10
28.3794431348655
20
-1.75863879795728
30
1E-16
41
1
10
28.7235269114283
20
-1.89924415751517
30
-1E-16
41
1
10
28.8953783502263
20
-1.9635612863801
30
-1E-16
41
1
10
29.2401462349819
20
-2.07860351584287
30
-1E-16
41
1
10
29.4136752471546
20
-2.12895755590154
30
0
41
1
10
29.7624997868155
20
-2.21507418688978
30
0
41
1
10
29.9353911043858
20
-2.25037562127884
30
0
41
1
10
30.2796344574606
20
-2.30486743971193
30
0
41
1
10
30.4515096132712
20
-2.32389672274431
30
0
41
1
10
30.7379627049437
20
-2.34220990072001
30
0
41
1
10
30.85248483794
20
-2.34598157832829
30
0
41
1
10
30.9671326423992
20
-2.34616525542594
30
0
0
SPLINE
5
E8
100
AcDbEntity
8
1
62
256
6
ByLayer
370
18
48
1
60
0
100
AcDbSpline
70
4
71
3
72
28
73
24
40
0
40
0
40
0
40
0
40
0.499898247802509
40
0.499898247802509
40
0.676335342337899
40
0.676335342337899
40
0.79115446237263
40
0.79115446237263
40
0.865954098623574
40
0.865954098623574
40
0.914744223499629
40
0.914744223499629
40
0.946597224197288
40
0.946597224197288
40
0.967405092292639
40
0.967405092292639
40
0.981003121905129
40
0.981003121905129
40
0.989891795467898
40
0.989891795467898
40
0.99677715710372
40
0.99677715710372
40
1
40
1
40
1
40
1
41
1
10
37.0328416568729
20
-2.34929061421616
30
0
41
1
10
37.0578949137225
20
-2.33312017249585
30
0
41
1
10
37.0830064089639
20
-2.3166963930299
30
0
41
1
10
37.1170545645472
20
-2.29414911503335
30
0
41
1
10
37.1259441874881
20
-2.28823664867306
30
0
41
1
10
37.1406317717054
20
-2.27842640448446
30
0
41
1
10
37.1464252898349
20
-2.27454609993802
30
0
41
1
10
37.1559989335885
20
-2.26811662144371
30
0
41
1
10
37.1597770207297
20
-2.26557486802702
30
0
41
1
10
37.1660220957211
20
-2.26136611394017
30
0
41
1
10
37.1684881756833
20
-2.2597022642199
30
0
41
1
10
37.172565405752
20
-2.25694829259285
30
0
41
1
10
37.1741761577485
20
-2.25585951139567
30
0
41
1
10
37.1768396282777
20
-2.25405783874473
30
0
41
1
10
37.1778921738383
20
-2.25334551869636
30
0
41
1
10
37.179632778386
20
-2.25216699059004
30
0
41
1
10
37.1803207626446
20
-2.25170102634829
30
0
41
1
10
37.1814585570686
20
-2.25093017285818
30
0
41
1
10
37.1819084591269
20
-2.25062530571472
30
0
41
1
10
37.1827061967399
20
-2.25008461838618
30
0
41
1
10
37.1830565122554
20
-2.24984716133253
30
0
41
1
10
37.1835297666442
20
-2.24952569755988
30
0
41
1
10
37.183674884387
20
-2.24942701572627
30
0
41
1
10
37.183807381494
20
-2.24933672489158
30
0
0
SPLINE
5
E9
100
AcDbEntity
8
1
62
256
6
ByLayer
370
18
48
1
60
0
100
AcDbSpline
70
4
71
3
72
12
73
8
40
0
40
0
40
0
40
0
40
0.079117202575086
40
0.079117202575086
40
0.539558601287543
40
0.539558601287543
40
1
40
1
40
1
40
1
41
1
10
37.4578596195641
20
-0.274931176888771
30
0
41
1
10
37.462708834427
20
-0.278900058806442
30
0
41
1
10
37.4676228198039
20
-0.282909909955748
30
0
41
1
10
37.5014074681334
20
-0.310437830485995
30
0
41
1
10
37.5320091719041
20
-0.335108281293486
30
0
41
1
10
37.5949804799917
20
-0.386382960382434
30
0
41
1
10
37.6274115516886
20
-0.413020552143877
30
0
41
1
10
37.6600046159326
20
-0.440465606970463
30
0
0
SPLINE
5
EA
100
AcDbEntity
8
1
62
256
6
ByLayer
370
18
48
1
60
0
100
AcDbSpline
70
4
71
3
72
28
73
24
40
0
40
0
40
0
40
0
40
0.0296350222665122
40
0.0296350222665122
40
0.119178098691514
40
0.119178098691514
40
0.208721175116515
40
0.208721175116515
40
0.298264251541516
40
0.298264251541516
40
0.477350404391519
40
0.477350404391519
40
0.566893480816522
40
0.566893480816522
40
0.656436557241524
40
0.656436557241524
40
0.745979633666526
40
0.745979633666526
40
0.835522710091529
40
0.835522710091529
40
0.925065786516532
40
0.925065786516532
40
1
40
1
40
1
40
1
41
1
10
19.6013298182085
20
2.23132787109188
30
0
41
1
10
19.6586209219708
20
2.23259668857852
30
0
41
1
10
19.715920912231
20
2.23304848355801
30
0
41
1
10
19.9464518548404
20
2.23159576181482
30
0
41
1
10
20.1201237557483
20
2.22243379700271
30
0
41
1
10
20.4696821129209
20
2.18730375900285
30
0
41
1
10
20.6445540753927
20
2.16205477256619
30
0
41
1
10
20.9939266249669
20
2.09716606354235
30
0
41
1
10
21.1677955849636
20
2.05691714712179
30
0
41
1
10
21.6873361693928
20
1.91516958720257
30
1E-16
41
1
10
22.0306798911372
20
1.79412697180777
30
-1E-16
41
1
10
22.5487167382936
20
1.57596607758666
30
-1E-16
41
1
10
22.721590850369
20
1.49747413270211
30
-1E-16
41
1
10
23.0689393344367
20
1.32978684337925
30
-1E-16
41
1
10
23.2442476427419
20
1.24002525900138
30
-1E-16
41
1
10
23.5918109819017
20
1.05399108112408
30
-1E-16
41
1
10
23.7645858402393
20
0.957335867580383
30
-1E-16
41
1
10
24.1094298979345
20
0.758466218590542
30
0
41
1
10
24.2816962108189
20
0.656313344155393
30
0
41
1
10
24.6265317427977
20
0.448031432020173
30
0
41
1
10
24.7988478537293
20
0.341665713778838
30
0
41
1
10
25.116547811613
20
0.144022662612173
30
0
41
1
10
25.2621572278292
20
0.0531730001461028
30
0
41
1
10
25.4082200152636
20
-0.037849269873675
30
0
0
SPLINE
5
EB
100
AcDbEntity
8
1
62
256
6
ByLayer
370
18
48
1
60
0
100
AcDbSpline
70
4
71
3
72
8
73
4
40
0
40
0
40
0
40
0
40
1
40
1
40
1
40
1
41
1
10
37.4704634764366
20
-0.264887814546824
30
0
41
1
10
37.3528918110718
20
-0.0749795825383615
30
0
41
1
10
37.2147406426229
20
0.133656625626315
30
0
41
1
10
37.0539792720594
20
0.362868808067759
30
0
0
SPLINE
5
EC
100
AcDbEntity
8
1
62
256
6
ByLayer
370
18
48
1
60
0
100
AcDbSpline
70
4
71
3
72
8
73
4
40
0
40
0
40
0
40
0
40
1
40
1
40
1
40
1
41
1
10
37.1888926902757
20
-2.24589730648583
30
0
41
1
10
37.1699411478801
20
-2.25951031964925
30
0
41
1
10
37.1560890065788
20
-2.26030188144705
30
0
41
1
10
37.1456128744203
20
-2.2492835743551
30
0
0
SPLINE
5
ED
100
AcDbEntity
8
1
62
256
6
ByLayer
370
18
48
1
60
0
100
AcDbSpline
70
4
71
3
72
8
73
4
40
0
40
0
40
0
40
0
40
1
40
1
40
1
40
1
41
1
10
3.54907545264788
20
-2.22641775404193
30
0
41
1
10
3.54853771353686
20
-2.25748171295763
30
0
41
1
10
3.5480095295552
20
-2.28854501624014
30
0
41
1
10
3.54749072879306
20
-2.31960771043825
30
0
0
SPLINE
5
EE
100
AcDbEntity
8
1
62
256
6
ByLayer
370
18
48
1
60
0
100
AcDbSpline
70
4
71
3
72
8
73
4
40
0
40
0
40
0
40
0
40
1
40
1
40
1
40
1
41
1
10
36.8412349700251
20
-0.159482450486053
30
0
41
1
10
36.8343710612779
20
-0.0465467737011238
30
0
41
1
10
36.8308887294422
20
0.066516421278692
30
0
41
1
10
36.832221241667
20
0.179745302920509
30
0
0
SPLINE
5
EF
100
AcDbEntity
8
1
62
256
6
ByLayer
370
18
48
1
60
0
100
AcDbSpline
70
4
71
3
72
8
73
4
40
0
40
0
40
0
40
0
40
1
40
1
40
1
40
1
41
1
10
14.5
20
-2.33465632313414
30
0
41
1
10
14.5383335025472
20
-2.33547822253959
30
0
41
1
10
14.5766587612456
20
-2.33589503774752
30
0
41
1
10
14.6149770503574
20
-2.33590867479657
30
0
0
SPLINE
5
F0
100
AcDbEntity
8
1
62
256
6
ByLayer
370
18
48
1
60
0
100
AcDbSpline
70
4
71
3
72
42
73
38
40
0
40
0
40
0
40
0
40
0.0546118689288435
40
0.0546118689288435
40
0.0861248066312169
40
0.0861248066312169
40
0.11763774433359
40
0.11763774433359
40
0.243689495143084
40
0.243689495143084
40
0.275202432845457
40
0.275202432845457
40
0.306715370547829
40
0.306715370547829
40
0.369741245952571
40
0.369741245952571
40
0.432767121357313
40
0.432767121357313
40
0.495792996762055
40
0.495792996762055
40
0.558818872166796
40
0.558818872166796
40
0.621844747571538
40
0.621844747571538
40
0.747896498381019
40
0.747896498381019
40
0.779409436083392
40
0.779409436083392
40
0.810922373785764
40
0.810922373785764
40
0.873948249190509
40
0.873948249190509
40
0.905461186892882
40
0.905461186892882
40
0.936974124595256
40
0.936974124595256
40
1
40
1
40
1
40
1
41
1
10
25.8691776208798
20
2.34295030914649
30
0
41
1
10
26.0712136839163
20
2.34292206167791
30
0
41
1
10
26.2732290016535
20
2.33172144469393
30
0
41
1
10
26.5931239144468
20
2.29637919281112
30
0
41
1
10
26.7104524150805
20
2.2797132095011
30
0
41
1
10
26.9460240788168
20
2.2388857616011
30
0
41
1
10
27.0644361012904
20
2.21466338433953
30
0
41
1
10
27.6526802838487
20
2.0765921123585
30
1E-16
41
1
10
28.1163394597677
20
1.91123627568089
30
1E-16
41
1
10
28.7006539186328
20
1.6482818164109
30
-1E-16
41
1
10
28.8177482635442
20
1.59286641740837
30
-1E-16
41
1
10
29.0527354882117
20
1.47666623630454
30
-1E-16
41
1
10
29.1708797232047
20
1.41574553065277
30
-1E-16
41
1
10
29.5250967420851
20
1.22642405774701
30
-1E-16
41
1
10
29.7603398437823
20
1.09185909951722
30
-1E-16
41
1
10
30.2317129974166
20
0.809672743686207
30
0
41
1
10
30.4683427517851
20
0.661680096786682
30
0
41
1
10
30.9370006199776
20
0.362010514180298
30
0
41
1
10
31.1700438628657
20
0.209792430989779
30
0
41
1
10
31.6361497133616
20
-0.0953902563136921
30
0
41
1
10
31.8691789785275
20
-0.248406663574514
30
0
41
1
10
32.3378693053432
20
-0.551140394839706
30
0
41
1
10
32.5748457838557
20
-0.701612429618081
30
0
41
1
10
33.2790486752446
20
-1.13227524370058
30
1E-16
41
1
10
33.7423231562726
20
-1.39402786465411
30
1E-16
41
1
10
34.3270462708214
20
-1.67236315410543
30
1E-16
41
1
10
34.444273315043
20
-1.72558225465639
30
1E-16
41
1
10
34.6796337056198
20
-1.82666846784303
30
-1E-16
41
1
10
34.797933359043
20
-1.87458551078396
30
-1E-16
41
1
10
35.1516332620346
20
-2.00845842426014
30
-1E-16
41
1
10
35.3867635259448
20
-2.08496253908552
30
-1E-16
41
1
10
35.7405033240811
20
-2.17907964586197
30
0
41
1
10
35.8587806866762
20
-2.2070468662981
30
0
41
1
10
36.094427423766
20
-2.25553575234082
30
0
41
1
10
36.2119219228542
20
-2.27610207646677
30
0
41
1
10
36.5639405298536
20
-2.32667298202577
30
0
41
1
10
36.7980084024623
20
-2.34555189660008
30
0
41
1
10
37.0328416568728
20
-2.34929061422514
30
0
0
SPLINE
5
F1
100
AcDbEntity
8
1
62
256
6
ByLayer
370
18
48
1
60
0
100
AcDbSpline
70
4
71
3
72
8
73
4
40
0
40
0
40
0
40
0
40
1
40
1
40
1
40
1
41
1
10
37.0230917250591
20
-2.31735984755582
30
0
41
1
10
37.0637964528883
20
-2.29534467575186
30
0
41
1
10
37.1046303361628
20
-2.27264809452154
30
0
41
1
10
37.1456128744202
20
-2.2492835743551
30
0
0
SPLINE
5
F2
100
AcDbEntity
8
1
62
256
6
ByLayer
370
18
48
1
60
0
100
AcDbSpline
70
4
71
3
72
8
73
4
40
0
40
0
40
0
40
0
40
1
40
1
40
1
40
1
41
1
10
37.4177289019474
20
0.632590568988945
30
0
41
1
10
37.5483458039064
20
0.654627705307234
30
0
41
1
10
37.6781245805526
20
0.683226538181088
30
0
41
1
10
37.802147075888
20
0.728490135644904
30
0
0
SPLINE
5
F3
100
AcDbEntity
8
1
62
256
6
ByLayer
370
18
48
1
60
0
100
AcDbSpline
70
4
71
3
72
14
73
10
40
0
40
0
40
0
40
0
40
0.25599364359433
40
0.25599364359433
40
0.539968724543285
40
0.539968724543285
40
0.826879202951686
40
0.826879202951686
40
1
40
1
40
1
40
1
41
1
10
36.8922646448119
20
-0.18368542657214
30
0
41
1
10
36.8929729023003
20
-0.183999318419524
30
0
41
1
10
36.8936622265664
20
-0.184696966125529
30
0
41
1
10
36.8949553181741
20
-0.186627479531836
30
0
41
1
10
36.8955676048729
20
-0.187945157949514
30
0
41
1
10
36.8965846294239
20
-0.190923955431202
30
0
41
1
10
36.8970026971666
20
-0.192633840286618
30
0
41
1
10
36.8974526748098
20
-0.195531069492375
30
0
41
1
10
36.8975743019137
20
-0.196677416146287
30
0
41
1
10
36.8976323896975
20
-0.19783274068763
30
0
0
SPLINE
5
F4
100
AcDbEntity
8
1
62
256
6
ByLayer
370
18
48
1
60
0
100
AcDbSpline
70
4
71
3
72
34
73
30
40
0
40
0
40
0
40
0
40
0.0363964108948814
40
0.0363964108948814
40
0.118092517580902
40
0.118092517580902
40
0.158940570923915
40
0.158940570923915
40
0.199788624266927
40
0.199788624266927
40
0.363180837638972
40
0.363180837638972
40
0.404028890981983
40
0.404028890981983
40
0.444876944324993
40
0.444876944324993
40
0.526573051011011
40
0.526573051011011
40
0.608269157697028
40
0.608269157697028
40
0.649117211040037
40
0.649117211040037
40
0.689965264383046
40
0.689965264383046
40
0.771661371069065
40
0.771661371069065
40
0.853357477755084
40
0.853357477755084
40
1
40
1
40
1
40
1
41
1
10
31.8318653233573
20
-0.222397760558636
30
0
41
1
10
31.7261515743135
20
-0.156316175242608
30
0
41
1
10
31.6199795766577
20
-0.0896899652276204
30
0
41
1
10
31.2763432290072
20
0.126146530295557
30
0
41
1
10
31.0394564082425
20
0.275261533358645
30
0
41
1
10
30.6833139428854
20
0.495281094601864
30
0
41
1
10
30.5642000439985
20
0.568148571144917
30
0
41
1
10
30.3266496721605
20
0.71123958102163
30
0
41
1
10
30.2083387009429
20
0.781400087498724
30
0
41
1
10
29.6184032140239
20
1.12460430876482
30
-1E-16
41
1
10
29.1514600443912
20
1.37407422480049
30
-1E-16
41
1
10
28.5611898360484
20
1.6374749469943
30
-1E-16
41
1
10
28.4428401617196
20
1.68782002306085
30
-1E-16
41
1
10
28.2051337740567
20
1.78306572958397
30
-1E-16
41
1
10
28.086146419144
20
1.82784303520486
30
1E-16
41
1
10
27.7312632028965
20
1.9522914351767
30
1E-16
41
1
10
27.4962031806324
20
2.02220474079923
30
0
41
1
10
27.0267730119292
20
2.13519352821467
30
0
41
1
10
26.7923681154535
20
2.17826491050349
30
0
41
1
10
26.4392378861518
20
2.22173426334999
30
0
41
1
10
26.3212653165736
20
2.23266286054627
30
0
41
1
10
26.0844607128135
20
2.24723405411018
30
0
41
1
10
25.9653692479639
20
2.2508902497311
30
0
41
1
10
25.6086935800267
20
2.25079350516816
30
0
41
1
10
25.3718331032153
20
2.23575221321769
30
0
41
1
10
24.8971467174623
20
2.1762145871005
30
0
41
1
10
24.6587014061314
20
2.13144282217147
30
0
41
1
10
23.9987418505683
20
1.97042017364487
30
1E-16
41
1
10
23.5792465530645
20
1.82413970909673
30
-1E-16
41
1
10
23.1566176129185
20
1.64251562499095
30
-1E-16
0
SPLINE
5
F5
100
AcDbEntity
8
1
62
256
6
ByLayer
370
18
48
1
60
0
100
AcDbSpline
70
4
71
3
72
40
73
36
40
0
40
0
40
0
40
0
40
0.107764876491966
40
0.107764876491966
40
0.234023067493259
40
0.234023067493259
40
0.297152162993905
40
0.297152162993905
40
0.328716710744228
40
0.328716710744228
40
0.360281258494551
40
0.360281258494551
40
0.391845806244874
40
0.391845806244874
40
0.423410353995197
40
0.423410353995197
40
0.486539449495845
40
0.486539449495845
40
0.549668544996492
40
0.549668544996492
40
0.581233092746815
40
0.581233092746815
40
0.612797640497138
40
0.612797640497138
40
0.73905583149843
40
0.73905583149843
40
0.802184926999076
40
0.802184926999076
40
0.865314022499722
40
0.865314022499722
40
0.928443118000368
40
0.928443118000368
40
0.991572213501014
40
0.991572213501014
40
1
40
1
40
1
40
1
41
1
10
14.7078951850062
20
2.33515228398684
30
0
41
1
10
15.1115853412273
20
2.32843968132033
30
0
41
1
10
15.5146159177228
20
2.2771250392399
30
0
41
1
10
16.3916463228499
20
2.07367549574383
30
1E-16
41
1
10
16.8566314611909
20
1.90887121572828
30
1E-16
41
1
10
17.5571546567261
20
1.59526924961827
30
-1E-16
41
1
10
17.791207830006
20
1.47964455385548
30
-1E-16
41
1
10
18.1451803471793
20
1.29151357405209
30
-1E-16
41
1
10
18.2636415509444
20
1.2263484657617
30
-1E-16
41
1
10
18.4997215651859
20
1.09266969802184
30
-1E-16
41
1
10
18.617602091963
20
1.02401119820297
30
-1E-16
41
1
10
18.853371966576
20
0.883510552137324
30
-1E-16
41
1
10
18.9712623496448
20
0.811669541460134
30
0
41
1
10
19.2074137957082
20
0.665300171862611
30
0
41
1
10
19.3257846448599
20
0.590698569044662
30
0
41
1
10
19.6788590661325
20
0.365677706022979
30
0
41
1
10
19.9125642657243
20
0.213465889030772
30
0
41
1
10
20.379292239142
20
-0.0912040420124924
30
0
41
1
10
20.612288506978
20
-0.243703456752058
30
0
41
1
10
20.9631658698422
20
-0.469690281520855
30
0
41
1
10
21.0803560760648
20
-0.544557866144004
30
0
41
1
10
21.3155264597952
20
-0.692859662504077
30
0
41
1
10
21.4338606001428
20
-0.766505824824094
30
0
41
1
10
22.0235461709466
20
-1.12664583735784
30
1E-16
41
1
10
22.4878200547046
20
-1.38793943440081
30
1E-16
41
1
10
23.1885313996574
20
-1.72082586031652
30
1E-16
41
1
10
23.4228237575209
20
-1.82191270565284
30
-1E-16
41
1
10
23.8956771867017
20
-2.00072059922414
30
-1E-16
41
1
10
24.1312563314886
20
-2.07729285273143
30
-1E-16
41
1
10
24.6026674584265
20
-2.20280176717435
30
0
41
1
10
24.8395708923193
20
-2.25183734340286
30
0
41
1
10
25.309245156092
20
-2.31941449074841
30
0
41
1
10
25.5425961385409
20
-2.33822848587735
30
0
41
1
10
25.8069220630161
20
-2.34269381121746
30
0
41
1
10
25.8380500884825
20
-2.34295466121469
30
0
41
1
10
25.869177621511
20
-2.34295030914643
30
0
0
SPLINE
5
F6
100
AcDbEntity
8
1
62
256
6
ByLayer
370
18
48
1
60
0
100
AcDbSpline
70
4
71
3
72
34
73
30
40
0
40
0
40
0
40
0
40
0.124999999999998
40
0.124999999999998
40
0.187499999999998
40
0.187499999999998
40
0.249999999999997
40
0.249999999999997
40
0.374999999999995
40
0.374999999999995
40
0.437499999999995
40
0.437499999999995
40
0.468749999999995
40
0.468749999999995
40
0.499999999999995
40
0.499999999999995
40
0.624999999999994
40
0.624999999999994
40
0.687499999999994
40
0.687499999999994
40
0.718749999999995
40
0.718749999999995
40
0.749999999999995
40
0.749999999999995
40
0.874999999999999
40
0.874999999999999
40
0.937499999999999
40
0.937499999999999
40
1
40
1
40
1
40
1
41
1
10
5.29752822745769
20
1.97848990139949
30
1E-16
41
1
10
5.68459175417371
20
1.84571375857914
30
1E-16
41
1
10
6.06647098482114
20
1.67986221688963
30
-1E-16
41
1
10
6.640908769714
20
1.39238069593799
30
-1E-16
41
1
10
6.83256439205402
20
1.28999118563928
30
-1E-16
41
1
10
7.21779619054112
20
1.0738182597176
30
-1E-16
41
1
10
7.41156049714513
20
0.95983598089316
30
-1E-16
41
1
10
7.98748127039804
20
0.610332552950752
30
0
41
1
10
8.36761480551911
20
0.36507448316388
30
0
41
1
10
8.94069438293499
20
-0.0079408433568631
30
0
41
1
10
9.13224970169182
20
-0.133058826334604
30
0
41
1
10
9.42143441010438
20
-0.320287100375481
30
0
41
1
10
9.51830614448897
20
-0.382742427078142
30
0
41
1
10
9.71103625029656
20
-0.506094482560172
30
0
41
1
10
9.80708571420578
20
-0.567100287449307
30
0
41
1
10
10.2862889702989
20
-0.868041023194195
30
1E-16
41
1
10
10.6662947001969
20
-1.09578012387186
30
1E-16
41
1
10
11.2396512000865
20
-1.40619815928599
30
1E-16
41
1
10
11.4313559589187
20
-1.50442827723376
30
1E-16
41
1
10
11.7208944827948
20
-1.64232602194855
30
1E-16
41
1
10
11.8176137836838
20
-1.68662906785462
30
1E-16
41
1
10
12.0100586294951
20
-1.77099674004947
30
1E-16
41
1
10
12.1059967981841
20
-1.81118325210738
30
1E-16
41
1
10
12.5846873183267
20
-2.00186373182004
30
-1E-16
41
1
10
12.9643865608024
20
-2.12164621732984
30
-1E-16
41
1
10
13.5382381154318
20
-2.24550236779322
30
0
41
1
10
13.7301830677376
20
-2.2775196912103
30
0
41
1
10
14.1168480652324
20
-2.32179178612466
30
0
41
1
10
14.3087721055981
20
-2.33370222538284
30
0
41
1
10
14.4999999999896
20
-2.33560687586413
30
0
0
SPLINE
5
F7
100
AcDbEntity
8
1
62
256
6
ByLayer
370
18
48
1
60
0
100
AcDbSpline
70
4
71
3
72
28
73
24
40
0
40
0
40
0
40
0
40
0.499898247813868
40
0.499898247813868
40
0.676335342345173
40
0.676335342345173
40
0.791154462377775
40
0.791154462377775
40
0.865954098626941
40
0.865954098626941
40
0.914744223501976
40
0.914744223501976
40
0.946597224199002
40
0.946597224199002
40
0.96740509229406
40
0.96740509229406
40
0.981003121906213
40
0.981003121906213
40
0.989891795468711
40
0.989891795468711
40
0.996777157103498
40
0.996777157103498
40
1
40
1
40
1
40
1
41
1
10
37.0328416568696
20
2.34929061421829
30
0
41
1
10
37.0578949137202
20
2.33312017249733
30
0
41
1
10
37.0830064089628
20
2.31669639303064
30
0
41
1
10
37.1170545645472
20
2.29414911503338
30
0
41
1
10
37.1259441874881
20
2.28823664867306
30
0
41
1
10
37.1406317717053
20
2.27842640448446
30
0
41
1
10
37.1464252898349
20
2.27454609993802
30
0
41
1
10
37.1559989335885
20
2.26811662144371
30
0
41
1
10
37.1597770207297
20
2.26557486802702
30
0
41
1
10
37.1660220957211
20
2.2613661139402
30
0
41
1
10
37.1684881756832
20
2.2597022642199
30
0
41
1
10
37.172565405752
20
2.25694829259285
30
0
41
1
10
37.1741761577485
20
2.2558595113957
30
0
41
1
10
37.1768396282777
20
2.25405783874476
30
0
41
1
10
37.1778921738383
20
2.25334551869636
30
0
41
1
10
37.179632778386
20
2.25216699059007
30
0
41
1
10
37.1803207626446
20
2.25170102634826
30
0
41
1
10
37.1814585570686
20
2.25093017285818
30
0
41
1
10
37.1819084591269
20
2.25062530571469
30
0
41
1
10
37.1827061967398
20
2.25008461838621
30
0
41
1
10
37.1830565122553
20
2.24984716133258
30
0
41
1
10
37.1835297666441
20
2.24952569755993
30
0
41
1
10
37.1836748843869
20
2.24942701572633
30
0
41
1
10
37.183807381494
20
2.24933672489163
30
0
0
SPLINE
5
F8
100
AcDbEntity
8
1
62
256
6
ByLayer
370
18
48
1
60
0
100
AcDbSpline
70
4
71
3
72
62
73
58
40
0
40
0
40
0
40
0
40
0.0100834151776877
40
0.0100834151776877
40
0.044200985914517
40
0.044200985914517
40
0.0783185566513464
40
0.0783185566513464
40
0.095377342019761
40
0.095377342019761
40
0.112436127388176
40
0.112436127388176
40
0.113502301473702
40
0.113502301473702
40
0.114035388516465
40
0.114035388516465
40
0.114568475559228
40
0.114568475559228
40
0.116700823730279
40
0.116700823730279
40
0.120965520072383
40
0.120965520072383
40
0.12949491275659
40
0.12949491275659
40
0.146553698125005
40
0.146553698125005
40
0.180671268861834
40
0.180671268861834
40
0.248906410335493
40
0.248906410335493
40
0.38537669328281
40
0.38537669328281
40
0.453611834756468
40
0.453611834756468
40
0.470670620124883
40
0.470670620124883
40
0.47920001280909
40
0.47920001280909
40
0.483464709151194
40
0.483464709151194
40
0.485597057322245
40
0.485597057322245
40
0.487729405493297
40
0.487729405493297
40
0.48826249253606
40
0.48826249253606
40
0.488795579578823
40
0.488795579578823
40
0.489861753664349
40
0.489861753664349
40
0.491994101835401
40
0.496258798177505
40
0.504788190861712
40
0.521846976230128
40
0.794787542124771
40
0.794787542124771
40
1
40
1
40
1
40
1
41
1
10
5.29752822745803
20
1.97848990139599
30
1E-16
41
1
10
5.29949524753891
20
1.95800477172196
30
1E-16
41
1
10
5.30045014030844
20
1.93734534881929
30
1E-16
41
1
10
5.29962578167692
20
1.84644902933573
30
1E-16
41
1
10
5.28655954751545
20
1.77637390609675
30
0
41
1
10
5.24830207625735
20
1.62915595825376
30
0
41
1
10
5.22344852207772
20
1.55147030245882
30
0
41
1
10
5.17566790731743
20
1.43113437692077
30
0
41
1
10
5.15864156354826
20
1.39023675005782
30
0
41
1
10
5.12007804325756
20
1.30817945525661
30
0
41
1
10
5.0986343521304
20
1.26689099962778
30
0
41
1
10
5.07416384423854
20
1.22273045467628
30
0
41
1
10
5.07271821976593
20
1.22013176632649
30
0
41
1
10
5.07054066163249
20
1.21623212912959
30
0
41
1
10
5.06997544763107
20
1.21470521755958
30
0
41
1
10
5.07120826305876
20
1.21158774936717
30
0
41
1
10
5.07227386936964
20
1.21019807706753
30
0
41
1
10
5.07774171019554
20
1.20351243871212
30
0
41
1
10
5.08297255769475
20
1.19896165709687
30
0
41
1
10
5.09848836281122
20
1.1852128214245
30
0
41
1
10
5.1091876592462
20
1.1764643978685
30
0
41
1
10
5.1414122101757
20
1.15042764061917
30
0
41
1
10
5.16321684745498
20
1.13347268241876
30
0
41
1
10
5.22883631524613
20
1.0829236959882
30
0
41
1
10
5.27293579607078
20
1.04972702863668
30
0
41
1
10
5.40553154736236
20
0.950569811876051
30
0
41
1
10
5.49437825013024
20
0.885110596993769
30
0
41
1
10
5.76121111022192
20
0.689293955059668
30
0
41
1
10
5.9394277253798
20
0.559374203583047
30
0
41
1
10
6.47355214485287
20
0.169391406072236
30
0
41
1
10
6.82937302285791
20
-0.090322860446264
30
0
41
1
10
7.36304106978705
20
-0.478344627636261
30
0
41
1
10
7.54116179121957
20
-0.607176181363116
30
0
41
1
10
7.7620481658634
20
-0.77006034344879
30
0
41
1
10
7.80613832900619
20
-0.802739901097254
30
0
41
1
10
7.87180361280329
20
-0.852238669198726
30
1E-16
41
1
10
7.89361735277794
20
-0.868808750155949
30
1E-16
41
1
10
7.92600255509493
20
-0.89399007849596
30
1E-16
41
1
10
7.93674566463537
20
-0.902434330604137
30
1E-16
41
1
10
7.95263625026533
20
-0.915320659002418
30
-1E-16
41
1
10
7.95789769204686
20
-0.919650859009522
30
-1E-16
41
1
10
7.96823172041269
20
-0.928497247925833
30
-1E-16
41
1
10
7.97353472255392
20
-0.932908421791439
30
-1E-16
41
1
10
7.9789981557565
20
-0.939188332491824
30
-1E-16
41
1
10
7.98026148789674
20
-0.940546667007027
30
-1E-16
41
1
10
7.9805546256087
20
-0.943324338771163
30
-1E-16
41
1
10
7.97828980308449
20
-0.94328133335776
30
-1E-16
41
1
10
7.9734161081135
20
-0.9427046258443
30
-1E-16
41
1
10
7.97014672994027
20
-0.942136345739158
30
-1E-16
41
1
10
7.96036626015325
20
-0.940676951131593
30
-1E-16
41
1
10
7.94080656210468
20
-0.937753646647792
30
-1E-16
41
1
10
7.89517603055194
20
-0.930900998386846
30
-1E-16
41
1
10
7.80394962012286
20
-0.917069154723947
30
-1E-16
41
1
10
6.89239817591519
20
-0.776223273868169
30
0
41
1
10
6.01468868536284
20
-0.61142051158771
30
0
41
1
10
4.5811328342603
20
-0.295785330747378
30
0
41
1
10
3.97041105051818
20
-0.146216497878385
30
0
41
1
10
3.36374678217749
20
0.0171320649862139
30
0
0
SPLINE
5
F9
100
AcDbEntity
8
1
62
256
6
ByLayer
370
18
48
1
60
0
100
AcDbSpline
70
4
71
3
72
8
73
4
40
0
40
0
40
0
40
0
40
1
40
1
40
1
40
1
41
1
10
37.1547947689877
20
-2.22367019479336
30
0
41
1
10
37.1517223841983
20
-2.23220914756123
30
0
41
1
10
37.1486616839084
20
-2.24074690217276
30
0
41
1
10
37.1456128744204
20
-2.24928357435519
30
0
0
SPLINE
5
FA
100
AcDbEntity
8
1
62
256
6
ByLayer
370
18
48
1
60
0
100
AcDbSpline
70
4
71
3
72
16
73
12
40
0
40
0
40
0
40
0
40
0.0875953512591039
40
0.0875953512591039
40
0.315696513444328
40
0.315696513444328
40
0.543797675629552
40
0.543797675629552
40
0.771898837814776
40
0.771898837814776
40
1
40
1
40
1
40
1
41
1
10
36.9310778049825
20
0.466639218028405
30
0
41
1
10
36.9416176140408
20
0.469843539046423
30
0
41
1
10
36.9524935292866
20
0.47348540954755
30
0
41
1
10
36.9926817443127
20
0.488064006136625
30
0
41
1
10
37.0239778337486
20
0.501263748327489
30
0
41
1
10
37.0928558631861
20
0.529863866483964
30
0
41
1
10
37.1291358433886
20
0.544914992886248
30
0
41
1
10
37.2058944687562
20
0.574526400630504
30
0
41
1
10
37.2468657684752
20
0.589202246631373
30
0
41
1
10
37.3305827434688
20
0.61449443323383
30
0
41
1
10
37.3735133558079
20
0.625130707340219
30
0
41
1
10
37.4177289019473
20
0.632590568989457
30
0
0
SPLINE
5
FB
100
AcDbEntity
8
1
62
256
6
ByLayer
370
18
48
1
60
0
100
AcDbSpline
70
4
71
3
72
10
73
6
40
0
40
0
40
0
40
0
40
0.5
40
0.5
40
1
40
1
40
1
40
1
41
1
10
37.0539792720593
20
0.362868808067702
30
0
41
1
10
37.0142424723562
20
0.341913973651685
30
0
41
1
10
36.975630858463
20
0.316349297263201
30
0
41
1
10
36.9013629074508
20
0.255840405255242
30
0
41
1
10
36.865582553106
20
0.220490895373501
30
0
41
1
10
36.832221241667
20
0.179745302920537
30
0
0
SPLINE
5
FC
100
AcDbEntity
8
1
62
256
6
ByLayer
370
18
48
1
60
0
100
AcDbSpline
70
4
71
3
72
8
73
4
40
0
40
0
40
0
40
0
40
1
40
1
40
1
40
1
41
1
10
3.60225813942728
20
-2.20465131348786
30
0
41
1
10
3.82247135672242
20
-2.21596560781131
30
0
41
1
10
4.0417832211993
20
-2.2144980236524
30
0
41
1
10
4.26111132880496
20
-2.20052283341872
30
0
0
SPLINE
5
FD
100
AcDbEntity
8
1
62
256
6
ByLayer
370
18
48
1
60
0
100
AcDbSpline
70
4
71
3
72
24
73
20
40
0
40
0
40
0
40
0
40
0.0056518912351222
40
0.0056518912351222
40
0.353294269859891
40
0.353294269859891
40
0.396749567187988
40
0.396749567187988
40
0.440204864516084
40
0.440204864516084
40
0.527115459172277
40
0.527115459172277
40
0.700936648484662
40
0.700936648484662
40
0.787847243140856
40
0.787847243140856
40
0.874757837797048
40
0.874757837797048
40
1
40
1
40
1
40
1
41
1
10
20.380287618518
20
0.237327411249623
30
0
41
1
10
20.3917446711306
20
0.230259503776836
30
0
41
1
10
20.4032027186436
20
0.223187163306392
30
0
41
1
10
21.119484767401
20
-0.219150098272706
30
0
41
1
10
21.8073821491414
20
-0.656015492900167
30
0
41
1
10
22.5988654802121
20
-1.09080604044939
30
1E-16
41
1
10
22.6871793211248
20
-1.13835254227061
30
1E-16
41
1
10
22.8629875328425
20
-1.23076050783141
30
1E-16
41
1
10
22.950643439857
20
-1.27574230921709
30
1E-16
41
1
10
23.2130378770078
20
-1.40693683651639
30
1E-16
41
1
10
23.3872119626385
20
-1.48941391578492
30
1E-16
41
1
10
23.9090852419231
20
-1.72013981158079
30
1E-16
41
1
10
24.2562395698084
20
-1.85086209282545
30
-1E-16
41
1
10
24.7815830311341
20
-2.00733746953168
30
0
41
1
10
24.95833162914
20
-2.05262445647389
30
0
41
1
10
25.30948633233
20
-2.12760013049348
30
0
41
1
10
25.4841079131304
20
-2.15749980980652
30
0
41
1
10
25.9093662226801
20
-2.21157747964122
30
0
41
1
10
26.1595893600865
20
-2.2270487185728
30
0
41
1
10
26.4104360015201
20
-2.22615749211968
30
0
0
SPLINE
5
FE
100
AcDbEntity
8
1
62
256
6
ByLayer
370
18
48
1
60
0
100
AcDbSpline
70
4
71
3
72
20
73
16
40
0
40
0
40
0
40
0
40
0.125
40
0.125
40
0.25
40
0.25
40
0.375
40
0.375
40
0.5
40
0.5
40
0.625
40
0.625
40
0.75
40
0.75
40
1
40
1
40
1
40
1
41
1
10
36.8976323896981
20
-0.197832740699937
30
0
41
1
10
36.9039897012812
20
-0.324275128523397
30
0
41
1
10
36.9144404105865
20
-0.447620088396775
30
0
41
1
10
36.939456655729
20
-0.688780098241011
30
0
41
1
10
36.9540765842323
20
-0.806845150336812
30
0
41
1
10
36.9843889147804
20
-1.03644816677829
30
1E-16
41
1
10
36.9997007058637
20
-1.14530041497085
30
1E-16
41
1
10
37.0286169923374
20
-1.35173832789238
30
1E-16
41
1
10
37.0422634403851
20
-1.44958866825092
30
1E-16
41
1
10
37.0667584758745
20
-1.63237856202639
30
1E-16
41
1
10
37.0773331239154
20
-1.71527281101251
30
1E-16
41
1
10
37.0957200668534
20
-1.86459060300612
30
-1E-16
41
1
10
37.1035412149614
20
-1.93113534933641
30
-1E-16
41
1
10
37.1252634144935
20
-2.10392087293013
30
0
41
1
10
37.1363901236007
20
-2.1784647498057
30
0
41
1
10
37.1572311932855
20
-2.21241399042873
30
0
0
SPLINE
5
FF
100
AcDbEntity
8
1
62
256
6
ByLayer
370
18
48
1
60
0
100
AcDbSpline
70
4
71
3
72
24
73
20
40
0
40
0
40
0
40
0
40
0.027792527149418
40
0.027792527149418
40
0.116303763519419
40
0.116303763519419
40
0.293326236259422
40
0.293326236259422
40
0.381837472629424
40
0.381837472629424
40
0.470348708999426
40
0.470348708999426
40
0.647371181739429
40
0.647371181739429
40
0.824393654479432
40
0.824393654479432
40
0.912904890849434
40
0.912904890849434
40
1
40
1
40
1
40
1
41
1
10
9.21790424027222
20
0.182930639342601
30
0
41
1
10
9.27296205969978
20
0.148990142309259
30
0
41
1
10
9.3280942754341
20
0.114925284887761
30
0
41
1
10
9.55918659611143
20
-0.0280476468579138
30
0
41
1
10
9.73610537143713
20
-0.137864483564187
30
0
41
1
10
10.2626191886593
20
-0.46132940987556
30
0
41
1
10
10.6100348536087
20
-0.671805218051588
30
0
41
1
10
11.1330512530055
20
-0.969466340671545
30
1E-16
41
1
10
11.3075610760723
20
-1.06578686540328
30
1E-16
41
1
10
11.6579826224273
20
-1.2508867764852
30
1E-16
41
1
10
11.834645167143
20
-1.33998181715941
30
1E-16
41
1
10
12.3631562154012
20
-1.59102697161467
30
1E-16
41
1
10
12.7110440566271
20
-1.73552252956699
30
1E-16
41
1
10
13.4078316519095
20
-1.97283174415119
30
-1E-16
41
1
10
13.7559869279029
20
-2.06471319498868
30
0
41
1
10
14.2849717039124
20
-2.15839585805728
30
0
41
1
10
14.4611632164057
20
-2.18178715061566
30
0
41
1
10
14.8081531119557
20
-2.21165573242371
30
0
41
1
10
14.979673273692
20
-2.21897728713196
30
0
41
1
10
15.1510838472119
20
-2.21887831396168
30
0
0
SPLINE
5
100
100
AcDbEntity
8
1
62
256
6
ByLayer
370
18
48
1
60
0
100
AcDbSpline
70
4
71
3
72
8
73
4
40
0
40
0
40
0
40
0
40
1
40
1
40
1
40
1
41
1
10
26.3060280114862
20
2.22558284701157
30
0
41
1
10
26.3408212445867
20
2.22608971192966
30
0
41
1
10
26.3756226185146
20
2.22628117967596
30
0
41
1
10
26.410436001672
20
2.22615749211914
30
0
0
SPLINE
5
101
100
AcDbEntity
8
1
62
256
6
ByLayer
370
18
48
1
60
0
100
AcDbSpline
70
4
71
3
72
24
73
20
40
0
40
0
40
0
40
0
40
0.0327889122390388
40
0.0327889122390388
40
0.129510021015132
40
0.129510021015132
40
0.226231129791224
40
0.226231129791224
40
0.419673347343416
40
0.419673347343416
40
0.516394456119511
40
0.516394456119511
40
0.613115564895607
40
0.613115564895607
40
0.806557782447804
40
0.806557782447804
40
0.903278891223901
40
0.903278891223901
40
1
40
1
40
1
40
1
41
1
10
31.7548709757074
20
0.161223814123929
30
0
41
1
10
31.8138767158089
20
0.124504032077425
30
0
41
1
10
31.872980205482
20
0.0876640876600163
30
0
41
1
10
32.1069042752319
20
-0.0581770745161521
30
0
41
1
10
32.2836635614387
20
-0.168161893494983
30
0
41
1
10
32.6344777578387
20
-0.38475133719021
30
0
41
1
10
32.8086579436374
20
-0.491427962507004
30
0
41
1
10
33.3292058951534
20
-0.804177962525472
30
0
41
1
10
33.6740169205831
20
-1.00253063400962
30
1E-16
41
1
10
34.1931491135494
20
-1.27671532740945
30
1E-16
41
1
10
34.3665477565439
20
-1.36418007158687
30
1E-16
41
1
10
34.7151215226161
20
-1.52967044261231
30
1E-16
41
1
10
34.8908201278026
20
-1.60792730016175
30
1E-16
41
1
10
35.418540093884
20
-1.8246867526824
30
-1E-16
41
1
10
35.765848024784
20
-1.94310873988505
30
-1E-16
41
1
10
36.2866979856683
20
-2.07751829042365
30
0
41
1
10
36.4602608710619
20
-2.11510412121575
30
0
41
1
10
36.8080344530652
20
-2.17517328878768
30
0
41
1
10
36.9822139267538
20
-2.19738659411945
30
0
41
1
10
37.1572311932855
20
-2.21241399042873
30
0
0
SPLINE
5
102
100
AcDbEntity
8
1
62
256
6
ByLayer
370
18
48
1
60
0
100
AcDbSpline
70
4
71
3
72
8
73
4
40
0
40
0
40
0
40
0
40
1
40
1
40
1
40
1
41
1
10
37.1888926902757
20
2.24589730648583
30
0
41
1
10
37.1699411478801
20
2.25951031964925
30
0
41
1
10
37.1560890065788
20
2.26030188144699
30
0
41
1
10
37.1456128744204
20
2.24928357435502
30
0
0
SPLINE
5
103
100
AcDbEntity
8
1
62
256
6
ByLayer
370
18
48
1
60
0
100
AcDbSpline
70
4
71
3
72
14
73
10
40
0
40
0
40
0
40
0
40
0.254809676224176
40
0.254809676224176
40
0.382214514336263
40
0.382214514336263
40
0.509619352448351
40
0.509619352448351
40
1
40
1
40
1
40
1
41
1
10
37.1838073814939
20
2.24933672489143
30
0
41
1
10
36.9457383445623
20
2.25254091367819
30
0
41
1
10
36.7082010952407
20
2.24108481797521
30
0
41
1
10
36.3516119979132
20
2.20192937359948
30
0
41
1
10
36.2324076455511
20
2.18519064880999
30
0
41
1
10
35.9948716519018
20
2.14469799160813
30
0
41
1
10
35.8765565752057
20
2.12098380247608
30
0
41
1
10
35.3044247992042
20
1.98974757519864
30
1E-16
41
1
10
34.8550581225145
20
1.83546152081445
30
1E-16
41
1
10
34.400846622099
20
1.64004974418253
30
0
0
SPLINE
5
104
100
AcDbEntity
8
1
62
256
6
ByLayer
370
18
48
1
60
0
100
AcDbSpline
70
4
71
3
72
24
73
20
40
0
40
0
40
0
40
0
40
0.109825361419347
40
0.109825361419347
40
0.221097191241928
40
0.221097191241928
40
0.33236902106451
40
0.33236902106451
40
0.554912680709672
40
0.554912680709672
40
0.610548595620962
40
0.610548595620962
40
0.666184510532252
40
0.666184510532252
40
0.777456340354835
40
0.777456340354835
40
0.888728170177417
40
0.888728170177417
40
1
40
1
40
1
40
1
41
1
10
20.8806938899405
20
-0.408257072174138
30
0
41
1
10
20.6484671084567
20
-0.264654485893829
30
0
41
1
10
20.4147224809874
20
-0.117756212327407
30
0
41
1
10
19.9421921942065
20
0.179178641876433
30
0
41
1
10
19.7053322337543
20
0.327892040989155
30
0
41
1
10
19.2308037767455
20
0.619566238526403
30
0
41
1
10
18.9922700653302
20
0.762708481350955
30
0
41
1
10
18.2836682863457
20
1.17119950505528
30
-1E-16
41
1
10
17.8169044025337
20
1.41639034046102
30
-1E-16
41
1
10
17.227607570158
20
1.67332486853178
30
-1E-16
41
1
10
17.1094636949571
20
1.7222364274796
30
-1E-16
41
1
10
16.8722431001846
20
1.81457672802753
30
1E-16
41
1
10
16.7530975160027
20
1.85808539958535
30
1E-16
41
1
10
16.3970290104098
20
1.97863679862587
30
1E-16
41
1
10
16.1603707459908
20
2.04584968810713
30
0
41
1
10
15.6861322768996
20
2.15328109971423
30
0
41
1
10
15.4479694544081
20
2.19326404567582
30
0
41
1
10
14.9739661536856
20
2.24347188632714
30
0
41
1
10
14.737353288485
20
2.25367825333512
30
0
41
1
10
14.500000000003
20
2.24935460194374
30
0
0
SPLINE
5
105
100
AcDbEntity
8
1
62
256
6
ByLayer
370
18
48
1
60
0
100
AcDbSpline
70
4
71
3
72
50
73
46
40
0
40
0
40
0
40
0
40
0.0311730257571282
40
0.0311730257571282
40
0.0688178341095826
40
0.0688178341095826
40
0.0876402382858098
40
0.0876402382858098
40
0.106462642462037
40
0.106462642462037
40
0.181752259166946
40
0.181752259166946
40
0.219397067519399
40
0.219397067519399
40
0.257041875871852
40
0.257041875871852
40
0.332331492576759
40
0.332331492576759
40
0.369976300929212
40
0.369976300929212
40
0.38879870510544
40
0.38879870510544
40
0.407621109281667
40
0.407621109281667
40
0.482910725986573
40
0.482910725986573
40
0.55820034269148
40
0.55820034269148
40
0.633489959396386
40
0.633489959396386
40
0.708779576101293
40
0.708779576101293
40
0.72760198027752
40
0.72760198027752
40
0.746424384453746
40
0.746424384453746
40
0.784069192806198
40
0.784069192806198
40
0.859358809511103
40
0.859358809511103
40
0.897003617863555
40
0.897003617863555
40
0.934648426216007
40
0.934648426216007
40
1
40
1
40
1
40
1
41
1
10
34.1329607080933
20
-1.73444975383274
30
1E-16
41
1
10
33.9894710007502
20
-1.79786255144069
30
1E-16
41
1
10
33.8459577137119
20
-1.85706093794008
30
0
41
1
10
33.528403042881
20
-1.9777593420261
30
-1E-16
41
1
10
33.3543148016656
20
-2.03727473316437
30
-1E-16
41
1
10
33.0917623106872
20
-2.11579051834306
30
-1E-16
41
1
10
33.0037933328141
20
-2.1401895865512
30
0
41
1
10
32.828525868975
20
-2.1848515930194
30
0
41
1
10
32.7411297500344
20
-2.20514678280571
30
0
41
1
10
32.3050263858681
20
-2.29648022897194
30
0
41
1
10
31.9593190725665
20
-2.33732339192866
30
0
41
1
10
31.4390239671998
20
-2.34898415287
30
0
41
1
10
31.265159433667
20
-2.344591206529
30
0
41
1
10
30.9155977124437
20
-2.31906190135155
30
0
41
1
10
30.739269120136
20
-2.29776329805347
30
0
41
1
10
30.2149364959739
20
-2.20973648137482
30
0
41
1
10
29.8690038706557
20
-2.11917329529643
30
-1E-16
41
1
10
29.3486189976309
20
-1.94104760889573
30
-1E-16
41
1
10
29.1750260107275
20
-1.874534552694
30
-1E-16
41
1
10
28.9136826614015
20
-1.76449749148176
30
1E-16
41
1
10
28.8263728074443
20
-1.72614220185358
30
1E-16
41
1
10
28.6511977393181
20
-1.64620573015537
30
1E-16
41
1
10
28.5631509697785
20
-1.60454262551565
30
1E-16
41
1
10
28.1246887263629
20
-1.39022446711971
30
1E-16
41
1
10
27.7781276613334
20
-1.19844659462012
30
1E-16
41
1
10
27.0849362613226
20
-0.786193209514039
30
0
41
1
10
26.7376210714357
20
-0.566728806146699
30
0
41
1
10
26.034439040157
20
-0.110675590351349
30
0
41
1
10
25.6873337126839
20
0.119447393486666
30
0
41
1
10
24.9934459263693
20
0.568238419107303
30
0
41
1
10
24.6473339918459
20
0.788342168222528
30
0
41
1
10
24.2089780761572
20
1.04776150395131
30
-1E-16
41
1
10
24.1208593249723
20
1.09896140925892
30
-1E-16
41
1
10
23.9453998875141
20
1.19883614639448
30
-1E-16
41
1
10
23.8579385084979
20
1.24759681594256
30
-1E-16
41
1
10
23.5961778752839
20
1.39016423939086
30
-1E-16
41
1
10
23.4225646893336
20
1.48033103865285
30
-1E-16
41
1
10
22.902293352251
20
1.73380078549249
30
-1E-16
41
1
10
22.5557949424394
20
1.87974628778591
30
1E-16
41
1
10
22.0312458223399
20
2.05811936814541
30
1E-16
41
1
10
21.8550437691218
20
2.11094623797135
30
1E-16
41
1
10
21.5052856183038
20
2.19994392898209
30
0
41
1
10
21.3311751611295
20
2.23640094878979
30
0
41
1
10
20.855800404851
20
2.31418266567147
30
0
41
1
10
20.5556003417434
20
2.33935388940711
30
0
41
1
10
20.2533514774666
20
2.33943589968624
30
0
0
SPLINE
5
106
100
AcDbEntity
8
1
62
256
6
ByLayer
370
18
48
1
60
0
100
AcDbSpline
70
4
71
3
72
32
73
28
40
0
40
0
40
0
40
0
40
0.0589120955819762
40
0.0589120955819762
40
0.0902816923959108
40
0.0902816923959108
40
0.121651289209846
40
0.121651289209846
40
0.247129676465581
40
0.247129676465581
40
0.372608063721316
40
0.372608063721316
40
0.498086450977052
40
0.498086450977052
40
0.623564838232787
40
0.623564838232787
40
0.654934435046721
40
0.654934435046721
40
0.686304031860655
40
0.686304031860655
40
0.749043225488524
40
0.749043225488524
40
0.874521612744263
40
0.874521612744263
40
0.937260806372131
40
0.937260806372131
40
1
40
1
40
1
40
1
41
1
10
11.7137889044187
20
-1.69868758801002
30
1E-16
41
1
10
11.5506826447057
20
-1.771567065103
30
1E-16
41
1
10
11.387276903885
20
-1.83914410956712
30
-1E-16
41
1
10
11.1359497495238
20
-1.93402365084103
30
-1E-16
41
1
10
11.048442793308
20
-1.9653717470056
30
-1E-16
41
1
10
10.8729628676017
20
-2.02468318625878
30
-1E-16
41
1
10
10.7848565896391
20
-2.05271302503002
30
-1E-16
41
1
10
10.3462145687956
20
-2.1827228201829
30
0
41
1
10
9.99898956724962
20
-2.25512308243839
30
0
41
1
10
9.30444772974772
20
-2.33553133336264
30
0
41
1
10
8.95732851601718
20
-2.34335570260811
30
0
41
1
10
8.25269560899966
20
-2.29111896006887
30
0
41
1
10
7.9052555187082
20
-2.23157015013462
30
0
41
1
10
7.21066372237828
20
-2.05238659231313
30
-1E-16
41
1
10
6.86335093169876
20
-1.93296704414001
30
-1E-16
41
1
10
6.42475640204964
20
-1.74868349855356
30
1E-16
41
1
10
6.33659728432892
20
-1.71003195047433
30
1E-16
41
1
10
6.16100440586919
20
-1.63009202998356
30
1E-16
41
1
10
6.07344110482825
20
-1.58876768140235
30
1E-16
41
1
10
5.81126355054238
20
-1.46101307430723
30
1E-16
41
1
10
5.6371904669912
20
-1.3707722948206
30
1E-16
41
1
10
5.11585481664417
20
-1.08659907161317
30
1E-16
41
1
10
4.76956776654075
20
-0.879019889110623
30
1E-16
41
1
10
4.24407607690523
20
-0.551287401075797
30
0
41
1
10
4.06770781132079
20
-0.43864782070267
30
0
41
1
10
3.7159698175264
20
-0.211654914283486
30
0
41
1
10
3.54012439000618
20
-0.097274204321252
30
0
41
1
10
3.36374678219099
20
0.0171320649825759
30
0
0
SPLINE
5
107
100
AcDbEntity
8
1
62
256
6
ByLayer
370
18
48
1
60
0
100
AcDbSpline
70
4
71
3
72
10
73
6
40
0
40
0
40
0
40
0
40
0.5
40
0.5
40
1
40
1
40
1
40
1
41
1
10
3.54907545264788
20
-2.21721650945341
30
0
41
1
10
3.53271338927848
20
-2.22654124076516
30
0
41
1
10
3.5211692908417
20
-2.23880306836185
30
0
41
1
10
3.50580949268718
20
-2.26512221868038
30
0
41
1
10
3.50204525364887
20
-2.27942680930701
30
0
41
1
10
3.50204525364884
20
-2.29334364384059
30
0
0
SPLINE
5
108
100
AcDbEntity
8
1
62
256
6
ByLayer
370
18
48
1
60
0
100
AcDbSpline
70
4
71
3
72
34
73
30
40
0
40
0
40
0
40
0
40
0.0015311857110144
40
0.0015311857110144
40
0.0916048520066843
40
0.0916048520066843
40
0.181678518302354
40
0.181678518302354
40
0.271752184598024
40
0.271752184598024
40
0.361825850893694
40
0.361825850893694
40
0.451899517189364
40
0.451899517189364
40
0.541973183485034
40
0.541973183485034
40
0.587010016632869
40
0.587010016632869
40
0.632046849780704
40
0.632046849780704
40
0.722120516076374
40
0.722120516076374
40
0.812194182372044
40
0.812194182372044
40
0.902267848667714
40
0.902267848667714
40
0.992341514963384
40
0.992341514963384
40
1
40
1
40
1
40
1
41
1
10
8.33123005771762
20
2.22354526144696
30
0
41
1
10
8.33416244971795
20
2.22361815669305
30
0
41
1
10
8.33709475147916
20
2.22368899072635
30
0
41
1
10
8.51251752277366
20
2.22780375139817
30
0
41
1
10
8.68460992335952
20
2.2249870435497
30
0
41
1
10
9.03030459391158
20
2.20202170503717
30
0
41
1
10
9.20379940777417
20
2.18233153265396
30
0
41
1
10
9.55202611051493
20
2.12840901757139
30
0
41
1
10
9.72687041805332
20
2.09424831040366
30
0
41
1
10
10.0740771227358
20
2.01040886229026
30
0
41
1
10
10.2470363401363
20
1.96118615680623
30
1E-16
41
1
10
10.5919201239636
20
1.85042040375697
30
1E-16
41
1
10
10.7637846736696
20
1.78896576030388
30
-1E-16
41
1
10
11.1086544198098
20
1.65285156750602
30
-1E-16
41
1
10
11.2814731216866
20
1.5786021489387
30
-1E-16
41
1
10
11.5413484803139
20
1.45909396898949
30
-1E-16
41
1
10
11.6280464215474
20
1.4179206189722
30
-1E-16
41
1
10
11.8019686673684
20
1.33288795775718
30
-1E-16
41
1
10
11.8894358836135
20
1.28888804489969
30
-1E-16
41
1
10
12.1509384255702
20
1.15401399929465
30
-1E-16
41
1
10
12.3243292600061
20
1.06023980396338
30
-1E-16
41
1
10
12.6697854531192
20
0.866397522300787
30
-1E-16
41
1
10
12.8418577591515
20
0.766329836925223
30
0
41
1
10
13.1864754598473
20
0.561831962512997
30
0
41
1
10
13.3588614812999
20
0.457362519367734
30
0
41
1
10
13.7041946294348
20
0.245009112272669
30
0
41
1
10
13.8771736383391
20
0.137154936697726
30
0
41
1
10
14.0662513817764
20
0.0195964663113841
30
0
41
1
10
14.081071823823
20
0.0103815532318379
30
0
41
1
10
14.0958949106691
20
0.0011650069611164
30
0
0
SPLINE
5
109
100
AcDbEntity
8
1
62
256
6
ByLayer
370
18
48
1
60
0
100
AcDbSpline
70
4
71
3
72
24
73
20
40
0
40
0
40
0
40
0
40
0.0157576554756675
40
0.0157576554756675
40
0.188917721975421
40
0.188917721975421
40
0.275497755225296
40
0.275497755225296
40
0.36207778847517
40
0.36207778847517
40
0.535237854974924
40
0.535237854974924
40
0.621817888224799
40
0.621817888224799
40
0.708397921474673
40
0.708397921474673
40
0.881557987974417
40
0.881557987974417
40
1
40
1
40
1
40
1
41
1
10
30.5939041317729
20
2.22844713181181
30
0
41
1
10
30.6253436850689
20
2.23050663059942
30
0
41
1
10
30.6567677182749
20
2.23229529821506
30
0
41
1
10
31.0333538889174
20
2.25055024700066
30
0
41
1
10
31.3769596639198
20
2.23512896655359
30
0
41
1
10
31.8944226221933
20
2.16848358250655
30
0
41
1
10
32.067102452716
20
2.13924217592827
30
0
41
1
10
32.4148603094064
20
2.06457219516463
30
0
41
1
10
32.5890692921492
20
2.01920571798283
30
0
41
1
10
33.1078032111762
20
1.86371814690941
30
1E-16
41
1
10
33.4509840862835
20
1.73311993345371
30
-1E-16
41
1
10
33.9672625308027
20
1.50414805719726
30
-1E-16
41
1
10
34.1396126997003
20
1.42238220068609
30
-1E-16
41
1
10
34.4858969787941
20
1.24836670362186
30
-1E-16
41
1
10
34.660626611963
20
1.15568144791956
30
-1E-16
41
1
10
35.1806996130679
20
0.868959678617244
30
-1E-16
41
1
10
35.5229762070077
20
0.665445657387863
30
0
41
1
10
36.0980075583245
20
0.311965336738524
30
0
41
1
10
36.3311702170963
20
0.165473388118642
30
0
41
1
10
36.5658502202401
20
0.0190055752781859
30
0
0
SPLINE
5
10A
100
AcDbEntity
8
1
62
256
6
ByLayer
370
18
48
1
60
0
100
AcDbSpline
70
4
71
3
72
8
73
4
40
0
40
0
40
0
40
0
40
1
40
1
40
1
40
1
41
1
10
3.54749072879298
20
-2.31960771044362
30
0
41
1
10
3.51946668562681
20
-2.31795358580064
30
0
41
1
10
3.50204525364873
20
-2.31475437545097
30
0
41
1
10
3.50204525364884
20
-2.31055782146001
30
0
0
SPLINE
5
10B
100
AcDbEntity
8
1
62
256
6
ByLayer
370
18
48
1
60
0
100
AcDbSpline
70
4
71
3
72
24
73
20
40
0
40
0
40
0
40
0
40
0.0200860531368797
40
0.0200860531368797
40
0.193246185571054
40
0.193246185571054
40
0.279826251788142
40
0.279826251788142
40
0.366406318005229
40
0.366406318005229
40
0.539566450439404
40
0.539566450439404
40
0.626146516656491
40
0.626146516656491
40
0.669436549765035
40
0.669436549765035
40
0.712726582873579
40
0.712726582873579
40
1
40
1
40
1
40
1
41
1
10
26.8212363641106
20
-2.21861039787859
30
0
41
1
10
26.7806549318332
20
-2.22176260299665
30
0
41
1
10
26.7401161043013
20
-2.22448908673027
30
0
41
1
10
26.3504579451054
20
-2.2466724770193
30
0
41
1
10
26.0036085392562
20
-2.2349579625191
30
0
41
1
10
25.4809405848764
20
-2.16961227754587
30
0
41
1
10
25.3063104972927
20
-2.1400361850223
30
0
41
1
10
24.9551305117212
20
-2.06561953573953
30
0
41
1
10
24.7783477275884
20
-2.02056505369089
30
0
41
1
10
24.2529237849998
20
-1.86463602011042
30
-1E-16
41
1
10
23.9057580785408
20
-1.73407051686729
30
1E-16
41
1
10
23.3838527449469
20
-1.50330586265761
30
1E-16
41
1
10
23.2096715930596
20
-1.42076033730325
30
1E-16
41
1
10
22.9472617121622
20
-1.28938886479719
30
1E-16
41
1
10
22.8596003641895
20
-1.24433489831421
30
1E-16
41
1
10
22.6837771751977
20
-1.15175910111248
30
1E-16
41
1
10
22.5954490133101
20
-1.10411561753057
30
1E-16
41
1
10
21.9237968863666
20
-0.734362131315265
30
0
41
1
10
21.3509729036707
20
-0.377879035868801
30
0
41
1
10
20.7702813012589
20
-0.015994560461877
30
0
0
SPLINE
5
10C
100
AcDbEntity
8
1
62
256
6
ByLayer
370
18
48
1
60
0
100
AcDbSpline
70
4
71
3
72
8
73
4
40
0
40
0
40
0
40
0
40
1
40
1
40
1
40
1
41
1
10
4.47479313798397
20
-2.1908507372577
30
0
41
1
10
4.18234568625087
20
-2.22134468424198
30
0
41
1
10
3.89046585227533
20
-2.22970593896582
30
0
41
1
10
3.59696511840366
20
-2.21526260798828
30
0
0
SPLINE
5
10D
100
AcDbEntity
8
1
62
256
6
ByLayer
370
18
48
1
60
0
100
AcDbSpline
70
4
71
1
72
4
73
2
40
0
40
0
40
1
40
1
41
1
10
37.1892198886903
20
2.24573521093018
30
0
41
1
10
37.1630319992286
20
2.26338124986165
30
0
0
SPLINE
5
10E
100
AcDbEntity
8
1
62
256
6
ByLayer
370
18
48
1
60
0
100
AcDbSpline
70
4
71
1
72
4
73
2
40
0
40
0
40
1
40
1
41
1
10
37.1630319992286
20
-2.26338124986165
30
0
41
1
10
37.1892198886903
20
-2.24573521093018
30
0
0
SPLINE
5
10F
100
AcDbEntity
8
1
62
256
6
ByLayer
370
18
48
1
60
0
100
AcDbSpline
70
4
71
1
72
4
73
2
40
0
40
0
40
1
40
1
41
1
10
14.5002432433629
20
2.26794966695559
30
0
41
1
10
14.7019335411954
20
2.26184659373018
30
0
0
SPLINE
5
110
100
AcDbEntity
8
1
62
256
6
ByLayer
370
18
48
1
60
0
100
AcDbSpline
70
4
71
2
72
6
73
3
40
0
40
0
40
0
40
1
40
1
40
1
41
1
10
14.7019335411954
20
2.26184659373018
30
0
41
1
10
14.8743331468763
20
2.25676941271937
30
0
41
1
10
15.0466550303883
20
2.23287540499783
30
0
0
SPLINE
5
111
100
AcDbEntity
8
1
62
256
6
ByLayer
370
18
48
1
60
0
100
AcDbSpline
70
4
71
2
72
6
73
3
40
0
40
0
40
0
40
1
40
1
40
1
41
1
10
36.6698953951564
20
0.684920309651091
30
0
41
1
10
35.3719875259327
20
1.17997481948441
30
-1E-16
41
1
10
34.1021729325012
20
1.74830639110468
30
-1E-16
0
SPLINE
5
112
100
AcDbEntity
8
1
62
256
6
ByLayer
370
18
48
1
60
0
100
AcDbSpline
70
4
71
3
72
24
73
20
40
0
40
0
40
0
40
0
40
6.044696435E-06
40
9.95440092193E-05
40
0.0001845538974296
40
0.0002694794878722
40
0.0003576094957938
40
0.0011618041752635
40
0.0017707587715551
40
0.0028695840593011
40
0.004867096377159
40
0.0085464083682753
40
0.0154690963599955
40
0.0288942230802617
40
0.0562405175036504
40
0.207603186967335
40
0.425892103231449
40
0.692001478664552
40
1
40
1
40
1
40
1
41
1
10
27.0368003507725
20
0.0899384580380897
30
0
41
1
10
27.036801300231
20
0.0899387723379275
30
0
41
1
10
27.0368137940002
20
0.0899437794386131
30
0
41
1
10
27.0367956536885
20
0.0899675120120094
30
0
41
1
10
27.0366327624199
20
0.0900456878078728
30
0
41
1
10
27.0363778062113
20
0.0901503297566251
30
0
41
1
10
27.0352009529859
20
0.0906014307773546
30
0
41
1
10
27.032944519128
20
0.0913805610008467
30
0
41
1
10
27.0294266894398
20
0.0926145905503404
30
0
41
1
10
27.0241613245722
20
0.0944603521651288
30
0
41
1
10
27.0145832213817
20
0.0978208225303376
30
0
41
1
10
26.9967400799887
20
0.104082188566252
30
0
41
1
10
26.9627348166618
20
0.116025963653158
30
0
41
1
10
26.8952147578193
20
0.139776048318907
30
0
41
1
10
26.6232491633868
20
0.23579653009071
30
0
41
1
10
26.0621213807858
20
0.437813048661098
30
0
41
1
10
25.1672474846657
20
0.775993747784781
30
0
41
1
10
24.060993891951
20
1.22140151010007
30
-1E-16
41
1
10
23.2675408627715
20
1.56301650901438
30
-1E-16
41
1
10
22.8441627782973
20
1.75187653457277
30
-1E-16
0
SPLINE
5
113
100
AcDbEntity
8
1
62
256
6
ByLayer
370
18
48
1
60
0
100
AcDbSpline
70
4
71
3
72
23
73
19
40
0
40
0
40
0
40
0
40
5.10087736665E-05
40
0.0001156817818785
40
0.0001768590254362
40
0.0002985392649555
40
0.0004284547541249
40
0.0012634591630709
40
0.0018989696344552
40
0.003052104661982
40
0.0051696958154217
40
0.0091371523578161
40
0.0168151724742821
40
0.0324177684121972
40
0.160563327091898
40
0.367453287622901
40
0.656953722439473
40
1
40
1
40
1
40
1
41
1
10
15.8605858306842
20
0.0652310171233808
30
0
41
1
10
15.8605949010998
20
0.0652310182983342
30
0
41
1
10
15.8606043184954
20
0.0652348547918393
30
0
41
1
10
15.8605701214447
20
0.0652572719607463
30
0
41
1
10
15.8604443366388
20
0.0653142910385043
30
0
41
1
10
15.8601543874841
20
0.0654280771170193
30
0
41
1
10
15.8588399307485
20
0.0659111870804168
30
0
41
1
10
15.8564798617178
20
0.0667224044742625
30
0
41
1
10
15.8528328905401
20
0.0679859606111677
30
0
41
1
10
15.8473257634153
20
0.0698902057300188
30
0
41
1
10
15.8371776236775
20
0.0734057076311956
30
0
41
1
10
15.8178438906043
20
0.0801031066398821
30
0
41
1
10
15.7795924812967
20
0.093371387695953
30
0
41
1
10
15.5669923080575
20
0.1672990145737
30
0
41
1
10
15.0755330639414
20
0.341374340713315
30
0
41
1
10
14.2048817811507
20
0.664409124740928
30
0
41
1
10
13.0440025065109
20
1.12338962857433
30
-1E-16
41
1
10
12.1791888335116
20
1.49334125885937
30
-1E-16
41
1
10
11.7130162547235
20
1.70103497879026
30
-1E-16
0
SPLINE
5
114
100
AcDbEntity
8
1
62
256
6
ByLayer
370
18
48
1
60
0
100
AcDbSpline
70
4
71
3
72
15
73
11
40
0
40
0
40
0
40
0
40
0.193958800527114
40
0.331297928337277
40
0.442686871676856
40
0.526184318375567
40
0.60296476397346
40
0.677397620171083
40
0.833124388756446
40
1
40
1
40
1
40
1
41
1
10
4.24346431999228
20
-2.20042622735687
30
0
41
1
10
4.44190867486159
20
-2.20463332338201
30
0
41
1
10
4.78168248534146
20
-2.21004786702326
30
0
41
1
10
5.23167923552359
20
-2.21295092362121
30
0
41
1
10
5.57842131287271
20
-2.21324380958268
30
0
41
1
10
5.86159561404048
20
-2.21378261217845
30
0
41
1
10
6.10632132832458
20
-2.21387180104225
30
0
41
1
10
6.42633765124623
20
-2.21400359968655
30
0
41
1
10
6.84029626529733
20
-2.2145408443939
30
0
41
1
10
7.17663708667379
20
-2.21482798758205
30
0
41
1
10
7.35061976967597
20
-2.21495484404147
30
0
0
SPLINE
5
115
100
AcDbEntity
8
1
62
256
6
ByLayer
370
18
48
1
60
0
100
AcDbSpline
70
4
71
3
72
14
73
10
40
0
40
0
40
0
40
0
40
0.283348741329405
40
0.490292775235339
40
0.648248506581267
40
0.713648471695023
40
0.772081434573992
40
0.832339220181227
40
1
40
1
40
1
40
1
41
1
10
26.3680614211861
20
-2.22612425584867
30
0
41
1
10
26.707531283473
20
-2.2263842859644
30
0
41
1
10
27.2949366222769
20
-2.22674670952759
30
0
41
1
10
28.0715975285342
20
-2.22827082738971
30
0
41
1
10
28.5871328155266
20
-2.22772620955004
30
0
41
1
10
28.9247431082861
20
-2.22793922351789
30
0
41
1
10
29.1453004955674
20
-2.22883567519622
30
0
41
1
10
29.4883745090046
20
-2.22868712212082
30
0
41
1
10
29.7614151178692
20
-2.22852314642202
30
0
41
1
10
29.9622752378339
20
-2.22859238002692
30
0
0
SPLINE
5
116
100
AcDbEntity
8
1
62
256
6
ByLayer
370
18
48
1
60
0
100
AcDbSpline
70
4
71
3
72
13
73
9
40
0
40
0
40
0
40
0
40
0.285330959232875
40
0.511290512050239
40
0.673833539711942
40
0.765076621083342
40
0.854331550065138
40
1
40
1
40
1
40
1
41
1
10
19.7227171761507
20
2.22280834529889
30
0
41
1
10
19.3797927861398
20
2.22235938589202
30
0
41
1
10
18.765298379651
20
2.22158777845331
30
0
41
1
10
17.9554551386263
20
2.22199827084862
30
0
41
1
10
17.3788668674966
20
2.22068033737304
30
0
41
1
10
16.9665726141171
20
2.22095491989109
30
0
41
1
10
16.5745842237988
20
2.21957132179392
30
0
41
1
10
16.2922549481696
20
2.21977710275632
30
0
41
1
10
16.1171923120856
20
2.21981916170324
30
0
0
SPLINE
5
117
100
AcDbEntity
8
1
62
256
6
ByLayer
370
18
48
1
60
0
100
AcDbSpline
70
4
71
3
72
13
73
9
40
0
40
0
40
0
40
0
40
0.272827409834669
40
0.474053849926887
40
0.666066452419806
40
0.772473162202932
40
0.863885517334598
40
1
40
1
40
1
40
1
41
1
10
15.1178275716126
20
-2.21882681595614
30
0
41
1
10
15.4413838746463
20
-2.21926003039448
30
0
41
1
10
16.0035844809622
20
-2.21985980657337
30
0
41
1
10
16.7935054270519
20
-2.22039138248655
30
0
41
1
10
17.386065045794
20
-2.2204664549738
30
0
41
1
10
17.8483888584678
20
-2.22167581075951
30
0
41
1
10
18.2444088219297
20
-2.22180612439976
30
0
41
1
10
18.5142290289866
20
-2.22196194714417
30
0
41
1
10
18.6756447271548
20
-2.2220634447057
30
0
0
SPLINE
5
118
100
AcDbEntity
8
1
62
256
6
ByLayer
370
18
48
1
60
0
100
AcDbSpline
70
4
71
3
72
13
73
9
40
0
40
0
40
0
40
0
40
0.269707314353086
40
0.466567026040585
40
0.657557809452649
40
0.762336343581326
40
0.852662452099835
40
1
40
1
40
1
40
1
41
1
10
30.9685601804747
20
2.23040383910936
30
0
41
1
10
30.6440512135775
20
2.22948734557082
30
0
41
1
10
30.082685063828
20
2.22820764554865
30
0
41
1
10
29.2915391141694
20
2.22934158204049
30
0
41
1
10
28.6988148733223
20
2.22741978541242
30
0
41
1
10
28.2342674325539
20
2.22841771579888
30
0
41
1
10
27.8222604671789
20
2.2269294789989
30
0
41
1
10
27.5363258689761
20
2.22703502781675
30
0
41
1
10
27.3590638458228
20
2.22703321896955
30
0
0
SPLINE
5
119
100
AcDbEntity
8
1
62
256
6
ByLayer
370
18
48
1
60
0
100
AcDbSpline
70
4
71
3
72
14
73
10
40
0
40
0
40
0
40
0
40
0.203425176431988
40
0.330942972510262
40
0.450420347259852
40
0.570468456475473
40
0.723379190433642
40
0.92372316886151
40
1
40
1
40
1
40
1
41
1
10
8.47219046883498
20
2.21551199967757
30
0
41
1
10
8.2296775786692
20
2.21586543915444
30
0
41
1
10
7.83514054850076
20
2.21612059608282
30
0
41
1
10
7.298178709811
20
2.21430315439935
30
0
41
1
10
6.86057594664908
20
2.21469043441115
30
0
41
1
10
6.39283471719645
20
2.21390384750677
30
0
41
1
10
5.82803026129514
20
2.21387029119748
30
0
41
1
10
5.31817682192559
20
2.21294543647073
30
0
41
1
10
4.99173186649455
20
2.21027896995491
30
0
41
1
10
4.90185746974436
20
2.20939701558615
30
0
0
SPLINE
5
11A
100
AcDbEntity
8
1
62
256
6
ByLayer
370
18
48
1
60
0
100
AcDbSpline
70
4
71
1
72
4
73
2
40
0
40
0
40
1
40
1
41
1
10
31.9922680203869
20
0.001562567547353
30
0
41
1
10
31.9922553576119
20
0.0015523321734463
30
0
0
LINE
5
84
100
AcDbEntity
8
SK1
62
256
6
ByLayer
370
18
48
1
60
0
100
AcDbLine
10
-36
20
-2.065
30
0
11
-36
21
0.908596
31
0
39
0
210
0
220
0
230
1
0
LINE
5
86
100
AcDbEntity
8
SK1
62
256
6
ByLayer
370
18
48
1
60
0
100
AcDbLine
10
-36
20
0.908578
30
0
11
-36
21
2.043384
31
0
39
0
210
0
220
0
230
1
0
LINE
5
87
100
AcDbEntity
8
SK1
62
256
6
ByLayer
370
18
48
1
60
0
100
AcDbLine
10
-35.65
20
1.496414
30
0
11
-35.65
21
2.262312
31
0
39
0
210
0
220
0
230
1
0
LINE
5
88
100
AcDbEntity
8
SK1
62
256
6
ByLayer
370
18
48
1
60
0
100
AcDbLine
10
-35.850962
20
1.241342
30
0
11
-35.850962
21
2.125086
31
0
39
0
210
0
220
0
230
1
0
LINE
5
89
100
AcDbEntity
8
SK1
62
256
6
ByLayer
370
18
48
1
60
0
100
AcDbLine
10
-36
20
2.043384
30
0
11
-36
21
2.065
31
0
39
0
210
0
220
0
230
1
0
LINE
5
8A
100
AcDbEntity
8
SK1
62
256
6
ByLayer
370
18
48
1
60
0
100
AcDbLine
10
-35.75
20
1.327812
30
0
11
-35.75
21
2.211548
31
0
39
0
210
0
220
0
230
1
0
LINE
5
8B
100
AcDbEntity
8
SK1
62
256
6
ByLayer
370
18
48
1
60
0
100
AcDbLine
10
0
20
3
30
0
11
0
21
-3
31
0
39
0
210
0
220
0
230
1
0
LINE
5
8C
100
AcDbEntity
8
SK1
62
256
6
ByLayer
370
18
48
1
60
0
100
AcDbLine
10
-35.065
20
-3
30
0
11
-35.065
21
3
31
0
39
0
210
0
220
0
230
1
0
LINE
5
8D
100
AcDbEntity
8
1
62
256
6
ByLayer
370
18
48
1
60
0
100
AcDbLine
10
3.502045
20
-2.310558
30
0
11
3.502045
21
-0.60128
31
0
39
0
210
0
220
0
230
1
0
LINE
5
8E
100
AcDbEntity
8
1
62
256
6
ByLayer
370
18
48
1
60
0
100
AcDbLine
10
0
20
3
30
0
11
0
21
0
31
0
39
0
210
0
220
0
230
1
0
LINE
5
8F
100
AcDbEntity
8
1
62
256
6
ByLayer
370
18
48
1
60
0
100
AcDbLine
10
0
20
0
30
0
11
0
21
-3
31
0
39
0
210
0
220
0
230
1
0
LINE
5
90
100
AcDbEntity
8
1
62
256
6
ByLayer
370
18
48
1
60
0
100
AcDbLine
10
0.651836
20
2.663799
30
0
11
0.651836
21
0
31
0
39
0
210
0
220
0
230
1
0
LINE
5
91
100
AcDbEntity
8
1
62
256
6
ByLayer
370
18
48
1
60
0
100
AcDbLine
10
0.651836
20
0
30
0
11
0.651836
21
-2.663799
31
0
39
0
210
0
220
0
230
1
0
LINE
5
92
100
AcDbEntity
8
1
62
256
6
ByLayer
370
18
48
1
60
0
100
AcDbLine
10
14.5
20
-2.334656
30
0
11
14.5
21
-2.335607
31
0
39
0
210
0
220
0
230
1
0
LINE
5
93
100
AcDbEntity
8
1
62
256
6
ByLayer
370
18
48
1
60
0
100
AcDbLine
10
37.957771
20
0.036477
30
0
11
37.417729
21
0.632591
31
0
39
0
210
0
220
0
230
1
0
LINE
5
94
100
AcDbEntity
8
1
62
256
6
ByLayer
370
18
48
1
60
0
100
AcDbLine
10
1.304172
20
2.327598
30
0
11
1.304172
21
0
31
0
39
0
210
0
220
0
230
1
0
LINE
5
95
100
AcDbEntity
8
1
62
256
6
ByLayer
370
18
48
1
60
0
100
AcDbLine
10
1.304172
20
0
30
0
11
1.304172
21
-2.327598
31
0
39
0
210
0
220
0
230
1
0
LINE
5
96
100
AcDbEntity
8
1
62
256
6
ByLayer
370
18
48
1
60
0
100
AcDbLine
10
1.304172
20
-2.327598
30
0
11
3.868942
21
-2.329201
31
0
39
0
210
0
220
0
230
1
0
LINE
5
97
100
AcDbEntity
8
1
62
256
6
ByLayer
370
18
48
1
60
0
100
AcDbLine
10
8.472788
20
-2.332079
30
0
11
9.00911
21
-2.332414
31
0
39
0
210
0
220
0
230
1
0
LINE
5
98
100
AcDbEntity
8
1
62
256
6
ByLayer
370
18
48
1
60
0
100
AcDbLine
10
14.614078
20
-2.335917
30
0
11
15.119707
21
-2.336233
31
0
39
0
210
0
220
0
230
1
0
LINE
5
99
100
AcDbEntity
8
1
62
256
6
ByLayer
370
18
48
1
60
0
100
AcDbLine
10
19.721915
20
-2.339109
30
0
11
20.247816
21
-2.339438
31
0
39
0
210
0
220
0
230
1
0
LINE
5
9A
100
AcDbEntity
8
1
62
256
6
ByLayer
370
18
48
1
60
0
100
AcDbLine
10
25.864881
20
-2.342949
30
0
11
26.369996
21
-2.343265
31
0
39
0
210
0
220
0
230
1
0
LINE
5
9B
100
AcDbEntity
8
1
62
256
6
ByLayer
370
18
48
1
60
0
100
AcDbLine
10
30.970708
20
-2.34614
30
0
11
31.486757
21
-2.346463
31
0
39
0
210
0
220
0
230
1
0
LINE
5
9C
100
AcDbEntity
8
1
62
256
6
ByLayer
370
18
48
1
60
0
100
AcDbLine
10
31.486757
20
2.346463
30
0
11
30.970708
21
2.34614
31
0
39
0
210
0
220
0
230
1
0
LINE
5
9D
100
AcDbEntity
8
1
62
256
6
ByLayer
370
18
48
1
60
0
100
AcDbLine
10
26.369996
20
2.343265
30
0
11
25.864881
21
2.342949
31
0
39
0
210
0
220
0
230
1
0
LINE
5
9E
100
AcDbEntity
8
1
62
256
6
ByLayer
370
18
48
1
60
0
100
AcDbLine
10
20.247816
20
2.339438
30
0
11
19.721915
21
2.339109
31
0
39
0
210
0
220
0
230
1
0
LINE
5
9F
100
AcDbEntity
8
1
62
256
6
ByLayer
370
18
48
1
60
0
100
AcDbLine
10
15.119707
20
2.336233
30
0
11
14.614078
21
2.335917
31
0
39
0
210
0
220
0
230
1
0
LINE
5
A0
100
AcDbEntity
8
1
62
256
6
ByLayer
370
18
48
1
60
0
100
AcDbLine
10
9.00911
20
2.332414
30
0
11
8.472788
21
2.332079
31
0
39
0
210
0
220
0
230
1
0
LINE
5
A1
100
AcDbEntity
8
1
62
256
6
ByLayer
370
18
48
1
60
0
100
AcDbLine
10
3.868942
20
2.329201
30
0
11
1.304172
21
2.327598
31
0
39
0
210
0
220
0
230
1
0
LINE
5
A2
100
AcDbEntity
8
SK1
62
256
6
ByLayer
370
18
48
1
60
0
100
AcDbLine
10
-36
20
-2.065
30
0
11
-35.065
21
-3
31
0
39
0
210
0
220
0
230
1
0
LINE
5
A3
100
AcDbEntity
8
SK1
62
256
6
ByLayer
370
18
48
1
60
0
100
AcDbLine
10
-35.065
20
3
30
0
11
-36
21
2.065
31
0
39
0
210
0
220
0
230
1
0
LINE
5
A4
100
AcDbEntity
8
SK1
62
256
6
ByLayer
370
18
48
1
60
0
100
AcDbLine
10
-35.065
20
-3
30
0
11
0
21
-3
31
0
39
0
210
0
220
0
230
1
0
LINE
5
A5
100
AcDbEntity
8
SK1
62
256
6
ByLayer
370
18
48
1
60
0
100
AcDbLine
10
0
20
3
30
0
11
-35.065
21
3
31
0
39
0
210
0
220
0
230
1
0
LINE
5
A6
100
AcDbEntity
8
SK4
62
256
6
ByLayer
370
18
48
0.05
60
0
100
AcDbLine
10
43
20
0
30
0
11
-41
21
0
31
0
39
0
210
0
220
0
230
1
0
LINE
5
A8
100
AcDbEntity
8
4
62
256
6
ByLayer
370
18
48
0.05
60
0
100
AcDbLine
10
-36
20
0
30
0
11
43
21
0
31
0
39
0
210
0
220
0
230
1
0
LINE
5
AA
100
AcDbEntity
8
80
62
256
6
ByLayer
370
18
48
1
60
0
100
AcDbLine
10
0
20
0
30
0
11
-6
21
0
31
0
39
0
210
0
220
0
230
1
0
LINE
5
AB
100
AcDbEntity
8
81
62
256
6
ByLayer
370
18
48
1
60
0
100
AcDbLine
10
38
20
0
30
0
11
44
21
0
31
0
39
0
210
0
220
0
230
1
0
LINE
5
AC
100
AcDbEntity
8
SK2
62
256
6
ByLayer
370
13
48
1
60
0
100
AcDbLine
10
38.54294
20
1.491768
30
0
11
45.926071
21
21.777466
31
0
39
0
210
0
220
0
230
1
0
LINE
5
AE
100
AcDbEntity
8
SK2
62
256
6
ByLayer
370
13
48
1
60
0
100
AcDbLine
10
38.54294
20
-1.491768
30
0
11
45.926071
21
-21.777466
31
0
39
0
210
0
220
0
230
1
0
LINE
5
AF
100
AcDbEntity
8
1
62
256
6
ByLayer
370
13
48
1
60
0
100
AcDbLine
10
44.840191
20
18.79393
30
0
11
47.93679
21
17.977593
31
0
39
0
210
0
220
0
230
1
0
LINE
5
B0
100
AcDbEntity
8
1
62
256
6
ByLayer
370
13
48
1
60
0
100
AcDbLine
10
44.840191
20
18.79393
30
0
11
47.619995
21
17.203948
31
0
39
0
210
0
220
0
230
1
0
LINE
5
B1
100
AcDbEntity
8
1
62
256
6
ByLayer
370
13
48
1
60
0
100
AcDbLine
10
47.93679
20
17.977593
30
0
11
47.619995
21
17.203948
31
0
39
0
210
0
220
0
230
1
0
LINE
5
B2
100
AcDbEntity
8
1
62
256
6
ByLayer
370
13
48
1
60
0
100
AcDbLine
10
44.840191
20
-18.79393
30
0
11
47.619993
21
-17.203949
31
0
39
0
210
0
220
0
230
1
0
LINE
5
B3
100
AcDbEntity
8
1
62
256
6
ByLayer
370
13
48
1
60
0
100
AcDbLine
10
44.840191
20
-18.79393
30
0
11
47.936793
21
-17.977592
31
0
39
0
210
0
220
0
230
1
0
LINE
5
B4
100
AcDbEntity
8
1
62
256
6
ByLayer
370
13
48
1
60
0
100
AcDbLine
10
47.619993
20
-17.203949
30
0
11
47.936793
21
-17.977592
31
0
39
0
210
0
220
0
230
1
0
MTEXT
5
11B
100
AcDbEntity
8
SK2
62
256
6
ByLayer
370
18
48
1
60
0
100
AcDbMText
10
51.717388
20
-2.467451
30
0
210
0
220
0
230
1
1
\W0.7237;140.00
40
3.50012
41
0
44
1.084337
50
0
71
7
72
5
7
iso_b_vert
0
MTEXT
5
11E
100
AcDbEntity
8
SK6
62
256
6
ByLayer
370
18
48
1
60
0
100
AcDbMText
10
-38.331725
20
-83.147304
30
0
210
0
220
0
230
1
1
\W0.7541;860.1-0470-024A1-GM X1BM
40
3.175
41
0
44
1.084337
50
0
71
7
72
5
7
iso_b_vert
0
DIMENSION
5
121
100
AcDbEntity
8
SK2
62
256
6
ByLayer
370
18
48
1
60
0
100
AcDbDimension
2
_U0
10
38
20
-26.50012
30
0
11
19
21
-26.50012
31
0
70
32
71
2
72
1
41
1
210
0
220
0
230
1
3
Standard
100
AcDbAlignedDimension
13
0
23
-3
33
0
14
38
24
0
34
0
50
0
100
AcDbRotatedDimension
1001
ACAD
1000
DSTYLE
1002
{
1070
   371
1070
    13
1070
   372
1070
    13
1070
     3
1000

1070
   170
1070
     0
1070
   144
1040
1.0
1070
   277
1070
     2
1070
   284
1070
     8
1070
   278
1070
    46
1070
   146
1040
0.999966
1070
   345
1005
16
1070
   347
1005
16
1070
   346
1005
16
1070
   344
1005
122
1070
   343
1005
122
1070
   172
1070
     1
1070
    76
1070
     0
1070
    75
1070
     0
1070
   282
1070
     0
1070
   281
1070
     0
1070
    71
1070
     0
1070
    74
1070
     0
1070
   279
1070
     0
1070
   173
1070
     1
1070
   340
1005
11C
1070
   271
1070
     1
1070
   272
1070
     2
1070
    77
1070
     1
1070
    73
1070
     1
1070
   171
1070
     3
1070
   274
1070
     4
1070
   177
1070
   150
1070
   176
1070
     9
1070
   178
1070
    43
1070
    78
1070
     8
1070
    48
1040
-0.1
1070
    41
1040
3.175
1070
   147
1040
1.75006
1070
    42
1040
1.5875
1070
    44
1040
3.175
1070
   140
1040
3.50012
1002
}
1001
ACAD_DSTYLE_DIM_LINETYPE
1070
   380
1005
16
1001
ACAD_DSTYLE_DIM_EXT1_LINETYPE
1070
   381
1005
16
1001
ACAD_DSTYLE_DIM_EXT2_LINETYPE
1070
   382
1005
16
0
DIMENSION
5
147
100
AcDbEntity
8
2
62
256
6
ByLayer
370
18
48
1
60
0
100
AcDbDimension
2
_U1
10
44.75006
20
2.35
30
0
11
44.75006
21
17.923233
31
0
70
32
71
1
72
1
41
1
210
0
220
0
230
1
3
Standard
100
AcDbAlignedDimension
13
37.1447
23
-2.35
33
0
14
37.1447
24
2.35
34
0
50
90
100
AcDbRotatedDimension
1001
ACAD
1000
DSTYLE
1002
{
1070
   371
1070
    13
1070
   372
1070
    13
1070
     3
1000

1070
   170
1070
     0
1070
   144
1040
1.0
1070
   277
1070
     2
1070
   284
1070
     8
1070
   278
1070
    46
1070
   146
1040
0.999966
1070
   345
1005
16
1070
   347
1005
16
1070
   346
1005
16
1070
   344
1005
122
1070
   343
1005
122
1070
   172
1070
     1
1070
    76
1070
     0
1070
    75
1070
     0
1070
   282
1070
     0
1070
   281
1070
     0
1070
    71
1070
     0
1070
    74
1070
     0
1070
   279
1070
     0
1070
   173
1070
     1
1070
   340
1005
11C
1070
   271
1070
     1
1070
   272
1070
     2
1070
    77
1070
     1
1070
    73
1070
     0
1070
   171
1070
     3
1070
   274
1070
     4
1070
   177
1070
   150
1070
   176
1070
     9
1070
   178
1070
    43
1070
    78
1070
     8
1070
    48
1040
-0.1
1070
    41
1040
3.175
1070
   147
1040
1.75006
1070
    42
1040
1.5875
1070
    44
1040
3.175
1070
   140
1040
3.50012
1002
}
1001
ACAD_DSTYLE_DIM_LINETYPE
1070
   380
1005
16
1001
ACAD_DSTYLE_DIM_EXT1_LINETYPE
1070
   381
1005
16
1001
ACAD_DSTYLE_DIM_EXT2_LINETYPE
1070
   382
1005
16
0
DIMENSION
5
166
100
AcDbEntity
8
SK2
62
256
6
ByLayer
370
18
48
1
60
0
100
AcDbDimension
2
_U2
10
-39.24994
20
-3
30
0
11
-39.24994
21
17.10734
31
0
70
32
71
1
72
1
41
1
210
0
220
0
230
1
3
Standard
100
AcDbAlignedDimension
13
-36
23
3
33
0
14
-36
24
-3
34
0
50
90
100
AcDbRotatedDimension
1001
ACAD
1000
DSTYLE
1002
{
1070
   371
1070
    13
1070
   372
1070
    13
1070
     3
1000

1070
   170
1070
     0
1070
   144
1040
1.0
1070
   277
1070
     2
1070
   284
1070
     8
1070
   278
1070
    46
1070
   146
1040
0.999966
1070
   345
1005
16
1070
   347
1005
16
1070
   346
1005
16
1070
   344
1005
122
1070
   343
1005
122
1070
   172
1070
     1
1070
    76
1070
     0
1070
    75
1070
     0
1070
   282
1070
     0
1070
   281
1070
     0
1070
    71
1070
     0
1070
    74
1070
     0
1070
   279
1070
     0
1070
   173
1070
     1
1070
   340
1005
11C
1070
   271
1070
     1
1070
   272
1070
     2
1070
    77
1070
     1
1070
    73
1070
     0
1070
   171
1070
     3
1070
   274
1070
     4
1070
   177
1070
   150
1070
   176
1070
     9
1070
   178
1070
    43
1070
    78
1070
     8
1070
    48
1040
-0.1
1070
    41
1040
3.175
1070
   147
1040
1.75006
1070
    42
1040
1.5875
1070
    44
1040
3.175
1070
   140
1040
3.50012
1002
}
1001
ACAD_DSTYLE_DIM_LINETYPE
1070
   380
1005
16
1001
ACAD_DSTYLE_DIM_EXT1_LINETYPE
1070
   381
1005
16
1001
ACAD_DSTYLE_DIM_EXT2_LINETYPE
1070
   382
1005
16
0
DIMENSION
5
184
100
AcDbEntity
8
SK2
62
256
6
ByLayer
370
18
48
1
60
0
100
AcDbDimension
2
_U3
10
0
20
-26.50012
30
0
11
-18
21
-26.50012
31
0
70
32
71
1
72
1
41
1
210
0
220
0
230
1
3
Standard
100
AcDbAlignedDimension
13
-36
23
-3
33
0
14
0
24
-3
34
0
50
0
100
AcDbRotatedDimension
1001
ACAD
1000
DSTYLE
1002
{
1070
   371
1070
    13
1070
   372
1070
    13
1070
     3
1000

1070
   170
1070
     0
1070
   144
1040
1.0
1070
   277
1070
     2
1070
   284
1070
     8
1070
   278
1070
    46
1070
   146
1040
0.999966
1070
   345
1005
16
1070
   347
1005
16
1070
   346
1005
16
1070
   344
1005
122
1070
   343
1005
122
1070
   172
1070
     1
1070
    76
1070
     0
1070
    75
1070
     0
1070
   282
1070
     0
1070
   281
1070
     0
1070
    71
1070
     0
1070
    74
1070
     0
1070
   279
1070
     0
1070
   173
1070
     1
1070
   340
1005
11C
1070
   271
1070
     1
1070
   272
1070
     2
1070
    77
1070
     1
1070
    73
1070
     1
1070
   171
1070
     3
1070
   274
1070
     4
1070
   177
1070
   150
1070
   176
1070
     9
1070
   178
1070
    43
1070
    78
1070
     8
1070
    48
1040
-0.1
1070
    41
1040
3.175
1070
   147
1040
1.75006
1070
    42
1040
1.5875
1070
    44
1040
3.175
1070
   140
1040
3.50012
1002
}
1001
ACAD_DSTYLE_DIM_LINETYPE
1070
   380
1005
16
1001
ACAD_DSTYLE_DIM_EXT1_LINETYPE
1070
   381
1005
16
1001
ACAD_DSTYLE_DIM_EXT2_LINETYPE
1070
   382
1005
16
0
DIMENSION
5
1A0
100
AcDbEntity
8
SK2
62
256
6
ByLayer
370
18
48
1
60
0
100
AcDbDimension
2
_U4
10
38
20
-17.74982
30
0
11
20
21
-17.74982
31
0
70
32
71
1
72
1
41
1
210
0
220
0
230
1
3
Standard
100
AcDbAlignedDimension
13
2
23
2.85
33
0
14
38
24
0
34
0
50
0
100
AcDbRotatedDimension
1001
ACAD
1000
DSTYLE
1002
{
1070
   371
1070
    13
1070
   372
1070
    13
1070
     3
1000

1070
   170
1070
     0
1070
   144
1040
1.0
1070
   277
1070
     2
1070
   284
1070
     8
1070
   278
1070
    46
1070
   146
1040
0.999966
1070
   345
1005
16
1070
   347
1005
16
1070
   346
1005
16
1070
   344
1005
122
1070
   343
1005
122
1070
   172
1070
     1
1070
    76
1070
     0
1070
    75
1070
     0
1070
   282
1070
     0
1070
   281
1070
     0
1070
    71
1070
     0
1070
    74
1070
     0
1070
   279
1070
     0
1070
   173
1070
     1
1070
   340
1005
11C
1070
   271
1070
     1
1070
   272
1070
     2
1070
    77
1070
     1
1070
    73
1070
     1
1070
   171
1070
     3
1070
   274
1070
     4
1070
   177
1070
   150
1070
   176
1070
     9
1070
   178
1070
    43
1070
    78
1070
     8
1070
    48
1040
-0.1
1070
    41
1040
3.175
1070
   147
1040
1.75006
1070
    42
1040
1.5875
1070
    44
1040
3.175
1070
   140
1040
3.50012
1002
}
1001
ACAD_DSTYLE_DIM_LINETYPE
1070
   380
1005
16
1001
ACAD_DSTYLE_DIM_EXT1_LINETYPE
1070
   381
1005
16
1001
ACAD_DSTYLE_DIM_EXT2_LINETYPE
1070
   382
1005
16
0
DIMENSION
5
1BC
100
AcDbEntity
8
SK2
62
256
6
ByLayer
370
18
48
1
60
0
100
AcDbDimension
2
_U5
10
38
20
-9.82
30
0
11
25.85
21
-9.82
31
0
70
32
71
1
72
1
41
1
210
0
220
0
230
1
3
Standard
100
AcDbAlignedDimension
13
13.7
23
-2.35
33
0
14
38
24
0
34
0
50
0
100
AcDbRotatedDimension
1001
ACAD
1000
DSTYLE
1002
{
1070
   371
1070
    13
1070
   372
1070
    13
1070
     3
1000

1070
   170
1070
     0
1070
   144
1040
1.0
1070
   277
1070
     2
1070
   284
1070
     8
1070
   278
1070
    46
1070
   146
1040
1.25
1070
   345
1005
16
1070
   347
1005
16
1070
   346
1005
16
1070
   344
1005
122
1070
   343
1005
122
1070
   172
1070
     1
1070
    76
1070
     0
1070
    75
1070
     0
1070
   282
1070
     0
1070
   281
1070
     0
1070
    71
1070
     0
1070
    74
1070
     0
1070
   279
1070
     0
1070
   173
1070
     1
1070
   340
1005
11C
1070
   271
1070
     1
1070
   272
1070
     2
1070
    77
1070
     1
1070
    73
1070
     1
1070
   171
1070
     3
1070
   274
1070
     4
1070
   177
1070
   150
1070
   176
1070
     9
1070
   178
1070
    43
1070
    78
1070
     8
1070
    48
1040
-0.1
1070
    41
1040
3.175
1070
   147
1040
0.42
1070
    42
1040
1.5875
1070
    44
1040
0.5
1070
   140
1040
2.8
1002
}
1001
ACAD_DSTYLE_DIM_LINETYPE
1070
   380
1005
16
1001
ACAD_DSTYLE_DIM_EXT1_LINETYPE
1070
   381
1005
16
1001
ACAD_DSTYLE_DIM_EXT2_LINETYPE
1070
   382
1005
16
0
DIMENSION
5
1D8
100
AcDbEntity
8
SK2
62
256
6
ByLayer
370
18
48
1
60
0
100
AcDbDimension
2
_U6
10
38
20
-36.50012
30
0
11
1
21
-36.50012
31
0
70
32
71
1
72
1
41
1
210
0
220
0
230
1
3
Standard
100
AcDbAlignedDimension
13
-36
23
0
33
0
14
38
24
0
34
0
50
0
100
AcDbRotatedDimension
1001
ACAD
1000
DSTYLE
1002
{
1070
   371
1070
    13
1070
   372
1070
    13
1070
     3
1000

1070
   170
1070
     0
1070
   144
1040
1.0
1070
   277
1070
     2
1070
   284
1070
     8
1070
   278
1070
    46
1070
   146
1040
0.999966
1070
   345
1005
16
1070
   347
1005
16
1070
   346
1005
16
1070
   344
1005
122
1070
   343
1005
122
1070
   172
1070
     1
1070
    76
1070
     0
1070
    75
1070
     0
1070
   282
1070
     0
1070
   281
1070
     0
1070
    71
1070
     0
1070
    74
1070
     0
1070
   279
1070
     0
1070
   173
1070
     1
1070
   340
1005
11C
1070
   271
1070
     1
1070
   272
1070
     2
1070
    77
1070
     1
1070
    73
1070
     1
1070
   171
1070
     3
1070
   274
1070
     4
1070
   177
1070
   150
1070
   176
1070
     9
1070
   178
1070
    43
1070
    78
1070
     8
1070
    48
1040
-0.1
1070
    41
1040
3.175
1070
   147
1040
1.75006
1070
    42
1040
1.5875
1070
    44
1040
3.175
1070
   140
1040
3.50012
1002
}
1001
ACAD_DSTYLE_DIM_LINETYPE
1070
   380
1005
16
1001
ACAD_DSTYLE_DIM_EXT1_LINETYPE
1070
   381
1005
16
1001
ACAD_DSTYLE_DIM_EXT2_LINETYPE
1070
   382
1005
16
0
ENDSEC
0
SECTION
2
OBJECTS
0
DICTIONARY
5
264
330
0
100
AcDbDictionary
280
0
281
1
3
ACAD_GROUP
350
265
3
ACAD_MLINESTYLE
350
266
0
DICTIONARY
5
265
330
0
100
AcDbDictionary
280
0
281
1
0
DICTIONARY
5
266
330
0
100
AcDbDictionary
280
0
281
1
3
Standard
350
18
0
MLINESTYLE
5
18
330
266
100
AcDbMlineStyle
2
Standard
70
0
3

62
256
51
90
52
90
71
2
49
-0.5
62
256
6
ByLayer
49
0.5
62
256
6
ByLayer
0
RASTERVARIABLES
5
252
330

100
AcDbRasterVariables
90
0
70
1
71
1
72
1
0
ENDSEC
0
EOF
