0
SECTION
2
HEADER
9
$ACADVER
1
AC1015
9
$DWGCODEPAGE
3
ANSI_1252
9
$HANDSEED
5
275
9
$ANGBASE
50
0
9
$ANGDIR
70
0
9
$ATTMODE
70
1
9
$AUNITS
70
0
9
$AUPREC
70
0
9
$CECOLOR
62
256
9
$CELTSCALE
40
1
9
$CELTYPE
6
ByLayer
9
$CELWEIGHT
370
18
9
$CLAYER
8
0
9
$CMLJUST
70
0
9
$CMLSCALE
40
1
9
$CMLSTYLE
2
Standard
9
$DIMSTYLE
2
Standard
9
$TEXTSIZE
40
0.2
9
$TEXTSTYLE
7
Standard
9
$LUNITS
70
2
9
$LUPREC
70
4
9
$EXTNAMES
290
1
9
$INSUNITS
70
4
9
$LTSCALE
40
1
9
$LWDISPLAY
290
1
9
$PDMODE
70
0
9
$PDSIZE
40
0
9
$PLINEGEN
70
0
0
ENDSEC
0
SECTION
2
CLASSES
0
CLASS
1
RASTERVARIABLES
2
AcDbRasterVariables
3
ISM
90
0
280
0
281
0
0
ENDSEC
0
SECTION
2
TABLES
0
TABLE
2
VPORT
5
26b
100
AcDbSymbolTable
0
VPORT
5
1
100
AcDbSymbolTableRecord
100
AcDbViewportTableRecord
2
*Active
70
0
10
0
20
0
11
1
21
1
12
-1
22
1
13
0
23
0
14
0.5
24
0.5
15
10
25
10
16
0
26
0
36
1
17
0
27
0
37
0
0
ENDTAB
0
TABLE
2
LTYPE
5
26c
100
AcDbSymbolTable
0
LTYPE
5
14
100
AcDbSymbolTableRecord
100
AcDbLinetypeTableRecord
70
0
2
ByBlock
3

72
65
73
0
40
0
0
LTYPE
5
15
100
AcDbSymbolTableRecord
100
AcDbLinetypeTableRecord
70
0
2
ByLayer
3

72
65
73
0
40
0
0
LTYPE
5
16
100
AcDbSymbolTableRecord
100
AcDbLinetypeTableRecord
70
0
2
Continuous
3
Solid line
72
65
73
0
40
0
0
LTYPE
5
6E
100
AcDbSymbolTableRecord
100
AcDbLinetypeTableRecord
70
0
2
CENTER
3
____ _ ____ _ ____ _ ____
72
65
73
4
40
47.5
49
22
74
0
49
-8.5
74
0
49
8.5
74
0
49
-8.5
74
0
0
LTYPE
5
6F
100
AcDbSymbolTableRecord
100
AcDbLinetypeTableRecord
70
0
2
DASHED
3
__ __ __ __ __ __ __ __ __
72
65
73
2
40
25.72
49
12.86
74
0
49
-12.86
74
0
0
ENDTAB
0
TABLE
2
LAYER
5
26d
100
AcDbSymbolTable
0
LAYER
5
10
100
AcDbSymbolTableRecord
100
AcDbLayerTableRecord
2
0
70
0
62
7
6
Continuous
290
1
370
-3
390
0
0
LAYER
5
71
100
AcDbSymbolTableRecord
100
AcDbLayerTableRecord
2
80
70
0
62
-6
6
Continuous
290
1
370
-3
390
0
0
LAYER
5
73
100
AcDbSymbolTableRecord
100
AcDbLayerTableRecord
2
81
70
0
62
-3
6
Continuous
290
1
370
-3
390
0
0
LAYER
5
75
100
AcDbSymbolTableRecord
100
AcDbLayerTableRecord
2
1
70
0
62
4
6
Continuous
290
1
370
-3
390
0
0
LAYER
5
A9
100
AcDbSymbolTableRecord
100
AcDbLayerTableRecord
2
4
70
0
62
-2
6
CENTER
290
1
370
-3
390
0
0
LAYER
5
12F
100
AcDbSymbolTableRecord
100
AcDbLayerTableRecord
2
Defpoints
70
0
62
7
6
Continuous
290
0
370
-3
390
0
0
LAYER
5
15C
100
AcDbSymbolTableRecord
100
AcDbLayerTableRecord
2
2
70
0
62
7
6
Continuous
290
1
370
-3
390
0
0
LAYER
5
257
100
AcDbSymbolTableRecord
100
AcDbLayerTableRecord
2
SK1
70
0
62
4
6
Continuous
290
1
370
-3
390
0
0
LAYER
5
258
100
AcDbSymbolTableRecord
100
AcDbLayerTableRecord
2
SK4
70
0
62
2
6
CENTER
290
1
370
-3
390
0
0
LAYER
5
259
100
AcDbSymbolTableRecord
100
AcDbLayerTableRecord
2
SK2
70
0
62
7
6
Continuous
290
1
370
-3
390
0
0
LAYER
5
25a
100
AcDbSymbolTableRecord
100
AcDbLayerTableRecord
2
SK6
70
0
62
5
6
Continuous
290
1
370
-3
390
0
0
ENDTAB
0
TABLE
2
STYLE
5
26e
100
AcDbSymbolTable
0
STYLE
5
11
100
AcDbSymbolTableRecord
100
AcDbTextStyleTableRecord
2
Standard
3
txt
70
0
71
0
40
0
41
1
42
0
50
0
0
STYLE
5
120
100
AcDbSymbolTableRecord
100
AcDbTextStyleTableRecord
2
iso_b_vert
3
simplex.shx
70
0
71
0
40
0
41
1
42
0
50
0
0
STYLE
5
121
100
AcDbSymbolTableRecord
100
AcDbTextStyleTableRecord
2
DWGDirectTextStyle
3
simplex
70
0
71
0
40
0
41
1
42
0
50
0
0
ENDTAB
0
TABLE
2
DIMSTYLE
5
26f
100
AcDbSymbolTable
100
AcDbDimStyleTable
0
DIMSTYLE
105
27
100
AcDbSymbolTableRecord
100
AcDbDimStyleTableRecord
2
Standard
70
0
3
<>
41
0.18
42
0.0625
44
0.18
140
0.18
147
0.09
73
0
74
0
77
1
271
2
275
0
278
52
280
0
340
11
0
ENDTAB
0
TABLE
2
VIEW
5
270
100
AcDbSymbolTable
0
ENDTAB
0
TABLE
2
UCS
5
271
100
AcDbSymbolTable
0
ENDTAB
0
TABLE
2
APPID
5
272
100
AcDbSymbolTable
0
APPID
5
12
100
AcDbSymbolTableRecord
100
AcDbRegAppTableRecord
2
ACAD
70
0
0
APPID
5
124
100
AcDbSymbolTableRecord
100
AcDbRegAppTableRecord
2
ACAD_DSTYLE_DIMBREAK
70
0
0
APPID
5
216
100
AcDbSymbolTableRecord
100
AcDbRegAppTableRecord
2
ACAD_DSTYLE_DIM_LINETYPE
70
0
0
APPID
5
217
100
AcDbSymbolTableRecord
100
AcDbRegAppTableRecord
2
ACAD_DSTYLE_DIM_EXT1_LINETYPE
70
0
0
APPID
5
218
100
AcDbSymbolTableRecord
100
AcDbRegAppTableRecord
2
ACAD_DSTYLE_DIM_EXT2_LINETYPE
70
0
0
APPID
5
253
100
AcDbSymbolTableRecord
100
AcDbRegAppTableRecord
2
ACAD_MLEADERVER
70
0
0
ENDTAB
0
TABLE
2
BLOCK_RECORD
5
273
100
AcDbSymbolTable
0
BLOCK_RECORD
5
1F
100
AcDbSymbolTableRecord
100
AcDbBlockTableRecord
2
*Model_Space
340
0
70
0
0
BLOCK_RECORD
5
1B
100
AcDbSymbolTableRecord
100
AcDbBlockTableRecord
2
*Paper_Space
340
0
70
0
0
BLOCK_RECORD
5
23
100
AcDbSymbolTableRecord
100
AcDbBlockTableRecord
2
*Paper_Space0
340
0
70
0
0
BLOCK_RECORD
5
126
100
AcDbSymbolTableRecord
100
AcDbBlockTableRecord
2
_Closed
340
0
70
0
0
BLOCK_RECORD
5
130
100
AcDbSymbolTableRecord
100
AcDbBlockTableRecord
2
*D2
340
0
70
0
0
BLOCK_RECORD
5
13C
100
AcDbSymbolTableRecord
100
AcDbBlockTableRecord
2
_U0
340
0
70
0
0
BLOCK_RECORD
5
14E
100
AcDbSymbolTableRecord
100
AcDbBlockTableRecord
2
*D4
340
0
70
0
0
BLOCK_RECORD
5
15D
100
AcDbSymbolTableRecord
100
AcDbBlockTableRecord
2
_U1
340
0
70
0
0
BLOCK_RECORD
5
16D
100
AcDbSymbolTableRecord
100
AcDbBlockTableRecord
2
*D6
340
0
70
0
0
BLOCK_RECORD
5
17B
100
AcDbSymbolTableRecord
100
AcDbBlockTableRecord
2
_U2
340
0
70
0
0
BLOCK_RECORD
5
18B
100
AcDbSymbolTableRecord
100
AcDbBlockTableRecord
2
*D8
340
0
70
0
0
BLOCK_RECORD
5
197
100
AcDbSymbolTableRecord
100
AcDbBlockTableRecord
2
_U3
340
0
70
0
0
BLOCK_RECORD
5
1A7
100
AcDbSymbolTableRecord
100
AcDbBlockTableRecord
2
*D10
340
0
70
0
0
BLOCK_RECORD
5
1B3
100
AcDbSymbolTableRecord
100
AcDbBlockTableRecord
2
_U4
340
0
70
0
0
BLOCK_RECORD
5
1C3
100
AcDbSymbolTableRecord
100
AcDbBlockTableRecord
2
*D12
340
0
70
0
0
BLOCK_RECORD
5
1CF
100
AcDbSymbolTableRecord
100
AcDbBlockTableRecord
2
_U5
340
0
70
0
0
BLOCK_RECORD
5
1DF
100
AcDbSymbolTableRecord
100
AcDbBlockTableRecord
2
*D14
340
0
70
0
0
BLOCK_RECORD
5
1EB
100
AcDbSymbolTableRecord
100
AcDbBlockTableRecord
2
_U6
340
0
70
0
0
ENDTAB
0
ENDSEC
0
SECTION
2
BLOCKS
0
BLOCK
5
20
100
AcDbEntity
8
0
100
AcDbBlockBegin
2
*Model_Space
70
0
10
0
20
0
30
0
3
*Model_Space
0
ENDBLK
5
21
100
AcDbEntity
8
0
100
AcDbBlockEnd
0
BLOCK
5
1C
100
AcDbEntity
8
0
100
AcDbBlockBegin
2
*Paper_Space
70
0
10
0
20
0
30
0
3
*Paper_Space
0
ENDBLK
5
1D
100
AcDbEntity
8
0
100
AcDbBlockEnd
0
BLOCK
5
24
100
AcDbEntity
8
0
100
AcDbBlockBegin
2
*Paper_Space0
70
0
10
0
20
0
30
0
3
*Paper_Space0
0
ENDBLK
5
25
100
AcDbEntity
8
0
100
AcDbBlockEnd
0
BLOCK
5
127
100
AcDbEntity
8
0
100
AcDbBlockBegin
2
_Closed
70
0
10
0
20
0
30
0
3
_Closed
0
LINE
5
129
100
AcDbEntity
8
0
62
256
6
ByLayer
370
-2
48
1
60
0
100
AcDbLine
10
-1
20
0.166667
30
0
11
0
21
0
31
0
39
0
210
0
220
0
230
1
0
LINE
5
12A
100
AcDbEntity
8
0
62
256
6
ByLayer
370
-2
48
1
60
0
100
AcDbLine
10
0
20
0
30
0
11
-1
21
-0.166667
31
0
39
0
210
0
220
0
230
1
0
LINE
5
12B
100
AcDbEntity
8
0
62
256
6
ByLayer
370
-2
48
1
60
0
100
AcDbLine
10
-1
20
0.166667
30
0
11
-1
21
-0.166667
31
0
39
0
210
0
220
0
230
1
0
LINE
5
12C
100
AcDbEntity
8
0
62
256
6
ByLayer
370
-2
48
1
60
0
100
AcDbLine
10
0
20
0
30
0
11
-1
21
0
31
0
39
0
210
0
220
0
230
1
0
ENDBLK
5
128
100
AcDbEntity
8
0
100
AcDbBlockEnd
0
BLOCK
5
131
100
AcDbEntity
8
0
100
AcDbBlockBegin
2
*D2
70
1
10
0
20
0
30
0
3
*D2
0
LINE
5
133
100
AcDbEntity
8
0
62
256
6
ByLayer
370
-2
48
1
60
0
100
AcDbLine
10
0
20
-4.5875
30
0
11
0
21
-29.67512
31
0
39
0
210
0
220
0
230
1
0
LINE
5
134
100
AcDbEntity
8
0
62
256
6
ByLayer
370
-2
48
1
60
0
100
AcDbLine
10
38
20
-1.5875
30
0
11
38
21
-29.67512
31
0
39
0
210
0
220
0
230
1
0
LINE
5
135
100
AcDbEntity
8
0
62
256
6
ByLayer
370
-2
48
1
60
0
100
AcDbLine
10
3.175
20
-26.50012
30
0
11
34.825
21
-26.50012
31
0
39
0
210
0
220
0
230
1
0
SOLID
5
136
100
AcDbEntity
8
0
62
256
6
ByLayer
370
-1
48
1
60
0
100
AcDbTrace
10
3.175
20
-25.970953
30
0
11
3.175
21
-27.029287
31
0
12
0
22
-26.50012
32
0
13
0
23
-26.50012
33
0
39
0
210
0
220
0
230
1
0
SOLID
5
137
100
AcDbEntity
8
0
62
256
6
ByLayer
370
-1
48
1
60
0
100
AcDbTrace
10
34.825
20
-27.029287
30
0
11
34.825
21
-25.970953
31
0
12
38
22
-26.50012
32
0
13
38
23
-26.50012
33
0
39
0
210
0
220
0
230
1
0
MTEXT
5
138
100
AcDbEntity
8
0
62
256
6
ByLayer
370
18
48
1
60
0
100
AcDbMText
10
19
20
-19.193619
30
0
210
0
220
0
230
1
1
\A1;38
40
3.50012
41
0
44
1
50
0
71
5
72
5
7
iso_b_vert
0
POINT
5
139
100
AcDbEntity
8
Defpoints
62
0
6
ByLayer
370
-1
48
1
60
0
100
AcDbPoint
10
0
20
-3
30
0
39
0
210
0
220
0
230
1
50
360
0
POINT
5
13A
100
AcDbEntity
8
Defpoints
62
0
6
ByLayer
370
-1
48
1
60
0
100
AcDbPoint
10
38
20
0
30
0
39
0
210
0
220
0
230
1
50
360
0
POINT
5
13B
100
AcDbEntity
8
Defpoints
62
0
6
ByLayer
370
-1
48
1
60
0
100
AcDbPoint
10
38
20
-26.50012
30
0
39
0
210
0
220
0
230
1
50
360
0
ENDBLK
5
132
100
AcDbEntity
8
0
100
AcDbBlockEnd
0
BLOCK
5
149
100
AcDbEntity
8
0
100
AcDbBlockBegin
2
_U0
70
0
10
0
20
0
30
0
3
_U0
0
MTEXT
5
13D
100
AcDbEntity
8
SK2
62
256
6
ByLayer
370
18
48
1
60
0
100
AcDbMText
10
13.770389
20
-25.467451
30
0
210
0
220
0
230
1
1
\W0.7468;38.00
40
3.50012
41
0
44
1.084337
50
0
71
7
72
5
7
iso_b_vert
0
MTEXT
5
13E
100
AcDbEntity
8
SK2
62
256
6
ByLayer
370
18
48
1
60
0
100
AcDbMText
10
10.244329
20
-25.400814
30
0
210
0
220
0
230
1
1
\W0.1790;(
40
3.175
41
0
44
1.084337
50
0
71
7
72
5
7
iso_b_vert
0
MTEXT
5
13F
100
AcDbEntity
8
SK2
62
256
6
ByLayer
370
18
48
1
60
0
100
AcDbMText
10
27.758393
20
-25.400814
30
0
210
0
220
0
230
1
1
\W0.1969;)
40
3.175
41
0
44
1.084337
50
0
71
7
72
5
7
iso_b_vert
0
LINE
5
140
100
AcDbEntity
8
SK2
62
256
6
ByLayer
370
13
48
1
60
0
100
AcDbLine
10
0
20
-4.5875
30
0
11
0
21
-29.67512
31
0
39
0
210
0
220
0
230
1
0
LINE
5
141
100
AcDbEntity
8
SK2
62
256
6
ByLayer
370
13
48
1
60
0
100
AcDbLine
10
38
20
-1.5875
30
0
11
38
21
-29.67512
31
0
39
0
210
0
220
0
230
1
0
LINE
5
142
100
AcDbEntity
8
SK2
62
256
6
ByLayer
370
13
48
1
60
0
100
AcDbLine
10
0
20
-26.50012
30
0
11
38
21
-26.50012
31
0
39
0
210
0
220
0
230
1
0
LINE
5
143
100
AcDbEntity
8
SK2
62
256
6
ByLayer
370
13
48
1
60
0
100
AcDbLine
10
0
20
-26.50012
30
0
11
3.174998
21
-26.082123
31
0
39
0
210
0
220
0
230
1
0
LINE
5
144
100
AcDbEntity
8
SK2
62
256
6
ByLayer
370
13
48
1
60
0
100
AcDbLine
10
0
20
-26.50012
30
0
11
3.175002
21
-26.918117
31
0
39
0
210
0
220
0
230
1
0
LINE
5
145
100
AcDbEntity
8
SK2
62
256
6
ByLayer
370
13
48
1
60
0
100
AcDbLine
10
3.174998
20
-26.082123
30
0
11
3.175002
21
-26.918117
31
0
39
0
210
0
220
0
230
1
0
LINE
5
146
100
AcDbEntity
8
SK2
62
256
6
ByLayer
370
13
48
1
60
0
100
AcDbLine
10
38
20
-26.50012
30
0
11
34.825002
21
-26.918117
31
0
39
0
210
0
220
0
230
1
0
LINE
5
147
100
AcDbEntity
8
SK2
62
256
6
ByLayer
370
13
48
1
60
0
100
AcDbLine
10
38
20
-26.50012
30
0
11
34.824998
21
-26.082123
31
0
39
0
210
0
220
0
230
1
0
LINE
5
148
100
AcDbEntity
8
SK2
62
256
6
ByLayer
370
13
48
1
60
0
100
AcDbLine
10
34.825002
20
-26.918117
30
0
11
34.824998
21
-26.082123
31
0
39
0
210
0
220
0
230
1
0
ENDBLK
5
14A
100
AcDbEntity
8
0
100
AcDbBlockEnd
0
BLOCK
5
14F
100
AcDbEntity
8
0
100
AcDbBlockBegin
2
*D4
70
1
10
0
20
0
30
0
3
*D4
0
LINE
5
151
100
AcDbEntity
8
0
62
256
6
ByLayer
370
-2
48
1
60
0
100
AcDbLine
10
38.8232
20
-2.1
30
0
11
47.92506
21
-2.1
31
0
39
0
210
0
220
0
230
1
0
LINE
5
152
100
AcDbEntity
8
0
62
256
6
ByLayer
370
-2
48
1
60
0
100
AcDbLine
10
38.8232
20
2.1
30
0
11
47.92506
21
2.1
31
0
39
0
210
0
220
0
230
1
0
LINE
5
153
100
AcDbEntity
8
0
62
256
6
ByLayer
370
-2
48
1
60
0
100
AcDbLine
10
44.75006
20
2.1
30
0
11
44.75006
21
26.896466
31
0
39
0
210
0
220
0
230
1
0
LINE
5
154
100
AcDbEntity
8
0
62
256
6
ByLayer
370
-2
48
1
60
0
100
AcDbLine
10
44.75006
20
-5.275
30
0
11
44.75006
21
-8.45
31
0
39
0
210
0
220
0
230
1
0
LINE
5
155
100
AcDbEntity
8
0
62
256
6
ByLayer
370
-2
48
1
60
0
100
AcDbLine
10
44.75006
20
5.275
30
0
11
44.75006
21
8.45
31
0
39
0
210
0
220
0
230
1
0
SOLID
5
156
100
AcDbEntity
8
0
62
256
6
ByLayer
370
-1
48
1
60
0
100
AcDbTrace
10
45.279227
20
-5.275
30
0
11
44.220893
21
-5.275
31
0
12
44.75006
22
-2.1
32
0
13
44.75006
23
-2.1
33
0
39
0
210
0
220
0
230
1
0
SOLID
5
157
100
AcDbEntity
8
0
62
256
6
ByLayer
370
-1
48
1
60
0
100
AcDbTrace
10
44.220893
20
5.275
30
0
11
45.279227
21
5.275
31
0
12
44.75006
22
2.1
32
0
13
44.75006
23
2.1
33
0
39
0
210
0
220
0
230
1
0
MTEXT
5
158
100
AcDbEntity
8
0
62
256
6
ByLayer
370
18
48
1
60
0
100
AcDbMText
10
37.443559
20
17.673233
30
0
210
0
220
0
230
1
1
\A1;4.2
40
3.50012
41
0
44
1
50
90
71
5
72
5
7
iso_b_vert
0
POINT
5
159
100
AcDbEntity
8
Defpoints
62
0
6
ByLayer
370
-1
48
1
60
0
100
AcDbPoint
10
37.2357
20
-2.1
30
0
39
0
210
0
220
0
230
1
50
360
0
POINT
5
15A
100
AcDbEntity
8
Defpoints
62
0
6
ByLayer
370
-1
48
1
60
0
100
AcDbPoint
10
37.2357
20
2.1
30
0
39
0
210
0
220
0
230
1
50
360
0
POINT
5
15B
100
AcDbEntity
8
Defpoints
62
0
6
ByLayer
370
-1
48
1
60
0
100
AcDbPoint
10
44.75006
20
2.1
30
0
39
0
210
0
220
0
230
1
50
360
0
ENDBLK
5
150
100
AcDbEntity
8
0
100
AcDbBlockEnd
0
BLOCK
5
168
100
AcDbEntity
8
0
100
AcDbBlockBegin
2
_U1
70
0
10
0
20
0
30
0
3
_U1
0
MTEXT
5
15E
100
AcDbEntity
8
2
62
256
6
ByLayer
370
18
48
1
60
0
100
AcDbMText
10
44.060403
20
6.257505
30
0
210
0
220
0
230
1
1
\W0.7640;4.20
40
3.50012
41
0
44
1.084337
50
90
71
7
72
5
7
iso_b_vert
0
LINE
5
15F
100
AcDbEntity
8
2
62
256
6
ByLayer
370
13
48
1
60
0
100
AcDbLine
10
38.8232
20
-2.1
30
0
11
47.92506
21
-2.1
31
0
39
0
210
0
220
0
230
1
0
LINE
5
160
100
AcDbEntity
8
2
62
256
6
ByLayer
370
13
48
1
60
0
100
AcDbLine
10
38.8232
20
2.1
30
0
11
47.92506
21
2.1
31
0
39
0
210
0
220
0
230
1
0
LINE
5
161
100
AcDbEntity
8
2
62
256
6
ByLayer
370
13
48
1
60
0
100
AcDbLine
10
44.75006
20
14.683226
30
0
11
44.75006
21
-10.8503
31
0
39
0
210
0
220
0
230
1
0
LINE
5
162
100
AcDbEntity
8
2
62
256
6
ByLayer
370
13
48
1
60
0
100
AcDbLine
10
44.75006
20
-2.1
30
0
11
45.168057
21
-5.274998
31
0
39
0
210
0
220
0
230
1
0
LINE
5
163
100
AcDbEntity
8
2
62
256
6
ByLayer
370
13
48
1
60
0
100
AcDbLine
10
44.75006
20
-2.1
30
0
11
44.332063
21
-5.275002
31
0
39
0
210
0
220
0
230
1
0
LINE
5
164
100
AcDbEntity
8
2
62
256
6
ByLayer
370
13
48
1
60
0
100
AcDbLine
10
45.168057
20
-5.274998
30
0
11
44.332063
21
-5.275002
31
0
39
0
210
0
220
0
230
1
0
LINE
5
165
100
AcDbEntity
8
2
62
256
6
ByLayer
370
13
48
1
60
0
100
AcDbLine
10
44.75006
20
2.1
30
0
11
44.332063
21
5.274998
31
0
39
0
210
0
220
0
230
1
0
LINE
5
166
100
AcDbEntity
8
2
62
256
6
ByLayer
370
13
48
1
60
0
100
AcDbLine
10
44.75006
20
2.1
30
0
11
45.168057
21
5.275002
31
0
39
0
210
0
220
0
230
1
0
LINE
5
167
100
AcDbEntity
8
2
62
256
6
ByLayer
370
13
48
1
60
0
100
AcDbLine
10
44.332063
20
5.274998
30
0
11
45.168057
21
5.275002
31
0
39
0
210
0
220
0
230
1
0
ENDBLK
5
169
100
AcDbEntity
8
0
100
AcDbBlockEnd
0
BLOCK
5
16E
100
AcDbEntity
8
0
100
AcDbBlockBegin
2
*D6
70
1
10
0
20
0
30
0
3
*D6
0
LINE
5
170
100
AcDbEntity
8
0
62
256
6
ByLayer
370
-2
48
1
60
0
100
AcDbLine
10
-37.5875
20
3
30
0
11
-42.42494
21
3
31
0
39
0
210
0
220
0
230
1
0
LINE
5
171
100
AcDbEntity
8
0
62
256
6
ByLayer
370
-2
48
1
60
0
100
AcDbLine
10
-37.5875
20
-3
30
0
11
-42.42494
21
-3
31
0
39
0
210
0
220
0
230
1
0
LINE
5
172
100
AcDbEntity
8
0
62
256
6
ByLayer
370
-2
48
1
60
0
100
AcDbLine
10
-39.24994
20
3
30
0
11
-39.24994
21
23.747151
31
0
39
0
210
0
220
0
230
1
0
LINE
5
173
100
AcDbEntity
8
0
62
256
6
ByLayer
370
-2
48
1
60
0
100
AcDbLine
10
-39.24994
20
6.175
30
0
11
-39.24994
21
9.35
31
0
39
0
210
0
220
0
230
1
0
LINE
5
174
100
AcDbEntity
8
0
62
256
6
ByLayer
370
-2
48
1
60
0
100
AcDbLine
10
-39.24994
20
-6.175
30
0
11
-39.24994
21
-9.35
31
0
39
0
210
0
220
0
230
1
0
SOLID
5
175
100
AcDbEntity
8
0
62
256
6
ByLayer
370
-1
48
1
60
0
100
AcDbTrace
10
-39.779107
20
6.175
30
0
11
-38.720773
21
6.175
31
0
12
-39.24994
22
3
32
0
13
-39.24994
23
3
33
0
39
0
210
0
220
0
230
1
0
SOLID
5
176
100
AcDbEntity
8
0
62
256
6
ByLayer
370
-1
48
1
60
0
100
AcDbTrace
10
-38.720773
20
-6.175
30
0
11
-39.779107
21
-6.175
31
0
12
-39.24994
22
-3
32
0
13
-39.24994
23
-3
33
0
39
0
210
0
220
0
230
1
0
MTEXT
5
177
100
AcDbEntity
8
0
62
256
6
ByLayer
370
18
48
1
60
0
100
AcDbMText
10
-46.556441
20
17.10734
30
0
210
0
220
0
230
1
1
\A1;6
40
3.50012
41
0
44
1
50
90
71
5
72
5
7
iso_b_vert
0
POINT
5
178
100
AcDbEntity
8
Defpoints
62
0
6
ByLayer
370
-1
48
1
60
0
100
AcDbPoint
10
-36
20
3
30
0
39
0
210
0
220
0
230
1
50
360
0
POINT
5
179
100
AcDbEntity
8
Defpoints
62
0
6
ByLayer
370
-1
48
1
60
0
100
AcDbPoint
10
-36
20
-3
30
0
39
0
210
0
220
0
230
1
50
360
0
POINT
5
17A
100
AcDbEntity
8
Defpoints
62
0
6
ByLayer
370
-1
48
1
60
0
100
AcDbPoint
10
-39.24994
20
-3
30
0
39
0
210
0
220
0
230
1
50
360
0
ENDBLK
5
16F
100
AcDbEntity
8
0
100
AcDbBlockEnd
0
BLOCK
5
186
100
AcDbEntity
8
0
100
AcDbBlockBegin
2
_U2
70
0
10
0
20
0
30
0
3
_U2
0
MTEXT
5
17C
100
AcDbEntity
8
SK2
62
256
6
ByLayer
370
18
48
1
60
0
100
AcDbMText
10
-39.939597
20
13.157505
30
0
210
0
220
0
230
1
1
\W0.7346;6.00
40
3.50012
41
0
44
1.084337
50
90
71
7
72
5
7
iso_b_vert
0
LINE
5
17D
100
AcDbEntity
8
SK2
62
256
6
ByLayer
370
13
48
1
60
0
100
AcDbLine
10
-37.5875
20
3
30
0
11
-42.42494
21
3
31
0
39
0
210
0
220
0
230
1
0
LINE
5
17E
100
AcDbEntity
8
SK2
62
256
6
ByLayer
370
13
48
1
60
0
100
AcDbLine
10
-37.5875
20
-3
30
0
11
-42.42494
21
-3
31
0
39
0
210
0
220
0
230
1
0
LINE
5
17F
100
AcDbEntity
8
SK2
62
256
6
ByLayer
370
13
48
1
60
0
100
AcDbLine
10
-39.24994
20
-11.7503
30
0
11
-39.24994
21
21.21468
31
0
39
0
210
0
220
0
230
1
0
LINE
5
180
100
AcDbEntity
8
SK2
62
256
6
ByLayer
370
13
48
1
60
0
100
AcDbLine
10
-39.24994
20
3
30
0
11
-39.667937
21
6.174998
31
0
39
0
210
0
220
0
230
1
0
LINE
5
181
100
AcDbEntity
8
SK2
62
256
6
ByLayer
370
13
48
1
60
0
100
AcDbLine
10
-39.24994
20
3
30
0
11
-38.831943
21
6.175002
31
0
39
0
210
0
220
0
230
1
0
LINE
5
182
100
AcDbEntity
8
SK2
62
256
6
ByLayer
370
13
48
1
60
0
100
AcDbLine
10
-39.667937
20
6.174998
30
0
11
-38.831943
21
6.175002
31
0
39
0
210
0
220
0
230
1
0
LINE
5
183
100
AcDbEntity
8
SK2
62
256
6
ByLayer
370
13
48
1
60
0
100
AcDbLine
10
-39.24994
20
-3
30
0
11
-38.831943
21
-6.174998
31
0
39
0
210
0
220
0
230
1
0
LINE
5
184
100
AcDbEntity
8
SK2
62
256
6
ByLayer
370
13
48
1
60
0
100
AcDbLine
10
-39.24994
20
-3
30
0
11
-39.667937
21
-6.175002
31
0
39
0
210
0
220
0
230
1
0
LINE
5
185
100
AcDbEntity
8
SK2
62
256
6
ByLayer
370
13
48
1
60
0
100
AcDbLine
10
-38.831943
20
-6.174998
30
0
11
-39.667937
21
-6.175002
31
0
39
0
210
0
220
0
230
1
0
ENDBLK
5
187
100
AcDbEntity
8
0
100
AcDbBlockEnd
0
BLOCK
5
18C
100
AcDbEntity
8
0
100
AcDbBlockBegin
2
*D8
70
1
10
0
20
0
30
0
3
*D8
0
LINE
5
18E
100
AcDbEntity
8
0
62
256
6
ByLayer
370
-2
48
1
60
0
100
AcDbLine
10
-36
20
-4.5875
30
0
11
-36
21
-29.67512
31
0
39
0
210
0
220
0
230
1
0
LINE
5
18F
100
AcDbEntity
8
0
62
256
6
ByLayer
370
-2
48
1
60
0
100
AcDbLine
10
0
20
-4.5875
30
0
11
0
21
-29.67512
31
0
39
0
210
0
220
0
230
1
0
LINE
5
190
100
AcDbEntity
8
0
62
256
6
ByLayer
370
-2
48
1
60
0
100
AcDbLine
10
-32.825
20
-26.50012
30
0
11
-3.175
21
-26.50012
31
0
39
0
210
0
220
0
230
1
0
SOLID
5
191
100
AcDbEntity
8
0
62
256
6
ByLayer
370
-1
48
1
60
0
100
AcDbTrace
10
-32.825
20
-25.970953
30
0
11
-32.825
21
-27.029287
31
0
12
-36
22
-26.50012
32
0
13
-36
23
-26.50012
33
0
39
0
210
0
220
0
230
1
0
SOLID
5
192
100
AcDbEntity
8
0
62
256
6
ByLayer
370
-1
48
1
60
0
100
AcDbTrace
10
-3.175
20
-27.029287
30
0
11
-3.175
21
-25.970953
31
0
12
0
22
-26.50012
32
0
13
0
23
-26.50012
33
0
39
0
210
0
220
0
230
1
0
MTEXT
5
193
100
AcDbEntity
8
0
62
256
6
ByLayer
370
18
48
1
60
0
100
AcDbMText
10
-18
20
-19.193619
30
0
210
0
220
0
230
1
1
\A1;36
40
3.50012
41
0
44
1
50
0
71
5
72
5
7
iso_b_vert
0
POINT
5
194
100
AcDbEntity
8
Defpoints
62
0
6
ByLayer
370
-1
48
1
60
0
100
AcDbPoint
10
-36
20
-3
30
0
39
0
210
0
220
0
230
1
50
360
0
POINT
5
195
100
AcDbEntity
8
Defpoints
62
0
6
ByLayer
370
-1
48
1
60
0
100
AcDbPoint
10
0
20
-3
30
0
39
0
210
0
220
0
230
1
50
360
0
POINT
5
196
100
AcDbEntity
8
Defpoints
62
0
6
ByLayer
370
-1
48
1
60
0
100
AcDbPoint
10
0
20
-26.50012
30
0
39
0
210
0
220
0
230
1
50
360
0
ENDBLK
5
18D
100
AcDbEntity
8
0
100
AcDbBlockEnd
0
BLOCK
5
1A2
100
AcDbEntity
8
0
100
AcDbBlockBegin
2
_U3
70
0
10
0
20
0
30
0
3
_U3
0
MTEXT
5
198
100
AcDbEntity
8
SK2
62
256
6
ByLayer
370
18
48
1
60
0
100
AcDbMText
10
-23.229611
20
-25.467451
30
0
210
0
220
0
230
1
1
\W0.7468;36.00
40
3.50012
41
0
44
1.084337
50
0
71
7
72
5
7
iso_b_vert
0
LINE
5
199
100
AcDbEntity
8
SK2
62
256
6
ByLayer
370
13
48
1
60
0
100
AcDbLine
10
-36
20
-4.5875
30
0
11
-36
21
-29.67512
31
0
39
0
210
0
220
0
230
1
0
LINE
5
19A
100
AcDbEntity
8
SK2
62
256
6
ByLayer
370
13
48
1
60
0
100
AcDbLine
10
0
20
-4.5875
30
0
11
0
21
-29.67512
31
0
39
0
210
0
220
0
230
1
0
LINE
5
19B
100
AcDbEntity
8
SK2
62
256
6
ByLayer
370
13
48
1
60
0
100
AcDbLine
10
-36
20
-26.50012
30
0
11
0
21
-26.50012
31
0
39
0
210
0
220
0
230
1
0
LINE
5
19C
100
AcDbEntity
8
SK2
62
256
6
ByLayer
370
13
48
1
60
0
100
AcDbLine
10
-36
20
-26.50012
30
0
11
-32.825002
21
-26.082123
31
0
39
0
210
0
220
0
230
1
0
LINE
5
19D
100
AcDbEntity
8
SK2
62
256
6
ByLayer
370
13
48
1
60
0
100
AcDbLine
10
-36
20
-26.50012
30
0
11
-32.824998
21
-26.918117
31
0
39
0
210
0
220
0
230
1
0
LINE
5
19E
100
AcDbEntity
8
SK2
62
256
6
ByLayer
370
13
48
1
60
0
100
AcDbLine
10
-32.825002
20
-26.082123
30
0
11
-32.824998
21
-26.918117
31
0
39
0
210
0
220
0
230
1
0
LINE
5
19F
100
AcDbEntity
8
SK2
62
256
6
ByLayer
370
13
48
1
60
0
100
AcDbLine
10
0
20
-26.50012
30
0
11
-3.174998
21
-26.918117
31
0
39
0
210
0
220
0
230
1
0
LINE
5
1A0
100
AcDbEntity
8
SK2
62
256
6
ByLayer
370
13
48
1
60
0
100
AcDbLine
10
0
20
-26.50012
30
0
11
-3.175002
21
-26.082123
31
0
39
0
210
0
220
0
230
1
0
LINE
5
1A1
100
AcDbEntity
8
SK2
62
256
6
ByLayer
370
13
48
1
60
0
100
AcDbLine
10
-3.174998
20
-26.918117
30
0
11
-3.175002
21
-26.082123
31
0
39
0
210
0
220
0
230
1
0
ENDBLK
5
1A3
100
AcDbEntity
8
0
100
AcDbBlockEnd
0
BLOCK
5
1A8
100
AcDbEntity
8
0
100
AcDbBlockBegin
2
*D10
70
1
10
0
20
0
30
0
3
*D10
0
LINE
5
1AA
100
AcDbEntity
8
0
62
256
6
ByLayer
370
-2
48
1
60
0
100
AcDbLine
10
2
20
1.0125
30
0
11
2
21
-20.92482
31
0
39
0
210
0
220
0
230
1
0
LINE
5
1AB
100
AcDbEntity
8
0
62
256
6
ByLayer
370
-2
48
1
60
0
100
AcDbLine
10
38
20
-1.5875
30
0
11
38
21
-20.92482
31
0
39
0
210
0
220
0
230
1
0
LINE
5
1AC
100
AcDbEntity
8
0
62
256
6
ByLayer
370
-2
48
1
60
0
100
AcDbLine
10
5.175
20
-17.74982
30
0
11
34.825
21
-17.74982
31
0
39
0
210
0
220
0
230
1
0
SOLID
5
1AD
100
AcDbEntity
8
0
62
256
6
ByLayer
370
-1
48
1
60
0
100
AcDbTrace
10
5.175
20
-17.220653
30
0
11
5.175
21
-18.278987
31
0
12
2
22
-17.74982
32
0
13
2
23
-17.74982
33
0
39
0
210
0
220
0
230
1
0
SOLID
5
1AE
100
AcDbEntity
8
0
62
256
6
ByLayer
370
-1
48
1
60
0
100
AcDbTrace
10
34.825
20
-18.278987
30
0
11
34.825
21
-17.220653
31
0
12
38
22
-17.74982
32
0
13
38
23
-17.74982
33
0
39
0
210
0
220
0
230
1
0
MTEXT
5
1AF
100
AcDbEntity
8
0
62
256
6
ByLayer
370
18
48
1
60
0
100
AcDbMText
10
20
20
-10.443319
30
0
210
0
220
0
230
1
1
\A1;36
40
3.50012
41
0
44
1
50
0
71
5
72
5
7
iso_b_vert
0
POINT
5
1B0
100
AcDbEntity
8
Defpoints
62
0
6
ByLayer
370
-1
48
1
60
0
100
AcDbPoint
10
2
20
2.6
30
0
39
0
210
0
220
0
230
1
50
360
0
POINT
5
1B1
100
AcDbEntity
8
Defpoints
62
0
6
ByLayer
370
-1
48
1
60
0
100
AcDbPoint
10
38
20
0
30
0
39
0
210
0
220
0
230
1
50
360
0
POINT
5
1B2
100
AcDbEntity
8
Defpoints
62
0
6
ByLayer
370
-1
48
1
60
0
100
AcDbPoint
10
38
20
-17.74982
30
0
39
0
210
0
220
0
230
1
50
360
0
ENDBLK
5
1A9
100
AcDbEntity
8
0
100
AcDbBlockEnd
0
BLOCK
5
1BE
100
AcDbEntity
8
0
100
AcDbBlockBegin
2
_U4
70
0
10
0
20
0
30
0
3
_U4
0
MTEXT
5
1B4
100
AcDbEntity
8
SK2
62
256
6
ByLayer
370
18
48
1
60
0
100
AcDbMText
10
14.770389
20
-16.717151
30
0
210
0
220
0
230
1
1
\W0.7468;36.00
40
3.50012
41
0
44
1.084337
50
0
71
7
72
5
7
iso_b_vert
0
LINE
5
1B5
100
AcDbEntity
8
SK2
62
256
6
ByLayer
370
13
48
1
60
0
100
AcDbLine
10
2
20
1.0125
30
0
11
2
21
-20.92482
31
0
39
0
210
0
220
0
230
1
0
LINE
5
1B6
100
AcDbEntity
8
SK2
62
256
6
ByLayer
370
13
48
1
60
0
100
AcDbLine
10
38
20
-1.5875
30
0
11
38
21
-20.92482
31
0
39
0
210
0
220
0
230
1
0
LINE
5
1B7
100
AcDbEntity
8
SK2
62
256
6
ByLayer
370
13
48
1
60
0
100
AcDbLine
10
2
20
-17.74982
30
0
11
38
21
-17.74982
31
0
39
0
210
0
220
0
230
1
0
LINE
5
1B8
100
AcDbEntity
8
SK2
62
256
6
ByLayer
370
13
48
1
60
0
100
AcDbLine
10
2
20
-17.74982
30
0
11
5.174998
21
-17.331823
31
0
39
0
210
0
220
0
230
1
0
LINE
5
1B9
100
AcDbEntity
8
SK2
62
256
6
ByLayer
370
13
48
1
60
0
100
AcDbLine
10
2
20
-17.74982
30
0
11
5.175002
21
-18.167817
31
0
39
0
210
0
220
0
230
1
0
LINE
5
1BA
100
AcDbEntity
8
SK2
62
256
6
ByLayer
370
13
48
1
60
0
100
AcDbLine
10
5.174998
20
-17.331823
30
0
11
5.175002
21
-18.167817
31
0
39
0
210
0
220
0
230
1
0
LINE
5
1BB
100
AcDbEntity
8
SK2
62
256
6
ByLayer
370
13
48
1
60
0
100
AcDbLine
10
38
20
-17.74982
30
0
11
34.825002
21
-18.167817
31
0
39
0
210
0
220
0
230
1
0
LINE
5
1BC
100
AcDbEntity
8
SK2
62
256
6
ByLayer
370
13
48
1
60
0
100
AcDbLine
10
38
20
-17.74982
30
0
11
34.824998
21
-17.331823
31
0
39
0
210
0
220
0
230
1
0
LINE
5
1BD
100
AcDbEntity
8
SK2
62
256
6
ByLayer
370
13
48
1
60
0
100
AcDbLine
10
34.825002
20
-18.167817
30
0
11
34.824998
21
-17.331823
31
0
39
0
210
0
220
0
230
1
0
ENDBLK
5
1BF
100
AcDbEntity
8
0
100
AcDbBlockEnd
0
BLOCK
5
1C4
100
AcDbEntity
8
0
100
AcDbBlockBegin
2
*D12
70
1
10
0
20
0
30
0
3
*D12
0
LINE
5
1C6
100
AcDbEntity
8
0
62
256
6
ByLayer
370
-2
48
1
60
0
100
AcDbLine
10
16.3
20
-3.6875
30
0
11
16.3
21
-10.32
31
0
39
0
210
0
220
0
230
1
0
LINE
5
1C7
100
AcDbEntity
8
0
62
256
6
ByLayer
370
-2
48
1
60
0
100
AcDbLine
10
38
20
-1.5875
30
0
11
38
21
-10.32
31
0
39
0
210
0
220
0
230
1
0
LINE
5
1C8
100
AcDbEntity
8
0
62
256
6
ByLayer
370
-2
48
1
60
0
100
AcDbLine
10
19.475
20
-9.82
30
0
11
34.825
21
-9.82
31
0
39
0
210
0
220
0
230
1
0
SOLID
5
1C9
100
AcDbEntity
8
0
62
256
6
ByLayer
370
-1
48
1
60
0
100
AcDbTrace
10
19.475
20
-9.290833
30
0
11
19.475
21
-10.349167
31
0
12
16.3
22
-9.82
32
0
13
16.3
23
-9.82
33
0
39
0
210
0
220
0
230
1
0
SOLID
5
1CA
100
AcDbEntity
8
0
62
256
6
ByLayer
370
-1
48
1
60
0
100
AcDbTrace
10
34.825
20
-10.349167
30
0
11
34.825
21
-9.290833
31
0
12
38
22
-9.82
32
0
13
38
23
-9.82
33
0
39
0
210
0
220
0
230
1
0
MTEXT
5
1CB
100
AcDbEntity
8
0
62
256
6
ByLayer
370
18
48
1
60
0
100
AcDbMText
10
27.15
20
-3.975
30
0
210
0
220
0
230
1
1
\A1;21.7
40
2.8
41
0
44
1
50
0
71
5
72
5
7
iso_b_vert
0
POINT
5
1CC
100
AcDbEntity
8
Defpoints
62
0
6
ByLayer
370
-1
48
1
60
0
100
AcDbPoint
10
16.3
20
-2.1
30
0
39
0
210
0
220
0
230
1
50
360
0
POINT
5
1CD
100
AcDbEntity
8
Defpoints
62
0
6
ByLayer
370
-1
48
1
60
0
100
AcDbPoint
10
38
20
0
30
0
39
0
210
0
220
0
230
1
50
360
0
POINT
5
1CE
100
AcDbEntity
8
Defpoints
62
0
6
ByLayer
370
-1
48
1
60
0
100
AcDbPoint
10
38
20
-9.82
30
0
39
0
210
0
220
0
230
1
50
360
0
ENDBLK
5
1C5
100
AcDbEntity
8
0
100
AcDbBlockEnd
0
BLOCK
5
1DA
100
AcDbEntity
8
0
100
AcDbBlockBegin
2
_U5
70
0
10
0
20
0
30
0
3
_U5
0
MTEXT
5
1D0
100
AcDbEntity
8
SK2
62
256
6
ByLayer
370
18
48
1
60
0
100
AcDbMText
10
23.316401
20
-9.973893
30
0
210
0
220
0
230
1
1
\W0.6864;21.70
40
2.8
41
0
44
1.084337
50
0
71
7
72
5
7
iso_b_vert
0
LINE
5
1D1
100
AcDbEntity
8
SK2
62
256
6
ByLayer
370
13
48
1
60
0
100
AcDbLine
10
16.3
20
-3.6875
30
0
11
16.3
21
-10.32
31
0
39
0
210
0
220
0
230
1
0
LINE
5
1D2
100
AcDbEntity
8
SK2
62
256
6
ByLayer
370
13
48
1
60
0
100
AcDbLine
10
38
20
-1.5875
30
0
11
38
21
-10.32
31
0
39
0
210
0
220
0
230
1
0
LINE
5
1D3
100
AcDbEntity
8
SK2
62
256
6
ByLayer
370
13
48
1
60
0
100
AcDbLine
10
16.3
20
-9.82
30
0
11
38
21
-9.82
31
0
39
0
210
0
220
0
230
1
0
LINE
5
1D4
100
AcDbEntity
8
SK2
62
256
6
ByLayer
370
13
48
1
60
0
100
AcDbLine
10
16.3
20
-9.82
30
0
11
19.474998
21
-9.402003
31
0
39
0
210
0
220
0
230
1
0
LINE
5
1D5
100
AcDbEntity
8
SK2
62
256
6
ByLayer
370
13
48
1
60
0
100
AcDbLine
10
16.3
20
-9.82
30
0
11
19.475002
21
-10.237997
31
0
39
0
210
0
220
0
230
1
0
LINE
5
1D6
100
AcDbEntity
8
SK2
62
256
6
ByLayer
370
13
48
1
60
0
100
AcDbLine
10
19.474998
20
-9.402003
30
0
11
19.475002
21
-10.237997
31
0
39
0
210
0
220
0
230
1
0
LINE
5
1D7
100
AcDbEntity
8
SK2
62
256
6
ByLayer
370
13
48
1
60
0
100
AcDbLine
10
38
20
-9.82
30
0
11
34.825002
21
-10.237997
31
0
39
0
210
0
220
0
230
1
0
LINE
5
1D8
100
AcDbEntity
8
SK2
62
256
6
ByLayer
370
13
48
1
60
0
100
AcDbLine
10
38
20
-9.82
30
0
11
34.824998
21
-9.402003
31
0
39
0
210
0
220
0
230
1
0
LINE
5
1D9
100
AcDbEntity
8
SK2
62
256
6
ByLayer
370
13
48
1
60
0
100
AcDbLine
10
34.825002
20
-10.237997
30
0
11
34.824998
21
-9.402003
31
0
39
0
210
0
220
0
230
1
0
ENDBLK
5
1DB
100
AcDbEntity
8
0
100
AcDbBlockEnd
0
BLOCK
5
1E0
100
AcDbEntity
8
0
100
AcDbBlockBegin
2
*D14
70
1
10
0
20
0
30
0
3
*D14
0
LINE
5
1E2
100
AcDbEntity
8
0
62
256
6
ByLayer
370
-2
48
1
60
0
100
AcDbLine
10
-36
20
-1.5875
30
0
11
-36
21
-39.67512
31
0
39
0
210
0
220
0
230
1
0
LINE
5
1E3
100
AcDbEntity
8
0
62
256
6
ByLayer
370
-2
48
1
60
0
100
AcDbLine
10
38
20
-1.5875
30
0
11
38
21
-39.67512
31
0
39
0
210
0
220
0
230
1
0
LINE
5
1E4
100
AcDbEntity
8
0
62
256
6
ByLayer
370
-2
48
1
60
0
100
AcDbLine
10
-32.825
20
-36.50012
30
0
11
34.825
21
-36.50012
31
0
39
0
210
0
220
0
230
1
0
SOLID
5
1E5
100
AcDbEntity
8
0
62
256
6
ByLayer
370
-1
48
1
60
0
100
AcDbTrace
10
-32.825
20
-35.970953
30
0
11
-32.825
21
-37.029287
31
0
12
-36
22
-36.50012
32
0
13
-36
23
-36.50012
33
0
39
0
210
0
220
0
230
1
0
SOLID
5
1E6
100
AcDbEntity
8
0
62
256
6
ByLayer
370
-1
48
1
60
0
100
AcDbTrace
10
34.825
20
-37.029287
30
0
11
34.825
21
-35.970953
31
0
12
38
22
-36.50012
32
0
13
38
23
-36.50012
33
0
39
0
210
0
220
0
230
1
0
MTEXT
5
1E7
100
AcDbEntity
8
0
62
256
6
ByLayer
370
18
48
1
60
0
100
AcDbMText
10
1
20
-29.193619
30
0
210
0
220
0
230
1
1
\A1;74
40
3.50012
41
0
44
1
50
0
71
5
72
5
7
iso_b_vert
0
POINT
5
1E8
100
AcDbEntity
8
Defpoints
62
0
6
ByLayer
370
-1
48
1
60
0
100
AcDbPoint
10
-36
20
0
30
0
39
0
210
0
220
0
230
1
50
360
0
POINT
5
1E9
100
AcDbEntity
8
Defpoints
62
0
6
ByLayer
370
-1
48
1
60
0
100
AcDbPoint
10
38
20
0
30
0
39
0
210
0
220
0
230
1
50
360
0
POINT
5
1EA
100
AcDbEntity
8
Defpoints
62
0
6
ByLayer
370
-1
48
1
60
0
100
AcDbPoint
10
38
20
-36.50012
30
0
39
0
210
0
220
0
230
1
50
360
0
ENDBLK
5
1E1
100
AcDbEntity
8
0
100
AcDbBlockEnd
0
BLOCK
5
1F6
100
AcDbEntity
8
0
100
AcDbBlockBegin
2
_U6
70
0
10
0
20
0
30
0
3
_U6
0
MTEXT
5
1EC
100
AcDbEntity
8
SK2
62
256
6
ByLayer
370
18
48
1
60
0
100
AcDbMText
10
-4.413884
20
-35.467451
30
0
210
0
220
0
230
1
1
\W0.7694;74.00
40
3.50012
41
0
44
1.084337
50
0
71
7
72
5
7
iso_b_vert
0
LINE
5
1ED
100
AcDbEntity
8
SK2
62
256
6
ByLayer
370
13
48
1
60
0
100
AcDbLine
10
-36
20
-1.5875
30
0
11
-36
21
-39.67512
31
0
39
0
210
0
220
0
230
1
0
LINE
5
1EE
100
AcDbEntity
8
SK2
62
256
6
ByLayer
370
13
48
1
60
0
100
AcDbLine
10
38
20
-1.5875
30
0
11
38
21
-39.67512
31
0
39
0
210
0
220
0
230
1
0
LINE
5
1EF
100
AcDbEntity
8
SK2
62
256
6
ByLayer
370
13
48
1
60
0
100
AcDbLine
10
-36
20
-36.50012
30
0
11
38
21
-36.50012
31
0
39
0
210
0
220
0
230
1
0
LINE
5
1F0
100
AcDbEntity
8
SK2
62
256
6
ByLayer
370
13
48
1
60
0
100
AcDbLine
10
-36
20
-36.50012
30
0
11
-32.825002
21
-36.082123
31
0
39
0
210
0
220
0
230
1
0
LINE
5
1F1
100
AcDbEntity
8
SK2
62
256
6
ByLayer
370
13
48
1
60
0
100
AcDbLine
10
-36
20
-36.50012
30
0
11
-32.824998
21
-36.918117
31
0
39
0
210
0
220
0
230
1
0
LINE
5
1F2
100
AcDbEntity
8
SK2
62
256
6
ByLayer
370
13
48
1
60
0
100
AcDbLine
10
-32.825002
20
-36.082123
30
0
11
-32.824998
21
-36.918117
31
0
39
0
210
0
220
0
230
1
0
LINE
5
1F3
100
AcDbEntity
8
SK2
62
256
6
ByLayer
370
13
48
1
60
0
100
AcDbLine
10
38
20
-36.50012
30
0
11
34.825002
21
-36.918117
31
0
39
0
210
0
220
0
230
1
0
LINE
5
1F4
100
AcDbEntity
8
SK2
62
256
6
ByLayer
370
13
48
1
60
0
100
AcDbLine
10
38
20
-36.50012
30
0
11
34.824998
21
-36.082123
31
0
39
0
210
0
220
0
230
1
0
LINE
5
1F5
100
AcDbEntity
8
SK2
62
256
6
ByLayer
370
13
48
1
60
0
100
AcDbLine
10
34.825002
20
-36.918117
30
0
11
34.824998
21
-36.082123
31
0
39
0
210
0
220
0
230
1
0
ENDBLK
5
1F7
100
AcDbEntity
8
0
100
AcDbBlockEnd
0
ENDSEC
0
SECTION
2
ENTITIES
0
ARC
5
B5
100
AcDbEntity
8
1
62
256
6
ByLayer
370
18
48
1
60
0
100
AcDbCircle
39
0
10
1.449419
20
2.877632
30
0
40
0.800000000000006
210
0
220
0
230
1
100
AcDbArc
50
205.057038
51
270.03581
0
ARC
5
B6
100
AcDbEntity
8
1
62
256
6
ByLayer
370
18
48
1
60
0
100
AcDbCircle
39
0
10
1.449419
20
-2.877632
30
0
40
0.800000000000006
210
0
220
0
230
1
100
AcDbArc
50
89.96419
51
154.942962
0
ARC
5
B7
100
AcDbEntity
8
1
62
256
6
ByLayer
370
18
48
1
60
0
100
AcDbCircle
39
0
10
0
20
2.2
30
0
40
0.799999999999997
210
0
220
0
230
1
100
AcDbArc
50
25.057038
51
90
0
ARC
5
B8
100
AcDbEntity
8
1
62
256
6
ByLayer
370
18
48
1
60
0
100
AcDbCircle
39
0
10
0
20
-2.2
30
0
40
0.799999999999997
210
0
220
0
230
1
100
AcDbArc
50
270
51
334.942962
0
ARC
5
B9
100
AcDbEntity
8
SK2
62
256
6
ByLayer
370
13
48
1
60
0
100
AcDbCircle
39
0
10
38
20
0
30
0
40
20
210
0
220
0
230
1
100
AcDbArc
50
9.606349
51
70.000903
0
ARC
5
BA
100
AcDbEntity
8
SK2
62
256
6
ByLayer
370
13
48
1
60
0
100
AcDbCircle
39
0
10
38
20
0
30
0
40
20
210
0
220
0
230
1
100
AcDbArc
50
289.999097
51
350.393651
0
ELLIPSE
5
BB
100
AcDbEntity
8
1
62
256
6
ByLayer
370
18
48
1
60
0
100
AcDbEllipse
10
3.558219
20
-1.981895
30
0
11
-0.00439311258840541
21
0.00898334914080456
31
0
210
0
220
0
230
1
40
0.484325
41
0.11659146704624
42
1.44454006431548
0
ELLIPSE
5
BC
100
AcDbEntity
8
1
62
256
6
ByLayer
370
18
48
1
60
0
100
AcDbEllipse
10
3.602238
20
-1.97327
30
0
11
-0.000598433401686499
21
-0.00998207781294786
31
0
210
0
220
0
230
1
40
0.48181
41
-3.02225591387293
42
-1.45444657520171
0
POINT
5
70
100
AcDbEntity
8
80
62
256
6
ByLayer
370
18
48
1
60
0
100
AcDbPoint
10
0
20
0
30
0
39
0
210
0
220
0
230
1
50
360
0
POINT
5
72
100
AcDbEntity
8
81
62
256
6
ByLayer
370
18
48
1
60
0
100
AcDbPoint
10
38
20
0
30
0
39
0
210
0
220
0
230
1
50
360
0
POINT
5
74
100
AcDbEntity
8
1
62
256
6
ByLayer
370
18
48
1
60
0
100
AcDbPoint
10
-36
20
0
30
0
39
0
210
0
220
0
230
1
50
360
0
POINT
5
76
100
AcDbEntity
8
1
62
256
6
ByLayer
370
18
48
1
60
1
100
AcDbPoint
10
0
20
-3
30
0
39
0
210
0
220
0
230
1
50
360
0
POINT
5
77
100
AcDbEntity
8
1
62
256
6
ByLayer
370
18
48
1
60
1
100
AcDbPoint
10
38
20
0
30
0
39
0
210
0
220
0
230
1
50
360
0
POINT
5
78
100
AcDbEntity
8
1
62
256
6
ByLayer
370
18
48
1
60
1
100
AcDbPoint
10
37.2357
20
-2.1
30
0
39
0
210
0
220
0
230
1
50
360
0
POINT
5
79
100
AcDbEntity
8
1
62
256
6
ByLayer
370
18
48
1
60
1
100
AcDbPoint
10
37.2357
20
2.1
30
0
39
0
210
0
220
0
230
1
50
360
0
POINT
5
7A
100
AcDbEntity
8
1
62
256
6
ByLayer
370
18
48
1
60
1
100
AcDbPoint
10
-36
20
3
30
0
39
0
210
0
220
0
230
1
50
360
0
POINT
5
7B
100
AcDbEntity
8
1
62
256
6
ByLayer
370
18
48
1
60
1
100
AcDbPoint
10
-36
20
-3
30
0
39
0
210
0
220
0
230
1
50
360
0
POINT
5
7C
100
AcDbEntity
8
1
62
256
6
ByLayer
370
18
48
1
60
1
100
AcDbPoint
10
-36
20
-3
30
0
39
0
210
0
220
0
230
1
50
360
0
POINT
5
7D
100
AcDbEntity
8
1
62
256
6
ByLayer
370
18
48
1
60
1
100
AcDbPoint
10
0
20
-3
30
0
39
0
210
0
220
0
230
1
50
360
0
POINT
5
7E
100
AcDbEntity
8
1
62
256
6
ByLayer
370
18
48
1
60
1
100
AcDbPoint
10
2
20
2.6
30
0
39
0
210
0
220
0
230
1
50
360
0
POINT
5
7F
100
AcDbEntity
8
1
62
256
6
ByLayer
370
18
48
1
60
1
100
AcDbPoint
10
38
20
0
30
0
39
0
210
0
220
0
230
1
50
360
0
POINT
5
80
100
AcDbEntity
8
1
62
256
6
ByLayer
370
18
48
1
60
1
100
AcDbPoint
10
16.3
20
-2.1
30
0
39
0
210
0
220
0
230
1
50
360
0
POINT
5
81
100
AcDbEntity
8
1
62
256
6
ByLayer
370
18
48
1
60
1
100
AcDbPoint
10
38
20
0
30
0
39
0
210
0
220
0
230
1
50
360
0
POINT
5
82
100
AcDbEntity
8
1
62
256
6
ByLayer
370
18
48
1
60
1
100
AcDbPoint
10
-36
20
0
30
0
39
0
210
0
220
0
230
1
50
360
0
POINT
5
83
100
AcDbEntity
8
1
62
256
6
ByLayer
370
18
48
1
60
1
100
AcDbPoint
10
38
20
0
30
0
39
0
210
0
220
0
230
1
50
360
0
SPLINE
5
BD
100
AcDbEntity
8
SK1
62
256
6
ByLayer
370
18
48
1
60
0
100
AcDbSpline
70
4
71
3
72
8
73
4
40
0
40
0
40
0
40
0
40
1
40
1
40
1
40
1
41
1
10
-35.8509618943233
20
1.17804569168842
30
-1E-16
41
1
10
-35.8173581035246
20
1.20616932680306
30
-1E-16
41
1
10
-35.7837018266103
20
1.23425406954192
30
-1E-16
41
1
10
-35.7499999999999
20
1.26230505981331
30
-1E-16
0
SPLINE
5
BE
100
AcDbEntity
8
SK1
62
256
6
ByLayer
370
18
48
1
60
0
100
AcDbSpline
70
4
71
3
72
12
73
8
40
0
40
0
40
0
40
0
40
0.500000000000001
40
0.500000000000001
40
0.750000000000001
40
0.750000000000001
40
1
40
1
40
1
40
1
41
1
10
-35.75
20
1.26230505981329
30
-1E-16
41
1
10
-35.7259913046562
20
1.28228818082638
30
-1E-16
41
1
10
-35.7033433879313
20
1.30840208633657
30
-1E-16
41
1
10
-35.6754686754417
20
1.35228925340817
30
-1E-16
41
1
10
-35.667025596347
20
1.36807847929271
30
-1E-16
41
1
10
-35.6543350076412
20
1.40004860139979
30
-1E-16
41
1
10
-35.65
20
1.41669090947875
30
-1E-16
41
1
10
-35.65
20
1.43083038291826
30
-1E-16
0
SPLINE
5
BF
100
AcDbEntity
8
SK1
62
256
6
ByLayer
370
18
48
1
60
0
100
AcDbSpline
70
4
71
3
72
12
73
8
40
0
40
0
40
0
40
0
40
0.25
40
0.25
40
0.5
40
0.5
40
1
40
1
40
1
40
1
41
1
10
-35.65
20
2.23214299801583
30
0
41
1
10
-35.65
20
2.23885262562749
30
0
41
1
10
-35.6543403470552
20
2.24125468241797
30
0
41
1
10
-35.6670034572333
20
2.24036733815547
30
0
41
1
10
-35.6754069618006
20
2.23720086375667
30
0
41
1
10
-35.7033744297257
20
2.22285473710593
30
0
41
1
10
-35.7260009806424
20
2.20687160618638
30
0
41
1
10
-35.7500000000001
20
2.18689653877215
30
0
0
SPLINE
5
C0
100
AcDbEntity
8
SK1
62
256
6
ByLayer
370
18
48
1
60
0
100
AcDbSpline
70
4
71
3
72
8
73
4
40
0
40
0
40
0
40
0
40
1
40
1
40
1
40
1
41
1
10
-36.0000000000001
20
2.03201874296985
30
0
41
1
10
-35.9478735570756
20
2.06589464134467
30
0
41
1
10
-35.897619057052
20
2.09049064244024
30
0
41
1
10
-35.8509618943233
20
2.10263717064714
30
0
0
SPLINE
5
C1
100
AcDbEntity
8
SK1
62
256
6
ByLayer
370
18
48
1
60
0
100
AcDbSpline
70
4
71
3
72
10
73
6
40
0
40
0
40
0
40
0
40
0.5
40
0.5
40
1
40
1
40
1
40
1
41
1
10
-35.8509618943233
20
1.17804569168842
30
-1E-16
41
1
10
-35.8741904300927
20
1.12239968263299
30
-1E-16
41
1
10
-35.8986222732874
20
1.06628631504492
30
-1E-16
41
1
10
-35.9485161922248
20
0.955088420525811
30
-1E-16
41
1
10
-35.974056478015
20
0.899810367879752
30
-1E-16
41
1
10
-35.9999999999999
20
0.844759436837705
30
-1E-16
0
SPLINE
5
C2
100
AcDbEntity
8
SK1
62
256
6
ByLayer
370
18
48
1
60
0
100
AcDbSpline
70
4
71
3
72
8
73
4
40
0
40
0
40
0
40
0
40
1
40
1
40
1
40
1
41
1
10
-35.75
20
2.186896538772
30
0
41
1
10
-35.7837019833557
20
2.15884541803703
30
0
41
1
10
-35.8173582673625
20
2.13076066864281
30
0
41
1
10
-35.8509618943233
20
2.10263717064714
30
0
0
SPLINE
5
C3
100
AcDbEntity
8
1
62
256
6
ByLayer
370
18
48
1
60
0
100
AcDbSpline
70
4
71
3
72
10
73
6
40
0
40
0
40
0
40
0
40
0.5
40
0.5
40
1
40
1
40
1
40
1
41
1
10
3.5533494561592
20
-1.97321972554425
30
0
41
1
10
3.53557700477427
20
-1.98203043176906
30
0
41
1
10
3.52287379524805
20
-1.99436787622415
30
0
41
1
10
3.50617683667338
20
-2.02075595452766
30
0
41
1
10
3.50204357384382
20
-2.03525940281037
30
0
41
1
10
3.50204357384382
20
-2.0493780480893
30
0
0
SPLINE
5
C4
100
AcDbEntity
8
1
62
256
6
ByLayer
370
18
48
1
60
0
100
AcDbSpline
70
4
71
3
72
8
73
4
40
0
40
0
40
0
40
0
40
1
40
1
40
1
40
1
41
1
10
37.2795608458074
20
1.9959968678356
30
0
41
1
10
37.2625110380529
20
2.00835455949013
30
0
41
1
10
37.249865160984
20
2.0095456310703
30
0
41
1
10
37.2402460188628
20
2.00018143117956
30
0
0
SPLINE
5
C5
100
AcDbEntity
8
1
62
256
6
ByLayer
370
18
48
1
60
0
100
AcDbSpline
70
4
71
3
72
10
73
6
40
0
40
0
40
0
40
0
40
0.500000000000001
40
0.500000000000001
40
1
40
1
40
1
40
1
41
1
10
37.1643608408419
20
0.310361029016264
30
0
41
1
10
37.1280350318289
20
0.298354624289175
30
0
41
1
10
37.0923223016148
20
0.281275795879992
30
0
41
1
10
37.0226637765809
20
0.239561690932959
30
0
41
1
10
36.9887713432028
20
0.214271081246011
30
0
41
1
10
36.956812206538
20
0.184348315965139
30
0
0
SPLINE
5
C6
100
AcDbEntity
8
1
62
256
6
ByLayer
370
18
48
1
60
0
100
AcDbSpline
70
4
71
3
72
22
73
18
40
0
40
0
40
0
40
0
40
0.103591850807732
40
0.103591850807732
40
0.207183701615464
40
0.207183701615464
40
0.41436740323092
40
0.41436740323092
40
0.517959254038645
40
0.517959254038645
40
0.621551104846371
40
0.621551104846371
40
0.828734806461822
40
0.828734806461822
40
0.932326657269547
40
0.932326657269547
40
1
40
1
40
1
40
1
41
1
10
37.2444685864828
20
-1.98831993374745
30
0
41
1
10
37.0690124042069
20
-1.97527492858097
30
0
41
1
10
36.894231024665
20
-1.95576860047669
30
0
41
1
10
36.5455033657998
20
-1.90251337696901
30
0
41
1
10
36.3715146794987
20
-1.8690557131952
30
0
41
1
10
35.8496518255781
20
-1.7492295111893
30
0
41
1
10
35.5019646779015
20
-1.64343203829912
30
1E-16
41
1
10
34.9752843884124
20
-1.450126816969
30
1E-16
41
1
10
34.7982402168729
20
-1.37964321834983
30
1E-16
41
1
10
34.4467570909218
20
-1.23025675695158
30
1E-16
41
1
10
34.2718657347218
20
-1.15121298337527
30
1E-16
41
1
10
33.7483407826023
20
-0.903303705137091
30
1E-16
41
1
10
33.400780846488
20
-0.723723335909625
30
0
41
1
10
32.8768955221951
20
-0.441154085818539
30
0
41
1
10
32.7017544134945
20
-0.344859050768292
30
0
41
1
10
32.4105936069863
20
-0.183427834678128
30
0
41
1
10
32.2952077642328
20
-0.119103025575299
30
0
41
1
10
32.180127807261
20
-0.054825171436562
30
0
0
SPLINE
5
C7
100
AcDbEntity
8
1
62
256
6
ByLayer
370
18
48
1
60
0
100
AcDbSpline
70
4
71
3
72
8
73
4
40
0
40
0
40
0
40
0
40
1
40
1
40
1
40
1
41
1
10
26.3344090323152
20
1.99733220414726
30
0
41
1
10
26.2283941187525
20
1.99527394191927
30
0
41
1
10
26.1224460766449
20
1.99060809937961
30
0
41
1
10
26.0164695367657
20
1.98330758244109
30
0
0
SPLINE
5
C8
100
AcDbEntity
8
1
62
256
6
ByLayer
370
18
48
1
60
0
100
AcDbSpline
70
4
71
3
72
24
73
20
40
0
40
0
40
0
40
0
40
0.0137545009715322
40
0.0137545009715322
40
0.197139517278149
40
0.197139517278149
40
0.380524533584766
40
0.380524533584766
40
0.472217041738072
40
0.472217041738072
40
0.563909549891379
40
0.563909549891379
40
0.747294566197996
40
0.747294566197996
40
0.838987074351303
40
0.838987074351303
40
0.930679582504609
40
0.930679582504609
40
1
40
1
40
1
40
1
41
1
10
15.256337692474
20
-1.99115431646331
30
0
41
1
10
15.2298582581185
20
-1.99132729199525
30
0
41
1
10
15.2033915384228
20
-1.99133345495878
30
0
41
1
10
14.8243516459838
20
-1.9890159576623
30
0
41
1
10
14.4755885896536
20
-1.95877932764427
30
0
41
1
10
13.777541762127
20
-1.8426156806085
30
0
41
1
10
13.4289408926283
20
-1.75803977698885
30
0
41
1
10
12.9002809676125
20
-1.59298554465693
30
1E-16
41
1
10
12.7229135256576
20
-1.53162796752272
30
1E-16
41
1
10
12.3711103011241
20
-1.39929788660496
30
1E-16
41
1
10
12.1959733453606
20
-1.32807508859719
30
1E-16
41
1
10
11.6714708927335
20
-1.10154915428987
30
1E-16
41
1
10
11.3235253513954
20
-0.933230864306807
30
1E-16
41
1
10
10.7979748980099
20
-0.663204424354092
30
0
41
1
10
10.6223937902841
20
-0.57017478260974
30
0
41
1
10
10.2692921425114
20
-0.379609501035361
30
0
41
1
10
10.0923434682826
20
-0.282466259374445
30
0
41
1
10
9.78386621466183
20
-0.112145028569955
30
0
41
1
10
9.6514912684288
20
-0.0385828850040753
30
0
41
1
10
9.51933150383496
20
0.0348046183817701
30
0
0
SPLINE
5
C9
100
AcDbEntity
8
1
62
256
6
ByLayer
370
18
48
1
60
0
100
AcDbSpline
70
4
71
3
72
10
73
6
40
0
40
0
40
0
40
0
40
0.5
40
0.5
40
1
40
1
40
1
40
1
41
1
10
37.4634511378058
20
0.583199418980939
30
0
41
1
10
37.5229833459792
20
0.593772256616546
30
0
41
1
10
37.5825582675741
20
0.605642217835992
30
0
41
1
10
37.7007257592231
20
0.63336940170268
30
0
41
1
10
37.7593382242288
20
0.649340791389449
30
0
41
1
10
37.816708355193
20
0.669208116283357
30
0
0
SPLINE
5
CA
100
AcDbEntity
8
1
62
256
6
ByLayer
370
18
48
1
60
0
100
AcDbSpline
70
4
71
3
72
8
73
4
40
0
40
0
40
0
40
0
40
1
40
1
40
1
40
1
41
1
10
3.60225949521134
20
-1.96332423799265
30
0
41
1
10
3.58525154374536
20
-1.96240737006499
30
0
41
1
10
3.56856611929808
20
-1.96567605327664
30
0
41
1
10
3.5533494561592
20
-1.97321972554425
30
0
0
SPLINE
5
CB
100
AcDbEntity
8
1
62
256
6
ByLayer
370
18
48
1
60
0
100
AcDbSpline
70
4
71
3
72
18
73
14
40
0
40
0
40
0
40
0
40
0.243046062868584
40
0.243046062868584
40
0.438072585295876
40
0.438072585295876
40
0.63514559939597
40
0.63514559939597
40
0.803487166875334
40
0.803487166875334
40
0.963416154773082
40
0.963416154773082
40
1
40
1
40
1
40
1
41
1
10
37.2469200818365
20
-1.97709866674651
30
0
41
1
10
37.2470303290943
20
-1.97727776343379
30
0
41
1
10
37.2470807367491
20
-1.97764733927761
30
0
41
1
10
37.2470280805312
20
-1.97868585190676
30
0
41
1
10
37.2469518510292
20
-1.97929485179299
30
0
41
1
10
37.2466825156932
20
-1.98076918708935
30
0
41
1
10
37.2464826868003
20
-1.98166324392085
30
0
41
1
10
37.2460202709094
20
-1.9834504812109
30
0
41
1
10
37.2457647597612
20
-1.98434893447453
30
0
41
1
10
37.2452313642554
20
-1.98608531891028
30
0
41
1
10
37.2449489943656
20
-1.98694501024377
30
0
41
1
10
37.2446002017277
20
-1.98794852912059
30
0
41
1
10
37.2445344246098
20
-1.98813531951913
30
0
41
1
10
37.2444685866134
20
-1.98831993375561
30
0
0
SPLINE
5
CC
100
AcDbEntity
8
1
62
256
6
ByLayer
370
18
48
1
60
0
100
AcDbSpline
70
4
71
3
72
38
73
34
40
0
40
0
40
0
40
0
40
0.0656718930455858
40
0.0656718930455858
40
0.108538857385179
40
0.108538857385179
40
0.151405821724772
40
0.151405821724772
40
0.237139750403957
40
0.237139750403957
40
0.322873679083142
40
0.322873679083142
40
0.365740643422734
40
0.365740643422734
40
0.408607607762326
40
0.408607607762326
40
0.49434153644151
40
0.49434153644151
40
0.537208500781102
40
0.537208500781102
40
0.580075465120695
40
0.580075465120695
40
0.665809393799881
40
0.665809393799881
40
0.708676358139474
40
0.708676358139474
40
0.751543322479068
40
0.751543322479068
40
0.923011179837439
40
0.923011179837439
40
0.965878144177033
40
0.965878144177033
40
1
40
1
40
1
40
1
41
1
10
27.4343736360514
20
-2.01638111328791
30
0
41
1
10
27.1674641885568
20
-2.05829286525451
30
0
41
1
10
26.9015074860157
20
-2.08321858262767
30
0
41
1
10
26.4608793384044
20
-2.09573477070148
30
0
41
1
10
26.2865469283248
20
-2.0932758850476
30
0
41
1
10
25.9363500202136
20
-2.0733416704274
30
0
41
1
10
25.7597661484489
20
-2.05574123905331
30
0
41
1
10
25.2326420565137
20
-1.98105135775109
30
0
41
1
10
24.8848876482289
20
-1.90251911102916
30
0
41
1
10
24.1893961966159
20
-1.6945532720388
30
1E-16
41
1
10
23.8415715213001
20
-1.5651981058528
30
1E-16
41
1
10
23.3142397220838
20
-1.33795809014364
30
1E-16
41
1
10
23.137673853972
20
-1.25674347814331
30
1E-16
41
1
10
22.7874548371401
20
-1.08730211353293
30
1E-16
41
1
10
22.6130709919207
20
-0.998787793487708
30
1E-16
41
1
10
22.090787993118
20
-0.724015420553513
30
0
41
1
10
21.7437894928562
20
-0.528462802193275
30
0
41
1
10
21.2192517579563
20
-0.22610789457849
30
0
41
1
10
21.0434275433865
20
-0.123537170336732
30
0
41
1
10
20.6909942551424
20
0.0821802811773296
30
0
41
1
10
20.5158008040828
20
0.184441469253073
30
0
41
1
10
19.9919365122596
20
0.4872010571153
30
0
41
1
10
19.6449443030909
20
0.683604116709972
30
0
41
1
10
19.1222041258481
20
0.960717675429237
30
-1E-16
41
1
10
18.9476153515608
20
1.05022676380369
30
-1E-16
41
1
10
18.5967507694159
20
1.22185654814623
30
-1E-16
41
1
10
18.4198565575942
20
1.30417665664851
30
-1E-16
41
1
10
17.5422131477912
20
1.68768019429035
30
-1E-16
41
1
10
16.8539557744583
20
1.90870474563073
30
0
41
1
10
15.9727884308235
20
2.04159335516971
30
0
41
1
10
15.7967216427849
20
2.06083872742704
30
0
41
1
10
15.4825230399983
20
2.08180944509775
30
0
41
1
10
15.3436587316589
20
2.08636126836836
30
0
41
1
10
15.2049582450537
20
2.08622934174241
30
0
0
SPLINE
5
CD
100
AcDbEntity
8
1
62
256
6
ByLayer
370
18
48
1
60
0
100
AcDbSpline
70
4
71
3
72
12
73
8
40
0
40
0
40
0
40
0
40
0.289275237581623
40
0.289275237581623
40
0.644637618790813
40
0.644637618790813
40
1
40
1
40
1
40
1
41
1
10
5.03337019775014
20
-1.98665511782497
30
0
41
1
10
4.89163220964244
20
-2.01096796548632
30
0
41
1
10
4.74980601403539
20
-2.0306151590664
30
0
41
1
10
4.43290998386669
20
-2.06362914220389
30
0
41
1
10
4.25767754411433
20
-2.07457413346918
30
0
41
1
10
3.90528150233973
20
-2.08146282611921
30
0
41
1
10
3.72836536455347
20
-2.07736379286746
30
0
41
1
10
3.55179600307423
20
-2.06567976822507
30
0
0
SPLINE
5
CE
100
AcDbEntity
8
1
62
256
6
ByLayer
370
18
48
1
60
0
100
AcDbSpline
70
4
71
3
72
8
73
4
40
0
40
0
40
0
40
0
40
1
40
1
40
1
40
1
41
1
10
37.1152420577964
20
-2.07128969666533
30
0
41
1
10
37.1185583522849
20
-2.08766783955315
30
0
41
1
10
37.1214570394125
20
-2.09715532664069
30
0
41
1
10
37.1239281096549
20
-2.09940562500586
30
0
0
SPLINE
5
CF
100
AcDbEntity
8
1
62
256
6
ByLayer
370
18
48
1
60
0
100
AcDbSpline
70
4
71
3
72
18
73
14
40
0
40
0
40
0
40
0
40
0.250000000000014
40
0.250000000000014
40
0.500000000000028
40
0.500000000000028
40
0.625000000000021
40
0.625000000000021
40
0.750000000000014
40
0.750000000000014
40
0.875000000000007
40
0.875000000000007
40
1
40
1
40
1
40
1
41
1
10
37.9622638198692
20
0.0325967713177988
30
0
41
1
10
37.9453841009221
20
-0.0237203831503336
30
0
41
1
10
37.9250699746347
20
-0.0784045703519212
30
0
41
1
10
37.8773659348358
20
-0.183722735861494
30
0
41
1
10
37.8514241418367
20
-0.231260744740979
30
0
41
1
10
37.8095922418803
20
-0.293380186025587
30
0
41
1
10
37.7957007701088
20
-0.311693719155187
30
0
41
1
10
37.7680124136503
20
-0.343586310221355
30
0
41
1
10
37.7540399223344
20
-0.35729253990516
30
0
41
1
10
37.7270713593263
20
-0.378780602544936
30
0
41
1
10
37.7141202322672
20
-0.386603884418292
30
0
41
1
10
37.6890838731876
20
-0.396610789224326
30
0
41
1
10
37.6770728798733
20
-0.398696933903892
30
0
41
1
10
37.6658641406177
20
-0.398026828534995
30
0
0
SPLINE
5
D0
100
AcDbEntity
8
1
62
256
6
ByLayer
370
18
48
1
60
0
100
AcDbSpline
70
4
71
3
72
8
73
4
40
0
40
0
40
0
40
0
40
1
40
1
40
1
40
1
41
1
10
37.8167083551932
20
0.669208116283443
30
0
41
1
10
37.8783112001708
20
0.496380028036981
30
0
41
1
10
37.93839662383
20
0.323006818869459
30
0
41
1
10
37.996943380696
20
0.149080856521607
30
0
0
SPLINE
5
D1
100
AcDbEntity
8
1
62
256
6
ByLayer
370
18
48
1
60
0
100
AcDbSpline
70
4
71
3
72
8
73
4
40
0
40
0
40
0
40
0
40
1
40
1
40
1
40
1
41
1
10
36.9629798633575
20
-0.116227203471567
30
0
41
1
10
36.9783047704003
20
-0.123377004468921
30
0
41
1
10
36.9935518553561
20
-0.130071493173148
30
0
41
1
10
37.0087389009579
20
-0.136323087541825
30
0
0
SPLINE
5
D2
100
AcDbEntity
8
1
62
256
6
ByLayer
370
18
48
1
60
0
100
AcDbSpline
70
4
71
3
72
32
73
28
40
0
40
0
40
0
40
0
40
0.0702803252641148
40
0.0702803252641148
40
0.14056065052823
40
0.14056065052823
40
0.281121301056459
40
0.281121301056459
40
0.351401626320575
40
0.351401626320575
40
0.421681951584691
40
0.421681951584691
40
0.562242602112922
40
0.562242602112922
40
0.632522927377038
40
0.632522927377038
40
0.702803252641153
40
0.702803252641153
40
0.843363903169385
40
0.843363903169385
40
0.878504065801442
40
0.878504065801442
40
0.913644228433499
40
0.913644228433499
40
0.983924553697614
40
0.983924553697614
40
1
40
1
40
1
40
1
41
1
10
17
20
1.67193567302394
30
-1E-16
41
1
10
17.2113367555327
20
1.59831125494196
30
-1E-16
41
1
10
17.4231070044949
20
1.5157246596213
30
-1E-16
41
1
10
17.8446484262512
20
1.33645531950953
30
-1E-16
41
1
10
18.0540745865318
20
1.23998432660102
30
-1E-16
41
1
10
18.6807583612835
20
0.933874778607787
30
-1E-16
41
1
10
19.0964711244783
20
0.707622111122475
30
0
41
1
10
19.7263504558028
20
0.349686081157273
30
0
41
1
10
19.9383251300035
20
0.226707329391445
30
0
41
1
10
20.3588543909253
20
-0.0183918098620666
30
0
41
1
10
20.5679248292602
20
-0.140769517922053
30
0
41
1
10
21.1939446267371
20
-0.503307209000923
30
0
41
1
10
21.6095774089188
20
-0.73907440711622
30
0
41
1
10
22.2405588150996
20
-1.06660896545162
30
1E-16
41
1
10
22.4524947560976
20
-1.1716004885688
30
1E-16
41
1
10
22.8721829347546
20
-1.36649180305204
30
1E-16
41
1
10
23.0809459048399
20
-1.45692973904028
30
1E-16
41
1
10
23.7065033626068
20
-1.70442199777546
30
1E-16
41
1
10
24.122573933755
20
-1.83768601097455
30
-1E-16
41
1
10
24.649255474469
20
-1.95590111785606
30
0
41
1
10
24.755074764029
20
-1.97713877711857
30
0
41
1
10
24.9661167802331
20
-2.01429163605673
30
0
41
1
10
25.0714869123351
20
-2.03024720068603
30
0
41
1
10
25.3874445978154
20
-2.07014922711156
30
0
41
1
10
25.5978731030758
20
-2.08612866644901
30
0
41
1
10
25.8572547476899
20
-2.09234807599248
30
0
41
1
10
25.9055116694261
20
-2.09293002867639
30
0
41
1
10
25.9537316761565
20
-2.09294140852319
30
0
0
SPLINE
5
D3
100
AcDbEntity
8
1
62
256
6
ByLayer
370
18
48
1
60
0
100
AcDbSpline
70
4
71
3
72
67
73
63
40
0
40
0
40
0
40
0
40
0.0191359370597945
40
0.0191359370597945
40
0.0572292256212335
40
0.0572292256212335
40
0.0762758699019532
40
0.0762758699019532
40
0.085799192042313
40
0.085799192042313
40
0.090560853112493
40
0.0929416836475829
40
0.0935368912813555
40
0.0935368912813555
40
0.0941320989151279
40
0.0941320989151279
40
0.0947273065489005
40
0.0947273065489005
40
0.095322514182673
40
0.095322514182673
40
0.100084175252853
40
0.100084175252853
40
0.104845836323033
40
0.104845836323033
40
0.114369158463392
40
0.114369158463392
40
0.133415802744111
40
0.133415802744111
40
0.171509091305549
40
0.171509091305549
40
0.247695668428425
40
0.247695668428425
40
0.400068822674177
40
0.400068822674177
40
0.476255399797053
40
0.476255399797053
40
0.495302044077772
40
0.495302044077772
40
0.504825366218131
40
0.504825366218131
40
0.509587027288311
40
0.509587027288311
40
0.511967857823401
40
0.511967857823401
40
0.51434868835849
40
0.51434868835849
40
0.514943895992263
40
0.514943895992263
40
0.515241499809149
40
0.515241499809149
40
0.515539103626035
40
0.515539103626035
40
0.51672951889358
40
0.51672951889358
40
0.51911034942867
40
0.523872010498848
40
0.533395332639206
40
0.552441976919923
40
0.552441976919923
40
0.857188285411382
40
0.857188285411382
40
1
40
1
40
1
40
1
41
1
10
4.73889083784775
20
1.93421851319604
30
0
41
1
10
4.73754855746932
20
1.89230729506744
30
0
41
1
10
4.73363133520814
20
1.85000636834761
30
0
41
1
10
4.71644969347437
20
1.72119648152093
30
0
41
1
10
4.697925118966
20
1.6321399124457
30
0
41
1
10
4.65862503380265
20
1.49647474887223
30
0
41
1
10
4.64412206084893
20
1.45066624556452
30
0
41
1
10
4.61847659313679
20
1.38213391982364
30
0
41
1
10
4.60936556486763
20
1.35929357979143
30
0
41
1
10
4.59495871157358
20
1.32500482532271
30
0
41
1
10
4.58757124316884
20
1.30785625588786
30
0
41
1
10
4.57929043011097
20
1.28926830799117
30
0
41
1
10
4.57606262036086
20
1.28211709169756
30
0
41
1
10
4.5747680884802
20
1.27925641659218
30
0
41
1
10
4.57387419159932
20
1.27795807434598
30
0
41
1
10
4.57332671393772
20
1.27469046646291
30
0
41
1
10
4.57427848952597
20
1.27295204151258
30
0
41
1
10
4.57626713321224
20
1.27002294126839
30
0
41
1
10
4.57741835413248
20
1.26867592698088
30
0
41
1
10
4.58816569000186
20
1.25684221431163
30
0
41
1
10
4.59939363720227
20
1.24807779431771
30
0
41
1
10
4.62126424730286
20
1.23010249671322
30
0
41
1
10
4.63233668481016
20
1.22130747136481
30
0
41
1
10
4.6657014664859
20
1.19513053114309
30
0
41
1
10
4.68815462494189
20
1.17797505010032
30
0
41
1
10
4.75572632243262
20
1.12681453846972
30
0
41
1
10
4.80106455418652
20
1.0931620532686
30
0
41
1
10
4.93736082950855
20
0.992667405093158
30
0
41
1
10
5.02862213201368
20
0.926321027400803
30
0
41
1
10
5.30274352856142
20
0.727930153024801
30
0
41
1
10
5.48580915226916
20
0.596439515677474
30
0
41
1
10
6.03444987245382
20
0.202212671476019
30
0
41
1
10
6.39989295154888
20
-0.0596341981152477
30
0
41
1
10
6.9481393179112
20
-0.450236978405002
30
0
41
1
10
7.13110826714572
20
-0.579869930055025
30
0
41
1
10
7.35798635430476
20
-0.743430294755967
30
0
41
1
10
7.40326350053405
20
-0.776219383479742
30
0
41
1
10
7.4707129061932
20
-0.825823654352973
30
1E-16
41
1
10
7.49312815192852
20
-0.842424832235707
30
1E-16
41
1
10
7.52642170169062
20
-0.867614026341727
30
1E-16
41
1
10
7.53746752550944
20
-0.876054678882781
30
1E-16
41
1
10
7.55381733324583
20
-0.888905059527247
30
1E-16
41
1
10
7.5592318118959
20
-0.893218505221711
30
1E-16
41
1
10
7.56986594727079
20
-0.90198712748554
30
1E-16
41
1
10
7.57524703956258
20
-0.906384379235476
30
1E-16
41
1
10
7.58105366518174
20
-0.912383437709423
30
-1E-16
41
1
10
7.58222591141521
20
-0.91361889129729
30
-1E-16
41
1
10
7.58334250585256
20
-0.915625013979593
30
-1E-16
41
1
10
7.58358275431391
20
-0.916432827076648
30
-1E-16
41
1
10
7.58253498715385
20
-0.917208330155802
30
-1E-16
41
1
10
7.58163059393252
20
-0.917161413282344
30
-1E-16
41
1
10
7.57750107276661
20
-0.916799087846044
30
-1E-16
41
1
10
7.57410123417063
20
-0.915992944619262
30
-1E-16
41
1
10
7.56403144262825
20
-0.914223814854068
30
-1E-16
41
1
10
7.54389317842995
20
-0.910680607796678
30
-1E-16
41
1
10
7.49691312355259
20
-0.902378485253649
30
1E-16
41
1
10
7.40298999960271
20
-0.88563564918735
30
1E-16
41
1
10
7.3225483451254
20
-0.871046987541632
30
1E-16
41
1
10
6.41137102967147
20
-0.703913253727791
30
0
41
1
10
5.56157658591559
20
-0.519600560355514
30
0
41
1
10
4.32451409688557
20
-0.208924724460473
30
0
41
1
10
3.93164695196145
20
-0.103880153448671
30
0
41
1
10
3.54055590230655
20
0.0069468448857322
30
0
0
SPLINE
5
D4
100
AcDbEntity
8
1
62
256
6
ByLayer
370
18
48
1
60
0
100
AcDbSpline
70
4
71
3
72
50
73
46
40
0
40
0
40
0
40
0
40
0.125000000000009
40
0.125000000000009
40
0.187500000000014
40
0.187500000000014
40
0.250000000000018
40
0.250000000000018
40
0.281250000000019
40
0.281250000000019
40
0.31250000000002
40
0.31250000000002
40
0.343750000000022
40
0.343750000000022
40
0.375000000000023
40
0.375000000000023
40
0.406250000000024
40
0.406250000000024
40
0.437500000000025
40
0.437500000000025
40
0.468750000000026
40
0.468750000000026
40
0.500000000000027
40
0.500000000000027
40
0.531250000000028
40
0.531250000000028
40
0.56250000000003
40
0.56250000000003
40
0.625000000000032
40
0.625000000000032
40
0.687500000000034
40
0.687500000000034
40
0.718750000000035
40
0.718750000000035
40
0.726562500000036
40
0.726562500000036
40
0.734375000000036
40
0.734375000000036
40
0.742187500000036
40
0.742187500000036
40
0.750000000000036
40
0.750000000000036
40
0.875000000000018
40
0.875000000000018
40
1
40
1
40
1
40
1
41
1
10
3.54056061588818
20
0.0069512566584251
30
0
41
1
10
3.32334938213216
20
0.132051778116505
30
0
41
1
10
3.11247153688422
20
0.264513460626944
30
0
41
1
10
2.81067718032747
20
0.47986069260017
30
0
41
1
10
2.71252843230229
20
0.554451849832986
30
0
41
1
10
2.5231279448893
20
0.711512146075506
30
0
41
1
10
2.43236529582552
20
0.793586645560481
30
0
41
1
10
2.30802418316165
20
0.921950721995103
30
-1E-16
41
1
10
2.26828372897705
20
0.965942659568412
30
-1E-16
41
1
10
2.19493534947335
20
1.05488773852647
30
-1E-16
41
1
10
2.16122524095709
20
1.09990496363741
30
-1E-16
41
1
10
2.10124096470861
20
1.19131766560741
30
-1E-16
41
1
10
2.07476616243787
20
1.23812614094737
30
-1E-16
41
1
10
2.03258718964437
20
1.33161598847923
30
-1E-16
41
1
10
2.01707470967676
20
1.37772093791145
30
-1E-16
41
1
10
1.99904014112374
20
1.4684934497327
30
-1E-16
41
1
10
1.99678993598192
20
1.51305029750932
30
-1E-16
41
1
10
2.00635928107701
20
1.59582378455926
30
-1E-16
41
1
10
2.01818093900297
20
1.63501809007153
30
-1E-16
41
1
10
2.05431626973842
20
1.70704669213097
30
-1E-16
41
1
10
2.07821872382471
20
1.7394575139129
30
-1E-16
41
1
10
2.13556899430856
20
1.79847344235165
30
-1E-16
41
1
10
2.16891727721727
20
1.82486011751024
30
0
41
1
10
2.24119079821673
20
1.87161167462861
30
0
41
1
10
2.28036296656589
20
1.89221546452922
30
0
41
1
10
2.36350148957234
20
1.9291146959319
30
0
41
1
10
2.40768524992114
20
1.94546206310946
30
0
41
1
10
2.54445847275008
20
1.98871774625459
30
0
41
1
10
2.6409659678759
20
2.01002878683235
30
0
41
1
10
2.84100797334415
20
2.04309615047689
30
0
41
1
10
2.94460067016053
20
2.0547644892994
30
0
41
1
10
3.10397624136169
20
2.0670454751961
30
0
41
1
10
3.15780164471804
20
2.07025565651404
30
0
41
1
10
3.22560315499737
20
2.07329976431873
30
0
41
1
10
3.23913851855076
20
2.0738662794032
30
0
41
1
10
3.2664880011728
20
2.07488050834496
30
0
41
1
10
3.28128757065582
20
2.07519183190365
30
0
41
1
10
3.3124680739389
20
2.07538088237112
30
0
41
1
10
3.32797124175414
20
2.07532497415386
30
0
41
1
10
3.3584549162542
20
2.07495025008132
30
0
41
1
10
3.37315060011486
20
2.07461070370101
30
0
41
1
10
3.62311004686614
20
2.0687867524957
30
0
41
1
10
3.85376834073571
20
2.05722990185171
30
0
41
1
10
4.30378320679535
20
2.01311773784423
30
0
41
1
10
4.52305126105253
20
1.98051365937687
30
0
41
1
10
4.73888781177686
20
1.93421873766599
30
0
0
SPLINE
5
D5
100
AcDbEntity
8
1
62
256
6
ByLayer
370
18
48
1
60
0
100
AcDbSpline
70
4
71
3
72
24
73
20
40
0
40
0
40
0
40
0
40
0.177383013289569
40
0.177383013289569
40
0.266074519934356
40
0.266074519934356
40
0.354766026579144
40
0.354766026579144
40
0.443457533223931
40
0.443457533223931
40
0.532149039868719
40
0.532149039868719
40
0.709532053158293
40
0.709532053158293
40
0.798223559803081
40
0.798223559803081
40
0.886915066447869
40
0.886915066447869
40
1
40
1
40
1
40
1
41
1
10
37.0140325258415
20
-0.149913498441379
30
0
41
1
10
36.6661599366655
20
0.0418944508261347
30
0
41
1
10
36.3219157443559
20
0.235748721061697
30
0
41
1
10
35.8041367446759
20
0.517712981443822
30
0
41
1
10
35.6313643056677
20
0.610308124854811
30
0
41
1
10
35.2846271822016
20
0.791012464204442
30
0
41
1
10
35.110666162921
20
0.879141943178979
30
-1E-16
41
1
10
34.7607183642697
20
1.04958529371837
30
-1E-16
41
1
10
34.5861140530278
20
1.13119382413939
30
-1E-16
41
1
10
34.2388802190851
20
1.28476363813229
30
-1E-16
41
1
10
34.0659354091349
20
1.35687673161556
30
-1E-16
41
1
10
33.5474922075562
20
1.55852303629271
30
-1E-16
41
1
10
33.2024375729613
20
1.67308177165992
30
-1E-16
41
1
10
32.6812879928138
20
1.80833458582825
30
0
41
1
10
32.5065679962178
20
1.84750087392925
30
0
41
1
10
32.1567338521938
20
1.91133569672692
30
0
41
1
10
31.9830499139695
20
1.93576909273571
30
0
41
1
10
31.5884694731353
20
1.97710855899607
30
0
41
1
10
31.3678388877176
20
1.98994437394214
30
0
41
1
10
31.1472281152392
20
1.99154868986531
30
0
0
SPLINE
5
D6
100
AcDbEntity
8
1
62
256
6
ByLayer
370
18
48
1
60
0
100
AcDbSpline
70
4
71
3
72
32
73
28
40
0
40
0
40
0
40
0
40
0.0866531839787385
40
0.0866531839787385
40
0.173829385830706
40
0.173829385830706
40
0.261005587682673
40
0.261005587682673
40
0.304593688608657
40
0.304593688608657
40
0.348181789534642
40
0.348181789534642
40
0.435357991386606
40
0.435357991386606
40
0.522534193238572
40
0.522534193238572
40
0.609710395090536
40
0.609710395090536
40
0.696886596942501
40
0.696886596942501
40
0.784062798794466
40
0.784062798794466
40
0.871239000646431
40
0.871239000646431
40
0.958415202498396
40
0.958415202498396
40
1
40
1
40
1
40
1
41
1
10
14.5981216809555
20
-0.196718632691415
30
0
41
1
10
14.4259974904317
20
-0.101656651921701
30
0
41
1
10
14.254035313356
20
-0.0065120342734133
30
0
41
1
10
13.9090965641326
20
0.183921466955241
30
0
41
1
10
13.7362549892127
20
0.279434204273485
30
0
41
1
10
13.3894743129508
20
0.467987135908885
30
0
41
1
10
13.2154921942715
20
0.560956277734562
30
0
41
1
10
12.9532874288432
20
0.69777282804543
30
0
41
1
10
12.8654924548402
20
0.743032829905928
30
0
41
1
10
12.6904758690447
20
0.831919454379658
30
-1E-16
41
1
10
12.6032531234709
20
0.87553367930056
30
-1E-16
41
1
10
12.3418871459505
20
1.003631230427
30
-1E-16
41
1
10
12.1681444993885
20
1.08537814395618
30
-1E-16
41
1
10
11.821548438473
20
1.2404366376208
30
-1E-16
41
1
10
11.6488409684227
20
1.3135711001888
30
-1E-16
41
1
10
11.3028108875171
20
1.450496382517
30
-1E-16
41
1
10
11.1294899653342
20
1.51431909239838
30
-1E-16
41
1
10
10.782060685748
20
1.63100412807881
30
-1E-16
41
1
10
10.608023334764
20
1.68352216014227
30
-1E-16
41
1
10
10.2577228484745
20
1.77737988878087
30
0
41
1
10
10.0823193712747
20
1.81846518416793
30
0
41
1
10
9.73419700453448
20
1.8863739031917
30
0
41
1
10
9.56114986480713
20
1.91291690752146
30
0
41
1
10
9.21496215536615
20
1.95359276427817
30
0
41
1
10
9.04187014632689
20
1.96765713751347
30
0
41
1
10
8.78622223674313
20
1.97752517636673
30
0
41
1
10
8.70366420566222
20
1.97896053438348
30
0
41
1
10
8.62102310987456
20
1.9788060039474
30
0
0
SPLINE
5
D7
100
AcDbEntity
8
1
62
256
6
ByLayer
370
18
48
1
60
0
100
AcDbSpline
70
4
71
3
72
8
73
4
40
0
40
0
40
0
40
0
40
1
40
1
40
1
40
1
41
1
10
37.1152420577981
20
2.07128969666337
30
0
41
1
10
37.1567749509058
20
2.04823900078833
30
0
41
1
10
37.198435316364
20
2.02453095627041
30
0
41
1
10
37.240246018863
20
2.00018143117939
30
0
0
SPLINE
5
D8
100
AcDbEntity
8
1
62
256
6
ByLayer
370
18
48
1
60
0
100
AcDbSpline
70
4
71
3
72
14
73
10
40
0
40
0
40
0
40
0
40
0.500000000000006
40
0.500000000000006
40
0.750000000000009
40
0.750000000000009
40
0.875000000000004
40
0.875000000000004
40
1
40
1
40
1
40
1
41
1
10
37.2795608458065
20
1.9959968678356
30
0
41
1
10
37.3603982427421
20
1.7685010500636
30
0
41
1
10
37.4410604376401
20
1.53790913654313
30
0
41
1
10
37.566733704294
20
1.19422125533868
30
0
41
1
10
37.611156436008
20
1.08213015648144
30
0
41
1
10
37.6838043977613
20
0.920745939477257
30
0
41
1
10
37.7092130135919
20
0.867675515285981
30
0
41
1
10
37.7617645503177
20
0.765385569234837
30
0
41
1
10
37.7888096685154
20
0.716321508030433
30
0
41
1
10
37.8167083551932
20
0.669208116283471
30
0
0
SPLINE
5
D9
100
AcDbEntity
8
1
62
256
6
ByLayer
370
18
48
1
60
0
100
AcDbSpline
70
4
71
3
72
8
73
4
40
0
40
0
40
0
40
0
40
1
40
1
40
1
40
1
41
1
10
37.2742233932871
20
1.99960795347695
30
0
41
1
10
37.2760024936448
20
1.99840455407295
30
0
41
1
10
37.2777816441935
20
1.99720085885644
30
0
41
1
10
37.2795608458074
20
1.9959968678356
30
0
0
SPLINE
5
DA
100
AcDbEntity
8
1
62
256
6
ByLayer
370
18
48
1
60
0
100
AcDbSpline
70
4
71
3
72
16
73
12
40
0
40
0
40
0
40
0
40
0.229015465875248
40
0.229015465875248
40
0.458030931750495
40
0.458030931750495
40
0.687046397625743
40
0.687046397625743
40
0.916061863500991
40
0.916061863500991
40
1
40
1
40
1
40
1
41
1
10
37.2742233933274
20
1.99960795389285
30
0
41
1
10
37.06177568301
20
2.00278662672403
30
0
41
1
10
36.8497362635639
20
1.99501003611377
30
0
41
1
10
36.4249218983443
20
1.95858039245567
30
0
41
1
10
36.2116287131661
20
1.93005375893057
30
0
41
1
10
35.7882280572195
20
1.85352328929596
30
0
41
1
10
35.5777085125502
20
1.80562661087052
30
0
41
1
10
35.1573758180368
20
1.69086619612324
30
-1E-16
41
1
10
34.9476240013922
20
1.62475827267494
30
-1E-16
41
1
10
34.6604744496493
20
1.52332128748873
30
-1E-16
41
1
10
34.5834183049105
20
1.49506425945867
30
-1E-16
41
1
10
34.5062734822211
20
1.46576104898659
30
-1E-16
0
SPLINE
5
DB
100
AcDbEntity
8
1
62
256
6
ByLayer
370
18
48
1
60
0
100
AcDbSpline
70
4
71
3
72
16
73
12
40
0
40
0
40
0
40
0
40
0.152326916901245
40
0.152326916901245
40
0.321861533520996
40
0.321861533520996
40
0.491396150140746
40
0.491396150140746
40
0.660930766760498
40
0.660930766760498
40
1
40
1
40
1
40
1
41
1
10
20.7314509203065
20
-0.233299474294768
30
0
41
1
10
20.5427583373892
20
-0.128466740061867
30
0
41
1
10
20.3543439651364
20
-0.0227677279875991
30
0
41
1
10
19.9554761561537
20
0.19998756451966
30
0
41
1
10
19.7448600612391
20
0.316848259390383
30
0
41
1
10
19.3216189743395
20
0.547730550723344
30
0
41
1
10
19.1081028169132
20
0.661904994422287
30
0
41
1
10
18.6848117219115
20
0.880428349648895
30
-1E-16
41
1
10
18.4742229932588
20
0.98455426094344
30
-1E-16
41
1
10
17.8433890598627
20
1.28065814561219
30
-1E-16
41
1
10
17.4243570190014
20
1.45607236602004
30
-1E-16
41
1
10
17.0000000000007
20
1.59823540159175
30
-1E-16
0
SPLINE
5
DC
100
AcDbEntity
8
1
62
256
6
ByLayer
370
18
48
1
60
0
100
AcDbSpline
70
4
71
3
72
12
73
8
40
0
40
0
40
0
40
0
40
0.0399568608049814
40
0.0399568608049814
40
0.359971240536654
40
0.359971240536654
40
1
40
1
40
1
40
1
41
1
10
37.5223719726709
20
-0.271106519525404
30
0
41
1
10
37.5235820204608
20
-0.272432643346519
30
0
41
1
10
37.5248476597126
20
-0.273788373094874
30
0
41
1
10
37.536684213334
20
-0.286226989574345
30
0
41
1
10
37.5502571986734
20
-0.298868043554563
30
0
41
1
10
37.5951014806342
20
-0.338922327128671
30
0
41
1
10
37.629630129283
20
-0.367781856769597
30
0
41
1
10
37.665864140618
20
-0.398026828534086
30
0
0
SPLINE
5
DD
100
AcDbEntity
8
1
62
256
6
ByLayer
370
18
48
1
60
0
100
AcDbSpline
70
4
71
3
72
8
73
4
40
0
40
0
40
0
40
0
40
1
40
1
40
1
40
1
41
1
10
3.59739147977214
20
-1.97414205996645
30
0
41
1
10
3.58210008152645
20
-1.97326304025901
30
0
41
1
10
3.56708641087101
20
-1.97613080349021
30
0
41
1
10
3.5533494561592
20
-1.98287414063853
30
0
0
SPLINE
5
DE
100
AcDbEntity
8
1
62
256
6
ByLayer
370
18
48
1
60
0
100
AcDbSpline
70
4
71
3
72
8
73
4
40
0
40
0
40
0
40
0
40
1
40
1
40
1
40
1
41
1
10
3.55179600307463
20
-2.06567976822509
30
0
41
1
10
3.52138148635817
20
-2.06366716558654
30
0
41
1
10
3.50204357384382
20
-2.05952773936673
30
0
41
1
10
3.50204357384382
20
-2.05410976722121
30
0
0
SPLINE
5
DF
100
AcDbEntity
8
1
62
256
6
ByLayer
370
18
48
1
60
0
100
AcDbSpline
70
4
71
3
72
42
73
38
40
0
40
0
40
0
40
0
40
0.062500000000007
40
0.062500000000007
40
0.093750000000009
40
0.093750000000009
40
0.125000000000011
40
0.125000000000011
40
0.250000000000019
40
0.250000000000019
40
0.312500000000019
40
0.312500000000019
40
0.375000000000019
40
0.375000000000019
40
0.437500000000018
40
0.437500000000018
40
0.500000000000018
40
0.500000000000018
40
0.562500000000018
40
0.562500000000018
40
0.625000000000018
40
0.625000000000018
40
0.656250000000018
40
0.656250000000018
40
0.687500000000017
40
0.687500000000017
40
0.718750000000017
40
0.718750000000017
40
0.750000000000017
40
0.750000000000017
40
0.812500000000013
40
0.812500000000013
40
0.875000000000009
40
0.875000000000009
40
0.937500000000004
40
0.937500000000004
40
1
40
1
40
1
40
1
41
1
10
37.6658641406183
20
-0.398026828533972
30
0
41
1
10
37.668222741327
20
-0.428141867097338
30
0
41
1
10
37.6667630588955
20
-0.463036826743576
30
0
41
1
10
37.6587637875692
20
-0.518351170393515
30
0
41
1
10
37.6550853127726
20
-0.537643833053579
30
0
41
1
10
37.6462121338967
20
-0.575832456653416
30
0
41
1
10
37.6410035107209
20
-0.594919624240788
30
0
41
1
10
37.6114332907034
20
-0.690391296995102
30
0
41
1
10
37.5786582901979
20
-0.760305571309658
30
0
41
1
10
37.5307488508524
20
-0.839029601379821
30
0
41
1
10
37.5148065771099
20
-0.861189054126243
30
1E-16
41
1
10
37.4844003421128
20
-0.895876926051926
30
1E-16
41
1
10
37.4700245804667
20
-0.908421060995181
30
-1E-16
41
1
10
37.442529662317
20
-0.923813944037846
30
-1E-16
41
1
10
37.4299731856505
20
-0.926321293843159
30
-1E-16
41
1
10
37.4068177455433
20
-0.920896380609264
30
-1E-16
41
1
10
37.3963056681634
20
-0.912804695965889
30
-1E-16
41
1
10
37.3781024230012
20
-0.886334883621998
30
1E-16
41
1
10
37.3701548521262
20
-0.867489974744075
30
1E-16
41
1
10
37.357695047339
20
-0.820748203615381
30
1E-16
41
1
10
37.3529655281518
20
-0.792104060171255
30
0
41
1
10
37.349015988637
20
-0.743754930766244
30
0
41
1
10
37.3482167285104
20
-0.726815892954761
30
0
41
1
10
37.347771798451
20
-0.691201963699228
30
0
41
1
10
37.3481445051337
20
-0.672297554400615
30
0
41
1
10
37.3502042737237
20
-0.634175655941846
30
0
41
1
10
37.3518752334133
20
-0.614870398604779
30
0
41
1
10
37.3566484817369
20
-0.575768938218232
30
0
41
1
10
37.3598001966805
20
-0.555788245121704
30
0
41
1
10
37.3712327627374
20
-0.497844606206371
30
0
41
1
10
37.3818146325955
20
-0.460407184406279
30
0
41
1
10
37.407239459561
20
-0.394400938422933
30
0
41
1
10
37.4222499500825
20
-0.365285343364405
30
0
41
1
10
37.4542143351986
20
-0.317783181811421
30
0
41
1
10
37.4713858870144
20
-0.298947403398529
30
0
41
1
10
37.5058058326769
20
-0.271424053933401
30
0
41
1
10
37.5233267321272
20
-0.262495503692349
30
0
41
1
10
37.5401162232357
20
-0.258292008071976
30
0
0
SPLINE
5
E0
100
AcDbEntity
8
1
62
256
6
ByLayer
370
18
48
1
60
0
100
AcDbSpline
70
4
71
3
72
22
73
18
40
0
40
0
40
0
40
0
40
0.0273437913395867
40
0.0273437913395867
40
0.19878238127387
40
0.19878238127387
40
0.284501676241013
40
0.284501676241013
40
0.370220971208157
40
0.370220971208157
40
0.713098151076735
40
0.713098151076735
40
0.798817446043882
40
0.798817446043882
40
0.884536741011028
40
0.884536741011028
40
1
40
1
40
1
40
1
41
1
10
26.9131401064225
20
-1.98277928283423
30
0
41
1
10
26.8572161821566
20
-1.98670947122864
30
0
41
1
10
26.8013632311934
20
-1.98989409186419
30
0
41
1
10
26.3957500986169
20
-2.00755225264393
30
0
41
1
10
26.0479875109904
20
-1.99494516609508
30
0
41
1
10
25.5243357794114
20
-1.93283363788356
30
0
41
1
10
25.3494507342165
20
-1.90521285556736
30
0
41
1
10
24.9981084429111
20
-1.8364028769418
30
0
41
1
10
24.8209516194044
20
-1.79491797583285
30
0
41
1
10
23.9409047567887
20
-1.55592368047678
30
1E-16
41
1
10
23.2506719291123
20
-1.26832466781607
30
1E-16
41
1
10
22.3697666660066
20
-0.832116674432029
30
1E-16
41
1
10
22.1926579218457
20
-0.741093844528962
30
0
41
1
10
21.8407811280623
20
-0.55555923972662
30
0
41
1
10
21.6653772100812
20
-0.460732943003308
30
0
41
1
10
21.2538711325527
20
-0.235291544533709
30
0
41
1
10
21.0179082461582
20
-0.103604912225848
30
0
41
1
10
20.781003161486
20
0.0283624410373875
30
0
0
SPLINE
5
E1
100
AcDbEntity
8
1
62
256
6
ByLayer
370
18
48
1
60
0
100
AcDbSpline
70
4
71
3
72
8
73
4
40
0
40
0
40
0
40
0
40
1
40
1
40
1
40
1
41
1
10
4.37286338279694
20
-1.97163014047905
30
0
41
1
10
4.11492477755917
20
-1.98806624641026
30
0
41
1
10
3.85684871800655
20
-1.98905685205941
30
0
41
1
10
3.59739147977211
20
-1.97414205996645
30
0
0
SPLINE
5
E2
100
AcDbEntity
8
1
62
256
6
ByLayer
370
18
48
1
60
0
100
AcDbSpline
70
4
71
3
72
52
73
48
40
0
40
0
40
0
40
0
40
0.0215066909071228
40
0.0215066909071228
40
0.0581445547000676
40
0.0581445547000676
40
0.131420282285959
40
0.131420282285959
40
0.168058146078906
40
0.168058146078906
40
0.204696009871853
40
0.204696009871853
40
0.277971737457749
40
0.277971737457749
40
0.314609601250697
40
0.314609601250697
40
0.351247465043645
40
0.351247465043645
40
0.424523192629538
40
0.424523192629538
40
0.461161056422486
40
0.461161056422486
40
0.497798920215434
40
0.497798920215434
40
0.57107464780133
40
0.57107464780133
40
0.607712511594278
40
0.607712511594278
40
0.644350375387226
40
0.644350375387226
40
0.717626102973122
40
0.717626102973122
40
0.754263966766069
40
0.754263966766069
40
0.790901830559017
40
0.790901830559017
40
0.827539694351964
40
0.827539694351964
40
0.864177558144912
40
0.864177558144912
40
0.900815421937859
40
0.900815421937859
40
0.937453285730807
40
0.937453285730807
40
0.974091149523754
40
0.974091149523754
40
1
40
1
40
1
40
1
41
1
10
34.6545978698691
20
-1.40164117853695
30
1E-16
41
1
10
34.5525744877096
20
-1.4462670831067
30
1E-16
41
1
10
34.4507326965283
20
-1.4890327395909
30
1E-16
41
1
10
34.1755144058848
20
-1.59924430823423
30
1E-16
41
1
10
34.0022598977805
20
-1.66297068193245
30
1E-16
41
1
10
33.4826649096161
20
-1.83671875720844
30
-1E-16
41
1
10
33.1365927035351
20
-1.92908567584587
30
0
41
1
10
32.6098018240955
20
-2.02470267317813
30
0
41
1
10
32.4348932901249
20
-2.04926652487751
30
0
41
1
10
32.0869896683098
20
-2.08365803407841
30
0
41
1
10
31.9139748088927
20
-2.09351050083427
30
0
41
1
10
31.3947286333534
20
-2.10074052340409
30
0
41
1
10
31.0483113394375
20
-2.07630468097614
30
0
41
1
10
30.5256624132571
20
-1.99526942178963
30
0
41
1
10
30.3500169286639
20
-1.96064667367958
30
0
41
1
10
30.0000975805844
20
-1.87824814532126
30
0
41
1
10
29.8258544631297
20
-1.83056960526199
30
-1E-16
41
1
10
29.304911062856
20
-1.66886065084771
30
1E-16
41
1
10
28.9602296752148
20
-1.53562009680925
30
1E-16
41
1
10
28.438996055234
20
-1.30683220617885
30
1E-16
41
1
10
28.2647195941484
20
-1.22559425049019
30
1E-16
41
1
10
27.9145688842821
20
-1.05359122321781
30
1E-16
41
1
10
27.7390619630463
20
-0.962648774511251
30
1E-16
41
1
10
27.2163572046939
20
-0.683601242969445
30
0
41
1
10
26.8699133602315
20
-0.48835797762581
30
0
41
1
10
26.3504959785939
20
-0.186523636256453
30
0
41
1
10
26.1773256839532
20
-0.0845204009901295
30
0
41
1
10
25.8291369132943
20
0.119164507703317
30
0
41
1
10
25.6538080318796
20
0.221132996022646
30
0
41
1
10
25.1271297597565
20
0.524769941939581
30
0
41
1
10
24.7810272609713
20
0.721537872820079
30
0
41
1
10
24.261075630647
20
0.99495469085943
30
-1E-16
41
1
10
24.0877552007824
20
1.08272074986525
30
-1E-16
41
1
10
23.7407273961282
20
1.25087717132985
30
-1E-16
41
1
10
23.5671184406856
20
1.33138472410806
30
-1E-16
41
1
10
23.2179720841685
20
1.48263914942603
30
-1E-16
41
1
10
23.0417821537352
20
1.55351372154985
30
-1E-16
41
1
10
22.6919349923554
20
1.68243254724581
30
-1E-16
41
1
10
22.5178848129747
20
1.74084501287967
30
-1E-16
41
1
10
22.170928819065
20
1.84510339649117
30
0
41
1
10
21.9980666404166
20
1.89093611879028
30
0
41
1
10
21.6516270188114
20
1.96858508977107
30
0
41
1
10
21.4781031087152
20
2.00050085742851
30
0
41
1
10
21.1301505091371
20
2.05031257223328
30
0
41
1
10
20.9557458775793
20
2.06820396315408
30
0
41
1
10
20.6566206093999
20
2.08605004508828
30
0
41
1
10
20.5326631536248
20
2.08963058318156
30
0
41
1
10
20.4090428292965
20
2.089473516808
30
0
0
SPLINE
5
E3
100
AcDbEntity
8
1
62
256
6
ByLayer
370
18
48
1
60
0
100
AcDbSpline
70
4
71
3
72
34
73
30
40
0
40
0
40
0
40
0
40
0.0607977461826244
40
0.0607977461826244
40
0.123411229770449
40
0.123411229770449
40
0.2486381969461
40
0.2486381969461
40
0.311251680533925
40
0.311251680533925
40
0.37386516412175
40
0.37386516412175
40
0.436478647709575
40
0.436478647709575
40
0.499092131297399
40
0.499092131297399
40
0.62431909847305
40
0.62431909847305
40
0.686932582060875
40
0.686932582060875
40
0.7495460656487
40
0.7495460656487
40
0.812159549236525
40
0.812159549236525
40
0.87477303282435
40
0.87477303282435
40
0.937386516412175
40
0.937386516412175
40
1
40
1
40
1
40
1
41
1
10
11.886121316831
20
-1.51349954933684
30
1E-16
41
1
10
11.7175237365081
20
-1.58085706995703
30
1E-16
41
1
10
11.5484593618847
20
-1.64310783106623
30
1E-16
41
1
10
11.204141328983
20
-1.75873081052964
30
1E-16
41
1
10
11.0281487249557
20
-1.81195135399017
30
1E-16
41
1
10
10.5030907830773
20
-1.95050430908205
30
0
41
1
10
10.1558344174286
20
-2.01449572529401
30
0
41
1
10
9.63563498114326
20
-2.0677473718076
30
0
41
1
10
9.46254028345257
20
-2.07832966282518
30
0
41
1
10
9.11494346807694
20
-2.08460037793432
30
0
41
1
10
8.94045586591903
20
-2.08035287944145
30
0
41
1
10
8.58956883245696
20
-2.05695367386733
30
0
41
1
10
8.41341245576075
20
-2.03773069383806
30
0
41
1
10
8.06452887477582
20
-1.98492873500388
30
0
41
1
10
7.89089720247625
20
-1.95136586382699
30
0
41
1
10
7.37006808534488
20
-1.83111328296963
30
-1E-16
41
1
10
7.02354738832497
20
-1.72471117722654
30
1E-16
41
1
10
6.50112136615874
20
-1.52827450008826
30
1E-16
41
1
10
6.32587922612467
20
-1.4568679906877
30
1E-16
41
1
10
5.97416396909549
20
-1.30411923558785
30
1E-16
41
1
10
5.79938787248861
20
-1.22336386372413
30
1E-16
41
1
10
5.45146060677496
20
-1.05402033077115
30
1E-16
41
1
10
5.27846715457093
20
-0.965171876782733
30
1E-16
41
1
10
4.93250721867335
20
-0.782147641989638
30
0
41
1
10
4.75952730377941
20
-0.68801385516042
30
0
41
1
10
4.41299221944456
20
-0.495516602309152
30
0
41
1
10
4.23950784173712
20
-0.397034045923562
30
0
41
1
10
3.8915446107186
20
-0.196425720975299
30
0
41
1
10
3.71686610450649
20
-0.0946348421826713
30
0
41
1
10
3.5405559022991
20
0.0069468448878354
30
0
0
SPLINE
5
E4
100
AcDbEntity
8
1
62
256
6
ByLayer
370
18
48
1
60
0
100
AcDbSpline
70
4
71
3
72
20
73
16
40
0
40
0
40
0
40
0
40
0.125
40
0.125
40
0.25
40
0.25
40
0.375
40
0.375
40
0.5
40
0.5
40
0.624999999999999
40
0.624999999999999
40
0.749999999999999
40
0.749999999999999
40
1
40
1
40
1
40
1
41
1
10
37.0140325258412
20
-0.149913498441265
30
0
41
1
10
37.0191165179512
20
-0.264215281665713
30
0
41
1
10
37.0280989307679
20
-0.375832061985022
30
0
41
1
10
37.0500680560892
20
-0.594279168175007
30
0
41
1
10
37.063122257231
20
-0.701471495904059
30
0
41
1
10
37.0903171772214
20
-0.909570636517827
30
1E-16
41
1
10
37.1041486753713
20
-1.00832058124846
30
1E-16
41
1
10
37.1303592847399
20
-1.19577141097798
30
1E-16
41
1
10
37.1428021058557
20
-1.28490364996753
30
1E-16
41
1
10
37.1650558793565
20
-1.45071089490526
30
1E-16
41
1
10
37.1746804736273
20
-1.52598437687877
30
1E-16
41
1
10
37.1914047396502
20
-1.66167964646004
30
1E-16
41
1
10
37.1985344003692
20
-1.72239093233824
30
1E-16
41
1
10
37.2181447634412
20
-1.87893367995306
30
0
41
1
10
37.2280928143305
20
-1.94651376781275
30
0
41
1
10
37.2469200818344
20
-1.97709866674674
30
0
0
SPLINE
5
E5
100
AcDbEntity
8
1
62
256
6
ByLayer
370
18
48
1
60
0
100
AcDbSpline
70
4
71
3
72
14
73
10
40
0
40
0
40
0
40
0
40
0.26382942523717
40
0.26382942523717
40
0.492636088574214
40
0.492636088574214
40
0.772026238356119
40
0.772026238356119
40
1
40
1
40
1
40
1
41
1
10
37.0087389009579
20
-0.136323087541769
30
0
41
1
10
37.0094550322006
20
-0.136617875755491
30
0
41
1
10
37.0101549925493
20
-0.137293031453481
30
0
41
1
10
37.0113193158839
20
-0.138981999688866
30
0
41
1
10
37.0118184736225
20
-0.139961463897549
30
0
41
1
10
37.0127771191934
20
-0.142402423661537
30
0
41
1
10
37.0132186344966
20
-0.143958947353866
30
0
41
1
10
37.013789502234
20
-0.146978666952975
30
0
41
1
10
37.0139670550278
20
-0.148441538894616
30
0
41
1
10
37.0140325258412
20
-0.149913498441208
30
0
0
SPLINE
5
E6
100
AcDbEntity
8
1
62
256
6
ByLayer
370
18
48
1
60
0
100
AcDbSpline
70
4
71
3
72
16
73
12
40
0
40
0
40
0
40
0
40
0.303816915127028
40
0.303816915127028
40
0.607633830254056
40
0.607633830254056
40
0.759542287817591
40
0.759542287817591
40
0.911450745381126
40
0.911450745381126
40
1
40
1
40
1
40
1
41
1
10
37.1643608408419
20
0.310361029016264
30
0
41
1
10
37.1378671045864
20
0.334015866016785
30
0
41
1
10
37.1122451736197
20
0.356341791517622
30
0
41
1
10
37.0635080710024
20
0.397172535530416
30
0
41
1
10
37.0407707876376
20
0.415333863626785
30
0
41
1
10
37.009659315944
20
0.43878070417216
30
0
41
1
10
36.999821284522
20
0.44588880534539
30
0
41
1
10
36.9811760917728
20
0.458850500453678
30
0
41
1
10
36.9721900324292
20
0.46493091451876
30
0
41
1
10
36.9597932624053
20
0.472381350979134
30
0
41
1
10
36.9555783026316
20
0.474708320874726
30
0
41
1
10
36.9518212867352
20
0.476490399576449
30
0
0
SPLINE
5
E7
100
AcDbEntity
8
1
62
256
6
ByLayer
370
18
48
1
60
0
100
AcDbSpline
70
4
71
3
72
8
73
4
40
0
40
0
40
0
40
0
40
1
40
1
40
1
40
1
41
1
10
17
20
1.64926698502219
30
-1E-16
41
1
10
17
20
1.6327917812894
30
-1E-16
41
1
10
17
20
1.61577997001819
30
-1E-16
41
1
10
17
20
1.59823540162586
30
-1E-16
0
SPLINE
5
E8
100
AcDbEntity
8
1
62
256
6
ByLayer
370
18
48
1
60
0
100
AcDbSpline
70
4
71
3
72
38
73
34
40
0
40
0
40
0
40
0
40
0.0433996500198154
40
0.0433996500198154
40
0.0996702588421764
40
0.0996702588421764
40
0.155940867664537
40
0.155940867664537
40
0.212211476486898
40
0.212211476486898
40
0.324752694131621
40
0.324752694131621
40
0.381023302953982
40
0.381023302953982
40
0.409158607365164
40
0.409158607365164
40
0.437293911776345
40
0.437293911776345
40
0.549835129421078
40
0.549835129421078
40
0.606105738243444
40
0.606105738243444
40
0.634241042654626
40
0.634241042654626
40
0.662376347065809
40
0.662376347065809
40
0.774917564710539
40
0.774917564710539
40
0.831188173532905
40
0.831188173532905
40
0.88745878235527
40
0.88745878235527
40
1
40
1
40
1
40
1
41
1
10
25.9537316794471
20
2.09294140852393
30
0
41
1
10
26.1163249637311
20
2.09297978019913
30
0
41
1
10
26.2784985338592
20
2.08653088496797
30
0
41
1
10
26.6491862943672
20
2.05728351232932
30
0
41
1
10
26.8576955350856
20
2.03023091585391
30
0
41
1
10
27.2747181838554
20
1.95599050120168
30
0
41
1
10
27.4831948585292
20
1.90878676577449
30
0
41
1
10
27.9015363866494
20
1.7949330054509
30
-1E-16
41
1
10
28.1116668375442
20
1.72818141392312
30
-1E-16
41
1
10
28.7451538220856
20
1.50069757583506
30
-1E-16
41
1
10
29.1613679000333
20
1.31679869298398
30
-1E-16
41
1
10
29.7862940536273
20
1.00681703749757
30
-1E-16
41
1
10
29.9946684857716
20
0.897746885126026
30
-1E-16
41
1
10
30.3085962334058
20
0.727372636583624
30
0
41
1
10
30.4134681028954
20
0.669455930687462
30
0
41
1
10
30.6238936589575
20
0.551705077260237
30
0
41
1
10
30.7297032963581
20
0.491727555330101
30
0
41
1
10
31.2565651067932
20
0.190274893058984
30
0
41
1
10
31.6724231213327
20
-0.0566694062402178
30
0
41
1
10
32.2974746194144
20
-0.418913052344919
30
0
41
1
10
32.506040744077
20
-0.53829074200172
30
0
41
1
10
32.8203807289919
20
-0.713275346861224
30
0
41
1
10
32.9254088081611
20
-0.770923764456654
30
0
41
1
10
33.1361785148702
20
-0.884483951753197
30
1E-16
41
1
10
33.2418586080219
20
-0.94035382154928
30
1E-16
41
1
10
33.7673715228608
20
-1.21172507875411
30
1E-16
41
1
10
34.182835978385
20
-1.4053973405324
30
1E-16
41
1
10
34.8079813667216
20
-1.64914404491751
30
1E-16
41
1
10
35.0166947744707
20
-1.72258190017931
30
1E-16
41
1
10
35.4364692549574
20
-1.85174634633057
30
0
41
1
10
35.6480838579353
20
-1.90753709364245
30
0
41
1
10
36.2805026183826
20
-2.04371781587548
30
0
41
1
10
36.7025526791347
20
-2.09362828184931
30
0
41
1
10
37.1239281096728
20
-2.0994056250058
30
0
0
SPLINE
5
E9
100
AcDbEntity
8
1
62
256
6
ByLayer
370
18
48
1
60
0
100
AcDbSpline
70
4
71
3
72
8
73
4
40
0
40
0
40
0
40
0
40
1
40
1
40
1
40
1
41
1
10
3.5533494561592
20
-1.9828741406385
30
0
41
1
10
3.55282375173158
20
-2.01047683279285
30
0
41
1
10
3.55230595741509
20
-2.03807869225321
30
0
41
1
10
3.5517960030744
20
-2.06567976823564
30
0
0
SPLINE
5
EA
100
AcDbEntity
8
1
62
256
6
ByLayer
370
18
48
1
60
0
100
AcDbSpline
70
4
71
3
72
20
73
16
40
0
40
0
40
0
40
0
40
0.125
40
0.125
40
0.25
40
0.25
40
0.375
40
0.375
40
0.5
40
0.5
40
0.625
40
0.625
40
0.75
40
0.75
40
1
40
1
40
1
40
1
41
1
10
3.60262998501162
20
-0.346289796511144
30
0
41
1
10
3.60261962519851
20
-0.451600042043424
30
0
41
1
10
3.60260759381023
20
-0.555611396840362
30
0
41
1
10
3.60258194424341
20
-0.75574153885492
30
0
41
1
10
3.60256834057313
20
-0.851944723008614
30
1E-16
41
1
10
3.60254023410676
20
-1.0368075696494
30
1E-16
41
1
10
3.60252570058788
20
-1.12563858322835
30
1E-16
41
1
10
3.60249596694868
20
-1.29463057592414
30
1E-16
41
1
10
3.60248093057834
20
-1.37380673721955
30
1E-16
41
1
10
3.60245072518836
20
-1.518747074808
30
1E-16
41
1
10
3.60243564578428
20
-1.58414993681458
30
1E-16
41
1
10
3.60240473487761
20
-1.70119696870199
30
1E-16
41
1
10
3.60238882523044
20
-1.75305653299816
30
0
41
1
10
3.6023386265619
20
-1.8855150996601
30
0
41
1
10
3.60230311279972
20
-1.94099723436437
30
0
41
1
10
3.60225949521134
20
-1.96332423799265
30
0
0
SPLINE
5
EB
100
AcDbEntity
8
1
62
256
6
ByLayer
370
18
48
1
60
0
100
AcDbSpline
70
4
71
3
72
26
73
22
40
0
40
0
40
0
40
0
40
0.0982898617181476
40
0.0982898617181476
40
0.196579723436295
40
0.196579723436295
40
0.294869585154443
40
0.294869585154443
40
0.393159446872591
40
0.393159446872591
40
0.491449308590738
40
0.491449308590738
40
0.589739170308886
40
0.589739170308886
40
0.786318893745187
40
0.786318893745187
40
0.884608755463337
40
0.884608755463337
40
0.982898617181488
40
0.982898617181488
40
1
40
1
40
1
40
1
41
1
10
36.9568122065273
20
0.184348315955106
30
0
41
1
10
36.7829611458657
20
0.285663545959949
30
0
41
1
10
36.6096542935503
20
0.386007334511589
30
0
41
1
10
36.263496211655
20
0.583674310372402
30
0
41
1
10
36.0907960880154
20
0.681237786853984
30
0
41
1
10
35.7441139987428
20
0.87041644408913
30
-1E-16
41
1
10
35.5701718141751
20
0.962113763657783
30
-1E-16
41
1
10
35.2206377757507
20
1.13897012466077
30
-1E-16
41
1
10
35.0446079819394
20
1.22437308802768
30
-1E-16
41
1
10
34.6958987782084
20
1.38510085951
30
-1E-16
41
1
10
34.522353771942
20
1.4603519747667
30
-1E-16
41
1
10
34.1755144058848
20
1.59924430823423
30
-1E-16
41
1
10
34.0022598977805
20
1.66297068193245
30
-1E-16
41
1
10
33.482664909616
20
1.83671875720844
30
1E-16
41
1
10
33.1365927035351
20
1.92908567584587
30
0
41
1
10
32.6098018240955
20
2.02470267317813
30
0
41
1
10
32.4348932901249
20
2.04926652487751
30
0
41
1
10
32.0869896683098
20
2.08365803407844
30
0
41
1
10
31.9139748088927
20
2.09351050083427
30
0
41
1
10
31.710778326675
20
2.09633982384469
30
0
41
1
10
31.6806619869105
20
2.09653772901683
30
0
41
1
10
31.6505425709216
20
2.0965140054189
30
0
0
SPLINE
5
EC
100
AcDbEntity
8
1
62
256
6
ByLayer
370
18
48
1
60
0
100
AcDbSpline
70
4
71
3
72
56
73
52
40
0
40
0
40
0
40
0
40
0.0004038753511465
40
0.0004038753511465
40
0.037118656374307
40
0.037118656374307
40
0.0738334373974676
40
0.0738334373974676
40
0.110548218420628
40
0.110548218420628
40
0.147262999443789
40
0.147262999443789
40
0.183977780466949
40
0.183977780466949
40
0.22069256149011
40
0.22069256149011
40
0.25740734251327
40
0.25740734251327
40
0.294122123536431
40
0.294122123536431
40
0.330836904559592
40
0.330836904559592
40
0.367551685582752
40
0.367551685582752
40
0.404266466605912
40
0.404266466605912
40
0.440981247629073
40
0.440981247629073
40
0.514410809675394
40
0.514410809675394
40
0.551125590698554
40
0.551125590698554
40
0.587840371721714
40
0.587840371721714
40
0.661269933768033
40
0.661269933768033
40
0.697984714791193
40
0.697984714791193
40
0.734699495814352
40
0.734699495814352
40
0.808129057860672
40
0.808129057860672
40
0.844843838883832
40
0.844843838883832
40
0.881558619906991
40
0.881558619906991
40
0.95498818195331
40
0.95498818195331
40
0.99170296297647
40
0.99170296297647
40
1
40
1
40
1
40
1
41
1
10
23.3983060104456
20
-1.40451438996655
30
1E-16
41
1
10
23.3963858770131
20
-1.40534749496294
30
1E-16
41
1
10
23.3944656280593
20
-1.40618001114422
30
1E-16
41
1
10
23.2179720841686
20
-1.48263914942601
30
1E-16
41
1
10
23.0417821537352
20
-1.55351372154985
30
1E-16
41
1
10
22.6919349923555
20
-1.68243254724581
30
1E-16
41
1
10
22.5178848129747
20
-1.74084501287965
30
1E-16
41
1
10
22.170928819065
20
-1.84510339649117
30
0
41
1
10
21.9980666404166
20
-1.89093611879025
30
0
41
1
10
21.6516270188114
20
-1.96858508977107
30
0
41
1
10
21.4781031087152
20
-2.00050085742853
30
0
41
1
10
21.1301505091371
20
-2.05031257223325
30
0
41
1
10
20.9557458775793
20
-2.06820396315408
30
0
41
1
10
20.6053098567384
20
-2.08911129063827
30
0
41
1
10
20.429991465541
20
-2.09194235263681
30
0
41
1
10
20.0813444885214
20
-2.08277934380658
30
0
41
1
10
19.9075597809684
20
-2.0708488801375
30
0
41
1
10
19.5607644419743
20
-2.03254064832061
30
0
41
1
10
19.387820575885
20
-2.00608903923725
30
0
41
1
10
19.0412813005271
20
-1.93916647950996
30
0
41
1
10
18.8675886563852
20
-1.89878295795216
30
0
41
1
10
18.5185710270294
20
-1.80469508963705
30
1E-16
41
1
10
18.3427109083302
20
-1.75067117992555
30
1E-16
41
1
10
17.9921821689381
20
-1.63030947249237
30
1E-16
41
1
10
17.818175010927
20
-1.5640464540451
30
1E-16
41
1
10
17.4706061131633
20
-1.42198063197054
30
1E-16
41
1
10
17.2970905015827
20
-1.34616461506846
30
1E-16
41
1
10
16.7768064545219
20
-1.10532692715014
30
1E-16
41
1
10
16.4310468764672
20
-0.925645208545234
30
1E-16
41
1
10
15.905842323785
20
-0.639239670994385
30
0
41
1
10
15.7294595234215
20
-0.540788994289471
30
0
41
1
10
15.3800282537177
20
-0.341797062199959
30
0
41
1
10
15.2063258252473
20
-0.240806748783996
30
0
41
1
10
14.6861194230543
20
0.0628944310120403
30
0
41
1
10
14.3397366860302
20
0.26498121199748
30
0
41
1
10
13.8174952317037
20
0.561784426121648
30
0
41
1
10
13.6431285016399
20
0.659934544325722
30
0
41
1
10
13.291725499683
20
0.851022114639761
30
-1E-16
41
1
10
13.1166485418588
20
0.94297157291021
30
-1E-16
41
1
10
12.593688345546
20
1.20682545398589
30
-1E-16
41
1
10
12.24843398624
20
1.36808467523201
30
-1E-16
41
1
10
11.7276215213396
20
1.57713408778096
30
-1E-16
41
1
10
11.5535252795715
20
1.64140668142932
30
-1E-16
41
1
10
11.2041413289831
20
1.75873081052964
30
-1E-16
41
1
10
11.0281487249558
20
1.81195135399017
30
-1E-16
41
1
10
10.5030907830773
20
1.95050430908205
30
0
41
1
10
10.1558344174287
20
2.01449572529401
30
0
41
1
10
9.63563498114328
20
2.0677473718076
30
0
41
1
10
9.46254028345263
20
2.07832966282518
30
0
41
1
10
9.24946581900971
20
2.08217356819043
30
0
41
1
10
9.21015456522969
20
2.08250507500682
30
0
41
1
10
9.17080503618811
20
2.08245874162975
30
0
0
SPLINE
5
ED
100
AcDbEntity
8
1
62
256
6
ByLayer
370
18
48
1
60
0
100
AcDbSpline
70
4
71
3
72
8
73
4
40
0
40
0
40
0
40
0
40
1
40
1
40
1
40
1
41
1
10
37.5401162232355
20
-0.258292008072516
30
0
41
1
10
37.4345750009196
20
-0.0866986029928682
30
0
41
1
10
37.3099898024986
20
0.102245097512792
30
0
41
1
10
37.164360840842
20
0.310361029016349
30
0
0
SPLINE
5
EE
100
AcDbEntity
8
1
62
256
6
ByLayer
370
18
48
1
60
0
100
AcDbSpline
70
4
71
3
72
8
73
4
40
0
40
0
40
0
40
0
40
1
40
1
40
1
40
1
41
1
10
37.2795608458074
20
-1.9959968678356
30
0
41
1
10
37.2625110380529
20
-2.0083545594901
30
0
41
1
10
37.249865160984
20
-2.00954563107032
30
0
41
1
10
37.2402460188628
20
-2.00018143117956
30
0
0
SPLINE
5
EF
100
AcDbEntity
8
1
62
256
6
ByLayer
370
18
48
1
60
0
100
AcDbSpline
70
4
71
3
72
30
73
26
40
0
40
0
40
0
40
0
40
0.055765701509933
40
0.055765701509933
40
0.142360884881215
40
0.142360884881215
40
0.228956068252497
40
0.228956068252497
40
0.315551251623778
40
0.315551251623778
40
0.402146434995059
40
0.402146434995059
40
0.488741618366341
40
0.488741618366341
40
0.575336801737623
40
0.575336801737623
40
0.661931985108905
40
0.661931985108905
40
0.748527168480187
40
0.748527168480187
40
0.835122351851468
40
0.835122351851468
40
0.92171753522275
40
0.92171753522275
40
1
40
1
40
1
40
1
41
1
10
25.8947683757867
20
-0.222741995584954
30
0
41
1
10
25.7834889379146
20
-0.161146644378988
30
0
41
1
10
25.6721126489607
20
-0.0992452089060976
30
0
41
1
10
25.3870988339257
20
0.058654275746477
30
0
41
1
10
25.2132706858275
20
0.155029829321393
30
0
41
1
10
24.8640795252645
20
0.34768183397739
30
0
41
1
10
24.6884460365145
20
0.443614351833816
30
0
41
1
10
24.3395866035648
20
0.629733126151876
30
0
41
1
10
24.1659002050828
20
0.720514566678759
30
0
41
1
10
23.8196464464931
20
0.896153208399767
30
-1E-16
41
1
10
23.6467979674225
20
0.980942404870461
30
-1E-16
41
1
10
23.3005618725298
20
1.14317610794521
30
-1E-16
41
1
10
23.1273540678853
20
1.22066273978703
30
-1E-16
41
1
10
22.7801431331625
20
1.36667969345123
30
-1E-16
41
1
10
22.60596562835
20
1.43535202617935
30
-1E-16
41
1
10
22.2555108666142
20
1.56293391221044
30
-1E-16
41
1
10
22.0802716226596
20
1.62127884141637
30
-1E-16
41
1
10
21.7317908009725
20
1.72507029285217
30
0
41
1
10
21.5579160279588
20
1.77096655445578
30
0
41
1
10
21.2099943968667
20
1.8503708255374
30
0
41
1
10
21.0361143789545
20
1.88350704701529
30
0
41
1
10
20.6876558080562
20
1.93586302802822
30
0
41
1
10
20.5126237825979
20
1.95557266130004
30
0
41
1
10
20.178862965169
20
1.98012518512604
30
0
41
1
10
20.0213324995091
20
1.98570001485379
30
0
41
1
10
19.8643917013883
20
1.98526179987218
30
0
0
SPLINE
5
F0
100
AcDbEntity
8
1
62
256
6
ByLayer
370
18
48
1
60
0
100
AcDbSpline
70
4
71
3
72
8
73
4
40
0
40
0
40
0
40
0
40
1
40
1
40
1
40
1
41
1
10
37.996943380696
20
0.149080856521607
30
0
41
1
10
37.9854546736647
20
0.110229826018667
30
0
41
1
10
37.9738947084164
20
0.0714018337110645
30
0
41
1
10
37.9622638198691
20
0.0325967713178272
30
0
0
SPLINE
5
F1
100
AcDbEntity
8
1
62
256
6
ByLayer
370
18
48
1
60
0
100
AcDbSpline
70
4
71
3
72
36
73
32
40
0
40
0
40
0
40
0
40
0.0983187496323057
40
0.0983187496323057
40
0.147478124448457
40
0.147478124448457
40
0.196637499264608
40
0.196637499264608
40
0.294956248896908
40
0.294956248896908
40
0.344115623713058
40
0.344115623713058
40
0.393274998529208
40
0.393274998529208
40
0.491593748161508
40
0.491593748161508
40
0.589912497793808
40
0.589912497793808
40
0.639071872609957
40
0.639071872609957
40
0.688231247426105
40
0.688231247426105
40
0.786549997058402
40
0.786549997058402
40
0.835709371874549
40
0.835709371874549
40
0.884868746690696
40
0.884868746690696
40
0.98318749632299
40
0.98318749632299
40
1
40
1
40
1
40
1
41
1
10
37.1152420577989
20
-2.07128969666468
30
0
41
1
10
36.764544509749
20
-2.03707542308615
30
0
41
1
10
36.4159517326759
20
-1.97337386991666
30
0
41
1
10
35.8915516473255
20
-1.83718664745706
30
-1E-16
41
1
10
35.7165058003618
20
-1.7849847284906
30
1E-16
41
1
10
35.3649326708401
20
-1.66756277172544
30
1E-16
41
1
10
35.1886922014829
20
-1.60239304700914
30
1E-16
41
1
10
34.6640293556348
20
-1.3919957761575
30
1E-16
41
1
10
34.3171384571602
20
-1.23105705752346
30
1E-16
41
1
10
33.7954964872091
20
-0.966827566889776
30
1E-16
41
1
10
33.6213586492328
20
-0.875012001654142
30
1E-16
41
1
10
33.2718221724757
20
-0.684959663129803
30
0
41
1
10
33.0959544686196
20
-0.5863921882233
30
0
41
1
10
32.5681000504357
20
-0.285490935609971
30
0
41
1
10
32.2200447501833
20
-0.0806726895076508
30
0
41
1
10
31.5250236393495
20
0.325956753454875
30
0
41
1
10
31.1777697837205
20
0.527259028498491
30
0
41
1
10
30.6515165429347
20
0.81622311163224
30
0
41
1
10
30.4747487422414
20
0.9105974632852
30
-1E-16
41
1
10
30.1241484658294
20
1.09062949586311
30
-1E-16
41
1
10
29.949725568651
20
1.17669108882356
30
-1E-16
41
1
10
29.4275695600133
20
1.4210137852339
30
-1E-16
41
1
10
29.0807322049033
20
1.56514624289807
30
-1E-16
41
1
10
28.5571715758509
20
1.74665539971934
30
-1E-16
41
1
10
28.3820370740204
20
1.80130401793377
30
-1E-16
41
1
10
28.0296274298443
20
1.89774827369106
30
0
41
1
10
27.8540007195307
20
1.93911568650967
30
0
41
1
10
27.3298974394717
20
2.04144438577842
30
0
41
1
10
26.9829520286572
20
2.08090512349253
30
0
41
1
10
26.5753872906858
20
2.09248213449459
30
0
41
1
10
26.5158349669286
20
2.09330693489551
30
0
41
1
10
26.4562282818933
20
2.09326171118008
30
0
0
SPLINE
5
F2
100
AcDbEntity
8
1
62
256
6
ByLayer
370
18
48
1
60
0
100
AcDbSpline
70
4
71
3
72
42
73
38
40
0
40
0
40
0
40
0
40
0.0092980191145591
40
0.0092980191145591
40
0.0519490227977892
40
0.0519490227977892
40
0.0946000264810196
40
0.0946000264810196
40
0.179902033847482
40
0.179902033847482
40
0.222553037530713
40
0.222553037530713
40
0.265204041213945
40
0.265204041213945
40
0.35050604858041
40
0.35050604858041
40
0.393157052263642
40
0.393157052263642
40
0.435808055946875
40
0.435808055946875
40
0.521110063313339
40
0.521110063313339
40
0.606412070679804
40
0.606412070679804
40
0.691714078046269
40
0.691714078046269
40
0.777016085412734
40
0.777016085412734
40
0.819667089095965
40
0.819667089095965
40
0.862318092779197
40
0.862318092779197
40
0.947620100145661
40
0.947620100145661
40
0.990271103828893
40
0.990271103828893
40
1
40
1
40
1
40
1
41
1
10
16.2641361711535
20
-1.9966160929454
30
0
41
1
10
16.2258109864411
20
-2.00308688588123
30
0
41
1
10
16.1874412102198
20
-2.00922162737737
30
0
41
1
10
15.9727884308239
20
-2.04159335516968
30
0
41
1
10
15.7967216427853
20
-2.06083872742698
30
0
41
1
10
15.4468334311524
20
-2.08419149487216
30
0
41
1
10
15.2725051467449
20
-2.088382935731
30
0
41
1
10
14.7500212637269
20
-2.07885195538239
30
0
41
1
10
14.4028936066212
20
-2.04286336551914
30
0
41
1
10
13.877320553526
20
-1.94570637444264
30
0
41
1
10
13.7008604385957
20
-1.90582356323128
30
0
41
1
10
13.3488759627986
20
-1.81278789556734
30
1E-16
41
1
10
13.1737864742572
20
-1.75985265003663
30
1E-16
41
1
10
12.6499592108022
20
-1.58345874025915
30
1E-16
41
1
10
12.3029897257867
20
-1.4419912945184
30
1E-16
41
1
10
11.7795075308976
20
-1.20180500192925
30
1E-16
41
1
10
11.6047120183019
20
-1.11680068645973
30
1E-16
41
1
10
11.2531623251434
20
-0.938640007115453
30
1E-16
41
1
10
11.0762305260074
20
-0.84537403394711
30
1E-16
41
1
10
10.5499533106644
20
-0.559868136172184
30
0
41
1
10
10.2024744540327
20
-0.360114700511105
30
0
41
1
10
9.50583605012901
20
0.0435857174478542
30
0
41
1
10
9.15714124095967
20
0.24841632630978
30
0
41
1
10
8.45069837589176
20
0.649124058618838
30
0
41
1
10
8.102070208745
20
0.840782131516022
30
-1E-16
41
1
10
7.40556821660692
20
1.19391133206659
30
-1E-16
41
1
10
7.05783199068691
20
1.35563824292984
30
-1E-16
41
1
10
6.53151720440098
20
1.56783264343994
30
-1E-16
41
1
10
6.3545621836264
20
1.63369753590751
30
-1E-16
41
1
10
6.00277601494147
20
1.75224213950338
30
-1E-16
41
1
10
5.82776443883068
20
1.80506260910812
30
-1E-16
41
1
10
5.30408737858295
20
1.94346195819907
30
0
41
1
10
4.95698548579529
20
2.00903136206054
30
0
41
1
10
4.43290998386732
20
2.06362914220386
30
0
41
1
10
4.25767754411498
20
2.07457413346916
30
0
41
1
10
4.04128791921531
20
2.07880415152241
30
0
41
1
10
4.00105895030737
20
2.079197327836
30
0
41
1
10
3.96080525539563
20
2.07919751485713
30
0
0
SPLINE
5
F3
100
AcDbEntity
8
1
62
256
6
ByLayer
370
18
48
1
60
0
100
AcDbSpline
70
4
71
3
72
38
73
34
40
0
40
0
40
0
40
0
40
0.0235677226747298
40
0.0235677226747298
40
0.0608006298793869
40
0.0608006298793869
40
0.0980335370840441
40
0.0980335370840441
40
0.172499351493359
40
0.172499351493359
40
0.246965165902673
40
0.246965165902673
40
0.321430980311987
40
0.321430980311987
40
0.395896794721302
40
0.395896794721302
40
0.470362609130616
40
0.470362609130616
40
0.544828423539931
40
0.544828423539931
40
0.619294237949245
40
0.619294237949245
40
0.693760052358559
40
0.693760052358559
40
0.768225866767874
40
0.768225866767874
40
0.842691681177188
40
0.842691681177188
40
0.917157495586503
40
0.917157495586503
40
0.991623309995817
40
0.991623309995817
40
1
40
1
40
1
40
1
41
1
10
31.7745120839708
20
-0.117904775961449
30
0
41
1
10
31.7076824478896
20
-0.0806216187438338
30
0
41
1
10
31.6407584128218
20
-0.0432239839105364
30
0
41
1
10
31.4678049263342
20
0.0534442332915148
30
0
41
1
10
31.3613264791806
20
0.11293717344509
30
0
41
1
10
31.1486699328849
20
0.231197108660496
30
0
41
1
10
31.0426955682184
20
0.289839904925486
30
0
41
1
10
30.7255501333148
20
0.464172799827878
30
0
41
1
10
30.5152052805876
20
0.578170386740481
30
0
41
1
10
30.0952194668126
20
0.798881770607608
30
0
41
1
10
29.8855197608802
20
0.905384279824716
30
-1E-16
41
1
10
29.4649429385238
20
1.1080299737086
30
-1E-16
41
1
10
29.2542761600291
20
1.20468520336252
30
-1E-16
41
1
10
28.8303859436172
20
1.38519261412819
30
-1E-16
41
1
10
28.617050267508
20
1.46942728321912
30
-1E-16
41
1
10
28.1912113221056
20
1.6198566010921
30
-1E-16
41
1
10
27.9782782164756
20
1.68711075188469
30
-1E-16
41
1
10
27.553927227502
20
1.80339371829061
30
0
41
1
10
27.3421875799178
20
1.85280883534648
30
0
41
1
10
26.9177819967927
20
1.93086699403031
30
0
41
1
10
26.7043173388601
20
1.95954349220761
30
0
41
1
10
26.2803044264427
20
1.99622770978249
30
0
41
1
10
26.0696131589657
20
2.00396671799959
30
0
41
1
10
25.6491294545263
20
1.9984209475914
30
0
41
1
10
25.4392226647914
20
1.98450892096008
30
0
41
1
10
25.0188950122057
20
1.93842347408804
30
0
41
1
10
24.8084426620426
20
1.90532217360376
30
0
41
1
10
24.3855296883888
20
1.8192085294252
30
0
41
1
10
24.1719294181328
20
1.76561953454231
30
0
41
1
10
23.7481101499316
20
1.64124294262641
30
-1E-16
41
1
10
23.5374610125804
20
1.57053344763085
30
-1E-16
41
1
10
23.3035631345824
20
1.48358788587379
30
-1E-16
41
1
10
23.2799172691965
20
1.47469882963023
30
-1E-16
41
1
10
23.2562752724098
20
1.4657139570424
30
-1E-16
0
SPLINE
5
F4
100
AcDbEntity
8
1
62
256
6
ByLayer
370
18
48
1
60
0
100
AcDbSpline
70
4
71
3
72
24
73
20
40
0
40
0
40
0
40
0
40
0.208987422120443
40
0.208987422120443
40
0.313481133180665
40
0.313481133180665
40
0.417974844240886
40
0.417974844240886
40
0.522468555301108
40
0.522468555301108
40
0.626962266361329
40
0.626962266361329
40
0.731455977421551
40
0.731455977421551
40
0.835949688481773
40
0.835949688481773
40
0.940443399541994
40
0.940443399541994
40
1
40
1
40
1
40
1
41
1
10
3.65289401471011
20
-0.368642529771677
30
0
41
1
10
4.00115702361055
20
-0.571091222309718
30
0
41
1
10
4.34800394816202
20
-0.763747415134901
30
0
41
1
10
4.87008650198766
20
-1.03272399445581
30
1E-16
41
1
10
5.0443662706619
20
-1.11911452372357
30
1E-16
41
1
10
5.3938627492023
20
-1.2845790881928
30
1E-16
41
1
10
5.56923924092524
20
-1.36395071453333
30
1E-16
41
1
10
5.91745034284202
20
-1.51076561472979
30
1E-16
41
1
10
6.09101037352113
20
-1.57840726578579
30
1E-16
41
1
10
6.43720812653908
20
-1.7022916514716
30
1E-16
41
1
10
6.6098471617704
20
-1.75848666186269
30
1E-16
41
1
10
6.95560925940521
20
-1.85806278233557
30
0
41
1
10
7.12874482356571
20
-1.90147379271843
30
0
41
1
10
7.4758055066815
20
-1.97515932410599
30
0
41
1
10
7.6497063493315
20
-2.00539548078669
30
0
41
1
10
8.00000926739114
20
-2.05135900582019
30
0
41
1
10
8.174828036891
20
-2.06691287173553
30
0
41
1
10
8.44748000869262
20
-2.07986731609211
30
0
41
1
10
8.54617407485711
20
-2.0821782346365
30
0
41
1
10
8.64476502130225
20
-2.08211599719965
30
0
0
SPLINE
5
F5
100
AcDbEntity
8
1
62
256
6
ByLayer
370
18
48
1
60
0
100
AcDbSpline
70
4
71
3
72
46
73
42
40
0
40
0
40
0
40
0
40
0.0421407927144729
40
0.0421407927144729
40
0.0841613521604406
40
0.0841613521604406
40
0.126181911606408
40
0.126181911606408
40
0.210223030498342
40
0.210223030498342
40
0.294264149390276
40
0.294264149390276
40
0.37830526828221
40
0.37830526828221
40
0.462346387174144
40
0.462346387174144
40
0.504366946620112
40
0.504366946620112
40
0.54638750606608
40
0.54638750606608
40
0.588408065512047
40
0.588408065512047
40
0.630428624958015
40
0.630428624958015
40
0.672449184403983
40
0.672449184403983
40
0.71446974384995
40
0.71446974384995
40
0.756490303295918
40
0.756490303295918
40
0.798510862741886
40
0.798510862741886
40
0.840531422187854
40
0.840531422187854
40
0.882551981633821
40
0.882551981633821
40
0.924572541079789
40
0.924572541079789
40
0.966593100525757
40
0.966593100525757
40
1
40
1
40
1
40
1
41
1
10
18.757556078533
20
1.98528560190721
30
0
41
1
10
18.9306468008374
20
2.0167543847007
30
0
41
1
10
19.1037203915757
20
2.04127807773986
30
0
41
1
10
19.450582047221
20
2.07571299425786
30
0
41
1
10
19.624160334081
20
2.08579431118446
30
0
41
1
10
19.9727359066489
20
2.09110418686149
30
0
41
1
10
20.1481412064308
20
2.08622031315224
30
0
41
1
10
20.6702550839151
20
2.04977598995228
30
0
41
1
10
21.0146494687969
20
1.99613416545293
30
0
41
1
10
21.7056899270161
20
1.83566396224862
30
1E-16
41
1
10
22.0512185659599
20
1.728058493162
30
-1E-16
41
1
10
22.7519622556776
20
1.46489646814692
30
-1E-16
41
1
10
23.0975127252679
20
1.31128678842231
30
-1E-16
41
1
10
23.788474682889
20
0.974318724992742
30
-1E-16
41
1
10
24.1327521702762
20
0.789225177196244
30
0
41
1
10
24.6546327163883
20
0.497778185908487
30
0
41
1
10
24.8299166713454
20
0.397389930438663
30
0
41
1
10
25.1783999332747
20
0.195254523814924
30
0
41
1
10
25.3519762475959
20
0.094106880307038
30
0
41
1
10
25.6981741843213
20
-0.107755018089051
30
0
41
1
10
25.870623819452
20
-0.208766478353823
30
0
41
1
10
26.215448263401
20
-0.408806765290166
30
0
41
1
10
26.388210552726
20
-0.507174286470274
30
0
41
1
10
26.7345336700272
20
-0.700449686439896
30
0
41
1
10
26.9079217441582
20
-0.79564239623727
30
0
41
1
10
27.2564172263299
20
-0.980936737636455
30
1E-16
41
1
10
27.4318507465385
20
-1.07021740836115
30
1E-16
41
1
10
27.779565475532
20
-1.23955150670022
30
1E-16
41
1
10
27.952388428275
20
-1.32021171276381
30
1E-16
41
1
10
28.2974389460439
20
-1.47148026678838
30
1E-16
41
1
10
28.4701269001453
20
-1.54153812964648
30
1E-16
41
1
10
28.8156868552676
20
-1.67089847663326
30
1E-16
41
1
10
28.9884050327033
20
-1.73033077688996
30
1E-16
41
1
10
29.3349873979223
20
-1.83708832530942
30
-1E-16
41
1
10
29.5094663048481
20
-1.8841199554046
30
0
41
1
10
29.859399777245
20
-1.96510682719764
30
0
41
1
10
30.0329317159671
20
-1.99873579834721
30
0
41
1
10
30.3787266722992
20
-2.05141401293017
30
0
41
1
10
30.5514172778773
20
-2.07032272088239
30
0
41
1
10
30.8613951791769
20
-2.0913085846926
30
0
41
1
10
30.9986681206353
20
-2.09606537622364
30
0
41
1
10
31.1360710014205
20
-2.0962248995707
30
0
0
SPLINE
5
F6
100
AcDbEntity
8
1
62
256
6
ByLayer
370
18
48
1
60
0
100
AcDbSpline
70
4
71
3
72
8
73
4
40
0
40
0
40
0
40
0
40
1
40
1
40
1
40
1
41
1
10
37.9969433806959
20
0.149080856521607
30
0
41
1
10
38.001030101866
20
0.0494197878635987
30
0
41
1
10
38.0010077058689
20
-0.0499659491682962
30
0
41
1
10
37.9969433806965
20
-0.14908085650913
30
0
0
SPLINE
5
F7
100
AcDbEntity
8
1
62
256
6
ByLayer
370
18
48
1
60
0
100
AcDbSpline
70
4
71
3
72
32
73
28
40
0
40
0
40
0
40
0
40
0.0521479419291353
40
0.0521479419291353
40
0.138923738294851
40
0.138923738294851
40
0.225699534660565
40
0.225699534660565
40
0.31247533102628
40
0.31247533102628
40
0.399251127391995
40
0.399251127391995
40
0.48602692375771
40
0.48602692375771
40
0.572802720123425
40
0.572802720123425
40
0.65957851648914
40
0.65957851648914
40
0.746354312854855
40
0.746354312854855
40
0.83313010922057
40
0.83313010922057
40
0.876518007403426
40
0.876518007403426
40
0.919905905586283
40
0.919905905586283
40
1
40
1
40
1
40
1
41
1
10
19.4975453157589
20
1.98293757574174
30
0
41
1
10
19.6015364363609
20
1.9891993673632
30
0
41
1
10
19.7055938277221
20
1.99307189044768
30
0
41
1
10
19.9831153322319
20
1.99720678822251
30
0
41
1
10
20.1571296024509
20
1.99245610186418
30
0
41
1
10
20.5074614008844
20
1.96793633589186
30
0
41
1
10
20.682473883991
20
1.94878514365243
30
0
41
1
10
21.030768225813
20
1.89753883734224
30
0
41
1
10
21.2045548453401
20
1.86494361058303
30
0
41
1
10
21.5522751290844
20
1.78646812873254
30
0
41
1
10
21.7260439504485
20
1.74096923170612
30
0
41
1
10
22.0742907080367
20
1.63794225784665
30
-1E-16
41
1
10
22.2493614349101
20
1.57996841214509
30
-1E-16
41
1
10
22.5997149499411
20
1.45287937369824
30
-1E-16
41
1
10
22.7738256413899
20
1.38437176390869
30
-1E-16
41
1
10
23.1208755990587
20
1.23865992316254
30
-1E-16
41
1
10
23.2939923559026
20
1.1612724894656
30
-1E-16
41
1
10
23.6400242062685
20
0.999100958222158
30
-1E-16
41
1
10
23.812768883509
20
0.914273911621791
30
-1E-16
41
1
10
24.1587730054053
20
0.73849896328889
30
0
41
1
10
24.3323299100667
20
0.64759320893171
30
0
41
1
10
24.593776192021
20
0.507715031128697
30
0
41
1
10
24.6811150657862
20
0.460508550160313
30
0
41
1
10
24.856083590802
20
0.364946542328141
30
0
41
1
10
24.9437100757701
20
0.316564346008135
30
0
41
1
10
25.1920854737357
20
0.17898321536012
30
0
41
1
10
25.3525235489498
20
0.0896622955800694
30
0
41
1
10
25.5125357892226
20
0.000558065962025
30
0
0
SPLINE
5
F8
100
AcDbEntity
8
1
62
256
6
ByLayer
370
18
48
1
60
0
100
AcDbSpline
70
4
71
3
72
22
73
18
40
0
40
0
40
0
40
0
40
0.100797253259009
40
0.100797253259009
40
0.400531502172674
40
0.400531502172674
40
0.47546506440109
40
0.47546506440109
40
0.550398626629506
40
0.550398626629506
40
0.700265751086338
40
0.700265751086338
40
0.850132875543171
40
0.850132875543171
40
0.925066437771585
40
0.925066437771585
40
1
40
1
40
1
40
1
41
1
10
11.8868327047634
20
1.49808126365383
30
-1E-16
41
1
10
12.0597353085684
20
1.56815959846432
30
-1E-16
41
1
10
12.2329676244985
20
1.63322849466863
30
-1E-16
41
1
10
12.9163766188023
20
1.86614144719195
30
0
41
1
10
13.4218632940592
20
1.98648582411926
30
0
41
1
10
14.0604575835615
20
2.05973441385899
30
0
41
1
10
14.1885886167989
20
2.07049946859826
30
0
41
1
10
14.4458900131752
20
2.0840740413729
30
0
41
1
10
14.5748233796309
20
2.08684256004824
30
0
41
1
10
14.9590611571561
20
2.08304833247996
30
0
41
1
10
15.2134425589168
20
2.06446760450561
30
0
41
1
10
15.7218530191827
20
1.99676191310903
30
0
41
1
10
15.9758082277894
20
1.94764976238636
30
0
41
1
10
16.3581990928232
20
1.85182348374803
30
0
41
1
10
16.4859800942213
20
1.81624049112821
30
1E-16
41
1
10
16.7424740966873
20
1.73791789006623
30
-1E-16
41
1
10
16.8715572636772
20
1.69504480928885
30
-1E-16
41
1
10
16.9999999999882
20
1.6492669850264
30
-1E-16
0
SPLINE
5
F9
100
AcDbEntity
8
1
62
256
6
ByLayer
370
18
48
1
60
0
100
AcDbSpline
70
4
71
3
72
16
73
12
40
0
40
0
40
0
40
0
40
0.124992922486547
40
0.124992922486547
40
0.34374469186491
40
0.34374469186491
40
0.562496461243273
40
0.562496461243273
40
0.781248230621637
40
0.781248230621637
40
1
40
1
40
1
40
1
41
1
10
37.0524952283613
20
0.398684917062383
30
0
41
1
10
37.0634486136371
20
0.405652354550625
30
0
41
1
10
37.0753172905262
20
0.413146941703019
30
0
41
1
10
37.1104891060808
20
0.435104154146757
30
0
41
1
10
37.1357826852409
20
0.450713559072
30
0
41
1
10
37.1903087184073
20
0.482355074442211
30
0
41
1
10
37.2200742612993
20
0.498627335462317
30
0
41
1
10
37.284359411886
20
0.529025663616778
30
0
41
1
10
37.3180325555943
20
0.54289997604954
30
0
41
1
10
37.3886561869404
20
0.566691137884703
30
0
41
1
10
37.4257953132915
20
0.576511796753664
30
0
41
1
10
37.4634511378057
20
0.583199418980996
30
0
0
SPLINE
5
FA
100
AcDbEntity
8
1
62
256
6
ByLayer
370
18
48
1
60
0
100
AcDbSpline
70
4
71
3
72
10
73
6
40
0
40
0
40
0
40
0
40
0.5
40
0.5
40
1
40
1
40
1
40
1
41
1
10
3.5533494561592
20
-1.98287414063853
30
0
41
1
10
3.5355771295601
20
-1.99058548763818
30
0
41
1
10
3.52288008700464
20
-2.00137060765573
30
0
41
1
10
3.50618189186844
20
-2.02441361982952
30
0
41
1
10
3.50204357384382
20
-2.03706735620381
30
0
41
1
10
3.50204357384382
20
-2.0493780480893
30
0
0
SPLINE
5
FB
100
AcDbEntity
8
1
62
256
6
ByLayer
370
18
48
1
60
0
100
AcDbSpline
70
4
71
3
72
10
73
6
40
0
40
0
40
0
40
0
40
0.5
40
0.5
40
1
40
1
40
1
40
1
41
1
10
3.50204357384382
20
-0.453050336458887
30
0
41
1
10
3.50204357384388
20
-0.418502498859823
30
0
41
1
10
3.52189798187982
20
-0.385082248331031
30
0
41
1
10
3.58300508424833
20
-0.350741902181881
30
0
41
1
10
3.62241353264869
20
-0.350923927498343
30
0
41
1
10
3.65289401471014
20
-0.368642529771677
30
0
0
SPLINE
5
FC
100
AcDbEntity
8
1
62
256
6
ByLayer
370
18
48
1
60
0
100
AcDbSpline
70
4
71
3
72
8
73
4
40
0
40
0
40
0
40
0
40
1
40
1
40
1
40
1
41
1
10
3.60225949521137
20
-1.96332423799265
30
0
41
1
10
3.8337840009452
20
-1.97713666356825
30
0
41
1
10
4.06422044570689
20
-1.97834696287274
30
0
41
1
10
4.2944450703516
20
-1.96726943167556
30
0
0
SPLINE
5
FD
100
AcDbEntity
8
1
62
256
6
ByLayer
370
18
48
1
60
0
100
AcDbSpline
70
4
71
3
72
22
73
18
40
0
40
0
40
0
40
0
40
0.0146735459457869
40
0.0146735459457869
40
0.186153792818731
40
0.186153792818731
40
0.271893916255202
40
0.271893916255202
40
0.357634039691674
40
0.357634039691674
40
0.700594533437557
40
0.700594533437557
40
0.786334656874029
40
0.786334656874029
40
0.872074780310499
40
0.872074780310499
40
1
40
1
40
1
40
1
41
1
10
20.3399904425252
20
0.283042823209314
30
0
41
1
10
20.370177128246
20
0.266489097694261
30
0
41
1
10
20.4003875479253
20
0.249892040362141
30
0
41
1
10
20.7839669404428
20
0.0388404836589586
30
0
41
1
10
21.1340049741235
20
-0.157297965247892
30
0
41
1
10
21.6596868104496
20
-0.444236438224294
30
0
41
1
10
21.8349755266561
20
-0.538709441012969
30
0
41
1
10
22.1865981997586
20
-0.723641153033043
30
0
41
1
10
22.3635609618938
20
-0.8144127477822
30
0
41
1
10
23.2441023439623
20
-1.24995499089408
30
1E-16
41
1
10
23.9340499260795
20
-1.53803570118572
30
1E-16
41
1
10
24.8133475253609
20
-1.77898479060877
30
0
41
1
10
24.9904122792612
20
-1.8209615940581
30
0
41
1
10
25.341622419142
20
-1.89083397787576
30
0
41
1
10
25.5164370452995
20
-1.91902920029327
30
0
41
1
10
25.9512175008673
20
-1.97223363084015
30
0
41
1
10
26.2107744275243
20
-1.98815860379796
30
0
41
1
10
26.4709608593774
20
-1.98856357891816
30
0
0
SPLINE
5
FE
100
AcDbEntity
8
1
62
256
6
ByLayer
370
18
48
1
60
0
100
AcDbSpline
70
4
71
3
72
34
73
30
40
0
40
0
40
0
40
0
40
0.0130552495157624
40
0.0130552495157624
40
0.10009509855872
40
0.10009509855872
40
0.187134947601678
40
0.187134947601678
40
0.274174796644636
40
0.274174796644636
40
0.361214645687593
40
0.361214645687593
40
0.448254494730551
40
0.448254494730551
40
0.535294343773508
40
0.535294343773508
40
0.622334192816466
40
0.622334192816466
40
0.709374041859424
40
0.709374041859424
40
0.752893966380903
40
0.752893966380903
40
0.796413890902382
40
0.796413890902382
40
0.883453739945339
40
0.883453739945339
40
0.970493588988298
40
0.970493588988298
40
1
40
1
40
1
40
1
41
1
10
8.27266422818923
20
1.97802193926583
30
0
41
1
10
8.29876398286896
20
1.97947512158274
30
0
41
1
10
8.32484480346287
20
1.98078013466764
30
0
41
1
10
8.52465911976884
20
1.98968916380716
30
0
41
1
10
8.69761177436629
20
1.99121262940074
30
0
41
1
10
9.04357140402706
20
1.97880393607937
30
0
41
1
10
9.21655802683784
20
1.96518314215194
30
0
41
1
10
9.56252133620592
20
1.92531236651891
30
0
41
1
10
9.73545564210272
20
1.89915694735987
30
0
41
1
10
10.0833596431989
20
1.83194063371656
30
0
41
1
10
10.2586453242558
20
1.79116254294834
30
0
41
1
10
10.6087840290068
20
1.69779092435715
30
-1E-16
41
1
10
10.7827344485376
20
1.6454953171374
30
-1E-16
41
1
10
11.1299772882297
20
1.52915081082924
30
-1E-16
41
1
10
11.303199135128
20
1.46544888864756
30
-1E-16
41
1
10
11.649014344103
20
1.32866178460816
30
-1E-16
41
1
10
11.8216108765124
20
1.25557246220919
30
-1E-16
41
1
10
12.1679828575694
20
1.10049059125805
30
-1E-16
41
1
10
12.3416132758625
20
1.01868059504935
30
-1E-16
41
1
10
12.6028089614248
20
0.890407866889717
30
-1E-16
41
1
10
12.6899741706134
20
0.846723405534846
30
-1E-16
41
1
10
12.8648769978295
20
0.757683176349076
30
0
41
1
10
12.9526400796548
20
0.712322253267189
30
0
41
1
10
13.21473199246
20
0.575162363375085
30
0
41
1
10
13.3886285361903
20
0.481920537771202
30
0
41
1
10
13.7352176224702
20
0.292738113086244
30
0
41
1
10
13.9079585773719
20
0.196878508385794
30
0
41
1
10
14.1394460138598
20
0.0684698200253138
30
0
41
1
10
14.1980533430037
20
0.0359306344903985
30
0
41
1
10
14.2566675277837
20
0.0033737952304023
30
0
0
SPLINE
5
FF
100
AcDbEntity
8
1
62
256
6
ByLayer
370
18
48
1
60
0
100
AcDbSpline
70
4
71
3
72
24
73
20
40
0
40
0
40
0
40
0
40
0.137754915034343
40
0.137754915034343
40
0.228441514198608
40
0.228441514198608
40
0.319128113362873
40
0.319128113362873
40
0.500501311691407
40
0.500501311691407
40
0.591187910855674
40
0.591187910855674
40
0.681874510019942
40
0.681874510019942
40
0.772561109184209
40
0.772561109184209
40
0.863247708348476
40
0.863247708348476
40
1
40
1
40
1
40
1
41
1
10
31.0095141633988
20
2.00070161428636
30
0
41
1
10
31.272199370713
20
2.00526392615959
30
0
41
1
10
31.5347563345563
20
1.99355472209209
30
0
41
1
10
31.9713301669097
20
1.9496322061774
30
0
41
1
10
32.1448664238497
20
1.92592704938261
30
0
41
1
10
32.4943619188604
20
1.86358566809733
30
0
41
1
10
32.6691431876586
20
1.82504840648349
30
0
41
1
10
33.1901164155432
20
1.69151383391744
30
-1E-16
41
1
10
33.5349850995375
20
1.57791079144621
30
-1E-16
41
1
10
34.0530726964125
20
1.37728099822459
30
-1E-16
41
1
10
34.225882490225
20
1.3054585440745
30
-1E-16
41
1
10
34.5728246055156
20
1.15238158061678
30
-1E-16
41
1
10
34.7471420894408
20
1.07101461427777
30
-1E-16
41
1
10
35.0970882948166
20
0.900615586895924
30
-1E-16
41
1
10
35.2712070141512
20
0.812355211344794
30
0
41
1
10
35.6186212086619
20
0.63106190884946
30
0
41
1
10
35.7919107919371
20
0.537992474779173
30
0
41
1
10
36.2264831040874
20
0.300620850266284
30
0
41
1
10
36.4876356820229
20
0.154131102003362
30
0
41
1
10
36.750636196637
20
0.0073409624205567
30
0
0
SPLINE
5
100
100
AcDbEntity
8
1
62
256
6
ByLayer
370
18
48
1
60
0
100
AcDbSpline
70
4
71
3
72
8
73
4
40
0
40
0
40
0
40
0
40
1
40
1
40
1
40
1
41
1
10
37.1152420577964
20
2.07128969666533
30
0
41
1
10
37.1185583522848
20
2.08766783955303
30
0
41
1
10
37.1214570394124
20
2.09715532664052
30
0
41
1
10
37.1239281096548
20
2.0994056250058
30
0
0
SPLINE
5
101
100
AcDbEntity
8
1
62
256
6
ByLayer
370
18
48
1
60
0
100
AcDbSpline
70
4
71
3
72
54
73
50
40
0
40
0
40
0
40
0
40
0.0170914841058133
40
0.0170914841058133
40
0.0595020998555545
40
0.0595020998555545
40
0.101912715605296
40
0.101912715605296
40
0.144323331355037
40
0.144323331355037
40
0.186733947104778
40
0.186733947104778
40
0.229144562854519
40
0.229144562854519
40
0.27155517860426
40
0.27155517860426
40
0.313965794354002
40
0.313965794354002
40
0.356376410103743
40
0.356376410103743
40
0.398787025853484
40
0.398787025853484
40
0.441197641603225
40
0.441197641603225
40
0.483608257352966
40
0.483608257352966
40
0.526018873102708
40
0.526018873102708
40
0.568429488852449
40
0.568429488852449
40
0.61084010460219
40
0.61084010460219
40
0.653250720351931
40
0.653250720351931
40
0.695661336101673
40
0.695661336101673
40
0.738071951851414
40
0.738071951851414
40
0.780482567601155
40
0.780482567601155
40
0.822893183350896
40
0.822893183350896
40
0.865303799100638
40
0.865303799100638
40
0.95012503060012
40
0.95012503060012
40
0.992535646349861
40
0.992535646349861
40
1
40
1
40
1
40
1
41
1
10
7.61365135072543
20
1.9971001416821
30
0
41
1
10
7.68388879466232
20
2.00867575653368
30
0
41
1
10
7.75427174576276
20
2.01911558978017
30
0
41
1
10
8.00000926739023
20
2.0513590058201
30
0
41
1
10
8.17482803689006
20
2.06691287173544
30
0
41
1
10
8.52216558349716
20
2.08341583296749
30
0
41
1
10
8.69494430113664
20
2.08430371868957
30
0
41
1
10
9.04073096380375
20
2.07155634473867
30
0
41
1
10
9.21364498615037
20
2.05799552391406
30
0
41
1
10
9.55949170436
20
2.01641883270747
30
0
41
1
10
9.73244151577057
20
1.98832063281091
30
0
41
1
10
10.0804687162002
20
1.91833863069837
30
0
41
1
10
10.2560908215236
20
1.87623892767286
30
0
41
1
10
10.6053724975996
20
1.77880727939458
30
-1E-16
41
1
10
10.7788234147441
20
1.72357101404637
30
-1E-16
41
1
10
11.125456652927
20
1.60243019241193
30
-1E-16
41
1
10
11.2984460276205
20
1.5363793197215
30
-1E-16
41
1
10
11.6438678222595
20
1.39345998022961
30
-1E-16
41
1
10
11.8163491216353
20
1.31659910381265
30
-1E-16
41
1
10
12.1627565914632
20
1.15459139288353
30
-1E-16
41
1
10
12.3364889043165
20
1.06921790526783
30
-1E-16
41
1
10
12.685309994394
20
0.889882007379668
30
-1E-16
41
1
10
12.8606772895582
20
0.795865628335605
30
0
41
1
10
13.2089622592563
20
0.605314308425221
30
0
41
1
10
13.3823952205467
20
0.508109894012932
30
0
41
1
10
13.7282081769481
20
0.310487677964033
30
0
41
1
10
13.9006821468884
20
0.210227078357974
30
0
41
1
10
14.2463377778176
20
0.0095524096402926
30
0
41
1
10
14.4193192166417
20
-0.0912073680982246
30
0
41
1
10
14.7660360792531
20
-0.292815649295477
30
0
41
1
10
14.9399171361933
20
-0.393411211519805
30
0
41
1
10
15.290454058989
20
-0.591114880015795
30
0
41
1
10
15.4649686354516
20
-0.687774227557412
30
0
41
1
10
15.8118047496565
20
-0.875779930940894
30
1E-16
41
1
10
15.9844264731451
20
-0.966935868267086
30
1E-16
41
1
10
16.3302636002022
20
-1.14032817471718
30
1E-16
41
1
10
16.503063932452
20
-1.22323677634887
30
1E-16
41
1
10
16.8486647868769
20
-1.38102187390143
30
1E-16
41
1
10
17.0215327355913
20
-1.45576259252803
30
1E-16
41
1
10
17.36948664837
20
-1.59414513220091
30
1E-16
41
1
10
17.5449320892816
20
-1.65849184003633
30
1E-16
41
1
10
17.893837019554
20
-1.77468397314985
30
1E-16
41
1
10
18.0673405233498
20
-1.82633187287101
30
-1E-16
41
1
10
18.587072943172
20
-1.9607881029782
30
0
41
1
10
18.9310328558224
20
-2.02413441028443
30
0
41
1
10
19.4505820472176
20
-2.0757129942576
30
0
41
1
10
19.6241603340777
20
-2.08579431118432
30
0
41
1
10
19.829123121201
20
-2.08891652342098
30
0
41
1
10
19.8598327389295
20
-2.0891502702566
30
0
41
1
10
19.8905634262147
20
-2.08915198651624
30
0
0
SPLINE
5
102
100
AcDbEntity
8
1
62
256
6
ByLayer
370
18
48
1
60
0
100
AcDbSpline
70
4
71
3
72
28
73
24
40
0
40
0
40
0
40
0
40
0.0058116112108594
40
0.0058116112108594
40
0.0822876411177131
40
0.0822876411177131
40
0.23523970093142
40
0.23523970093142
40
0.311715730838275
40
0.311715730838275
40
0.388191760745131
40
0.388191760745131
40
0.541143820558847
40
0.541143820558847
40
0.617619850465705
40
0.617619850465705
40
0.694095880372564
40
0.694095880372564
40
0.84704794018628
40
0.84704794018628
40
0.92352397009314
40
0.92352397009314
40
1
40
1
40
1
40
1
41
1
10
30.1664010721446
20
2.01894406765248
30
0
41
1
10
30.179547677552
20
2.02102965389528
30
0
41
1
10
30.1926902678044
20
2.02307332878553
30
0
41
1
10
30.3787266722936
20
2.05141401292948
30
0
41
1
10
30.5514172778717
20
2.07032272088185
30
0
41
1
10
31.0694823836686
20
2.10539633003151
30
0
41
1
10
31.4147541206443
20
2.10006013462097
30
0
41
1
10
31.9360035683631
20
2.047559414132
30
0
41
1
10
32.1109855216313
20
2.02237867122528
30
0
41
1
10
32.4590025044014
20
1.95818013898813
30
0
41
1
10
32.632333824003
20
1.91927833381266
30
0
41
1
10
33.1510865794253
20
1.78333568990141
30
-1E-16
41
1
10
33.495394233961
20
1.66715600698532
30
-1E-16
41
1
10
34.0143721969048
20
1.45913410948563
30
-1E-16
41
1
10
34.1877788956915
20
1.38413780130284
30
-1E-16
41
1
10
34.5366033563441
20
1.22405209608516
30
-1E-16
41
1
10
34.7115518956119
20
1.13912630894055
30
-1E-16
41
1
10
35.2322172188765
20
0.875149251286672
30
-1E-16
41
1
10
35.5765651754538
20
0.685936114318025
30
0
41
1
10
36.0941118398408
20
0.390862528086757
30
0
41
1
10
36.2667580349068
20
0.290554920553205
30
0
41
1
10
36.6135065637021
20
0.0880440014229578
30
0
41
1
10
36.7878346835119
20
-0.0143670625876666
30
0
41
1
10
36.9629798633575
20
-0.116227203471539
30
0
0
SPLINE
5
103
100
AcDbEntity
8
1
62
256
6
ByLayer
370
18
48
1
60
0
100
AcDbSpline
70
4
71
3
72
8
73
4
40
0
40
0
40
0
40
0
40
1
40
1
40
1
40
1
41
1
10
37.8167083551933
20
-0.669208116283443
30
0
41
1
10
37.8783112001729
20
-0.49638002803124
30
0
41
1
10
37.9383966238341
20
-0.32300681885792
30
0
41
1
10
37.9969433807019
20
-0.149080856504213
30
0
0
SPLINE
5
104
100
AcDbEntity
8
1
62
256
6
ByLayer
370
18
48
1
60
0
100
AcDbSpline
70
4
71
3
72
8
73
4
40
0
40
0
40
0
40
0
40
1
40
1
40
1
40
1
41
1
10
37.1152420577981
20
-2.07128969666334
30
0
41
1
10
37.1567749509058
20
-2.04823900078833
30
0
41
1
10
37.1984353163639
20
-2.02453095627044
30
0
41
1
10
37.2402460188629
20
-2.00018143117941
30
0
0
SPLINE
5
105
100
AcDbEntity
8
1
62
256
6
ByLayer
370
18
48
1
60
0
100
AcDbSpline
70
4
71
3
72
34
73
30
40
0
40
0
40
0
40
0
40
0.077427640915657
40
0.077427640915657
40
0.154855281831314
40
0.154855281831314
40
0.232282922746971
40
0.232282922746971
40
0.2709967432048
40
0.2709967432048
40
0.30971056366263
40
0.30971056366263
40
0.464565845493945
40
0.464565845493945
40
0.503279665951773
40
0.503279665951773
40
0.541993486409601
40
0.541993486409601
40
0.619421127325259
40
0.619421127325259
40
0.696848768240917
40
0.696848768240917
40
0.774276409156575
40
0.774276409156575
40
0.929131690987892
40
0.929131690987892
40
0.967845511445721
40
0.967845511445721
40
1
40
1
40
1
40
1
41
1
10
4.73889083784991
20
1.93421851326363
30
0
41
1
10
4.99697973962691
20
1.87938947593383
30
0
41
1
10
5.25255121641368
20
1.80987033059503
30
-1E-16
41
1
10
5.76212182625773
20
1.64511022789642
30
-1E-16
41
1
10
6.01629925553709
20
1.55011639679424
30
-1E-16
41
1
10
6.5253204721331
20
1.33703119486046
30
-1E-16
41
1
10
6.7804233316804
20
1.21920784108252
30
-1E-16
41
1
10
7.16638952522382
20
1.02846570741568
30
-1E-16
41
1
10
7.2955193845788
20
0.962609300030465
30
-1E-16
41
1
10
7.55202562998826
20
0.828133987632896
30
-1E-16
41
1
10
7.67976825649356
20
0.759300026246621
30
0
41
1
10
8.31718792875867
20
0.409278224877028
30
0
41
1
10
8.82323367590712
20
0.110989748315461
30
0
41
1
10
9.4647173861473
20
-0.260958474195917
30
0
41
1
10
9.59385869934314
20
-0.335462709051313
30
0
41
1
10
9.85081193496015
20
-0.482144706303984
30
0
41
1
10
9.9788493743736
20
-0.554291750154874
30
0
41
1
10
10.361949763975
20
-0.766749381331181
30
0
41
1
10
10.6158716909725
20
-0.903267280619758
30
1E-16
41
1
10
11.1242485901703
20
-1.16057291309443
30
1E-16
41
1
10
11.3786909658667
20
-1.28140396398831
30
1E-16
41
1
10
11.8907748452436
20
-1.50327662121148
30
1E-16
41
1
10
12.1492418971986
20
-1.60469388872971
30
1E-16
41
1
10
12.9163766188024
20
-1.86614144719192
30
0
41
1
10
13.4218632940593
20
-1.98648582411926
30
0
41
1
10
14.0604575835615
20
-2.05973441385899
30
0
41
1
10
14.188588616799
20
-2.07049946859826
30
0
41
1
10
14.42409256154
20
-2.08292406279648
30
0
41
1
10
14.5311408052172
20
-2.08578904616863
30
0
41
1
10
14.6377327154711
20
-2.08587340086797
30
0
0
SPLINE
5
106
100
AcDbEntity
8
1
62
256
6
ByLayer
370
18
48
1
60
0
100
AcDbSpline
70
4
71
3
72
14
73
10
40
0
40
0
40
0
40
0
40
0.598752973115817
40
0.598752973115817
40
0.806450479205855
40
0.806450479205855
40
0.943172863769183
40
0.943172863769183
40
1
40
1
40
1
40
1
41
1
10
37.1239281096725
20
-2.09940562499389
30
0
41
1
10
37.1489623374738
20
-2.08315755689071
30
0
41
1
10
37.1740782502852
20
-2.0666597832014
30
0
41
1
10
37.2079017422135
20
-2.04419709225593
30
0
41
1
10
37.2166124464341
20
-2.03839014129173
30
0
41
1
10
37.2310489032459
20
-2.02872964459527
30
0
41
1
10
37.2367734005499
20
-2.02488944323454
30
0
41
1
10
37.2448871784261
20
-2.01943270179947
30
0
41
1
10
37.2472719752778
20
-2.01782717488155
30
0
41
1
10
37.2496622337054
20
-2.01621636097383
30
0
0
SPLINE
5
107
100
AcDbEntity
8
1
62
256
6
ByLayer
370
18
48
1
60
0
100
AcDbSpline
70
4
71
3
72
14
73
10
40
0
40
0
40
0
40
0
40
0.499999999999995
40
0.499999999999995
40
0.749999999999997
40
0.749999999999997
40
0.874999999999999
40
0.874999999999999
40
1
40
1
40
1
40
1
41
1
10
37.2795608458065
20
-1.99599686783554
30
0
41
1
10
37.3603982427421
20
-1.76850105006352
30
0
41
1
10
37.4410604376402
20
-1.53790913654296
30
0
41
1
10
37.5667337042941
20
-1.19422125533865
30
0
41
1
10
37.6111564360086
20
-1.08213015648005
30
0
41
1
10
37.6838043977607
20
-0.920745939478621
30
0
41
1
10
37.7092130135902
20
-0.867675515289363
30
0
41
1
10
37.7617645503172
20
-0.765385569235775
30
0
41
1
10
37.7888096685152
20
-0.716321508030688
30
0
41
1
10
37.8167083551932
20
-0.6692081162835
30
0
0
SPLINE
5
108
100
AcDbEntity
8
1
62
256
6
ByLayer
370
18
48
1
60
0
100
AcDbSpline
70
4
71
3
72
24
73
20
40
0
40
0
40
0
40
0
40
0.128701540128104
40
0.128701540128104
40
0.215020003646541
40
0.215020003646541
40
0.301338467164978
40
0.301338467164978
40
0.473975394201853
40
0.473975394201853
40
0.56029385772029
40
0.56029385772029
40
0.646612321238727
40
0.646612321238727
40
0.819249248275602
40
0.819249248275602
40
0.991886175312476
40
0.991886175312476
40
1
40
1
40
1
40
1
41
1
10
9.13584069301143
20
0.25718389634514
30
0
41
1
10
9.3959267187698
20
0.114775509657619
30
0
41
1
10
9.65602174593684
20
-0.0299231543931455
30
0
41
1
10
10.0933285074106
20
-0.270289879903487
30
0
41
1
10
10.2701332736167
20
-0.366961184346024
30
0
41
1
10
10.6230434695553
20
-0.55672427745327
30
0
41
1
10
10.7985375551861
20
-0.649395758617118
30
0
41
1
10
11.3238121215638
20
-0.918552883710049
30
1E-16
41
1
10
11.6715875426649
20
-1.08648971581627
30
1E-16
41
1
10
12.1957756848874
20
-1.31280924545828
30
1E-16
41
1
10
12.3708008698644
20
-1.38401885703192
30
1E-16
41
1
10
12.7223624085604
20
-1.51643591558547
30
1E-16
41
1
10
12.8996054276492
20
-1.57788638365713
30
1E-16
41
1
10
13.4279920609715
20
-1.74348462133406
30
0
41
1
10
13.7764306647439
20
-1.82863735337529
30
0
41
1
10
14.4740936454203
20
-1.94642702773399
30
0
41
1
10
14.8226572656639
20
-1.97766349516135
30
0
41
1
10
15.1915403277663
20
-1.98120642397348
30
0
41
1
10
15.2081079097564
20
-1.98129994003446
30
0
41
1
10
15.2246820199159
20
-1.9813281810317
30
0
0
SPLINE
5
109
100
AcDbEntity
8
1
62
256
6
ByLayer
370
18
48
1
60
0
100
AcDbSpline
70
4
71
3
72
8
73
4
40
0
40
0
40
0
40
0
40
1
40
1
40
1
40
1
41
1
10
26.0522360197769
20
1.97442825090292
30
0
41
1
10
26.19194637627
20
1.98366702161729
30
0
41
1
10
26.3316240373922
20
1.9883578630749
30
0
41
1
10
26.4714838581381
20
1.98856437205171
30
0
0
SPLINE
5
10A
100
AcDbEntity
8
1
62
256
6
ByLayer
370
18
48
1
60
0
100
AcDbSpline
70
4
71
3
72
24
73
20
40
0
40
0
40
0
40
0
40
0.0405833758668908
40
0.0405833758668908
40
0.1365250382802
40
0.1365250382802
40
0.232466700693509
40
0.232466700693509
40
0.424350025520128
40
0.424350025520128
40
0.520291687933439
40
0.520291687933439
40
0.616233350346752
40
0.616233350346752
40
0.808116675173376
40
0.808116675173376
40
0.904058337586688
40
0.904058337586688
40
1
40
1
40
1
40
1
41
1
10
31.7636115717846
20
0.188319022760709
30
0
41
1
10
31.837507530754
20
0.147369809175928
30
0
41
1
10
31.9115002341839
20
0.10624876464297
30
0
41
1
10
32.1608602491349
20
-0.0324540629396211
30
0
41
1
10
32.3375640495594
20
-0.13079323198707
30
0
41
1
10
32.689689269646
20
-0.325260514491589
30
0
41
1
10
32.8647776450158
20
-0.421210892013306
30
0
41
1
10
33.3884645791655
20
-0.702957952794037
30
0
41
1
10
33.7358397966567
20
-0.882277680423584
30
1E-16
41
1
10
34.2590001458805
20
-1.13020418021128
30
1E-16
41
1
10
34.4337506357284
20
-1.20932636993848
30
1E-16
41
1
10
34.7849055340557
20
-1.35902014693119
30
1E-16
41
1
10
34.9617543393783
20
-1.429740061432
30
1E-16
41
1
10
35.4893453472074
20
-1.62449563207039
30
1E-16
41
1
10
35.8389758167898
20
-1.7319777211442
30
1E-16
41
1
10
36.3658360522884
20
-1.85442857975528
30
0
41
1
10
36.5421295110567
20
-1.88881795128469
30
0
41
1
10
36.8948625084024
20
-1.94356889400146
30
0
41
1
10
37.0708214564568
20
-1.96367050079005
30
0
41
1
10
37.2469200818344
20
-1.97709866674674
30
0
0
SPLINE
5
10B
100
AcDbEntity
8
1
62
256
6
ByLayer
370
18
48
1
60
0
100
AcDbSpline
70
4
71
3
72
8
73
4
40
0
40
0
40
0
40
0
40
1
40
1
40
1
40
1
41
1
10
37.2444685865954
20
-1.98831993380622
30
0
41
1
10
37.243058483764
20
-1.99227395840995
30
0
41
1
10
37.2416509531751
20
-1.99622778825267
30
0
41
1
10
37.2402460188629
20
-2.00018143117939
30
0
0
SPLINE
5
10C
100
AcDbEntity
8
1
62
256
6
ByLayer
370
18
48
1
60
0
100
AcDbSpline
70
4
71
3
72
8
73
4
40
0
40
0
40
0
40
0
40
1
40
1
40
1
40
1
41
1
10
36.9629798633575
20
-0.116227203471539
30
0
41
1
10
36.9574516395215
20
-0.0165191002624567
30
0
41
1
10
36.9549459811722
20
0.0836482945606463
30
0
41
1
10
36.9568122065275
20
0.184348315963746
30
0
0
SPLINE
5
10D
100
AcDbEntity
8
1
62
256
6
ByLayer
370
18
48
1
60
0
100
AcDbSpline
70
4
71
3
72
28
73
24
40
0
40
0
40
0
40
0
40
0.501213152590794
40
0.501213152590794
40
0.675075707736154
40
0.675075707736154
40
0.789525339669571
40
0.789525339669571
40
0.864858732805007
40
0.864858732805007
40
0.914297556507896
40
0.914297556507896
40
0.94677633529108
40
0.94677633529108
40
0.968296655231913
40
0.968296655231913
40
0.982647576066777
40
0.982647576066777
40
0.992230803720093
40
0.992230803720093
40
0.998624871078527
40
0.998624871078527
40
1
40
1
40
1
40
1
41
1
10
37.1239281096684
20
2.09940562499651
30
0
41
1
10
37.1489623374711
20
2.08315755689247
30
0
41
1
10
37.1740782502838
20
2.06665978320231
30
0
41
1
10
37.2079017422135
20
2.04419709225596
30
0
41
1
10
37.216612446434
20
2.03839014129176
30
0
41
1
10
37.2310489032458
20
2.02872964459539
30
0
41
1
10
37.2367734005496
20
2.02488944323468
30
0
41
1
10
37.2462775411764
20
2.01849764415488
30
0
41
1
10
37.2500565881367
20
2.01595190489422
30
0
41
1
10
37.2563453937707
20
2.01170897787873
30
0
41
1
10
37.2588451521716
20
2.01002077137156
30
0
41
1
10
37.2630030897681
20
2.00721022480911
30
0
41
1
10
37.2646549747901
20
2.00609299648522
30
0
41
1
10
37.2673880215507
20
2.00424318810951
30
0
41
1
10
37.2684738191385
20
2.00350792718743
30
0
41
1
10
37.2702698796659
20
2.00229090619303
30
0
41
1
10
37.2709848148059
20
2.00180624701241
30
0
41
1
10
37.2721670952674
20
2.00100430858242
30
0
41
1
10
37.2726378382477
20
2.00068487940018
30
0
41
1
10
37.2734163284831
20
2.0001563670466
30
0
41
1
10
37.2737272047715
20
1.99994526328396
30
0
41
1
10
37.2740947068417
20
1.99969545970856
30
0
41
1
10
37.2741593384676
20
1.99965151772514
30
0
41
1
10
37.2742233936972
20
1.99960795378422
30
0
0
SPLINE
5
10E
100
AcDbEntity
8
1
62
256
6
ByLayer
370
18
48
1
60
0
100
AcDbSpline
70
4
71
2
72
6
73
3
40
0
40
0
40
0
40
1
40
1
40
1
41
1
10
20.8312933316248
20
0.0003453678004064
30
0
41
1
10
20.8313184177718
20
0.0003018259469627
30
0
41
1
10
20.8313435033529
20
0.0002567621415892
30
0
0
SPLINE
5
10F
100
AcDbEntity
8
1
62
256
6
ByLayer
370
18
48
1
60
0
100
AcDbSpline
70
4
71
2
72
6
73
3
40
0
40
0
40
0
40
1
40
1
40
1
41
1
10
14.2606054643399
20
0.001186559036114
30
0
41
1
10
14.2604816007759
20
0.0012477348752498
30
0
41
1
10
14.2603577385229
20
0.0013117676247987
30
0
0
SPLINE
5
110
100
AcDbEntity
8
1
62
256
6
ByLayer
370
18
48
1
60
0
100
AcDbSpline
70
4
71
2
72
6
73
3
40
0
40
0
40
0
40
1
40
1
40
1
41
1
10
20.8313435033529
20
-0.0002567621415608
30
0
41
1
10
20.8313184177718
20
-0.0003018259469627
30
0
41
1
10
20.8312933316249
20
-0.000345367800378
30
0
0
SPLINE
5
111
100
AcDbEntity
8
1
62
256
6
ByLayer
370
18
48
1
60
0
100
AcDbSpline
70
4
71
2
72
6
73
3
40
0
40
0
40
0
40
1
40
1
40
1
41
1
10
9.57610137019969
20
0.0032933796903194
30
0
41
1
10
9.57607999702535
20
0.0033321411353882
30
0
41
1
10
9.57605862418117
20
0.0033720025548689
30
0
0
SPLINE
5
112
100
AcDbEntity
8
1
62
256
6
ByLayer
370
18
48
1
60
0
100
AcDbSpline
70
4
71
3
72
10
73
6
40
0
40
0
40
0
40
0
40
0.0694345329608428
40
0.480048209074972
40
1
40
1
40
1
40
1
41
1
10
36.9567139461233
20
0.475922453270215
30
0
41
1
10
36.900727626396
20
0.49648284379893
30
0
41
1
10
36.5139887650374
20
0.639533477944354
30
0
41
1
10
35.7147017016546
20
0.955379749594016
30
-1E-16
41
1
10
34.9762944553004
20
1.26250934792685
30
-1E-16
41
1
10
34.5659692885245
20
1.44005822729702
30
-1E-16
0
SPLINE
5
113
100
AcDbEntity
8
1
62
256
6
ByLayer
370
18
48
1
60
0
100
AcDbSpline
70
4
71
1
72
4
73
2
40
0
40
0
40
1
40
1
41
1
10
37.2798622138578
20
1.99586456293795
30
0
41
1
10
37.2496731485454
20
2.01620905539946
30
0
0
SPLINE
5
114
100
AcDbEntity
8
1
62
256
6
ByLayer
370
18
48
1
60
0
100
AcDbSpline
70
4
71
1
72
4
73
2
40
0
40
0
40
1
40
1
41
1
10
37.2496731485454
20
-2.01620905539946
30
0
41
1
10
37.2798622138578
20
-1.99586456293795
30
0
0
SPLINE
5
115
100
AcDbEntity
8
1
62
256
6
ByLayer
370
18
48
1
60
0
100
AcDbSpline
70
4
71
3
72
23
73
19
40
0
40
0
40
0
40
0
40
3.59718219849E-05
40
0.000104922942414
40
0.0002280981730619
40
0.0003385071825376
40
0.0004465943414478
40
0.0017489525024213
40
0.0027884699684602
40
0.0046838509026793
40
0.0081978409647672
40
0.0148854129550807
40
0.0281643099840377
40
0.0568757403268373
40
0.174237006308495
40
0.369093906431403
40
0.654080024808941
40
1
40
1
40
1
40
1
41
1
10
27.0670745401643
20
-0.0134902573151692
30
0
41
1
10
27.0670795211917
20
-0.0134903688704355
30
0
41
1
10
27.0670878497869
20
-0.0134885689730595
30
0
41
1
10
27.0670574828377
20
-0.013468169120614
30
0
41
1
10
27.0668904425134
20
-0.0133990017714041
30
0
41
1
10
27.0665818532442
20
-0.0132831390531294
30
0
41
1
10
27.0648806384743
20
-0.0126726286544852
30
0
41
1
10
27.0617149411812
20
-0.0115891433825084
30
0
41
1
10
27.0565182099196
20
-0.0097923680943666
30
0
41
1
10
27.0485242222499
20
-0.0070312867331381
30
0
41
1
10
27.0335773498236
20
-0.0018712139878403
30
0
41
1
10
27.004514208578
20
0.0081536936758937
30
0
41
1
10
26.9442314585557
20
0.0289289444132521
30
0
41
1
10
26.7469587072418
20
0.0972544762193479
30
0
41
1
10
26.3257114831027
20
0.24580201899883
30
0
41
1
10
25.5911420085744
20
0.515135946550998
30
0
41
1
10
24.582530229616
20
0.906081787138334
30
-1E-16
41
1
10
23.8199091078415
20
1.22377659249978
30
-1E-16
41
1
10
23.4040909196846
20
1.40364210403666
30
-1E-16
0
SPLINE
5
116
100
AcDbEntity
8
1
62
256
6
ByLayer
370
18
48
1
60
0
100
AcDbSpline
70
4
71
3
72
21
73
17
40
0
40
0
40
0
40
0
40
7.18108273752E-05
40
0.0001454631816123
40
0.0002056932790451
40
0.000259142509144
40
0.0004405911383222
40
0.002164805776454
40
0.0036060522197525
40
0.0063708678089393
40
0.0119178342873874
40
0.0237679765536817
40
0.140668068474483
40
0.345823990359724
40
0.642043160124816
40
1
40
1
40
1
40
1
41
1
10
15.8234803543221
20
-0.0156158780790463
30
0
41
1
10
15.8234905186912
20
-0.015616138276016
30
0
41
1
10
15.8234915346989
20
-0.0156098782514675
30
0
41
1
10
15.8234429380306
20
-0.015583889584093
30
0
41
1
10
15.8233280309949
20
-0.0155366910960026
30
0
41
1
10
15.8230611209079
20
-0.0154351370773611
30
0
41
1
10
15.820842328931
20
-0.014624327940254
30
0
41
1
10
15.8166093534644
20
-0.013140962501808
30
0
41
1
10
15.8094677619832
20
-0.0106053880001014
30
0
41
1
10
15.7975539577433
20
-0.0064144813458427
30
0
41
1
10
15.7729676301934
20
0.0021882943878211
30
0
41
1
10
15.608396241932
20
0.059253527815855
30
0
41
1
10
15.1962067335695
20
0.202515572366082
30
0
41
1
10
14.4375085635129
20
0.478798468270696
30
0
41
1
10
13.3897329139349
20
0.882676336320372
30
-1E-16
41
1
10
12.6004022040061
20
1.21082829294147
30
-1E-16
41
1
10
12.1708246842755
20
1.39649645055548
30
-1E-16
0
SPLINE
5
117
100
AcDbEntity
8
1
62
256
6
ByLayer
370
18
48
1
60
0
100
AcDbSpline
70
4
71
3
72
16
73
12
40
0
40
0
40
0
40
0
40
0.174795807707757
40
0.303975663075827
40
0.421860807221901
40
0.5120711764326
40
0.589587844687599
40
0.658840985954919
40
0.755456781005217
40
0.869010944973494
40
1
40
1
40
1
40
1
41
1
10
4.27484076476387
20
-1.96716515568215
30
0
41
1
10
4.46743890942122
20
-1.97006924162088
30
0
41
1
10
4.80301257106484
20
-1.97390160128648
30
0
41
1
10
5.26709577276824
20
-1.97555460579386
30
0
41
1
10
5.64398066564172
20
-1.97607643141464
30
0
41
1
10
5.96251427450036
20
-1.97669413417819
30
0
41
1
10
6.22692828179061
20
-1.97673552547738
30
0
41
1
10
6.49846313747361
20
-1.97698146263028
30
0
41
1
10
6.81021132781629
20
-1.97750626188716
30
0
41
1
10
7.19083434740028
20
-1.97728489361543
30
0
41
1
10
7.46365660013774
20
-1.977795901788
30
0
41
1
10
7.60979311661757
20
-1.97805746832608
30
0
0
SPLINE
5
118
100
AcDbEntity
8
1
62
256
6
ByLayer
370
18
48
1
60
0
100
AcDbSpline
70
4
71
3
72
13
73
9
40
0
40
0
40
0
40
0
40
0.277966829031277
40
0.498873345946851
40
0.662474258399518
40
0.754539831985716
40
0.842833375544696
40
1
40
1
40
1
40
1
41
1
10
26.4567734782611
20
-1.98849250624607
30
0
41
1
10
26.8004711755443
20
-1.98870119964909
30
0
41
1
10
27.41731583475
20
-1.98887634368407
30
0
41
1
10
28.2364535284949
20
-1.99081724872372
30
0
41
1
10
28.8257333181186
20
-1.98921585924796
30
0
41
1
10
29.2510400938164
20
-1.99075375714327
30
0
41
1
10
29.6683783058332
20
-1.98977487337623
30
0
41
1
10
29.9718725935121
20
-1.99084561027615
30
0
41
1
10
30.1662002895479
20
-1.99128162170672
30
0
0
SPLINE
5
119
100
AcDbEntity
8
1
62
256
6
ByLayer
370
18
48
1
60
0
100
AcDbSpline
70
4
71
3
72
15
73
11
40
0
40
0
40
0
40
0
40
0.245556884831054
40
0.426510552342912
40
0.562038570700778
40
0.666099851121296
40
0.725972865215225
40
0.781484527930108
40
0.842527190759739
40
1
40
1
40
1
40
1
41
1
10
19.8879837580114
20
1.98533184302158
30
0
41
1
10
19.5911821424198
20
1.98529905096433
30
0
41
1
10
19.0756609234421
20
1.98516972728373
30
0
41
1
10
18.3963177409655
20
1.98381769430918
30
0
41
1
10
17.8880018019524
20
1.98404364581384
30
0
41
1
10
17.5260355626321
20
1.98305339420565
30
0
41
1
10
17.2607866807863
20
1.98325128965996
30
0
41
1
10
17.0475341086559
20
1.98325385205487
30
0
41
1
10
16.7163213524917
20
1.98232315514414
30
0
41
1
10
16.4522168291913
20
1.98235283794423
30
0
41
1
10
16.2618887952327
20
1.98230331306678
30
0
0
SPLINE
5
11A
100
AcDbEntity
8
1
62
256
6
ByLayer
370
18
48
1
60
0
100
AcDbSpline
70
4
71
3
72
14
73
10
40
0
40
0
40
0
40
0
40
0.212419947194911
40
0.369354392749451
40
0.514038291845457
40
0.67230465019948
40
0.787558455685525
40
0.8815418476364
40
1
40
1
40
1
40
1
41
1
10
15.2048428943139
20
-1.9812961040511
30
0
41
1
10
15.45612890635
20
-1.98166474411391
30
0
41
1
10
15.8930672645056
20
-1.98227314162722
30
0
41
1
10
16.5011748513703
20
-1.98208318866472
30
0
41
1
10
17.0452225232223
20
-1.98350253686149
30
0
41
1
10
17.5399623243959
20
-1.98279123001322
30
0
41
1
10
17.9747217839282
20
-1.98435893615303
30
0
41
1
10
18.3623800103297
20
-1.98384541935724
30
0
41
1
10
18.6136878687499
20
-1.98421281932409
30
0
41
1
10
18.7538175351169
20
-1.98443568048776
30
0
0
SPLINE
5
11B
100
AcDbEntity
8
1
62
256
6
ByLayer
370
18
48
1
60
0
100
AcDbSpline
70
4
71
3
72
13
73
9
40
0
40
0
40
0
40
0
40
0.270934445106028
40
0.473368886175737
40
0.656869491590173
40
0.757872136104073
40
0.847490235471802
40
1
40
1
40
1
40
1
41
1
10
31.1368760454247
20
1.99166938991021
30
0
41
1
10
30.8029666590372
20
1.99143660042961
30
0
41
1
10
30.2195715291987
20
1.99094883686556
30
0
41
1
10
29.4100376016789
20
1.9906771274037
30
0
41
1
10
28.8099195506286
20
1.98950672011307
30
0
41
1
10
28.3488373939886
20
1.99050775692086
30
0
41
1
10
27.9259655408298
20
1.9892562460241
30
0
41
1
10
27.627576504896
20
1.98931484818951
30
0
41
1
10
27.4396296993002
20
1.98928204505253
30
0
0
SPLINE
5
11C
100
AcDbEntity
8
1
62
256
6
ByLayer
370
18
48
1
60
0
100
AcDbSpline
70
4
71
3
72
8
73
4
40
0
40
0
40
0
40
0
40
1
40
1
40
1
40
1
41
1
10
27.0852711747334
20
1.98910817414
30
0
41
1
10
26.8757712509338
20
1.98894680525009
30
0
41
1
10
26.6662717786488
20
1.98870290146985
30
0
41
1
10
26.4567734782611
20
1.98849250624607
30
0
0
SPLINE
5
11D
100
AcDbEntity
8
1
62
256
6
ByLayer
370
18
48
1
60
0
100
AcDbSpline
70
4
71
3
72
14
73
10
40
0
40
0
40
0
40
0
40
0.204775400548465
40
0.333577647538491
40
0.466225340841178
40
0.607161537198431
40
0.755044606812089
40
0.944208363097025
40
1
40
1
40
1
40
1
41
1
10
8.6347234983435
20
1.97891497894679
30
0
41
1
10
8.38919589791422
20
1.9789531094662
30
0
41
1
10
7.98922990889054
20
1.97885640988747
30
0
41
1
10
7.43023055173012
20
1.97740977721588
30
0
41
1
10
6.94773138010675
20
1.97758077334012
30
0
41
1
10
6.44248793065407
20
1.97684153846203
30
0
41
1
10
5.86892287384757
20
1.97672970891065
30
0
41
1
10
5.3995275427238
20
1.97560959338898
30
0
41
1
10
5.10743603651275
20
1.97404610407742
30
0
41
1
10
5.04094069753114
20
1.97364637055233
30
0
0
SPLINE
5
11E
100
AcDbEntity
8
1
62
256
6
ByLayer
370
18
48
1
60
0
100
AcDbSpline
70
4
71
2
72
6
73
3
40
0
40
0
40
0
40
1
40
1
40
1
41
1
10
36.4378705733167
20
0.182005993228813
30
0
41
1
10
36.4377033344537
20
0.186577651506553
30
0
41
1
10
36.437536094307
20
0.191151679159276
30
0
0
LINE
5
84
100
AcDbEntity
8
SK1
62
256
6
ByLayer
370
18
48
1
60
0
100
AcDbLine
10
-36
20
0.844718
30
0
11
-36
21
2.032019
31
0
39
0
210
0
220
0
230
1
0
LINE
5
86
100
AcDbEntity
8
SK1
62
256
6
ByLayer
370
18
48
1
60
0
100
AcDbLine
10
-35.75
20
1.262295
30
0
11
-35.75
21
2.186897
31
0
39
0
210
0
220
0
230
1
0
LINE
5
87
100
AcDbEntity
8
SK1
62
256
6
ByLayer
370
18
48
1
60
0
100
AcDbLine
10
-35.850962
20
1.177997
30
0
11
-35.850962
21
2.102637
31
0
39
0
210
0
220
0
230
1
0
LINE
5
88
100
AcDbEntity
8
SK1
62
256
6
ByLayer
370
18
48
1
60
0
100
AcDbLine
10
-36
20
-2.065
30
0
11
-36
21
0.844759
31
0
39
0
210
0
220
0
230
1
0
LINE
5
89
100
AcDbEntity
8
SK1
62
256
6
ByLayer
370
18
48
1
60
0
100
AcDbLine
10
-35.065
20
-3
30
0
11
-35.065
21
3
31
0
39
0
210
0
220
0
230
1
0
LINE
5
8A
100
AcDbEntity
8
SK1
62
256
6
ByLayer
370
18
48
1
60
0
100
AcDbLine
10
-35.65
20
1.43083
30
0
11
-35.65
21
2.232143
31
0
39
0
210
0
220
0
230
1
0
LINE
5
8B
100
AcDbEntity
8
SK1
62
256
6
ByLayer
370
18
48
1
60
0
100
AcDbLine
10
0
20
3
30
0
11
0
21
-3
31
0
39
0
210
0
220
0
230
1
0
LINE
5
8C
100
AcDbEntity
8
SK1
62
256
6
ByLayer
370
18
48
1
60
0
100
AcDbLine
10
-36
20
2.032019
30
0
11
-36
21
2.065
31
0
39
0
210
0
220
0
230
1
0
LINE
5
8D
100
AcDbEntity
8
1
62
256
6
ByLayer
370
18
48
1
60
0
100
AcDbLine
10
37.962264
20
0.032597
30
0
11
37.463451
21
0.583199
31
0
39
0
210
0
220
0
230
1
0
LINE
5
8E
100
AcDbEntity
8
1
62
256
6
ByLayer
370
18
48
1
60
0
100
AcDbLine
10
0
20
3
30
0
11
0
21
0
31
0
39
0
210
0
220
0
230
1
0
LINE
5
8F
100
AcDbEntity
8
1
62
256
6
ByLayer
370
18
48
1
60
0
100
AcDbLine
10
0
20
0
30
0
11
0
21
-3
31
0
39
0
210
0
220
0
230
1
0
LINE
5
90
100
AcDbEntity
8
1
62
256
6
ByLayer
370
18
48
1
60
0
100
AcDbLine
10
3.502044
20
-2.05411
30
0
11
3.502044
21
-0.45305
31
0
39
0
210
0
220
0
230
1
0
LINE
5
91
100
AcDbEntity
8
1
62
256
6
ByLayer
370
18
48
1
60
0
100
AcDbLine
10
17
20
1.671936
30
0
11
17
21
1.649267
31
0
39
0
210
0
220
0
230
1
0
LINE
5
92
100
AcDbEntity
8
1
62
256
6
ByLayer
370
18
48
1
60
0
100
AcDbLine
10
1.449919
20
2.077633
30
0
11
1.449919
21
0
31
0
39
0
210
0
220
0
230
1
0
LINE
5
93
100
AcDbEntity
8
1
62
256
6
ByLayer
370
18
48
1
60
0
100
AcDbLine
10
1.449919
20
0
30
0
11
1.449919
21
-2.077633
31
0
39
0
210
0
220
0
230
1
0
LINE
5
94
100
AcDbEntity
8
1
62
256
6
ByLayer
370
18
48
1
60
0
100
AcDbLine
10
0.724709
20
2.538816
30
0
11
0.724709
21
0
31
0
39
0
210
0
220
0
230
1
0
LINE
5
95
100
AcDbEntity
8
1
62
256
6
ByLayer
370
18
48
1
60
0
100
AcDbLine
10
0.724709
20
0
30
0
11
0.724709
21
-2.538816
31
0
39
0
210
0
220
0
230
1
0
LINE
5
96
100
AcDbEntity
8
1
62
256
6
ByLayer
370
18
48
1
60
0
100
AcDbLine
10
1.449919
20
-2.077633
30
0
11
3.956631
21
-2.079199
31
0
39
0
210
0
220
0
230
1
0
LINE
5
97
100
AcDbEntity
8
1
62
256
6
ByLayer
370
18
48
1
60
0
100
AcDbLine
10
8.637481
20
-2.082125
30
0
11
9.172455
21
-2.082459
31
0
39
0
210
0
220
0
230
1
0
LINE
5
98
100
AcDbEntity
8
1
62
256
6
ByLayer
370
18
48
1
60
0
100
AcDbLine
10
14.637309
20
-2.085875
30
0
11
15.205614
21
-2.08623
31
0
39
0
210
0
220
0
230
1
0
LINE
5
99
100
AcDbEntity
8
1
62
256
6
ByLayer
370
18
48
1
60
0
100
AcDbLine
10
19.888159
20
-2.089157
30
0
11
20.413439
21
-2.089485
31
0
39
0
210
0
220
0
230
1
0
LINE
5
9A
100
AcDbEntity
8
1
62
256
6
ByLayer
370
18
48
1
60
0
100
AcDbLine
10
25.951314
20
-2.092946
30
0
11
26.457296
21
-2.093262
31
0
39
0
210
0
220
0
230
1
0
LINE
5
9B
100
AcDbEntity
8
1
62
256
6
ByLayer
370
18
48
1
60
0
100
AcDbLine
10
31.136665
20
-2.096187
30
0
11
31.65166
21
-2.096509
31
0
39
0
210
0
220
0
230
1
0
LINE
5
9C
100
AcDbEntity
8
1
62
256
6
ByLayer
370
18
48
1
60
0
100
AcDbLine
10
31.65166
20
2.096509
30
0
11
31.136665
21
2.096187
31
0
39
0
210
0
220
0
230
1
0
LINE
5
9D
100
AcDbEntity
8
1
62
256
6
ByLayer
370
18
48
1
60
0
100
AcDbLine
10
26.457296
20
2.093262
30
0
11
25.951314
21
2.092946
31
0
39
0
210
0
220
0
230
1
0
LINE
5
9E
100
AcDbEntity
8
1
62
256
6
ByLayer
370
18
48
1
60
0
100
AcDbLine
10
20.413439
20
2.089485
30
0
11
19.888159
21
2.089157
31
0
39
0
210
0
220
0
230
1
0
LINE
5
9F
100
AcDbEntity
8
1
62
256
6
ByLayer
370
18
48
1
60
0
100
AcDbLine
10
15.205614
20
2.08623
30
0
11
14.637309
21
2.085875
31
0
39
0
210
0
220
0
230
1
0
LINE
5
A0
100
AcDbEntity
8
1
62
256
6
ByLayer
370
18
48
1
60
0
100
AcDbLine
10
9.172455
20
2.082459
30
0
11
8.637481
21
2.082125
31
0
39
0
210
0
220
0
230
1
0
LINE
5
A1
100
AcDbEntity
8
1
62
256
6
ByLayer
370
18
48
1
60
0
100
AcDbLine
10
3.956631
20
2.079199
30
0
11
1.449919
21
2.077633
31
0
39
0
210
0
220
0
230
1
0
LINE
5
A2
100
AcDbEntity
8
SK1
62
256
6
ByLayer
370
18
48
1
60
0
100
AcDbLine
10
-36
20
-2.065
30
0
11
-35.065
21
-3
31
0
39
0
210
0
220
0
230
1
0
LINE
5
A3
100
AcDbEntity
8
SK1
62
256
6
ByLayer
370
18
48
1
60
0
100
AcDbLine
10
-35.065
20
3
30
0
11
-36
21
2.065
31
0
39
0
210
0
220
0
230
1
0
LINE
5
A4
100
AcDbEntity
8
SK1
62
256
6
ByLayer
370
18
48
1
60
0
100
AcDbLine
10
-35.065
20
-3
30
0
11
0
21
-3
31
0
39
0
210
0
220
0
230
1
0
LINE
5
A5
100
AcDbEntity
8
SK1
62
256
6
ByLayer
370
18
48
1
60
0
100
AcDbLine
10
0
20
3
30
0
11
-35.065
21
3
31
0
39
0
210
0
220
0
230
1
0
LINE
5
A6
100
AcDbEntity
8
SK4
62
256
6
ByLayer
370
18
48
0.05
60
0
100
AcDbLine
10
43
20
0
30
0
11
-41
21
0
31
0
39
0
210
0
220
0
230
1
0
LINE
5
A8
100
AcDbEntity
8
4
62
256
6
ByLayer
370
18
48
0.05
60
0
100
AcDbLine
10
-36
20
0
30
0
11
43
21
0
31
0
39
0
210
0
220
0
230
1
0
LINE
5
AA
100
AcDbEntity
8
80
62
256
6
ByLayer
370
18
48
1
60
0
100
AcDbLine
10
0
20
0
30
0
11
-6
21
0
31
0
39
0
210
0
220
0
230
1
0
LINE
5
AB
100
AcDbEntity
8
81
62
256
6
ByLayer
370
18
48
1
60
0
100
AcDbLine
10
38
20
0
30
0
11
44
21
0
31
0
39
0
210
0
220
0
230
1
0
LINE
5
AC
100
AcDbEntity
8
SK2
62
256
6
ByLayer
370
13
48
1
60
0
100
AcDbLine
10
38.542933
20
1.491771
30
0
11
45.925974
21
21.777501
31
0
39
0
210
0
220
0
230
1
0
LINE
5
AE
100
AcDbEntity
8
SK2
62
256
6
ByLayer
370
13
48
1
60
0
100
AcDbLine
10
38.542933
20
-1.491771
30
0
11
45.925974
21
-21.777501
31
0
39
0
210
0
220
0
230
1
0
LINE
5
AF
100
AcDbEntity
8
1
62
256
6
ByLayer
370
13
48
1
60
0
100
AcDbLine
10
44.840107
20
18.79396
30
0
11
47.93671
21
17.977637
31
0
39
0
210
0
220
0
230
1
0
LINE
5
B0
100
AcDbEntity
8
1
62
256
6
ByLayer
370
13
48
1
60
0
100
AcDbLine
10
44.840107
20
18.79396
30
0
11
47.619919
21
17.203991
31
0
39
0
210
0
220
0
230
1
0
LINE
5
B1
100
AcDbEntity
8
1
62
256
6
ByLayer
370
13
48
1
60
0
100
AcDbLine
10
47.93671
20
17.977637
30
0
11
47.619919
21
17.203991
31
0
39
0
210
0
220
0
230
1
0
LINE
5
B2
100
AcDbEntity
8
1
62
256
6
ByLayer
370
13
48
1
60
0
100
AcDbLine
10
44.840107
20
-18.79396
30
0
11
47.619916
21
-17.203992
31
0
39
0
210
0
220
0
230
1
0
LINE
5
B3
100
AcDbEntity
8
1
62
256
6
ByLayer
370
13
48
1
60
0
100
AcDbLine
10
44.840107
20
-18.79396
30
0
11
47.936713
21
-17.977636
31
0
39
0
210
0
220
0
230
1
0
LINE
5
B4
100
AcDbEntity
8
1
62
256
6
ByLayer
370
13
48
1
60
0
100
AcDbLine
10
47.619916
20
-17.203992
30
0
11
47.936713
21
-17.977636
31
0
39
0
210
0
220
0
230
1
0
MTEXT
5
11F
100
AcDbEntity
8
SK2
62
256
6
ByLayer
370
18
48
1
60
0
100
AcDbMText
10
51.717388
20
-2.467451
30
0
210
0
220
0
230
1
1
\W0.7237;140.00
40
3.50012
41
0
44
1.084337
50
0
71
7
72
5
7
iso_b_vert
0
MTEXT
5
122
100
AcDbEntity
8
SK6
62
256
6
ByLayer
370
18
48
1
60
0
100
AcDbMText
10
-38.331725
20
-80.42274
30
0
210
0
220
0
230
1
1
\W0.7388;860.1-0420-021A1-GM X1BM
40
3.175
41
0
44
1.084337
50
0
71
7
72
5
7
iso_b_vert
0
DIMENSION
5
125
100
AcDbEntity
8
SK2
62
256
6
ByLayer
370
18
48
1
60
0
100
AcDbDimension
2
_U0
10
38
20
-26.50012
30
0
11
19
21
-26.50012
31
0
70
32
71
2
72
1
41
1
210
0
220
0
230
1
3
Standard
100
AcDbAlignedDimension
13
0
23
-3
33
0
14
38
24
0
34
0
50
0
100
AcDbRotatedDimension
1001
ACAD
1000
DSTYLE
1002
{
1070
   371
1070
    13
1070
   372
1070
    13
1070
     3
1000

1070
   170
1070
     0
1070
   144
1040
1.0
1070
   277
1070
     2
1070
   284
1070
     8
1070
   278
1070
    46
1070
   146
1040
0.999966
1070
   345
1005
16
1070
   347
1005
16
1070
   346
1005
16
1070
   344
1005
126
1070
   343
1005
126
1070
   172
1070
     1
1070
    76
1070
     0
1070
    75
1070
     0
1070
   282
1070
     0
1070
   281
1070
     0
1070
    71
1070
     0
1070
    74
1070
     0
1070
   279
1070
     0
1070
   173
1070
     1
1070
   340
1005
120
1070
   271
1070
     1
1070
   272
1070
     2
1070
    77
1070
     1
1070
    73
1070
     1
1070
   171
1070
     3
1070
   274
1070
     4
1070
   177
1070
   150
1070
   176
1070
     9
1070
   178
1070
    43
1070
    78
1070
     8
1070
    48
1040
-0.1
1070
    41
1040
3.175
1070
   147
1040
1.75006
1070
    42
1040
1.5875
1070
    44
1040
3.175
1070
   140
1040
3.50012
1002
}
1001
ACAD_DSTYLE_DIM_LINETYPE
1070
   380
1005
16
1001
ACAD_DSTYLE_DIM_EXT1_LINETYPE
1070
   381
1005
16
1001
ACAD_DSTYLE_DIM_EXT2_LINETYPE
1070
   382
1005
16
0
DIMENSION
5
14B
100
AcDbEntity
8
2
62
256
6
ByLayer
370
18
48
1
60
0
100
AcDbDimension
2
_U1
10
44.75006
20
2.1
30
0
11
44.75006
21
17.673233
31
0
70
32
71
1
72
1
41
1
210
0
220
0
230
1
3
Standard
100
AcDbAlignedDimension
13
37.2357
23
-2.1
33
0
14
37.2357
24
2.1
34
0
50
90
100
AcDbRotatedDimension
1001
ACAD
1000
DSTYLE
1002
{
1070
   371
1070
    13
1070
   372
1070
    13
1070
     3
1000

1070
   170
1070
     0
1070
   144
1040
1.0
1070
   277
1070
     2
1070
   284
1070
     8
1070
   278
1070
    46
1070
   146
1040
0.999966
1070
   345
1005
16
1070
   347
1005
16
1070
   346
1005
16
1070
   344
1005
126
1070
   343
1005
126
1070
   172
1070
     1
1070
    76
1070
     0
1070
    75
1070
     0
1070
   282
1070
     0
1070
   281
1070
     0
1070
    71
1070
     0
1070
    74
1070
     0
1070
   279
1070
     0
1070
   173
1070
     1
1070
   340
1005
120
1070
   271
1070
     1
1070
   272
1070
     2
1070
    77
1070
     1
1070
    73
1070
     0
1070
   171
1070
     3
1070
   274
1070
     4
1070
   177
1070
   150
1070
   176
1070
     9
1070
   178
1070
    43
1070
    78
1070
     8
1070
    48
1040
-0.1
1070
    41
1040
3.175
1070
   147
1040
1.75006
1070
    42
1040
1.5875
1070
    44
1040
3.175
1070
   140
1040
3.50012
1002
}
1001
ACAD_DSTYLE_DIM_LINETYPE
1070
   380
1005
16
1001
ACAD_DSTYLE_DIM_EXT1_LINETYPE
1070
   381
1005
16
1001
ACAD_DSTYLE_DIM_EXT2_LINETYPE
1070
   382
1005
16
0
DIMENSION
5
16A
100
AcDbEntity
8
SK2
62
256
6
ByLayer
370
18
48
1
60
0
100
AcDbDimension
2
_U2
10
-39.24994
20
-3
30
0
11
-39.24994
21
17.10734
31
0
70
32
71
1
72
1
41
1
210
0
220
0
230
1
3
Standard
100
AcDbAlignedDimension
13
-36
23
3
33
0
14
-36
24
-3
34
0
50
90
100
AcDbRotatedDimension
1001
ACAD
1000
DSTYLE
1002
{
1070
   371
1070
    13
1070
   372
1070
    13
1070
     3
1000

1070
   170
1070
     0
1070
   144
1040
1.0
1070
   277
1070
     2
1070
   284
1070
     8
1070
   278
1070
    46
1070
   146
1040
0.999966
1070
   345
1005
16
1070
   347
1005
16
1070
   346
1005
16
1070
   344
1005
126
1070
   343
1005
126
1070
   172
1070
     1
1070
    76
1070
     0
1070
    75
1070
     0
1070
   282
1070
     0
1070
   281
1070
     0
1070
    71
1070
     0
1070
    74
1070
     0
1070
   279
1070
     0
1070
   173
1070
     1
1070
   340
1005
120
1070
   271
1070
     1
1070
   272
1070
     2
1070
    77
1070
     1
1070
    73
1070
     0
1070
   171
1070
     3
1070
   274
1070
     4
1070
   177
1070
   150
1070
   176
1070
     9
1070
   178
1070
    43
1070
    78
1070
     8
1070
    48
1040
-0.1
1070
    41
1040
3.175
1070
   147
1040
1.75006
1070
    42
1040
1.5875
1070
    44
1040
3.175
1070
   140
1040
3.50012
1002
}
1001
ACAD_DSTYLE_DIM_LINETYPE
1070
   380
1005
16
1001
ACAD_DSTYLE_DIM_EXT1_LINETYPE
1070
   381
1005
16
1001
ACAD_DSTYLE_DIM_EXT2_LINETYPE
1070
   382
1005
16
0
DIMENSION
5
188
100
AcDbEntity
8
SK2
62
256
6
ByLayer
370
18
48
1
60
0
100
AcDbDimension
2
_U3
10
0
20
-26.50012
30
0
11
-18
21
-26.50012
31
0
70
32
71
1
72
1
41
1
210
0
220
0
230
1
3
Standard
100
AcDbAlignedDimension
13
-36
23
-3
33
0
14
0
24
-3
34
0
50
0
100
AcDbRotatedDimension
1001
ACAD
1000
DSTYLE
1002
{
1070
   371
1070
    13
1070
   372
1070
    13
1070
     3
1000

1070
   170
1070
     0
1070
   144
1040
1.0
1070
   277
1070
     2
1070
   284
1070
     8
1070
   278
1070
    46
1070
   146
1040
0.999966
1070
   345
1005
16
1070
   347
1005
16
1070
   346
1005
16
1070
   344
1005
126
1070
   343
1005
126
1070
   172
1070
     1
1070
    76
1070
     0
1070
    75
1070
     0
1070
   282
1070
     0
1070
   281
1070
     0
1070
    71
1070
     0
1070
    74
1070
     0
1070
   279
1070
     0
1070
   173
1070
     1
1070
   340
1005
120
1070
   271
1070
     1
1070
   272
1070
     2
1070
    77
1070
     1
1070
    73
1070
     1
1070
   171
1070
     3
1070
   274
1070
     4
1070
   177
1070
   150
1070
   176
1070
     9
1070
   178
1070
    43
1070
    78
1070
     8
1070
    48
1040
-0.1
1070
    41
1040
3.175
1070
   147
1040
1.75006
1070
    42
1040
1.5875
1070
    44
1040
3.175
1070
   140
1040
3.50012
1002
}
1001
ACAD_DSTYLE_DIM_LINETYPE
1070
   380
1005
16
1001
ACAD_DSTYLE_DIM_EXT1_LINETYPE
1070
   381
1005
16
1001
ACAD_DSTYLE_DIM_EXT2_LINETYPE
1070
   382
1005
16
0
DIMENSION
5
1A4
100
AcDbEntity
8
SK2
62
256
6
ByLayer
370
18
48
1
60
0
100
AcDbDimension
2
_U4
10
38
20
-17.74982
30
0
11
20
21
-17.74982
31
0
70
32
71
1
72
1
41
1
210
0
220
0
230
1
3
Standard
100
AcDbAlignedDimension
13
2
23
2.6
33
0
14
38
24
0
34
0
50
0
100
AcDbRotatedDimension
1001
ACAD
1000
DSTYLE
1002
{
1070
   371
1070
    13
1070
   372
1070
    13
1070
     3
1000

1070
   170
1070
     0
1070
   144
1040
1.0
1070
   277
1070
     2
1070
   284
1070
     8
1070
   278
1070
    46
1070
   146
1040
0.999966
1070
   345
1005
16
1070
   347
1005
16
1070
   346
1005
16
1070
   344
1005
126
1070
   343
1005
126
1070
   172
1070
     1
1070
    76
1070
     0
1070
    75
1070
     0
1070
   282
1070
     0
1070
   281
1070
     0
1070
    71
1070
     0
1070
    74
1070
     0
1070
   279
1070
     0
1070
   173
1070
     1
1070
   340
1005
120
1070
   271
1070
     1
1070
   272
1070
     2
1070
    77
1070
     1
1070
    73
1070
     1
1070
   171
1070
     3
1070
   274
1070
     4
1070
   177
1070
   150
1070
   176
1070
     9
1070
   178
1070
    43
1070
    78
1070
     8
1070
    48
1040
-0.1
1070
    41
1040
3.175
1070
   147
1040
1.75006
1070
    42
1040
1.5875
1070
    44
1040
3.175
1070
   140
1040
3.50012
1002
}
1001
ACAD_DSTYLE_DIM_LINETYPE
1070
   380
1005
16
1001
ACAD_DSTYLE_DIM_EXT1_LINETYPE
1070
   381
1005
16
1001
ACAD_DSTYLE_DIM_EXT2_LINETYPE
1070
   382
1005
16
0
DIMENSION
5
1C0
100
AcDbEntity
8
SK2
62
256
6
ByLayer
370
18
48
1
60
0
100
AcDbDimension
2
_U5
10
38
20
-9.82
30
0
11
27.15
21
-9.82
31
0
70
32
71
1
72
1
41
1
210
0
220
0
230
1
3
Standard
100
AcDbAlignedDimension
13
16.3
23
-2.1
33
0
14
38
24
0
34
0
50
0
100
AcDbRotatedDimension
1001
ACAD
1000
DSTYLE
1002
{
1070
   371
1070
    13
1070
   372
1070
    13
1070
     3
1000

1070
   170
1070
     0
1070
   144
1040
1.0
1070
   277
1070
     2
1070
   284
1070
     8
1070
   278
1070
    46
1070
   146
1040
1.25
1070
   345
1005
16
1070
   347
1005
16
1070
   346
1005
16
1070
   344
1005
126
1070
   343
1005
126
1070
   172
1070
     1
1070
    76
1070
     0
1070
    75
1070
     0
1070
   282
1070
     0
1070
   281
1070
     0
1070
    71
1070
     0
1070
    74
1070
     0
1070
   279
1070
     0
1070
   173
1070
     1
1070
   340
1005
120
1070
   271
1070
     1
1070
   272
1070
     2
1070
    77
1070
     1
1070
    73
1070
     1
1070
   171
1070
     3
1070
   274
1070
     4
1070
   177
1070
   150
1070
   176
1070
     9
1070
   178
1070
    43
1070
    78
1070
     8
1070
    48
1040
-0.1
1070
    41
1040
3.175
1070
   147
1040
0.42
1070
    42
1040
1.5875
1070
    44
1040
0.5
1070
   140
1040
2.8
1002
}
1001
ACAD_DSTYLE_DIM_LINETYPE
1070
   380
1005
16
1001
ACAD_DSTYLE_DIM_EXT1_LINETYPE
1070
   381
1005
16
1001
ACAD_DSTYLE_DIM_EXT2_LINETYPE
1070
   382
1005
16
0
DIMENSION
5
1DC
100
AcDbEntity
8
SK2
62
256
6
ByLayer
370
18
48
1
60
0
100
AcDbDimension
2
_U6
10
38
20
-36.50012
30
0
11
1
21
-36.50012
31
0
70
32
71
1
72
1
41
1
210
0
220
0
230
1
3
Standard
100
AcDbAlignedDimension
13
-36
23
0
33
0
14
38
24
0
34
0
50
0
100
AcDbRotatedDimension
1001
ACAD
1000
DSTYLE
1002
{
1070
   371
1070
    13
1070
   372
1070
    13
1070
     3
1000

1070
   170
1070
     0
1070
   144
1040
1.0
1070
   277
1070
     2
1070
   284
1070
     8
1070
   278
1070
    46
1070
   146
1040
0.999966
1070
   345
1005
16
1070
   347
1005
16
1070
   346
1005
16
1070
   344
1005
126
1070
   343
1005
126
1070
   172
1070
     1
1070
    76
1070
     0
1070
    75
1070
     0
1070
   282
1070
     0
1070
   281
1070
     0
1070
    71
1070
     0
1070
    74
1070
     0
1070
   279
1070
     0
1070
   173
1070
     1
1070
   340
1005
120
1070
   271
1070
     1
1070
   272
1070
     2
1070
    77
1070
     1
1070
    73
1070
     1
1070
   171
1070
     3
1070
   274
1070
     4
1070
   177
1070
   150
1070
   176
1070
     9
1070
   178
1070
    43
1070
    78
1070
     8
1070
    48
1040
-0.1
1070
    41
1040
3.175
1070
   147
1040
1.75006
1070
    42
1040
1.5875
1070
    44
1040
3.175
1070
   140
1040
3.50012
1002
}
1001
ACAD_DSTYLE_DIM_LINETYPE
1070
   380
1005
16
1001
ACAD_DSTYLE_DIM_EXT1_LINETYPE
1070
   381
1005
16
1001
ACAD_DSTYLE_DIM_EXT2_LINETYPE
1070
   382
1005
16
0
ENDSEC
0
SECTION
2
OBJECTS
0
DICTIONARY
5
268
330
0
100
AcDbDictionary
280
0
281
1
3
ACAD_GROUP
350
269
3
ACAD_MLINESTYLE
350
26a
0
DICTIONARY
5
269
330
0
100
AcDbDictionary
280
0
281
1
0
DICTIONARY
5
26a
330
0
100
AcDbDictionary
280
0
281
1
3
Standard
350
18
0
MLINESTYLE
5
18
330
26a
100
AcDbMlineStyle
2
Standard
70
0
3

62
256
51
90
52
90
71
2
49
-0.5
62
256
6
ByLayer
49
0.5
62
256
6
ByLayer
0
RASTERVARIABLES
5
256
330

100
AcDbRasterVariables
90
0
70
1
71
1
72
1
0
ENDSEC
0
EOF
