0
SECTION
2
HEADER
9
$ACADVER
1
AC1015
9
$DWGCODEPAGE
3
ANSI_1252
9
$HANDSEED
5
260
9
$ANGBASE
50
0
9
$ANGDIR
70
0
9
$ATTMODE
70
1
9
$AUNITS
70
0
9
$AUPREC
70
0
9
$CECOLOR
62
256
9
$CELTSCALE
40
1
9
$CELTYPE
6
ByLayer
9
$CELWEIGHT
370
18
9
$CLAYER
8
0
9
$CMLJUST
70
0
9
$CMLSCALE
40
1
9
$CMLSTYLE
2
Standard
9
$DIMSTYLE
2
Standard
9
$TEXTSIZE
40
0.2
9
$TEXTSTYLE
7
Standard
9
$LUNITS
70
2
9
$LUPREC
70
4
9
$EXTNAMES
290
1
9
$INSUNITS
70
4
9
$LTSCALE
40
1
9
$LWDISPLAY
290
1
9
$PDMODE
70
0
9
$PDSIZE
40
0
9
$PLINEGEN
70
0
0
ENDSEC
0
SECTION
2
CLASSES
0
CLASS
1
RASTERVARIABLES
2
AcDbRasterVariables
3
ISM
90
0
280
0
281
0
0
ENDSEC
0
SECTION
2
TABLES
0
TABLE
2
VPORT
5
256
100
AcDbSymbolTable
0
VPORT
5
1
100
AcDbSymbolTableRecord
100
AcDbViewportTableRecord
2
*Active
70
0
10
0
20
0
11
1
21
1
12
-1
22
1
13
0
23
0
14
0.5
24
0.5
15
10
25
10
16
0
26
0
36
1
17
0
27
0
37
0
0
ENDTAB
0
TABLE
2
LTYPE
5
257
100
AcDbSymbolTable
0
LTYPE
5
14
100
AcDbSymbolTableRecord
100
AcDbLinetypeTableRecord
70
0
2
ByBlock
3

72
65
73
0
40
0
0
LTYPE
5
15
100
AcDbSymbolTableRecord
100
AcDbLinetypeTableRecord
70
0
2
ByLayer
3

72
65
73
0
40
0
0
LTYPE
5
16
100
AcDbSymbolTableRecord
100
AcDbLinetypeTableRecord
70
0
2
Continuous
3
Solid line
72
65
73
0
40
0
0
LTYPE
5
6E
100
AcDbSymbolTableRecord
100
AcDbLinetypeTableRecord
70
0
2
CENTER
3
____ _ ____ _ ____ _ ____
72
65
73
4
40
47.5
49
22
74
0
49
-8.5
74
0
49
8.5
74
0
49
-8.5
74
0
0
LTYPE
5
6F
100
AcDbSymbolTableRecord
100
AcDbLinetypeTableRecord
70
0
2
DASHED
3
__ __ __ __ __ __ __ __ __
72
65
73
2
40
25.72
49
12.86
74
0
49
-12.86
74
0
0
ENDTAB
0
TABLE
2
LAYER
5
258
100
AcDbSymbolTable
0
LAYER
5
10
100
AcDbSymbolTableRecord
100
AcDbLayerTableRecord
2
0
70
0
62
7
6
Continuous
290
1
370
-3
390
0
0
LAYER
5
71
100
AcDbSymbolTableRecord
100
AcDbLayerTableRecord
2
80
70
0
62
-6
6
Continuous
290
1
370
-3
390
0
0
LAYER
5
73
100
AcDbSymbolTableRecord
100
AcDbLayerTableRecord
2
81
70
0
62
-3
6
Continuous
290
1
370
-3
390
0
0
LAYER
5
75
100
AcDbSymbolTableRecord
100
AcDbLayerTableRecord
2
1
70
0
62
4
6
Continuous
290
1
370
-3
390
0
0
LAYER
5
A1
100
AcDbSymbolTableRecord
100
AcDbLayerTableRecord
2
4
70
0
62
-2
6
CENTER
290
1
370
-3
390
0
0
LAYER
5
119
100
AcDbSymbolTableRecord
100
AcDbLayerTableRecord
2
Defpoints
70
0
62
7
6
Continuous
290
0
370
-3
390
0
0
LAYER
5
146
100
AcDbSymbolTableRecord
100
AcDbLayerTableRecord
2
2
70
0
62
7
6
Continuous
290
1
370
-3
390
0
0
LAYER
5
242
100
AcDbSymbolTableRecord
100
AcDbLayerTableRecord
2
SK1
70
0
62
4
6
Continuous
290
1
370
-3
390
0
0
LAYER
5
243
100
AcDbSymbolTableRecord
100
AcDbLayerTableRecord
2
SK4
70
0
62
2
6
CENTER
290
1
370
-3
390
0
0
LAYER
5
244
100
AcDbSymbolTableRecord
100
AcDbLayerTableRecord
2
SK2
70
0
62
7
6
Continuous
290
1
370
-3
390
0
0
LAYER
5
245
100
AcDbSymbolTableRecord
100
AcDbLayerTableRecord
2
SK6
70
0
62
5
6
Continuous
290
1
370
-3
390
0
0
ENDTAB
0
TABLE
2
STYLE
5
259
100
AcDbSymbolTable
0
STYLE
5
11
100
AcDbSymbolTableRecord
100
AcDbTextStyleTableRecord
2
Standard
3
txt
70
0
71
0
40
0
41
1
42
0
50
0
0
STYLE
5
10A
100
AcDbSymbolTableRecord
100
AcDbTextStyleTableRecord
2
iso_b_vert
3
simplex.shx
70
0
71
0
40
0
41
1
42
0
50
0
0
STYLE
5
10B
100
AcDbSymbolTableRecord
100
AcDbTextStyleTableRecord
2
DWGDirectTextStyle
3
simplex
70
0
71
0
40
0
41
1
42
0
50
0
0
ENDTAB
0
TABLE
2
DIMSTYLE
5
25a
100
AcDbSymbolTable
100
AcDbDimStyleTable
0
DIMSTYLE
105
27
100
AcDbSymbolTableRecord
100
AcDbDimStyleTableRecord
2
Standard
70
0
3
<>
41
0.18
42
0.0625
44
0.18
140
0.18
147
0.09
73
0
74
0
77
1
271
2
275
0
278
52
280
0
340
11
0
ENDTAB
0
TABLE
2
VIEW
5
25b
100
AcDbSymbolTable
0
ENDTAB
0
TABLE
2
UCS
5
25c
100
AcDbSymbolTable
0
ENDTAB
0
TABLE
2
APPID
5
25d
100
AcDbSymbolTable
0
APPID
5
12
100
AcDbSymbolTableRecord
100
AcDbRegAppTableRecord
2
ACAD
70
0
0
APPID
5
10E
100
AcDbSymbolTableRecord
100
AcDbRegAppTableRecord
2
ACAD_DSTYLE_DIMBREAK
70
0
0
APPID
5
201
100
AcDbSymbolTableRecord
100
AcDbRegAppTableRecord
2
ACAD_DSTYLE_DIM_LINETYPE
70
0
0
APPID
5
202
100
AcDbSymbolTableRecord
100
AcDbRegAppTableRecord
2
ACAD_DSTYLE_DIM_EXT1_LINETYPE
70
0
0
APPID
5
203
100
AcDbSymbolTableRecord
100
AcDbRegAppTableRecord
2
ACAD_DSTYLE_DIM_EXT2_LINETYPE
70
0
0
APPID
5
23E
100
AcDbSymbolTableRecord
100
AcDbRegAppTableRecord
2
ACAD_MLEADERVER
70
0
0
ENDTAB
0
TABLE
2
BLOCK_RECORD
5
25e
100
AcDbSymbolTable
0
BLOCK_RECORD
5
1F
100
AcDbSymbolTableRecord
100
AcDbBlockTableRecord
2
*Model_Space
340
0
70
0
0
BLOCK_RECORD
5
1B
100
AcDbSymbolTableRecord
100
AcDbBlockTableRecord
2
*Paper_Space
340
0
70
0
0
BLOCK_RECORD
5
23
100
AcDbSymbolTableRecord
100
AcDbBlockTableRecord
2
*Paper_Space0
340
0
70
0
0
BLOCK_RECORD
5
110
100
AcDbSymbolTableRecord
100
AcDbBlockTableRecord
2
_Closed
340
0
70
0
0
BLOCK_RECORD
5
11A
100
AcDbSymbolTableRecord
100
AcDbBlockTableRecord
2
*D2
340
0
70
0
0
BLOCK_RECORD
5
126
100
AcDbSymbolTableRecord
100
AcDbBlockTableRecord
2
_U0
340
0
70
0
0
BLOCK_RECORD
5
138
100
AcDbSymbolTableRecord
100
AcDbBlockTableRecord
2
*D4
340
0
70
0
0
BLOCK_RECORD
5
147
100
AcDbSymbolTableRecord
100
AcDbBlockTableRecord
2
_U1
340
0
70
0
0
BLOCK_RECORD
5
157
100
AcDbSymbolTableRecord
100
AcDbBlockTableRecord
2
*D6
340
0
70
0
0
BLOCK_RECORD
5
165
100
AcDbSymbolTableRecord
100
AcDbBlockTableRecord
2
_U2
340
0
70
0
0
BLOCK_RECORD
5
175
100
AcDbSymbolTableRecord
100
AcDbBlockTableRecord
2
*D8
340
0
70
0
0
BLOCK_RECORD
5
181
100
AcDbSymbolTableRecord
100
AcDbBlockTableRecord
2
_U3
340
0
70
0
0
BLOCK_RECORD
5
191
100
AcDbSymbolTableRecord
100
AcDbBlockTableRecord
2
*D10
340
0
70
0
0
BLOCK_RECORD
5
19D
100
AcDbSymbolTableRecord
100
AcDbBlockTableRecord
2
_U4
340
0
70
0
0
BLOCK_RECORD
5
1AD
100
AcDbSymbolTableRecord
100
AcDbBlockTableRecord
2
*D12
340
0
70
0
0
BLOCK_RECORD
5
1BA
100
AcDbSymbolTableRecord
100
AcDbBlockTableRecord
2
_U5
340
0
70
0
0
BLOCK_RECORD
5
1CA
100
AcDbSymbolTableRecord
100
AcDbBlockTableRecord
2
*D14
340
0
70
0
0
BLOCK_RECORD
5
1D6
100
AcDbSymbolTableRecord
100
AcDbBlockTableRecord
2
_U6
340
0
70
0
0
ENDTAB
0
ENDSEC
0
SECTION
2
BLOCKS
0
BLOCK
5
20
100
AcDbEntity
8
0
100
AcDbBlockBegin
2
*Model_Space
70
0
10
0
20
0
30
0
3
*Model_Space
0
ENDBLK
5
21
100
AcDbEntity
8
0
100
AcDbBlockEnd
0
BLOCK
5
1C
100
AcDbEntity
8
0
100
AcDbBlockBegin
2
*Paper_Space
70
0
10
0
20
0
30
0
3
*Paper_Space
0
ENDBLK
5
1D
100
AcDbEntity
8
0
100
AcDbBlockEnd
0
BLOCK
5
24
100
AcDbEntity
8
0
100
AcDbBlockBegin
2
*Paper_Space0
70
0
10
0
20
0
30
0
3
*Paper_Space0
0
ENDBLK
5
25
100
AcDbEntity
8
0
100
AcDbBlockEnd
0
BLOCK
5
111
100
AcDbEntity
8
0
100
AcDbBlockBegin
2
_Closed
70
0
10
0
20
0
30
0
3
_Closed
0
LINE
5
113
100
AcDbEntity
8
0
62
256
6
ByLayer
370
-2
48
1
60
0
100
AcDbLine
10
-1
20
0.166667
30
0
11
0
21
0
31
0
39
0
210
0
220
0
230
1
0
LINE
5
114
100
AcDbEntity
8
0
62
256
6
ByLayer
370
-2
48
1
60
0
100
AcDbLine
10
0
20
0
30
0
11
-1
21
-0.166667
31
0
39
0
210
0
220
0
230
1
0
LINE
5
115
100
AcDbEntity
8
0
62
256
6
ByLayer
370
-2
48
1
60
0
100
AcDbLine
10
-1
20
0.166667
30
0
11
-1
21
-0.166667
31
0
39
0
210
0
220
0
230
1
0
LINE
5
116
100
AcDbEntity
8
0
62
256
6
ByLayer
370
-2
48
1
60
0
100
AcDbLine
10
0
20
0
30
0
11
-1
21
0
31
0
39
0
210
0
220
0
230
1
0
ENDBLK
5
112
100
AcDbEntity
8
0
100
AcDbBlockEnd
0
BLOCK
5
11B
100
AcDbEntity
8
0
100
AcDbBlockBegin
2
*D2
70
1
10
0
20
0
30
0
3
*D2
0
LINE
5
11D
100
AcDbEntity
8
0
62
256
6
ByLayer
370
-2
48
1
60
0
100
AcDbLine
10
0
20
-4.5875
30
0
11
0
21
-29.67512
31
0
39
0
210
0
220
0
230
1
0
LINE
5
11E
100
AcDbEntity
8
0
62
256
6
ByLayer
370
-2
48
1
60
0
100
AcDbLine
10
26
20
-1.5875
30
0
11
26
21
-29.67512
31
0
39
0
210
0
220
0
230
1
0
LINE
5
11F
100
AcDbEntity
8
0
62
256
6
ByLayer
370
-2
48
1
60
0
100
AcDbLine
10
3.175
20
-26.50012
30
0
11
22.825
21
-26.50012
31
0
39
0
210
0
220
0
230
1
0
SOLID
5
120
100
AcDbEntity
8
0
62
256
6
ByLayer
370
-1
48
1
60
0
100
AcDbTrace
10
3.175
20
-25.970953
30
0
11
3.175
21
-27.029287
31
0
12
0
22
-26.50012
32
0
13
0
23
-26.50012
33
0
39
0
210
0
220
0
230
1
0
SOLID
5
121
100
AcDbEntity
8
0
62
256
6
ByLayer
370
-1
48
1
60
0
100
AcDbTrace
10
22.825
20
-27.029287
30
0
11
22.825
21
-25.970953
31
0
12
26
22
-26.50012
32
0
13
26
23
-26.50012
33
0
39
0
210
0
220
0
230
1
0
MTEXT
5
122
100
AcDbEntity
8
0
62
256
6
ByLayer
370
18
48
1
60
0
100
AcDbMText
10
13
20
-19.193619
30
0
210
0
220
0
230
1
1
\A1;26
40
3.50012
41
0
44
1
50
0
71
5
72
5
7
iso_b_vert
0
POINT
5
123
100
AcDbEntity
8
Defpoints
62
0
6
ByLayer
370
-1
48
1
60
0
100
AcDbPoint
10
0
20
-3
30
0
39
0
210
0
220
0
230
1
50
360
0
POINT
5
124
100
AcDbEntity
8
Defpoints
62
0
6
ByLayer
370
-1
48
1
60
0
100
AcDbPoint
10
26
20
0
30
0
39
0
210
0
220
0
230
1
50
360
0
POINT
5
125
100
AcDbEntity
8
Defpoints
62
0
6
ByLayer
370
-1
48
1
60
0
100
AcDbPoint
10
26
20
-26.50012
30
0
39
0
210
0
220
0
230
1
50
360
0
ENDBLK
5
11C
100
AcDbEntity
8
0
100
AcDbBlockEnd
0
BLOCK
5
133
100
AcDbEntity
8
0
100
AcDbBlockBegin
2
_U0
70
0
10
0
20
0
30
0
3
_U0
0
MTEXT
5
127
100
AcDbEntity
8
SK2
62
256
6
ByLayer
370
18
48
1
60
0
100
AcDbMText
10
7.770389
20
-25.467451
30
0
210
0
220
0
230
1
1
\W0.7468;26.00
40
3.50012
41
0
44
1.084337
50
0
71
7
72
5
7
iso_b_vert
0
MTEXT
5
128
100
AcDbEntity
8
SK2
62
256
6
ByLayer
370
18
48
1
60
0
100
AcDbMText
10
4.244329
20
-25.400814
30
0
210
0
220
0
230
1
1
\W0.1790;(
40
3.175
41
0
44
1.084337
50
0
71
7
72
5
7
iso_b_vert
0
MTEXT
5
129
100
AcDbEntity
8
SK2
62
256
6
ByLayer
370
18
48
1
60
0
100
AcDbMText
10
21.758393
20
-25.400814
30
0
210
0
220
0
230
1
1
\W0.1969;)
40
3.175
41
0
44
1.084337
50
0
71
7
72
5
7
iso_b_vert
0
LINE
5
12A
100
AcDbEntity
8
SK2
62
256
6
ByLayer
370
13
48
1
60
0
100
AcDbLine
10
0
20
-4.5875
30
0
11
0
21
-29.67512
31
0
39
0
210
0
220
0
230
1
0
LINE
5
12B
100
AcDbEntity
8
SK2
62
256
6
ByLayer
370
13
48
1
60
0
100
AcDbLine
10
26
20
-1.5875
30
0
11
26
21
-29.67512
31
0
39
0
210
0
220
0
230
1
0
LINE
5
12C
100
AcDbEntity
8
SK2
62
256
6
ByLayer
370
13
48
1
60
0
100
AcDbLine
10
0
20
-26.50012
30
0
11
26
21
-26.50012
31
0
39
0
210
0
220
0
230
1
0
LINE
5
12D
100
AcDbEntity
8
SK2
62
256
6
ByLayer
370
13
48
1
60
0
100
AcDbLine
10
0
20
-26.50012
30
0
11
3.174998
21
-26.082123
31
0
39
0
210
0
220
0
230
1
0
LINE
5
12E
100
AcDbEntity
8
SK2
62
256
6
ByLayer
370
13
48
1
60
0
100
AcDbLine
10
0
20
-26.50012
30
0
11
3.175002
21
-26.918117
31
0
39
0
210
0
220
0
230
1
0
LINE
5
12F
100
AcDbEntity
8
SK2
62
256
6
ByLayer
370
13
48
1
60
0
100
AcDbLine
10
3.174998
20
-26.082123
30
0
11
3.175002
21
-26.918117
31
0
39
0
210
0
220
0
230
1
0
LINE
5
130
100
AcDbEntity
8
SK2
62
256
6
ByLayer
370
13
48
1
60
0
100
AcDbLine
10
26
20
-26.50012
30
0
11
22.825002
21
-26.918117
31
0
39
0
210
0
220
0
230
1
0
LINE
5
131
100
AcDbEntity
8
SK2
62
256
6
ByLayer
370
13
48
1
60
0
100
AcDbLine
10
26
20
-26.50012
30
0
11
22.824998
21
-26.082123
31
0
39
0
210
0
220
0
230
1
0
LINE
5
132
100
AcDbEntity
8
SK2
62
256
6
ByLayer
370
13
48
1
60
0
100
AcDbLine
10
22.825002
20
-26.918117
30
0
11
22.824998
21
-26.082123
31
0
39
0
210
0
220
0
230
1
0
ENDBLK
5
134
100
AcDbEntity
8
0
100
AcDbBlockEnd
0
BLOCK
5
139
100
AcDbEntity
8
0
100
AcDbBlockBegin
2
*D4
70
1
10
0
20
0
30
0
3
*D4
0
LINE
5
13B
100
AcDbEntity
8
0
62
256
6
ByLayer
370
-2
48
1
60
0
100
AcDbLine
10
27.0233
20
-1.55
30
0
11
35.92506
21
-1.55
31
0
39
0
210
0
220
0
230
1
0
LINE
5
13C
100
AcDbEntity
8
0
62
256
6
ByLayer
370
-2
48
1
60
0
100
AcDbLine
10
27.0233
20
1.55
30
0
11
35.92506
21
1.55
31
0
39
0
210
0
220
0
230
1
0
LINE
5
13D
100
AcDbEntity
8
0
62
256
6
ByLayer
370
-2
48
1
60
0
100
AcDbLine
10
32.75006
20
1.55
30
0
11
32.75006
21
25.346431
31
0
39
0
210
0
220
0
230
1
0
LINE
5
13E
100
AcDbEntity
8
0
62
256
6
ByLayer
370
-2
48
1
60
0
100
AcDbLine
10
32.75006
20
-4.725
30
0
11
32.75006
21
-7.9
31
0
39
0
210
0
220
0
230
1
0
LINE
5
13F
100
AcDbEntity
8
0
62
256
6
ByLayer
370
-2
48
1
60
0
100
AcDbLine
10
32.75006
20
4.725
30
0
11
32.75006
21
7.9
31
0
39
0
210
0
220
0
230
1
0
SOLID
5
140
100
AcDbEntity
8
0
62
256
6
ByLayer
370
-1
48
1
60
0
100
AcDbTrace
10
33.279227
20
-4.725
30
0
11
32.220893
21
-4.725
31
0
12
32.75006
22
-1.55
32
0
13
32.75006
23
-1.55
33
0
39
0
210
0
220
0
230
1
0
SOLID
5
141
100
AcDbEntity
8
0
62
256
6
ByLayer
370
-1
48
1
60
0
100
AcDbTrace
10
32.220893
20
4.725
30
0
11
33.279227
21
4.725
31
0
12
32.75006
22
1.55
32
0
13
32.75006
23
1.55
33
0
39
0
210
0
220
0
230
1
0
MTEXT
5
142
100
AcDbEntity
8
0
62
256
6
ByLayer
370
18
48
1
60
0
100
AcDbMText
10
25.443559
20
16.623216
30
0
210
0
220
0
230
1
1
\A1;3.1
40
3.50012
41
0
44
1
50
90
71
5
72
5
7
iso_b_vert
0
POINT
5
143
100
AcDbEntity
8
Defpoints
62
0
6
ByLayer
370
-1
48
1
60
0
100
AcDbPoint
10
25.4358
20
-1.55
30
0
39
0
210
0
220
0
230
1
50
360
0
POINT
5
144
100
AcDbEntity
8
Defpoints
62
0
6
ByLayer
370
-1
48
1
60
0
100
AcDbPoint
10
25.4358
20
1.55
30
0
39
0
210
0
220
0
230
1
50
360
0
POINT
5
145
100
AcDbEntity
8
Defpoints
62
0
6
ByLayer
370
-1
48
1
60
0
100
AcDbPoint
10
32.75006
20
1.55
30
0
39
0
210
0
220
0
230
1
50
360
0
ENDBLK
5
13A
100
AcDbEntity
8
0
100
AcDbBlockEnd
0
BLOCK
5
152
100
AcDbEntity
8
0
100
AcDbBlockBegin
2
_U1
70
0
10
0
20
0
30
0
3
_U1
0
MTEXT
5
148
100
AcDbEntity
8
2
62
256
6
ByLayer
370
18
48
1
60
0
100
AcDbMText
10
32.060403
20
5.707505
30
0
210
0
220
0
230
1
1
\W0.6563;3.10
40
3.50012
41
0
44
1.084337
50
90
71
7
72
5
7
iso_b_vert
0
LINE
5
149
100
AcDbEntity
8
2
62
256
6
ByLayer
370
13
48
1
60
0
100
AcDbLine
10
27.0233
20
-1.55
30
0
11
35.92506
21
-1.55
31
0
39
0
210
0
220
0
230
1
0
LINE
5
14A
100
AcDbEntity
8
2
62
256
6
ByLayer
370
13
48
1
60
0
100
AcDbLine
10
27.0233
20
1.55
30
0
11
35.92506
21
1.55
31
0
39
0
210
0
220
0
230
1
0
LINE
5
14B
100
AcDbEntity
8
2
62
256
6
ByLayer
370
13
48
1
60
0
100
AcDbLine
10
32.75006
20
12.889783
30
0
11
32.75006
21
-10.3003
31
0
39
0
210
0
220
0
230
1
0
LINE
5
14C
100
AcDbEntity
8
2
62
256
6
ByLayer
370
13
48
1
60
0
100
AcDbLine
10
32.75006
20
-1.55
30
0
11
33.168057
21
-4.724998
31
0
39
0
210
0
220
0
230
1
0
LINE
5
14D
100
AcDbEntity
8
2
62
256
6
ByLayer
370
13
48
1
60
0
100
AcDbLine
10
32.75006
20
-1.55
30
0
11
32.332063
21
-4.725002
31
0
39
0
210
0
220
0
230
1
0
LINE
5
14E
100
AcDbEntity
8
2
62
256
6
ByLayer
370
13
48
1
60
0
100
AcDbLine
10
33.168057
20
-4.724998
30
0
11
32.332063
21
-4.725002
31
0
39
0
210
0
220
0
230
1
0
LINE
5
14F
100
AcDbEntity
8
2
62
256
6
ByLayer
370
13
48
1
60
0
100
AcDbLine
10
32.75006
20
1.55
30
0
11
32.332063
21
4.724998
31
0
39
0
210
0
220
0
230
1
0
LINE
5
150
100
AcDbEntity
8
2
62
256
6
ByLayer
370
13
48
1
60
0
100
AcDbLine
10
32.75006
20
1.55
30
0
11
33.168057
21
4.725002
31
0
39
0
210
0
220
0
230
1
0
LINE
5
151
100
AcDbEntity
8
2
62
256
6
ByLayer
370
13
48
1
60
0
100
AcDbLine
10
32.332063
20
4.724998
30
0
11
33.168057
21
4.725002
31
0
39
0
210
0
220
0
230
1
0
ENDBLK
5
153
100
AcDbEntity
8
0
100
AcDbBlockEnd
0
BLOCK
5
158
100
AcDbEntity
8
0
100
AcDbBlockBegin
2
*D6
70
1
10
0
20
0
30
0
3
*D6
0
LINE
5
15A
100
AcDbEntity
8
0
62
256
6
ByLayer
370
-2
48
1
60
0
100
AcDbLine
10
-37.5875
20
3
30
0
11
-42.42494
21
3
31
0
39
0
210
0
220
0
230
1
0
LINE
5
15B
100
AcDbEntity
8
0
62
256
6
ByLayer
370
-2
48
1
60
0
100
AcDbLine
10
-37.5875
20
-3
30
0
11
-42.42494
21
-3
31
0
39
0
210
0
220
0
230
1
0
LINE
5
15C
100
AcDbEntity
8
0
62
256
6
ByLayer
370
-2
48
1
60
0
100
AcDbLine
10
-39.24994
20
3
30
0
11
-39.24994
21
23.747151
31
0
39
0
210
0
220
0
230
1
0
LINE
5
15D
100
AcDbEntity
8
0
62
256
6
ByLayer
370
-2
48
1
60
0
100
AcDbLine
10
-39.24994
20
6.175
30
0
11
-39.24994
21
9.35
31
0
39
0
210
0
220
0
230
1
0
LINE
5
15E
100
AcDbEntity
8
0
62
256
6
ByLayer
370
-2
48
1
60
0
100
AcDbLine
10
-39.24994
20
-6.175
30
0
11
-39.24994
21
-9.35
31
0
39
0
210
0
220
0
230
1
0
SOLID
5
15F
100
AcDbEntity
8
0
62
256
6
ByLayer
370
-1
48
1
60
0
100
AcDbTrace
10
-39.779107
20
6.175
30
0
11
-38.720773
21
6.175
31
0
12
-39.24994
22
3
32
0
13
-39.24994
23
3
33
0
39
0
210
0
220
0
230
1
0
SOLID
5
160
100
AcDbEntity
8
0
62
256
6
ByLayer
370
-1
48
1
60
0
100
AcDbTrace
10
-38.720773
20
-6.175
30
0
11
-39.779107
21
-6.175
31
0
12
-39.24994
22
-3
32
0
13
-39.24994
23
-3
33
0
39
0
210
0
220
0
230
1
0
MTEXT
5
161
100
AcDbEntity
8
0
62
256
6
ByLayer
370
18
48
1
60
0
100
AcDbMText
10
-46.556441
20
17.10734
30
0
210
0
220
0
230
1
1
\A1;6
40
3.50012
41
0
44
1
50
90
71
5
72
5
7
iso_b_vert
0
POINT
5
162
100
AcDbEntity
8
Defpoints
62
0
6
ByLayer
370
-1
48
1
60
0
100
AcDbPoint
10
-36
20
3
30
0
39
0
210
0
220
0
230
1
50
360
0
POINT
5
163
100
AcDbEntity
8
Defpoints
62
0
6
ByLayer
370
-1
48
1
60
0
100
AcDbPoint
10
-36
20
-3
30
0
39
0
210
0
220
0
230
1
50
360
0
POINT
5
164
100
AcDbEntity
8
Defpoints
62
0
6
ByLayer
370
-1
48
1
60
0
100
AcDbPoint
10
-39.24994
20
-3
30
0
39
0
210
0
220
0
230
1
50
360
0
ENDBLK
5
159
100
AcDbEntity
8
0
100
AcDbBlockEnd
0
BLOCK
5
170
100
AcDbEntity
8
0
100
AcDbBlockBegin
2
_U2
70
0
10
0
20
0
30
0
3
_U2
0
MTEXT
5
166
100
AcDbEntity
8
SK2
62
256
6
ByLayer
370
18
48
1
60
0
100
AcDbMText
10
-39.939597
20
13.157505
30
0
210
0
220
0
230
1
1
\W0.7346;6.00
40
3.50012
41
0
44
1.084337
50
90
71
7
72
5
7
iso_b_vert
0
LINE
5
167
100
AcDbEntity
8
SK2
62
256
6
ByLayer
370
13
48
1
60
0
100
AcDbLine
10
-37.5875
20
3
30
0
11
-42.42494
21
3
31
0
39
0
210
0
220
0
230
1
0
LINE
5
168
100
AcDbEntity
8
SK2
62
256
6
ByLayer
370
13
48
1
60
0
100
AcDbLine
10
-37.5875
20
-3
30
0
11
-42.42494
21
-3
31
0
39
0
210
0
220
0
230
1
0
LINE
5
169
100
AcDbEntity
8
SK2
62
256
6
ByLayer
370
13
48
1
60
0
100
AcDbLine
10
-39.24994
20
-11.7503
30
0
11
-39.24994
21
21.21468
31
0
39
0
210
0
220
0
230
1
0
LINE
5
16A
100
AcDbEntity
8
SK2
62
256
6
ByLayer
370
13
48
1
60
0
100
AcDbLine
10
-39.24994
20
3
30
0
11
-39.667937
21
6.174998
31
0
39
0
210
0
220
0
230
1
0
LINE
5
16B
100
AcDbEntity
8
SK2
62
256
6
ByLayer
370
13
48
1
60
0
100
AcDbLine
10
-39.24994
20
3
30
0
11
-38.831943
21
6.175002
31
0
39
0
210
0
220
0
230
1
0
LINE
5
16C
100
AcDbEntity
8
SK2
62
256
6
ByLayer
370
13
48
1
60
0
100
AcDbLine
10
-39.667937
20
6.174998
30
0
11
-38.831943
21
6.175002
31
0
39
0
210
0
220
0
230
1
0
LINE
5
16D
100
AcDbEntity
8
SK2
62
256
6
ByLayer
370
13
48
1
60
0
100
AcDbLine
10
-39.24994
20
-3
30
0
11
-38.831943
21
-6.174998
31
0
39
0
210
0
220
0
230
1
0
LINE
5
16E
100
AcDbEntity
8
SK2
62
256
6
ByLayer
370
13
48
1
60
0
100
AcDbLine
10
-39.24994
20
-3
30
0
11
-39.667937
21
-6.175002
31
0
39
0
210
0
220
0
230
1
0
LINE
5
16F
100
AcDbEntity
8
SK2
62
256
6
ByLayer
370
13
48
1
60
0
100
AcDbLine
10
-38.831943
20
-6.174998
30
0
11
-39.667937
21
-6.175002
31
0
39
0
210
0
220
0
230
1
0
ENDBLK
5
171
100
AcDbEntity
8
0
100
AcDbBlockEnd
0
BLOCK
5
176
100
AcDbEntity
8
0
100
AcDbBlockBegin
2
*D8
70
1
10
0
20
0
30
0
3
*D8
0
LINE
5
178
100
AcDbEntity
8
0
62
256
6
ByLayer
370
-2
48
1
60
0
100
AcDbLine
10
-36
20
-4.5875
30
0
11
-36
21
-29.67512
31
0
39
0
210
0
220
0
230
1
0
LINE
5
179
100
AcDbEntity
8
0
62
256
6
ByLayer
370
-2
48
1
60
0
100
AcDbLine
10
0
20
-4.5875
30
0
11
0
21
-29.67512
31
0
39
0
210
0
220
0
230
1
0
LINE
5
17A
100
AcDbEntity
8
0
62
256
6
ByLayer
370
-2
48
1
60
0
100
AcDbLine
10
-32.825
20
-26.50012
30
0
11
-3.175
21
-26.50012
31
0
39
0
210
0
220
0
230
1
0
SOLID
5
17B
100
AcDbEntity
8
0
62
256
6
ByLayer
370
-1
48
1
60
0
100
AcDbTrace
10
-32.825
20
-25.970953
30
0
11
-32.825
21
-27.029287
31
0
12
-36
22
-26.50012
32
0
13
-36
23
-26.50012
33
0
39
0
210
0
220
0
230
1
0
SOLID
5
17C
100
AcDbEntity
8
0
62
256
6
ByLayer
370
-1
48
1
60
0
100
AcDbTrace
10
-3.175
20
-27.029287
30
0
11
-3.175
21
-25.970953
31
0
12
0
22
-26.50012
32
0
13
0
23
-26.50012
33
0
39
0
210
0
220
0
230
1
0
MTEXT
5
17D
100
AcDbEntity
8
0
62
256
6
ByLayer
370
18
48
1
60
0
100
AcDbMText
10
-18
20
-19.193619
30
0
210
0
220
0
230
1
1
\A1;36
40
3.50012
41
0
44
1
50
0
71
5
72
5
7
iso_b_vert
0
POINT
5
17E
100
AcDbEntity
8
Defpoints
62
0
6
ByLayer
370
-1
48
1
60
0
100
AcDbPoint
10
-36
20
-3
30
0
39
0
210
0
220
0
230
1
50
360
0
POINT
5
17F
100
AcDbEntity
8
Defpoints
62
0
6
ByLayer
370
-1
48
1
60
0
100
AcDbPoint
10
0
20
-3
30
0
39
0
210
0
220
0
230
1
50
360
0
POINT
5
180
100
AcDbEntity
8
Defpoints
62
0
6
ByLayer
370
-1
48
1
60
0
100
AcDbPoint
10
0
20
-26.50012
30
0
39
0
210
0
220
0
230
1
50
360
0
ENDBLK
5
177
100
AcDbEntity
8
0
100
AcDbBlockEnd
0
BLOCK
5
18C
100
AcDbEntity
8
0
100
AcDbBlockBegin
2
_U3
70
0
10
0
20
0
30
0
3
_U3
0
MTEXT
5
182
100
AcDbEntity
8
SK2
62
256
6
ByLayer
370
18
48
1
60
0
100
AcDbMText
10
-23.229611
20
-25.467451
30
0
210
0
220
0
230
1
1
\W0.7468;36.00
40
3.50012
41
0
44
1.084337
50
0
71
7
72
5
7
iso_b_vert
0
LINE
5
183
100
AcDbEntity
8
SK2
62
256
6
ByLayer
370
13
48
1
60
0
100
AcDbLine
10
-36
20
-4.5875
30
0
11
-36
21
-29.67512
31
0
39
0
210
0
220
0
230
1
0
LINE
5
184
100
AcDbEntity
8
SK2
62
256
6
ByLayer
370
13
48
1
60
0
100
AcDbLine
10
0
20
-4.5875
30
0
11
0
21
-29.67512
31
0
39
0
210
0
220
0
230
1
0
LINE
5
185
100
AcDbEntity
8
SK2
62
256
6
ByLayer
370
13
48
1
60
0
100
AcDbLine
10
-36
20
-26.50012
30
0
11
0
21
-26.50012
31
0
39
0
210
0
220
0
230
1
0
LINE
5
186
100
AcDbEntity
8
SK2
62
256
6
ByLayer
370
13
48
1
60
0
100
AcDbLine
10
-36
20
-26.50012
30
0
11
-32.825002
21
-26.082123
31
0
39
0
210
0
220
0
230
1
0
LINE
5
187
100
AcDbEntity
8
SK2
62
256
6
ByLayer
370
13
48
1
60
0
100
AcDbLine
10
-36
20
-26.50012
30
0
11
-32.824998
21
-26.918117
31
0
39
0
210
0
220
0
230
1
0
LINE
5
188
100
AcDbEntity
8
SK2
62
256
6
ByLayer
370
13
48
1
60
0
100
AcDbLine
10
-32.825002
20
-26.082123
30
0
11
-32.824998
21
-26.918117
31
0
39
0
210
0
220
0
230
1
0
LINE
5
189
100
AcDbEntity
8
SK2
62
256
6
ByLayer
370
13
48
1
60
0
100
AcDbLine
10
0
20
-26.50012
30
0
11
-3.174998
21
-26.918117
31
0
39
0
210
0
220
0
230
1
0
LINE
5
18A
100
AcDbEntity
8
SK2
62
256
6
ByLayer
370
13
48
1
60
0
100
AcDbLine
10
0
20
-26.50012
30
0
11
-3.175002
21
-26.082123
31
0
39
0
210
0
220
0
230
1
0
LINE
5
18B
100
AcDbEntity
8
SK2
62
256
6
ByLayer
370
13
48
1
60
0
100
AcDbLine
10
-3.174998
20
-26.918117
30
0
11
-3.175002
21
-26.082123
31
0
39
0
210
0
220
0
230
1
0
ENDBLK
5
18D
100
AcDbEntity
8
0
100
AcDbBlockEnd
0
BLOCK
5
192
100
AcDbEntity
8
0
100
AcDbBlockBegin
2
*D10
70
1
10
0
20
0
30
0
3
*D10
0
LINE
5
194
100
AcDbEntity
8
0
62
256
6
ByLayer
370
-2
48
1
60
0
100
AcDbLine
10
6
20
0.4625
30
0
11
6
21
-20.92482
31
0
39
0
210
0
220
0
230
1
0
LINE
5
195
100
AcDbEntity
8
0
62
256
6
ByLayer
370
-2
48
1
60
0
100
AcDbLine
10
26
20
-1.5875
30
0
11
26
21
-20.92482
31
0
39
0
210
0
220
0
230
1
0
LINE
5
196
100
AcDbEntity
8
0
62
256
6
ByLayer
370
-2
48
1
60
0
100
AcDbLine
10
9.175
20
-17.74982
30
0
11
22.825
21
-17.74982
31
0
39
0
210
0
220
0
230
1
0
SOLID
5
197
100
AcDbEntity
8
0
62
256
6
ByLayer
370
-1
48
1
60
0
100
AcDbTrace
10
9.175
20
-17.220653
30
0
11
9.175
21
-18.278987
31
0
12
6
22
-17.74982
32
0
13
6
23
-17.74982
33
0
39
0
210
0
220
0
230
1
0
SOLID
5
198
100
AcDbEntity
8
0
62
256
6
ByLayer
370
-1
48
1
60
0
100
AcDbTrace
10
22.825
20
-18.278987
30
0
11
22.825
21
-17.220653
31
0
12
26
22
-17.74982
32
0
13
26
23
-17.74982
33
0
39
0
210
0
220
0
230
1
0
MTEXT
5
199
100
AcDbEntity
8
0
62
256
6
ByLayer
370
18
48
1
60
0
100
AcDbMText
10
16
20
-10.443319
30
0
210
0
220
0
230
1
1
\A1;20
40
3.50012
41
0
44
1
50
0
71
5
72
5
7
iso_b_vert
0
POINT
5
19A
100
AcDbEntity
8
Defpoints
62
0
6
ByLayer
370
-1
48
1
60
0
100
AcDbPoint
10
6
20
2.05
30
0
39
0
210
0
220
0
230
1
50
360
0
POINT
5
19B
100
AcDbEntity
8
Defpoints
62
0
6
ByLayer
370
-1
48
1
60
0
100
AcDbPoint
10
26
20
0
30
0
39
0
210
0
220
0
230
1
50
360
0
POINT
5
19C
100
AcDbEntity
8
Defpoints
62
0
6
ByLayer
370
-1
48
1
60
0
100
AcDbPoint
10
26
20
-17.74982
30
0
39
0
210
0
220
0
230
1
50
360
0
ENDBLK
5
193
100
AcDbEntity
8
0
100
AcDbBlockEnd
0
BLOCK
5
1A8
100
AcDbEntity
8
0
100
AcDbBlockBegin
2
_U4
70
0
10
0
20
0
30
0
3
_U4
0
MTEXT
5
19E
100
AcDbEntity
8
SK2
62
256
6
ByLayer
370
18
48
1
60
0
100
AcDbMText
10
10.770389
20
-16.717151
30
0
210
0
220
0
230
1
1
\W0.7468;20.00
40
3.50012
41
0
44
1.084337
50
0
71
7
72
5
7
iso_b_vert
0
LINE
5
19F
100
AcDbEntity
8
SK2
62
256
6
ByLayer
370
13
48
1
60
0
100
AcDbLine
10
6
20
0.4625
30
0
11
6
21
-20.92482
31
0
39
0
210
0
220
0
230
1
0
LINE
5
1A0
100
AcDbEntity
8
SK2
62
256
6
ByLayer
370
13
48
1
60
0
100
AcDbLine
10
26
20
-1.5875
30
0
11
26
21
-20.92482
31
0
39
0
210
0
220
0
230
1
0
LINE
5
1A1
100
AcDbEntity
8
SK2
62
256
6
ByLayer
370
13
48
1
60
0
100
AcDbLine
10
-2.7503
20
-17.74982
30
0
11
34.7503
21
-17.74982
31
0
39
0
210
0
220
0
230
1
0
LINE
5
1A2
100
AcDbEntity
8
SK2
62
256
6
ByLayer
370
13
48
1
60
0
100
AcDbLine
10
6
20
-17.74982
30
0
11
2.825002
21
-18.167817
31
0
39
0
210
0
220
0
230
1
0
LINE
5
1A3
100
AcDbEntity
8
SK2
62
256
6
ByLayer
370
13
48
1
60
0
100
AcDbLine
10
6
20
-17.74982
30
0
11
2.824998
21
-17.331823
31
0
39
0
210
0
220
0
230
1
0
LINE
5
1A4
100
AcDbEntity
8
SK2
62
256
6
ByLayer
370
13
48
1
60
0
100
AcDbLine
10
2.825002
20
-18.167817
30
0
11
2.824998
21
-17.331823
31
0
39
0
210
0
220
0
230
1
0
LINE
5
1A5
100
AcDbEntity
8
SK2
62
256
6
ByLayer
370
13
48
1
60
0
100
AcDbLine
10
26
20
-17.74982
30
0
11
29.174998
21
-17.331823
31
0
39
0
210
0
220
0
230
1
0
LINE
5
1A6
100
AcDbEntity
8
SK2
62
256
6
ByLayer
370
13
48
1
60
0
100
AcDbLine
10
26
20
-17.74982
30
0
11
29.175002
21
-18.167817
31
0
39
0
210
0
220
0
230
1
0
LINE
5
1A7
100
AcDbEntity
8
SK2
62
256
6
ByLayer
370
13
48
1
60
0
100
AcDbLine
10
29.174998
20
-17.331823
30
0
11
29.175002
21
-18.167817
31
0
39
0
210
0
220
0
230
1
0
ENDBLK
5
1A9
100
AcDbEntity
8
0
100
AcDbBlockEnd
0
BLOCK
5
1AE
100
AcDbEntity
8
0
100
AcDbBlockBegin
2
*D12
70
1
10
0
20
0
30
0
3
*D12
0
LINE
5
1B0
100
AcDbEntity
8
0
62
256
6
ByLayer
370
-2
48
1
60
0
100
AcDbLine
10
16.2
20
-3.1375
30
0
11
16.2
21
-10.32
31
0
39
0
210
0
220
0
230
1
0
LINE
5
1B1
100
AcDbEntity
8
0
62
256
6
ByLayer
370
-2
48
1
60
0
100
AcDbLine
10
26
20
-1.5875
30
0
11
26
21
-10.32
31
0
39
0
210
0
220
0
230
1
0
LINE
5
1B2
100
AcDbEntity
8
0
62
256
6
ByLayer
370
-2
48
1
60
0
100
AcDbLine
10
13.025
20
-9.82
30
0
11
9.85
21
-9.82
31
0
39
0
210
0
220
0
230
1
0
LINE
5
1B3
100
AcDbEntity
8
0
62
256
6
ByLayer
370
-2
48
1
60
0
100
AcDbLine
10
29.175
20
-9.82
30
0
11
32.35
21
-9.82
31
0
39
0
210
0
220
0
230
1
0
SOLID
5
1B4
100
AcDbEntity
8
0
62
256
6
ByLayer
370
-1
48
1
60
0
100
AcDbTrace
10
13.025
20
-10.349167
30
0
11
13.025
21
-9.290833
31
0
12
16.2
22
-9.82
32
0
13
16.2
23
-9.82
33
0
39
0
210
0
220
0
230
1
0
SOLID
5
1B5
100
AcDbEntity
8
0
62
256
6
ByLayer
370
-1
48
1
60
0
100
AcDbTrace
10
29.175
20
-9.290833
30
0
11
29.175
21
-10.349167
31
0
12
26
22
-9.82
32
0
13
26
23
-9.82
33
0
39
0
210
0
220
0
230
1
0
MTEXT
5
1B6
100
AcDbEntity
8
0
62
256
6
ByLayer
370
18
48
1
60
0
100
AcDbMText
10
21.1
20
-3.975
30
0
210
0
220
0
230
1
1
\A1;9.8
40
2.8
41
0
44
1
50
0
71
5
72
5
7
iso_b_vert
0
POINT
5
1B7
100
AcDbEntity
8
Defpoints
62
0
6
ByLayer
370
-1
48
1
60
0
100
AcDbPoint
10
16.2
20
-1.55
30
0
39
0
210
0
220
0
230
1
50
360
0
POINT
5
1B8
100
AcDbEntity
8
Defpoints
62
0
6
ByLayer
370
-1
48
1
60
0
100
AcDbPoint
10
26
20
0
30
0
39
0
210
0
220
0
230
1
50
360
0
POINT
5
1B9
100
AcDbEntity
8
Defpoints
62
0
6
ByLayer
370
-1
48
1
60
0
100
AcDbPoint
10
26
20
-9.82
30
0
39
0
210
0
220
0
230
1
50
360
0
ENDBLK
5
1AF
100
AcDbEntity
8
0
100
AcDbBlockEnd
0
BLOCK
5
1C5
100
AcDbEntity
8
0
100
AcDbBlockBegin
2
_U5
70
0
10
0
20
0
30
0
3
_U5
0
MTEXT
5
1BB
100
AcDbEntity
8
SK2
62
256
6
ByLayer
370
18
48
1
60
0
100
AcDbMText
10
17.962641
20
-9.973893
30
0
210
0
220
0
230
1
1
\W0.7346;9.80
40
2.8
41
0
44
1.084337
50
0
71
7
72
5
7
iso_b_vert
0
LINE
5
1BC
100
AcDbEntity
8
SK2
62
256
6
ByLayer
370
13
48
1
60
0
100
AcDbLine
10
16.2
20
-3.1375
30
0
11
16.2
21
-10.32
31
0
39
0
210
0
220
0
230
1
0
LINE
5
1BD
100
AcDbEntity
8
SK2
62
256
6
ByLayer
370
13
48
1
60
0
100
AcDbLine
10
26
20
-1.5875
30
0
11
26
21
-10.32
31
0
39
0
210
0
220
0
230
1
0
LINE
5
1BE
100
AcDbEntity
8
SK2
62
256
6
ByLayer
370
13
48
1
60
0
100
AcDbLine
10
9.2
20
-9.82
30
0
11
33
21
-9.82
31
0
39
0
210
0
220
0
230
1
0
LINE
5
1BF
100
AcDbEntity
8
SK2
62
256
6
ByLayer
370
13
48
1
60
0
100
AcDbLine
10
16.2
20
-9.82
30
0
11
13.025002
21
-10.237997
31
0
39
0
210
0
220
0
230
1
0
LINE
5
1C0
100
AcDbEntity
8
SK2
62
256
6
ByLayer
370
13
48
1
60
0
100
AcDbLine
10
16.2
20
-9.82
30
0
11
13.024998
21
-9.402003
31
0
39
0
210
0
220
0
230
1
0
LINE
5
1C1
100
AcDbEntity
8
SK2
62
256
6
ByLayer
370
13
48
1
60
0
100
AcDbLine
10
13.025002
20
-10.237997
30
0
11
13.024998
21
-9.402003
31
0
39
0
210
0
220
0
230
1
0
LINE
5
1C2
100
AcDbEntity
8
SK2
62
256
6
ByLayer
370
13
48
1
60
0
100
AcDbLine
10
26
20
-9.82
30
0
11
29.174998
21
-9.402003
31
0
39
0
210
0
220
0
230
1
0
LINE
5
1C3
100
AcDbEntity
8
SK2
62
256
6
ByLayer
370
13
48
1
60
0
100
AcDbLine
10
26
20
-9.82
30
0
11
29.175002
21
-10.237997
31
0
39
0
210
0
220
0
230
1
0
LINE
5
1C4
100
AcDbEntity
8
SK2
62
256
6
ByLayer
370
13
48
1
60
0
100
AcDbLine
10
29.174998
20
-9.402003
30
0
11
29.175002
21
-10.237997
31
0
39
0
210
0
220
0
230
1
0
ENDBLK
5
1C6
100
AcDbEntity
8
0
100
AcDbBlockEnd
0
BLOCK
5
1CB
100
AcDbEntity
8
0
100
AcDbBlockBegin
2
*D14
70
1
10
0
20
0
30
0
3
*D14
0
LINE
5
1CD
100
AcDbEntity
8
0
62
256
6
ByLayer
370
-2
48
1
60
0
100
AcDbLine
10
-36
20
-1.5875
30
0
11
-36
21
-39.67512
31
0
39
0
210
0
220
0
230
1
0
LINE
5
1CE
100
AcDbEntity
8
0
62
256
6
ByLayer
370
-2
48
1
60
0
100
AcDbLine
10
26
20
-1.5875
30
0
11
26
21
-39.67512
31
0
39
0
210
0
220
0
230
1
0
LINE
5
1CF
100
AcDbEntity
8
0
62
256
6
ByLayer
370
-2
48
1
60
0
100
AcDbLine
10
-32.825
20
-36.50012
30
0
11
22.825
21
-36.50012
31
0
39
0
210
0
220
0
230
1
0
SOLID
5
1D0
100
AcDbEntity
8
0
62
256
6
ByLayer
370
-1
48
1
60
0
100
AcDbTrace
10
-32.825
20
-35.970953
30
0
11
-32.825
21
-37.029287
31
0
12
-36
22
-36.50012
32
0
13
-36
23
-36.50012
33
0
39
0
210
0
220
0
230
1
0
SOLID
5
1D1
100
AcDbEntity
8
0
62
256
6
ByLayer
370
-1
48
1
60
0
100
AcDbTrace
10
22.825
20
-37.029287
30
0
11
22.825
21
-35.970953
31
0
12
26
22
-36.50012
32
0
13
26
23
-36.50012
33
0
39
0
210
0
220
0
230
1
0
MTEXT
5
1D2
100
AcDbEntity
8
0
62
256
6
ByLayer
370
18
48
1
60
0
100
AcDbMText
10
-5
20
-29.193619
30
0
210
0
220
0
230
1
1
\A1;62
40
3.50012
41
0
44
1
50
0
71
5
72
5
7
iso_b_vert
0
POINT
5
1D3
100
AcDbEntity
8
Defpoints
62
0
6
ByLayer
370
-1
48
1
60
0
100
AcDbPoint
10
-36
20
0
30
0
39
0
210
0
220
0
230
1
50
360
0
POINT
5
1D4
100
AcDbEntity
8
Defpoints
62
0
6
ByLayer
370
-1
48
1
60
0
100
AcDbPoint
10
26
20
0
30
0
39
0
210
0
220
0
230
1
50
360
0
POINT
5
1D5
100
AcDbEntity
8
Defpoints
62
0
6
ByLayer
370
-1
48
1
60
0
100
AcDbPoint
10
26
20
-36.50012
30
0
39
0
210
0
220
0
230
1
50
360
0
ENDBLK
5
1CC
100
AcDbEntity
8
0
100
AcDbBlockEnd
0
BLOCK
5
1E1
100
AcDbEntity
8
0
100
AcDbBlockBegin
2
_U6
70
0
10
0
20
0
30
0
3
_U6
0
MTEXT
5
1D7
100
AcDbEntity
8
SK2
62
256
6
ByLayer
370
18
48
1
60
0
100
AcDbMText
10
-10.229611
20
-35.467451
30
0
210
0
220
0
230
1
1
\W0.7468;62.00
40
3.50012
41
0
44
1.084337
50
0
71
7
72
5
7
iso_b_vert
0
LINE
5
1D8
100
AcDbEntity
8
SK2
62
256
6
ByLayer
370
13
48
1
60
0
100
AcDbLine
10
-36
20
-1.5875
30
0
11
-36
21
-39.67512
31
0
39
0
210
0
220
0
230
1
0
LINE
5
1D9
100
AcDbEntity
8
SK2
62
256
6
ByLayer
370
13
48
1
60
0
100
AcDbLine
10
26
20
-1.5875
30
0
11
26
21
-39.67512
31
0
39
0
210
0
220
0
230
1
0
LINE
5
1DA
100
AcDbEntity
8
SK2
62
256
6
ByLayer
370
13
48
1
60
0
100
AcDbLine
10
-36
20
-36.50012
30
0
11
26
21
-36.50012
31
0
39
0
210
0
220
0
230
1
0
LINE
5
1DB
100
AcDbEntity
8
SK2
62
256
6
ByLayer
370
13
48
1
60
0
100
AcDbLine
10
-36
20
-36.50012
30
0
11
-32.825002
21
-36.082123
31
0
39
0
210
0
220
0
230
1
0
LINE
5
1DC
100
AcDbEntity
8
SK2
62
256
6
ByLayer
370
13
48
1
60
0
100
AcDbLine
10
-36
20
-36.50012
30
0
11
-32.824998
21
-36.918117
31
0
39
0
210
0
220
0
230
1
0
LINE
5
1DD
100
AcDbEntity
8
SK2
62
256
6
ByLayer
370
13
48
1
60
0
100
AcDbLine
10
-32.825002
20
-36.082123
30
0
11
-32.824998
21
-36.918117
31
0
39
0
210
0
220
0
230
1
0
LINE
5
1DE
100
AcDbEntity
8
SK2
62
256
6
ByLayer
370
13
48
1
60
0
100
AcDbLine
10
26
20
-36.50012
30
0
11
22.825002
21
-36.918117
31
0
39
0
210
0
220
0
230
1
0
LINE
5
1DF
100
AcDbEntity
8
SK2
62
256
6
ByLayer
370
13
48
1
60
0
100
AcDbLine
10
26
20
-36.50012
30
0
11
22.824998
21
-36.082123
31
0
39
0
210
0
220
0
230
1
0
LINE
5
1E0
100
AcDbEntity
8
SK2
62
256
6
ByLayer
370
13
48
1
60
0
100
AcDbLine
10
22.825002
20
-36.918117
30
0
11
22.824998
21
-36.082123
31
0
39
0
210
0
220
0
230
1
0
ENDBLK
5
1E2
100
AcDbEntity
8
0
100
AcDbBlockEnd
0
ENDSEC
0
SECTION
2
ENTITIES
0
ARC
5
AD
100
AcDbEntity
8
1
62
256
6
ByLayer
370
18
48
1
60
0
100
AcDbCircle
39
0
10
1.594286
20
2.335098
30
0
40
0.799999999999998
210
0
220
0
230
1
100
AcDbArc
50
184.843603
51
270.03581
0
ARC
5
AE
100
AcDbEntity
8
1
62
256
6
ByLayer
370
18
48
1
60
0
100
AcDbCircle
39
0
10
1.594286
20
-2.335098
30
0
40
0.799999999999998
210
0
220
0
230
1
100
AcDbArc
50
89.96419
51
175.156397
0
ARC
5
AF
100
AcDbEntity
8
1
62
256
6
ByLayer
370
18
48
1
60
0
100
AcDbCircle
39
0
10
0
20
2.2
30
0
40
0.799999999999998
210
0
220
0
230
1
100
AcDbArc
50
4.843603
51
90
0
ARC
5
B0
100
AcDbEntity
8
1
62
256
6
ByLayer
370
18
48
1
60
0
100
AcDbCircle
39
0
10
0
20
-2.2
30
0
40
0.799999999999998
210
0
220
0
230
1
100
AcDbArc
50
270
51
355.156397
0
ARC
5
B1
100
AcDbEntity
8
SK2
62
256
6
ByLayer
370
13
48
1
60
0
100
AcDbCircle
39
0
10
26
20
0
30
0
40
20
210
0
220
0
230
1
100
AcDbArc
50
9.606349
51
69.998494
0
ARC
5
B2
100
AcDbEntity
8
SK2
62
256
6
ByLayer
370
13
48
1
60
0
100
AcDbCircle
39
0
10
26
20
0
30
0
40
20
210
0
220
0
230
1
100
AcDbArc
50
290.001506
51
350.393651
0
ELLIPSE
5
B3
100
AcDbEntity
8
1
62
256
6
ByLayer
370
18
48
1
60
0
100
AcDbEllipse
10
7.560892
20
-1.475194
30
0
11
-0.00422640728356503
21
0.0090629731034263
31
0
210
0
220
0
230
1
40
0.451142
41
0.0917175241886502
42
1.44595695901871
0
ELLIPSE
5
B4
100
AcDbEntity
8
1
62
256
6
ByLayer
370
18
48
1
60
0
100
AcDbEllipse
10
7.602306
20
-1.467022
30
0
11
-0.000415657365400122
21
-0.00999135771327344
31
0
210
0
220
0
230
1
40
0.454387
41
-3.05432539001878
42
-1.48833465644083
0
POINT
5
70
100
AcDbEntity
8
80
62
256
6
ByLayer
370
18
48
1
60
0
100
AcDbPoint
10
0
20
0
30
0
39
0
210
0
220
0
230
1
50
360
0
POINT
5
72
100
AcDbEntity
8
81
62
256
6
ByLayer
370
18
48
1
60
0
100
AcDbPoint
10
26
20
0
30
0
39
0
210
0
220
0
230
1
50
360
0
POINT
5
74
100
AcDbEntity
8
1
62
256
6
ByLayer
370
18
48
1
60
0
100
AcDbPoint
10
-36
20
0
30
0
39
0
210
0
220
0
230
1
50
360
0
POINT
5
76
100
AcDbEntity
8
1
62
256
6
ByLayer
370
18
48
1
60
1
100
AcDbPoint
10
0
20
-3
30
0
39
0
210
0
220
0
230
1
50
360
0
POINT
5
77
100
AcDbEntity
8
1
62
256
6
ByLayer
370
18
48
1
60
1
100
AcDbPoint
10
26
20
0
30
0
39
0
210
0
220
0
230
1
50
360
0
POINT
5
78
100
AcDbEntity
8
1
62
256
6
ByLayer
370
18
48
1
60
1
100
AcDbPoint
10
25.4358
20
-1.55
30
0
39
0
210
0
220
0
230
1
50
360
0
POINT
5
79
100
AcDbEntity
8
1
62
256
6
ByLayer
370
18
48
1
60
1
100
AcDbPoint
10
25.4358
20
1.55
30
0
39
0
210
0
220
0
230
1
50
360
0
POINT
5
7A
100
AcDbEntity
8
1
62
256
6
ByLayer
370
18
48
1
60
1
100
AcDbPoint
10
-36
20
3
30
0
39
0
210
0
220
0
230
1
50
360
0
POINT
5
7B
100
AcDbEntity
8
1
62
256
6
ByLayer
370
18
48
1
60
1
100
AcDbPoint
10
-36
20
-3
30
0
39
0
210
0
220
0
230
1
50
360
0
POINT
5
7C
100
AcDbEntity
8
1
62
256
6
ByLayer
370
18
48
1
60
1
100
AcDbPoint
10
-36
20
-3
30
0
39
0
210
0
220
0
230
1
50
360
0
POINT
5
7D
100
AcDbEntity
8
1
62
256
6
ByLayer
370
18
48
1
60
1
100
AcDbPoint
10
0
20
-3
30
0
39
0
210
0
220
0
230
1
50
360
0
POINT
5
7E
100
AcDbEntity
8
1
62
256
6
ByLayer
370
18
48
1
60
1
100
AcDbPoint
10
6
20
2.05
30
0
39
0
210
0
220
0
230
1
50
360
0
POINT
5
7F
100
AcDbEntity
8
1
62
256
6
ByLayer
370
18
48
1
60
1
100
AcDbPoint
10
26
20
0
30
0
39
0
210
0
220
0
230
1
50
360
0
POINT
5
80
100
AcDbEntity
8
1
62
256
6
ByLayer
370
18
48
1
60
1
100
AcDbPoint
10
16.2
20
-1.55
30
0
39
0
210
0
220
0
230
1
50
360
0
POINT
5
81
100
AcDbEntity
8
1
62
256
6
ByLayer
370
18
48
1
60
1
100
AcDbPoint
10
26
20
0
30
0
39
0
210
0
220
0
230
1
50
360
0
POINT
5
82
100
AcDbEntity
8
1
62
256
6
ByLayer
370
18
48
1
60
1
100
AcDbPoint
10
-36
20
0
30
0
39
0
210
0
220
0
230
1
50
360
0
POINT
5
83
100
AcDbEntity
8
1
62
256
6
ByLayer
370
18
48
1
60
1
100
AcDbPoint
10
26
20
0
30
0
39
0
210
0
220
0
230
1
50
360
0
SPLINE
5
B5
100
AcDbEntity
8
1
62
256
6
ByLayer
370
18
48
1
60
0
100
AcDbSpline
70
4
71
3
72
34
73
30
40
0
40
0
40
0
40
0
40
0.130327361047965
40
0.130327361047965
40
0.195491041571948
40
0.195491041571948
40
0.228072881833939
40
0.228072881833939
40
0.260654722095931
40
0.260654722095931
40
0.390982083143894
40
0.390982083143894
40
0.423563923405885
40
0.423563923405885
40
0.456145763667877
40
0.456145763667877
40
0.521309444191859
40
0.521309444191859
40
0.651636805239825
40
0.651636805239825
40
0.716800485763807
40
0.716800485763807
40
0.78196416628779
40
0.78196416628779
40
0.912291527335753
40
0.912291527335753
40
0.977455207859734
40
0.977455207859734
40
1
40
1
40
1
40
1
41
1
10
25.3180598881684
20
-1.52768096022615
30
0
41
1
10
24.9468012171536
20
-1.49339096411788
30
0
41
1
10
24.5795154653495
20
-1.42105834214351
30
0
41
1
10
24.0263364308797
20
-1.26302993578298
30
0
41
1
10
23.8416854584355
20
-1.20193137282891
30
0
41
1
10
23.5628576813223
20
-1.09896089760755
30
1E-16
41
1
10
23.4694551197507
20
-1.06270001543723
30
1E-16
41
1
10
23.2835867319189
20
-0.987346287894781
30
1E-16
41
1
10
23.1909279321287
20
-0.948188908321782
30
1E-16
41
1
10
22.7285506446216
20
-0.745787901191903
30
0
41
1
10
22.3619492376076
20
-0.562042572786623
30
0
41
1
10
21.8993911974602
20
-0.319517056656736
30
0
41
1
10
21.8066796820803
20
-0.270346964605579
30
0
41
1
10
21.620707740268
20
-0.170924311044558
30
0
41
1
10
21.5272964475255
20
-0.120603763112285
30
0
41
1
10
21.2485490723684
20
0.0298137090559862
30
0
41
1
10
21.0639228049546
20
0.129833481591362
30
0
41
1
10
20.5113780589043
20
0.424917299910987
30
0
41
1
10
20.1449473666609
20
0.615254076669743
30
0
41
1
10
19.5883798031819
20
0.873361120236751
30
-1E-16
41
1
10
19.4013619288149
20
0.955245667484462
30
-1E-16
41
1
10
19.0310150159789
20
1.10432399891579
30
-1E-16
41
1
10
18.8467585098237
20
1.17188551877368
30
-1E-16
41
1
10
18.2945334350323
20
1.35138894176902
30
0
41
1
10
17.9274603391743
20
1.44045986258624
30
0
41
1
10
17.3689427319906
20
1.51824231561261
30
0
41
1
10
17.1824110801022
20
1.53464238122561
30
0
41
1
10
16.9320245245675
20
1.5435297386214
30
0
41
1
10
16.8676643687682
20
1.54464816732232
30
0
41
1
10
16.8032854329167
20
1.54459757794589
30
0
0
SPLINE
5
B6
100
AcDbEntity
8
1
62
256
6
ByLayer
370
18
48
1
60
0
100
AcDbSpline
70
4
71
3
72
10
73
6
40
0
40
0
40
0
40
0
40
0.480927289102314
40
0.480927289102314
40
1
40
1
40
1
40
1
41
1
10
8.63168923457621
20
-1.47569830573752
30
0
41
1
10
8.46008121954884
20
-1.50183959258038
30
0
41
1
10
8.287408199846
20
-1.52020408305134
30
0
41
1
10
7.92800038246719
20
-1.54087588141914
30
0
41
1
10
7.74168844416232
20
-1.54182477252147
30
0
41
1
10
7.55490454072327
20
-1.53303349241963
30
0
0
SPLINE
5
B7
100
AcDbEntity
8
1
62
256
6
ByLayer
370
18
48
1
60
0
100
AcDbSpline
70
4
71
3
72
8
73
4
40
0
40
0
40
0
40
0
40
1
40
1
40
1
40
1
41
1
10
25.2352563196253
20
-0.0976245709474881
30
0
41
1
10
25.2462325532716
20
-0.102131204998557
30
0
41
1
10
25.2571601745776
20
-0.106344895615081
30
0
41
1
10
25.2680462401677
20
-0.110271231174266
30
0
0
SPLINE
5
B8
100
AcDbEntity
8
1
62
256
6
ByLayer
370
18
48
1
60
0
100
AcDbSpline
70
4
71
3
72
8
73
4
40
0
40
0
40
0
40
0
40
1
40
1
40
1
40
1
41
1
10
7.55630890973177
20
-1.4663441730732
30
0
41
1
10
7.52726206465528
20
-1.48003412274397
30
0
41
1
10
7.51081322158927
20
-1.50280574290741
30
0
41
1
10
7.50475299205615
20
-1.52566354268521
30
0
0
SPLINE
5
B9
100
AcDbEntity
8
1
62
256
6
ByLayer
370
18
48
1
60
0
100
AcDbSpline
70
4
71
3
72
32
73
28
40
0
40
0
40
0
40
0
40
0.0179923964164111
40
0.0179923964164111
40
0.100144731098283
40
0.100144731098283
40
0.182297065780154
40
0.182297065780154
40
0.264449400462026
40
0.264449400462026
40
0.346601735143898
40
0.346601735143898
40
0.428754069825769
40
0.428754069825769
40
0.510906404507641
40
0.510906404507641
40
0.593058739189512
40
0.593058739189512
40
0.675211073871384
40
0.675211073871384
40
0.757363408553256
40
0.757363408553256
40
0.839515743235127
40
0.839515743235127
40
0.921668077916999
40
0.921668077916999
40
1
40
1
40
1
40
1
41
1
10
18.2448830553405
20
-1.02440553531585
30
0
41
1
10
18.2048198617284
20
-1.00958933889566
30
1E-16
41
1
10
18.1647306163806
20
-0.994456247576863
30
1E-16
41
1
10
17.9413891874947
20
-0.908582503638712
30
1E-16
41
1
10
17.7570990381575
20
-0.831623446856099
30
1E-16
41
1
10
17.3869963884626
20
-0.669139361489158
30
0
41
1
10
17.2022801798174
20
-0.584439458139059
30
0
41
1
10
16.8335386249564
20
-0.406666138088838
30
0
41
1
10
16.6494090005616
20
-0.313620653075532
30
0
41
1
10
16.2792414837615
20
-0.126050378963583
30
0
41
1
10
16.094909844029
20
-0.0323114588028375
30
0
41
1
10
15.7281637994265
20
0.155195847913944
30
0
41
1
10
15.5456184208064
20
0.248730105632291
30
0
41
1
10
15.1795166003795
20
0.430844457977628
30
0
41
1
10
14.9960608442902
20
0.519614669433139
30
0
41
1
10
14.6280454874935
20
0.691014016480125
30
0
41
1
10
14.4428314884688
20
0.773693497612442
30
0
41
1
10
14.073637819895
20
0.927312072306108
30
-1E-16
41
1
10
13.8895469068725
20
0.99880231515246
30
-1E-16
41
1
10
13.5227941813401
20
1.12776735820188
30
0
41
1
10
13.3400011717618
20
1.18537362692169
30
0
41
1
10
12.9730420608701
20
1.28553711572619
30
0
41
1
10
12.7890261400384
20
1.32803863201374
30
0
41
1
10
12.4183667142341
20
1.39774460779716
30
0
41
1
10
12.233348664095
20
1.42458427470828
30
0
41
1
10
11.8752656678164
20
1.45695708545063
30
0
41
1
10
11.7015498652424
20
1.4635621719658
30
0
41
1
10
11.5274280880939
20
1.46334357766176
30
0
0
SPLINE
5
BA
100
AcDbEntity
8
1
62
256
6
ByLayer
370
18
48
1
60
0
100
AcDbSpline
70
4
71
3
72
8
73
4
40
0
40
0
40
0
40
0
40
1
40
1
40
1
40
1
41
1
10
25.7408590448618
20
-0.175008989479465
30
0
41
1
10
25.692659848064
20
-0.0725875239008644
30
0
41
1
10
25.6364053425041
20
0.0362298073497413
30
0
41
1
10
25.571742555016
20
0.151723262796196
30
0
0
SPLINE
5
BB
100
AcDbEntity
8
1
62
256
6
ByLayer
370
18
48
1
60
0
100
AcDbSpline
70
4
71
3
72
26
73
22
40
0
40
0
40
0
40
0
40
0.140844785638612
40
0.140844785638612
40
0.281689571277225
40
0.281689571277225
40
0.422534356915838
40
0.422534356915838
40
0.492956749735144
40
0.492956749735144
40
0.56337914255445
40
0.56337914255445
40
0.704223928193063
40
0.704223928193063
40
0.845068713831675
40
0.845068713831675
40
0.915491106650981
40
0.915491106650981
40
0.985913499470288
40
0.985913499470288
40
1
40
1
40
1
40
1
41
1
10
7.64962526284759
20
-0.31800299100945
30
0
41
1
10
7.83377582983434
20
-0.415243049734499
30
0
41
1
10
8.01709168051701
20
-0.509258429015745
30
0
41
1
10
8.3827960507233
20
-0.689857038794401
30
0
41
1
10
8.56480009005273
20
-0.777047407277252
30
0
41
1
10
8.93009625426362
20
-0.940176765732929
30
1E-16
41
1
10
9.11330766316595
20
-1.01630806073072
30
1E-16
41
1
10
9.38956572844182
20
-1.12135861894089
30
1E-16
41
1
10
9.48209323305838
20
-1.15494958552765
30
1E-16
41
1
10
9.66626924540248
20
-1.21845021713028
30
0
41
1
10
9.75800313348935
20
-1.2483014451067
30
0
41
1
10
10.0329439172391
20
-1.33137785733302
30
0
41
1
10
10.2157256323031
20
-1.37839179868871
30
0
41
1
10
10.5808926323386
20
-1.45550767634589
30
0
41
1
10
10.7630000348473
20
-1.48568685364532
30
0
41
1
10
11.037646341937
20
-1.51691258130535
30
0
41
1
10
11.1294562103979
20
-1.52500181247228
30
0
41
1
10
11.3135916129224
20
-1.5365262559686
30
0
41
1
10
11.4061424176893
20
-1.53995902272541
30
0
41
1
10
11.5167976184733
20
-1.54119656913574
30
0
41
1
10
11.5352237687168
20
-1.54130598426954
30
0
41
1
10
11.5536331157639
20
-1.54131901971689
30
0
0
SPLINE
5
BC
100
AcDbEntity
8
1
62
256
6
ByLayer
370
18
48
1
60
0
100
AcDbSpline
70
4
71
3
72
28
73
24
40
0
40
0
40
0
40
0
40
0.0092605355793173
40
0.0092605355793173
40
0.108334482021387
40
0.108334482021387
40
0.207408428463456
40
0.207408428463456
40
0.306482374905526
40
0.306482374905526
40
0.405556321347595
40
0.405556321347595
40
0.504630267789664
40
0.504630267789664
40
0.603704214231734
40
0.603704214231734
40
0.702778160673804
40
0.702778160673804
40
0.752315133894837
40
0.752315133894837
40
0.80185210711587
40
0.80185210711587
40
1
40
1
40
1
40
1
41
1
10
19.6956966506232
20
1.47765931261421
30
0
41
1
10
19.7129213381975
20
1.48040881283907
30
0
41
1
10
19.7301373132964
20
1.48307467458602
30
0
41
1
10
19.931363731687
20
1.51326927816913
30
0
41
1
10
20.1145668942728
20
1.53147303093161
30
0
41
1
10
20.4790863761089
20
1.54947818684789
30
0
41
1
10
20.6605157271103
20
1.54904912739579
30
0
41
1
10
21.0249191090267
20
1.52948407934213
30
0
41
1
10
21.2075590484345
20
1.51042239398183
30
0
41
1
10
21.5746491950065
20
1.45367022303
30
0
41
1
10
21.7594849300765
20
1.41551808316319
30
0
41
1
10
22.126236860158
20
1.32349998020212
30
0
41
1
10
22.3087486366261
20
1.26948330974253
30
0
41
1
10
22.6728514618916
20
1.14649321090096
30
-1E-16
41
1
10
22.8544609300309
20
1.07746599539357
30
-1E-16
41
1
10
23.2192854064388
20
0.927669624469843
30
-1E-16
41
1
10
23.4022529907318
20
0.846613163640569
30
-1E-16
41
1
10
23.6782480143423
20
0.716524936633959
30
0
41
1
10
23.7705810374011
20
0.671651987492908
30
0
41
1
10
23.9543732275835
20
0.580458738429599
30
0
41
1
10
24.0460796711146
20
0.534116124169032
30
0
41
1
10
24.5040924147078
20
0.299491332291836
30
0
41
1
10
24.8680413117971
20
0.101033438955426
30
0
41
1
10
25.2352563196254
20
-0.0976245709475165
30
0
0
SPLINE
5
BD
100
AcDbEntity
8
1
62
256
6
ByLayer
370
18
48
1
60
0
100
AcDbSpline
70
4
71
3
72
18
73
14
40
0
40
0
40
0
40
0
40
0.479371469229977
40
0.479371469229977
40
0.684708388732153
40
0.684708388732153
40
0.770389368762814
40
0.770389368762814
40
0.857117328510235
40
0.857117328510235
40
0.935630850722487
40
0.935630850722487
40
1
40
1
40
1
40
1
41
1
10
25.4196057288688
20
1.46919257508983
30
0
41
1
10
25.4221897126335
20
1.46766996413857
30
0
41
1
10
25.4249924030257
20
1.46594772985753
30
0
41
1
10
25.4290086833569
20
1.46327380790527
30
0
41
1
10
25.4302624156786
20
1.4624103511683
30
0
41
1
10
25.4318597127908
20
1.4612249660309
30
0
41
1
10
25.4323173810262
20
1.46087264709877
30
0
41
1
10
25.4331194291914
20
1.46021852716962
30
0
41
1
10
25.4334708905409
20
1.45990973127348
30
0
41
1
10
25.4339598840187
20
1.4594248935411
30
0
41
1
10
25.4341206797704
20
1.45923312964629
30
0
41
1
10
25.4342792624065
20
1.45897021367281
30
0
41
1
10
25.4343035831147
20
1.45888071625063
30
0
41
1
10
25.434290000451
20
1.45881703307433
30
0
0
SPLINE
5
BE
100
AcDbEntity
8
1
62
256
6
ByLayer
370
18
48
1
60
0
100
AcDbSpline
70
4
71
3
72
16
73
12
40
0
40
0
40
0
40
0
40
0.0846574046167985
40
0.0846574046167985
40
0.389771603077866
40
0.389771603077866
40
0.694885801538933
40
0.694885801538933
40
0.847442900769466
40
0.847442900769466
40
1
40
1
40
1
40
1
41
1
10
25.3661704252692
20
0.231294633925131
30
0
41
1
10
25.3635479999814
20
0.236128548439524
30
0
41
1
10
25.3617476538782
20
0.2412154093075
30
0
41
1
10
25.3574411096784
20
0.265684712506754
30
0
41
1
10
25.3650055271441
20
0.288821886406083
30
0
41
1
10
25.4006626833507
20
0.339792144288538
30
0
41
1
10
25.429240620166
20
0.367556091328367
30
0
41
1
10
25.4837821939906
20
0.402974210544045
30
0
41
1
10
25.5039759298871
20
0.413708847729538
30
0
41
1
10
25.5472505821448
20
0.431254381414732
30
0
41
1
10
25.5698084226524
20
0.437890451255584
30
0
41
1
10
25.5932528765728
20
0.442293004787871
30
0
0
SPLINE
5
BF
100
AcDbEntity
8
1
62
256
6
ByLayer
370
18
48
1
60
0
100
AcDbSpline
70
4
71
3
72
8
73
4
40
0
40
0
40
0
40
0
40
1
40
1
40
1
40
1
41
1
10
25.3180598881694
20
1.5276809602172
30
0
41
1
10
25.3518008390203
20
1.50870832851854
30
0
41
1
10
25.3856416119248
20
1.48920591151852
30
0
41
1
10
25.4196057288689
20
1.46919257508944
30
0
0
SPLINE
5
C0
100
AcDbEntity
8
1
62
256
6
ByLayer
370
18
48
1
60
0
100
AcDbSpline
70
4
71
3
72
8
73
4
40
0
40
0
40
0
40
0
40
1
40
1
40
1
40
1
41
1
10
25.9977439238424
20
0.110035870273492
30
0
41
1
10
25.9892641725555
20
0.0813601389652945
30
0
41
1
10
25.9807318173482
20
0.0527013826630878
30
0
41
1
10
25.9721471051417
20
0.0240595216867803
30
0
0
SPLINE
5
C1
100
AcDbEntity
8
1
62
256
6
ByLayer
370
18
48
1
60
0
100
AcDbSpline
70
4
71
3
72
8
73
4
40
0
40
0
40
0
40
0
40
1
40
1
40
1
40
1
41
1
10
7.59774688808986
20
-1.46765652395928
30
0
41
1
10
7.58339761110352
20
-1.46710447831728
30
0
41
1
10
7.56934292280536
20
-1.46984723756168
30
0
41
1
10
7.55630890973177
20
-1.4759578123583
30
0
0
SPLINE
5
C2
100
AcDbEntity
8
1
62
256
6
ByLayer
370
18
48
1
60
0
100
AcDbSpline
70
4
71
3
72
17
73
13
40
0
40
0
40
0
40
0
40
0.500000000000118
40
0.500000000000118
40
0.750000000000138
40
0.750000000000138
40
0.875000000000108
40
0.937500000000094
40
0.937500000000094
40
0.968750000000047
40
0.968750000000047
40
1
40
1
40
1
40
1
41
1
10
25.3237354690148
20
1.54936984602111
30
0
41
1
10
25.3485318975754
20
1.53325649511527
30
0
41
1
10
25.373380566838
20
1.51688295691002
30
0
41
1
10
25.4107760030673
20
1.49192423435434
30
0
41
1
10
25.4232731918638
20
1.48353065254079
30
0
41
1
10
25.4420212827264
20
1.47086386151813
30
0
41
1
10
25.4513936349383
20
1.4645128097072
30
0
41
1
10
25.4607465278552
20
1.45814591099284
30
0
41
1
10
25.465418113925
20
1.45496074277653
30
0
41
1
10
25.4669723825701
20
1.4539000855381
30
0
41
1
10
25.4700890743534
20
1.45177193568108
30
0
41
1
10
25.4720931545918
20
1.45041697673398
30
0
41
1
10
25.4731102097733
20
1.4497038174901
30
0
0
SPLINE
5
C3
100
AcDbEntity
8
1
62
256
6
ByLayer
370
18
48
1
60
0
100
AcDbSpline
70
4
71
3
72
12
73
8
40
0
40
0
40
0
40
0
40
0.358294723841421
40
0.358294723841421
40
0.716589447682841
40
0.716589447682841
40
1
40
1
40
1
40
1
41
1
10
7.64800024548919
20
-0.303325996999291
30
0
41
1
10
7.83275789517432
20
-0.396743174369078
30
0
41
1
10
8.01751955150618
20
-0.487365179692517
30
0
41
1
10
8.38788318483995
20
-0.661994647788845
30
0
41
1
10
8.57175087389439
20
-0.746456030944699
30
0
41
1
10
8.89989472855191
20
-0.886471755031977
30
1E-16
41
1
10
9.04450466724634
20
-0.944484361067225
30
1E-16
41
1
10
9.18902447302989
20
-0.998710577409753
30
0
0
SPLINE
5
C4
100
AcDbEntity
8
1
62
256
6
ByLayer
370
18
48
1
60
0
100
AcDbSpline
70
4
71
3
72
28
73
24
40
0
40
0
40
0
40
0
40
0.0318418119414967
40
0.0318418119414967
40
0.0856283779447483
40
0.0856283779447483
40
0.139414943948
40
0.139414943948
40
0.2469880759545
40
0.2469880759545
40
0.354561207961
40
0.354561207961
40
0.4621343399675
40
0.4621343399675
40
0.569707471974
40
0.569707471974
40
0.6772806039805
40
0.6772806039805
40
0.784853735987
40
0.784853735987
40
0.8924268679935
40
0.8924268679935
40
1
40
1
40
1
40
1
41
1
10
20.1616442509262
20
1.46409023659626
30
0
41
1
10
20.2162508837668
20
1.46779775905961
30
0
41
1
10
20.2708160071314
20
1.47077337112069
30
0
41
1
10
20.4174367225208
20
1.47697977729303
30
0
41
1
10
20.5093823714578
20
1.47908314369357
30
0
41
1
10
20.6935742407379
20
1.47831326821429
30
0
41
1
10
20.7858560696278
20
1.4753036501634
30
0
41
1
10
21.0633130054183
20
1.45908432388373
30
0
41
1
10
21.2476592706649
20
1.43875362146582
30
0
41
1
10
21.6135480554611
20
1.38193204139702
30
0
41
1
10
21.7954010935878
20
1.34567551666359
30
0
41
1
10
22.159170180663
20
1.25619497849905
30
0
41
1
10
22.34096963493
20
1.20351531390062
30
0
41
1
10
22.7050617532206
20
1.08442339745935
30
-1E-16
41
1
10
22.8873827354935
20
1.01797621696039
30
-1E-16
41
1
10
23.255098254121
20
0.871781897412745
30
-1E-16
41
1
10
23.4409165511967
20
0.792077420542711
30
0
41
1
10
23.808554573606
20
0.625330460048275
30
0
41
1
10
23.9911430062605
20
0.538000193581297
30
0
41
1
10
24.3558916992396
20
0.358479370567949
30
0
41
1
10
24.537938294078
20
0.266291113470032
30
0
41
1
10
24.9024002181062
20
0.0793307701942751
30
0
41
1
10
25.0847696601211
20
-0.0155129071129068
30
0
41
1
10
25.268046240176
20
-0.110271231178899
30
0
0
SPLINE
5
C5
100
AcDbEntity
8
1
62
256
6
ByLayer
370
18
48
1
60
0
100
AcDbSpline
70
4
71
3
72
24
73
20
40
0
40
0
40
0
40
0
40
0.09768487844543
40
0.09768487844543
40
0.19536975689086
40
0.19536975689086
40
0.390739513781716
40
0.390739513781716
40
0.488424392227144
40
0.488424392227144
40
0.586109270672572
40
0.586109270672572
40
0.781479027563428
40
0.781479027563428
40
0.879163906008854
40
0.879163906008854
40
0.97684878445428
40
0.97684878445428
40
1
40
1
40
1
40
1
41
1
10
12.2
20
-0.161296481958459
30
0
41
1
10
12.3377588589616
20
-0.235012435675799
30
0
41
1
10
12.4756891066745
20
-0.308308397060984
30
0
41
1
10
12.7504618068213
20
-0.451775605093786
30
0
41
1
10
12.8873620766547
20
-0.521978203517534
30
0
41
1
10
13.2976019990514
20
-0.726288857319247
30
0
41
1
10
13.5705138867002
20
-0.854042505256018
30
1E-16
41
1
10
13.9827098039086
20
-1.02683441878733
30
1E-16
41
1
10
14.120685950858
20
-1.0813164529487
30
1E-16
41
1
10
14.3945715918788
20
-1.18171693581337
30
0
41
1
10
14.5309329184555
20
-1.22783176145626
30
0
41
1
10
14.9392338441867
20
-1.35302790516619
30
0
41
1
10
15.2103991555552
20
-1.41896309508547
30
0
41
1
10
15.6190640007693
20
-1.48850455343907
30
0
41
1
10
15.7556089762718
20
-1.50678570681632
30
0
41
1
10
16.0300009742216
20
-1.5330103922411
30
0
41
1
10
16.1680075064978
20
-1.54091061898723
30
0
41
1
10
16.3373768892789
20
-1.54404311968739
30
0
41
1
10
16.3697943794755
20
-1.54434577825978
30
0
41
1
10
16.4021834401787
20
-1.54435251044958
30
0
0
SPLINE
5
C6
100
AcDbEntity
8
1
62
256
6
ByLayer
370
18
48
1
60
0
100
AcDbSpline
70
4
71
3
72
8
73
4
40
0
40
0
40
0
40
0
40
1
40
1
40
1
40
1
41
1
10
25.8588417657213
20
-0.510392408091121
30
0
41
1
10
25.9063663415994
20
-0.377379048201533
30
0
41
1
10
25.9526729763333
20
-0.243928989908568
30
0
41
1
10
25.9977439238518
20
-0.110035870276732
30
0
0
SPLINE
5
C7
100
AcDbEntity
8
1
62
256
6
ByLayer
370
18
48
1
60
0
100
AcDbSpline
70
4
71
3
72
20
73
16
40
0
40
0
40
0
40
0
40
0.125
40
0.125
40
0.25
40
0.25
40
0.375
40
0.375
40
0.5
40
0.5
40
0.75
40
0.75
40
0.875
40
0.875
40
1
40
1
40
1
40
1
41
1
10
7.50475299205871
20
-1.52566354267424
30
0
41
1
10
7.50475614157142
20
-1.51567037858859
30
0
41
1
10
7.50475883743678
20
-1.49989747963266
30
0
41
1
10
7.5047635484359
20
-1.45787706811672
30
0
41
1
10
7.50476558170107
20
-1.43161802502112
30
0
41
1
10
7.504769344973
20
-1.36867341015997
30
0
41
1
10
7.50477108778119
20
-1.3316344755809
30
0
41
1
10
7.50477449771398
20
-1.24835008800099
30
0
41
1
10
7.50477616054917
20
-1.20236964117774
30
0
41
1
10
7.50478138592587
20
-1.05173357754774
30
1E-16
41
1
10
7.50478529315222
20
-0.932554194245625
30
1E-16
41
1
10
7.50479201226625
20
-0.738711698035388
30
0
41
1
10
7.50479439186142
20
-0.671299218266142
30
0
41
1
10
7.50479939400878
20
-0.530747464517162
30
0
41
1
10
7.5048020135705
20
-0.457692499537643
30
0
41
1
10
7.50480461926787
20
-0.383497183272169
30
0
0
SPLINE
5
C8
100
AcDbEntity
8
1
62
256
6
ByLayer
370
18
48
1
60
0
100
AcDbSpline
70
4
71
3
72
8
73
4
40
0
40
0
40
0
40
0
40
1
40
1
40
1
40
1
41
1
10
7.50534535428054
20
-1.52625418015094
30
0
41
1
10
7.5049590196891
20
-1.52606409349963
30
0
41
1
10
7.50475292881515
20
-1.52586420990409
30
0
41
1
10
7.50475299205871
20
-1.52566354267563
30
0
0
SPLINE
5
C9
100
AcDbEntity
8
1
62
256
6
ByLayer
370
18
48
1
60
0
100
AcDbSpline
70
4
71
3
72
8
73
4
40
0
40
0
40
0
40
0
40
1
40
1
40
1
40
1
41
1
10
25.4801794834088
20
1.44489759907307
30
0
41
1
10
25.4764476411378
20
1.44777346914609
30
0
41
1
10
25.4729686981797
20
1.45002673152274
30
0
41
1
10
25.4697201176675
20
1.45166684351602
30
0
0
SPLINE
5
CA
100
AcDbEntity
8
1
62
256
6
ByLayer
370
18
48
1
60
0
100
AcDbSpline
70
4
71
3
72
10
73
6
40
0
40
0
40
0
40
0
40
0.354264342599299
40
0.354264342599299
40
1
40
1
40
1
40
1
41
1
10
25.4607240884592
20
1.45474480310045
30
0
41
1
10
25.4539155726038
20
1.45579686447474
30
0
41
1
10
25.4483246079628
20
1.45331532841527
30
0
41
1
10
25.435078873805
20
1.43671406273839
30
0
41
1
10
25.4291600819246
20
1.41467289947971
30
0
41
1
10
25.423616242217
20
1.38444119543283
30
0
0
SPLINE
5
CB
100
AcDbEntity
8
1
62
256
6
ByLayer
370
18
48
1
60
0
100
AcDbSpline
70
4
71
3
72
18
73
14
40
0
40
0
40
0
40
0
40
0.161628797760977
40
0.161628797760977
40
0.323257595521955
40
0.323257595521955
40
0.484886393282932
40
0.484886393282932
40
0.64651519104391
40
0.64651519104391
40
0.969772786565865
40
0.969772786565865
40
1
40
1
40
1
40
1
41
1
10
25.9721471051417
20
0.0240595216867803
30
0
41
1
10
25.9651115688521
20
0.0005863000513386
30
0
41
1
10
25.9570654193588
20
-0.0223835315871952
30
0
41
1
10
25.9388732969662
20
-0.0672463680337501
30
0
41
1
10
25.9286387374216
20
-0.0892291598759982
30
0
41
1
10
25.9071553408987
20
-0.129262681358682
30
0
41
1
10
25.8955786529346
20
-0.147945713596073
30
0
41
1
10
25.8720069457029
20
-0.180057783657446
30
0
41
1
10
25.8602377987484
20
-0.193286007267687
30
0
41
1
10
25.8248789709813
20
-0.224017241007488
30
0
41
1
10
25.8034216250937
20
-0.230228303420318
30
0
41
1
10
25.7836394353931
20
-0.223549429274868
30
0
41
1
10
25.7819792430591
20
-0.222876513499415
30
0
41
1
10
25.7803496714875
20
-0.222105188274782
30
0
0
SPLINE
5
CC
100
AcDbEntity
8
1
62
256
6
ByLayer
370
18
48
1
60
0
100
AcDbSpline
70
4
71
3
72
8
73
4
40
0
40
0
40
0
40
0
40
1
40
1
40
1
40
1
41
1
10
25.7611022528119
20
-0.207121726004857
30
0
41
1
10
25.7535960514794
20
-0.19871140456209
30
0
41
1
10
25.7468911007487
20
-0.187826879515541
30
0
41
1
10
25.7408590448619
20
-0.175008989479437
30
0
0
SPLINE
5
CD
100
AcDbEntity
8
1
62
256
6
ByLayer
370
18
48
1
60
0
100
AcDbSpline
70
4
71
3
72
26
73
22
40
0
40
0
40
0
40
0
40
0.116110316484673
40
0.116110316484673
40
0.232220632969347
40
0.232220632969347
40
0.348330949454021
40
0.348330949454021
40
0.464441265938695
40
0.464441265938695
40
0.580551582423369
40
0.580551582423369
40
0.696661898908043
40
0.696661898908043
40
0.812772215392716
40
0.812772215392716
40
0.92888253187739
40
0.92888253187739
40
0.986937690119727
40
0.986937690119727
40
1
40
1
40
1
40
1
41
1
10
25.2733097931796
20
-0.123361494396931
30
0
41
1
10
25.0899045132414
20
-0.0292448579998279
30
0
41
1
10
24.9074081793526
20
0.0650387376206538
30
0
41
1
10
24.5427123746031
20
0.251051353550594
30
0
41
1
10
24.3605559034635
20
0.342846939805725
30
0
41
1
10
23.9956167666996
20
0.521774936851187
30
0
41
1
10
23.8129428779423
20
0.608904331879472
30
0
41
1
10
23.4451735189798
20
0.775386520858859
30
0
41
1
10
23.2592804584888
20
0.855065704353279
30
-1E-16
41
1
10
22.8912911393161
20
1.00146998646673
30
-1E-16
41
1
10
22.7088252126353
20
1.06813670283154
30
-1E-16
41
1
10
22.3444731787733
20
1.18776364894202
30
0
41
1
10
22.1625512970655
20
1.24080407092117
30
0
41
1
10
21.7985538375471
20
1.33118053907876
30
0
41
1
10
21.6165939584339
20
1.36797807063354
30
0
41
1
10
21.2505340069401
20
1.42594092577758
30
0
41
1
10
21.0661729564396
20
1.44694798540922
30
0
41
1
10
20.7885569860613
20
1.46428885058572
30
0
41
1
10
20.6962220805555
20
1.46770101344322
30
0
41
1
10
20.5833388399035
20
1.46867535948965
30
0
41
1
10
20.5626129273981
20
1.46872776548898
30
0
41
1
10
20.5418912489468
20
1.46866170553577
30
0
0
SPLINE
5
CE
100
AcDbEntity
8
1
62
256
6
ByLayer
370
18
48
1
60
0
100
AcDbSpline
70
4
71
3
72
12
73
8
40
0
40
0
40
0
40
0
40
0.28507587928158
40
0.28507587928158
40
0.64253793964079
40
0.64253793964079
40
1
40
1
40
1
40
1
41
1
10
9.18884981188691
20
-1.00005194381677
30
0
41
1
10
9.0430558553588
20
-0.94610029155649
30
1E-16
41
1
10
8.89717605017191
20
-0.888293445568991
30
1E-16
41
1
10
8.56765897536275
20
-0.749219056899847
30
0
41
1
10
8.38368477224807
20
-0.665577093377209
30
0
41
1
10
8.01314713413564
20
-0.492509803391926
30
0
41
1
10
7.82829734551831
20
-0.402622757135902
30
0
41
1
10
7.64344573871824
20
-0.309899733380689
30
0
0
SPLINE
5
CF
100
AcDbEntity
8
1
62
256
6
ByLayer
370
18
48
1
60
0
100
AcDbSpline
70
4
71
3
72
10
73
6
40
0
40
0
40
0
40
0
40
0.5
40
0.5
40
1
40
1
40
1
40
1
41
1
10
25.4801794834088
20
-1.44489759907307
30
0
41
1
10
25.4637237089853
20
-1.45757891456196
30
0
41
1
10
25.4521853595134
20
-1.45815412114945
30
0
41
1
10
25.4350788738051
20
-1.43671406273853
30
0
41
1
10
25.4291600819247
20
-1.41467289948
30
0
41
1
10
25.4236162422171
20
-1.38444119543325
30
0
0
SPLINE
5
D0
100
AcDbEntity
8
1
62
256
6
ByLayer
370
18
48
1
60
0
100
AcDbSpline
70
4
71
3
72
18
73
14
40
0
40
0
40
0
40
0
40
0.249999999999999
40
0.249999999999999
40
0.375
40
0.375
40
0.5
40
0.5
40
0.625
40
0.625
40
0.75
40
0.75
40
1
40
1
40
1
40
1
41
1
10
25.2733097942232
20
-0.123361494301008
30
0
41
1
10
25.2800215048019
20
-0.264332952140535
30
0
41
1
10
25.2943824873864
20
-0.39973975155138
30
0
41
1
10
25.3186948903416
20
-0.595515722358783
30
0
41
1
10
25.3272972309738
20
-0.659382841344154
30
0
41
1
10
25.3439976324116
20
-0.780730728158289
30
0
41
1
10
25.3521628505539
20
-0.838739745693687
30
1E-16
41
1
10
25.3675089020691
20
-0.949457959250907
30
1E-16
41
1
10
25.3747389996881
20
-1.00255419726878
30
1E-16
41
1
10
25.3876260831615
20
-1.10064841490643
30
0
41
1
10
25.3933035559391
20
-1.14576237120284
30
0
41
1
10
25.408450513392
20
-1.26947819475879
30
0
41
1
10
25.4159121301823
20
-1.3369667633832
30
0
41
1
10
25.4236162422172
20
-1.3844411954332
30
0
0
SPLINE
5
D1
100
AcDbEntity
8
1
62
256
6
ByLayer
370
18
48
1
60
0
100
AcDbSpline
70
4
71
3
72
28
73
24
40
0
40
0
40
0
40
0
40
0.047296861693546
40
0.047296861693546
40
0.12976783072284
40
0.12976783072284
40
0.294709768781428
40
0.294709768781428
40
0.377180737810723
40
0.377180737810723
40
0.459651706840019
40
0.459651706840019
40
0.624593644898611
40
0.624593644898611
40
0.707064613927908
40
0.707064613927908
40
0.789535582957205
40
0.789535582957205
40
0.872006551986501
40
0.872006551986501
40
0.954477521015797
40
0.954477521015797
40
1
40
1
40
1
40
1
41
1
10
10.0717495757997
20
1.03629186355354
30
-1E-16
41
1
10
10.178407789034
20
0.99786569913212
30
-1E-16
41
1
10
10.2853555330782
20
0.957138762074834
30
-1E-16
41
1
10
10.5799598943418
20
0.839545163341427
30
-1E-16
41
1
10
10.7664106453273
20
0.759455908273964
30
0
41
1
10
11.322940658518
20
0.507664703470596
30
0
41
1
10
11.6909456751151
20
0.323426845890793
30
0
41
1
10
12.2476171675005
20
0.0401274844367094
30
0
41
1
10
12.4344251372322
20
-0.055831715926189
30
0
41
1
10
12.8086182052543
20
-0.246094033117259
30
0
41
1
10
12.9944958151075
20
-0.339707703912353
30
0
41
1
10
13.5507434574643
20
-0.611787206131311
30
0
41
1
10
13.9198960057294
20
-0.781179298587659
30
0
41
1
10
14.4789903339496
20
-1.00310431008077
30
1E-16
41
1
10
14.6667602500328
20
-1.07141720090178
30
1E-16
41
1
10
15.0391034560574
20
-1.19258311996126
30
0
41
1
10
15.2243520501015
20
-1.24576201812709
30
0
41
1
10
15.5945070028288
20
-1.33598500266368
30
0
41
1
10
15.7795434819779
20
-1.3729714241486
30
0
41
1
10
16.1508147257058
20
-1.42943793561082
30
0
41
1
10
16.3372601920322
20
-1.44898461142051
30
0
41
1
10
16.6277221981603
20
-1.46471388929243
30
0
41
1
10
16.7308290104909
20
-1.46747564512197
30
0
41
1
10
16.8338454040604
20
-1.4674041430375
30
0
0
SPLINE
5
D2
100
AcDbEntity
8
1
62
256
6
ByLayer
370
18
48
1
60
0
100
AcDbSpline
70
4
71
3
72
8
73
4
40
0
40
0
40
0
40
0
40
1
40
1
40
1
40
1
41
1
10
25.3300831108152
20
1.45057288672282
30
0
41
1
10
25.3647853616206
20
1.45364277574774
30
0
41
1
10
25.3995195516862
20
1.45639224559665
30
0
41
1
10
25.4342900004508
20
1.45881703307333
30
0
0
SPLINE
5
D3
100
AcDbEntity
8
1
62
256
6
ByLayer
370
18
48
1
60
0
100
AcDbSpline
70
4
71
3
72
8
73
4
40
0
40
0
40
0
40
0
40
1
40
1
40
1
40
1
41
1
10
25.8588417657213
20
0.510392408091121
30
0
41
1
10
25.9063663416003
20
0.377379048199202
30
0
41
1
10
25.9526729763349
20
0.243928989903878
30
0
41
1
10
25.9977439238542
20
0.110035870269684
30
0
0
SPLINE
5
D4
100
AcDbEntity
8
1
62
256
6
ByLayer
370
18
48
1
60
0
100
AcDbSpline
70
4
71
3
72
34
73
30
40
0
40
0
40
0
40
0
40
0.0201243090183345
40
0.0201243090183345
40
0.100300620444213
40
0.100300620444213
40
0.180476931870092
40
0.180476931870092
40
0.260653243295971
40
0.260653243295971
40
0.34082955472185
40
0.34082955472185
40
0.421005866147729
40
0.421005866147729
40
0.501182177573607
40
0.501182177573607
40
0.581358488999486
40
0.581358488999486
40
0.661534800425365
40
0.661534800425365
40
0.741711111851244
40
0.741711111851244
40
0.821887423277122
40
0.821887423277122
40
0.902063734703001
40
0.902063734703001
40
0.98224004612888
40
0.98224004612888
40
1
40
1
40
1
40
1
41
1
10
11.3668772427463
20
1.47035504491262
30
0
41
1
10
11.4127197702604
20
1.47179975896177
30
0
41
1
10
11.4585484953461
20
1.47270285731628
30
0
41
1
10
11.6869092136284
20
1.47465239181247
30
0
41
1
10
11.8689102008314
20
1.46878049262764
30
0
41
1
10
12.2353019517175
20
1.43674665650428
30
0
41
1
10
12.4202054017127
20
1.41038697521898
30
0
41
1
10
12.7907127722294
20
1.34146512631597
30
0
41
1
10
12.9746299105857
20
1.29927662042598
30
0
41
1
10
13.3413890702618
20
1.19962697170754
30
0
41
1
10
13.5240645697745
20
1.1421850162225
30
0
41
1
10
13.8906068927331
20
1.0134472397493
30
-1E-16
41
1
10
14.0745977335818
20
0.941977302961902
30
-1E-16
41
1
10
14.4435742532459
20
0.788177904638928
30
0
41
1
10
14.6286987489962
20
0.705317281718379
30
0
41
1
10
14.9965486562328
20
0.53344169697246
30
0
41
1
10
15.1799152851904
20
0.444354345564847
30
0
41
1
10
15.5458000193437
20
0.261422396524807
30
0
41
1
10
15.7282260679424
20
0.16741176339994
30
0
41
1
10
16.0947428379055
20
-0.021181557488319
30
0
41
1
10
16.2789681164951
20
-0.115532142107583
30
0
41
1
10
16.6489186286094
20
-0.304484275090175
30
0
41
1
10
16.8329862488296
20
-0.398309597433126
30
0
41
1
10
17.2015409502543
20
-0.577709510712083
30
0
41
1
10
17.3861658058119
20
-0.663257590121447
30
0
41
1
10
17.7560692051081
20
-0.827511472396509
30
1E-16
41
1
10
17.9403103444651
20
-0.905424320021041
30
1E-16
41
1
10
18.1639954117863
20
-0.992623859947059
30
1E-16
41
1
10
18.204520299216
20
-1.00813606002981
30
1E-16
41
1
10
18.2450181398394
20
-1.02332486326793
30
0
0
SPLINE
5
D5
100
AcDbEntity
8
1
62
256
6
ByLayer
370
18
48
1
60
0
100
AcDbSpline
70
4
71
3
72
18
73
14
40
0
40
0
40
0
40
0
40
0.125
40
0.125
40
0.25
40
0.25
40
0.5
40
0.5
40
0.625
40
0.625
40
0.75
40
0.75
40
1
40
1
40
1
40
1
41
1
10
7.60251079820836
20
-0.30013723949645
30
0
41
1
10
7.6025005433589
20
-0.377361412332306
30
0
41
1
10
7.60249009924962
20
-0.453402408411563
30
0
41
1
10
7.6024702261567
20
-0.599614009355832
30
0
41
1
10
7.60246079962161
20
-0.669767661503442
30
0
41
1
10
7.60243460648169
20
-0.871535170653345
30
1E-16
41
1
10
7.60242007798388
20
-0.995680264723489
30
1E-16
41
1
10
7.60240210979424
20
-1.15083490947234
30
0
41
1
10
7.60239668981538
20
-1.19729695189764
30
0
41
1
10
7.60238585276105
20
-1.27995041837056
30
0
41
1
10
7.60238040249078
20
-1.31633041102927
30
0
41
1
10
7.60236205714102
20
-1.40792525077404
30
0
41
1
10
7.60234756546294
20
-1.44479404010249
30
0
41
1
10
7.60232403066115
20
-1.45705198276446
30
0
0
SPLINE
5
D6
100
AcDbEntity
8
1
62
256
6
ByLayer
370
18
48
1
60
0
100
AcDbSpline
70
4
71
3
72
24
73
20
40
0
40
0
40
0
40
0
40
0.178611314842244
40
0.178611314842244
40
0.267916972263366
40
0.267916972263366
40
0.312569800973927
40
0.312569800973927
40
0.357222629684488
40
0.357222629684488
40
0.535833944526739
40
0.535833944526739
40
0.714445259368991
40
0.714445259368991
40
0.893056574211243
40
0.893056574211243
40
0.982362231632369
40
0.982362231632369
40
1
40
1
40
1
40
1
41
1
10
25.4196057288892
20
-1.46919257509126
30
0
41
1
10
25.0480534323479
20
-1.44357065603586
30
0
41
1
10
24.6806166104917
20
-1.38060322468493
30
0
41
1
10
24.1276598377354
20
-1.23792730754513
30
0
41
1
10
23.9431135579305
20
-1.18235452292348
30
0
41
1
10
23.6648662602069
20
-1.08789497714778
30
1E-16
41
1
10
23.5718479112383
20
-1.05456161066439
30
1E-16
41
1
10
23.3850886609029
20
-0.984400108195757
30
1E-16
41
1
10
23.2914513778611
20
-0.947601580179793
30
1E-16
41
1
10
22.8260890420295
20
-0.757613557641747
30
0
41
1
10
22.4591399373445
20
-0.584568860025968
30
0
41
1
10
21.7237212544405
20
-0.218892896332932
30
0
41
1
10
21.3554690468353
20
-0.0257956344645152
30
0
41
1
10
20.6067633795751
20
0.358504296439179
30
0
41
1
10
20.235694961289
20
0.544947831231241
30
0
41
1
10
19.6744850572499
20
0.798370263921868
30
0
41
1
10
19.4879639654634
20
0.877974293747968
30
-1E-16
41
1
10
19.2660551152083
20
0.965736121715537
30
-1E-16
41
1
10
19.2294837390206
20
0.979962197088099
30
-1E-16
41
1
10
19.1929337750676
20
0.993933006530341
30
-1E-16
0
SPLINE
5
D7
100
AcDbEntity
8
1
62
256
6
ByLayer
370
18
48
1
60
0
100
AcDbSpline
70
4
71
3
72
10
73
6
40
0
40
0
40
0
40
0
40
0.683231611619219
40
0.683231611619219
40
1
40
1
40
1
40
1
41
1
10
17.4608464127018
20
1.43917508877092
30
0
41
1
10
17.1453315748505
20
1.47604934261056
30
0
41
1
10
16.8310704581658
20
1.4862302154026
30
0
41
1
10
16.3683176194599
20
1.4620181128121
30
0
41
1
10
16.222205380621
20
1.44853369750643
30
0
41
1
10
16.0765735795975
20
1.42958457802649
30
0
0
SPLINE
5
D8
100
AcDbEntity
8
1
62
256
6
ByLayer
370
18
48
1
60
0
100
AcDbSpline
70
4
71
3
72
10
73
6
40
0
40
0
40
0
40
0
40
0.204903543487104
40
0.204903543487104
40
1
40
1
40
1
40
1
41
1
10
8.3037017115156
20
-1.4496846338846
30
0
41
1
10
8.25551457094826
20
-1.45395092950878
30
0
41
1
10
8.20729752422062
20
-1.45761249718893
30
0
41
1
10
7.97193666889126
20
-1.47248727470108
30
0
41
1
10
7.78507496167154
20
-1.4748634129711
30
0
41
1
10
7.59774688808989
20
-1.46765652395928
30
0
0
SPLINE
5
D9
100
AcDbEntity
8
1
62
256
6
ByLayer
370
18
48
1
60
0
100
AcDbSpline
70
4
71
3
72
32
73
28
40
0
40
0
40
0
40
0
40
0.0837924638714188
40
0.0837924638714188
40
0.205848987996919
40
0.205848987996919
40
0.266877250059668
40
0.266877250059668
40
0.327905512122417
40
0.327905512122417
40
0.449962036247914
40
0.449962036247914
40
0.510990298310662
40
0.510990298310662
40
0.57201856037341
40
0.57201856037341
40
0.633046822436157
40
0.633046822436157
40
0.694075084498905
40
0.694075084498905
40
0.755103346561653
40
0.755103346561653
40
0.8161316086244
40
0.8161316086244
40
0.938188132749893
40
0.938188132749893
40
1
40
1
40
1
40
1
41
1
10
21.0727784318739
20
-0.0952820383165545
30
0
41
1
10
20.8841698757909
20
1.32395824437E-05
30
0
41
1
10
20.6960427690171
20
0.0956998965428113
30
0
41
1
10
20.2330934285633
20
0.327720111297339
30
0
41
1
10
19.9583438117772
20
0.463547615739714
30
0
41
1
10
19.5414046715431
20
0.655636174353987
30
0
41
1
10
19.4022970389721
20
0.717729657543913
30
0
41
1
10
19.1248437672433
20
0.836413247302204
30
-1E-16
41
1
10
18.9861973622669
20
0.892886889374239
30
-1E-16
41
1
10
18.5694790413423
20
1.0523206279278
30
-1E-16
41
1
10
18.2908969846405
20
1.14666637169722
30
0
41
1
10
17.8733660946743
20
1.25996286309683
30
0
41
1
10
17.7344582652115
20
1.29367093344268
30
0
41
1
10
17.4561982109904
20
1.35150671218568
30
0
41
1
10
17.3170065439073
20
1.37543127900111
30
0
41
1
10
17.0386496556095
20
1.41395837875101
30
0
41
1
10
16.8997901489546
20
1.42852899424614
30
0
41
1
10
16.6227270160987
20
1.44710208401227
30
0
41
1
10
16.4843454299568
20
1.45103542502997
30
0
41
1
10
16.2076834472415
20
1.44898524268714
30
0
41
1
10
16.069377952046
20
1.44299937064778
30
0
41
1
10
15.7918949577006
20
1.42070110676144
30
0
41
1
10
15.6523798751163
20
1.40436240039759
30
0
41
1
10
15.2369037544549
20
1.34169347486772
30
0
41
1
10
14.9621654153817
20
1.28086976340569
30
0
41
1
10
14.5487972311615
20
1.16404443280342
30
0
41
1
10
14.4097968957301
20
1.1205301013477
30
0
41
1
10
14.2705330855063
20
1.07314949997456
30
0
0
SPLINE
5
DA
100
AcDbEntity
8
1
62
256
6
ByLayer
370
18
48
1
60
0
100
AcDbSpline
70
4
71
3
72
8
73
4
40
0
40
0
40
0
40
0
40
1
40
1
40
1
40
1
41
1
10
25.4196057288902
20
1.46919257509131
30
0
41
1
10
25.3482703250019
20
1.46427334848116
30
0
41
1
10
25.2770866227564
20
1.45797751868511
30
0
41
1
10
25.2060169967254
20
1.45034185596398
30
0
0
SPLINE
5
DB
100
AcDbEntity
8
1
62
256
6
ByLayer
370
18
48
1
60
0
100
AcDbSpline
70
4
71
3
72
28
73
24
40
0
40
0
40
0
40
0
40
0.0960086731953161
40
0.0960086731953161
40
0.174188344839418
40
0.174188344839418
40
0.25236801648352
40
0.25236801648352
40
0.330547688127622
40
0.330547688127622
40
0.408727359771723
40
0.408727359771723
40
0.565086703059924
40
0.565086703059924
40
0.643266374704024
40
0.643266374704024
40
0.721446046348123
40
0.721446046348123
40
0.87780538963632
40
0.87780538963632
40
0.955985061280417
40
0.955985061280417
40
1
40
1
40
1
40
1
41
1
10
17.2023253528164
20
-1.46342957492601
30
0
41
1
10
16.9733828463778
20
-1.47961844898597
30
0
41
1
10
16.7446462385191
20
-1.4817083369885
30
0
41
1
10
16.3278237017848
20
-1.45989939455254
30
0
41
1
10
16.1415151176413
20
-1.44063987367616
30
0
41
1
10
15.7704695162581
20
-1.38463396109108
30
0
41
1
10
15.5855543885456
20
-1.3478172158037
30
0
41
1
10
15.2156135197025
20
-1.2577964386777
30
0
41
1
10
15.0304597543933
20
-1.20465224352358
30
0
41
1
10
14.6582862459995
20
-1.08341847642575
30
1E-16
41
1
10
14.4706044715799
20
-1.01498188643825
30
1E-16
41
1
10
13.9118436080945
20
-0.792545473591133
30
0
41
1
10
13.542919686248
20
-0.62257480370809
30
0
41
1
10
12.9869889044529
20
-0.349206815946332
30
0
41
1
10
12.8012044059138
20
-0.255104739050665
30
0
41
1
10
12.4271666609357
20
-0.0637365555034535
30
0
41
1
10
12.2404762763629
20
0.0328028432707583
30
0
41
1
10
11.6841436644237
20
0.317992167922938
30
0
41
1
10
11.3163827487251
20
0.503645368520949
30
0
41
1
10
10.7601573381733
20
0.757720365488012
30
0
41
1
10
10.5737907396233
20
0.838619303962957
30
-1E-16
41
1
10
10.2813004502703
20
0.956674979501571
30
-1E-16
41
1
10
10.1763592941587
20
0.997141446122669
30
-1E-16
41
1
10
10.0717018477762
20
1.03539236910055
30
-1E-16
0
SPLINE
5
DC
100
AcDbEntity
8
1
62
256
6
ByLayer
370
18
48
1
60
0
100
AcDbSpline
70
4
71
3
72
8
73
4
40
0
40
0
40
0
40
0
40
1
40
1
40
1
40
1
41
1
10
25.473110209776
20
1.44970381748848
30
0
41
1
10
25.4754665078566
20
1.44810232810789
30
0
41
1
10
25.4778229314577
20
1.44650025505712
30
0
41
1
10
25.4801794834088
20
1.44489759907307
30
0
0
SPLINE
5
DD
100
AcDbEntity
8
1
62
256
6
ByLayer
370
18
48
1
60
0
100
AcDbSpline
70
4
71
3
72
8
73
4
40
0
40
0
40
0
40
0
40
1
40
1
40
1
40
1
41
1
10
7.50480461926429
20
-0.383497183275466
30
0
41
1
10
7.5079422902366
20
-0.369081869549404
30
0
41
1
10
7.51385618670275
20
-0.355003458812206
30
0
41
1
10
7.52277019942053
20
-0.342453918806939
30
0
0
SPLINE
5
DE
100
AcDbEntity
8
1
62
256
6
ByLayer
370
18
48
1
60
0
100
AcDbSpline
70
4
71
3
72
8
73
4
40
0
40
0
40
0
40
0
40
1
40
1
40
1
40
1
41
1
10
25.3180598881558
20
1.52768096022623
30
0
41
1
10
25.3202841867328
20
1.54005554417324
30
0
41
1
10
25.3220885468197
20
1.5473803482206
30
0
41
1
10
25.3237354689977
20
1.54936984603273
30
0
0
SPLINE
5
DF
100
AcDbEntity
8
1
62
256
6
ByLayer
370
18
48
1
60
0
100
AcDbSpline
70
4
71
3
72
8
73
4
40
0
40
0
40
0
40
0
40
1
40
1
40
1
40
1
41
1
10
25.2352563196253
20
-0.0976245709474881
30
0
41
1
10
25.2309735865692
20
-0.0246873265253953
30
0
41
1
10
25.2288395903354
20
0.0498789278916263
30
0
41
1
10
25.229816769844
20
0.122814079927593
30
0
0
SPLINE
5
E0
100
AcDbEntity
8
1
62
256
6
ByLayer
370
18
48
1
60
0
100
AcDbSpline
70
4
71
3
72
8
73
4
40
0
40
0
40
0
40
0
40
1
40
1
40
1
40
1
41
1
10
7.60232403066115
20
-1.45705198276446
30
0
41
1
10
7.586371029433
20
-1.45645563507512
30
0
41
1
10
7.57075571695674
20
-1.45953530748753
30
0
41
1
10
7.55630890973177
20
-1.46634417307317
30
0
0
SPLINE
5
E1
100
AcDbEntity
8
1
62
256
6
ByLayer
370
18
48
1
60
0
100
AcDbSpline
70
4
71
3
72
8
73
4
40
0
40
0
40
0
40
0
40
1
40
1
40
1
40
1
41
1
10
7.55630890973177
20
-1.4759578123583
30
0
41
1
10
7.52815229075026
20
-1.48765155782027
30
0
41
1
10
7.51186193165859
20
-1.5068457714271
30
0
41
1
10
7.50534535428059
20
-1.52625418015052
30
0
0
SPLINE
5
E2
100
AcDbEntity
8
1
62
256
6
ByLayer
370
18
48
1
60
0
100
AcDbSpline
70
4
71
3
72
10
73
6
40
0
40
0
40
0
40
0
40
0.5
40
0.5
40
1
40
1
40
1
40
1
41
1
10
7.50540950420972
20
-0.379014025966768
30
0
41
1
10
7.51304187461943
20
-0.350777630391406
30
0
41
1
10
7.53477290126531
20
-0.326059395570553
30
0
41
1
10
7.58981615913922
20
-0.302658135837277
30
0
41
1
10
7.62284228198348
20
-0.30386033223482
30
0
41
1
10
7.64962526284759
20
-0.31800299100945
30
0
0
SPLINE
5
E3
100
AcDbEntity
8
1
62
256
6
ByLayer
370
18
48
1
60
0
100
AcDbSpline
70
4
71
3
72
10
73
6
40
0
40
0
40
0
40
0
40
0.5
40
0.5
40
1
40
1
40
1
40
1
41
1
10
25.5932528765727
20
0.442293004787871
30
0
41
1
10
25.638238751561
20
0.450740747844918
30
0
41
1
10
25.683004939608
20
0.460358876660024
30
0
41
1
10
25.7719477495165
20
0.48273605774915
30
0
41
1
10
25.8159161688034
20
0.495223561605883
30
0
41
1
10
25.8588417657213
20
0.510392408091121
30
0
0
SPLINE
5
E4
100
AcDbEntity
8
1
62
256
6
ByLayer
370
18
48
1
60
0
100
AcDbSpline
70
4
71
3
72
8
73
4
40
0
40
0
40
0
40
0
40
1
40
1
40
1
40
1
41
1
10
7.5048046192677
20
-0.383497183259749
30
0
41
1
10
7.50480467217685
20
-0.381990634621417
30
0
41
1
10
7.50501528611787
20
-0.380472458588514
30
0
41
1
10
7.50540950420924
20
-0.379014025968587
30
0
0
SPLINE
5
E5
100
AcDbEntity
8
1
62
256
6
ByLayer
370
18
48
1
60
0
100
AcDbSpline
70
4
71
3
72
38
73
34
40
0
40
0
40
0
40
0
40
0.0088929924740043
40
0.0088929924740043
40
0.0653599064428408
40
0.0653599064428408
40
0.121826820411677
40
0.121826820411677
40
0.234760648349351
40
0.234760648349351
40
0.291227562318186
40
0.291227562318186
40
0.347694476287022
40
0.347694476287022
40
0.460628304224693
40
0.460628304224693
40
0.517095218193529
40
0.517095218193529
40
0.545328675177946
40
0.545328675177946
40
0.573562132162363
40
0.573562132162363
40
0.686495960100033
40
0.686495960100033
40
0.742962874068868
40
0.742962874068868
40
0.799429788037703
40
0.799429788037703
40
0.912363615975373
40
0.912363615975373
40
0.968830529944208
40
0.968830529944208
40
1
40
1
40
1
40
1
41
1
10
17.6429814142918
20
-1.47937577303054
30
0
41
1
10
17.6137233225193
20
-1.48391740685452
30
0
41
1
10
17.5844356403531
20
-1.48823150340786
30
0
41
1
10
17.3689427319906
20
-1.51824231561261
30
0
41
1
10
17.1824110801022
20
-1.53464238122561
30
0
41
1
10
16.8103578675278
20
-1.54784824151369
30
0
41
1
10
16.6243295356101
20
-1.54470987540751
30
0
41
1
10
16.0648938337844
20
-1.5058521432984
30
0
41
1
10
15.6972268469036
20
-1.4414667195642
30
0
41
1
10
15.1450401480296
20
-1.29455551259593
30
0
41
1
10
14.960738648515
20
-1.23730698537455
30
0
41
1
10
14.5902592995213
20
-1.10760508308545
30
1E-16
41
1
10
14.4033102914635
20
-1.03446624390651
30
1E-16
41
1
10
13.8462821080486
20
-0.798379884231707
30
0
41
1
10
13.4791931625064
20
-0.61938387519038
30
0
41
1
10
12.9265425724231
20
-0.333336603968775
30
0
41
1
10
12.7419093179589
20
-0.235202811178055
30
0
41
1
10
12.4632157528278
20
-0.0858325047137214
30
0
41
1
10
12.369794840206
20
-0.0355457092229869
30
0
41
1
10
12.1834893032003
20
0.0646834755680743
30
0
41
1
10
12.0906662488354
20
0.114594198338722
30
0
41
1
10
11.6277503231941
20
0.362313493370834
30
0
41
1
10
11.2612095024341
20
0.55448077828251
30
0
41
1
10
10.7074288252408
20
0.816457415998372
30
0
41
1
10
10.5223084847778
20
0.899640325644555
30
-1E-16
41
1
10
10.1493000944089
20
1.05469099748336
30
-1E-16
41
1
10
9.96348044336582
20
1.12556030304401
30
-1E-16
41
1
10
9.4091167165013
20
1.31467141210476
30
0
41
1
10
9.04256460948656
20
1.41024788231587
30
0
41
1
10
8.48747171727251
20
1.49887339301995
30
0
41
1
10
8.30111796263645
20
1.51941554858337
30
0
41
1
10
8.0115796007552
20
1.53606871623063
30
0
41
1
10
7.90867524439733
20
1.53901137470191
30
0
41
1
10
7.80572520401202
20
1.53898060380993
30
0
0
SPLINE
5
E6
100
AcDbEntity
8
1
62
256
6
ByLayer
370
18
48
1
60
0
100
AcDbSpline
70
4
71
3
72
10
73
6
40
0
40
0
40
0
40
0
40
0.880626372035085
40
0.880626372035085
40
1
40
1
40
1
40
1
41
1
10
7.60232403066055
20
-1.45705198276443
30
0
41
1
10
7.78972988869259
20
-1.46479775865421
30
0
41
1
10
7.97667487891943
20
-1.46301209241869
30
0
41
1
10
8.18927399672396
20
-1.45030550367255
30
0
41
1
10
8.21465029234079
20
-1.44861993290616
30
0
41
1
10
8.24002115234728
20
-1.44676683483911
30
0
0
SPLINE
5
E7
100
AcDbEntity
8
1
62
256
6
ByLayer
370
18
48
1
60
0
100
AcDbSpline
70
4
71
3
72
10
73
6
40
0
40
0
40
0
40
0
40
0.26959352072579
40
0.26959352072579
40
1
40
1
40
1
40
1
41
1
10
16.1625597740721
20
1.42788292073735
30
0
41
1
10
16.2828640552101
20
1.44209380520172
30
0
41
1
10
16.4034916787128
20
1.45257121977514
30
0
41
1
10
16.8520338202586
20
1.47686095073058
30
0
41
1
10
17.1776439498368
20
1.46611446935569
30
0
41
1
10
17.5047301042437
20
1.4268578571519
30
0
0
SPLINE
5
E8
100
AcDbEntity
8
1
62
256
6
ByLayer
370
18
48
1
60
0
100
AcDbSpline
70
4
71
3
72
24
73
20
40
0
40
0
40
0
40
0
40
0.0193455744486332
40
0.0193455744486332
40
0.108495976771484
40
0.108495976771484
40
0.286796781417185
40
0.286796781417185
40
0.465097586062885
40
0.465097586062885
40
0.643398390708586
40
0.643398390708586
40
0.687973591870012
40
0.687973591870012
40
0.732548793031437
40
0.732548793031437
40
0.821699195354292
40
0.821699195354292
40
1
40
1
40
1
40
1
41
1
10
19.1930199605122
20
0.995435688646808
30
0
41
1
10
19.23320096228
20
0.980286599791583
30
-1E-16
41
1
10
19.2734075289076
20
0.964829602148853
30
-1E-16
41
1
10
19.4990848664668
20
0.876469116298381
30
-1E-16
41
1
10
19.685765937042
20
0.797553816269755
30
0
41
1
10
20.2471844100248
20
0.546227583902407
30
0
41
1
10
20.6185349720423
20
0.361121537454295
30
0
41
1
10
21.3675454445601
20
-0.0206012355856444
30
0
41
1
10
21.7359432212366
20
-0.212518317941829
30
0
41
1
10
22.4718286724843
20
-0.576319403229434
30
0
41
1
10
22.8390724790478
20
-0.748594141789027
30
0
41
1
10
23.3047777584681
20
-0.937890325912633
30
1E-16
41
1
10
23.3984873016831
20
-0.974562884512466
30
1E-16
41
1
10
23.5852956287602
20
-1.04446488159294
30
1E-16
41
1
10
23.6783452767659
20
-1.07768613252483
30
1E-16
41
1
10
23.9567123156903
20
-1.17185916253794
30
0
41
1
10
24.1413682651428
20
-1.22731012256844
30
0
41
1
10
24.6946745409028
20
-1.36980874235215
30
0
41
1
10
25.0624084514689
20
-1.43288312209955
30
0
41
1
10
25.4342900004508
20
-1.45881703307333
30
0
0
SPLINE
5
E9
100
AcDbEntity
8
1
62
256
6
ByLayer
370
18
48
1
60
0
100
AcDbSpline
70
4
71
3
72
66
73
62
40
0
40
0
40
0
40
0
40
0.0450164645842286
40
0.0450164645842286
40
0.0692449238024691
40
0.0692449238024691
40
0.0934733830207095
40
0.0934733830207095
40
0.141930301457191
40
0.141930301457191
40
0.16615876067543
40
0.16615876067543
40
0.19038721989367
40
0.19038721989367
40
0.238844138330151
40
0.238844138330151
40
0.287301056766632
40
0.287301056766632
40
0.311529515984873
40
0.311529515984873
40
0.335757975203113
40
0.335757975203113
40
0.359986434421354
40
0.359986434421354
40
0.384214893639594
40
0.384214893639594
40
0.408443352857835
40
0.408443352857835
40
0.432671812076075
40
0.432671812076075
40
0.481128730512555
40
0.481128730512555
40
0.529585648949034
40
0.529585648949034
40
0.578042567385514
40
0.578042567385514
40
0.602271026603754
40
0.602271026603754
40
0.626499485821993
40
0.626499485821993
40
0.674956404258475
40
0.674956404258475
40
0.699184863476715
40
0.699184863476715
40
0.723413322694956
40
0.723413322694956
40
0.747641781913196
40
0.747641781913196
40
0.771870241131436
40
0.771870241131436
40
0.820327159567916
40
0.820327159567916
40
0.868784078004396
40
0.868784078004396
40
0.917240996440875
40
0.917240996440875
40
0.941469455659115
40
0.941469455659115
40
0.965697914877355
40
0.965697914877355
40
1
40
1
40
1
40
1
41
1
10
23.512485488115
20
-0.972822761972509
30
1E-16
41
1
10
23.33889706392
20
-1.04576706753434
30
1E-16
41
1
10
23.1666596315272
20
-1.1136101663447
30
1E-16
41
1
10
22.901210165412
20
-1.20676933957566
30
0
41
1
10
22.8082754778897
20
-1.23735767599396
30
0
41
1
10
22.6228025335215
20
-1.29507081513066
30
0
41
1
10
22.5302416406049
20
-1.32213491634229
30
0
41
1
10
22.2516456868782
20
-1.39644729962728
30
0
41
1
10
22.0647796540658
20
-1.43710853451546
30
0
41
1
10
21.7836499734777
20
-1.48504454243133
30
0
41
1
10
21.6895778860626
20
-1.49871245753542
30
0
41
1
10
21.5022139478444
20
-1.52086576346969
30
0
41
1
10
21.4087476819248
20
-1.5294417952274
30
0
41
1
10
21.1288373732545
20
-1.54785067356002
30
0
41
1
10
20.9437431752202
20
-1.55039910284771
30
0
41
1
10
20.5725532565803
20
-1.53591225677115
30
0
41
1
10
20.3867324897066
20
-1.51909021324448
30
0
41
1
10
20.1076822299101
20
-1.47906723732984
30
0
41
1
10
20.0143627436867
20
-1.46336505473823
30
0
41
1
10
19.8270100239503
20
-1.4273299280639
30
0
41
1
10
19.7326897438731
20
-1.406991145766
30
0
41
1
10
19.544757606729
20
-1.36173440900029
30
0
41
1
10
19.4513994350076
20
-1.3366999344297
30
0
41
1
10
19.2648517982658
20
-1.28284671344039
30
0
41
1
10
19.1717158439603
20
-1.2539944360893
30
0
41
1
10
18.985596492585
20
-1.19268065031363
30
0
41
1
10
18.8925580111821
20
-1.16029733486786
30
1E-16
41
1
10
18.7070613087824
20
-1.09138261844103
30
1E-16
41
1
10
18.6145133340903
20
-1.05493732017703
30
1E-16
41
1
10
18.3361625044671
20
-0.941424960356812
30
1E-16
41
1
10
18.1497435218219
20
-0.860229797832602
30
1E-16
41
1
10
17.7764016320494
20
-0.684535899251074
30
0
41
1
10
17.5876771168058
20
-0.591096143296284
30
0
41
1
10
17.213052998211
20
-0.400583962775386
30
0
41
1
10
17.0275580951288
20
-0.301358279463585
30
0
41
1
10
16.7488882023152
20
-0.152481667758423
30
0
41
1
10
16.6559598816352
20
-0.102790772017784
30
0
41
1
10
16.4701638409753
20
-0.0030211768471133
30
0
41
1
10
16.3775011834893
20
0.0474475545556743
30
0
41
1
10
16.098961780782
20
0.198228756319367
30
0
41
1
10
15.9121548864106
20
0.297183615693882
30
0
41
1
10
15.6305705249339
20
0.443846880852561
30
0
41
1
10
15.5365121964928
20
0.492802264510772
30
0
41
1
10
15.3491178766833
20
0.587743536332681
30
0
41
1
10
15.2556325000243
20
0.634001900704192
30
0
41
1
10
15.0689520209524
20
0.723962862350021
30
0
41
1
10
14.9757213356593
20
0.767615772734331
30
0
41
1
10
14.7899984903348
20
0.853112037017496
30
-1E-16
41
1
10
14.6973588276729
20
0.894691631573181
30
-1E-16
41
1
10
14.4189611228365
20
1.01418026886813
30
-1E-16
41
1
10
14.2328210911588
20
1.08712997677063
30
-1E-16
41
1
10
13.8606262284342
20
1.22096519828952
30
0
41
1
10
13.6729482119684
20
1.28051050671274
30
0
41
1
10
13.2965001807322
20
1.3822081957627
30
0
41
1
10
13.110382618519
20
1.42471127027736
30
0
41
1
10
12.8311278418661
20
1.47365644731943
30
0
41
1
10
12.7380659263425
20
1.48758229688204
30
0
41
1
10
12.5522101394548
20
1.51081792781838
30
0
41
1
10
12.4596045663129
20
1.52017517622093
30
0
41
1
10
12.2354871076548
20
1.53679057261078
30
0
41
1
10
12.1037058457974
20
1.54164720331667
30
0
41
1
10
11.971612564111
20
1.54160078941297
30
0
0
SPLINE
5
EA
100
AcDbEntity
8
1
62
256
6
ByLayer
370
18
48
1
60
0
100
AcDbSpline
70
4
71
3
72
16
73
12
40
0
40
0
40
0
40
0
40
0.250000000000003
40
0.250000000000003
40
0.375000000000005
40
0.375000000000005
40
0.500000000000007
40
0.500000000000007
40
0.750000000000004
40
0.750000000000004
40
1
40
1
40
1
40
1
41
1
10
25.4801794834079
20
-1.44489759907307
30
0
41
1
10
25.5088042531958
20
-1.36478166559053
30
0
41
1
10
25.5373085959223
20
-1.28415815055038
30
0
41
1
10
25.5802599410213
20
-1.16302837924309
30
0
41
1
10
25.5946043884857
20
-1.1226272875769
30
0
41
1
10
25.623378279918
20
-1.04180271406912
30
0
41
1
10
25.6378956473022
20
-1.00123512614556
30
0
41
1
10
25.6828426084841
20
-0.880970624300062
30
0
41
1
10
25.7142743231031
20
-0.802828418171657
30
0
41
1
10
25.7825405857458
20
-0.65169016138924
30
0
41
1
10
25.8197534901014
20
-0.578191866081056
30
0
41
1
10
25.8588417657212
20
-0.510392408090638
30
0
0
SPLINE
5
EB
100
AcDbEntity
8
1
62
256
6
ByLayer
370
18
48
1
60
0
100
AcDbSpline
70
4
71
3
72
34
73
30
40
0
40
0
40
0
40
0
40
0.0810091144279957
40
0.0810091144279957
40
0.172908202985199
40
0.172908202985199
40
0.2188577472638
40
0.2188577472638
40
0.264807291542402
40
0.264807291542402
40
0.356706380099605
40
0.356706380099605
40
0.402655924378205
40
0.402655924378205
40
0.448605468656806
40
0.448605468656806
40
0.632403645771206
40
0.632403645771206
40
0.678353190049807
40
0.678353190049807
40
0.724302734328408
40
0.724302734328408
40
0.816201822885607
40
0.816201822885607
40
0.862151367164206
40
0.862151367164206
40
0.908100911442804
40
0.908100911442804
40
1
40
1
40
1
40
1
41
1
10
16.4021832570641
20
1.54435251041156
30
0
41
1
10
16.6431208532084
20
1.54440259850676
30
0
41
1
10
16.8824852575702
20
1.52807712790758
30
0
41
1
10
17.3934430646178
20
1.45966448418997
30
0
41
1
10
17.6650527403117
20
1.40301674567047
30
0
41
1
10
18.0764911828655
20
1.28966906405211
30
0
41
1
10
18.2144950614068
20
1.24708724149636
30
0
41
1
10
18.4893736579197
20
1.15398955572706
30
-1E-16
41
1
10
18.6265992902545
20
1.10337130132325
30
-1E-16
41
1
10
19.0385019652468
20
0.940403620213147
30
-1E-16
41
1
10
19.3139653155677
20
0.816520155526746
30
0
41
1
10
19.7256051881932
20
0.617132229225064
30
0
41
1
10
19.8627976888362
20
0.548342323244896
30
0
41
1
10
20.1378055799849
20
0.407243200620485
30
0
41
1
10
20.2755967646138
20
0.334943727794126
30
0
41
1
10
20.9597557642224
20
-0.0286776939789775
30
0
41
1
10
21.4978436044523
20
-0.329749621115894
30
0
41
1
10
22.1839879993728
20
-0.67153235999919
30
0
41
1
10
22.3217966739643
20
-0.738083450001824
30
0
41
1
10
22.5952864957574
20
-0.864623849294816
30
1E-16
41
1
10
22.7314866365097
20
-0.924874296957853
30
1E-16
41
1
10
23.1394014099738
20
-1.0953111742302
30
1E-16
41
1
10
23.4104332851138
20
-1.19520319665909
30
0
41
1
10
23.8189014579697
20
-1.32005964175821
30
0
41
1
10
23.955383644239
20
-1.35750107341798
30
0
41
1
10
24.2296696264679
20
-1.42316111542254
30
0
41
1
10
24.3674608758233
20
-1.45132710148769
30
0
41
1
10
24.7782248269372
20
-1.52002547482786
30
0
41
1
10
25.0505282336237
20
-1.54523553292134
30
0
41
1
10
25.3237354690196
20
-1.5493698460327
30
0
0
SPLINE
5
EC
100
AcDbEntity
8
1
62
256
6
ByLayer
370
18
48
1
60
0
100
AcDbSpline
70
4
71
3
72
14
73
10
40
0
40
0
40
0
40
0
40
0.376322562355376
40
0.376322562355376
40
0.564483843533064
40
0.564483843533064
40
0.752645124710752
40
0.752645124710752
40
1
40
1
40
1
40
1
41
1
10
25.4731102098942
20
1.44970381715387
30
0
41
1
10
25.1957613542073
20
1.45435931776328
30
0
41
1
10
24.9202841871148
20
1.43766814470655
30
0
41
1
10
24.5065636190672
20
1.38408424045747
30
0
41
1
10
24.368496904216
20
1.3607149896585
30
0
41
1
10
24.0915085389268
20
1.30552860612408
30
0
41
1
10
23.9523177675432
20
1.27336932677937
30
0
41
1
10
23.631152453341
20
1.18912586716311
30
0
41
1
10
23.4498614780936
20
1.13416689867393
30
0
41
1
10
23.2691052256853
20
1.07281737550426
30
0
0
SPLINE
5
ED
100
AcDbEntity
8
1
62
256
6
ByLayer
370
18
48
1
60
0
100
AcDbSpline
70
4
71
3
72
8
73
4
40
0
40
0
40
0
40
0
40
1
40
1
40
1
40
1
41
1
10
25.997743923848
20
0.110035870274999
30
0
41
1
10
26.0007412419389
20
0.036941594530532
30
0
41
1
10
26.0007462327241
20
-0.0368198864535998
30
0
41
1
10
25.9977439238478
20
-0.110035870280143
30
0
0
SPLINE
5
EE
100
AcDbEntity
8
1
62
256
6
ByLayer
370
18
48
1
60
0
100
AcDbSpline
70
4
71
3
72
12
73
8
40
0
40
0
40
0
40
0
40
0.609488275480028
40
0.609488275480028
40
0.914232413220042
40
0.914232413220042
40
1
40
1
40
1
40
1
41
1
10
25.3237354690197
20
-1.5493698460179
30
0
41
1
10
25.3485318976229
20
-1.53325649508437
30
0
41
1
10
25.3733805669282
20
-1.51688295685057
30
0
41
1
10
25.4107760032222
20
-1.49192423425057
30
0
41
1
10
25.4232731920405
20
-1.48353065242196
30
0
41
1
10
25.4392895773729
20
-1.47270948628596
30
0
41
1
10
25.4428068777926
20
-1.47032911806949
30
0
41
1
10
25.4463224794737
20
-1.46794586357376
30
0
0
SPLINE
5
EF
100
AcDbEntity
8
1
62
256
6
ByLayer
370
18
48
1
60
0
100
AcDbSpline
70
4
71
3
72
8
73
4
40
0
40
0
40
0
40
0
40
1
40
1
40
1
40
1
41
1
10
25.3180598881558
20
-1.52768096022623
30
0
41
1
10
25.3202841867328
20
-1.54005554417341
30
0
41
1
10
25.3220885468198
20
-1.54738034822077
30
0
41
1
10
25.3237354689978
20
-1.54936984603282
30
0
0
SPLINE
5
F0
100
AcDbEntity
8
1
62
256
6
ByLayer
370
18
48
1
60
0
100
AcDbSpline
70
4
71
3
72
20
73
16
40
0
40
0
40
0
40
0
40
0.249999999999999
40
0.249999999999999
40
0.374999999999999
40
0.374999999999999
40
0.499999999999998
40
0.499999999999998
40
0.749999999999997
40
0.749999999999997
40
0.874999999999997
40
0.874999999999997
40
0.937499999999998
40
0.937499999999998
40
1
40
1
40
1
40
1
41
1
10
7.97120104710561
20
1.50077064584374
30
0
41
1
10
8.32726665037765
20
1.45876754819375
30
0
41
1
10
8.6775073604519
20
1.38236300312357
30
0
41
1
10
9.20357579704955
20
1.2247104978581
30
0
41
1
10
9.37898732652891
20
1.16497619243898
30
-1E-16
41
1
10
9.73124918100626
20
1.03260247254897
30
-1E-16
41
1
10
9.90841157070207
20
0.959438621958924
30
-1E-16
41
1
10
10.4408720978684
20
0.724551351021177
30
0
41
1
10
10.7910859054176
20
0.549902412580195
30
0
41
1
10
11.3172185433626
20
0.275335650675544
30
0
41
1
10
11.492534493801
20
0.181344315956295
30
0
41
1
10
11.756842200856
20
0.0392856680034299
30
0
41
1
10
11.8452103771289
20
-0.0081572227196602
30
0
41
1
10
12.0224065929945
20
-0.103379701873337
30
0
41
1
10
12.1114279467045
20
-0.151220608476478
30
0
41
1
10
12.2
20
-0.198576087191526
30
0
0
SPLINE
5
F1
100
AcDbEntity
8
1
62
256
6
ByLayer
370
18
48
1
60
0
100
AcDbSpline
70
4
71
3
72
58
73
54
40
0
40
0
40
0
40
0
40
0.0387078496042303
40
0.0387078496042303
40
0.0597856796536627
40
0.0597856796536627
40
0.0703245946783788
40
0.075594052190737
40
0.075594052190737
40
0.0769114165688265
40
0.0769114165688265
40
0.0782287809469161
40
0.0782287809469161
40
0.0808635097030952
40
0.0808635097030952
40
0.0914024247278115
40
0.0914024247278115
40
0.101941339752528
40
0.101941339752528
40
0.123019169801961
40
0.123019169801961
40
0.165174829900826
40
0.165174829900826
40
0.249486150098558
40
0.249486150098558
40
0.41810879049402
40
0.41810879049402
40
0.460264450592886
40
0.460264450592886
40
0.502420110691751
40
0.502420110691751
40
0.523497940741184
40
0.523497940741184
40
0.526132669497363
40
0.526132669497363
40
0.527450033875453
40
0.527450033875453
40
0.528108716064497
40
0.528108716064497
40
0.528767398253542
40
0.528767398253542
40
0.529426080442587
40
0.529426080442587
40
0.530084762631631
40
0.530084762631631
40
0.531402127009721
40
0.5340368557659
40
0.544575770790615
40
0.586731430889476
40
0.586731430889476
40
0.923976711680362
40
0.923976711680362
40
1
40
1
40
1
40
1
41
1
10
7.97120104728947
20
1.50077064806501
30
0
41
1
10
7.9650675966445
20
1.42665961888847
30
0
41
1
10
7.95307163172058
20
1.35096641338006
30
0
41
1
10
7.92453674036244
20
1.23131370396842
30
0
41
1
10
7.91316186520106
20
1.18882551403678
30
0
41
1
10
7.89194777546209
20
1.12566435964314
30
0
41
1
10
7.88043836017363
20
1.09416072345729
30
0
41
1
10
7.86773196254899
20
1.0626980599065
30
0
41
1
10
7.86228134450852
20
1.04958985078542
30
0
41
1
10
7.86096964915512
20
1.04707176800412
30
0
41
1
10
7.85924197940133
20
1.04159994932124
30
0
41
1
10
7.86161830913139
20
1.0387273550561
30
0
41
1
10
7.86755231550268
20
1.03186216091879
30
0
41
1
10
7.87209050769951
20
1.02794596844339
30
0
41
1
10
7.894736341178
20
1.00840468774263
30
0
41
1
10
7.91382081402006
20
0.994057064985356
30
0
41
1
10
7.95188316759632
20
0.965346279712861
30
0
41
1
10
7.97105913970549
20
0.951204955687103
30
0
41
1
10
8.02874302531336
20
0.909058451791623
30
0
41
1
10
8.0674232092953
20
0.881337715863964
30
0
41
1
10
8.18370802976116
20
0.798609405912316
30
0
41
1
10
8.26159187012664
20
0.74408239920777
30
0
41
1
10
8.49529418815808
20
0.580830682786456
30
0
41
1
10
8.651143529119
20
0.472449807776144
30
0
41
1
10
9.11827153385951
20
0.147924488368659
30
0
41
1
10
9.42927664660149
20
-0.0673289589091155
30
0
41
1
10
9.81850618646601
20
-0.333660022455462
30
0
41
1
10
9.89637990864421
20
-0.386782882892277
30
0
41
1
10
10.0518955174886
20
-0.493060528592764
30
0
41
1
10
10.1295688653147
20
-0.546201034509551
30
0
41
1
10
10.2450034597893
20
-0.62674629710304
30
0
41
1
10
10.2836423033692
20
-0.653528752934022
30
0
41
1
10
10.3253242454175
20
-0.684946052783118
30
0
41
1
10
10.3299212561178
20
-0.688460333815556
30
0
41
1
10
10.336650020797
20
-0.693846752253165
30
0
41
1
10
10.3388712843506
20
-0.695661841071654
30
0
41
1
10
10.3420634134856
20
-0.698456112498263
30
0
41
1
10
10.3431085547265
20
-0.699400567188974
30
0
41
1
10
10.345043205216
20
-0.70134252457882
30
0
41
1
10
10.3461483211685
20
-0.702380589948717
30
0
41
1
10
10.3466142055645
20
-0.704460937855885
30
0
41
1
10
10.3446383955705
20
-0.704295625404342
30
0
41
1
10
10.3417994104398
20
-0.703767351390752
30
0
41
1
10
10.3403735560683
20
-0.703440494258786
30
0
41
1
10
10.3361033413307
20
-0.702531131069463
30
0
41
1
10
10.3275631706271
20
-0.700711362947118
30
0
41
1
10
10.2962520862235
20
-0.694027426662785
30
0
41
1
10
10.1767373774217
20
-0.668361202584265
30
0
41
1
10
10.0630543354243
20
-0.64336207380029
30
0
41
1
10
9.24536835971668
20
-0.460176983708863
30
0
41
1
10
8.52475631877212
20
-0.274677905488801
30
0
41
1
10
7.64901165425078
20
-0.020044041643672
30
0
41
1
10
7.48823081561494
20
0.0279223682795191
30
0
41
1
10
7.32776700258867
20
0.0769944271369809
30
0
0
SPLINE
5
F2
100
AcDbEntity
8
1
62
256
6
ByLayer
370
18
48
1
60
0
100
AcDbSpline
70
4
71
3
72
46
73
42
40
0
40
0
40
0
40
0
40
0.124999999999992
40
0.124999999999992
40
0.187499999999988
40
0.187499999999988
40
0.249999999999985
40
0.249999999999985
40
0.312499999999981
40
0.312499999999981
40
0.34374999999998
40
0.34374999999998
40
0.37499999999998
40
0.37499999999998
40
0.406249999999979
40
0.406249999999979
40
0.437499999999978
40
0.437499999999978
40
0.468749999999978
40
0.468749999999978
40
0.499999999999977
40
0.499999999999977
40
0.562499999999978
40
0.562499999999978
40
0.624999999999979
40
0.624999999999979
40
0.749999999999977
40
0.749999999999977
40
0.757812499999977
40
0.757812499999977
40
0.765624999999978
40
0.765624999999978
40
0.78124999999998
40
0.78124999999998
40
0.796874999999982
40
0.796874999999982
40
0.812499999999983
40
0.812499999999983
40
0.87499999999999
40
0.87499999999999
40
1
40
1
40
1
40
1
41
1
10
7.32767345516422
20
0.0770240357225589
30
0
41
1
10
7.15943011497222
20
0.166633648469286
30
0
41
1
10
6.995008213896
20
0.260749053537325
30
0
41
1
10
6.75676154802059
20
0.411627232816443
30
0
41
1
10
6.67875987899777
20
0.463555962384675
30
0
41
1
10
6.52656883471607
20
0.571797756505561
30
0
41
1
10
6.45246891805363
20
0.628055995920192
30
0
41
1
10
6.31294289396848
20
0.744452905280042
30
0
41
1
10
6.24667638203638
20
0.805306069800281
30
0
41
1
10
6.16004556897394
20
0.89852146909513
30
-1E-16
41
1
10
6.13322640610218
20
0.9299798956431
30
-1E-16
41
1
10
6.08493489965457
20
0.993912020070582
30
-1E-16
41
1
10
6.06328893841436
20
1.02673743069275
30
-1E-16
41
1
10
6.02863316718728
20
1.09136816541439
30
-1E-16
41
1
10
6.01547109845154
20
1.12326722680581
30
-1E-16
41
1
10
5.99941678092711
20
1.18608541692271
30
0
41
1
10
5.99686693251766
20
1.21598515930066
30
0
41
1
10
6.00295360139219
20
1.27183782599738
30
0
41
1
10
6.01179939259796
20
1.29819567378178
30
0
41
1
10
6.03916564995265
20
1.34509250007503
30
0
41
1
10
6.05770408069623
20
1.36603415988563
30
0
41
1
10
6.12445489080579
20
1.4217683742217
30
0
41
1
10
6.18168225437816
20
1.44862911545653
30
0
41
1
10
6.31126767312503
20
1.49051478054207
30
0
41
1
10
6.38184415456774
20
1.50480130898674
30
0
41
1
10
6.60342325315676
20
1.53569281393664
30
0
41
1
10
6.76520210452998
20
1.54055987678723
30
0
41
1
10
6.9418611600172
20
1.53745750184214
30
0
41
1
10
6.95201648162566
20
1.53721867317296
30
0
41
1
10
6.97372984725533
20
1.53680171118293
30
0
41
1
10
6.98527399698867
20
1.5366648182833
30
0
41
1
10
7.0207620773036
20
1.53651443162224
30
0
41
1
10
7.04441411251247
20
1.53675266332306
30
0
41
1
10
7.08922043625637
20
1.53743984538724
30
0
41
1
10
7.11135855074468
20
1.53775660064068
30
0
41
1
10
7.15573559039746
20
1.53823455799352
30
0
41
1
10
7.17787142369704
20
1.53840976485063
30
0
41
1
10
7.28828904364252
20
1.53893397854401
30
0
41
1
10
7.37582324855208
20
1.53822558908004
30
0
41
1
10
7.63536394550346
20
1.53145693951237
30
0
41
1
10
7.80452398473736
20
1.52069094313592
30
0
41
1
10
7.97119157848215
20
1.50077132139242
30
0
0
SPLINE
5
F3
100
AcDbEntity
8
1
62
256
6
ByLayer
370
18
48
1
60
0
100
AcDbSpline
70
4
71
3
72
8
73
4
40
0
40
0
40
0
40
0
40
1
40
1
40
1
40
1
41
1
10
7.5563089097318
20
-1.47595781235827
30
0
41
1
10
7.55583496810894
20
-1.49498353563067
30
0
41
1
10
7.5553668499706
20
-1.51400875499269
30
0
41
1
10
7.55490454072324
20
-1.53303349241963
30
0
0
SPLINE
5
F4
100
AcDbEntity
8
1
62
256
6
ByLayer
370
18
48
1
60
0
100
AcDbSpline
70
4
71
3
72
24
73
20
40
0
40
0
40
0
40
0
40
0.0625000000000215
40
0.0625000000000215
40
0.0937500000000267
40
0.0937500000000267
40
0.125000000000032
40
0.125000000000032
40
0.250000000000029
40
0.250000000000029
40
0.375000000000027
40
0.375000000000027
40
0.500000000000024
40
0.500000000000024
40
0.625000000000022
40
0.625000000000022
40
0.750000000000019
40
0.750000000000019
40
1
40
1
40
1
40
1
41
1
10
25.5717425550152
20
0.151723262795457
30
0
41
1
10
25.5653107915102
20
0.156735059781454
30
0
41
1
10
25.5589290024084
20
0.162128440178861
30
0
41
1
10
25.5494075853981
20
0.170656421897178
30
0
41
1
10
25.546356695276
20
0.173998537780733
30
0
41
1
10
25.5396867762076
20
0.178641592928017
30
0
41
1
10
25.5363433994709
20
0.180966792715253
30
0
41
1
10
25.5201117969385
20
0.194800414273999
30
0
41
1
10
25.5054023486317
20
0.198265406850709
30
0
41
1
10
25.4762197755323
20
0.206097918426366
30
0
41
1
10
25.4614902280533
20
0.209147501447291
30
0
41
1
10
25.4316824040661
20
0.210003407456355
30
0
41
1
10
25.4166448069999
20
0.208186892361084
30
0
41
1
10
25.3866094572826
20
0.203319353764726
30
0
41
1
10
25.3715452642578
20
0.20035878647019
30
0
41
1
10
25.3418627524611
20
0.191269434927477
30
0
41
1
10
25.327230861812
20
0.185393795729198
30
0
41
1
10
25.2841115041438
20
0.164012735193665
30
0
41
1
10
25.2563497255412
20
0.145242569206175
30
0
41
1
10
25.2298167698534
20
0.122814079923785
30
0
0
SPLINE
5
F5
100
AcDbEntity
8
1
62
256
6
ByLayer
370
18
48
1
60
0
100
AcDbSpline
70
4
71
3
72
46
73
42
40
0
40
0
40
0
40
0
40
0.0187766257984094
40
0.0187766257984094
40
0.0468486679105288
40
0.0468486679105288
40
0.0749207100226481
40
0.0749207100226481
40
0.131064794246888
40
0.131064794246888
40
0.187208878471129
40
0.187208878471129
40
0.243352962695369
40
0.243352962695369
40
0.299497046919609
40
0.299497046919609
40
0.35564113114385
40
0.35564113114385
40
0.41178521536809
40
0.41178521536809
40
0.46792929959233
40
0.46792929959233
40
0.524073383816571
40
0.524073383816571
40
0.580217468040811
40
0.580217468040811
40
0.636361552265051
40
0.636361552265051
40
0.692505636489292
40
0.692505636489292
40
0.804793804937772
40
0.804793804937772
40
0.860937889162013
40
0.860937889162013
40
0.889009931274133
40
0.889009931274133
40
0.917081973386253
40
0.917081973386253
40
0.973226057610491
40
0.973226057610491
40
1
40
1
40
1
40
1
41
1
10
10.7626715120146
20
1.48251338165804
30
0
41
1
10
10.8237393518079
20
1.49153285741673
30
0
41
1
10
10.8848630901604
20
1.49954199197705
30
0
41
1
10
11.037646341937
20
1.51691258130535
30
0
41
1
10
11.1294562103979
20
1.52500181247228
30
0
41
1
10
11.3135916129224
20
1.5365262559686
30
0
41
1
10
11.4061424176893
20
1.53995902272541
30
0
41
1
10
11.6827738007887
20
1.54305281472716
30
0
41
1
10
11.8653363057366
20
1.53543139579026
30
0
41
1
10
12.2303155653484
20
1.50179542299833
30
0
41
1
10
12.4127324211144
20
1.47598465243411
30
0
41
1
10
12.7775091172578
20
1.40675670229996
30
0
41
1
10
12.9597797943787
20
1.36316802655563
30
0
41
1
10
13.3261604446388
20
1.25910946733265
30
0
41
1
10
13.5108060479244
20
1.19819087449525
30
0
41
1
10
13.8795720806679
20
1.06348966517408
30
-1E-16
41
1
10
14.0640233180974
20
0.989935305536449
30
-1E-16
41
1
10
14.4327903849566
20
0.830069706115978
30
-1E-16
41
1
10
14.6170516726371
20
0.742981261971465
30
0
41
1
10
14.9853385033444
20
0.563060295533234
30
0
41
1
10
15.1697031553547
20
0.470021039605541
30
0
41
1
10
15.5386502283634
20
0.277399697818367
30
0
41
1
10
15.7228747288439
20
0.177950620780024
30
0
41
1
10
16.0890221360636
20
-0.0190971331971355
30
0
41
1
10
16.2716570673309
20
-0.116955699757085
30
0
41
1
10
16.6359134434843
20
-0.31163631009079
30
0
41
1
10
16.8175837179447
20
-0.408336216167612
30
0
41
1
10
17.1830634889312
20
-0.594786035941695
30
0
41
1
10
17.3670480963697
20
-0.684696500377441
30
0
41
1
10
17.9210019861044
20
-0.943376708970447
30
1E-16
41
1
10
18.2838905281581
20
-1.09525698022441
30
1E-16
41
1
10
18.8305695095006
20
-1.27686170676682
30
0
41
1
10
19.0131482971601
20
-1.32991025203106
30
0
41
1
10
19.2875298512998
20
-1.39792075048493
30
0
41
1
10
19.3790577389419
20
-1.41865135388966
30
0
41
1
10
19.5628852320029
20
-1.45561574204419
30
0
41
1
10
19.6553256453865
20
-1.47184896836916
30
0
41
1
10
19.931363731687
20
-1.51326927816913
30
0
41
1
10
20.1145668942728
20
-1.53147303093161
30
0
41
1
10
20.3837425030101
20
-1.54476875049033
30
0
41
1
10
20.4704695287771
20
-1.54691700843063
30
0
41
1
10
20.5571815267099
20
-1.54692886046504
30
0
0
SPLINE
5
F6
100
AcDbEntity
8
1
62
256
6
ByLayer
370
18
48
1
60
0
100
AcDbSpline
70
4
71
3
72
18
73
14
40
0
40
0
40
0
40
0
40
0.479371469114952
40
0.479371469114952
40
0.684708388570225
40
0.684708388570225
40
0.770389368579462
40
0.770389368579462
40
0.857117328304508
40
0.857117328304508
40
0.935630850497858
40
0.935630850497858
40
1
40
1
40
1
40
1
41
1
10
25.4196057288688
20
-1.46919257508983
30
0
41
1
10
25.4221897126335
20
-1.46766996413854
30
0
41
1
10
25.4249924030258
20
-1.46594772985753
30
0
41
1
10
25.429008683357
20
-1.46327380790527
30
0
41
1
10
25.4302624156786
20
-1.46241035116827
30
0
41
1
10
25.4318597127909
20
-1.46122496603084
30
0
41
1
10
25.4323173810263
20
-1.46087264709871
30
0
41
1
10
25.4331194291915
20
-1.46021852716956
30
0
41
1
10
25.4334708905409
20
-1.45990973127346
30
0
41
1
10
25.4339598840187
20
-1.45942489354107
30
0
41
1
10
25.4341206797704
20
-1.45923312964627
30
0
41
1
10
25.4342792624067
20
-1.45897021367236
30
0
41
1
10
25.4343035831149
20
-1.45888071624995
30
0
41
1
10
25.4342900004508
20
-1.45881703307359
30
0
0
SPLINE
5
F7
100
AcDbEntity
8
1
62
256
6
ByLayer
370
18
48
1
60
0
100
AcDbSpline
70
4
71
3
72
8
73
4
40
0
40
0
40
0
40
0
40
1
40
1
40
1
40
1
41
1
10
25.4342900004508
20
-1.45881703307359
30
0
41
1
10
25.4312549748266
20
-1.44458712418833
30
0
41
1
10
25.4273072295897
20
-1.41967893804497
30
0
41
1
10
25.4236162422172
20
-1.3844411954332
30
0
0
SPLINE
5
F8
100
AcDbEntity
8
1
62
256
6
ByLayer
370
18
48
1
60
0
100
AcDbSpline
70
4
71
3
72
16
73
12
40
0
40
0
40
0
40
0
40
0.25
40
0.25
40
0.375
40
0.375
40
0.5
40
0.5
40
0.75
40
0.75
40
1
40
1
40
1
40
1
41
1
10
25.4801794834079
20
1.44489759907307
30
0
41
1
10
25.5088042531958
20
1.36478166559053
30
0
41
1
10
25.5373085959223
20
1.28415815055038
30
0
41
1
10
25.5802599410214
20
1.16302837924306
30
0
41
1
10
25.5946043884857
20
1.12262728757688
30
0
41
1
10
25.6233782799179
20
1.04180271406906
30
0
41
1
10
25.6378956473022
20
1.00123512614553
30
0
41
1
10
25.6828426084841
20
0.880970624300062
30
0
41
1
10
25.7142743231031
20
0.802828418171629
30
0
41
1
10
25.7825405857457
20
0.65169016138924
30
0
41
1
10
25.8197534901014
20
0.578191866081028
30
0
41
1
10
25.8588417657212
20
0.510392408090638
30
0
0
SPLINE
5
F9
100
AcDbEntity
8
1
62
256
6
ByLayer
370
18
48
1
60
0
100
AcDbSpline
70
4
71
3
72
14
73
10
40
0
40
0
40
0
40
0
40
0.268961547908917
40
0.268961547908917
40
0.499572125562422
40
0.499572125562422
40
0.776144880444683
40
0.776144880444683
40
1
40
1
40
1
40
1
41
1
10
25.2680462401745
20
-0.1102712311814
30
0
41
1
10
25.2687618595453
20
-0.110529337451681
30
0
41
1
10
25.269465368374
20
-0.11117038236921
30
0
41
1
10
25.2706306821504
20
-0.112804245253443
30
0
41
1
10
25.2711286706518
20
-0.113755801953545
30
0
41
1
10
25.2720749863365
20
-0.116120273767024
30
0
41
1
10
25.2725085886589
20
-0.117622836077914
30
0
41
1
10
25.2730680141497
20
-0.120536034333071
30
0
41
1
10
25.2732422805825
20
-0.121943450986123
30
0
41
1
10
25.273309794254
20
-0.123361494948227
30
0
0
SPLINE
5
FA
100
AcDbEntity
8
1
62
256
6
ByLayer
370
18
48
1
60
0
100
AcDbSpline
70
4
71
3
72
8
73
4
40
0
40
0
40
0
40
0
40
1
40
1
40
1
40
1
41
1
10
25.3180598881694
20
-1.5276809602172
30
0
41
1
10
25.3518008390203
20
-1.50870832851854
30
0
41
1
10
25.3856416119248
20
-1.48920591151852
30
0
41
1
10
25.4196057288689
20
-1.46919257508944
30
0
0
SPLINE
5
FB
100
AcDbEntity
8
1
62
256
6
ByLayer
370
18
48
1
60
0
100
AcDbSpline
70
4
71
3
72
26
73
22
40
0
40
0
40
0
40
0
40
0.130984691861183
40
0.130984691861183
40
0.261969383722367
40
0.261969383722367
40
0.39295407558355
40
0.39295407558355
40
0.523938767444733
40
0.523938767444733
40
0.589431113375325
40
0.589431113375325
40
0.654923459305916
40
0.654923459305916
40
0.785908151167099
40
0.785908151167099
40
0.851400497097691
40
0.851400497097691
40
0.916892843028283
40
0.916892843028283
40
1
40
1
40
1
40
1
41
1
10
25.2298167698439
20
0.122814079915685
30
0
41
1
10
25.0437023087611
20
0.222705628255198
30
0
41
1
10
24.8588106432878
20
0.322757606693131
30
0
41
1
10
24.4876268845872
20
0.516012919156992
30
0
41
1
10
24.3014759207727
20
0.609528902204346
30
0
41
1
10
23.9283634511184
20
0.790728588969984
30
0
41
1
10
23.7393982777244
20
0.876664878973031
30
-1E-16
41
1
10
23.3652221527631
20
1.03535451541515
30
-1E-16
41
1
10
23.1798485642046
20
1.10898152616696
30
-1E-16
41
1
10
22.9012101654121
20
1.20676933957563
30
0
41
1
10
22.8082754778898
20
1.23735767599391
30
0
41
1
10
22.6228025335217
20
1.29507081513063
30
0
41
1
10
22.530241640605
20
1.32213491634224
30
0
41
1
10
22.2516456868784
20
1.39644729962723
30
0
41
1
10
22.0647796540661
20
1.43710853451543
30
0
41
1
10
21.7836499734779
20
1.4850445424313
30
0
41
1
10
21.6895778860628
20
1.49871245753539
30
0
41
1
10
21.5022139478447
20
1.52086576346966
30
0
41
1
10
21.4087476819251
20
1.52944179522737
30
0
41
1
10
21.1970459319744
20
1.54336479712094
30
0
41
1
10
21.0792565676748
20
1.5472369035017
30
0
41
1
10
20.961561882539
20
1.54717711626972
30
0
0
SPLINE
5
FC
100
AcDbEntity
8
1
62
256
6
ByLayer
370
18
48
1
60
0
100
AcDbSpline
70
4
71
3
72
40
73
36
40
0
40
0
40
0
40
0
40
0.0632328810275804
40
0.0632328810275804
40
0.141296807608616
40
0.141296807608616
40
0.219360734189653
40
0.219360734189653
40
0.25839269748017
40
0.25839269748017
40
0.297424660770686
40
0.297424660770686
40
0.375488587351722
40
0.375488587351722
40
0.414520550642239
40
0.414520550642239
40
0.453552513932756
40
0.453552513932756
40
0.492584477223273
40
0.492584477223273
40
0.53161644051379
40
0.53161644051379
40
0.609680367094824
40
0.609680367094824
40
0.687744293675858
40
0.687744293675858
40
0.726776256966375
40
0.726776256966375
40
0.765808220256892
40
0.765808220256892
40
0.843872146837928
40
0.843872146837928
40
0.921936073418964
40
0.921936073418964
40
1
40
1
40
1
40
1
41
1
10
14.498721677685
20
-0.979201616605934
30
1E-16
41
1
10
14.3482346966168
20
-1.04168137467701
30
1E-16
41
1
10
14.1974652026871
20
-1.09984337945156
30
1E-16
41
1
10
13.8606262284348
20
-1.22096519828926
30
0
41
1
10
13.6729482119691
20
-1.28051050671255
30
0
41
1
10
13.296500180733
20
-1.38220819576253
30
0
41
1
10
13.1103826185198
20
-1.42471127027719
30
0
41
1
10
12.8311278418669
20
-1.47365644731931
30
0
41
1
10
12.7380659263433
20
-1.48758229688193
30
0
41
1
10
12.5522101394555
20
-1.51081792781829
30
0
41
1
10
12.4596045663137
20
-1.52017517622087
30
0
41
1
10
12.1812872824917
20
-1.54080878513537
30
0
41
1
10
11.9948718896637
20
-1.54482427445848
30
0
41
1
10
11.714468235519
20
-1.53614347599549
30
0
41
1
10
11.6209650254954
20
-1.53072771382924
30
0
41
1
10
11.432887907485
20
-1.51493913998865
30
0
41
1
10
11.3388053624059
20
-1.50459450459204
30
0
41
1
10
11.1513723004117
20
-1.47931404125862
30
0
41
1
10
11.0578687681517
20
-1.46438395179925
30
0
41
1
10
10.8717329025975
20
-1.42964945440545
30
0
41
1
10
10.7789086889093
20
-1.40994250441579
30
0
41
1
10
10.5001999887346
20
-1.34464289869854
30
0
41
1
10
10.3141787452546
20
-1.29297305154515
30
0
41
1
10
9.94273990291228
20
-1.17206905412834
30
1E-16
41
1
10
9.75615858314112
20
-1.10406120555624
30
1E-16
41
1
10
9.47426753242596
20
-0.991675402359249
30
1E-16
41
1
10
9.38003503171308
20
-0.952017651291811
30
1E-16
41
1
10
9.19260273564032
20
-0.870145554820255
30
1E-16
41
1
10
9.0990970199187
20
-0.828050983084466
30
1E-16
41
1
10
8.81902844837967
20
-0.698684221981381
30
0
41
1
10
8.633059627466
20
-0.608092778702911
30
0
41
1
10
8.26169542037906
20
-0.41987275196766
30
0
41
1
10
8.07592341344733
20
-0.322934420176779
30
0
41
1
10
7.70400836139365
20
-0.123587573387965
30
0
41
1
10
7.51702227556396
20
-0.0227459625689335
30
0
41
1
10
7.32786439141455
20
0.0769223423306471
30
0
0
SPLINE
5
FD
100
AcDbEntity
8
1
62
256
6
ByLayer
370
18
48
1
60
0
100
AcDbSpline
70
4
71
3
72
8
73
4
40
0
40
0
40
0
40
0
40
1
40
1
40
1
40
1
41
1
10
7.55490454072324
20
-1.53303349241966
30
0
41
1
10
7.53043199234151
20
-1.53188165318903
30
0
41
1
10
7.51221535993778
20
-1.52963440132263
30
0
41
1
10
7.50534535428093
20
-1.52625418013932
30
0
0
SPLINE
5
FE
100
AcDbEntity
8
1
62
256
6
ByLayer
370
18
48
1
60
0
100
AcDbSpline
70
4
71
2
72
6
73
3
40
0
40
0
40
0
40
1
40
1
40
1
41
1
10
12.3028351818097
20
0.0005076699640369
30
0
41
1
10
12.3028627444359
20
0.0004780326559342
30
0
41
1
10
12.3028903070808
20
0.0004470185183152
30
0
0
SPLINE
5
FF
100
AcDbEntity
8
1
62
256
6
ByLayer
370
18
48
1
60
0
100
AcDbSpline
70
4
71
1
72
4
73
2
40
0
40
0
40
1
40
1
41
1
10
25.4801667656081
20
1.44512271150199
30
0
41
1
10
25.4335015684604
20
1.47661957548979
30
0
0
SPLINE
5
100
100
AcDbEntity
8
1
62
256
6
ByLayer
370
18
48
1
60
0
100
AcDbSpline
70
4
71
1
72
4
73
2
40
0
40
0
40
1
40
1
41
1
10
25.4335015684604
20
-1.47661957548979
30
0
41
1
10
25.480166765608
20
-1.44512271150199
30
0
0
SPLINE
5
101
100
AcDbEntity
8
1
62
256
6
ByLayer
370
18
48
1
60
0
100
AcDbSpline
70
4
71
3
72
10
73
6
40
0
40
0
40
0
40
0
40
0.0404106223300138
40
0.443969905852921
40
1
40
1
40
1
40
1
41
1
10
25.5115400404075
20
0.196468583777772
30
0
41
1
10
25.4832937045946
20
0.206593279978676
30
0
41
1
10
25.1730930999824
20
0.318187333372293
30
0
41
1
10
24.4783573291524
20
0.580444761605236
30
0
41
1
10
23.816323141243
20
0.845969793025574
30
-1E-16
41
1
10
23.4346204922833
20
1.00535205885578
30
-1E-16
0
SPLINE
5
102
100
AcDbEntity
8
1
62
256
6
ByLayer
370
18
48
1
60
0
100
AcDbSpline
70
4
71
3
72
23
73
19
40
0
40
0
40
0
40
0
40
2.58436386103E-05
40
0.0001410545271701
40
0.0002473341355868
40
0.0003534118804197
40
0.0004636156264046
40
0.000919826698829
40
0.0035125974177025
40
0.0055960837818419
40
0.0094209529553373
40
0.0165837989148401
40
0.030435292261842
40
0.0585508444881991
40
0.119528586634007
40
0.262711528432095
40
0.57685176697659
40
1
40
1
40
1
40
1
41
1
10
16.9989611115831
20
0.0209736486091288
30
0
41
1
10
16.998964084962
20
0.0209752364914664
30
0
41
1
10
16.9989768411547
20
0.0209851306010478
30
0
41
1
10
16.9989633669999
20
0.0210149910382711
30
0
41
1
10
16.9988528216958
20
0.0210833547741345
30
0
41
1
10
16.9986736154817
20
0.0211693203283119
30
0
41
1
10
16.9982082446708
20
0.0213684504928437
30
0
41
1
10
16.9954777956848
20
0.0223718537810669
30
0
41
1
10
16.9910130399833
20
0.0238776056290249
30
0
41
1
10
16.9836342020686
20
0.026459943463891
30
0
41
1
10
16.9722836594445
20
0.030400796224427
30
0
41
1
10
16.950721115205
20
0.0379181230656229
30
0
41
1
10
16.9080820299128
20
0.0528037596542106
30
0
41
1
10
16.8187947736462
20
0.0841447286527455
30
0
41
1
10
16.6176026105127
20
0.155538793837252
30
0
41
1
10
16.1700216470094
20
0.318362397196807
30
0
41
1
10
15.4141934872806
20
0.605800037070964
30
0
41
1
10
14.786681890778
20
0.858909532385752
30
-1E-16
41
1
10
14.428384106673
20
1.00848300336887
30
-1E-16
0
SPLINE
5
103
100
AcDbEntity
8
1
62
256
6
ByLayer
370
18
48
1
60
0
100
AcDbSpline
70
4
71
3
72
13
73
9
40
0
40
0
40
0
40
0
40
0.268475311289755
40
0.467768432026581
40
0.598091148249875
40
0.690633713542925
40
0.945145355317242
40
1
40
1
40
1
40
1
41
1
10
16.8086827064615
20
-1.4673795799111
30
0
41
1
10
17.0669488826138
20
-1.46731089993523
30
0
41
1
10
17.5169339470464
20
-1.46742673254747
30
0
41
1
10
18.0923361886043
20
-1.4676315998687
30
0
41
1
10
18.4984380002595
20
-1.46858331768806
30
0
41
1
10
18.9577006590992
20
-1.46757214385681
30
0
41
1
10
19.3443256121041
20
-1.46859293901952
30
0
41
1
10
19.6419400994561
20
-1.4688688250782
30
0
41
1
10
19.6947113508375
20
-1.46890431550574
30
0
0
SPLINE
5
104
100
AcDbEntity
8
1
62
256
6
ByLayer
370
18
48
1
60
0
100
AcDbSpline
70
4
71
3
72
12
73
8
40
0
40
0
40
0
40
0
40
0.307964540562809
40
0.553365805450496
40
0.692382597034489
40
0.883067511849739
40
1
40
1
40
1
40
1
41
1
10
11.5499732490481
20
1.46334424104594
30
0
41
1
10
11.2486189147379
20
1.46313032791241
30
0
41
1
10
10.7069890366879
20
1.4626901257555
30
0
41
1
10
10.0295805240226
20
1.46376660251781
30
0
41
1
10
9.46594011644444
20
1.46230766770932
30
0
41
1
10
9.03466331563854
20
1.46154651428571
30
0
41
1
10
8.73742591025729
20
1.4575134072322
30
0
41
1
10
8.62449596152197
20
1.45554695347977
30
0
0
SPLINE
5
105
100
AcDbEntity
8
1
62
256
6
ByLayer
370
18
48
1
60
0
100
AcDbSpline
70
4
71
3
72
12
73
8
40
0
40
0
40
0
40
0
40
0.294451349294262
40
0.512992611069104
40
0.67231777357656
40
0.953568663934977
40
1
40
1
40
1
40
1
41
1
10
8.21930202363953
20
-1.44674749308163
30
0
41
1
10
8.46685895949432
20
-1.4531160983932
30
0
41
1
10
8.89949007761572
20
-1.46130794923258
30
0
41
1
10
9.46594011644456
20
-1.46230766770932
30
0
41
1
10
10.0295805240226
20
-1.46376660251781
30
0
41
1
10
10.4453216116515
20
-1.46310594412392
30
0
41
1
10
10.7251142518836
20
-1.46300861475862
30
0
41
1
10
10.7647607130417
20
-1.46300080668274
30
0
0
SPLINE
5
106
100
AcDbEntity
8
1
62
256
6
ByLayer
370
18
48
1
60
0
100
AcDbSpline
70
4
71
3
72
12
73
8
40
0
40
0
40
0
40
0
40
0.364359580302159
40
0.614455218509907
40
0.772932837136188
40
0.996300040306037
40
1
40
1
40
1
40
1
41
1
10
20.5513360360729
20
1.46871328161996
30
0
41
1
10
20.1975921571588
20
1.46866062521431
30
0
41
1
10
19.6010376489715
20
1.46860822818115
30
0
41
1
10
18.8503731984529
20
1.4678915494421
30
0
41
1
10
18.2369656218668
20
1.4683199357861
30
0
41
1
10
17.8625661407773
20
1.46763973137036
30
0
41
1
10
17.6420665182162
20
1.46743935372319
30
0
41
1
10
17.6384735745741
20
1.4674361412728
30
0
0
SPLINE
5
107
100
AcDbEntity
8
1
62
256
6
ByLayer
370
18
48
1
60
0
100
AcDbSpline
70
4
71
3
72
8
73
4
40
0
40
0
40
0
40
0
40
1
40
1
40
1
40
1
41
1
10
17.2327666878801
20
1.467267789472
30
0
41
1
10
17.091408900608
20
1.46726667712625
30
0
41
1
10
16.9500488348934
20
1.46731506841672
30
0
41
1
10
16.8086827064623
20
1.4673795799111
30
0
0
SPLINE
5
108
100
AcDbEntity
8
1
62
256
6
ByLayer
370
18
48
1
60
0
100
AcDbSpline
70
4
71
2
72
6
73
3
40
0
40
0
40
0
40
1
40
1
40
1
41
1
10
24.6567748285187
20
0.205208573589914
30
0
41
1
10
24.6567354883266
20
0.210172144944465
30
0
41
1
10
24.6566961476187
20
0.215135491927413
30
0
0
LINE
5
84
100
AcDbEntity
8
SK1
62
256
6
ByLayer
370
18
48
1
60
0
100
AcDbLine
10
0
20
3
30
0
11
0
21
-3
31
0
39
0
210
0
220
0
230
1
0
LINE
5
86
100
AcDbEntity
8
SK1
62
256
6
ByLayer
370
18
48
1
60
0
100
AcDbLine
10
-35.065
20
-3
30
0
11
-35.065
21
3
31
0
39
0
210
0
220
0
230
1
0
LINE
5
87
100
AcDbEntity
8
SK1
62
256
6
ByLayer
370
18
48
1
60
0
100
AcDbLine
10
-36
20
-2.065
30
0
11
-36
21
2.065
31
0
39
0
210
0
220
0
230
1
0
LINE
5
88
100
AcDbEntity
8
1
62
256
6
ByLayer
370
18
48
1
60
0
100
AcDbLine
10
1.594786
20
1.535098
30
0
11
1.594786
21
0
31
0
39
0
210
0
220
0
230
1
0
LINE
5
89
100
AcDbEntity
8
1
62
256
6
ByLayer
370
18
48
1
60
0
100
AcDbLine
10
1.594786
20
0
30
0
11
1.594786
21
-1.535098
31
0
39
0
210
0
220
0
230
1
0
LINE
5
8A
100
AcDbEntity
8
1
62
256
6
ByLayer
370
18
48
1
60
0
100
AcDbLine
10
12.2
20
-0.161296
30
0
11
12.2
21
-0.198576
31
0
39
0
210
0
220
0
230
1
0
LINE
5
8B
100
AcDbEntity
8
1
62
256
6
ByLayer
370
18
48
1
60
0
100
AcDbLine
10
0.797143
20
2.267549
30
0
11
0.797143
21
0
31
0
39
0
210
0
220
0
230
1
0
LINE
5
8C
100
AcDbEntity
8
1
62
256
6
ByLayer
370
18
48
1
60
0
100
AcDbLine
10
0.797143
20
0
30
0
11
0.797143
21
-2.267549
31
0
39
0
210
0
220
0
230
1
0
LINE
5
8D
100
AcDbEntity
8
1
62
256
6
ByLayer
370
18
48
1
60
0
100
AcDbLine
10
0
20
3
30
0
11
0
21
0
31
0
39
0
210
0
220
0
230
1
0
LINE
5
8E
100
AcDbEntity
8
1
62
256
6
ByLayer
370
18
48
1
60
0
100
AcDbLine
10
0
20
0
30
0
11
0
21
-3
31
0
39
0
210
0
220
0
230
1
0
LINE
5
8F
100
AcDbEntity
8
1
62
256
6
ByLayer
370
18
48
1
60
0
100
AcDbLine
10
25.972147
20
0.02406
30
0
11
25.593253
21
0.442293
31
0
39
0
210
0
220
0
230
1
0
LINE
5
90
100
AcDbEntity
8
1
62
256
6
ByLayer
370
18
48
1
60
0
100
AcDbLine
10
1.594786
20
-1.535098
30
0
11
7.239388
21
-1.538626
31
0
39
0
210
0
220
0
230
1
0
LINE
5
91
100
AcDbEntity
8
1
62
256
6
ByLayer
370
18
48
1
60
0
100
AcDbLine
10
7.239388
20
-1.538626
30
0
11
7.803442
21
-1.538978
31
0
39
0
210
0
220
0
230
1
0
LINE
5
92
100
AcDbEntity
8
1
62
256
6
ByLayer
370
18
48
1
60
0
100
AcDbLine
10
11.553396
20
-1.541322
30
0
11
11.969585
21
-1.541582
31
0
39
0
210
0
220
0
230
1
0
LINE
5
93
100
AcDbEntity
8
1
62
256
6
ByLayer
370
18
48
1
60
0
100
AcDbLine
10
16.399128
20
-1.544351
30
0
11
16.80344
21
-1.544603
31
0
39
0
210
0
220
0
230
1
0
LINE
5
94
100
AcDbEntity
8
1
62
256
6
ByLayer
370
18
48
1
60
0
100
AcDbLine
10
20.554497
20
-1.546948
30
0
11
20.960718
21
-1.547202
31
0
39
0
210
0
220
0
230
1
0
LINE
5
95
100
AcDbEntity
8
1
62
256
6
ByLayer
370
18
48
1
60
0
100
AcDbLine
10
20.960718
20
1.547202
30
0
11
20.554497
21
1.546948
31
0
39
0
210
0
220
0
230
1
0
LINE
5
96
100
AcDbEntity
8
1
62
256
6
ByLayer
370
18
48
1
60
0
100
AcDbLine
10
16.80344
20
1.544603
30
0
11
16.399128
21
1.544351
31
0
39
0
210
0
220
0
230
1
0
LINE
5
97
100
AcDbEntity
8
1
62
256
6
ByLayer
370
18
48
1
60
0
100
AcDbLine
10
11.969585
20
1.541582
30
0
11
11.553396
21
1.541322
31
0
39
0
210
0
220
0
230
1
0
LINE
5
98
100
AcDbEntity
8
1
62
256
6
ByLayer
370
18
48
1
60
0
100
AcDbLine
10
7.803442
20
1.538978
30
0
11
7.239388
21
1.538626
31
0
39
0
210
0
220
0
230
1
0
LINE
5
99
100
AcDbEntity
8
1
62
256
6
ByLayer
370
18
48
1
60
0
100
AcDbLine
10
7.239388
20
1.538626
30
0
11
1.594786
21
1.535098
31
0
39
0
210
0
220
0
230
1
0
LINE
5
9A
100
AcDbEntity
8
SK1
62
256
6
ByLayer
370
18
48
1
60
0
100
AcDbLine
10
-35.065
20
-3
30
0
11
0
21
-3
31
0
39
0
210
0
220
0
230
1
0
LINE
5
9B
100
AcDbEntity
8
SK1
62
256
6
ByLayer
370
18
48
1
60
0
100
AcDbLine
10
0
20
3
30
0
11
-35.065
21
3
31
0
39
0
210
0
220
0
230
1
0
LINE
5
9C
100
AcDbEntity
8
SK1
62
256
6
ByLayer
370
18
48
1
60
0
100
AcDbLine
10
-36
20
-2.065
30
0
11
-35.065
21
-3
31
0
39
0
210
0
220
0
230
1
0
LINE
5
9D
100
AcDbEntity
8
SK1
62
256
6
ByLayer
370
18
48
1
60
0
100
AcDbLine
10
-35.065
20
3
30
0
11
-36
21
2.065
31
0
39
0
210
0
220
0
230
1
0
LINE
5
9E
100
AcDbEntity
8
SK4
62
256
6
ByLayer
370
18
48
0.05
60
0
100
AcDbLine
10
31
20
0
30
0
11
-41
21
0
31
0
39
0
210
0
220
0
230
1
0
LINE
5
A0
100
AcDbEntity
8
4
62
256
6
ByLayer
370
18
48
0.05
60
0
100
AcDbLine
10
-36
20
0
30
0
11
31
21
0
31
0
39
0
210
0
220
0
230
1
0
LINE
5
A2
100
AcDbEntity
8
80
62
256
6
ByLayer
370
18
48
1
60
0
100
AcDbLine
10
0
20
0
30
0
11
-6
21
0
31
0
39
0
210
0
220
0
230
1
0
LINE
5
A3
100
AcDbEntity
8
81
62
256
6
ByLayer
370
18
48
1
60
0
100
AcDbLine
10
26
20
0
30
0
11
32
21
0
31
0
39
0
210
0
220
0
230
1
0
LINE
5
A4
100
AcDbEntity
8
SK2
62
256
6
ByLayer
370
13
48
1
60
0
100
AcDbLine
10
26.542996
20
1.491748
30
0
11
33.926889
21
21.777168
31
0
39
0
210
0
220
0
230
1
0
LINE
5
A6
100
AcDbEntity
8
SK2
62
256
6
ByLayer
370
13
48
1
60
0
100
AcDbLine
10
26.542996
20
-1.491748
30
0
11
33.926889
21
-21.777168
31
0
39
0
210
0
220
0
230
1
0
LINE
5
A7
100
AcDbEntity
8
1
62
256
6
ByLayer
370
13
48
1
60
0
100
AcDbLine
10
32.840897
20
18.793673
30
0
11
35.937466
21
17.977219
31
0
39
0
210
0
220
0
230
1
0
LINE
5
A8
100
AcDbEntity
8
1
62
256
6
ByLayer
370
13
48
1
60
0
100
AcDbLine
10
32.840897
20
18.793673
30
0
11
35.620642
21
17.203587
31
0
39
0
210
0
220
0
230
1
0
LINE
5
A9
100
AcDbEntity
8
1
62
256
6
ByLayer
370
13
48
1
60
0
100
AcDbLine
10
35.937466
20
17.977219
30
0
11
35.620642
21
17.203587
31
0
39
0
210
0
220
0
230
1
0
LINE
5
AA
100
AcDbEntity
8
1
62
256
6
ByLayer
370
13
48
1
60
0
100
AcDbLine
10
32.840897
20
-18.793673
30
0
11
35.620639
21
-17.203588
31
0
39
0
210
0
220
0
230
1
0
LINE
5
AB
100
AcDbEntity
8
1
62
256
6
ByLayer
370
13
48
1
60
0
100
AcDbLine
10
32.840897
20
-18.793673
30
0
11
35.937469
21
-17.977218
31
0
39
0
210
0
220
0
230
1
0
LINE
5
AC
100
AcDbEntity
8
1
62
256
6
ByLayer
370
13
48
1
60
0
100
AcDbLine
10
35.620639
20
-17.203588
30
0
11
35.937469
21
-17.977218
31
0
39
0
210
0
220
0
230
1
0
MTEXT
5
109
100
AcDbEntity
8
SK2
62
256
6
ByLayer
370
18
48
1
60
0
100
AcDbMText
10
39.717388
20
-2.467451
30
0
210
0
220
0
230
1
1
\W0.7237;140.00
40
3.50012
41
0
44
1.084337
50
0
71
7
72
5
7
iso_b_vert
0
MTEXT
5
10C
100
AcDbEntity
8
SK6
62
256
6
ByLayer
370
18
48
1
60
0
100
AcDbMText
10
-44.331725
20
-100.313495
30
0
210
0
220
0
230
1
1
\W0.7454;860.1-0310-009A0-GM X1BM
40
3.175
41
0
44
1.084337
50
0
71
7
72
5
7
iso_b_vert
0
DIMENSION
5
10F
100
AcDbEntity
8
SK2
62
256
6
ByLayer
370
18
48
1
60
0
100
AcDbDimension
2
_U0
10
26
20
-26.50012
30
0
11
13
21
-26.50012
31
0
70
32
71
2
72
1
41
1
210
0
220
0
230
1
3
Standard
100
AcDbAlignedDimension
13
0
23
-3
33
0
14
26
24
0
34
0
50
0
100
AcDbRotatedDimension
1001
ACAD
1000
DSTYLE
1002
{
1070
   371
1070
    13
1070
   372
1070
    13
1070
     3
1000

1070
   170
1070
     0
1070
   144
1040
1.0
1070
   277
1070
     2
1070
   284
1070
     8
1070
   278
1070
    46
1070
   146
1040
0.999966
1070
   345
1005
16
1070
   347
1005
16
1070
   346
1005
16
1070
   344
1005
110
1070
   343
1005
110
1070
   172
1070
     1
1070
    76
1070
     0
1070
    75
1070
     0
1070
   282
1070
     0
1070
   281
1070
     0
1070
    71
1070
     0
1070
    74
1070
     0
1070
   279
1070
     0
1070
   173
1070
     1
1070
   340
1005
10A
1070
   271
1070
     1
1070
   272
1070
     2
1070
    77
1070
     1
1070
    73
1070
     1
1070
   171
1070
     3
1070
   274
1070
     4
1070
   177
1070
   150
1070
   176
1070
     9
1070
   178
1070
    43
1070
    78
1070
     8
1070
    48
1040
-0.1
1070
    41
1040
3.175
1070
   147
1040
1.75006
1070
    42
1040
1.5875
1070
    44
1040
3.175
1070
   140
1040
3.50012
1002
}
1001
ACAD_DSTYLE_DIM_LINETYPE
1070
   380
1005
16
1001
ACAD_DSTYLE_DIM_EXT1_LINETYPE
1070
   381
1005
16
1001
ACAD_DSTYLE_DIM_EXT2_LINETYPE
1070
   382
1005
16
0
DIMENSION
5
135
100
AcDbEntity
8
2
62
256
6
ByLayer
370
18
48
1
60
0
100
AcDbDimension
2
_U1
10
32.75006
20
1.55
30
0
11
32.75006
21
16.623216
31
0
70
32
71
1
72
1
41
1
210
0
220
0
230
1
3
Standard
100
AcDbAlignedDimension
13
25.4358
23
-1.55
33
0
14
25.4358
24
1.55
34
0
50
90
100
AcDbRotatedDimension
1001
ACAD
1000
DSTYLE
1002
{
1070
   371
1070
    13
1070
   372
1070
    13
1070
     3
1000

1070
   170
1070
     0
1070
   144
1040
1.0
1070
   277
1070
     2
1070
   284
1070
     8
1070
   278
1070
    46
1070
   146
1040
0.999966
1070
   345
1005
16
1070
   347
1005
16
1070
   346
1005
16
1070
   344
1005
110
1070
   343
1005
110
1070
   172
1070
     1
1070
    76
1070
     0
1070
    75
1070
     0
1070
   282
1070
     0
1070
   281
1070
     0
1070
    71
1070
     0
1070
    74
1070
     0
1070
   279
1070
     0
1070
   173
1070
     1
1070
   340
1005
10A
1070
   271
1070
     1
1070
   272
1070
     2
1070
    77
1070
     1
1070
    73
1070
     0
1070
   171
1070
     3
1070
   274
1070
     4
1070
   177
1070
   150
1070
   176
1070
     9
1070
   178
1070
    43
1070
    78
1070
     8
1070
    48
1040
-0.1
1070
    41
1040
3.175
1070
   147
1040
1.75006
1070
    42
1040
1.5875
1070
    44
1040
3.175
1070
   140
1040
3.50012
1002
}
1001
ACAD_DSTYLE_DIM_LINETYPE
1070
   380
1005
16
1001
ACAD_DSTYLE_DIM_EXT1_LINETYPE
1070
   381
1005
16
1001
ACAD_DSTYLE_DIM_EXT2_LINETYPE
1070
   382
1005
16
0
DIMENSION
5
154
100
AcDbEntity
8
SK2
62
256
6
ByLayer
370
18
48
1
60
0
100
AcDbDimension
2
_U2
10
-39.24994
20
-3
30
0
11
-39.24994
21
17.10734
31
0
70
32
71
1
72
1
41
1
210
0
220
0
230
1
3
Standard
100
AcDbAlignedDimension
13
-36
23
3
33
0
14
-36
24
-3
34
0
50
90
100
AcDbRotatedDimension
1001
ACAD
1000
DSTYLE
1002
{
1070
   371
1070
    13
1070
   372
1070
    13
1070
     3
1000

1070
   170
1070
     0
1070
   144
1040
1.0
1070
   277
1070
     2
1070
   284
1070
     8
1070
   278
1070
    46
1070
   146
1040
0.999966
1070
   345
1005
16
1070
   347
1005
16
1070
   346
1005
16
1070
   344
1005
110
1070
   343
1005
110
1070
   172
1070
     1
1070
    76
1070
     0
1070
    75
1070
     0
1070
   282
1070
     0
1070
   281
1070
     0
1070
    71
1070
     0
1070
    74
1070
     0
1070
   279
1070
     0
1070
   173
1070
     1
1070
   340
1005
10A
1070
   271
1070
     1
1070
   272
1070
     2
1070
    77
1070
     1
1070
    73
1070
     0
1070
   171
1070
     3
1070
   274
1070
     4
1070
   177
1070
   150
1070
   176
1070
     9
1070
   178
1070
    43
1070
    78
1070
     8
1070
    48
1040
-0.1
1070
    41
1040
3.175
1070
   147
1040
1.75006
1070
    42
1040
1.5875
1070
    44
1040
3.175
1070
   140
1040
3.50012
1002
}
1001
ACAD_DSTYLE_DIM_LINETYPE
1070
   380
1005
16
1001
ACAD_DSTYLE_DIM_EXT1_LINETYPE
1070
   381
1005
16
1001
ACAD_DSTYLE_DIM_EXT2_LINETYPE
1070
   382
1005
16
0
DIMENSION
5
172
100
AcDbEntity
8
SK2
62
256
6
ByLayer
370
18
48
1
60
0
100
AcDbDimension
2
_U3
10
0
20
-26.50012
30
0
11
-18
21
-26.50012
31
0
70
32
71
1
72
1
41
1
210
0
220
0
230
1
3
Standard
100
AcDbAlignedDimension
13
-36
23
-3
33
0
14
0
24
-3
34
0
50
0
100
AcDbRotatedDimension
1001
ACAD
1000
DSTYLE
1002
{
1070
   371
1070
    13
1070
   372
1070
    13
1070
     3
1000

1070
   170
1070
     0
1070
   144
1040
1.0
1070
   277
1070
     2
1070
   284
1070
     8
1070
   278
1070
    46
1070
   146
1040
0.999966
1070
   345
1005
16
1070
   347
1005
16
1070
   346
1005
16
1070
   344
1005
110
1070
   343
1005
110
1070
   172
1070
     1
1070
    76
1070
     0
1070
    75
1070
     0
1070
   282
1070
     0
1070
   281
1070
     0
1070
    71
1070
     0
1070
    74
1070
     0
1070
   279
1070
     0
1070
   173
1070
     1
1070
   340
1005
10A
1070
   271
1070
     1
1070
   272
1070
     2
1070
    77
1070
     1
1070
    73
1070
     1
1070
   171
1070
     3
1070
   274
1070
     4
1070
   177
1070
   150
1070
   176
1070
     9
1070
   178
1070
    43
1070
    78
1070
     8
1070
    48
1040
-0.1
1070
    41
1040
3.175
1070
   147
1040
1.75006
1070
    42
1040
1.5875
1070
    44
1040
3.175
1070
   140
1040
3.50012
1002
}
1001
ACAD_DSTYLE_DIM_LINETYPE
1070
   380
1005
16
1001
ACAD_DSTYLE_DIM_EXT1_LINETYPE
1070
   381
1005
16
1001
ACAD_DSTYLE_DIM_EXT2_LINETYPE
1070
   382
1005
16
0
DIMENSION
5
18E
100
AcDbEntity
8
SK2
62
256
6
ByLayer
370
18
48
1
60
0
100
AcDbDimension
2
_U4
10
26
20
-17.74982
30
0
11
16
21
-17.74982
31
0
70
32
71
1
72
1
41
1
210
0
220
0
230
1
3
Standard
100
AcDbAlignedDimension
13
6
23
2.05
33
0
14
26
24
0
34
0
50
0
100
AcDbRotatedDimension
1001
ACAD
1000
DSTYLE
1002
{
1070
   371
1070
    13
1070
   372
1070
    13
1070
     3
1000

1070
   170
1070
     0
1070
   144
1040
1.0
1070
   277
1070
     2
1070
   284
1070
     8
1070
   278
1070
    46
1070
   146
1040
0.999966
1070
   345
1005
16
1070
   347
1005
16
1070
   346
1005
16
1070
   344
1005
110
1070
   343
1005
110
1070
   172
1070
     1
1070
    76
1070
     0
1070
    75
1070
     0
1070
   282
1070
     0
1070
   281
1070
     0
1070
    71
1070
     0
1070
    74
1070
     0
1070
   279
1070
     0
1070
   173
1070
     1
1070
   340
1005
10A
1070
   271
1070
     1
1070
   272
1070
     2
1070
    77
1070
     1
1070
    73
1070
     1
1070
   171
1070
     3
1070
   274
1070
     4
1070
   177
1070
   150
1070
   176
1070
     9
1070
   178
1070
    43
1070
    78
1070
     8
1070
    48
1040
-0.1
1070
    41
1040
3.175
1070
   147
1040
1.75006
1070
    42
1040
1.5875
1070
    44
1040
3.175
1070
   140
1040
3.50012
1002
}
1001
ACAD_DSTYLE_DIM_LINETYPE
1070
   380
1005
16
1001
ACAD_DSTYLE_DIM_EXT1_LINETYPE
1070
   381
1005
16
1001
ACAD_DSTYLE_DIM_EXT2_LINETYPE
1070
   382
1005
16
0
DIMENSION
5
1AA
100
AcDbEntity
8
SK2
62
256
6
ByLayer
370
18
48
1
60
0
100
AcDbDimension
2
_U5
10
26
20
-9.82
30
0
11
21.1
21
-9.82
31
0
70
32
71
1
72
1
41
1
210
0
220
0
230
1
3
Standard
100
AcDbAlignedDimension
13
16.2
23
-1.55
33
0
14
26
24
0
34
0
50
0
100
AcDbRotatedDimension
1001
ACAD
1000
DSTYLE
1002
{
1070
   371
1070
    13
1070
   372
1070
    13
1070
     3
1000

1070
   170
1070
     0
1070
   144
1040
1.0
1070
   277
1070
     2
1070
   284
1070
     8
1070
   278
1070
    46
1070
   146
1040
1.25
1070
   345
1005
16
1070
   347
1005
16
1070
   346
1005
16
1070
   344
1005
110
1070
   343
1005
110
1070
   172
1070
     1
1070
    76
1070
     0
1070
    75
1070
     0
1070
   282
1070
     0
1070
   281
1070
     0
1070
    71
1070
     0
1070
    74
1070
     0
1070
   279
1070
     0
1070
   173
1070
     1
1070
   340
1005
10A
1070
   271
1070
     1
1070
   272
1070
     2
1070
    77
1070
     1
1070
    73
1070
     1
1070
   171
1070
     3
1070
   274
1070
     4
1070
   177
1070
   150
1070
   176
1070
     9
1070
   178
1070
    43
1070
    78
1070
     8
1070
    48
1040
-0.1
1070
    41
1040
3.175
1070
   147
1040
0.42
1070
    42
1040
1.5875
1070
    44
1040
0.5
1070
   140
1040
2.8
1002
}
1001
ACAD_DSTYLE_DIM_LINETYPE
1070
   380
1005
16
1001
ACAD_DSTYLE_DIM_EXT1_LINETYPE
1070
   381
1005
16
1001
ACAD_DSTYLE_DIM_EXT2_LINETYPE
1070
   382
1005
16
0
DIMENSION
5
1C7
100
AcDbEntity
8
SK2
62
256
6
ByLayer
370
18
48
1
60
0
100
AcDbDimension
2
_U6
10
26
20
-36.50012
30
0
11
-5
21
-36.50012
31
0
70
32
71
1
72
1
41
1
210
0
220
0
230
1
3
Standard
100
AcDbAlignedDimension
13
-36
23
0
33
0
14
26
24
0
34
0
50
0
100
AcDbRotatedDimension
1001
ACAD
1000
DSTYLE
1002
{
1070
   371
1070
    13
1070
   372
1070
    13
1070
     3
1000

1070
   170
1070
     0
1070
   144
1040
1.0
1070
   277
1070
     2
1070
   284
1070
     8
1070
   278
1070
    46
1070
   146
1040
0.999966
1070
   345
1005
16
1070
   347
1005
16
1070
   346
1005
16
1070
   344
1005
110
1070
   343
1005
110
1070
   172
1070
     1
1070
    76
1070
     0
1070
    75
1070
     0
1070
   282
1070
     0
1070
   281
1070
     0
1070
    71
1070
     0
1070
    74
1070
     0
1070
   279
1070
     0
1070
   173
1070
     1
1070
   340
1005
10A
1070
   271
1070
     1
1070
   272
1070
     2
1070
    77
1070
     1
1070
    73
1070
     1
1070
   171
1070
     3
1070
   274
1070
     4
1070
   177
1070
   150
1070
   176
1070
     9
1070
   178
1070
    43
1070
    78
1070
     8
1070
    48
1040
-0.1
1070
    41
1040
3.175
1070
   147
1040
1.75006
1070
    42
1040
1.5875
1070
    44
1040
3.175
1070
   140
1040
3.50012
1002
}
1001
ACAD_DSTYLE_DIM_LINETYPE
1070
   380
1005
16
1001
ACAD_DSTYLE_DIM_EXT1_LINETYPE
1070
   381
1005
16
1001
ACAD_DSTYLE_DIM_EXT2_LINETYPE
1070
   382
1005
16
0
ENDSEC
0
SECTION
2
OBJECTS
0
DICTIONARY
5
253
330
0
100
AcDbDictionary
280
0
281
1
3
ACAD_GROUP
350
254
3
ACAD_MLINESTYLE
350
255
0
DICTIONARY
5
254
330
0
100
AcDbDictionary
280
0
281
1
0
DICTIONARY
5
255
330
0
100
AcDbDictionary
280
0
281
1
3
Standard
350
18
0
MLINESTYLE
5
18
330
255
100
AcDbMlineStyle
2
Standard
70
0
3

62
256
51
90
52
90
71
2
49
-0.5
62
256
6
ByLayer
49
0.5
62
256
6
ByLayer
0
RASTERVARIABLES
5
241
330

100
AcDbRasterVariables
90
0
70
1
71
1
72
1
0
ENDSEC
0
EOF
