0
SECTION
2
HEADER
9
$ACADVER
1
AC1015
9
$DWGCODEPAGE
3
ANSI_1252
9
$HANDSEED
5
252
9
$ANGBASE
50
0
9
$ANGDIR
70
0
9
$ATTMODE
70
1
9
$AUNITS
70
0
9
$AUPREC
70
0
9
$CECOLOR
62
256
9
$CELTSCALE
40
1
9
$CELTYPE
6
ByLayer
9
$CELWEIGHT
370
18
9
$CLAYER
8
0
9
$CMLJUST
70
0
9
$CMLSCALE
40
1
9
$CMLSTYLE
2
Standard
9
$DIMSTYLE
2
Standard
9
$TEXTSIZE
40
0.2
9
$TEXTSTYLE
7
Standard
9
$LUNITS
70
2
9
$LUPREC
70
4
9
$EXTNAMES
290
1
9
$INSUNITS
70
4
9
$LTSCALE
40
1
9
$LWDISPLAY
290
1
9
$PDMODE
70
0
9
$PDSIZE
40
0
9
$PLINEGEN
70
0
0
ENDSEC
0
SECTION
2
CLASSES
0
CLASS
1
RASTERVARIABLES
2
AcDbRasterVariables
3
ISM
90
0
280
0
281
0
0
ENDSEC
0
SECTION
2
TABLES
0
TABLE
2
VPORT
5
248
100
AcDbSymbolTable
0
VPORT
5
1
100
AcDbSymbolTableRecord
100
AcDbViewportTableRecord
2
*Active
70
0
10
0
20
0
11
1
21
1
12
-1
22
1
13
0
23
0
14
0.5
24
0.5
15
10
25
10
16
0
26
0
36
1
17
0
27
0
37
0
0
ENDTAB
0
TABLE
2
LTYPE
5
249
100
AcDbSymbolTable
0
LTYPE
5
14
100
AcDbSymbolTableRecord
100
AcDbLinetypeTableRecord
70
0
2
ByBlock
3

72
65
73
0
40
0
0
LTYPE
5
15
100
AcDbSymbolTableRecord
100
AcDbLinetypeTableRecord
70
0
2
ByLayer
3

72
65
73
0
40
0
0
LTYPE
5
16
100
AcDbSymbolTableRecord
100
AcDbLinetypeTableRecord
70
0
2
Continuous
3
Solid line
72
65
73
0
40
0
0
LTYPE
5
6E
100
AcDbSymbolTableRecord
100
AcDbLinetypeTableRecord
70
0
2
CENTER
3
____ _ ____ _ ____ _ ____
72
65
73
4
40
47.5
49
22
74
0
49
-8.5
74
0
49
8.5
74
0
49
-8.5
74
0
0
LTYPE
5
6F
100
AcDbSymbolTableRecord
100
AcDbLinetypeTableRecord
70
0
2
DASHED
3
__ __ __ __ __ __ __ __ __
72
65
73
2
40
25.72
49
12.86
74
0
49
-12.86
74
0
0
ENDTAB
0
TABLE
2
LAYER
5
24a
100
AcDbSymbolTable
0
LAYER
5
10
100
AcDbSymbolTableRecord
100
AcDbLayerTableRecord
2
0
70
0
62
7
6
Continuous
290
1
370
-3
390
0
0
LAYER
5
71
100
AcDbSymbolTableRecord
100
AcDbLayerTableRecord
2
80
70
0
62
-6
6
Continuous
290
1
370
-3
390
0
0
LAYER
5
73
100
AcDbSymbolTableRecord
100
AcDbLayerTableRecord
2
81
70
0
62
-3
6
Continuous
290
1
370
-3
390
0
0
LAYER
5
75
100
AcDbSymbolTableRecord
100
AcDbLayerTableRecord
2
1
70
0
62
4
6
Continuous
290
1
370
-3
390
0
0
LAYER
5
A2
100
AcDbSymbolTableRecord
100
AcDbLayerTableRecord
2
4
70
0
62
-2
6
CENTER
290
1
370
-3
390
0
0
LAYER
5
10B
100
AcDbSymbolTableRecord
100
AcDbLayerTableRecord
2
Defpoints
70
0
62
7
6
Continuous
290
0
370
-3
390
0
0
LAYER
5
138
100
AcDbSymbolTableRecord
100
AcDbLayerTableRecord
2
2
70
0
62
7
6
Continuous
290
1
370
-3
390
0
0
LAYER
5
234
100
AcDbSymbolTableRecord
100
AcDbLayerTableRecord
2
SK1
70
0
62
4
6
Continuous
290
1
370
-3
390
0
0
LAYER
5
235
100
AcDbSymbolTableRecord
100
AcDbLayerTableRecord
2
SK4
70
0
62
2
6
CENTER
290
1
370
-3
390
0
0
LAYER
5
236
100
AcDbSymbolTableRecord
100
AcDbLayerTableRecord
2
SK2
70
0
62
7
6
Continuous
290
1
370
-3
390
0
0
LAYER
5
237
100
AcDbSymbolTableRecord
100
AcDbLayerTableRecord
2
SK6
70
0
62
5
6
Continuous
290
1
370
-3
390
0
0
ENDTAB
0
TABLE
2
STYLE
5
24b
100
AcDbSymbolTable
0
STYLE
5
11
100
AcDbSymbolTableRecord
100
AcDbTextStyleTableRecord
2
Standard
3
txt
70
0
71
0
40
0
41
1
42
0
50
0
0
STYLE
5
FC
100
AcDbSymbolTableRecord
100
AcDbTextStyleTableRecord
2
iso_b_vert
3
simplex.shx
70
0
71
0
40
0
41
1
42
0
50
0
0
STYLE
5
FD
100
AcDbSymbolTableRecord
100
AcDbTextStyleTableRecord
2
DWGDirectTextStyle
3
simplex
70
0
71
0
40
0
41
1
42
0
50
0
0
ENDTAB
0
TABLE
2
DIMSTYLE
5
24c
100
AcDbSymbolTable
100
AcDbDimStyleTable
0
DIMSTYLE
105
27
100
AcDbSymbolTableRecord
100
AcDbDimStyleTableRecord
2
Standard
70
0
3
<>
41
0.18
42
0.0625
44
0.18
140
0.18
147
0.09
73
0
74
0
77
1
271
2
275
0
278
52
280
0
340
11
0
ENDTAB
0
TABLE
2
VIEW
5
24d
100
AcDbSymbolTable
0
ENDTAB
0
TABLE
2
UCS
5
24e
100
AcDbSymbolTable
0
ENDTAB
0
TABLE
2
APPID
5
24f
100
AcDbSymbolTable
0
APPID
5
12
100
AcDbSymbolTableRecord
100
AcDbRegAppTableRecord
2
ACAD
70
0
0
APPID
5
100
100
AcDbSymbolTableRecord
100
AcDbRegAppTableRecord
2
ACAD_DSTYLE_DIMBREAK
70
0
0
APPID
5
1F3
100
AcDbSymbolTableRecord
100
AcDbRegAppTableRecord
2
ACAD_DSTYLE_DIM_LINETYPE
70
0
0
APPID
5
1F4
100
AcDbSymbolTableRecord
100
AcDbRegAppTableRecord
2
ACAD_DSTYLE_DIM_EXT1_LINETYPE
70
0
0
APPID
5
1F5
100
AcDbSymbolTableRecord
100
AcDbRegAppTableRecord
2
ACAD_DSTYLE_DIM_EXT2_LINETYPE
70
0
0
APPID
5
230
100
AcDbSymbolTableRecord
100
AcDbRegAppTableRecord
2
ACAD_MLEADERVER
70
0
0
ENDTAB
0
TABLE
2
BLOCK_RECORD
5
250
100
AcDbSymbolTable
0
BLOCK_RECORD
5
1F
100
AcDbSymbolTableRecord
100
AcDbBlockTableRecord
2
*Model_Space
340
0
70
0
0
BLOCK_RECORD
5
1B
100
AcDbSymbolTableRecord
100
AcDbBlockTableRecord
2
*Paper_Space
340
0
70
0
0
BLOCK_RECORD
5
23
100
AcDbSymbolTableRecord
100
AcDbBlockTableRecord
2
*Paper_Space0
340
0
70
0
0
BLOCK_RECORD
5
102
100
AcDbSymbolTableRecord
100
AcDbBlockTableRecord
2
_Closed
340
0
70
0
0
BLOCK_RECORD
5
10C
100
AcDbSymbolTableRecord
100
AcDbBlockTableRecord
2
*D2
340
0
70
0
0
BLOCK_RECORD
5
118
100
AcDbSymbolTableRecord
100
AcDbBlockTableRecord
2
_U0
340
0
70
0
0
BLOCK_RECORD
5
12A
100
AcDbSymbolTableRecord
100
AcDbBlockTableRecord
2
*D4
340
0
70
0
0
BLOCK_RECORD
5
139
100
AcDbSymbolTableRecord
100
AcDbBlockTableRecord
2
_U1
340
0
70
0
0
BLOCK_RECORD
5
149
100
AcDbSymbolTableRecord
100
AcDbBlockTableRecord
2
*D6
340
0
70
0
0
BLOCK_RECORD
5
157
100
AcDbSymbolTableRecord
100
AcDbBlockTableRecord
2
_U2
340
0
70
0
0
BLOCK_RECORD
5
167
100
AcDbSymbolTableRecord
100
AcDbBlockTableRecord
2
*D8
340
0
70
0
0
BLOCK_RECORD
5
173
100
AcDbSymbolTableRecord
100
AcDbBlockTableRecord
2
_U3
340
0
70
0
0
BLOCK_RECORD
5
183
100
AcDbSymbolTableRecord
100
AcDbBlockTableRecord
2
*D10
340
0
70
0
0
BLOCK_RECORD
5
18F
100
AcDbSymbolTableRecord
100
AcDbBlockTableRecord
2
_U4
340
0
70
0
0
BLOCK_RECORD
5
19F
100
AcDbSymbolTableRecord
100
AcDbBlockTableRecord
2
*D12
340
0
70
0
0
BLOCK_RECORD
5
1AC
100
AcDbSymbolTableRecord
100
AcDbBlockTableRecord
2
_U5
340
0
70
0
0
BLOCK_RECORD
5
1BC
100
AcDbSymbolTableRecord
100
AcDbBlockTableRecord
2
*D14
340
0
70
0
0
BLOCK_RECORD
5
1C8
100
AcDbSymbolTableRecord
100
AcDbBlockTableRecord
2
_U6
340
0
70
0
0
ENDTAB
0
ENDSEC
0
SECTION
2
BLOCKS
0
BLOCK
5
20
100
AcDbEntity
8
0
100
AcDbBlockBegin
2
*Model_Space
70
0
10
0
20
0
30
0
3
*Model_Space
0
ENDBLK
5
21
100
AcDbEntity
8
0
100
AcDbBlockEnd
0
BLOCK
5
1C
100
AcDbEntity
8
0
100
AcDbBlockBegin
2
*Paper_Space
70
0
10
0
20
0
30
0
3
*Paper_Space
0
ENDBLK
5
1D
100
AcDbEntity
8
0
100
AcDbBlockEnd
0
BLOCK
5
24
100
AcDbEntity
8
0
100
AcDbBlockBegin
2
*Paper_Space0
70
0
10
0
20
0
30
0
3
*Paper_Space0
0
ENDBLK
5
25
100
AcDbEntity
8
0
100
AcDbBlockEnd
0
BLOCK
5
103
100
AcDbEntity
8
0
100
AcDbBlockBegin
2
_Closed
70
0
10
0
20
0
30
0
3
_Closed
0
LINE
5
105
100
AcDbEntity
8
0
62
256
6
ByLayer
370
-2
48
1
60
0
100
AcDbLine
10
-1
20
0.166667
30
0
11
0
21
0
31
0
39
0
210
0
220
0
230
1
0
LINE
5
106
100
AcDbEntity
8
0
62
256
6
ByLayer
370
-2
48
1
60
0
100
AcDbLine
10
0
20
0
30
0
11
-1
21
-0.166667
31
0
39
0
210
0
220
0
230
1
0
LINE
5
107
100
AcDbEntity
8
0
62
256
6
ByLayer
370
-2
48
1
60
0
100
AcDbLine
10
-1
20
0.166667
30
0
11
-1
21
-0.166667
31
0
39
0
210
0
220
0
230
1
0
LINE
5
108
100
AcDbEntity
8
0
62
256
6
ByLayer
370
-2
48
1
60
0
100
AcDbLine
10
0
20
0
30
0
11
-1
21
0
31
0
39
0
210
0
220
0
230
1
0
ENDBLK
5
104
100
AcDbEntity
8
0
100
AcDbBlockEnd
0
BLOCK
5
10D
100
AcDbEntity
8
0
100
AcDbBlockBegin
2
*D2
70
1
10
0
20
0
30
0
3
*D2
0
LINE
5
10F
100
AcDbEntity
8
0
62
256
6
ByLayer
370
-2
48
1
60
0
100
AcDbLine
10
0
20
-4.5875
30
0
11
0
21
-29.67512
31
0
39
0
210
0
220
0
230
1
0
LINE
5
110
100
AcDbEntity
8
0
62
256
6
ByLayer
370
-2
48
1
60
0
100
AcDbLine
10
30
20
-1.5875
30
0
11
30
21
-29.67512
31
0
39
0
210
0
220
0
230
1
0
LINE
5
111
100
AcDbEntity
8
0
62
256
6
ByLayer
370
-2
48
1
60
0
100
AcDbLine
10
3.175
20
-26.50012
30
0
11
26.825
21
-26.50012
31
0
39
0
210
0
220
0
230
1
0
SOLID
5
112
100
AcDbEntity
8
0
62
256
6
ByLayer
370
-1
48
1
60
0
100
AcDbTrace
10
3.175
20
-25.970953
30
0
11
3.175
21
-27.029287
31
0
12
0
22
-26.50012
32
0
13
0
23
-26.50012
33
0
39
0
210
0
220
0
230
1
0
SOLID
5
113
100
AcDbEntity
8
0
62
256
6
ByLayer
370
-1
48
1
60
0
100
AcDbTrace
10
26.825
20
-27.029287
30
0
11
26.825
21
-25.970953
31
0
12
30
22
-26.50012
32
0
13
30
23
-26.50012
33
0
39
0
210
0
220
0
230
1
0
MTEXT
5
114
100
AcDbEntity
8
0
62
256
6
ByLayer
370
18
48
1
60
0
100
AcDbMText
10
15
20
-19.193619
30
0
210
0
220
0
230
1
1
\A1;30
40
3.50012
41
0
44
1
50
0
71
5
72
5
7
iso_b_vert
0
POINT
5
115
100
AcDbEntity
8
Defpoints
62
0
6
ByLayer
370
-1
48
1
60
0
100
AcDbPoint
10
0
20
-3
30
0
39
0
210
0
220
0
230
1
50
360
0
POINT
5
116
100
AcDbEntity
8
Defpoints
62
0
6
ByLayer
370
-1
48
1
60
0
100
AcDbPoint
10
30
20
0
30
0
39
0
210
0
220
0
230
1
50
360
0
POINT
5
117
100
AcDbEntity
8
Defpoints
62
0
6
ByLayer
370
-1
48
1
60
0
100
AcDbPoint
10
30
20
-26.50012
30
0
39
0
210
0
220
0
230
1
50
360
0
ENDBLK
5
10E
100
AcDbEntity
8
0
100
AcDbBlockEnd
0
BLOCK
5
125
100
AcDbEntity
8
0
100
AcDbBlockBegin
2
_U0
70
0
10
0
20
0
30
0
3
_U0
0
MTEXT
5
119
100
AcDbEntity
8
SK2
62
256
6
ByLayer
370
18
48
1
60
0
100
AcDbMText
10
9.770389
20
-25.467451
30
0
210
0
220
0
230
1
1
\W0.7468;30.00
40
3.50012
41
0
44
1.084337
50
0
71
7
72
5
7
iso_b_vert
0
MTEXT
5
11A
100
AcDbEntity
8
SK2
62
256
6
ByLayer
370
18
48
1
60
0
100
AcDbMText
10
6.244329
20
-25.400814
30
0
210
0
220
0
230
1
1
\W0.1790;(
40
3.175
41
0
44
1.084337
50
0
71
7
72
5
7
iso_b_vert
0
MTEXT
5
11B
100
AcDbEntity
8
SK2
62
256
6
ByLayer
370
18
48
1
60
0
100
AcDbMText
10
23.758393
20
-25.400814
30
0
210
0
220
0
230
1
1
\W0.1969;)
40
3.175
41
0
44
1.084337
50
0
71
7
72
5
7
iso_b_vert
0
LINE
5
11C
100
AcDbEntity
8
SK2
62
256
6
ByLayer
370
13
48
1
60
0
100
AcDbLine
10
0
20
-4.5875
30
0
11
0
21
-29.67512
31
0
39
0
210
0
220
0
230
1
0
LINE
5
11D
100
AcDbEntity
8
SK2
62
256
6
ByLayer
370
13
48
1
60
0
100
AcDbLine
10
30
20
-1.5875
30
0
11
30
21
-29.67512
31
0
39
0
210
0
220
0
230
1
0
LINE
5
11E
100
AcDbEntity
8
SK2
62
256
6
ByLayer
370
13
48
1
60
0
100
AcDbLine
10
0
20
-26.50012
30
0
11
30
21
-26.50012
31
0
39
0
210
0
220
0
230
1
0
LINE
5
11F
100
AcDbEntity
8
SK2
62
256
6
ByLayer
370
13
48
1
60
0
100
AcDbLine
10
0
20
-26.50012
30
0
11
3.174998
21
-26.082123
31
0
39
0
210
0
220
0
230
1
0
LINE
5
120
100
AcDbEntity
8
SK2
62
256
6
ByLayer
370
13
48
1
60
0
100
AcDbLine
10
0
20
-26.50012
30
0
11
3.175002
21
-26.918117
31
0
39
0
210
0
220
0
230
1
0
LINE
5
121
100
AcDbEntity
8
SK2
62
256
6
ByLayer
370
13
48
1
60
0
100
AcDbLine
10
3.174998
20
-26.082123
30
0
11
3.175002
21
-26.918117
31
0
39
0
210
0
220
0
230
1
0
LINE
5
122
100
AcDbEntity
8
SK2
62
256
6
ByLayer
370
13
48
1
60
0
100
AcDbLine
10
30
20
-26.50012
30
0
11
26.825002
21
-26.918117
31
0
39
0
210
0
220
0
230
1
0
LINE
5
123
100
AcDbEntity
8
SK2
62
256
6
ByLayer
370
13
48
1
60
0
100
AcDbLine
10
30
20
-26.50012
30
0
11
26.824998
21
-26.082123
31
0
39
0
210
0
220
0
230
1
0
LINE
5
124
100
AcDbEntity
8
SK2
62
256
6
ByLayer
370
13
48
1
60
0
100
AcDbLine
10
26.825002
20
-26.918117
30
0
11
26.824998
21
-26.082123
31
0
39
0
210
0
220
0
230
1
0
ENDBLK
5
126
100
AcDbEntity
8
0
100
AcDbBlockEnd
0
BLOCK
5
12B
100
AcDbEntity
8
0
100
AcDbBlockBegin
2
*D4
70
1
10
0
20
0
30
0
3
*D4
0
LINE
5
12D
100
AcDbEntity
8
0
62
256
6
ByLayer
370
-2
48
1
60
0
100
AcDbLine
10
30.7868
20
-2.2
30
0
11
39.92506
21
-2.2
31
0
39
0
210
0
220
0
230
1
0
LINE
5
12E
100
AcDbEntity
8
0
62
256
6
ByLayer
370
-2
48
1
60
0
100
AcDbLine
10
30.7868
20
2.2
30
0
11
39.92506
21
2.2
31
0
39
0
210
0
220
0
230
1
0
LINE
5
12F
100
AcDbEntity
8
0
62
256
6
ByLayer
370
-2
48
1
60
0
100
AcDbLine
10
36.75006
20
2.2
30
0
11
36.75006
21
27.163138
31
0
39
0
210
0
220
0
230
1
0
LINE
5
130
100
AcDbEntity
8
0
62
256
6
ByLayer
370
-2
48
1
60
0
100
AcDbLine
10
36.75006
20
-5.375
30
0
11
36.75006
21
-8.55
31
0
39
0
210
0
220
0
230
1
0
LINE
5
131
100
AcDbEntity
8
0
62
256
6
ByLayer
370
-2
48
1
60
0
100
AcDbLine
10
36.75006
20
5.375
30
0
11
36.75006
21
8.55
31
0
39
0
210
0
220
0
230
1
0
SOLID
5
132
100
AcDbEntity
8
0
62
256
6
ByLayer
370
-1
48
1
60
0
100
AcDbTrace
10
37.279227
20
-5.375
30
0
11
36.220893
21
-5.375
31
0
12
36.75006
22
-2.2
32
0
13
36.75006
23
-2.2
33
0
39
0
210
0
220
0
230
1
0
SOLID
5
133
100
AcDbEntity
8
0
62
256
6
ByLayer
370
-1
48
1
60
0
100
AcDbTrace
10
36.220893
20
5.375
30
0
11
37.279227
21
5.375
31
0
12
36.75006
22
2.2
32
0
13
36.75006
23
2.2
33
0
39
0
210
0
220
0
230
1
0
MTEXT
5
134
100
AcDbEntity
8
0
62
256
6
ByLayer
370
18
48
1
60
0
100
AcDbMText
10
29.443559
20
17.856569
30
0
210
0
220
0
230
1
1
\A1;4.4
40
3.50012
41
0
44
1
50
90
71
5
72
5
7
iso_b_vert
0
POINT
5
135
100
AcDbEntity
8
Defpoints
62
0
6
ByLayer
370
-1
48
1
60
0
100
AcDbPoint
10
29.1993
20
-2.2
30
0
39
0
210
0
220
0
230
1
50
360
0
POINT
5
136
100
AcDbEntity
8
Defpoints
62
0
6
ByLayer
370
-1
48
1
60
0
100
AcDbPoint
10
29.1993
20
2.2
30
0
39
0
210
0
220
0
230
1
50
360
0
POINT
5
137
100
AcDbEntity
8
Defpoints
62
0
6
ByLayer
370
-1
48
1
60
0
100
AcDbPoint
10
36.75006
20
2.2
30
0
39
0
210
0
220
0
230
1
50
360
0
ENDBLK
5
12C
100
AcDbEntity
8
0
100
AcDbBlockEnd
0
BLOCK
5
144
100
AcDbEntity
8
0
100
AcDbBlockBegin
2
_U1
70
0
10
0
20
0
30
0
3
_U1
0
MTEXT
5
13A
100
AcDbEntity
8
2
62
256
6
ByLayer
370
18
48
1
60
0
100
AcDbMText
10
36.060403
20
6.357505
30
0
210
0
220
0
230
1
1
\W0.7983;4.40
40
3.50012
41
0
44
1.084337
50
90
71
7
72
5
7
iso_b_vert
0
LINE
5
13B
100
AcDbEntity
8
2
62
256
6
ByLayer
370
13
48
1
60
0
100
AcDbLine
10
30.7868
20
-2.2
30
0
11
39.92506
21
-2.2
31
0
39
0
210
0
220
0
230
1
0
LINE
5
13C
100
AcDbEntity
8
2
62
256
6
ByLayer
370
13
48
1
60
0
100
AcDbLine
10
30.7868
20
2.2
30
0
11
39.92506
21
2.2
31
0
39
0
210
0
220
0
230
1
0
LINE
5
13D
100
AcDbEntity
8
2
62
256
6
ByLayer
370
13
48
1
60
0
100
AcDbLine
10
36.75006
20
15.151772
30
0
11
36.75006
21
-10.9503
31
0
39
0
210
0
220
0
230
1
0
LINE
5
13E
100
AcDbEntity
8
2
62
256
6
ByLayer
370
13
48
1
60
0
100
AcDbLine
10
36.75006
20
-2.2
30
0
11
37.168057
21
-5.374998
31
0
39
0
210
0
220
0
230
1
0
LINE
5
13F
100
AcDbEntity
8
2
62
256
6
ByLayer
370
13
48
1
60
0
100
AcDbLine
10
36.75006
20
-2.2
30
0
11
36.332063
21
-5.375002
31
0
39
0
210
0
220
0
230
1
0
LINE
5
140
100
AcDbEntity
8
2
62
256
6
ByLayer
370
13
48
1
60
0
100
AcDbLine
10
37.168057
20
-5.374998
30
0
11
36.332063
21
-5.375002
31
0
39
0
210
0
220
0
230
1
0
LINE
5
141
100
AcDbEntity
8
2
62
256
6
ByLayer
370
13
48
1
60
0
100
AcDbLine
10
36.75006
20
2.2
30
0
11
36.332063
21
5.374998
31
0
39
0
210
0
220
0
230
1
0
LINE
5
142
100
AcDbEntity
8
2
62
256
6
ByLayer
370
13
48
1
60
0
100
AcDbLine
10
36.75006
20
2.2
30
0
11
37.168057
21
5.375002
31
0
39
0
210
0
220
0
230
1
0
LINE
5
143
100
AcDbEntity
8
2
62
256
6
ByLayer
370
13
48
1
60
0
100
AcDbLine
10
36.332063
20
5.374998
30
0
11
37.168057
21
5.375002
31
0
39
0
210
0
220
0
230
1
0
ENDBLK
5
145
100
AcDbEntity
8
0
100
AcDbBlockEnd
0
BLOCK
5
14A
100
AcDbEntity
8
0
100
AcDbBlockBegin
2
*D6
70
1
10
0
20
0
30
0
3
*D6
0
LINE
5
14C
100
AcDbEntity
8
0
62
256
6
ByLayer
370
-2
48
1
60
0
100
AcDbLine
10
-37.5875
20
3
30
0
11
-42.42494
21
3
31
0
39
0
210
0
220
0
230
1
0
LINE
5
14D
100
AcDbEntity
8
0
62
256
6
ByLayer
370
-2
48
1
60
0
100
AcDbLine
10
-37.5875
20
-3
30
0
11
-42.42494
21
-3
31
0
39
0
210
0
220
0
230
1
0
LINE
5
14E
100
AcDbEntity
8
0
62
256
6
ByLayer
370
-2
48
1
60
0
100
AcDbLine
10
-39.24994
20
3
30
0
11
-39.24994
21
23.747151
31
0
39
0
210
0
220
0
230
1
0
LINE
5
14F
100
AcDbEntity
8
0
62
256
6
ByLayer
370
-2
48
1
60
0
100
AcDbLine
10
-39.24994
20
6.175
30
0
11
-39.24994
21
9.35
31
0
39
0
210
0
220
0
230
1
0
LINE
5
150
100
AcDbEntity
8
0
62
256
6
ByLayer
370
-2
48
1
60
0
100
AcDbLine
10
-39.24994
20
-6.175
30
0
11
-39.24994
21
-9.35
31
0
39
0
210
0
220
0
230
1
0
SOLID
5
151
100
AcDbEntity
8
0
62
256
6
ByLayer
370
-1
48
1
60
0
100
AcDbTrace
10
-39.779107
20
6.175
30
0
11
-38.720773
21
6.175
31
0
12
-39.24994
22
3
32
0
13
-39.24994
23
3
33
0
39
0
210
0
220
0
230
1
0
SOLID
5
152
100
AcDbEntity
8
0
62
256
6
ByLayer
370
-1
48
1
60
0
100
AcDbTrace
10
-38.720773
20
-6.175
30
0
11
-39.779107
21
-6.175
31
0
12
-39.24994
22
-3
32
0
13
-39.24994
23
-3
33
0
39
0
210
0
220
0
230
1
0
MTEXT
5
153
100
AcDbEntity
8
0
62
256
6
ByLayer
370
18
48
1
60
0
100
AcDbMText
10
-46.556441
20
17.10734
30
0
210
0
220
0
230
1
1
\A1;6
40
3.50012
41
0
44
1
50
90
71
5
72
5
7
iso_b_vert
0
POINT
5
154
100
AcDbEntity
8
Defpoints
62
0
6
ByLayer
370
-1
48
1
60
0
100
AcDbPoint
10
-36
20
3
30
0
39
0
210
0
220
0
230
1
50
360
0
POINT
5
155
100
AcDbEntity
8
Defpoints
62
0
6
ByLayer
370
-1
48
1
60
0
100
AcDbPoint
10
-36
20
-3
30
0
39
0
210
0
220
0
230
1
50
360
0
POINT
5
156
100
AcDbEntity
8
Defpoints
62
0
6
ByLayer
370
-1
48
1
60
0
100
AcDbPoint
10
-39.24994
20
-3
30
0
39
0
210
0
220
0
230
1
50
360
0
ENDBLK
5
14B
100
AcDbEntity
8
0
100
AcDbBlockEnd
0
BLOCK
5
162
100
AcDbEntity
8
0
100
AcDbBlockBegin
2
_U2
70
0
10
0
20
0
30
0
3
_U2
0
MTEXT
5
158
100
AcDbEntity
8
SK2
62
256
6
ByLayer
370
18
48
1
60
0
100
AcDbMText
10
-39.939597
20
13.157505
30
0
210
0
220
0
230
1
1
\W0.7346;6.00
40
3.50012
41
0
44
1.084337
50
90
71
7
72
5
7
iso_b_vert
0
LINE
5
159
100
AcDbEntity
8
SK2
62
256
6
ByLayer
370
13
48
1
60
0
100
AcDbLine
10
-37.5875
20
3
30
0
11
-42.42494
21
3
31
0
39
0
210
0
220
0
230
1
0
LINE
5
15A
100
AcDbEntity
8
SK2
62
256
6
ByLayer
370
13
48
1
60
0
100
AcDbLine
10
-37.5875
20
-3
30
0
11
-42.42494
21
-3
31
0
39
0
210
0
220
0
230
1
0
LINE
5
15B
100
AcDbEntity
8
SK2
62
256
6
ByLayer
370
13
48
1
60
0
100
AcDbLine
10
-39.24994
20
-11.7503
30
0
11
-39.24994
21
21.21468
31
0
39
0
210
0
220
0
230
1
0
LINE
5
15C
100
AcDbEntity
8
SK2
62
256
6
ByLayer
370
13
48
1
60
0
100
AcDbLine
10
-39.24994
20
3
30
0
11
-39.667937
21
6.174998
31
0
39
0
210
0
220
0
230
1
0
LINE
5
15D
100
AcDbEntity
8
SK2
62
256
6
ByLayer
370
13
48
1
60
0
100
AcDbLine
10
-39.24994
20
3
30
0
11
-38.831943
21
6.175002
31
0
39
0
210
0
220
0
230
1
0
LINE
5
15E
100
AcDbEntity
8
SK2
62
256
6
ByLayer
370
13
48
1
60
0
100
AcDbLine
10
-39.667937
20
6.174998
30
0
11
-38.831943
21
6.175002
31
0
39
0
210
0
220
0
230
1
0
LINE
5
15F
100
AcDbEntity
8
SK2
62
256
6
ByLayer
370
13
48
1
60
0
100
AcDbLine
10
-39.24994
20
-3
30
0
11
-38.831943
21
-6.174998
31
0
39
0
210
0
220
0
230
1
0
LINE
5
160
100
AcDbEntity
8
SK2
62
256
6
ByLayer
370
13
48
1
60
0
100
AcDbLine
10
-39.24994
20
-3
30
0
11
-39.667937
21
-6.175002
31
0
39
0
210
0
220
0
230
1
0
LINE
5
161
100
AcDbEntity
8
SK2
62
256
6
ByLayer
370
13
48
1
60
0
100
AcDbLine
10
-38.831943
20
-6.174998
30
0
11
-39.667937
21
-6.175002
31
0
39
0
210
0
220
0
230
1
0
ENDBLK
5
163
100
AcDbEntity
8
0
100
AcDbBlockEnd
0
BLOCK
5
168
100
AcDbEntity
8
0
100
AcDbBlockBegin
2
*D8
70
1
10
0
20
0
30
0
3
*D8
0
LINE
5
16A
100
AcDbEntity
8
0
62
256
6
ByLayer
370
-2
48
1
60
0
100
AcDbLine
10
-36
20
-4.5875
30
0
11
-36
21
-29.67512
31
0
39
0
210
0
220
0
230
1
0
LINE
5
16B
100
AcDbEntity
8
0
62
256
6
ByLayer
370
-2
48
1
60
0
100
AcDbLine
10
0
20
-4.5875
30
0
11
0
21
-29.67512
31
0
39
0
210
0
220
0
230
1
0
LINE
5
16C
100
AcDbEntity
8
0
62
256
6
ByLayer
370
-2
48
1
60
0
100
AcDbLine
10
-32.825
20
-26.50012
30
0
11
-3.175
21
-26.50012
31
0
39
0
210
0
220
0
230
1
0
SOLID
5
16D
100
AcDbEntity
8
0
62
256
6
ByLayer
370
-1
48
1
60
0
100
AcDbTrace
10
-32.825
20
-25.970953
30
0
11
-32.825
21
-27.029287
31
0
12
-36
22
-26.50012
32
0
13
-36
23
-26.50012
33
0
39
0
210
0
220
0
230
1
0
SOLID
5
16E
100
AcDbEntity
8
0
62
256
6
ByLayer
370
-1
48
1
60
0
100
AcDbTrace
10
-3.175
20
-27.029287
30
0
11
-3.175
21
-25.970953
31
0
12
0
22
-26.50012
32
0
13
0
23
-26.50012
33
0
39
0
210
0
220
0
230
1
0
MTEXT
5
16F
100
AcDbEntity
8
0
62
256
6
ByLayer
370
18
48
1
60
0
100
AcDbMText
10
-18
20
-19.193619
30
0
210
0
220
0
230
1
1
\A1;36
40
3.50012
41
0
44
1
50
0
71
5
72
5
7
iso_b_vert
0
POINT
5
170
100
AcDbEntity
8
Defpoints
62
0
6
ByLayer
370
-1
48
1
60
0
100
AcDbPoint
10
-36
20
-3
30
0
39
0
210
0
220
0
230
1
50
360
0
POINT
5
171
100
AcDbEntity
8
Defpoints
62
0
6
ByLayer
370
-1
48
1
60
0
100
AcDbPoint
10
0
20
-3
30
0
39
0
210
0
220
0
230
1
50
360
0
POINT
5
172
100
AcDbEntity
8
Defpoints
62
0
6
ByLayer
370
-1
48
1
60
0
100
AcDbPoint
10
0
20
-26.50012
30
0
39
0
210
0
220
0
230
1
50
360
0
ENDBLK
5
169
100
AcDbEntity
8
0
100
AcDbBlockEnd
0
BLOCK
5
17E
100
AcDbEntity
8
0
100
AcDbBlockBegin
2
_U3
70
0
10
0
20
0
30
0
3
_U3
0
MTEXT
5
174
100
AcDbEntity
8
SK2
62
256
6
ByLayer
370
18
48
1
60
0
100
AcDbMText
10
-23.229611
20
-25.467451
30
0
210
0
220
0
230
1
1
\W0.7468;36.00
40
3.50012
41
0
44
1.084337
50
0
71
7
72
5
7
iso_b_vert
0
LINE
5
175
100
AcDbEntity
8
SK2
62
256
6
ByLayer
370
13
48
1
60
0
100
AcDbLine
10
-36
20
-4.5875
30
0
11
-36
21
-29.67512
31
0
39
0
210
0
220
0
230
1
0
LINE
5
176
100
AcDbEntity
8
SK2
62
256
6
ByLayer
370
13
48
1
60
0
100
AcDbLine
10
0
20
-4.5875
30
0
11
0
21
-29.67512
31
0
39
0
210
0
220
0
230
1
0
LINE
5
177
100
AcDbEntity
8
SK2
62
256
6
ByLayer
370
13
48
1
60
0
100
AcDbLine
10
-36
20
-26.50012
30
0
11
0
21
-26.50012
31
0
39
0
210
0
220
0
230
1
0
LINE
5
178
100
AcDbEntity
8
SK2
62
256
6
ByLayer
370
13
48
1
60
0
100
AcDbLine
10
-36
20
-26.50012
30
0
11
-32.825002
21
-26.082123
31
0
39
0
210
0
220
0
230
1
0
LINE
5
179
100
AcDbEntity
8
SK2
62
256
6
ByLayer
370
13
48
1
60
0
100
AcDbLine
10
-36
20
-26.50012
30
0
11
-32.824998
21
-26.918117
31
0
39
0
210
0
220
0
230
1
0
LINE
5
17A
100
AcDbEntity
8
SK2
62
256
6
ByLayer
370
13
48
1
60
0
100
AcDbLine
10
-32.825002
20
-26.082123
30
0
11
-32.824998
21
-26.918117
31
0
39
0
210
0
220
0
230
1
0
LINE
5
17B
100
AcDbEntity
8
SK2
62
256
6
ByLayer
370
13
48
1
60
0
100
AcDbLine
10
0
20
-26.50012
30
0
11
-3.174998
21
-26.918117
31
0
39
0
210
0
220
0
230
1
0
LINE
5
17C
100
AcDbEntity
8
SK2
62
256
6
ByLayer
370
13
48
1
60
0
100
AcDbLine
10
0
20
-26.50012
30
0
11
-3.175002
21
-26.082123
31
0
39
0
210
0
220
0
230
1
0
LINE
5
17D
100
AcDbEntity
8
SK2
62
256
6
ByLayer
370
13
48
1
60
0
100
AcDbLine
10
-3.174998
20
-26.918117
30
0
11
-3.175002
21
-26.082123
31
0
39
0
210
0
220
0
230
1
0
ENDBLK
5
17F
100
AcDbEntity
8
0
100
AcDbBlockEnd
0
BLOCK
5
184
100
AcDbEntity
8
0
100
AcDbBlockBegin
2
*D10
70
1
10
0
20
0
30
0
3
*D10
0
LINE
5
186
100
AcDbEntity
8
0
62
256
6
ByLayer
370
-2
48
1
60
0
100
AcDbLine
10
6
20
1.1125
30
0
11
6
21
-20.92482
31
0
39
0
210
0
220
0
230
1
0
LINE
5
187
100
AcDbEntity
8
0
62
256
6
ByLayer
370
-2
48
1
60
0
100
AcDbLine
10
30
20
-1.5875
30
0
11
30
21
-20.92482
31
0
39
0
210
0
220
0
230
1
0
LINE
5
188
100
AcDbEntity
8
0
62
256
6
ByLayer
370
-2
48
1
60
0
100
AcDbLine
10
9.175
20
-17.74982
30
0
11
26.825
21
-17.74982
31
0
39
0
210
0
220
0
230
1
0
SOLID
5
189
100
AcDbEntity
8
0
62
256
6
ByLayer
370
-1
48
1
60
0
100
AcDbTrace
10
9.175
20
-17.220653
30
0
11
9.175
21
-18.278987
31
0
12
6
22
-17.74982
32
0
13
6
23
-17.74982
33
0
39
0
210
0
220
0
230
1
0
SOLID
5
18A
100
AcDbEntity
8
0
62
256
6
ByLayer
370
-1
48
1
60
0
100
AcDbTrace
10
26.825
20
-18.278987
30
0
11
26.825
21
-17.220653
31
0
12
30
22
-17.74982
32
0
13
30
23
-17.74982
33
0
39
0
210
0
220
0
230
1
0
MTEXT
5
18B
100
AcDbEntity
8
0
62
256
6
ByLayer
370
18
48
1
60
0
100
AcDbMText
10
18
20
-10.443319
30
0
210
0
220
0
230
1
1
\A1;24
40
3.50012
41
0
44
1
50
0
71
5
72
5
7
iso_b_vert
0
POINT
5
18C
100
AcDbEntity
8
Defpoints
62
0
6
ByLayer
370
-1
48
1
60
0
100
AcDbPoint
10
6
20
2.7
30
0
39
0
210
0
220
0
230
1
50
360
0
POINT
5
18D
100
AcDbEntity
8
Defpoints
62
0
6
ByLayer
370
-1
48
1
60
0
100
AcDbPoint
10
30
20
0
30
0
39
0
210
0
220
0
230
1
50
360
0
POINT
5
18E
100
AcDbEntity
8
Defpoints
62
0
6
ByLayer
370
-1
48
1
60
0
100
AcDbPoint
10
30
20
-17.74982
30
0
39
0
210
0
220
0
230
1
50
360
0
ENDBLK
5
185
100
AcDbEntity
8
0
100
AcDbBlockEnd
0
BLOCK
5
19A
100
AcDbEntity
8
0
100
AcDbBlockBegin
2
_U4
70
0
10
0
20
0
30
0
3
_U4
0
MTEXT
5
190
100
AcDbEntity
8
SK2
62
256
6
ByLayer
370
18
48
1
60
0
100
AcDbMText
10
12.586116
20
-16.717151
30
0
210
0
220
0
230
1
1
\W0.7694;24.00
40
3.50012
41
0
44
1.084337
50
0
71
7
72
5
7
iso_b_vert
0
LINE
5
191
100
AcDbEntity
8
SK2
62
256
6
ByLayer
370
13
48
1
60
0
100
AcDbLine
10
6
20
1.1125
30
0
11
6
21
-20.92482
31
0
39
0
210
0
220
0
230
1
0
LINE
5
192
100
AcDbEntity
8
SK2
62
256
6
ByLayer
370
13
48
1
60
0
100
AcDbLine
10
30
20
-1.5875
30
0
11
30
21
-20.92482
31
0
39
0
210
0
220
0
230
1
0
LINE
5
193
100
AcDbEntity
8
SK2
62
256
6
ByLayer
370
13
48
1
60
0
100
AcDbLine
10
6
20
-17.74982
30
0
11
30
21
-17.74982
31
0
39
0
210
0
220
0
230
1
0
LINE
5
194
100
AcDbEntity
8
SK2
62
256
6
ByLayer
370
13
48
1
60
0
100
AcDbLine
10
6
20
-17.74982
30
0
11
9.174998
21
-17.331823
31
0
39
0
210
0
220
0
230
1
0
LINE
5
195
100
AcDbEntity
8
SK2
62
256
6
ByLayer
370
13
48
1
60
0
100
AcDbLine
10
6
20
-17.74982
30
0
11
9.175002
21
-18.167817
31
0
39
0
210
0
220
0
230
1
0
LINE
5
196
100
AcDbEntity
8
SK2
62
256
6
ByLayer
370
13
48
1
60
0
100
AcDbLine
10
9.174998
20
-17.331823
30
0
11
9.175002
21
-18.167817
31
0
39
0
210
0
220
0
230
1
0
LINE
5
197
100
AcDbEntity
8
SK2
62
256
6
ByLayer
370
13
48
1
60
0
100
AcDbLine
10
30
20
-17.74982
30
0
11
26.825002
21
-18.167817
31
0
39
0
210
0
220
0
230
1
0
LINE
5
198
100
AcDbEntity
8
SK2
62
256
6
ByLayer
370
13
48
1
60
0
100
AcDbLine
10
30
20
-17.74982
30
0
11
26.824998
21
-17.331823
31
0
39
0
210
0
220
0
230
1
0
LINE
5
199
100
AcDbEntity
8
SK2
62
256
6
ByLayer
370
13
48
1
60
0
100
AcDbLine
10
26.825002
20
-18.167817
30
0
11
26.824998
21
-17.331823
31
0
39
0
210
0
220
0
230
1
0
ENDBLK
5
19B
100
AcDbEntity
8
0
100
AcDbBlockEnd
0
BLOCK
5
1A0
100
AcDbEntity
8
0
100
AcDbBlockBegin
2
*D12
70
1
10
0
20
0
30
0
3
*D12
0
LINE
5
1A2
100
AcDbEntity
8
0
62
256
6
ByLayer
370
-2
48
1
60
0
100
AcDbLine
10
16
20
-3.7875
30
0
11
16
21
-10.32
31
0
39
0
210
0
220
0
230
1
0
LINE
5
1A3
100
AcDbEntity
8
0
62
256
6
ByLayer
370
-2
48
1
60
0
100
AcDbLine
10
30
20
-1.5875
30
0
11
30
21
-10.32
31
0
39
0
210
0
220
0
230
1
0
LINE
5
1A4
100
AcDbEntity
8
0
62
256
6
ByLayer
370
-2
48
1
60
0
100
AcDbLine
10
12.825
20
-9.82
30
0
11
9.65
21
-9.82
31
0
39
0
210
0
220
0
230
1
0
LINE
5
1A5
100
AcDbEntity
8
0
62
256
6
ByLayer
370
-2
48
1
60
0
100
AcDbLine
10
33.175
20
-9.82
30
0
11
36.35
21
-9.82
31
0
39
0
210
0
220
0
230
1
0
SOLID
5
1A6
100
AcDbEntity
8
0
62
256
6
ByLayer
370
-1
48
1
60
0
100
AcDbTrace
10
12.825
20
-10.349167
30
0
11
12.825
21
-9.290833
31
0
12
16
22
-9.82
32
0
13
16
23
-9.82
33
0
39
0
210
0
220
0
230
1
0
SOLID
5
1A7
100
AcDbEntity
8
0
62
256
6
ByLayer
370
-1
48
1
60
0
100
AcDbTrace
10
33.175
20
-9.290833
30
0
11
33.175
21
-10.349167
31
0
12
30
22
-9.82
32
0
13
30
23
-9.82
33
0
39
0
210
0
220
0
230
1
0
MTEXT
5
1A8
100
AcDbEntity
8
0
62
256
6
ByLayer
370
18
48
1
60
0
100
AcDbMText
10
23
20
-3.975
30
0
210
0
220
0
230
1
1
\A1;14
40
2.8
41
0
44
1
50
0
71
5
72
5
7
iso_b_vert
0
POINT
5
1A9
100
AcDbEntity
8
Defpoints
62
0
6
ByLayer
370
-1
48
1
60
0
100
AcDbPoint
10
16
20
-2.2
30
0
39
0
210
0
220
0
230
1
50
360
0
POINT
5
1AA
100
AcDbEntity
8
Defpoints
62
0
6
ByLayer
370
-1
48
1
60
0
100
AcDbPoint
10
30
20
0
30
0
39
0
210
0
220
0
230
1
50
360
0
POINT
5
1AB
100
AcDbEntity
8
Defpoints
62
0
6
ByLayer
370
-1
48
1
60
0
100
AcDbPoint
10
30
20
-9.82
30
0
39
0
210
0
220
0
230
1
50
360
0
ENDBLK
5
1A1
100
AcDbEntity
8
0
100
AcDbBlockEnd
0
BLOCK
5
1B7
100
AcDbEntity
8
0
100
AcDbBlockBegin
2
_U5
70
0
10
0
20
0
30
0
3
_U5
0
MTEXT
5
1AD
100
AcDbEntity
8
SK2
62
256
6
ByLayer
370
18
48
1
60
0
100
AcDbMText
10
19.018988
20
-9.973893
30
0
210
0
220
0
230
1
1
\W0.7091;14.00
40
2.8
41
0
44
1.084337
50
0
71
7
72
5
7
iso_b_vert
0
LINE
5
1AE
100
AcDbEntity
8
SK2
62
256
6
ByLayer
370
13
48
1
60
0
100
AcDbLine
10
16
20
-3.7875
30
0
11
16
21
-10.32
31
0
39
0
210
0
220
0
230
1
0
LINE
5
1AF
100
AcDbEntity
8
SK2
62
256
6
ByLayer
370
13
48
1
60
0
100
AcDbLine
10
30
20
-1.5875
30
0
11
30
21
-10.32
31
0
39
0
210
0
220
0
230
1
0
LINE
5
1B0
100
AcDbEntity
8
SK2
62
256
6
ByLayer
370
13
48
1
60
0
100
AcDbLine
10
9
20
-9.82
30
0
11
37
21
-9.82
31
0
39
0
210
0
220
0
230
1
0
LINE
5
1B1
100
AcDbEntity
8
SK2
62
256
6
ByLayer
370
13
48
1
60
0
100
AcDbLine
10
16
20
-9.82
30
0
11
12.825002
21
-10.237997
31
0
39
0
210
0
220
0
230
1
0
LINE
5
1B2
100
AcDbEntity
8
SK2
62
256
6
ByLayer
370
13
48
1
60
0
100
AcDbLine
10
16
20
-9.82
30
0
11
12.824998
21
-9.402003
31
0
39
0
210
0
220
0
230
1
0
LINE
5
1B3
100
AcDbEntity
8
SK2
62
256
6
ByLayer
370
13
48
1
60
0
100
AcDbLine
10
12.825002
20
-10.237997
30
0
11
12.824998
21
-9.402003
31
0
39
0
210
0
220
0
230
1
0
LINE
5
1B4
100
AcDbEntity
8
SK2
62
256
6
ByLayer
370
13
48
1
60
0
100
AcDbLine
10
30
20
-9.82
30
0
11
33.174998
21
-9.402003
31
0
39
0
210
0
220
0
230
1
0
LINE
5
1B5
100
AcDbEntity
8
SK2
62
256
6
ByLayer
370
13
48
1
60
0
100
AcDbLine
10
30
20
-9.82
30
0
11
33.175002
21
-10.237997
31
0
39
0
210
0
220
0
230
1
0
LINE
5
1B6
100
AcDbEntity
8
SK2
62
256
6
ByLayer
370
13
48
1
60
0
100
AcDbLine
10
33.174998
20
-9.402003
30
0
11
33.175002
21
-10.237997
31
0
39
0
210
0
220
0
230
1
0
ENDBLK
5
1B8
100
AcDbEntity
8
0
100
AcDbBlockEnd
0
BLOCK
5
1BD
100
AcDbEntity
8
0
100
AcDbBlockBegin
2
*D14
70
1
10
0
20
0
30
0
3
*D14
0
LINE
5
1BF
100
AcDbEntity
8
0
62
256
6
ByLayer
370
-2
48
1
60
0
100
AcDbLine
10
-36
20
-1.5875
30
0
11
-36
21
-39.67512
31
0
39
0
210
0
220
0
230
1
0
LINE
5
1C0
100
AcDbEntity
8
0
62
256
6
ByLayer
370
-2
48
1
60
0
100
AcDbLine
10
30
20
-1.5875
30
0
11
30
21
-39.67512
31
0
39
0
210
0
220
0
230
1
0
LINE
5
1C1
100
AcDbEntity
8
0
62
256
6
ByLayer
370
-2
48
1
60
0
100
AcDbLine
10
-32.825
20
-36.50012
30
0
11
26.825
21
-36.50012
31
0
39
0
210
0
220
0
230
1
0
SOLID
5
1C2
100
AcDbEntity
8
0
62
256
6
ByLayer
370
-1
48
1
60
0
100
AcDbTrace
10
-32.825
20
-35.970953
30
0
11
-32.825
21
-37.029287
31
0
12
-36
22
-36.50012
32
0
13
-36
23
-36.50012
33
0
39
0
210
0
220
0
230
1
0
SOLID
5
1C3
100
AcDbEntity
8
0
62
256
6
ByLayer
370
-1
48
1
60
0
100
AcDbTrace
10
26.825
20
-37.029287
30
0
11
26.825
21
-35.970953
31
0
12
30
22
-36.50012
32
0
13
30
23
-36.50012
33
0
39
0
210
0
220
0
230
1
0
MTEXT
5
1C4
100
AcDbEntity
8
0
62
256
6
ByLayer
370
18
48
1
60
0
100
AcDbMText
10
-3
20
-29.193619
30
0
210
0
220
0
230
1
1
\A1;66
40
3.50012
41
0
44
1
50
0
71
5
72
5
7
iso_b_vert
0
POINT
5
1C5
100
AcDbEntity
8
Defpoints
62
0
6
ByLayer
370
-1
48
1
60
0
100
AcDbPoint
10
-36
20
0
30
0
39
0
210
0
220
0
230
1
50
360
0
POINT
5
1C6
100
AcDbEntity
8
Defpoints
62
0
6
ByLayer
370
-1
48
1
60
0
100
AcDbPoint
10
30
20
0
30
0
39
0
210
0
220
0
230
1
50
360
0
POINT
5
1C7
100
AcDbEntity
8
Defpoints
62
0
6
ByLayer
370
-1
48
1
60
0
100
AcDbPoint
10
30
20
-36.50012
30
0
39
0
210
0
220
0
230
1
50
360
0
ENDBLK
5
1BE
100
AcDbEntity
8
0
100
AcDbBlockEnd
0
BLOCK
5
1D3
100
AcDbEntity
8
0
100
AcDbBlockBegin
2
_U6
70
0
10
0
20
0
30
0
3
_U6
0
MTEXT
5
1C9
100
AcDbEntity
8
SK2
62
256
6
ByLayer
370
18
48
1
60
0
100
AcDbMText
10
-8.229611
20
-35.467451
30
0
210
0
220
0
230
1
1
\W0.7468;66.00
40
3.50012
41
0
44
1.084337
50
0
71
7
72
5
7
iso_b_vert
0
LINE
5
1CA
100
AcDbEntity
8
SK2
62
256
6
ByLayer
370
13
48
1
60
0
100
AcDbLine
10
-36
20
-1.5875
30
0
11
-36
21
-39.67512
31
0
39
0
210
0
220
0
230
1
0
LINE
5
1CB
100
AcDbEntity
8
SK2
62
256
6
ByLayer
370
13
48
1
60
0
100
AcDbLine
10
30
20
-1.5875
30
0
11
30
21
-39.67512
31
0
39
0
210
0
220
0
230
1
0
LINE
5
1CC
100
AcDbEntity
8
SK2
62
256
6
ByLayer
370
13
48
1
60
0
100
AcDbLine
10
-36
20
-36.50012
30
0
11
30
21
-36.50012
31
0
39
0
210
0
220
0
230
1
0
LINE
5
1CD
100
AcDbEntity
8
SK2
62
256
6
ByLayer
370
13
48
1
60
0
100
AcDbLine
10
-36
20
-36.50012
30
0
11
-32.825002
21
-36.082123
31
0
39
0
210
0
220
0
230
1
0
LINE
5
1CE
100
AcDbEntity
8
SK2
62
256
6
ByLayer
370
13
48
1
60
0
100
AcDbLine
10
-36
20
-36.50012
30
0
11
-32.824998
21
-36.918117
31
0
39
0
210
0
220
0
230
1
0
LINE
5
1CF
100
AcDbEntity
8
SK2
62
256
6
ByLayer
370
13
48
1
60
0
100
AcDbLine
10
-32.825002
20
-36.082123
30
0
11
-32.824998
21
-36.918117
31
0
39
0
210
0
220
0
230
1
0
LINE
5
1D0
100
AcDbEntity
8
SK2
62
256
6
ByLayer
370
13
48
1
60
0
100
AcDbLine
10
30
20
-36.50012
30
0
11
26.825002
21
-36.918117
31
0
39
0
210
0
220
0
230
1
0
LINE
5
1D1
100
AcDbEntity
8
SK2
62
256
6
ByLayer
370
13
48
1
60
0
100
AcDbLine
10
30
20
-36.50012
30
0
11
26.824998
21
-36.082123
31
0
39
0
210
0
220
0
230
1
0
LINE
5
1D2
100
AcDbEntity
8
SK2
62
256
6
ByLayer
370
13
48
1
60
0
100
AcDbLine
10
26.825002
20
-36.918117
30
0
11
26.824998
21
-36.082123
31
0
39
0
210
0
220
0
230
1
0
ENDBLK
5
1D4
100
AcDbEntity
8
0
100
AcDbBlockEnd
0
ENDSEC
0
SECTION
2
ENTITIES
0
ARC
5
AE
100
AcDbEntity
8
1
62
256
6
ByLayer
370
18
48
1
60
0
100
AcDbCircle
39
0
10
1.39553
20
2.982622
30
0
40
0.800000000000004
210
0
220
0
230
1
100
AcDbArc
50
209.28397
51
270.03581
0
ARC
5
AF
100
AcDbEntity
8
1
62
256
6
ByLayer
370
18
48
1
60
0
100
AcDbCircle
39
0
10
1.39553
20
-2.982622
30
0
40
0.800000000000004
210
0
220
0
230
1
100
AcDbArc
50
89.96419
51
150.71603
0
ARC
5
B0
100
AcDbEntity
8
1
62
256
6
ByLayer
370
18
48
1
60
0
100
AcDbCircle
39
0
10
0
20
2.2
30
0
40
0.800000000000004
210
0
220
0
230
1
100
AcDbArc
50
29.28397
51
90
0
ARC
5
B1
100
AcDbEntity
8
1
62
256
6
ByLayer
370
18
48
1
60
0
100
AcDbCircle
39
0
10
0
20
-2.2
30
0
40
0.800000000000004
210
0
220
0
230
1
100
AcDbArc
50
270
51
330.71603
0
ARC
5
B2
100
AcDbEntity
8
SK2
62
256
6
ByLayer
370
13
48
1
60
0
100
AcDbCircle
39
0
10
30
20
0
30
0
40
20
210
0
220
0
230
1
100
AcDbArc
50
9.606349
51
70.000794
0
ARC
5
B3
100
AcDbEntity
8
SK2
62
256
6
ByLayer
370
13
48
1
60
0
100
AcDbCircle
39
0
10
30
20
0
30
0
40
20
210
0
220
0
230
1
100
AcDbArc
50
289.999206
51
350.393651
0
ELLIPSE
5
B4
100
AcDbEntity
8
1
62
256
6
ByLayer
370
18
48
1
60
0
100
AcDbEllipse
10
7.602044
20
-2.176669
30
0
11
-0.1
21
1.22460635382238E-17
31
0
210
0
220
0
230
1
40
1
41
-1.57172333964741
42
-0.00139046322172238
0
ELLIPSE
5
B5
100
AcDbEntity
8
1
62
256
6
ByLayer
370
18
48
1
60
0
100
AcDbEllipse
10
7.602044
20
2.176669
30
0
11
-0.1
21
1.22460635382238E-17
31
0
210
0
220
0
230
1
40
1
41
0.00139046322171794
42
0.428250611343906
0
POINT
5
70
100
AcDbEntity
8
80
62
256
6
ByLayer
370
18
48
1
60
0
100
AcDbPoint
10
0
20
0
30
0
39
0
210
0
220
0
230
1
50
360
0
POINT
5
72
100
AcDbEntity
8
81
62
256
6
ByLayer
370
18
48
1
60
0
100
AcDbPoint
10
30
20
0
30
0
39
0
210
0
220
0
230
1
50
360
0
POINT
5
74
100
AcDbEntity
8
1
62
256
6
ByLayer
370
18
48
1
60
0
100
AcDbPoint
10
-36
20
0
30
0
39
0
210
0
220
0
230
1
50
360
0
POINT
5
76
100
AcDbEntity
8
1
62
256
6
ByLayer
370
18
48
1
60
1
100
AcDbPoint
10
0
20
-3
30
0
39
0
210
0
220
0
230
1
50
360
0
POINT
5
77
100
AcDbEntity
8
1
62
256
6
ByLayer
370
18
48
1
60
1
100
AcDbPoint
10
30
20
0
30
0
39
0
210
0
220
0
230
1
50
360
0
POINT
5
78
100
AcDbEntity
8
1
62
256
6
ByLayer
370
18
48
1
60
1
100
AcDbPoint
10
29.1993
20
-2.2
30
0
39
0
210
0
220
0
230
1
50
360
0
POINT
5
79
100
AcDbEntity
8
1
62
256
6
ByLayer
370
18
48
1
60
1
100
AcDbPoint
10
29.1993
20
2.2
30
0
39
0
210
0
220
0
230
1
50
360
0
POINT
5
7A
100
AcDbEntity
8
1
62
256
6
ByLayer
370
18
48
1
60
1
100
AcDbPoint
10
-36
20
3
30
0
39
0
210
0
220
0
230
1
50
360
0
POINT
5
7B
100
AcDbEntity
8
1
62
256
6
ByLayer
370
18
48
1
60
1
100
AcDbPoint
10
-36
20
-3
30
0
39
0
210
0
220
0
230
1
50
360
0
POINT
5
7C
100
AcDbEntity
8
1
62
256
6
ByLayer
370
18
48
1
60
1
100
AcDbPoint
10
-36
20
-3
30
0
39
0
210
0
220
0
230
1
50
360
0
POINT
5
7D
100
AcDbEntity
8
1
62
256
6
ByLayer
370
18
48
1
60
1
100
AcDbPoint
10
0
20
-3
30
0
39
0
210
0
220
0
230
1
50
360
0
POINT
5
7E
100
AcDbEntity
8
1
62
256
6
ByLayer
370
18
48
1
60
1
100
AcDbPoint
10
6
20
2.7
30
0
39
0
210
0
220
0
230
1
50
360
0
POINT
5
7F
100
AcDbEntity
8
1
62
256
6
ByLayer
370
18
48
1
60
1
100
AcDbPoint
10
30
20
0
30
0
39
0
210
0
220
0
230
1
50
360
0
POINT
5
80
100
AcDbEntity
8
1
62
256
6
ByLayer
370
18
48
1
60
1
100
AcDbPoint
10
16
20
-2.2
30
0
39
0
210
0
220
0
230
1
50
360
0
POINT
5
81
100
AcDbEntity
8
1
62
256
6
ByLayer
370
18
48
1
60
1
100
AcDbPoint
10
30
20
0
30
0
39
0
210
0
220
0
230
1
50
360
0
POINT
5
82
100
AcDbEntity
8
1
62
256
6
ByLayer
370
18
48
1
60
1
100
AcDbPoint
10
-36
20
0
30
0
39
0
210
0
220
0
230
1
50
360
0
POINT
5
83
100
AcDbEntity
8
1
62
256
6
ByLayer
370
18
48
1
60
1
100
AcDbPoint
10
30
20
0
30
0
39
0
210
0
220
0
230
1
50
360
0
SPLINE
5
B6
100
AcDbEntity
8
1
62
256
6
ByLayer
370
18
48
1
60
0
100
AcDbSpline
70
4
71
3
72
30
73
26
40
0
40
0
40
0
40
0
40
0.0885832368108592
40
0.0885832368108592
40
0.139217501432478
40
0.139217501432478
40
0.189851766054097
40
0.189851766054097
40
0.291120295297333
40
0.291120295297333
40
0.341754559918952
40
0.341754559918952
40
0.392388824540571
40
0.392388824540571
40
0.493657353783809
40
0.493657353783809
40
0.594925883027048
40
0.594925883027048
40
0.696194412270286
40
0.696194412270286
40
0.797462941513524
40
0.797462941513524
40
0.898731470756762
40
0.898731470756762
40
1
40
1
40
1
40
1
41
1
10
23.7084617794353
20
-0.17509028753588
30
0
41
1
10
23.4450381412295
20
-0.0245804693077503
30
0
41
1
10
23.1811294186809
20
0.127829656006639
30
0
41
1
10
22.7667136258784
20
0.36344197745143
30
0
41
1
10
22.6161540865905
20
0.448465633683185
30
0
41
1
10
22.3147971016015
20
0.615837321961124
30
0
41
1
10
22.1645631550061
20
0.697826626660657
30
0
41
1
10
21.7148595225133
20
0.937250852617183
30
-1E-16
41
1
10
21.4164421492937
20
1.08886121852936
30
-1E-16
41
1
10
20.9672593950458
20
1.2976876275836
30
-1E-16
41
1
10
20.8173599956774
20
1.36443172585024
30
-1E-16
41
1
10
20.5165256142408
20
1.49118770951864
30
-1E-16
41
1
10
20.3656025021787
20
1.55112952881737
30
-1E-16
41
1
10
19.913417279655
20
1.71802656793216
30
-1E-16
41
1
10
19.6119442844247
20
1.81380044467085
30
1E-16
41
1
10
19.0093644991444
20
1.96408818750854
30
0
41
1
10
18.7082224398205
20
2.02005348838131
30
0
41
1
10
18.1092085579383
20
2.09004047597935
30
0
41
1
10
17.8106888265677
20
2.10471365574043
30
0
41
1
10
17.2108952977701
20
2.09149718573255
30
0
41
1
10
16.9090294038914
20
2.06361200819677
30
0
41
1
10
16.3060960473608
20
1.96598406330574
30
0
41
1
10
16.0046871390668
20
1.89694925775714
30
0
41
1
10
15.4019359526479
20
1.72117028455858
30
-1E-16
41
1
10
15.1011787451549
20
1.61493945182684
30
-1E-16
41
1
10
14.8
20
1.49351807528453
30
-1E-16
0
SPLINE
5
B7
100
AcDbEntity
8
1
62
256
6
ByLayer
370
18
48
1
60
0
100
AcDbSpline
70
4
71
3
72
8
73
4
40
0
40
0
40
0
40
0
40
1
40
1
40
1
40
1
41
1
10
28.9131042825182
20
-0.112712634501122
30
0
41
1
10
28.9294968000262
20
-0.120834662030177
30
0
41
1
10
28.9458015912801
20
-0.128445209554116
30
0
41
1
10
28.9620387621377
20
-0.135557790382137
30
0
0
SPLINE
5
B8
100
AcDbEntity
8
1
62
256
6
ByLayer
370
18
48
1
60
0
100
AcDbSpline
70
4
71
3
72
24
73
20
40
0
40
0
40
0
40
0
40
0.123540570414187
40
0.123540570414187
40
0.247081140828374
40
0.247081140828374
40
0.37062171124256
40
0.37062171124256
40
0.494162281656747
40
0.494162281656747
40
0.617702852070934
40
0.617702852070934
40
0.741243422485121
40
0.741243422485121
40
0.864783992899307
40
0.864783992899307
40
0.988324563313494
40
0.988324563313494
40
1
40
1
40
1
40
1
41
1
10
28.9072593451812
20
0.199453772430246
30
0
41
1
10
28.6844976848247
20
0.332556572337182
30
0
41
1
10
28.4619100762473
20
0.465588711955604
30
0
41
1
10
28.0153750895351
20
0.723802798477891
30
0
41
1
10
27.7928338363023
20
0.849101883363062
30
-1E-16
41
1
10
27.3476894098384
20
1.08972492915743
30
-1E-16
41
1
10
27.1238580519005
20
1.20437378455193
30
-1E-16
41
1
10
26.6780650399602
20
1.41941391293284
30
-1E-16
41
1
10
26.4559040787463
20
1.51958572312475
30
-1E-16
41
1
10
26.0098813215947
20
1.70141614268346
30
-1E-16
41
1
10
25.7864740613054
20
1.78394149316387
30
-1E-16
41
1
10
25.3409860726443
20
1.92721763331946
30
1E-16
41
1
10
25.1181754167105
20
1.988170564331
30
0
41
1
10
24.6722242613767
20
2.08832233343225
30
0
41
1
10
24.4489234544101
20
2.12677119721147
30
0
41
1
10
24.0032206485869
20
2.17952776159254
30
0
41
1
10
23.7808092314721
20
2.1940406268121
30
0
41
1
10
23.5362259840816
20
2.19636089614767
30
0
41
1
10
23.5151142763144
20
2.19645174617912
30
0
41
1
10
23.4940091263418
20
2.19643320546877
30
0
0
SPLINE
5
B9
100
AcDbEntity
8
1
62
256
6
ByLayer
370
18
48
1
60
0
100
AcDbSpline
70
4
71
3
72
30
73
26
40
0
40
0
40
0
40
0
40
0.0857977635247346
40
0.0857977635247346
40
0.131507875348498
40
0.131507875348498
40
0.177217987172261
40
0.177217987172261
40
0.268638210819788
40
0.268638210819788
40
0.360058434467315
40
0.360058434467315
40
0.451478658114841
40
0.451478658114841
40
0.542898881762368
40
0.542898881762368
40
0.634319105409894
40
0.634319105409894
40
0.725739329057421
40
0.725739329057421
40
0.817159552704947
40
0.817159552704947
40
0.908579776352474
40
0.908579776352474
40
1
40
1
40
1
40
1
41
1
10
14.8175239587978
20
-1.57501221432929
30
1E-16
41
1
10
14.6082760649375
20
-1.66193871802619
30
1E-16
41
1
10
14.399554857015
20
-1.74152368253689
30
1E-16
41
1
10
14.0779589670601
20
-1.84949062124949
30
-1E-16
41
1
10
13.9660628091523
20
-1.88440442789619
30
-1E-16
41
1
10
13.7429093743969
20
-1.94891596367279
30
-1E-16
41
1
10
13.6316370416748
20
-1.9786071032137
30
0
41
1
10
13.2974865027836
20
-2.05902750717658
30
0
41
1
10
13.0738195379967
20
-2.10125633772611
30
0
41
1
10
12.6270985418217
20
-2.16222680046147
30
0
41
1
10
12.4046158166506
20
-2.18066299161723
30
0
41
1
10
11.9583752454629
20
-2.19308552090314
30
0
41
1
10
11.7348048481346
20
-2.18705114992855
30
0
41
1
10
11.2885124660793
20
-2.15065745415222
30
0
41
1
10
11.0655111186361
20
-2.12055055233233
30
0
41
1
10
10.6195563058864
20
-2.03646001753828
30
0
41
1
10
10.3956199642508
20
-1.98273389990683
30
0
41
1
10
9.94933162043941
20
-1.85439334326978
30
-1E-16
41
1
10
9.72697049034923
20
-1.7791344964275
30
1E-16
41
1
10
9.27987477448201
20
-1.60997037080199
30
1E-16
41
1
10
9.05655377427595
20
-1.51612477864046
30
1E-16
41
1
10
8.61234905152708
20
-1.31337578769026
30
1E-16
41
1
10
8.39066795158294
20
-1.20463788183463
30
1E-16
41
1
10
7.94714623333059
20
-0.973746974291174
30
1E-16
41
1
10
7.72476203750148
20
-0.852351323671058
30
1E-16
41
1
10
7.50053392927956
20
-0.726927333006074
30
0
0
SPLINE
5
BA
100
AcDbEntity
8
1
62
256
6
ByLayer
370
18
48
1
60
0
100
AcDbSpline
70
4
71
3
72
20
73
16
40
0
40
0
40
0
40
0
40
0.158656966897245
40
0.158656966897245
40
0.317313933794491
40
0.317313933794491
40
0.475970900691736
40
0.475970900691736
40
0.634627867588981
40
0.634627867588981
40
0.793284834486227
40
0.793284834486227
40
0.951941801383472
40
0.951941801383472
40
1
40
1
40
1
40
1
41
1
10
29.237915153786
20
2.09959833272504
30
0
41
1
10
29.087657073144
20
2.10156422900735
30
0
41
1
10
28.9369837448236
20
2.09815219362176
30
0
41
1
10
28.6360083167664
20
2.08060857059957
30
0
41
1
10
28.4857512652891
20
2.06659895651865
30
0
41
1
10
28.1853779735081
20
2.02842341584761
30
0
41
1
10
28.0351985248071
20
2.00419549747892
30
0
41
1
10
27.7342280662464
20
1.94547907235071
30
0
41
1
10
27.583389082582
20
1.9109229822526
30
0
41
1
10
27.2820185930513
20
1.83271165734536
30
1E-16
41
1
10
27.1313155097486
20
1.789072700492
30
-1E-16
41
1
10
26.829912678194
20
1.6924708487351
30
-1E-16
41
1
10
26.679198173945
20
1.6394280473514
30
-1E-16
41
1
10
26.4830465272003
20
1.56551660807068
30
-1E-16
41
1
10
26.4374356110969
20
1.54796079196058
30
-1E-16
41
1
10
26.3918210619498
20
1.53004775184559
30
-1E-16
0
SPLINE
5
BB
100
AcDbEntity
8
1
62
256
6
ByLayer
370
18
48
1
60
0
100
AcDbSpline
70
4
71
3
72
14
73
10
40
0
40
0
40
0
40
0
40
0.106469629284698
40
0.106469629284698
40
0.329852221963507
40
0.329852221963507
40
0.553234814642317
40
0.553234814642317
40
1
40
1
40
1
40
1
41
1
10
29.0066451448126
20
0.427484833142529
30
0
41
1
10
29.0174291759052
20
0.432642534504254
30
0
41
1
10
29.0288231058752
20
0.438256027938081
30
0
41
1
10
29.0658624615875
20
0.456933201372067
30
0
41
1
10
29.0940184574769
20
0.471474429410677
30
0
41
1
10
29.154222789039
20
0.501346929082359
30
0
41
1
10
29.1863801190798
20
0.516836805325482
30
0
41
1
10
29.2904276989827
20
0.561777583118811
30
0
41
1
10
29.3668272045456
20
0.587666714780084
30
0
41
1
10
29.4470274374162
20
0.600897028505472
30
0
0
SPLINE
5
BC
100
AcDbEntity
8
1
62
256
6
ByLayer
370
18
48
1
60
0
100
AcDbSpline
70
4
71
3
72
8
73
4
40
0
40
0
40
0
40
0
40
1
40
1
40
1
40
1
41
1
10
29.9967978274018
20
0.156179944939851
30
0
41
1
10
29.9847620365855
20
0.115478856918287
30
0
41
1
10
29.9726515967732
20
0.0748019126144754
30
0
41
1
10
29.9604668589123
20
0.0341489985215446
30
0
0
SPLINE
5
BD
100
AcDbEntity
8
1
62
256
6
ByLayer
370
18
48
1
60
0
100
AcDbSpline
70
4
71
3
72
55
73
51
40
0
40
0
40
0
40
0
40
0.125000000000011
40
0.125000000000011
40
0.187500000000016
40
0.187500000000016
40
0.218750000000019
40
0.218750000000019
40
0.250000000000021
40
0.250000000000021
40
0.281250000000024
40
0.281250000000024
40
0.312500000000027
40
0.312500000000027
40
0.343750000000029
40
0.343750000000029
40
0.359375000000031
40
0.359375000000031
40
0.375000000000032
40
0.375000000000032
40
0.406250000000036
40
0.406250000000036
40
0.437500000000039
40
0.437500000000039
40
0.468750000000042
40
0.468750000000042
40
0.500000000000045
40
0.500000000000045
40
0.531250000000048
40
0.531250000000048
40
0.562500000000051
40
0.562500000000051
40
0.62500000000006
40
0.62500000000006
40
0.687500000000069
40
0.687500000000069
40
0.703125000000069
40
0.703125000000069
40
0.710937500000069
40
0.710937500000069
40
0.718750000000069
40
0.718750000000069
40
0.726562500000069
40
0.726562500000069
40
0.734375000000069
40
0.750000000000066
40
0.750000000000066
40
0.875000000000033
40
0.875000000000033
40
1
40
1
40
1
40
1
41
1
10
7.50053787963571
20
-0.726922145627498
30
0
41
1
10
7.27526579642529
20
-0.601048047931158
30
0
41
1
10
7.05779516484819
20
-0.463715094759721
30
0
41
1
10
6.74982637890446
20
-0.230745388404159
30
0
41
1
10
6.65024613773451
20
-0.148539647305938
30
0
41
1
10
6.50749610485485
20
-0.0154232476424738
30
0
41
1
10
6.46102774297435
20
0.0306006853499809
30
0
41
1
10
6.37093338294014
20
0.126860898139114
30
0
41
1
10
6.32726893075156
20
0.177204627737922
30
0
41
1
10
6.2459361402897
20
0.280526049554197
30
0
41
1
10
6.20798110141794
20
0.333775145345157
30
0
41
1
10
6.13895776285332
20
0.444310244025218
30
0
41
1
10
6.10763923282838
20
0.502166638175765
30
0
41
1
10
6.05568207567046
20
0.62000405103376
30
0
41
1
10
6.03499297742439
20
0.679846295139214
30
0
41
1
10
6.01362377193158
20
0.771314240474283
30
0
41
1
10
6.00811712458494
20
0.802261078542813
30
0
41
1
10
6.00087296351305
20
0.863176448585733
30
-1E-16
41
1
10
5.99908158684357
20
0.893295717034448
30
-1E-16
41
1
10
5.99920881341291
20
0.982645589374755
30
-1E-16
41
1
10
6.00677449975154
20
1.04141800860694
30
-1E-16
41
1
10
6.03618955758424
20
1.15373556071745
30
-1E-16
41
1
10
6.05759902817519
20
1.20634456958811
30
-1E-16
41
1
10
6.11162515545044
20
1.30569234630374
30
-1E-16
41
1
10
6.14414756739191
20
1.35204614149225
30
-1E-16
41
1
10
6.21595988579566
20
1.43714368358971
30
-1E-16
41
1
10
6.2555092266187
20
1.47634329330376
30
-1E-16
41
1
10
6.34036999394675
20
1.54950386748561
30
-1E-16
41
1
10
6.38586000205203
20
1.58353457122732
30
-1E-16
41
1
10
6.4797184999351
20
1.64615124827904
30
-1E-16
41
1
10
6.52829091902123
20
1.67493029753865
30
-1E-16
41
1
10
6.67792945422343
20
1.75530811134649
30
-1E-16
41
1
10
6.78286614683753
20
1.80102933137337
30
-1E-16
41
1
10
7.00003484674477
20
1.88168663857212
30
1E-16
41
1
10
7.11222065087782
20
1.91650035425837
30
1E-16
41
1
10
7.25468672883159
20
1.95462186523994
30
0
41
1
10
7.28329200969256
20
1.96199692843811
30
0
41
1
10
7.32644349232874
20
1.97263245343854
30
0
41
1
10
7.34221047589102
20
1.97516784737766
30
0
41
1
10
7.3746956168859
20
1.9766005577151
30
0
41
1
10
7.39122948286857
20
1.97605943229047
30
0
41
1
10
7.42308034468607
20
1.97307249747661
30
0
41
1
10
7.43838256656034
20
1.97055067316722
30
0
41
1
10
7.46920021174918
20
1.96582267718895
30
0
41
1
10
7.51536949046877
20
1.95860533759969
30
0
41
1
10
7.56136607885864
20
1.95100502911922
30
0
41
1
10
7.8366051446246
20
1.90381380161634
30
1E-16
41
1
10
8.07557997667766
20
1.85045458251218
30
1E-16
41
1
10
8.54269975696263
20
1.71551180028175
30
-1E-16
41
1
10
8.77097774309431
20
1.63382338840992
30
-1E-16
41
1
10
8.99501536313565
20
1.53804380071153
30
-1E-16
0
SPLINE
5
BE
100
AcDbEntity
8
1
62
256
6
ByLayer
370
18
48
1
60
0
100
AcDbSpline
70
4
71
3
72
65
73
61
40
0
40
0
40
0
40
0
40
0.0316372707285896
40
0.0316372707285896
40
0.0497555195599483
40
0.0497555195599483
40
0.0678737683913071
40
0.0678737683913071
40
0.0859920172226657
40
0.0859920172226657
40
0.0950511416383451
40
0.0950511416383451
40
0.097315922742265
40
0.0984483132942248
40
0.0984483132942248
40
0.0990145085702048
40
0.0990145085702048
40
0.0995807038461847
40
0.0995807038461847
40
0.101845484950104
40
0.101845484950104
40
0.104110266054024
40
0.104110266054024
40
0.122228514885381
40
0.122228514885381
40
0.140346763716738
40
0.140346763716738
40
0.176583261379453
40
0.176583261379453
40
0.249056256704882
40
0.249056256704882
40
0.39400224735574
40
0.39400224735574
40
0.466475242681169
40
0.466475242681169
40
0.484593491512526
40
0.484593491512526
40
0.493652615928204
40
0.493652615928204
40
0.498182178136044
40
0.498182178136044
40
0.500446959239963
40
0.500446959239963
40
0.501579349791923
40
0.501579349791923
40
0.502145545067903
40
0.502145545067903
40
0.502711740343883
40
0.502711740343883
40
0.503277935619863
40
0.503277935619863
40
0.503844130895843
40
0.504976521447803
40
0.507241302551722
40
0.511770864759561
40
0.520829989175239
40
0.538948238006595
40
0.82884021930829
40
0.82884021930829
40
1
40
1
40
1
40
1
41
1
10
8.99501574414819
20
1.53804376081322
30
-1E-16
41
1
10
8.99703649779539
20
1.49608654512517
30
-1E-16
41
1
10
8.98961607649517
20
1.45307071802696
30
-1E-16
41
1
10
8.96967206945749
20
1.37943434508759
30
-1E-16
41
1
10
8.9608866250507
20
1.35119611718207
30
-1E-16
41
1
10
8.93912259082421
20
1.29297701422237
30
-1E-16
41
1
10
8.92609271176349
20
1.26298191324571
30
-1E-16
41
1
10
8.89693002362264
20
1.20073942729778
30
0
41
1
10
8.88063962584332
20
1.16858284083958
30
0
41
1
10
8.85230388942591
20
1.11973780890452
30
0
41
1
10
8.84230903025664
20
1.10329968896517
30
0
41
1
10
8.82922662329977
20
1.08253460788259
30
0
41
1
10
8.82525767462249
20
1.07628874613121
30
0
41
1
10
8.82122500135861
20
1.07001775283095
30
0
41
1
10
8.81919825627296
20
1.06687801363847
30
0
41
1
10
8.81826531733958
20
1.0659416115214
30
0
41
1
10
8.81766987096023
20
1.06348948670035
30
0
41
1
10
8.81861966926903
20
1.06198788184622
30
0
41
1
10
8.82365011457384
20
1.05551746125755
30
0
41
1
10
8.82925570418499
20
1.05112541401908
30
0
41
1
10
8.83991297053126
20
1.04223742639166
30
0
41
1
10
8.84535676828199
20
1.03789800079582
30
0
41
1
10
8.89468844134046
20
0.999148050639349
30
0
41
1
10
8.94028443249161
20
0.966305361448605
30
1E-16
41
1
10
9.03116069098542
20
0.900426475454935
30
-1E-16
41
1
10
9.07682447130219
20
0.867707017760864
30
-1E-16
41
1
10
9.21406346093426
20
0.7697731841495
30
0
41
1
10
9.30588387918795
20
0.704803817006848
30
0
41
1
10
9.58163111682495
20
0.510064219164349
30
0
41
1
10
9.76572285835297
20
0.380294392781167
30
0
41
1
10
10.3175668771144
20
-0.0104390551313713
30
0
41
1
10
10.6851008282696
20
-0.272322181076106
30
0
41
1
10
11.2363004318876
20
-0.666422556263825
30
0
41
1
10
11.4202346354981
20
-0.797674162650935
30
0
41
1
10
11.6483377107939
20
-0.964628521857463
30
0
41
1
10
11.6938636869814
20
-0.998170668987513
30
0
41
1
10
11.7616832614905
20
-1.04920685261985
30
0
41
1
10
11.7842203181201
20
-1.06632613116446
30
0
41
1
10
11.8176831852753
20
-1.09252722301389
30
0
41
1
10
11.8287953712603
20
-1.10134416880715
30
0
41
1
10
11.8451686415476
20
-1.11493144994509
30
0
41
1
10
11.8505879728709
20
-1.1195150928381
30
0
41
1
10
11.8584712706959
20
-1.12666508723794
30
0
41
1
10
11.8610640159376
20
-1.12908211422874
30
0
41
1
10
11.8647197812884
20
-1.13293222435425
30
0
41
1
10
11.8659134861216
20
-1.13424908792746
30
0
41
1
10
11.8679817371591
20
-1.1371496070615
30
0
41
1
10
11.869027084927
20
-1.13939977557993
30
0
41
1
10
11.8661193992334
20
-1.14081813548944
30
0
41
1
10
11.8643127655323
20
-1.14051490127392
30
0
41
1
10
11.8609471825185
20
-1.14035197575097
30
0
41
1
10
11.8558988841235
20
-1.1401073386011
30
0
41
1
10
11.8441200819979
20
-1.13953477758173
30
0
41
1
10
11.8205647152424
20
-1.13838268875193
30
0
41
1
10
11.7734629639529
20
-1.1360506258728
30
0
41
1
10
11.6792953692792
20
-1.13127480039799
30
0
41
1
10
10.7383481983384
20
-1.08128033483848
30
0
41
1
10
9.83221680532705
20
-1.00785486762555
30
1E-16
41
1
10
8.48935115641038
20
-0.860680577629353
30
1E-16
41
1
10
7.99365032785249
20
-0.797882630332253
30
0
41
1
10
7.5005339292693
20
-0.726927333004596
30
0
0
SPLINE
5
BF
100
AcDbEntity
8
1
62
256
6
ByLayer
370
18
48
1
60
0
100
AcDbSpline
70
4
71
3
72
8
73
4
40
0
40
0
40
0
40
0
40
1
40
1
40
1
40
1
41
1
10
29.0784412549988
20
2.17001216119695
30
0
41
1
10
29.1196222558619
20
2.14726109252177
30
0
41
1
10
29.1609319570416
20
2.12386263249786
30
0
41
1
10
29.2023936592071
20
2.09983035785501
30
0
0
SPLINE
5
C0
100
AcDbEntity
8
1
62
256
6
ByLayer
370
18
48
1
60
0
100
AcDbSpline
70
4
71
3
72
30
73
26
40
0
40
0
40
0
40
0
40
0.0981524388642194
40
0.0981524388642194
40
0.152530490006383
40
0.152530490006383
40
0.206908541148547
40
0.206908541148547
40
0.315664643432873
40
0.315664643432873
40
0.533176848001527
40
0.533176848001527
40
0.58755489914369
40
0.58755489914369
40
0.641932950285854
40
0.641932950285854
40
0.750689052570178
40
0.750689052570178
40
0.805067103712339
40
0.805067103712339
40
0.8594451548545
40
0.8594451548545
40
0.968201257138825
40
0.968201257138825
40
1
40
1
40
1
40
1
41
1
10
17.5910640923145
20
-0.219837120087647
30
0
41
1
10
17.3905484603648
20
-0.106134131848108
30
0
41
1
10
17.1905106206557
20
0.0088897775056864
30
0
41
1
10
16.8783948035441
20
0.185994487282414
30
0
41
1
10
16.7669122238316
20
0.248875430580114
30
0
41
1
10
16.5434592810654
20
0.374035326548693
30
0
41
1
10
16.4312431300601
20
0.436455296595852
30
0
41
1
10
16.0956427039092
20
0.621746596061087
30
0
41
1
10
15.8739400509219
20
0.741854552038092
30
0
41
1
10
15.2094971746095
20
1.08603654143943
30
-1E-16
41
1
10
14.7686550526831
20
1.29558689354215
30
-1E-16
41
1
10
14.2129829830441
20
1.51813020397728
30
-1E-16
41
1
10
14.1016322555704
20
1.56057581530271
30
-1E-16
41
1
10
13.8780483499409
20
1.64142028989565
30
-1E-16
41
1
10
13.7659095977127
20
1.67977310020794
30
-1E-16
41
1
10
13.4309911593355
20
1.78744859481841
30
-1E-16
41
1
10
13.208704040333
20
1.84995175371287
30
0
41
1
10
12.8768467204513
20
1.92626067374567
30
0
41
1
10
12.7665080580664
20
1.94870846007228
30
0
41
1
10
12.5456543780995
20
1.98854781180594
30
0
41
1
10
12.4351237242564
20
2.00596113036747
30
0
41
1
10
12.1030693937923
20
2.05038827861768
30
0
41
1
10
11.881095941002
20
2.06964424344292
30
0
41
1
10
11.5928244017865
20
2.07836380282652
30
0
41
1
10
11.5274356947521
20
2.07924719183924
30
0
41
1
10
11.4619983515907
20
2.07913700799367
30
0
0
SPLINE
5
C1
100
AcDbEntity
8
1
62
256
6
ByLayer
370
18
48
1
60
0
100
AcDbSpline
70
4
71
3
72
48
73
44
40
0
40
0
40
0
40
0
40
0.045286258426045
40
0.045286258426045
40
0.0981599399195011
40
0.0981599399195011
40
0.124596780666229
40
0.124596780666229
40
0.151033621412957
40
0.151033621412957
40
0.203907302906414
40
0.203907302906414
40
0.256780984399872
40
0.256780984399872
40
0.309654665893329
40
0.309654665893329
40
0.415402028880243
40
0.415402028880243
40
0.468275710373701
40
0.468275710373701
40
0.49471255112043
40
0.49471255112043
40
0.521149391867158
40
0.521149391867158
40
0.574023073360613
40
0.574023073360613
40
0.626896754854069
40
0.626896754854069
40
0.679770436347524
40
0.679770436347524
40
0.706207277094252
40
0.706207277094252
40
0.732644117840981
40
0.732644117840981
40
0.838391480827894
40
0.838391480827894
40
0.891265162321351
40
0.891265162321351
40
0.944138843814809
40
0.944138843814809
40
0.997012525308266
40
0.997012525308266
40
1
40
1
40
1
40
1
41
1
10
10.4138075499473
20
2.09715632461177
30
0
41
1
10
10.6027465728916
20
2.12954418733105
30
0
41
1
10
10.7916553624447
20
2.15340140738837
30
0
41
1
10
11.2016373448276
20
2.18656579522388
30
0
41
1
10
11.4224904153545
20
2.19271815048217
30
0
41
1
10
11.7562322793604
20
2.18360585781815
30
0
41
1
10
11.8682307501235
20
2.17750940563863
30
0
41
1
10
12.0914765495289
20
2.15933712805867
30
0
41
1
10
12.2027046656089
20
2.14728140202854
30
0
41
1
10
12.5353683662253
20
2.10237099541712
30
0
41
1
10
12.7554689987551
20
2.0605412454847
30
0
41
1
10
13.1962081602499
20
1.95545162044991
30
0
41
1
10
13.4169873972684
20
1.89246572015111
30
1E-16
41
1
10
13.8594001553756
20
1.74564201217407
30
-1E-16
41
1
10
14.0808770649827
20
1.66148655011827
30
-1E-16
41
1
10
14.7511861658781
20
1.38096165542305
30
-1E-16
41
1
10
15.1919896188644
20
1.16306012413313
30
-1E-16
41
1
10
15.8531476839222
20
0.804102101791301
30
0
41
1
10
16.0733287643567
20
0.678721814518752
30
0
41
1
10
16.4057900276306
20
0.485944829339445
30
0
41
1
10
16.5170495694202
20
0.421038799540014
30
0
41
1
10
16.7403578531596
20
0.289763104310907
30
0
41
1
10
16.8523481697259
20
0.223405804171392
30
0
41
1
10
17.1860746564016
20
0.0242541883606009
30
0
41
1
10
17.4066121668698
20
-0.109471811811488
30
0
41
1
10
17.8475967764419
20
-0.372371864840773
30
0
41
1
10
18.0682488416706
20
-0.501240278003962
30
0
41
1
10
18.5094671072127
20
-0.754501031842551
30
0
41
1
10
18.7299921619228
20
-0.87891671784763
30
1E-16
41
1
10
19.0636799558789
20
-1.057255390135
30
1E-16
41
1
10
19.175694572531
20
-1.11544061610729
30
1E-16
41
1
10
19.3988210941153
20
-1.22801894234607
30
1E-16
41
1
10
19.5100069432519
20
-1.28248414428686
30
1E-16
41
1
10
20.0641441206194
20
-1.54568822005331
30
1E-16
41
1
10
20.5019061973253
20
-1.72635227435328
30
1E-16
41
1
10
21.1653596692255
20
-1.93562771307239
30
-1E-16
41
1
10
21.3877980316007
20
-1.99538359733091
30
0
41
1
10
21.8344513680611
20
-2.09325275710105
30
0
41
1
10
22.0552750682458
20
-2.13072534845531
30
0
41
1
10
22.4971558020946
20
-2.18111982316876
30
0
41
1
10
22.7177964939133
20
-2.19444373797452
30
0
41
1
10
22.9506114332255
20
-2.19605089714997
30
0
41
1
10
22.9630608538793
20
-2.19609844610028
30
0
41
1
10
22.9755090814629
20
-2.19610760514118
30
0
0
SPLINE
5
C2
100
AcDbEntity
8
1
62
256
6
ByLayer
370
18
48
1
60
0
100
AcDbSpline
70
4
71
3
72
20
73
16
40
0
40
0
40
0
40
0
40
0.17391153490018
40
0.17391153490018
40
0.347823069800361
40
0.347823069800361
40
0.434778837250451
40
0.434778837250451
40
0.521734604700541
40
0.521734604700541
40
0.695646139600725
40
0.695646139600725
40
0.86955767450091
40
0.86955767450091
40
1
40
1
40
1
40
1
41
1
10
7.65349316115615
20
-1.09957885192594
30
1E-16
41
1
10
7.87636977813057
20
-1.21523353354363
30
1E-16
41
1
10
8.0984793117276
20
-1.32347835364573
30
1E-16
41
1
10
8.54214346638298
20
-1.52435436768536
30
1E-16
41
1
10
8.76322511473617
20
-1.6175016015506
30
1E-16
41
1
10
9.0963826002403
20
-1.74295947672735
30
1E-16
41
1
10
9.20769919301964
20
-1.78240845806783
30
1E-16
41
1
10
9.43101150281115
20
-1.85639593161631
30
-1E-16
41
1
10
9.54308838746255
20
-1.89095083552306
30
-1E-16
41
1
10
9.87737228087343
20
-1.98616915117185
30
0
41
1
10
10.0982220322546
20
-2.03900810216652
30
0
41
1
10
10.5394523088833
20
-2.12130974198905
30
0
41
1
10
10.7599651764787
20
-2.15083791517861
30
0
41
1
10
11.1464393385999
20
-2.18210070123214
30
0
41
1
10
11.3120869726417
20
-2.18891090458194
30
0
41
1
10
11.4784296435263
20
-2.18891488948376
30
0
0
SPLINE
5
C3
100
AcDbEntity
8
1
62
256
6
ByLayer
370
18
48
1
60
0
100
AcDbSpline
70
4
71
3
72
32
73
28
40
0
40
0
40
0
40
0
40
0.0475253993228467
40
0.0475253993228467
40
0.142772859390561
40
0.142772859390561
40
0.238020319458276
40
0.238020319458276
40
0.285644049492133
40
0.285644049492133
40
0.333267779525991
40
0.333267779525991
40
0.428515239593705
40
0.428515239593705
40
0.52376269966142
40
0.52376269966142
40
0.619010159729135
40
0.619010159729135
40
0.666633889762991
40
0.666633889762991
40
0.714257619796849
40
0.714257619796849
40
0.809505079864566
40
0.809505079864566
40
0.904752539932283
40
0.904752539932283
40
1
40
1
40
1
40
1
41
1
10
21.9452508709198
20
2.10913727408516
30
0
41
1
10
22.0557602994404
20
2.12772119538297
30
0
41
1
10
22.1659733441197
20
2.14334998002894
30
0
41
1
10
22.4971558020893
20
2.18111982316836
30
0
41
1
10
22.7177964939079
20
2.1944437379743
30
0
41
1
10
23.1585243194223
20
2.19748615342596
30
0
41
1
10
23.3783852073302
20
2.18697834456253
30
0
41
1
10
23.7108549673484
20
2.15327780177657
30
0
41
1
10
23.8219942829808
20
2.13905180132909
30
0
41
1
10
24.0451087240198
20
2.10459315509544
30
0
41
1
10
24.1569412011253
20
2.0843943093812
30
0
41
1
10
24.4904257135097
20
2.01551500860461
30
0
41
1
10
24.7109079800815
20
1.95815581190178
30
1E-16
41
1
10
25.1518137251077
20
1.82366077239595
30
1E-16
41
1
10
25.3720202743743
20
1.74644275156555
30
-1E-16
41
1
10
25.8130135049842
20
1.57306013286575
30
-1E-16
41
1
10
26.0337478932975
20
1.47674768987051
30
-1E-16
41
1
10
26.3676274115326
20
1.32051090706736
30
-1E-16
41
1
10
26.4795808357252
20
1.26628239817049
30
-1E-16
41
1
10
26.7023164239422
20
1.15494101165319
30
-1E-16
41
1
10
26.8132718336294
20
1.09773998940872
30
-1E-16
41
1
10
27.1451973217867
20
0.922019667897558
30
-1E-16
41
1
10
27.3651927510057
20
0.799312761759381
30
0
41
1
10
27.805682700165
20
0.547736952453789
30
0
41
1
10
28.0259213659901
20
0.4184783475269
30
0
41
1
10
28.467872751496
20
0.155406439212896
30
0
41
1
10
28.6898343257969
20
0.0213516197872821
30
0
41
1
10
28.9131042825182
20
-0.112712634501122
30
0
0
SPLINE
5
C4
100
AcDbEntity
8
1
62
256
6
ByLayer
370
18
48
1
60
0
100
AcDbSpline
70
4
71
3
72
26
73
22
40
0
40
0
40
0
40
0
40
0.0017495942335952
40
0.0017495942335952
40
0.11462279149266
40
0.11462279149266
40
0.227495988751725
40
0.227495988751725
40
0.340369186010791
40
0.340369186010791
40
0.453242383269855
40
0.453242383269855
40
0.678988777787985
40
0.678988777787985
40
0.735425376417519
40
0.735425376417519
40
0.791861975047052
40
0.791861975047052
40
0.904735172306118
40
0.904735172306118
40
1
40
1
40
1
40
1
41
1
10
18.4217878025343
20
-2.08911345421851
30
0
41
1
10
18.4182726094056
20
-2.08924381318977
30
0
41
1
10
18.4147572240174
20
-2.08937132737191
30
0
41
1
10
18.1844377151335
20
-2.09753885768359
30
0
41
1
10
17.9583722748564
20
-2.09337023086229
30
0
41
1
10
17.5076972162358
20
-2.06147806183728
30
0
41
1
10
17.2828152729818
20
-2.03369770040945
30
0
41
1
10
16.832310043333
20
-1.95536346682613
30
0
41
1
10
16.6064473338569
20
-1.90482405731359
30
0
41
1
10
16.1524605006912
20
-1.78198010110589
30
1E-16
41
1
10
15.9272552017928
20
-1.71043236315879
30
1E-16
41
1
10
15.2538522283529
20
-1.46860120893501
30
1E-16
41
1
10
14.8078606002823
20
-1.27209901008399
30
1E-16
41
1
10
14.244970045332
20
-0.993831403464412
30
1E-16
41
1
10
14.1321340143383
20
-0.936563680725925
30
1E-16
41
1
10
13.9056650402721
20
-0.819107506281341
30
1E-16
41
1
10
13.7919717954089
20
-0.758878305856371
30
0
41
1
10
13.4528343271066
20
-0.576246462992742
30
0
41
1
10
13.2281650894808
20
-0.451316981583659
30
0
41
1
10
12.8147842445419
20
-0.218138881433333
30
0
41
1
10
12.6259674536691
20
-0.110261095761501
30
0
41
1
10
12.4369516798068
20
-0.0022792186582308
30
0
0
SPLINE
5
C5
100
AcDbEntity
8
1
62
256
6
ByLayer
370
18
48
1
60
0
100
AcDbSpline
70
4
71
3
72
14
73
10
40
0
40
0
40
0
40
0
40
0.586205818980813
40
0.586205818980813
40
0.783825011517331
40
0.783825011517331
40
0.915505898478966
40
0.915505898478966
40
1
40
1
40
1
40
1
41
1
10
29.0875381071937
20
-2.19940061477919
30
0
41
1
10
29.1123939013918
20
-2.18328235692022
30
0
41
1
10
29.1372611805817
20
-2.16696335535283
30
0
41
1
10
29.1707298993343
20
-2.14474412994221
30
0
41
1
10
29.1791884301844
20
-2.13910734155681
30
0
41
1
10
29.1933201845649
20
-2.12965615272861
30
0
41
1
10
29.1989786258107
20
-2.12586301726753
30
0
41
1
10
29.2082480608076
20
-2.11963521543822
30
0
41
1
10
29.2118662013864
20
-2.11720077318375
30
0
41
1
10
29.2154732156166
20
-2.11477011553785
30
0
0
SPLINE
5
C6
100
AcDbEntity
8
1
62
256
6
ByLayer
370
18
48
1
60
0
100
AcDbSpline
70
4
71
3
72
8
73
4
40
0
40
0
40
0
40
0
40
1
40
1
40
1
40
1
41
1
10
29.8132575569476
20
-0.68625815035125
30
0
41
1
10
29.8759491227787
20
-0.510108610253297
30
0
41
1
10
29.9371360463141
20
-0.333418330893835
30
0
41
1
10
29.9967978274023
20
-0.15617994491592
30
0
0
SPLINE
5
C7
100
AcDbEntity
8
1
62
256
6
ByLayer
370
18
48
1
60
0
100
AcDbSpline
70
4
71
3
72
8
73
4
40
0
40
0
40
0
40
0
40
1
40
1
40
1
40
1
41
1
10
7.55142935525836
20
-2.0922354146077
30
0
41
1
10
7.55122945637814
20
-2.10322834133311
30
0
41
1
10
7.55103077427734
20
-2.11422154862856
30
0
41
1
10
7.55083330394609
20
-2.12521502866508
30
0
0
SPLINE
5
C8
100
AcDbEntity
8
1
62
256
6
ByLayer
370
18
48
1
60
0
100
AcDbSpline
70
4
71
3
72
8
73
4
40
0
40
0
40
0
40
0
40
1
40
1
40
1
40
1
41
1
10
29.0784412549988
20
-2.17001216119695
30
0
41
1
10
29.1196222558619
20
-2.14726109252177
30
0
41
1
10
29.1609319570416
20
-2.12386263249786
30
0
41
1
10
29.2023936592071
20
-2.09983035785501
30
0
0
SPLINE
5
C9
100
AcDbEntity
8
1
62
256
6
ByLayer
370
18
48
1
60
0
100
AcDbSpline
70
4
71
3
72
8
73
4
40
0
40
0
40
0
40
0
40
1
40
1
40
1
40
1
41
1
10
29.9967978273979
20
0.15617994493789
30
0
41
1
10
30.0010774167837
20
0.0518154840813168
30
0
41
1
10
30.0010574118202
20
-0.052303336299218
30
0
41
1
10
29.9967978273987
20
-0.15617994491933
30
0
0
SPLINE
5
CA
100
AcDbEntity
8
1
62
256
6
ByLayer
370
18
48
1
60
0
100
AcDbSpline
70
4
71
3
72
20
73
16
40
0
40
0
40
0
40
0
40
0.151357417010471
40
0.151357417010471
40
0.302714834020942
40
0.302714834020942
40
0.454072251031413
40
0.454072251031413
40
0.605429668041884
40
0.605429668041884
40
0.756787085052356
40
0.756787085052356
40
0.908144502062827
40
0.908144502062827
40
1
40
1
40
1
40
1
41
1
10
29.9604668589124
20
0.0341489985215446
30
0
41
1
10
29.9486447208902
20
-0.0052941447694366
30
0
41
1
10
29.9352044950508
20
-0.0439293306683339
30
0
41
1
10
29.9050811791767
20
-0.119522408989383
30
0
41
1
10
29.88818083726
20
-0.156829500234721
30
0
41
1
10
29.8528185838738
20
-0.22552610403622
30
0
41
1
10
29.8341710536798
20
-0.257460087243629
30
0
41
1
10
29.7951101410981
20
-0.315317311071112
30
0
41
1
10
29.7756826736405
20
-0.339799047745913
30
0
41
1
10
29.7369754061538
20
-0.379765571704468
30
0
41
1
10
29.717838869982
20
-0.394911121494403
30
0
41
1
10
29.6819773158265
20
-0.413937517166005
30
0
41
1
10
29.664820543913
20
-0.418038235571089
30
0
41
1
10
29.6396592363399
20
-0.41625556271967
30
0
41
1
10
29.6305617410374
20
-0.41367335564118
30
0
41
1
10
29.621933876446
20
-0.409392640764366
30
0
0
SPLINE
5
CB
100
AcDbEntity
8
1
62
256
6
ByLayer
370
18
48
1
60
0
100
AcDbSpline
70
4
71
3
72
8
73
4
40
0
40
0
40
0
40
0
40
1
40
1
40
1
40
1
41
1
10
29.5911105196595
20
-0.385004452798825
30
0
41
1
10
29.5835911309748
20
-0.376612626734555
30
0
41
1
10
29.5765058300955
20
-0.366731871655873
30
0
41
1
10
29.5697689778745
20
-0.355488691285018
30
0
0
SPLINE
5
CC
100
AcDbEntity
8
1
62
256
6
ByLayer
370
18
48
1
60
0
100
AcDbSpline
70
4
71
3
72
18
73
14
40
0
40
0
40
0
40
0
40
0.499999999999999
40
0.499999999999999
40
0.562499999999999
40
0.562499999999999
40
0.625
40
0.625
40
0.75
40
0.75
40
0.875
40
0.875
40
1
40
1
40
1
40
1
41
1
10
29.2432117465697
20
2.0960163139693
30
0
41
1
10
29.3284203562933
20
1.85473891315158
30
0
41
1
10
29.4136827067553
20
1.60945381206042
30
0
41
1
10
29.5139909900396
20
1.33563783425439
30
0
41
1
10
29.525146031268
20
1.30521982928519
30
0
41
1
10
29.5479732107196
20
1.24467914760237
30
0
41
1
10
29.5596198626693
20
1.21454059341244
30
0
41
1
10
29.5954052419109
20
1.12457992498611
30
0
41
1
10
29.6201887817434
20
1.06576687281986
30
0
41
1
10
29.671560294109
20
0.951702098086571
30
0
41
1
10
29.6982226528456
20
0.896256677878625
30
0
41
1
10
29.7539203024754
20
0.78868428928871
30
0
41
1
10
29.7831251042164
20
0.736282420054607
30
0
41
1
10
29.8132575569476
20
0.686258150351279
30
0
0
SPLINE
5
CD
100
AcDbEntity
8
1
62
256
6
ByLayer
370
18
48
1
60
0
100
AcDbSpline
70
4
71
3
72
32
73
28
40
0
40
0
40
0
40
0
40
0.498614351149172
40
0.498614351149172
40
0.666705083558716
40
0.666705083558716
40
0.778710078871714
40
0.778710078871714
40
0.853464468304943
40
0.853464468304943
40
0.90341459417482
40
0.90341459417482
40
0.936791883941075
40
0.936791883941075
40
0.959085186257462
40
0.959085186257462
40
0.973912313413322
40
0.973912313413322
40
0.983684751286872
40
0.983684751286872
40
0.990134052566849
40
0.990134052566849
40
0.994498137613203
40
0.994498137613203
40
0.997999893391572
40
0.997999893391572
40
1
40
1
40
1
40
1
41
1
10
29.0875381071889
20
2.19940061478235
30
0
41
1
10
29.1123939013886
20
2.18328235692235
30
0
41
1
10
29.13726118058
20
2.16696335535391
30
0
41
1
10
29.1707298993343
20
2.14474412994221
30
0
41
1
10
29.1791884301844
20
2.13910734155681
30
0
41
1
10
29.193320184565
20
2.12965615272856
30
0
41
1
10
29.1989786258108
20
2.12586301726745
30
0
41
1
10
29.2083935231194
20
2.11953748451381
30
0
41
1
10
29.2121567247012
20
2.11700529075011
30
0
41
1
10
29.2184139269313
20
2.11278823387693
30
0
41
1
10
29.2209147591503
20
2.11110099104707
30
0
41
1
10
29.2250730226247
20
2.10829232044975
30
0
41
1
10
29.2267350031511
20
2.10716888558682
30
0
41
1
10
29.2294992939168
20
2.10529880509807
30
0
41
1
10
29.2306001779104
20
2.10455356881488
30
0
41
1
10
29.2324563864843
20
2.10329671887814
30
0
41
1
10
29.2332051813976
20
2.10278964688973
30
0
41
1
10
29.2344641030711
20
2.10193719787242
30
0
41
1
10
29.2349691049704
20
2.10159527547768
30
0
41
1
10
29.2358122201968
20
2.10102444436993
30
0
41
1
10
29.2361481193385
20
2.10079701552198
30
0
41
1
10
29.236704949205
20
2.10041983298777
30
0
41
1
10
29.2369282055475
20
2.10026856082848
30
0
41
1
10
29.2373209682412
20
2.10000223467478
30
0
41
1
10
29.2374933151006
20
2.09988530165256
30
0
41
1
10
29.2377468602496
20
2.09971298396704
30
0
41
1
10
29.2378359968611
20
2.09965233971815
30
0
41
1
10
29.2379151537858
20
2.09959833272555
30
0
0
SPLINE
5
CE
100
AcDbEntity
8
1
62
256
6
ByLayer
370
18
48
1
60
0
100
AcDbSpline
70
4
71
3
72
54
73
50
40
0
40
0
40
0
40
0
40
0.0149601792490337
40
0.0149601792490337
40
0.0612735976063688
40
0.0612735976063688
40
0.107587015963704
40
0.107587015963704
40
0.153900434321039
40
0.153900434321039
40
0.200213852678374
40
0.200213852678374
40
0.246527271035709
40
0.246527271035709
40
0.292840689393044
40
0.292840689393044
40
0.339154107750379
40
0.339154107750379
40
0.385467526107714
40
0.385467526107714
40
0.431780944465049
40
0.431780944465049
40
0.478094362822384
40
0.478094362822384
40
0.524407781179719
40
0.524407781179719
40
0.570721199537054
40
0.570721199537054
40
0.61703461789439
40
0.61703461789439
40
0.663348036251725
40
0.663348036251725
40
0.70966145460906
40
0.70966145460906
40
0.755974872966395
40
0.755974872966395
40
0.80228829132373
40
0.80228829132373
40
0.848601709681065
40
0.848601709681065
40
0.871758418859732
40
0.871758418859732
40
0.894915128038399
40
0.894915128038399
40
0.941228546395733
40
0.941228546395733
40
0.987541964753067
40
0.987541964753067
40
1
40
1
40
1
40
1
41
1
10
26.4487916301067
20
-1.5195652871619
30
1E-16
41
1
10
26.3768784183287
20
-1.55080014286909
30
1E-16
41
1
10
26.3049299264518
20
-1.58113346483537
30
1E-16
41
1
10
26.0098813215947
20
-1.70141614268346
30
1E-16
41
1
10
25.7864740613054
20
-1.78394149316387
30
1E-16
41
1
10
25.3409860726443
20
-1.92721763331946
30
-1E-16
41
1
10
25.1181754167105
20
-1.988170564331
30
0
41
1
10
24.6722242613767
20
-2.08832233343222
30
0
41
1
10
24.4489234544101
20
-2.12677119721147
30
0
41
1
10
24.0032206485869
20
-2.17952776159254
30
0
41
1
10
23.7808092314721
20
-2.1940406268121
30
0
41
1
10
23.3338805793951
20
-2.19828047094558
30
0
41
1
10
23.1112239049963
20
-2.18814079866311
30
0
41
1
10
22.6659720264264
20
-2.14359459653659
30
0
41
1
10
22.442165008618
20
-2.10929756404954
30
0
41
1
10
21.9960637090299
20
-2.01740879817029
30
0
41
1
10
21.7738028066427
20
-1.95989829440194
30
0
41
1
10
21.3277251473349
20
-1.82419993706515
30
-1E-16
41
1
10
21.1042269406841
20
-1.74519035872561
30
1E-16
41
1
10
20.6584927842977
20
-1.56954023309601
30
1E-16
41
1
10
20.4356232928841
20
-1.47309517783231
30
1E-16
41
1
10
19.9896845542805
20
-1.26304132961857
30
1E-16
41
1
10
19.7661375057308
20
-1.1505264951497
30
1E-16
41
1
10
19.3202555183268
20
-0.914965099697923
30
1E-16
41
1
10
19.0979709265972
20
-0.790723664986359
30
0
41
1
10
18.6507968010541
20
-0.5352421522513
30
0
41
1
10
18.427950221156
20
-0.404253564254844
30
0
41
1
10
17.9825613191382
20
-0.138646086665261
30
0
41
1
10
17.7588068932578
20
-0.0047535128050811
30
0
41
1
10
17.312406721335
20
0.262667585214189
30
0
41
1
10
17.0900447906062
20
0.395536396860734
30
0
41
1
10
16.6438940324233
20
0.654502786625613
30
0
41
1
10
16.4203352640243
20
0.782081094431334
30
0
41
1
10
15.9743275120245
20
1.02556969482606
30
-1E-16
41
1
10
15.7513967797548
20
1.14152428230636
30
-1E-16
41
1
10
15.3054651647161
20
1.36144558021843
30
-1E-16
41
1
10
15.0817094096829
20
1.46418891908809
30
-1E-16
41
1
10
14.6356270186371
20
1.65146879141668
30
-1E-16
41
1
10
14.4133043002489
20
1.73690768668203
30
-1E-16
41
1
10
14.0779589670601
20
1.84949062124949
30
1E-16
41
1
10
13.9660628091522
20
1.88440442789619
30
1E-16
41
1
10
13.7429093743969
20
1.94891596367279
30
1E-16
41
1
10
13.6316370416749
20
1.9786071032137
30
0
41
1
10
13.2974865027836
20
2.05902750717658
30
0
41
1
10
13.0738195379967
20
2.10125633772609
30
0
41
1
10
12.6270985418217
20
2.16222680046147
30
0
41
1
10
12.4046158166506
20
2.18066299161723
30
0
41
1
10
12.1214774956618
20
2.18854504966294
30
0
41
1
10
12.0614268911658
20
2.18932977564464
30
0
41
1
10
12.0013607351404
20
2.18923005279169
30
0
0
SPLINE
5
CF
100
AcDbEntity
8
1
62
256
6
ByLayer
370
18
48
1
60
0
100
AcDbSpline
70
4
71
3
72
18
73
14
40
0
40
0
40
0
40
0
40
0.499999999999995
40
0.499999999999995
40
0.562499999999996
40
0.562499999999996
40
0.624999999999996
40
0.624999999999996
40
0.749999999999998
40
0.749999999999998
40
0.874999999999999
40
0.874999999999999
40
1
40
1
40
1
40
1
41
1
10
29.2432117465696
20
-2.09601631396927
30
0
41
1
10
29.3284203562933
20
-1.85473891315155
30
0
41
1
10
29.4136827067553
20
-1.60945381206045
30
0
41
1
10
29.5139909900396
20
-1.33563783425441
30
0
41
1
10
29.525146031268
20
-1.30521982928516
30
0
41
1
10
29.5479732107196
20
-1.24467914760237
30
0
41
1
10
29.5596198626693
20
-1.21454059341244
30
0
41
1
10
29.5954052419109
20
-1.12457992498616
30
0
41
1
10
29.6201887817434
20
-1.06576687281986
30
0
41
1
10
29.671560294109
20
-0.951702098086542
30
0
41
1
10
29.6982226528456
20
-0.896256677878569
30
0
41
1
10
29.7539203024754
20
-0.78868428928871
30
0
41
1
10
29.7831251042163
20
-0.736282420054636
30
0
41
1
10
29.8132575569476
20
-0.68625815035125
30
0
0
SPLINE
5
D0
100
AcDbEntity
8
1
62
256
6
ByLayer
370
18
48
1
60
0
100
AcDbSpline
70
4
71
3
72
8
73
4
40
0
40
0
40
0
40
0
40
1
40
1
40
1
40
1
41
1
10
29.1136267422081
20
0.340757450714534
30
0
41
1
10
29.0400545946815
20
0.311654147969762
30
0
41
1
10
28.9705475579556
20
0.263740780706342
30
0
41
1
10
28.9072593451848
20
0.199453772433799
30
0
0
SPLINE
5
D1
100
AcDbEntity
8
1
62
256
6
ByLayer
370
18
48
1
60
0
100
AcDbSpline
70
4
71
3
72
8
73
4
40
0
40
0
40
0
40
0
40
1
40
1
40
1
40
1
41
1
10
29.2432117465714
20
-2.09601631396933
30
0
41
1
10
29.2254477574541
20
-2.10881830155509
30
0
41
1
10
29.2123369576615
20
-2.10983289022667
30
0
41
1
10
29.2023936592071
20
-2.09983035785501
30
0
0
SPLINE
5
D2
100
AcDbEntity
8
1
62
256
6
ByLayer
370
18
48
1
60
0
100
AcDbSpline
70
4
71
3
72
20
73
16
40
0
40
0
40
0
40
0
40
0.119491015906887
40
0.119491015906887
40
0.282487910357419
40
0.282487910357419
40
0.445484804807951
40
0.445484804807951
40
0.608481699258483
40
0.608481699258483
40
0.771478593709015
40
0.771478593709015
40
0.934475488159547
40
0.934475488159547
40
1
40
1
40
1
40
1
41
1
10
7.60239245249468
20
-1.11781870554856
30
1E-16
41
1
10
7.60238350652037
20
-1.18739913945927
30
1E-16
41
1
10
7.60237453760186
20
-1.25426235211361
30
1E-16
41
1
10
7.60235417405249
20
-1.403812375749
30
1E-16
41
1
10
7.60234304845221
20
-1.4837156795447
30
1E-16
41
1
10
7.60232275101407
20
-1.63088533767044
30
1E-16
41
1
10
7.60231352640159
20
-1.69855287152842
30
1E-16
41
1
10
7.60229758687152
20
-1.81803857946534
30
-1E-16
41
1
10
7.60229082776374
20
-1.87017405901858
30
0
41
1
10
7.60227945131058
20
-1.9572359826193
30
0
41
1
10
7.60227485363424
20
-1.99197570693568
30
0
41
1
10
7.60226668960814
20
-2.04434442430514
30
0
41
1
10
7.60226311100485
20
-2.06201249085913
30
0
41
1
10
7.60225778020083
20
-2.07404952233438
30
0
41
1
10
7.60225622931779
20
-2.07605215746295
30
0
41
1
10
7.60225459230369
20
-2.07660369355503
30
0
0
SPLINE
5
D3
100
AcDbEntity
8
1
62
256
6
ByLayer
370
18
48
1
60
0
100
AcDbSpline
70
4
71
3
72
24
73
20
40
0
40
0
40
0
40
0
40
0.12792631581493
40
0.12792631581493
40
0.255852631629859
40
0.255852631629859
40
0.319815789537327
40
0.319815789537327
40
0.383778947444796
40
0.383778947444796
40
0.511705263259737
40
0.511705263259737
40
0.767557894889621
40
0.767557894889621
40
0.831521052797091
40
0.831521052797091
40
0.895484210704561
40
0.895484210704561
40
1
40
1
40
1
40
1
41
1
10
29.208591551412
20
-2.08243493810585
30
0
41
1
10
28.9827414409533
20
-2.06533565732576
30
0
41
1
10
28.7576131696991
20
-2.03713623046195
30
0
41
1
10
28.3071714820093
20
-1.95704170951106
30
0
41
1
10
28.0818235210174
20
-1.90555229696443
30
0
41
1
10
27.7422399966829
20
-1.81205576550141
30
1E-16
41
1
10
27.6285880822592
20
-1.77810694424414
30
1E-16
41
1
10
27.4025519497335
20
-1.7056350662227
30
1E-16
41
1
10
27.2899820067033
20
-1.66707759472712
30
1E-16
41
1
10
26.9531205515642
20
-1.54483992624972
30
1E-16
41
1
10
26.7296249326613
20
-1.45453448781279
30
1E-16
41
1
10
26.0598283209949
20
-1.16135425012433
30
1E-16
41
1
10
25.6145210183423
20
-0.935872358895864
30
1E-16
41
1
10
25.0493370947018
20
-0.630131827634386
30
0
41
1
10
24.9356330181409
20
-0.567665738048817
30
0
41
1
10
24.7094990507598
20
-0.44196567924746
30
0
41
1
10
24.5968532988041
20
-0.378602627731453
30
0
41
1
10
24.3009200624421
20
-0.210949665622024
30
0
41
1
10
24.1181151855195
20
-0.106198780549477
30
0
41
1
10
23.9355633089735
20
-0.0016352327048992
30
0
0
SPLINE
5
D4
100
AcDbEntity
8
1
62
256
6
ByLayer
370
18
48
1
60
0
100
AcDbSpline
70
4
71
3
72
10
73
6
40
0
40
0
40
0
40
0
40
0.0341288292384756
40
0.0341288292384756
40
1
40
1
40
1
40
1
41
1
10
18.4217878028952
20
2.08911345420515
30
0
41
1
10
18.4182726096457
20
2.0892438131811
30
0
41
1
10
18.4147572241367
20
2.0893713273677
30
0
41
1
10
18.3117480967838
20
2.09302421015693
30
0
41
1
10
18.2123966627602
20
2.09420248156815
30
0
41
1
10
18.1131864482767
20
2.09306745005711
30
0
0
SPLINE
5
D5
100
AcDbEntity
8
1
62
256
6
ByLayer
370
18
48
1
60
0
100
AcDbSpline
70
4
71
3
72
8
73
4
40
0
40
0
40
0
40
0
40
1
40
1
40
1
40
1
41
1
10
29.8132575569476
20
0.68625815035125
30
0
41
1
10
29.8759491227755
20
0.510108610262137
30
0
41
1
10
29.937136046308
20
0.33341833091157
30
0
41
1
10
29.9967978273933
20
0.156179944942608
30
0
0
SPLINE
5
D6
100
AcDbEntity
8
1
62
256
6
ByLayer
370
18
48
1
60
0
100
AcDbSpline
70
4
71
3
72
18
73
14
40
0
40
0
40
0
40
0
40
0.267476057668597
40
0.267476057668597
40
0.401214086502897
40
0.401214086502897
40
0.534952115337198
40
0.534952115337198
40
0.802428173005799
40
0.802428173005799
40
0.936166201840097
40
0.936166201840097
40
1
40
1
40
1
40
1
41
1
10
14.8
20
-1.55261348426754
30
1E-16
41
1
10
15.0994877899044
20
-1.67924514925056
30
1E-16
41
1
10
15.3979760402505
20
-1.79001076935649
30
1E-16
41
1
10
15.8463788585566
20
-1.92787067162399
30
-1E-16
41
1
10
15.9963424210464
20
-1.96921204910387
30
0
41
1
10
16.2947795438665
20
-2.04149041125171
30
0
41
1
10
16.4434533425082
20
-2.07250650277862
30
0
41
1
10
16.8887120185721
20
-2.14991999903663
30
0
41
1
10
17.1845489483207
20
-2.18067418060531
30
0
41
1
10
17.6302785526151
20
-2.1944574390225
30
0
41
1
10
17.7791715151827
20
-2.19366304561839
30
0
41
1
10
18.000008466068
20
-2.18437220478941
30
0
41
1
10
18.071394223128
20
-2.18011469758758
30
0
41
1
10
18.1426902013312
20
-2.1746285085122
30
0
0
SPLINE
5
D7
100
AcDbEntity
8
1
62
256
6
ByLayer
370
18
48
1
60
0
100
AcDbSpline
70
4
71
3
72
38
73
34
40
0
40
0
40
0
40
0
40
0.123430120550809
40
0.123430120550809
40
0.154287650688512
40
0.154287650688512
40
0.185145180826215
40
0.185145180826215
40
0.24686024110162
40
0.24686024110162
40
0.370290361652433
40
0.370290361652433
40
0.401147891790137
40
0.401147891790137
40
0.43200542192784
40
0.43200542192784
40
0.493720482203249
40
0.493720482203249
40
0.555435542478657
40
0.555435542478657
40
0.586293072616361
40
0.586293072616361
40
0.617150602754065
40
0.617150602754065
40
0.740580723304878
40
0.740580723304878
40
0.802295783580284
40
0.802295783580284
40
0.864010843855691
40
0.864010843855691
40
0.987440964406504
40
0.987440964406504
40
1
40
1
40
1
40
1
41
1
10
29.0784412549996
20
-2.17001216119854
30
0
41
1
10
28.6280228291868
20
-2.12508031111301
30
0
41
1
10
28.1816736389584
20
-2.03132884246196
30
0
41
1
10
27.6195505888982
20
-1.85975834732642
30
-1E-16
41
1
10
27.5069276030888
20
-1.82270965138301
30
-1E-16
41
1
10
27.2811222381857
20
-1.74318402582466
30
1E-16
41
1
10
27.168118888412
20
-1.70077749308436
30
1E-16
41
1
10
26.8307655287212
20
-1.56732858994493
30
1E-16
41
1
10
26.6072041908455
20
-1.46960852920657
30
1E-16
41
1
10
25.9376810860651
20
-1.15429499526994
30
1E-16
41
1
10
25.4932589029164
20
-0.913956658299355
30
1E-16
41
1
10
24.9293709540543
20
-0.591089064610344
30
0
41
1
10
24.8160785115581
20
-0.52529824175636
30
0
41
1
10
24.5908511742377
20
-0.393113226616037
30
0
41
1
10
24.4786258027283
20
-0.326564314186328
30
0
41
1
10
24.1426681556505
20
-0.126306304677058
30
0
41
1
10
23.9196603728558
20
0.0080247703139662
30
0
41
1
10
23.4735958381209
20
0.274993283577061
30
0
41
1
10
23.2505707378463
20
0.407684695499853
30
0
41
1
10
22.9146389259928
20
0.60314892926246
30
0
41
1
10
22.8024082039705
20
0.667672786925152
30
0
41
1
10
22.5771815833256
20
0.795021716492357
30
0
41
1
10
22.4638945531722
20
0.858000805336161
30
-1E-16
41
1
10
21.8999269323056
20
1.16489561899837
30
-1E-16
41
1
10
21.4553943195803
20
1.38630268167941
30
-1E-16
41
1
10
20.7856386877423
20
1.66587100055304
30
-1E-16
41
1
10
20.5620435316693
20
1.75050155341526
30
-1E-16
41
1
10
20.1121085402196
20
1.8999999083035
30
1E-16
41
1
10
19.8853613223889
20
1.96491734718651
30
0
41
1
10
19.2119905547125
20
2.12318820205164
30
0
41
1
10
18.7675082757201
20
2.18189972559446
30
0
41
1
10
18.274690188936
20
2.19265519919554
30
0
41
1
10
18.2291412383507
20
2.19314020689959
30
0
41
1
10
18.1835486801941
20
2.19311455820437
30
0
0
SPLINE
5
D8
100
AcDbEntity
8
1
62
256
6
ByLayer
370
18
48
1
60
0
100
AcDbSpline
70
4
71
3
72
8
73
4
40
0
40
0
40
0
40
0
40
1
40
1
40
1
40
1
41
1
10
7.83993549315096
20
-2.07828706236037
30
0
41
1
10
7.74361579236702
20
-2.09609593171598
30
0
41
1
10
7.64719134143135
20
-2.11177019658635
30
0
41
1
10
7.55083330394621
20
-2.1252150286702
30
0
0
SPLINE
5
D9
100
AcDbEntity
8
1
62
256
6
ByLayer
370
18
48
1
60
0
100
AcDbSpline
70
4
71
3
72
8
73
4
40
0
40
0
40
0
40
0
40
1
40
1
40
1
40
1
41
1
10
29.0784412549967
20
-2.17001216119934
30
0
41
1
10
29.081916819488
20
-2.18716501167853
30
0
41
1
10
29.0849507725618
20
-2.19708432893268
30
0
41
1
10
29.0875381071764
20
-2.1994006147909
30
0
0
SPLINE
5
DA
100
AcDbEntity
8
1
62
256
6
ByLayer
370
18
48
1
60
0
100
AcDbSpline
70
4
71
3
72
22
73
18
40
0
40
0
40
0
40
0
40
0.125
40
0.125
40
0.25
40
0.25
40
0.375
40
0.375
40
0.5
40
0.5
40
0.625
40
0.625
40
0.75
40
0.75
40
0.875
40
0.875
40
1
40
1
40
1
40
1
41
1
10
8.9950157441483
20
1.53804376081135
30
-1E-16
41
1
10
9.23762712398184
20
1.43522906191001
30
-1E-16
41
1
10
9.47907970650655
20
1.32256887335311
30
-1E-16
41
1
10
9.96233855371452
20
1.08111085283287
30
-1E-16
41
1
10
10.2049589537953
20
0.952124884946244
30
-1E-16
41
1
10
10.6887324777001
20
0.683900508748792
30
0
41
1
10
10.9301227785269
20
0.544852494144777
30
0
41
1
10
11.4140510211883
20
0.260317905531764
30
0
41
1
10
11.6564344061599
20
0.115126568236065
30
0
41
1
10
12.1397053902119
20
-0.173868019182663
30
0
41
1
10
12.3813938022184
20
-0.31853445156537
30
0
41
1
10
12.865984162685
20
-0.60191291825879
30
0
41
1
10
13.1073140762032
20
-0.74014352144431
30
0
41
1
10
13.5905664245203
20
-1.00569131434543
30
1E-16
41
1
10
13.833255137305
20
-1.13303407238766
30
1E-16
41
1
10
14.3166518511462
20
-1.37078555623265
30
1E-16
41
1
10
14.5579463343676
20
-1.48117992726264
30
1E-16
41
1
10
14.8
20
-1.58157998551977
30
1E-16
0
SPLINE
5
DB
100
AcDbEntity
8
1
62
256
6
ByLayer
370
18
48
1
60
0
100
AcDbSpline
70
4
71
3
72
40
73
36
40
0
40
0
40
0
40
0
40
0.0769309324481309
40
0.0769309324481309
40
0.134622749170124
40
0.134622749170124
40
0.192314565892116
40
0.192314565892116
40
0.307698199336103
40
0.307698199336103
40
0.336544107697099
40
0.336544107697099
40
0.365390016058095
40
0.365390016058095
40
0.423081832780086
40
0.423081832780086
40
0.538465466224069
40
0.538465466224069
40
0.567311374585064
40
0.567311374585064
40
0.596157282946059
40
0.596157282946059
40
0.65384909966805
40
0.65384909966805
40
0.71154091639004
40
0.71154091639004
40
0.740386824751036
40
0.740386824751036
40
0.769232733112032
40
0.769232733112032
40
0.884616366556016
40
0.884616366556016
40
0.942308183278008
40
0.942308183278008
40
1
40
1
40
1
40
1
41
1
10
19.213297929248
20
-2.10749150053823
30
0
41
1
10
18.9154211317882
20
-2.156884146816
30
0
41
1
10
18.618439682568
20
-2.18515306259931
30
0
41
1
10
18.096551146644
20
-2.19654298216875
30
0
41
1
10
17.8720387252371
20
-2.18915008688788
30
0
41
1
10
17.4193973546191
20
-2.14925589092357
30
0
41
1
10
17.1947666927264
20
-2.11702316094173
30
0
41
1
10
16.5234962264897
20
-1.98595231969486
30
0
41
1
10
16.0790669375059
20
-1.85282927315737
30
-1E-16
41
1
10
15.5178434629846
20
-1.63670374847533
30
1E-16
41
1
10
15.4053003269274
20
-1.59100422140975
30
1E-16
41
1
10
15.1793470248604
20
-1.49487945543476
30
1E-16
41
1
10
15.066149583652
20
-1.44452709220383
30
1E-16
41
1
10
14.7284583060161
20
-1.28834500234765
30
1E-16
41
1
10
14.5047099429305
20
-1.17702101555969
30
1E-16
41
1
10
13.8347677181337
20
-0.825858637888842
30
1E-16
41
1
10
13.3896781428784
20
-0.569138982720403
30
0
41
1
10
12.8256361061523
20
-0.234815123903644
30
0
41
1
10
12.7122731239915
20
-0.16716909095004
30
0
41
1
10
12.4868509572403
20
-0.0323350208792306
30
0
41
1
10
12.3745241958093
20
0.0350031810588405
30
0
41
1
10
12.0382401090301
20
0.236021300335267
30
0
41
1
10
11.8149913940235
20
0.36872896843343
30
0
41
1
10
11.3685022970706
20
0.628458728254202
30
0
41
1
10
11.1453576881963
20
0.755636777669707
30
0
41
1
10
10.8092109779743
20
0.939747255992017
30
-1E-16
41
1
10
10.6969096394935
20
0.99998596059055
30
-1E-16
41
1
10
10.4715525720822
20
1.11778924361295
30
-1E-16
41
1
10
10.3581966282376
20
1.17549885338661
30
-1E-16
41
1
10
9.79345355976415
20
1.45416629514366
30
-1E-16
41
1
10
9.34816779982941
20
1.64579287824131
30
-1E-16
41
1
10
8.67802590568988
20
1.87356380223577
30
1E-16
41
1
10
8.45437560268263
20
1.93963054258342
30
1E-16
41
1
10
8.00427803588184
20
2.04967448704122
30
0
41
1
10
7.77737212792243
20
2.09360607804888
30
0
41
1
10
7.55083330394621
20
2.1252150286702
30
0
0
SPLINE
5
DC
100
AcDbEntity
8
1
62
256
6
ByLayer
370
18
48
1
60
0
100
AcDbSpline
70
4
71
3
72
8
73
4
40
0
40
0
40
0
40
0
40
1
40
1
40
1
40
1
41
1
10
29.5697689778746
20
-0.355488691285075
30
0
41
1
10
29.4463021554738
20
-0.149434037191895
30
0
41
1
10
29.2954474554711
20
0.0815618470551271
30
0
41
1
10
29.1136267422082
20
0.340757450714591
30
0
0
SPLINE
5
DD
100
AcDbEntity
8
1
62
256
6
ByLayer
370
18
48
1
60
0
100
AcDbSpline
70
4
71
3
72
8
73
4
40
0
40
0
40
0
40
0
40
1
40
1
40
1
40
1
41
1
10
29.2379151537859
20
2.09959833272552
30
0
41
1
10
29.2396806464285
20
2.09840459926878
30
0
41
1
10
29.2414461770611
20
2.09721059306884
30
0
41
1
10
29.2432117465714
20
2.09601631396933
30
0
0
SPLINE
5
DE
100
AcDbEntity
8
1
62
256
6
ByLayer
370
18
48
1
60
0
100
AcDbSpline
70
4
71
3
72
38
73
34
40
0
40
0
40
0
40
0
40
0.0225783743675736
40
0.0225783743675736
40
0.0616752393928698
40
0.0616752393928698
40
0.218062699494057
40
0.218062699494057
40
0.257159564519354
40
0.257159564519354
40
0.296256429544651
40
0.296256429544651
40
0.374450159595246
40
0.374450159595246
40
0.45264388964584
40
0.45264388964584
40
0.530837619696434
40
0.530837619696434
40
0.609031349747029
40
0.609031349747029
40
0.648128214772326
40
0.648128214772326
40
0.687225079797623
40
0.687225079797623
40
0.765418809848217
40
0.765418809848217
40
0.843612539898811
40
0.843612539898811
40
0.882709404924109
40
0.882709404924109
40
0.921806269949406
40
0.921806269949406
40
1
40
1
40
1
40
1
41
1
10
17.670213864163
20
2.19279265352713
30
0
41
1
10
17.7561995331999
20
2.19280533598726
30
0
41
1
10
17.8423297627406
20
2.19100591227752
30
0
41
1
10
18.0781442883209
20
2.18108494926136
30
0
41
1
10
18.2277851510935
20
2.16928402569502
30
0
41
1
10
18.9710154700935
20
2.08396303275481
30
0
41
1
10
19.5567162803094
20
1.93137672333475
30
1E-16
41
1
10
20.3009189740141
20
1.65171568096429
30
-1E-16
41
1
10
20.4508727040512
20
1.59108546692386
30
-1E-16
41
1
10
20.749289918301
20
1.46277205248958
30
-1E-16
41
1
10
20.8978166150288
20
1.39510400442788
30
-1E-16
41
1
10
21.3422272313124
20
1.18289131351966
30
-1E-16
41
1
10
21.6369217665066
20
1.02911563637105
30
-1E-16
41
1
10
22.2275725460673
20
0.703567626392044
30
0
41
1
10
22.523544245905
20
0.531807976056712
30
0
41
1
10
23.1216971015161
20
0.177739240032224
30
0
41
1
10
23.4200593065184
20
-0.0021983830934289
30
0
41
1
10
24.0172354524994
20
-0.358943019974731
30
0
41
1
10
24.316655288486
20
-0.536260761040637
30
0
41
1
10
24.7640517644612
20
-0.790763187514614
30
0
41
1
10
24.9131565101598
20
-0.87383439456093
30
1E-16
41
1
10
25.2119301958897
20
-1.03547506580691
30
1E-16
41
1
10
25.3617014655234
20
-1.11408411268974
30
1E-16
41
1
10
25.8096343449365
20
-1.34027160138044
30
1E-16
41
1
10
26.107345044799
20
-1.47886045682347
30
1E-16
41
1
10
26.7057267937093
20
-1.72525290322008
30
1E-16
41
1
10
27.0036468968361
20
-1.83180130443873
30
-1E-16
41
1
10
27.4514301668442
20
-1.9631773245965
30
0
41
1
10
27.6012134886848
20
-2.00231387363482
30
0
41
1
10
27.8998330436736
20
-2.0701853324467
30
0
41
1
10
28.0486036221933
20
-2.09893711044535
30
0
41
1
10
28.4941407691719
20
-2.16939816352655
30
0
41
1
10
28.7901301909484
20
-2.19529611651549
30
0
41
1
10
29.0875381071934
20
-2.19940061479085
30
0
0
SPLINE
5
DF
100
AcDbEntity
8
1
62
256
6
ByLayer
370
18
48
1
60
0
100
AcDbSpline
70
4
71
3
72
8
73
4
40
0
40
0
40
0
40
0
40
1
40
1
40
1
40
1
41
1
10
29.0784412549967
20
2.17001216119934
30
0
41
1
10
29.081916819488
20
2.18716501167836
30
0
41
1
10
29.0849507725618
20
2.19708432893248
30
0
41
1
10
29.0875381071764
20
2.19940061479085
30
0
0
SPLINE
5
E0
100
AcDbEntity
8
1
62
256
6
ByLayer
370
18
48
1
60
0
100
AcDbSpline
70
4
71
3
72
30
73
26
40
0
40
0
40
0
40
0
40
0.0527611692705988
40
0.0527611692705988
40
0.107660810979225
40
0.107660810979225
40
0.16256045268785
40
0.16256045268785
40
0.272359736105104
40
0.272359736105104
40
0.382159019522358
40
0.382159019522358
40
0.491958302939612
40
0.491958302939612
40
0.54685794464824
40
0.54685794464824
40
0.601757586356868
40
0.601757586356868
40
0.711556869774125
40
0.711556869774125
40
0.821356153191381
40
0.821356153191381
40
0.931155436608638
40
0.931155436608638
40
1
40
1
40
1
40
1
41
1
10
22.667144888624
20
2.08784884467397
30
0
41
1
10
22.7734632460217
20
2.09259420184122
30
0
41
1
10
22.8799499552023
20
2.09474982928398
30
0
41
1
10
23.0975483449259
20
2.09435849716931
30
0
41
1
10
23.2085796191023
20
2.09181219419412
30
0
41
1
10
23.4314986132382
20
2.08082817451253
30
0
41
1
10
23.5435601857946
20
2.07203231061882
30
0
41
1
10
23.8776261909082
20
2.03673633150632
30
0
41
1
10
24.0989102763291
20
2.00159916187613
30
0
41
1
10
24.5399688856804
20
1.91088066211532
30
0
41
1
10
24.7595050263142
20
1.85579921556055
30
0
41
1
10
25.1996769317968
20
1.72466939145338
30
-1E-16
41
1
10
25.4201476795173
20
1.6491613879584
30
-1E-16
41
1
10
25.7521036884813
20
1.52274153884525
30
-1E-16
41
1
10
25.8629268878725
20
1.47844092378364
30
-1E-16
41
1
10
26.0854145153715
20
1.38548968687709
30
-1E-16
41
1
10
26.1974602978381
20
1.33662287050197
30
-1E-16
41
1
10
26.5322465792173
20
1.18513941915865
30
-1E-16
41
1
10
26.7538187491235
20
1.07778709837768
30
-1E-16
41
1
10
27.1950433775527
20
0.853467861623386
30
-1E-16
41
1
10
27.414668472482
20
0.736392186816687
30
0
41
1
10
27.854599785807
20
0.495474651531566
30
0
41
1
10
28.0747339490168
20
0.371680486362919
30
0
41
1
10
28.4342654218544
20
0.16711977436259
30
0
41
1
10
28.5731242321796
20
0.0874911086657164
30
0
41
1
10
28.7125509995473
20
0.0074981748762752
30
0
0
SPLINE
5
E1
100
AcDbEntity
8
1
62
256
6
ByLayer
370
18
48
1
60
0
100
AcDbSpline
70
4
71
3
72
8
73
4
40
0
40
0
40
0
40
0
40
1
40
1
40
1
40
1
41
1
10
28.9131042825183
20
-0.112712634501122
30
0
41
1
10
28.9075398842959
20
-0.0090038007795954
30
0
41
1
10
28.9051415263555
20
0.0950326574152598
30
0
41
1
10
28.9072593451813
20
0.199453772433458
30
0
0
SPLINE
5
E2
100
AcDbEntity
8
1
62
256
6
ByLayer
370
18
48
1
60
0
100
AcDbSpline
70
4
71
3
72
12
73
8
40
0
40
0
40
0
40
0
40
0.249999999999979
40
0.249999999999979
40
0.499999999999958
40
0.499999999999958
40
1
40
1
40
1
40
1
41
1
10
7.50204414326856
20
-1.17280315527464
30
1E-16
41
1
10
7.50204414326859
20
-1.15781660649731
30
1E-16
41
1
10
7.5068194628148
20
-1.14296103154692
30
1E-16
41
1
10
7.52444100864892
20
-1.11705952091219
30
1E-16
41
1
10
7.53740382150778
20
-1.10597277621437
30
1E-16
41
1
10
7.5834554187937
20
-1.08343057486005
30
1E-16
41
1
10
7.62303934160906
20
-1.08377581771109
30
1E-16
41
1
10
7.65349316115618
20
-1.09957885192594
30
1E-16
0
SPLINE
5
E3
100
AcDbEntity
8
1
62
256
6
ByLayer
370
18
48
1
60
0
100
AcDbSpline
70
4
71
3
72
26
73
22
40
0
40
0
40
0
40
0
40
0.051177225626915
40
0.051177225626915
40
0.169780072423549
40
0.169780072423549
40
0.229081495821866
40
0.229081495821866
40
0.288382919220182
40
0.288382919220182
40
0.525588612813449
40
0.525588612813449
40
0.644191459610083
40
0.644191459610083
40
0.703492883008402
40
0.703492883008402
40
0.762794306406722
40
0.762794306406722
40
0.881397153203361
40
0.881397153203361
40
1
40
1
40
1
40
1
41
1
10
23.5269154375317
20
0.242205833127087
30
0
41
1
10
23.6232608687932
20
0.187666219594291
30
0
41
1
10
23.7195779147913
20
0.132889374605696
30
0
41
1
10
24.0392613821214
20
-0.049180542267095
30
0
41
1
10
24.2627796021655
20
-0.177014854884334
30
0
41
1
10
24.5997901942224
20
-0.367160008236454
30
0
41
1
10
24.7124187955634
20
-0.430268467944217
30
0
41
1
10
24.9385090483106
20
-0.555491045092595
30
0
41
1
10
25.0521915165115
20
-0.617735519534648
30
0
41
1
10
25.6173144915364
20
-0.922492701307675
30
1E-16
41
1
10
26.0626198307226
20
-1.14749468372548
30
1E-16
41
1
10
26.732367899233
20
-1.44043721630223
30
1E-16
41
1
10
26.9558432194195
20
-1.5307380341327
30
1E-16
41
1
10
27.2926628953921
20
-1.65308176220662
30
1E-16
41
1
10
27.4052173749414
20
-1.69169175812215
30
1E-16
41
1
10
27.6312090462704
20
-1.76431533256144
30
1E-16
41
1
10
27.7448359538084
20
-1.79836434008854
30
1E-16
41
1
10
28.0843727303076
20
-1.89222458584598
30
0
41
1
10
28.3096968173767
20
-1.94403331735347
30
0
41
1
10
28.7600977058154
20
-2.0249127625971
30
0
41
1
10
28.985120906745
20
-2.0536824900411
30
0
41
1
10
29.2110398688852
20
-2.07120753937014
30
0
0
SPLINE
5
E4
100
AcDbEntity
8
1
62
256
6
ByLayer
370
18
48
1
60
0
100
AcDbSpline
70
4
71
3
72
8
73
4
40
0
40
0
40
0
40
0
40
1
40
1
40
1
40
1
41
1
10
29.2085915514145
20
-2.08243493810718
30
0
41
1
10
29.2065201924023
20
-2.08823388246483
30
0
41
1
10
29.2044542046093
20
-2.09403234774231
30
0
41
1
10
29.2023936592071
20
-2.09983035785501
30
0
0
SPLINE
5
E5
100
AcDbEntity
8
1
62
256
6
ByLayer
370
18
48
1
60
0
100
AcDbSpline
70
4
71
3
72
24
73
20
40
0
40
0
40
0
40
0
40
0.125
40
0.125
40
0.25
40
0.25
40
0.375
40
0.375
40
0.4375
40
0.4375
40
0.499999999999999
40
0.499999999999999
40
0.624999999999999
40
0.624999999999999
40
0.687499999999999
40
0.687499999999999
40
0.75
40
0.75
40
1
40
1
40
1
40
1
41
1
10
28.967311566134
20
-0.149342767219281
30
0
41
1
10
28.9724290931694
20
-0.269425259352715
30
0
41
1
10
28.9816947643222
20
-0.386723992070671
30
0
41
1
10
29.0045148111029
20
-0.616358342898906
30
0
41
1
10
29.0181423876741
20
-0.729093164672719
30
0
41
1
10
29.0465901421892
20
-0.947937486116842
30
1E-16
41
1
10
29.0610903698521
20
-1.05181285709085
30
1E-16
41
1
10
29.0817220285792
20
-1.19973265237186
30
1E-16
41
1
10
29.0884220213005
20
-1.24771465490812
30
1E-16
41
1
10
29.10131107014
20
-1.34099632764392
30
1E-16
41
1
10
29.1075255565291
20
-1.38648765960576
30
1E-16
41
1
10
29.1250654693822
20
-1.51732748267958
30
1E-16
41
1
10
29.1351860850404
20
-1.59654158903351
30
1E-16
41
1
10
29.1483743490101
20
-1.70365767907094
30
1E-16
41
1
10
29.1524461237255
20
-1.73740101113495
30
1E-16
41
1
10
29.1601012724473
20
-1.80088373685251
30
1E-16
41
1
10
29.1637004791693
20
-1.83075184730225
30
-1E-16
41
1
10
29.1808548069807
20
-1.9679737193286
30
0
41
1
10
29.1912684055685
20
-2.03907616259824
30
0
41
1
10
29.2110398688852
20
-2.07120753937014
30
0
0
SPLINE
5
E6
100
AcDbEntity
8
1
62
256
6
ByLayer
370
18
48
1
60
0
100
AcDbSpline
70
4
71
3
72
8
73
4
40
0
40
0
40
0
40
0
40
1
40
1
40
1
40
1
41
1
10
29.4470274374162
20
0.6008970285055
30
0
41
1
10
29.570490373317
20
0.621264218437034
30
0
41
1
10
29.6931841046753
20
0.646118534324728
30
0
41
1
10
29.8132575569476
20
0.686258150351222
30
0
0
SPLINE
5
E7
100
AcDbEntity
8
1
62
256
6
ByLayer
370
18
48
1
60
0
100
AcDbSpline
70
4
71
3
72
24
73
20
40
0
40
0
40
0
40
0
40
0.149967015165674
40
0.149967015165674
40
0.26039930103311
40
0.26039930103311
40
0.315615443966827
40
0.315615443966827
40
0.370831586900544
40
0.370831586900544
40
0.591696158635407
40
0.591696158635407
40
0.70212844450284
40
0.70212844450284
40
0.812560730370273
40
0.812560730370273
40
0.922993016237705
40
0.922993016237705
40
1
40
1
40
1
40
1
41
1
10
12.0956199817035
20
0.202904082084956
30
0
41
1
10
12.4004609464389
20
0.0304971956315683
30
0
41
1
10
12.7038701182968
20
-0.143385455750177
30
0
41
1
10
13.2324305788366
20
-0.440309796815626
30
0
41
1
10
13.4570724936228
20
-0.564768756726266
30
0
41
1
10
13.7961541554847
20
-0.74677953889227
30
0
41
1
10
13.9098238594906
20
-0.806815507255521
30
0
41
1
10
14.1362617008313
20
-0.923928849582666
30
1E-16
41
1
10
14.2490862272952
20
-0.981043809472368
30
1E-16
41
1
10
14.8119191529974
20
-1.25865648107015
30
1E-16
41
1
10
15.2578855234499
20
-1.45494987678566
30
1E-16
41
1
10
15.9312169878359
20
-1.69692093366319
30
1E-16
41
1
10
16.1563931614463
20
-1.76859299555889
30
1E-16
41
1
10
16.6102885549591
20
-1.89183585779568
30
0
41
1
10
16.8361269888369
20
-1.94265750378463
30
0
41
1
10
17.2865800006174
20
-2.02170164261844
30
0
41
1
10
17.5114395652531
20
-2.04991626328626
30
0
41
1
10
17.8938579836169
20
-2.07782096045983
30
0
41
1
10
18.0513147630504
20
-2.0835878475697
30
0
41
1
10
18.2091313631053
20
-2.08351217541795
30
0
0
SPLINE
5
E8
100
AcDbEntity
8
1
62
256
6
ByLayer
370
18
48
1
60
0
100
AcDbSpline
70
4
71
3
72
8
73
4
40
0
40
0
40
0
40
0
40
1
40
1
40
1
40
1
41
1
10
29.2432117465714
20
2.0960163139693
30
0
41
1
10
29.2254477574541
20
2.10881830155509
30
0
41
1
10
29.2123369576615
20
2.10983289022664
30
0
41
1
10
29.2023936592071
20
2.09983035785498
30
0
0
SPLINE
5
E9
100
AcDbEntity
8
1
62
256
6
ByLayer
370
18
48
1
60
0
100
AcDbSpline
70
4
71
3
72
8
73
4
40
0
40
0
40
0
40
0
40
1
40
1
40
1
40
1
41
1
10
7.55083330394601
20
2.12521502867023
30
0
41
1
10
7.52095001252482
20
2.12938464280683
30
0
41
1
10
7.5020441432689
20
2.13689056124005
30
0
41
1
10
7.50204414326856
20
2.14373323057583
30
0
0
SPLINE
5
EA
100
AcDbEntity
8
1
62
256
6
ByLayer
370
18
48
1
60
0
100
AcDbSpline
70
4
71
3
72
18
73
14
40
0
40
0
40
0
40
0
40
0.245175802755399
40
0.245175802755399
40
0.439977174267822
40
0.439977174267822
40
0.636901780655697
40
0.636901780655697
40
0.804332440817529
40
0.804332440817529
40
0.962730970557459
40
0.962730970557459
40
1
40
1
40
1
40
1
41
1
10
29.2110398688852
20
-2.07120753937014
30
0
41
1
10
29.2111513476402
20
-2.07138870784621
30
0
41
1
10
29.2112024985202
20
-2.0717620281977
30
0
41
1
10
29.211149315421
20
-2.07280836722336
30
0
41
1
10
29.2110732269985
20
-2.07341772826374
30
0
41
1
10
29.2108039118257
20
-2.07489375296649
30
0
41
1
10
29.2106038316089
20
-2.07578954421444
30
0
41
1
10
29.2101411702002
20
-2.07757706843751
30
0
41
1
10
29.2098860829017
20
-2.07847353872782
30
0
41
1
10
29.209354783255
20
-2.0802016335106
30
0
41
1
10
29.2090742446141
20
-2.08105500763455
30
0
41
1
10
29.2087259897992
20
-2.08205610635665
30
0
41
1
10
29.2086587975782
20
-2.08224667679707
30
0
41
1
10
29.2085915514149
20
-2.08243493810608
30
0
0
SPLINE
5
EB
100
AcDbEntity
8
1
62
256
6
ByLayer
370
18
48
1
60
0
100
AcDbSpline
70
4
71
3
72
30
73
26
40
0
40
0
40
0
40
0
40
0.0559752123428425
40
0.0559752123428425
40
0.168714796091996
40
0.168714796091996
40
0.225084587966571
40
0.225084587966571
40
0.281454379841146
40
0.281454379841146
40
0.394193963590296
40
0.394193963590296
40
0.450563755464873
40
0.450563755464873
40
0.506933547339449
40
0.506933547339449
40
0.732412714837758
40
0.732412714837758
40
0.845152298586914
40
0.845152298586914
40
0.901522090461492
40
0.901522090461492
40
0.957891882336069
40
0.957891882336069
40
1
40
1
40
1
40
1
41
1
10
11.3296114823351
20
2.08712707616104
30
0
41
1
10
11.4407384685437
20
2.08986980129561
30
0
41
1
10
11.5519771302944
20
2.08992857759412
30
0
41
1
10
11.8857735274979
20
2.08058996962478
30
0
41
1
10
12.1077334025174
20
2.06177684161452
30
0
41
1
10
12.439748443207
20
2.01791895394629
30
0
41
1
10
12.5502633072037
20
2.00067946361412
30
0
41
1
10
12.7710823635643
20
1.96115530065978
30
0
41
1
10
12.8814073817768
20
1.93885250015802
30
0
41
1
10
13.2132465596637
20
1.86293906276612
30
0
41
1
10
13.4355197678755
20
1.80062035361504
30
-1E-16
41
1
10
13.7704159073125
20
1.69309905553121
30
-1E-16
41
1
10
13.8825494640796
20
1.65477746876621
30
-1E-16
41
1
10
14.1061206415583
20
1.57395706484329
30
-1E-16
41
1
10
14.2174647257281
20
1.53151086742903
30
-1E-16
41
1
10
14.7731208151487
20
1.3089060537088
30
-1E-16
41
1
10
15.2138984426982
20
1.09898966687919
30
-1E-16
41
1
10
15.8782702641618
20
0.753861746235913
30
0
41
1
10
16.0999418391509
20
0.633356415858998
30
0
41
1
10
16.4355431342725
20
0.447410007864136
30
0
41
1
10
16.5477659522284
20
0.384750548614505
30
0
41
1
10
16.7712159456788
20
0.259078305560905
30
0
41
1
10
16.8826929776245
20
0.19592470886289
30
0
41
1
10
17.0770651335951
20
0.0851151119758811
30
0
41
1
10
17.1600373165392
20
0.0375465769846244
30
0
41
1
10
17.2429627116784
20
-0.010039607206096
30
0
0
SPLINE
5
EC
100
AcDbEntity
8
1
62
256
6
ByLayer
370
18
48
1
60
0
100
AcDbSpline
70
4
71
3
72
30
73
26
40
0
40
0
40
0
40
0
40
0.110735835857795
40
0.110735835857795
40
0.22147167171559
40
0.22147167171559
40
0.332207507573384
40
0.332207507573384
40
0.442943343431179
40
0.442943343431179
40
0.498311261360077
40
0.498311261360077
40
0.553679179288974
40
0.553679179288974
40
0.664415015146768
40
0.664415015146768
40
0.775150851004563
40
0.775150851004563
40
0.885886686862358
40
0.885886686862358
40
0.941254604791257
40
0.941254604791257
40
0.996622522720155
40
0.996622522720155
40
1
40
1
40
1
40
1
41
1
10
28.9673115661481
20
-0.149342767218002
30
0
41
1
10
28.74386896287
20
-0.0220758772321119
30
0
41
1
10
28.5200795777415
20
0.106254600574118
30
0
41
1
10
28.0757175185596
20
0.358047359028774
30
0
41
1
10
27.8545701374456
20
0.481959021931033
30
0
41
1
10
27.4130084152178
20
0.723016834789831
30
0
41
1
10
27.1927816135527
20
0.840102907692142
30
-1E-16
41
1
10
26.7506792748393
20
1.0643271862937
30
-1E-16
41
1
10
26.5288378829761
20
1.17159624301698
30
-1E-16
41
1
10
26.1939525550836
20
1.32294166465198
30
-1E-16
41
1
10
26.0819220971609
20
1.37176587893231
30
-1E-16
41
1
10
25.8594173092387
20
1.46468044847754
30
-1E-16
41
1
10
25.7485796248046
20
1.50897574780319
30
-1E-16
41
1
10
25.4165802935682
20
1.63543836174361
30
-1E-16
41
1
10
25.1960795707848
20
1.71105331440421
30
-1E-16
41
1
10
24.7558502666877
20
1.8425456177907
30
0
41
1
10
24.5362802885247
20
1.89787894529485
30
0
41
1
10
24.0951626331505
20
1.98921310297069
30
0
41
1
10
23.873866066936
20
2.02473380949493
30
0
41
1
10
23.5397963274262
20
2.06070099146311
30
0
41
1
10
23.427743152342
20
2.06974247154432
30
0
41
1
10
23.2048085258399
20
2.08124017142495
30
0
41
1
10
23.0937589558455
20
2.08405102809499
30
0
41
1
10
22.976014062385
20
2.084557906447
30
0
41
1
10
22.9692451172205
20
2.08457764197968
30
0
41
1
10
22.9624767947463
20
2.08458790850111
30
0
0
SPLINE
5
ED
100
AcDbEntity
8
1
62
256
6
ByLayer
370
18
48
1
60
0
100
AcDbSpline
70
4
71
3
72
14
73
10
40
0
40
0
40
0
40
0
40
0.262539498245265
40
0.262539498245265
40
0.543376985532882
40
0.543376985532882
40
0.826207948221991
40
0.826207948221991
40
1
40
1
40
1
40
1
41
1
10
28.9620387621376
20
-0.13555779038208
30
0
41
1
10
28.9627551590753
20
-0.135871603124997
30
0
41
1
10
28.9634532120635
20
-0.136566240853909
30
0
41
1
10
28.9647350816843
20
-0.138467384697577
30
0
41
1
10
28.9653323849416
20
-0.139739454138493
30
0
41
1
10
28.9663186622159
20
-0.142616228264615
30
0
41
1
10
28.9667213164778
20
-0.144267512021713
30
0
41
1
10
28.9671497172903
20
-0.147082208358654
30
0
41
1
10
28.9672632725644
20
-0.148209561249075
30
0
41
1
10
28.9673115661336
20
-0.149342767209731
30
0
0
SPLINE
5
EE
100
AcDbEntity
8
1
62
256
6
ByLayer
370
18
48
1
60
0
100
AcDbSpline
70
4
71
3
72
14
73
10
40
0
40
0
40
0
40
0
40
0.522959756716732
40
0.522959756716732
40
0.784439635075116
40
0.784439635075116
40
0.915179574254293
40
0.915179574254293
40
1
40
1
40
1
40
1
41
1
10
29.1136267422081
20
0.340757450714534
30
0
41
1
10
29.0526163654545
20
0.396092306778257
30
0
41
1
10
28.993098654733
20
0.448650699083146
30
0
41
1
10
28.9178931045095
20
0.508854520751896
30
0
41
1
10
28.8950198432157
20
0.525860734725143
30
0
41
1
10
28.8637284020752
20
0.547764727054869
30
0
41
1
10
28.8541874890839
20
0.553991394659164
30
0
41
1
10
28.8406963876132
20
0.561552039733613
30
0
41
1
10
28.8359139278929
20
0.563867495028717
30
0
41
1
10
28.8318296395888
20
0.56537230324335
30
0
0
SPLINE
5
EF
100
AcDbEntity
8
1
62
256
6
ByLayer
370
18
48
1
60
0
100
AcDbSpline
70
4
71
2
72
6
73
3
40
0
40
0
40
0
40
1
40
1
40
1
41
1
10
17.2258560380912
20
-0.0001755888844741
30
0
41
1
10
17.2258104402777
20
-0.000148721357931
30
0
41
1
10
17.2257648433989
20
-0.0001209679853673
30
0
0
SPLINE
5
F0
100
AcDbEntity
8
1
62
256
6
ByLayer
370
18
48
1
60
0
100
AcDbSpline
70
4
71
3
72
11
73
7
40
0
40
0
40
0
40
0
40
0.0129210031344929
40
0.238428384844587
40
0.567461209137309
40
1
40
1
40
1
40
1
41
1
10
28.8324260107114
20
0.565315886679258
30
0
41
1
10
28.821649913385
20
0.569273534662813
30
0
41
1
10
28.622837705482
20
0.642400630584007
30
0
41
1
10
28.1520589262943
20
0.82274948222917
30
-1E-16
41
1
10
27.3363267263126
20
1.14512702267456
30
-1E-16
41
1
10
26.7119441193763
20
1.40633119922495
30
-1E-16
41
1
10
26.3587731400026
20
1.55838772122559
30
-1E-16
0
SPLINE
5
F1
100
AcDbEntity
8
1
62
256
6
ByLayer
370
18
48
1
60
0
100
AcDbSpline
70
4
71
1
72
4
73
2
40
0
40
0
40
1
40
1
41
1
10
29.243541041846
20
2.09585605845996
30
0
41
1
10
29.215472310825
20
2.11477076896711
30
0
0
SPLINE
5
F2
100
AcDbEntity
8
1
62
256
6
ByLayer
370
18
48
1
60
0
100
AcDbSpline
70
4
71
1
72
4
73
2
40
0
40
0
40
1
40
1
41
1
10
29.215472310825
20
-2.11477076896711
30
0
41
1
10
29.243541041846
20
-2.09585605845999
30
0
0
SPLINE
5
F3
100
AcDbEntity
8
1
62
256
6
ByLayer
370
18
48
1
60
0
100
AcDbSpline
70
4
71
2
72
6
73
3
40
0
40
0
40
0
40
1
40
1
40
1
41
1
10
7.50204414326856
20
2.17653012367575
30
0
41
1
10
7.50204414326856
20
2.18225139736595
30
0
41
1
10
7.50204414326856
20
2.12368308092715
30
0
0
SPLINE
5
F4
100
AcDbEntity
8
1
62
256
6
ByLayer
370
18
48
1
60
0
100
AcDbSpline
70
4
71
3
72
10
73
6
40
0
40
0
40
0
40
0
40
0.466769298771728
40
0.926166532812749
40
1
40
1
40
1
40
1
41
1
10
7.50204414326856
20
-1.96849627831341
30
0
41
1
10
7.50204414326856
20
-2.03287089935614
30
0
41
1
10
7.50204414326856
20
-2.13082693232371
30
0
41
1
10
7.50204414326856
20
-2.17382589283821
30
0
41
1
10
7.50204414326856
20
-2.17654433179044
30
0
41
1
10
7.50204414326856
20
-2.1765272267331
30
0
0
SPLINE
5
F5
100
AcDbEntity
8
1
62
256
6
ByLayer
370
18
48
1
60
0
100
AcDbSpline
70
4
71
3
72
19
73
15
40
0
40
0
40
0
40
0
40
6.7069894201E-05
40
0.0001521533293152
40
0.0007383401880707
40
0.003251719701307
40
0.0138129632090673
40
0.0562805779234318
40
0.107268541290554
40
0.27252919545296
40
0.431744166870798
40
0.573734494194739
40
0.75819304737365
40
1
40
1
40
1
40
1
41
1
10
19.052074879324
20
-0.0411781397561128
30
0
41
1
10
19.0520518909581
20
-0.041170474577001
30
0
41
1
10
19.0519490445302
20
-0.0411362267323625
30
0
41
1
10
19.0512101340623
20
-0.0408903851086393
30
0
41
1
10
19.0469573340435
20
-0.0394771257655293
30
0
41
1
10
19.0285892930743
20
-0.0333812456574663
30
0
41
1
10
18.9519555423192
20
-0.0079443602653839
30
0
41
1
10
18.8088894839366
20
0.0399203377337756
30
0
41
1
10
18.4526865250054
20
0.16083839653399
30
0
41
1
10
17.9376155580251
20
0.341330777505817
30
0
41
1
10
17.3006021197361
20
0.574674684208929
30
0
41
1
10
16.6405143899278
20
0.826146187390009
30
-1E-16
41
1
10
15.8721964324409
20
1.13065179656439
30
-1E-16
41
1
10
15.3000760459143
20
1.36977398475912
30
-1E-16
41
1
10
14.9768606213048
20
1.50880205846895
30
-1E-16
0
SPLINE
5
F6
100
AcDbEntity
8
1
62
256
6
ByLayer
370
18
48
1
60
0
100
AcDbSpline
70
4
71
3
72
15
73
11
40
0
40
0
40
0
40
0
40
0.257788671963508
40
0.427703451466872
40
0.550869698729098
40
0.63770656378006
40
0.819222630698426
40
0.87928408219758
40
0.969908648495715
40
1
40
1
40
1
40
1
41
1
10
18.1842195320379
20
-2.08351343084971
30
0
41
1
10
18.5071062980701
20
-2.08389919828773
30
0
41
1
10
19.042820287422
20
-2.08436309587424
30
0
41
1
10
19.7328287516421
20
-2.08339068361795
30
0
41
1
10
20.2086941732275
20
-2.08396194677889
30
0
41
1
10
20.6990912278804
20
-2.085041009246
30
0
41
1
10
21.1104452587945
20
-2.08471351852603
30
0
41
1
10
21.5265554328338
20
-2.08382300379449
30
0
41
1
10
21.7529773108943
20
-2.08393093727315
30
0
41
1
10
21.9041796302879
20
-2.08447154721807
30
0
41
1
10
21.9418707013309
20
-2.08462075751723
30
0
0
SPLINE
5
F7
100
AcDbEntity
8
1
62
256
6
ByLayer
370
18
48
1
60
0
100
AcDbSpline
70
4
71
3
72
14
73
10
40
0
40
0
40
0
40
0
40
0.226469643031976
40
0.37257253311193
40
0.512535762337401
40
0.620394269226791
40
0.720118611903171
40
0.869765706122871
40
1
40
1
40
1
40
1
41
1
10
11.4723504678751
20
2.07917881154577
30
0
41
1
10
11.1979452897786
20
2.07931816864973
30
0
41
1
10
10.7465130230434
20
2.07927103160498
30
0
41
1
10
10.12551324466
20
2.0780765688888
30
0
41
1
10
9.64819686421697
20
2.07754796765477
30
0
41
1
10
9.22708187832461
20
2.07828169520471
30
0
41
1
10
8.79421212842774
20
2.07755856175882
30
0
41
1
10
8.33434473297999
20
2.0771566875022
30
0
41
1
10
7.99522184732939
20
2.07682763148844
30
0
41
1
10
7.83741430492128
20
2.0766821436616
30
0
0
SPLINE
5
F8
100
AcDbEntity
8
1
62
256
6
ByLayer
370
18
48
1
60
0
100
AcDbSpline
70
4
71
3
72
15
73
11
40
0
40
0
40
0
40
0
40
0.173093792965481
40
0.304935944234284
40
0.3955514743197
40
0.455606937066869
40
0.637104904943681
40
0.723933111455173
40
0.84708707776031
40
1
40
1
40
1
40
1
41
1
10
22.9747291205848
20
2.08458390946473
30
0
41
1
10
22.7579146998923
20
2.08581203545259
30
0
41
1
10
22.3759505753595
20
2.08705765411668
30
0
41
1
10
21.8804356543398
20
2.08399169563495
30
0
41
1
10
21.5265554328339
20
2.08382300379449
30
0
41
1
10
21.1104452587944
20
2.08471351852603
30
0
41
1
10
20.6990912278804
20
2.085041009246
30
0
41
1
10
20.2086941732275
20
2.08396194677889
30
0
41
1
10
19.754105295601
20
2.08341622551532
30
0
41
1
10
19.4082754146404
20
2.08385128703523
30
0
41
1
10
19.2167228199091
20
2.08397809127936
30
0
0
SPLINE
5
F9
100
AcDbEntity
8
1
62
256
6
ByLayer
370
18
48
1
60
0
100
AcDbSpline
70
4
71
3
72
8
73
4
40
0
40
0
40
0
40
0
40
1
40
1
40
1
40
1
41
1
10
18.2061505165693
20
2.08353946562153
30
0
41
1
10
18.1988401869066
20
2.08353084438752
30
0
41
1
10
18.191529858745
20
2.083522164828
30
0
41
1
10
18.1842195320379
20
2.08351343084971
30
0
0
SPLINE
5
FA
100
AcDbEntity
8
1
62
256
6
ByLayer
370
18
48
1
60
0
100
AcDbSpline
70
4
71
3
72
15
73
11
40
0
40
0
40
0
40
0
40
0.187905999666888
40
0.331573856367495
40
0.450778974197055
40
0.573247158711104
40
0.64965021163563
40
0.720032218312819
40
0.808669700855069
40
1
40
1
40
1
40
1
41
1
10
7.60221036420779
20
-2.0765012965006
30
0
41
1
10
7.77795426045532
20
-2.07683365192773
30
0
41
1
10
8.08803964508337
20
-2.07733366687822
30
0
41
1
10
8.50948308577358
20
-2.07690299721654
30
0
41
1
10
8.86978937379399
20
-2.07780677428838
30
0
41
1
10
9.16725444241843
20
-2.07814354289477
30
0
41
1
10
9.41904913919743
20
-2.07798305978909
30
0
41
1
10
9.63921010258463
20
-2.07773721654519
30
0
41
1
10
9.96683492167497
20
-2.07746828881659
30
0
41
1
10
10.2286386697727
20
-2.07829158183563
30
0
41
1
10
10.4075567803758
20
-2.07872555321512
30
0
0
LINE
5
84
100
AcDbEntity
8
SK1
62
256
6
ByLayer
370
18
48
1
60
0
100
AcDbLine
10
0
20
3
30
0
11
0
21
-3
31
0
39
0
210
0
220
0
230
1
0
LINE
5
86
100
AcDbEntity
8
SK1
62
256
6
ByLayer
370
18
48
1
60
0
100
AcDbLine
10
-35.065
20
-3
30
0
11
-35.065
21
3
31
0
39
0
210
0
220
0
230
1
0
LINE
5
87
100
AcDbEntity
8
SK1
62
256
6
ByLayer
370
18
48
1
60
0
100
AcDbLine
10
-36
20
-2.065
30
0
11
-36
21
2.065
31
0
39
0
210
0
220
0
230
1
0
LINE
5
88
100
AcDbEntity
8
1
62
256
6
ByLayer
370
18
48
1
60
0
100
AcDbLine
10
0.697765
20
2.591311
30
0
11
0.697765
21
0
31
0
39
0
210
0
220
0
230
1
0
LINE
5
89
100
AcDbEntity
8
1
62
256
6
ByLayer
370
18
48
1
60
0
100
AcDbLine
10
0.697765
20
0
30
0
11
0.697765
21
-2.591311
31
0
39
0
210
0
220
0
230
1
0
LINE
5
8A
100
AcDbEntity
8
1
62
256
6
ByLayer
370
18
48
1
60
0
100
AcDbLine
10
7.502044
20
2.186438
30
0
11
7.502044
21
2.143733
31
0
39
0
210
0
220
0
230
1
0
LINE
5
8B
100
AcDbEntity
8
1
62
256
6
ByLayer
370
18
48
1
60
0
100
AcDbLine
10
14.8
20
-1.552613
30
0
11
14.8
21
-1.58158
31
0
39
0
210
0
220
0
230
1
0
LINE
5
8C
100
AcDbEntity
8
1
62
256
6
ByLayer
370
18
48
1
60
0
100
AcDbLine
10
29.960467
20
0.034149
30
0
11
29.447027
21
0.600897
31
0
39
0
210
0
220
0
230
1
0
LINE
5
8D
100
AcDbEntity
8
1
62
256
6
ByLayer
370
18
48
1
60
0
100
AcDbLine
10
0
20
3
30
0
11
0
21
0
31
0
39
0
210
0
220
0
230
1
0
LINE
5
8E
100
AcDbEntity
8
1
62
256
6
ByLayer
370
18
48
1
60
0
100
AcDbLine
10
0
20
0
30
0
11
0
21
-3
31
0
39
0
210
0
220
0
230
1
0
LINE
5
8F
100
AcDbEntity
8
1
62
256
6
ByLayer
370
18
48
1
60
0
100
AcDbLine
10
1.39603
20
2.182622
30
0
11
1.39603
21
0
31
0
39
0
210
0
220
0
230
1
0
LINE
5
90
100
AcDbEntity
8
1
62
256
6
ByLayer
370
18
48
1
60
0
100
AcDbLine
10
1.39603
20
0
30
0
11
1.39603
21
-2.182622
31
0
39
0
210
0
220
0
230
1
0
LINE
5
91
100
AcDbEntity
8
1
62
256
6
ByLayer
370
18
48
1
60
0
100
AcDbLine
10
7.502044
20
-1.895692
30
0
11
7.502044
21
-1.172803
31
0
39
0
210
0
220
0
230
1
0
LINE
5
92
100
AcDbEntity
8
1
62
256
6
ByLayer
370
18
48
1
60
0
100
AcDbLine
10
28.576853
20
0.085305
30
0
11
28.576784
21
0.087011
31
0
39
0
210
0
220
0
230
1
0
LINE
5
93
100
AcDbEntity
8
1
62
256
6
ByLayer
370
18
48
1
60
0
100
AcDbLine
10
1.39603
20
-2.182622
30
0
11
7.502044
21
-2.186438
31
0
39
0
210
0
220
0
230
1
0
LINE
5
94
100
AcDbEntity
8
1
62
256
6
ByLayer
370
18
48
1
60
0
100
AcDbLine
10
11.475055
20
-2.188921
30
0
11
12.005882
21
-2.189253
31
0
39
0
210
0
220
0
230
1
0
LINE
5
95
100
AcDbEntity
8
1
62
256
6
ByLayer
370
18
48
1
60
0
100
AcDbLine
10
17.667677
20
-2.192791
30
0
11
18.182437
21
-2.193113
31
0
39
0
210
0
220
0
230
1
0
LINE
5
96
100
AcDbEntity
8
1
62
256
6
ByLayer
370
18
48
1
60
0
100
AcDbLine
10
22.974796
20
-2.196108
30
0
11
23.496296
21
-2.196434
31
0
39
0
210
0
220
0
230
1
0
LINE
5
97
100
AcDbEntity
8
1
62
256
6
ByLayer
370
18
48
1
60
0
100
AcDbLine
10
23.496296
20
2.196434
30
0
11
22.974796
21
2.196108
31
0
39
0
210
0
220
0
230
1
0
LINE
5
98
100
AcDbEntity
8
1
62
256
6
ByLayer
370
18
48
1
60
0
100
AcDbLine
10
18.182437
20
2.193113
30
0
11
17.667677
21
2.192791
31
0
39
0
210
0
220
0
230
1
0
LINE
5
99
100
AcDbEntity
8
1
62
256
6
ByLayer
370
18
48
1
60
0
100
AcDbLine
10
12.005882
20
2.189253
30
0
11
11.475055
21
2.188921
31
0
39
0
210
0
220
0
230
1
0
LINE
5
9A
100
AcDbEntity
8
1
62
256
6
ByLayer
370
18
48
1
60
0
100
AcDbLine
10
7.502044
20
2.186438
30
0
11
1.39603
21
2.182622
31
0
39
0
210
0
220
0
230
1
0
LINE
5
9B
100
AcDbEntity
8
SK1
62
256
6
ByLayer
370
18
48
1
60
0
100
AcDbLine
10
-36
20
-2.065
30
0
11
-35.065
21
-3
31
0
39
0
210
0
220
0
230
1
0
LINE
5
9C
100
AcDbEntity
8
SK1
62
256
6
ByLayer
370
18
48
1
60
0
100
AcDbLine
10
-35.065
20
3
30
0
11
-36
21
2.065
31
0
39
0
210
0
220
0
230
1
0
LINE
5
9D
100
AcDbEntity
8
SK1
62
256
6
ByLayer
370
18
48
1
60
0
100
AcDbLine
10
-35.065
20
-3
30
0
11
0
21
-3
31
0
39
0
210
0
220
0
230
1
0
LINE
5
9E
100
AcDbEntity
8
SK1
62
256
6
ByLayer
370
18
48
1
60
0
100
AcDbLine
10
0
20
3
30
0
11
-35.065
21
3
31
0
39
0
210
0
220
0
230
1
0
LINE
5
9F
100
AcDbEntity
8
SK4
62
256
6
ByLayer
370
18
48
0.05
60
0
100
AcDbLine
10
35
20
0
30
0
11
-41
21
0
31
0
39
0
210
0
220
0
230
1
0
LINE
5
A1
100
AcDbEntity
8
4
62
256
6
ByLayer
370
18
48
0.05
60
0
100
AcDbLine
10
-36
20
0
30
0
11
35
21
0
31
0
39
0
210
0
220
0
230
1
0
LINE
5
A3
100
AcDbEntity
8
80
62
256
6
ByLayer
370
18
48
1
60
0
100
AcDbLine
10
0
20
0
30
0
11
-6
21
0
31
0
39
0
210
0
220
0
230
1
0
LINE
5
A4
100
AcDbEntity
8
81
62
256
6
ByLayer
370
18
48
1
60
0
100
AcDbLine
10
30
20
0
30
0
11
36
21
0
31
0
39
0
210
0
220
0
230
1
0
LINE
5
A5
100
AcDbEntity
8
SK2
62
256
6
ByLayer
370
13
48
1
60
0
100
AcDbLine
10
30.542936
20
1.49177
30
0
11
37.926015
21
21.777486
31
0
39
0
210
0
220
0
230
1
0
LINE
5
A7
100
AcDbEntity
8
SK2
62
256
6
ByLayer
370
13
48
1
60
0
100
AcDbLine
10
30.542936
20
-1.49177
30
0
11
37.926015
21
-21.777486
31
0
39
0
210
0
220
0
230
1
0
LINE
5
A8
100
AcDbEntity
8
1
62
256
6
ByLayer
370
13
48
1
60
0
100
AcDbLine
10
36.840143
20
18.793947
30
0
11
39.936744
21
17.977618
31
0
39
0
210
0
220
0
230
1
0
LINE
5
A9
100
AcDbEntity
8
1
62
256
6
ByLayer
370
13
48
1
60
0
100
AcDbLine
10
36.840143
20
18.793947
30
0
11
39.619951
21
17.203973
31
0
39
0
210
0
220
0
230
1
0
LINE
5
AA
100
AcDbEntity
8
1
62
256
6
ByLayer
370
13
48
1
60
0
100
AcDbLine
10
39.936744
20
17.977618
30
0
11
39.619951
21
17.203973
31
0
39
0
210
0
220
0
230
1
0
LINE
5
AB
100
AcDbEntity
8
1
62
256
6
ByLayer
370
13
48
1
60
0
100
AcDbLine
10
36.840143
20
-18.793947
30
0
11
39.619949
21
-17.203974
31
0
39
0
210
0
220
0
230
1
0
LINE
5
AC
100
AcDbEntity
8
1
62
256
6
ByLayer
370
13
48
1
60
0
100
AcDbLine
10
36.840143
20
-18.793947
30
0
11
39.936747
21
-17.977617
31
0
39
0
210
0
220
0
230
1
0
LINE
5
AD
100
AcDbEntity
8
1
62
256
6
ByLayer
370
13
48
1
60
0
100
AcDbLine
10
39.619949
20
-17.203974
30
0
11
39.936747
21
-17.977617
31
0
39
0
210
0
220
0
230
1
0
MTEXT
5
FB
100
AcDbEntity
8
SK2
62
256
6
ByLayer
370
18
48
1
60
0
100
AcDbMText
10
43.717388
20
-2.467451
30
0
210
0
220
0
230
1
1
\W0.7237;140.00
40
3.50012
41
0
44
1.084337
50
0
71
7
72
5
7
iso_b_vert
0
MTEXT
5
FE
100
AcDbEntity
8
SK6
62
256
6
ByLayer
370
18
48
1
60
0
100
AcDbMText
10
-42.331725
20
-80.233478
30
0
210
0
220
0
230
1
1
\W0.7587;860.1-0440-014A0-GM X1BM
40
3.175
41
0
44
1.084337
50
0
71
7
72
5
7
iso_b_vert
0
DIMENSION
5
101
100
AcDbEntity
8
SK2
62
256
6
ByLayer
370
18
48
1
60
0
100
AcDbDimension
2
_U0
10
30
20
-26.50012
30
0
11
15
21
-26.50012
31
0
70
32
71
2
72
1
41
1
210
0
220
0
230
1
3
Standard
100
AcDbAlignedDimension
13
0
23
-3
33
0
14
30
24
0
34
0
50
0
100
AcDbRotatedDimension
1001
ACAD
1000
DSTYLE
1002
{
1070
   371
1070
    13
1070
   372
1070
    13
1070
     3
1000

1070
   170
1070
     0
1070
   144
1040
1.0
1070
   277
1070
     2
1070
   284
1070
     8
1070
   278
1070
    46
1070
   146
1040
0.999966
1070
   345
1005
16
1070
   347
1005
16
1070
   346
1005
16
1070
   344
1005
102
1070
   343
1005
102
1070
   172
1070
     1
1070
    76
1070
     0
1070
    75
1070
     0
1070
   282
1070
     0
1070
   281
1070
     0
1070
    71
1070
     0
1070
    74
1070
     0
1070
   279
1070
     0
1070
   173
1070
     1
1070
   340
1005
FC
1070
   271
1070
     1
1070
   272
1070
     2
1070
    77
1070
     1
1070
    73
1070
     1
1070
   171
1070
     3
1070
   274
1070
     4
1070
   177
1070
   150
1070
   176
1070
     9
1070
   178
1070
    43
1070
    78
1070
     8
1070
    48
1040
-0.1
1070
    41
1040
3.175
1070
   147
1040
1.75006
1070
    42
1040
1.5875
1070
    44
1040
3.175
1070
   140
1040
3.50012
1002
}
1001
ACAD_DSTYLE_DIM_LINETYPE
1070
   380
1005
16
1001
ACAD_DSTYLE_DIM_EXT1_LINETYPE
1070
   381
1005
16
1001
ACAD_DSTYLE_DIM_EXT2_LINETYPE
1070
   382
1005
16
0
DIMENSION
5
127
100
AcDbEntity
8
2
62
256
6
ByLayer
370
18
48
1
60
0
100
AcDbDimension
2
_U1
10
36.75006
20
2.2
30
0
11
36.75006
21
17.856569
31
0
70
32
71
1
72
1
41
1
210
0
220
0
230
1
3
Standard
100
AcDbAlignedDimension
13
29.1993
23
-2.2
33
0
14
29.1993
24
2.2
34
0
50
90
100
AcDbRotatedDimension
1001
ACAD
1000
DSTYLE
1002
{
1070
   371
1070
    13
1070
   372
1070
    13
1070
     3
1000

1070
   170
1070
     0
1070
   144
1040
1.0
1070
   277
1070
     2
1070
   284
1070
     8
1070
   278
1070
    46
1070
   146
1040
0.999966
1070
   345
1005
16
1070
   347
1005
16
1070
   346
1005
16
1070
   344
1005
102
1070
   343
1005
102
1070
   172
1070
     1
1070
    76
1070
     0
1070
    75
1070
     0
1070
   282
1070
     0
1070
   281
1070
     0
1070
    71
1070
     0
1070
    74
1070
     0
1070
   279
1070
     0
1070
   173
1070
     1
1070
   340
1005
FC
1070
   271
1070
     1
1070
   272
1070
     2
1070
    77
1070
     1
1070
    73
1070
     0
1070
   171
1070
     3
1070
   274
1070
     4
1070
   177
1070
   150
1070
   176
1070
     9
1070
   178
1070
    43
1070
    78
1070
     8
1070
    48
1040
-0.1
1070
    41
1040
3.175
1070
   147
1040
1.75006
1070
    42
1040
1.5875
1070
    44
1040
3.175
1070
   140
1040
3.50012
1002
}
1001
ACAD_DSTYLE_DIM_LINETYPE
1070
   380
1005
16
1001
ACAD_DSTYLE_DIM_EXT1_LINETYPE
1070
   381
1005
16
1001
ACAD_DSTYLE_DIM_EXT2_LINETYPE
1070
   382
1005
16
0
DIMENSION
5
146
100
AcDbEntity
8
SK2
62
256
6
ByLayer
370
18
48
1
60
0
100
AcDbDimension
2
_U2
10
-39.24994
20
-3
30
0
11
-39.24994
21
17.10734
31
0
70
32
71
1
72
1
41
1
210
0
220
0
230
1
3
Standard
100
AcDbAlignedDimension
13
-36
23
3
33
0
14
-36
24
-3
34
0
50
90
100
AcDbRotatedDimension
1001
ACAD
1000
DSTYLE
1002
{
1070
   371
1070
    13
1070
   372
1070
    13
1070
     3
1000

1070
   170
1070
     0
1070
   144
1040
1.0
1070
   277
1070
     2
1070
   284
1070
     8
1070
   278
1070
    46
1070
   146
1040
0.999966
1070
   345
1005
16
1070
   347
1005
16
1070
   346
1005
16
1070
   344
1005
102
1070
   343
1005
102
1070
   172
1070
     1
1070
    76
1070
     0
1070
    75
1070
     0
1070
   282
1070
     0
1070
   281
1070
     0
1070
    71
1070
     0
1070
    74
1070
     0
1070
   279
1070
     0
1070
   173
1070
     1
1070
   340
1005
FC
1070
   271
1070
     1
1070
   272
1070
     2
1070
    77
1070
     1
1070
    73
1070
     0
1070
   171
1070
     3
1070
   274
1070
     4
1070
   177
1070
   150
1070
   176
1070
     9
1070
   178
1070
    43
1070
    78
1070
     8
1070
    48
1040
-0.1
1070
    41
1040
3.175
1070
   147
1040
1.75006
1070
    42
1040
1.5875
1070
    44
1040
3.175
1070
   140
1040
3.50012
1002
}
1001
ACAD_DSTYLE_DIM_LINETYPE
1070
   380
1005
16
1001
ACAD_DSTYLE_DIM_EXT1_LINETYPE
1070
   381
1005
16
1001
ACAD_DSTYLE_DIM_EXT2_LINETYPE
1070
   382
1005
16
0
DIMENSION
5
164
100
AcDbEntity
8
SK2
62
256
6
ByLayer
370
18
48
1
60
0
100
AcDbDimension
2
_U3
10
0
20
-26.50012
30
0
11
-18
21
-26.50012
31
0
70
32
71
1
72
1
41
1
210
0
220
0
230
1
3
Standard
100
AcDbAlignedDimension
13
-36
23
-3
33
0
14
0
24
-3
34
0
50
0
100
AcDbRotatedDimension
1001
ACAD
1000
DSTYLE
1002
{
1070
   371
1070
    13
1070
   372
1070
    13
1070
     3
1000

1070
   170
1070
     0
1070
   144
1040
1.0
1070
   277
1070
     2
1070
   284
1070
     8
1070
   278
1070
    46
1070
   146
1040
0.999966
1070
   345
1005
16
1070
   347
1005
16
1070
   346
1005
16
1070
   344
1005
102
1070
   343
1005
102
1070
   172
1070
     1
1070
    76
1070
     0
1070
    75
1070
     0
1070
   282
1070
     0
1070
   281
1070
     0
1070
    71
1070
     0
1070
    74
1070
     0
1070
   279
1070
     0
1070
   173
1070
     1
1070
   340
1005
FC
1070
   271
1070
     1
1070
   272
1070
     2
1070
    77
1070
     1
1070
    73
1070
     1
1070
   171
1070
     3
1070
   274
1070
     4
1070
   177
1070
   150
1070
   176
1070
     9
1070
   178
1070
    43
1070
    78
1070
     8
1070
    48
1040
-0.1
1070
    41
1040
3.175
1070
   147
1040
1.75006
1070
    42
1040
1.5875
1070
    44
1040
3.175
1070
   140
1040
3.50012
1002
}
1001
ACAD_DSTYLE_DIM_LINETYPE
1070
   380
1005
16
1001
ACAD_DSTYLE_DIM_EXT1_LINETYPE
1070
   381
1005
16
1001
ACAD_DSTYLE_DIM_EXT2_LINETYPE
1070
   382
1005
16
0
DIMENSION
5
180
100
AcDbEntity
8
SK2
62
256
6
ByLayer
370
18
48
1
60
0
100
AcDbDimension
2
_U4
10
30
20
-17.74982
30
0
11
18
21
-17.74982
31
0
70
32
71
1
72
1
41
1
210
0
220
0
230
1
3
Standard
100
AcDbAlignedDimension
13
6
23
2.7
33
0
14
30
24
0
34
0
50
0
100
AcDbRotatedDimension
1001
ACAD
1000
DSTYLE
1002
{
1070
   371
1070
    13
1070
   372
1070
    13
1070
     3
1000

1070
   170
1070
     0
1070
   144
1040
1.0
1070
   277
1070
     2
1070
   284
1070
     8
1070
   278
1070
    46
1070
   146
1040
0.999966
1070
   345
1005
16
1070
   347
1005
16
1070
   346
1005
16
1070
   344
1005
102
1070
   343
1005
102
1070
   172
1070
     1
1070
    76
1070
     0
1070
    75
1070
     0
1070
   282
1070
     0
1070
   281
1070
     0
1070
    71
1070
     0
1070
    74
1070
     0
1070
   279
1070
     0
1070
   173
1070
     1
1070
   340
1005
FC
1070
   271
1070
     1
1070
   272
1070
     2
1070
    77
1070
     1
1070
    73
1070
     1
1070
   171
1070
     3
1070
   274
1070
     4
1070
   177
1070
   150
1070
   176
1070
     9
1070
   178
1070
    43
1070
    78
1070
     8
1070
    48
1040
-0.1
1070
    41
1040
3.175
1070
   147
1040
1.75006
1070
    42
1040
1.5875
1070
    44
1040
3.175
1070
   140
1040
3.50012
1002
}
1001
ACAD_DSTYLE_DIM_LINETYPE
1070
   380
1005
16
1001
ACAD_DSTYLE_DIM_EXT1_LINETYPE
1070
   381
1005
16
1001
ACAD_DSTYLE_DIM_EXT2_LINETYPE
1070
   382
1005
16
0
DIMENSION
5
19C
100
AcDbEntity
8
SK2
62
256
6
ByLayer
370
18
48
1
60
0
100
AcDbDimension
2
_U5
10
30
20
-9.82
30
0
11
23
21
-9.82
31
0
70
32
71
1
72
1
41
1
210
0
220
0
230
1
3
Standard
100
AcDbAlignedDimension
13
16
23
-2.2
33
0
14
30
24
0
34
0
50
0
100
AcDbRotatedDimension
1001
ACAD
1000
DSTYLE
1002
{
1070
   371
1070
    13
1070
   372
1070
    13
1070
     3
1000

1070
   170
1070
     0
1070
   144
1040
1.0
1070
   277
1070
     2
1070
   284
1070
     8
1070
   278
1070
    46
1070
   146
1040
1.25
1070
   345
1005
16
1070
   347
1005
16
1070
   346
1005
16
1070
   344
1005
102
1070
   343
1005
102
1070
   172
1070
     1
1070
    76
1070
     0
1070
    75
1070
     0
1070
   282
1070
     0
1070
   281
1070
     0
1070
    71
1070
     0
1070
    74
1070
     0
1070
   279
1070
     0
1070
   173
1070
     1
1070
   340
1005
FC
1070
   271
1070
     1
1070
   272
1070
     2
1070
    77
1070
     1
1070
    73
1070
     1
1070
   171
1070
     3
1070
   274
1070
     4
1070
   177
1070
   150
1070
   176
1070
     9
1070
   178
1070
    43
1070
    78
1070
     8
1070
    48
1040
-0.1
1070
    41
1040
3.175
1070
   147
1040
0.42
1070
    42
1040
1.5875
1070
    44
1040
0.5
1070
   140
1040
2.8
1002
}
1001
ACAD_DSTYLE_DIM_LINETYPE
1070
   380
1005
16
1001
ACAD_DSTYLE_DIM_EXT1_LINETYPE
1070
   381
1005
16
1001
ACAD_DSTYLE_DIM_EXT2_LINETYPE
1070
   382
1005
16
0
DIMENSION
5
1B9
100
AcDbEntity
8
SK2
62
256
6
ByLayer
370
18
48
1
60
0
100
AcDbDimension
2
_U6
10
30
20
-36.50012
30
0
11
-3
21
-36.50012
31
0
70
32
71
1
72
1
41
1
210
0
220
0
230
1
3
Standard
100
AcDbAlignedDimension
13
-36
23
0
33
0
14
30
24
0
34
0
50
0
100
AcDbRotatedDimension
1001
ACAD
1000
DSTYLE
1002
{
1070
   371
1070
    13
1070
   372
1070
    13
1070
     3
1000

1070
   170
1070
     0
1070
   144
1040
1.0
1070
   277
1070
     2
1070
   284
1070
     8
1070
   278
1070
    46
1070
   146
1040
0.999966
1070
   345
1005
16
1070
   347
1005
16
1070
   346
1005
16
1070
   344
1005
102
1070
   343
1005
102
1070
   172
1070
     1
1070
    76
1070
     0
1070
    75
1070
     0
1070
   282
1070
     0
1070
   281
1070
     0
1070
    71
1070
     0
1070
    74
1070
     0
1070
   279
1070
     0
1070
   173
1070
     1
1070
   340
1005
FC
1070
   271
1070
     1
1070
   272
1070
     2
1070
    77
1070
     1
1070
    73
1070
     1
1070
   171
1070
     3
1070
   274
1070
     4
1070
   177
1070
   150
1070
   176
1070
     9
1070
   178
1070
    43
1070
    78
1070
     8
1070
    48
1040
-0.1
1070
    41
1040
3.175
1070
   147
1040
1.75006
1070
    42
1040
1.5875
1070
    44
1040
3.175
1070
   140
1040
3.50012
1002
}
1001
ACAD_DSTYLE_DIM_LINETYPE
1070
   380
1005
16
1001
ACAD_DSTYLE_DIM_EXT1_LINETYPE
1070
   381
1005
16
1001
ACAD_DSTYLE_DIM_EXT2_LINETYPE
1070
   382
1005
16
0
ENDSEC
0
SECTION
2
OBJECTS
0
DICTIONARY
5
245
330
0
100
AcDbDictionary
280
0
281
1
3
ACAD_GROUP
350
246
3
ACAD_MLINESTYLE
350
247
0
DICTIONARY
5
246
330
0
100
AcDbDictionary
280
0
281
1
0
DICTIONARY
5
247
330
0
100
AcDbDictionary
280
0
281
1
3
Standard
350
18
0
MLINESTYLE
5
18
330
247
100
AcDbMlineStyle
2
Standard
70
0
3

62
256
51
90
52
90
71
2
49
-0.5
62
256
6
ByLayer
49
0.5
62
256
6
ByLayer
0
RASTERVARIABLES
5
233
330

100
AcDbRasterVariables
90
0
70
1
71
1
72
1
0
ENDSEC
0
EOF
