0
SECTION
2
HEADER
9
$ACADVER
1
AC1015
9
$DWGCODEPAGE
3
ANSI_1252
9
$HANDSEED
5
256
9
$ANGBASE
50
0
9
$ANGDIR
70
0
9
$ATTMODE
70
1
9
$AUNITS
70
0
9
$AUPREC
70
0
9
$CECOLOR
62
256
9
$CELTSCALE
40
1
9
$CELTYPE
6
ByLayer
9
$CELWEIGHT
370
18
9
$CLAYER
8
0
9
$CMLJUST
70
0
9
$CMLSCALE
40
1
9
$CMLSTYLE
2
Standard
9
$DIMSTYLE
2
Standard
9
$TEXTSIZE
40
0.2
9
$TEXTSTYLE
7
Standard
9
$LUNITS
70
2
9
$LUPREC
70
4
9
$EXTNAMES
290
1
9
$INSUNITS
70
4
9
$LTSCALE
40
1
9
$LWDISPLAY
290
1
9
$PDMODE
70
0
9
$PDSIZE
40
0
9
$PLINEGEN
70
0
0
ENDSEC
0
SECTION
2
CLASSES
0
CLASS
1
RASTERVARIABLES
2
AcDbRasterVariables
3
ISM
90
0
280
0
281
0
0
ENDSEC
0
SECTION
2
TABLES
0
TABLE
2
VPORT
5
24c
100
AcDbSymbolTable
0
VPORT
5
1
100
AcDbSymbolTableRecord
100
AcDbViewportTableRecord
2
*Active
70
0
10
0
20
0
11
1
21
1
12
-1
22
1
13
0
23
0
14
0.5
24
0.5
15
10
25
10
16
0
26
0
36
1
17
0
27
0
37
0
0
ENDTAB
0
TABLE
2
LTYPE
5
24d
100
AcDbSymbolTable
0
LTYPE
5
14
100
AcDbSymbolTableRecord
100
AcDbLinetypeTableRecord
70
0
2
ByBlock
3

72
65
73
0
40
0
0
LTYPE
5
15
100
AcDbSymbolTableRecord
100
AcDbLinetypeTableRecord
70
0
2
ByLayer
3

72
65
73
0
40
0
0
LTYPE
5
16
100
AcDbSymbolTableRecord
100
AcDbLinetypeTableRecord
70
0
2
Continuous
3
Solid line
72
65
73
0
40
0
0
LTYPE
5
6E
100
AcDbSymbolTableRecord
100
AcDbLinetypeTableRecord
70
0
2
CENTER
3
____ _ ____ _ ____ _ ____
72
65
73
4
40
47.5
49
22
74
0
49
-8.5
74
0
49
8.5
74
0
49
-8.5
74
0
0
LTYPE
5
6F
100
AcDbSymbolTableRecord
100
AcDbLinetypeTableRecord
70
0
2
DASHED
3
__ __ __ __ __ __ __ __ __
72
65
73
2
40
25.72
49
12.86
74
0
49
-12.86
74
0
0
ENDTAB
0
TABLE
2
LAYER
5
24e
100
AcDbSymbolTable
0
LAYER
5
10
100
AcDbSymbolTableRecord
100
AcDbLayerTableRecord
2
0
70
0
62
7
6
Continuous
290
1
370
-3
390
0
0
LAYER
5
71
100
AcDbSymbolTableRecord
100
AcDbLayerTableRecord
2
80
70
0
62
-6
6
Continuous
290
1
370
-3
390
0
0
LAYER
5
73
100
AcDbSymbolTableRecord
100
AcDbLayerTableRecord
2
81
70
0
62
-3
6
Continuous
290
1
370
-3
390
0
0
LAYER
5
75
100
AcDbSymbolTableRecord
100
AcDbLayerTableRecord
2
1
70
0
62
4
6
Continuous
290
1
370
-3
390
0
0
LAYER
5
A3
100
AcDbSymbolTableRecord
100
AcDbLayerTableRecord
2
4
70
0
62
-2
6
CENTER
290
1
370
-3
390
0
0
LAYER
5
110
100
AcDbSymbolTableRecord
100
AcDbLayerTableRecord
2
Defpoints
70
0
62
7
6
Continuous
290
0
370
-3
390
0
0
LAYER
5
13D
100
AcDbSymbolTableRecord
100
AcDbLayerTableRecord
2
2
70
0
62
7
6
Continuous
290
1
370
-3
390
0
0
LAYER
5
238
100
AcDbSymbolTableRecord
100
AcDbLayerTableRecord
2
SK1
70
0
62
4
6
Continuous
290
1
370
-3
390
0
0
LAYER
5
239
100
AcDbSymbolTableRecord
100
AcDbLayerTableRecord
2
SK4
70
0
62
2
6
CENTER
290
1
370
-3
390
0
0
LAYER
5
23a
100
AcDbSymbolTableRecord
100
AcDbLayerTableRecord
2
SK2
70
0
62
7
6
Continuous
290
1
370
-3
390
0
0
LAYER
5
23b
100
AcDbSymbolTableRecord
100
AcDbLayerTableRecord
2
SK6
70
0
62
5
6
Continuous
290
1
370
-3
390
0
0
ENDTAB
0
TABLE
2
STYLE
5
24f
100
AcDbSymbolTable
0
STYLE
5
11
100
AcDbSymbolTableRecord
100
AcDbTextStyleTableRecord
2
Standard
3
txt
70
0
71
0
40
0
41
1
42
0
50
0
0
STYLE
5
101
100
AcDbSymbolTableRecord
100
AcDbTextStyleTableRecord
2
iso_b_vert
3
simplex.shx
70
0
71
0
40
0
41
1
42
0
50
0
0
STYLE
5
102
100
AcDbSymbolTableRecord
100
AcDbTextStyleTableRecord
2
DWGDirectTextStyle
3
simplex
70
0
71
0
40
0
41
1
42
0
50
0
0
ENDTAB
0
TABLE
2
DIMSTYLE
5
250
100
AcDbSymbolTable
100
AcDbDimStyleTable
0
DIMSTYLE
105
27
100
AcDbSymbolTableRecord
100
AcDbDimStyleTableRecord
2
Standard
70
0
3
<>
41
0.18
42
0.0625
44
0.18
140
0.18
147
0.09
73
0
74
0
77
1
271
2
275
0
278
52
280
0
340
11
0
ENDTAB
0
TABLE
2
VIEW
5
251
100
AcDbSymbolTable
0
ENDTAB
0
TABLE
2
UCS
5
252
100
AcDbSymbolTable
0
ENDTAB
0
TABLE
2
APPID
5
253
100
AcDbSymbolTable
0
APPID
5
12
100
AcDbSymbolTableRecord
100
AcDbRegAppTableRecord
2
ACAD
70
0
0
APPID
5
105
100
AcDbSymbolTableRecord
100
AcDbRegAppTableRecord
2
ACAD_DSTYLE_DIMBREAK
70
0
0
APPID
5
1F7
100
AcDbSymbolTableRecord
100
AcDbRegAppTableRecord
2
ACAD_DSTYLE_DIM_LINETYPE
70
0
0
APPID
5
1F8
100
AcDbSymbolTableRecord
100
AcDbRegAppTableRecord
2
ACAD_DSTYLE_DIM_EXT1_LINETYPE
70
0
0
APPID
5
1F9
100
AcDbSymbolTableRecord
100
AcDbRegAppTableRecord
2
ACAD_DSTYLE_DIM_EXT2_LINETYPE
70
0
0
APPID
5
234
100
AcDbSymbolTableRecord
100
AcDbRegAppTableRecord
2
ACAD_MLEADERVER
70
0
0
ENDTAB
0
TABLE
2
BLOCK_RECORD
5
254
100
AcDbSymbolTable
0
BLOCK_RECORD
5
1F
100
AcDbSymbolTableRecord
100
AcDbBlockTableRecord
2
*Model_Space
340
0
70
0
0
BLOCK_RECORD
5
1B
100
AcDbSymbolTableRecord
100
AcDbBlockTableRecord
2
*Paper_Space
340
0
70
0
0
BLOCK_RECORD
5
23
100
AcDbSymbolTableRecord
100
AcDbBlockTableRecord
2
*Paper_Space0
340
0
70
0
0
BLOCK_RECORD
5
107
100
AcDbSymbolTableRecord
100
AcDbBlockTableRecord
2
_Closed
340
0
70
0
0
BLOCK_RECORD
5
111
100
AcDbSymbolTableRecord
100
AcDbBlockTableRecord
2
*D2
340
0
70
0
0
BLOCK_RECORD
5
11D
100
AcDbSymbolTableRecord
100
AcDbBlockTableRecord
2
_U0
340
0
70
0
0
BLOCK_RECORD
5
12F
100
AcDbSymbolTableRecord
100
AcDbBlockTableRecord
2
*D4
340
0
70
0
0
BLOCK_RECORD
5
13E
100
AcDbSymbolTableRecord
100
AcDbBlockTableRecord
2
_U1
340
0
70
0
0
BLOCK_RECORD
5
14E
100
AcDbSymbolTableRecord
100
AcDbBlockTableRecord
2
*D6
340
0
70
0
0
BLOCK_RECORD
5
15C
100
AcDbSymbolTableRecord
100
AcDbBlockTableRecord
2
_U2
340
0
70
0
0
BLOCK_RECORD
5
16C
100
AcDbSymbolTableRecord
100
AcDbBlockTableRecord
2
*D8
340
0
70
0
0
BLOCK_RECORD
5
178
100
AcDbSymbolTableRecord
100
AcDbBlockTableRecord
2
_U3
340
0
70
0
0
BLOCK_RECORD
5
188
100
AcDbSymbolTableRecord
100
AcDbBlockTableRecord
2
*D10
340
0
70
0
0
BLOCK_RECORD
5
194
100
AcDbSymbolTableRecord
100
AcDbBlockTableRecord
2
_U4
340
0
70
0
0
BLOCK_RECORD
5
1A4
100
AcDbSymbolTableRecord
100
AcDbBlockTableRecord
2
*D12
340
0
70
0
0
BLOCK_RECORD
5
1B0
100
AcDbSymbolTableRecord
100
AcDbBlockTableRecord
2
_U5
340
0
70
0
0
BLOCK_RECORD
5
1C0
100
AcDbSymbolTableRecord
100
AcDbBlockTableRecord
2
*D14
340
0
70
0
0
BLOCK_RECORD
5
1CC
100
AcDbSymbolTableRecord
100
AcDbBlockTableRecord
2
_U6
340
0
70
0
0
ENDTAB
0
ENDSEC
0
SECTION
2
BLOCKS
0
BLOCK
5
20
100
AcDbEntity
8
0
100
AcDbBlockBegin
2
*Model_Space
70
0
10
0
20
0
30
0
3
*Model_Space
0
ENDBLK
5
21
100
AcDbEntity
8
0
100
AcDbBlockEnd
0
BLOCK
5
1C
100
AcDbEntity
8
0
100
AcDbBlockBegin
2
*Paper_Space
70
0
10
0
20
0
30
0
3
*Paper_Space
0
ENDBLK
5
1D
100
AcDbEntity
8
0
100
AcDbBlockEnd
0
BLOCK
5
24
100
AcDbEntity
8
0
100
AcDbBlockBegin
2
*Paper_Space0
70
0
10
0
20
0
30
0
3
*Paper_Space0
0
ENDBLK
5
25
100
AcDbEntity
8
0
100
AcDbBlockEnd
0
BLOCK
5
108
100
AcDbEntity
8
0
100
AcDbBlockBegin
2
_Closed
70
0
10
0
20
0
30
0
3
_Closed
0
LINE
5
10A
100
AcDbEntity
8
0
62
256
6
ByLayer
370
-2
48
1
60
0
100
AcDbLine
10
-1
20
0.166667
30
0
11
0
21
0
31
0
39
0
210
0
220
0
230
1
0
LINE
5
10B
100
AcDbEntity
8
0
62
256
6
ByLayer
370
-2
48
1
60
0
100
AcDbLine
10
0
20
0
30
0
11
-1
21
-0.166667
31
0
39
0
210
0
220
0
230
1
0
LINE
5
10C
100
AcDbEntity
8
0
62
256
6
ByLayer
370
-2
48
1
60
0
100
AcDbLine
10
-1
20
0.166667
30
0
11
-1
21
-0.166667
31
0
39
0
210
0
220
0
230
1
0
LINE
5
10D
100
AcDbEntity
8
0
62
256
6
ByLayer
370
-2
48
1
60
0
100
AcDbLine
10
0
20
0
30
0
11
-1
21
0
31
0
39
0
210
0
220
0
230
1
0
ENDBLK
5
109
100
AcDbEntity
8
0
100
AcDbBlockEnd
0
BLOCK
5
112
100
AcDbEntity
8
0
100
AcDbBlockBegin
2
*D2
70
1
10
0
20
0
30
0
3
*D2
0
LINE
5
114
100
AcDbEntity
8
0
62
256
6
ByLayer
370
-2
48
1
60
0
100
AcDbLine
10
0
20
-8.5875
30
0
11
0
21
-33.67512
31
0
39
0
210
0
220
0
230
1
0
LINE
5
115
100
AcDbEntity
8
0
62
256
6
ByLayer
370
-2
48
1
60
0
100
AcDbLine
10
62
20
-1.5875
30
0
11
62
21
-33.67512
31
0
39
0
210
0
220
0
230
1
0
LINE
5
116
100
AcDbEntity
8
0
62
256
6
ByLayer
370
-2
48
1
60
0
100
AcDbLine
10
3.175
20
-30.50012
30
0
11
58.825
21
-30.50012
31
0
39
0
210
0
220
0
230
1
0
SOLID
5
117
100
AcDbEntity
8
0
62
256
6
ByLayer
370
-1
48
1
60
0
100
AcDbTrace
10
3.175
20
-29.970953
30
0
11
3.175
21
-31.029287
31
0
12
0
22
-30.50012
32
0
13
0
23
-30.50012
33
0
39
0
210
0
220
0
230
1
0
SOLID
5
118
100
AcDbEntity
8
0
62
256
6
ByLayer
370
-1
48
1
60
0
100
AcDbTrace
10
58.825
20
-31.029287
30
0
11
58.825
21
-29.970953
31
0
12
62
22
-30.50012
32
0
13
62
23
-30.50012
33
0
39
0
210
0
220
0
230
1
0
MTEXT
5
119
100
AcDbEntity
8
0
62
256
6
ByLayer
370
18
48
1
60
0
100
AcDbMText
10
31
20
-23.193619
30
0
210
0
220
0
230
1
1
\A1;62
40
3.50012
41
0
44
1
50
0
71
5
72
5
7
iso_b_vert
0
POINT
5
11A
100
AcDbEntity
8
Defpoints
62
0
6
ByLayer
370
-1
48
1
60
0
100
AcDbPoint
10
0
20
-7
30
0
39
0
210
0
220
0
230
1
50
360
0
POINT
5
11B
100
AcDbEntity
8
Defpoints
62
0
6
ByLayer
370
-1
48
1
60
0
100
AcDbPoint
10
62
20
0
30
0
39
0
210
0
220
0
230
1
50
360
0
POINT
5
11C
100
AcDbEntity
8
Defpoints
62
0
6
ByLayer
370
-1
48
1
60
0
100
AcDbPoint
10
62
20
-30.50012
30
0
39
0
210
0
220
0
230
1
50
360
0
ENDBLK
5
113
100
AcDbEntity
8
0
100
AcDbBlockEnd
0
BLOCK
5
12A
100
AcDbEntity
8
0
100
AcDbBlockBegin
2
_U0
70
0
10
0
20
0
30
0
3
_U0
0
MTEXT
5
11E
100
AcDbEntity
8
SK2
62
256
6
ByLayer
370
18
48
1
60
0
100
AcDbMText
10
25.770389
20
-29.467451
30
0
210
0
220
0
230
1
1
\W0.7468;62.00
40
3.50012
41
0
44
1.084337
50
0
71
7
72
5
7
iso_b_vert
0
MTEXT
5
11F
100
AcDbEntity
8
SK2
62
256
6
ByLayer
370
18
48
1
60
0
100
AcDbMText
10
22.244329
20
-29.400814
30
0
210
0
220
0
230
1
1
\W0.1790;(
40
3.175
41
0
44
1.084337
50
0
71
7
72
5
7
iso_b_vert
0
MTEXT
5
120
100
AcDbEntity
8
SK2
62
256
6
ByLayer
370
18
48
1
60
0
100
AcDbMText
10
39.758393
20
-29.400814
30
0
210
0
220
0
230
1
1
\W0.1969;)
40
3.175
41
0
44
1.084337
50
0
71
7
72
5
7
iso_b_vert
0
LINE
5
121
100
AcDbEntity
8
SK2
62
256
6
ByLayer
370
13
48
1
60
0
100
AcDbLine
10
0
20
-8.5875
30
0
11
0
21
-33.67512
31
0
39
0
210
0
220
0
230
1
0
LINE
5
122
100
AcDbEntity
8
SK2
62
256
6
ByLayer
370
13
48
1
60
0
100
AcDbLine
10
62
20
-1.5875
30
0
11
62
21
-33.67512
31
0
39
0
210
0
220
0
230
1
0
LINE
5
123
100
AcDbEntity
8
SK2
62
256
6
ByLayer
370
13
48
1
60
0
100
AcDbLine
10
0
20
-30.50012
30
0
11
62
21
-30.50012
31
0
39
0
210
0
220
0
230
1
0
LINE
5
124
100
AcDbEntity
8
SK2
62
256
6
ByLayer
370
13
48
1
60
0
100
AcDbLine
10
0
20
-30.50012
30
0
11
3.174998
21
-30.082123
31
0
39
0
210
0
220
0
230
1
0
LINE
5
125
100
AcDbEntity
8
SK2
62
256
6
ByLayer
370
13
48
1
60
0
100
AcDbLine
10
0
20
-30.50012
30
0
11
3.175002
21
-30.918117
31
0
39
0
210
0
220
0
230
1
0
LINE
5
126
100
AcDbEntity
8
SK2
62
256
6
ByLayer
370
13
48
1
60
0
100
AcDbLine
10
3.174998
20
-30.082123
30
0
11
3.175002
21
-30.918117
31
0
39
0
210
0
220
0
230
1
0
LINE
5
127
100
AcDbEntity
8
SK2
62
256
6
ByLayer
370
13
48
1
60
0
100
AcDbLine
10
62
20
-30.50012
30
0
11
58.825002
21
-30.918117
31
0
39
0
210
0
220
0
230
1
0
LINE
5
128
100
AcDbEntity
8
SK2
62
256
6
ByLayer
370
13
48
1
60
0
100
AcDbLine
10
62
20
-30.50012
30
0
11
58.824998
21
-30.082123
31
0
39
0
210
0
220
0
230
1
0
LINE
5
129
100
AcDbEntity
8
SK2
62
256
6
ByLayer
370
13
48
1
60
0
100
AcDbLine
10
58.825002
20
-30.918117
30
0
11
58.824998
21
-30.082123
31
0
39
0
210
0
220
0
230
1
0
ENDBLK
5
12B
100
AcDbEntity
8
0
100
AcDbBlockEnd
0
BLOCK
5
130
100
AcDbEntity
8
0
100
AcDbBlockBegin
2
*D4
70
1
10
0
20
0
30
0
3
*D4
0
LINE
5
132
100
AcDbEntity
8
0
62
256
6
ByLayer
370
-2
48
1
60
0
100
AcDbLine
10
61.1307
20
-6.75
30
0
11
71.92506
21
-6.75
31
0
39
0
210
0
220
0
230
1
0
LINE
5
133
100
AcDbEntity
8
0
62
256
6
ByLayer
370
-2
48
1
60
0
100
AcDbLine
10
61.1307
20
6.75
30
0
11
71.92506
21
6.75
31
0
39
0
210
0
220
0
230
1
0
LINE
5
134
100
AcDbEntity
8
0
62
256
6
ByLayer
370
-2
48
1
60
0
100
AcDbLine
10
68.75006
20
6.75
30
0
11
68.75006
21
34.379896
31
0
39
0
210
0
220
0
230
1
0
LINE
5
135
100
AcDbEntity
8
0
62
256
6
ByLayer
370
-2
48
1
60
0
100
AcDbLine
10
68.75006
20
-9.925
30
0
11
68.75006
21
-13.1
31
0
39
0
210
0
220
0
230
1
0
LINE
5
136
100
AcDbEntity
8
0
62
256
6
ByLayer
370
-2
48
1
60
0
100
AcDbLine
10
68.75006
20
9.925
30
0
11
68.75006
21
13.1
31
0
39
0
210
0
220
0
230
1
0
SOLID
5
137
100
AcDbEntity
8
0
62
256
6
ByLayer
370
-1
48
1
60
0
100
AcDbTrace
10
69.279227
20
-9.925
30
0
11
68.220893
21
-9.925
31
0
12
68.75006
22
-6.75
32
0
13
68.75006
23
-6.75
33
0
39
0
210
0
220
0
230
1
0
SOLID
5
138
100
AcDbEntity
8
0
62
256
6
ByLayer
370
-1
48
1
60
0
100
AcDbTrace
10
68.220893
20
9.925
30
0
11
69.279227
21
9.925
31
0
12
68.75006
22
6.75
32
0
13
68.75006
23
6.75
33
0
39
0
210
0
220
0
230
1
0
MTEXT
5
139
100
AcDbEntity
8
0
62
256
6
ByLayer
370
18
48
1
60
0
100
AcDbMText
10
61.44356
20
23.739948
30
0
210
0
220
0
230
1
1
\A1;13.5
40
3.50012
41
0
44
1
50
90
71
5
72
5
7
iso_b_vert
0
POINT
5
13A
100
AcDbEntity
8
Defpoints
62
0
6
ByLayer
370
-1
48
1
60
0
100
AcDbPoint
10
59.5432
20
-6.75
30
0
39
0
210
0
220
0
230
1
50
360
0
POINT
5
13B
100
AcDbEntity
8
Defpoints
62
0
6
ByLayer
370
-1
48
1
60
0
100
AcDbPoint
10
59.5432
20
6.75
30
0
39
0
210
0
220
0
230
1
50
360
0
POINT
5
13C
100
AcDbEntity
8
Defpoints
62
0
6
ByLayer
370
-1
48
1
60
0
100
AcDbPoint
10
68.75006
20
6.75
30
0
39
0
210
0
220
0
230
1
50
360
0
ENDBLK
5
131
100
AcDbEntity
8
0
100
AcDbBlockEnd
0
BLOCK
5
149
100
AcDbEntity
8
0
100
AcDbBlockBegin
2
_U1
70
0
10
0
20
0
30
0
3
_U1
0
MTEXT
5
13F
100
AcDbEntity
8
2
62
256
6
ByLayer
370
18
48
1
60
0
100
AcDbMText
10
68.060403
20
10.907505
30
0
210
0
220
0
230
1
1
\W0.6864;13.50
40
3.50012
41
0
44
1.084337
50
90
71
7
72
5
7
iso_b_vert
0
LINE
5
140
100
AcDbEntity
8
2
62
256
6
ByLayer
370
13
48
1
60
0
100
AcDbLine
10
61.1307
20
-6.75
30
0
11
71.92506
21
-6.75
31
0
39
0
210
0
220
0
230
1
0
LINE
5
141
100
AcDbEntity
8
2
62
256
6
ByLayer
370
13
48
1
60
0
100
AcDbLine
10
61.1307
20
6.75
30
0
11
71.92506
21
6.75
31
0
39
0
210
0
220
0
230
1
0
LINE
5
142
100
AcDbEntity
8
2
62
256
6
ByLayer
370
13
48
1
60
0
100
AcDbLine
10
68.75006
20
-6.75
30
0
11
68.75006
21
20.705339
31
0
39
0
210
0
220
0
230
1
0
LINE
5
143
100
AcDbEntity
8
2
62
256
6
ByLayer
370
13
48
1
60
0
100
AcDbLine
10
68.75006
20
-6.75
30
0
11
68.332063
21
-3.575002
31
0
39
0
210
0
220
0
230
1
0
LINE
5
144
100
AcDbEntity
8
2
62
256
6
ByLayer
370
13
48
1
60
0
100
AcDbLine
10
68.75006
20
-6.75
30
0
11
69.168057
21
-3.574998
31
0
39
0
210
0
220
0
230
1
0
LINE
5
145
100
AcDbEntity
8
2
62
256
6
ByLayer
370
13
48
1
60
0
100
AcDbLine
10
68.332063
20
-3.575002
30
0
11
69.168057
21
-3.574998
31
0
39
0
210
0
220
0
230
1
0
LINE
5
146
100
AcDbEntity
8
2
62
256
6
ByLayer
370
13
48
1
60
0
100
AcDbLine
10
68.75006
20
6.75
30
0
11
69.168057
21
3.575002
31
0
39
0
210
0
220
0
230
1
0
LINE
5
147
100
AcDbEntity
8
2
62
256
6
ByLayer
370
13
48
1
60
0
100
AcDbLine
10
68.75006
20
6.75
30
0
11
68.332063
21
3.574998
31
0
39
0
210
0
220
0
230
1
0
LINE
5
148
100
AcDbEntity
8
2
62
256
6
ByLayer
370
13
48
1
60
0
100
AcDbLine
10
69.168057
20
3.575002
30
0
11
68.332063
21
3.574998
31
0
39
0
210
0
220
0
230
1
0
ENDBLK
5
14A
100
AcDbEntity
8
0
100
AcDbBlockEnd
0
BLOCK
5
14F
100
AcDbEntity
8
0
100
AcDbBlockBegin
2
*D6
70
1
10
0
20
0
30
0
3
*D6
0
LINE
5
151
100
AcDbEntity
8
0
62
256
6
ByLayer
370
-2
48
1
60
0
100
AcDbLine
10
-46.5875
20
7
30
0
11
-51.42494
21
7
31
0
39
0
210
0
220
0
230
1
0
LINE
5
152
100
AcDbEntity
8
0
62
256
6
ByLayer
370
-2
48
1
60
0
100
AcDbLine
10
-46.5875
20
-7
30
0
11
-51.42494
21
-7
31
0
39
0
210
0
220
0
230
1
0
LINE
5
153
100
AcDbEntity
8
0
62
256
6
ByLayer
370
-2
48
1
60
0
100
AcDbLine
10
-48.24994
20
7
30
0
11
-48.24994
21
30.385141
31
0
39
0
210
0
220
0
230
1
0
LINE
5
154
100
AcDbEntity
8
0
62
256
6
ByLayer
370
-2
48
1
60
0
100
AcDbLine
10
-48.24994
20
10.175
30
0
11
-48.24994
21
13.35
31
0
39
0
210
0
220
0
230
1
0
LINE
5
155
100
AcDbEntity
8
0
62
256
6
ByLayer
370
-2
48
1
60
0
100
AcDbLine
10
-48.24994
20
-10.175
30
0
11
-48.24994
21
-13.35
31
0
39
0
210
0
220
0
230
1
0
SOLID
5
156
100
AcDbEntity
8
0
62
256
6
ByLayer
370
-1
48
1
60
0
100
AcDbTrace
10
-48.779107
20
10.175
30
0
11
-47.720773
21
10.175
31
0
12
-48.24994
22
7
32
0
13
-48.24994
23
7
33
0
39
0
210
0
220
0
230
1
0
SOLID
5
157
100
AcDbEntity
8
0
62
256
6
ByLayer
370
-1
48
1
60
0
100
AcDbTrace
10
-47.720773
20
-10.175
30
0
11
-48.779107
21
-10.175
31
0
12
-48.24994
22
-7
32
0
13
-48.24994
23
-7
33
0
39
0
210
0
220
0
230
1
0
MTEXT
5
158
100
AcDbEntity
8
0
62
256
6
ByLayer
370
18
48
1
60
0
100
AcDbMText
10
-55.556441
20
22.161943
30
0
210
0
220
0
230
1
1
\A1;14
40
3.50012
41
0
44
1
50
90
71
5
72
5
7
iso_b_vert
0
POINT
5
159
100
AcDbEntity
8
Defpoints
62
0
6
ByLayer
370
-1
48
1
60
0
100
AcDbPoint
10
-45
20
7
30
0
39
0
210
0
220
0
230
1
50
360
0
POINT
5
15A
100
AcDbEntity
8
Defpoints
62
0
6
ByLayer
370
-1
48
1
60
0
100
AcDbPoint
10
-45
20
-7
30
0
39
0
210
0
220
0
230
1
50
360
0
POINT
5
15B
100
AcDbEntity
8
Defpoints
62
0
6
ByLayer
370
-1
48
1
60
0
100
AcDbPoint
10
-48.24994
20
-7
30
0
39
0
210
0
220
0
230
1
50
360
0
ENDBLK
5
150
100
AcDbEntity
8
0
100
AcDbBlockEnd
0
BLOCK
5
167
100
AcDbEntity
8
0
100
AcDbBlockBegin
2
_U2
70
0
10
0
20
0
30
0
3
_U2
0
MTEXT
5
15D
100
AcDbEntity
8
SK2
62
256
6
ByLayer
370
18
48
1
60
0
100
AcDbMText
10
-48.939597
20
17.157505
30
0
210
0
220
0
230
1
1
\W0.7091;14.00
40
3.50012
41
0
44
1.084337
50
90
71
7
72
5
7
iso_b_vert
0
LINE
5
15E
100
AcDbEntity
8
SK2
62
256
6
ByLayer
370
13
48
1
60
0
100
AcDbLine
10
-46.5875
20
7
30
0
11
-51.42494
21
7
31
0
39
0
210
0
220
0
230
1
0
LINE
5
15F
100
AcDbEntity
8
SK2
62
256
6
ByLayer
370
13
48
1
60
0
100
AcDbLine
10
-46.5875
20
-7
30
0
11
-51.42494
21
-7
31
0
39
0
210
0
220
0
230
1
0
LINE
5
160
100
AcDbEntity
8
SK2
62
256
6
ByLayer
370
13
48
1
60
0
100
AcDbLine
10
-48.24994
20
-7
30
0
11
-48.24994
21
27.323885
31
0
39
0
210
0
220
0
230
1
0
LINE
5
161
100
AcDbEntity
8
SK2
62
256
6
ByLayer
370
13
48
1
60
0
100
AcDbLine
10
-48.24994
20
7
30
0
11
-47.831943
21
3.825002
31
0
39
0
210
0
220
0
230
1
0
LINE
5
162
100
AcDbEntity
8
SK2
62
256
6
ByLayer
370
13
48
1
60
0
100
AcDbLine
10
-48.24994
20
7
30
0
11
-48.667937
21
3.824998
31
0
39
0
210
0
220
0
230
1
0
LINE
5
163
100
AcDbEntity
8
SK2
62
256
6
ByLayer
370
13
48
1
60
0
100
AcDbLine
10
-47.831943
20
3.825002
30
0
11
-48.667937
21
3.824998
31
0
39
0
210
0
220
0
230
1
0
LINE
5
164
100
AcDbEntity
8
SK2
62
256
6
ByLayer
370
13
48
1
60
0
100
AcDbLine
10
-48.24994
20
-7
30
0
11
-48.667937
21
-3.825002
31
0
39
0
210
0
220
0
230
1
0
LINE
5
165
100
AcDbEntity
8
SK2
62
256
6
ByLayer
370
13
48
1
60
0
100
AcDbLine
10
-48.24994
20
-7
30
0
11
-47.831943
21
-3.824998
31
0
39
0
210
0
220
0
230
1
0
LINE
5
166
100
AcDbEntity
8
SK2
62
256
6
ByLayer
370
13
48
1
60
0
100
AcDbLine
10
-48.667937
20
-3.825002
30
0
11
-47.831943
21
-3.824998
31
0
39
0
210
0
220
0
230
1
0
ENDBLK
5
168
100
AcDbEntity
8
0
100
AcDbBlockEnd
0
BLOCK
5
16D
100
AcDbEntity
8
0
100
AcDbBlockBegin
2
*D8
70
1
10
0
20
0
30
0
3
*D8
0
LINE
5
16F
100
AcDbEntity
8
0
62
256
6
ByLayer
370
-2
48
1
60
0
100
AcDbLine
10
-45
20
-8.5875
30
0
11
-45
21
-33.67512
31
0
39
0
210
0
220
0
230
1
0
LINE
5
170
100
AcDbEntity
8
0
62
256
6
ByLayer
370
-2
48
1
60
0
100
AcDbLine
10
0
20
-8.5875
30
0
11
0
21
-33.67512
31
0
39
0
210
0
220
0
230
1
0
LINE
5
171
100
AcDbEntity
8
0
62
256
6
ByLayer
370
-2
48
1
60
0
100
AcDbLine
10
-41.825
20
-30.50012
30
0
11
-3.175
21
-30.50012
31
0
39
0
210
0
220
0
230
1
0
SOLID
5
172
100
AcDbEntity
8
0
62
256
6
ByLayer
370
-1
48
1
60
0
100
AcDbTrace
10
-41.825
20
-29.970953
30
0
11
-41.825
21
-31.029287
31
0
12
-45
22
-30.50012
32
0
13
-45
23
-30.50012
33
0
39
0
210
0
220
0
230
1
0
SOLID
5
173
100
AcDbEntity
8
0
62
256
6
ByLayer
370
-1
48
1
60
0
100
AcDbTrace
10
-3.175
20
-31.029287
30
0
11
-3.175
21
-29.970953
31
0
12
0
22
-30.50012
32
0
13
0
23
-30.50012
33
0
39
0
210
0
220
0
230
1
0
MTEXT
5
174
100
AcDbEntity
8
0
62
256
6
ByLayer
370
18
48
1
60
0
100
AcDbMText
10
-22.5
20
-23.193619
30
0
210
0
220
0
230
1
1
\A1;45
40
3.50012
41
0
44
1
50
0
71
5
72
5
7
iso_b_vert
0
POINT
5
175
100
AcDbEntity
8
Defpoints
62
0
6
ByLayer
370
-1
48
1
60
0
100
AcDbPoint
10
-45
20
-7
30
0
39
0
210
0
220
0
230
1
50
360
0
POINT
5
176
100
AcDbEntity
8
Defpoints
62
0
6
ByLayer
370
-1
48
1
60
0
100
AcDbPoint
10
0
20
-7
30
0
39
0
210
0
220
0
230
1
50
360
0
POINT
5
177
100
AcDbEntity
8
Defpoints
62
0
6
ByLayer
370
-1
48
1
60
0
100
AcDbPoint
10
0
20
-30.50012
30
0
39
0
210
0
220
0
230
1
50
360
0
ENDBLK
5
16E
100
AcDbEntity
8
0
100
AcDbBlockEnd
0
BLOCK
5
183
100
AcDbEntity
8
0
100
AcDbBlockBegin
2
_U3
70
0
10
0
20
0
30
0
3
_U3
0
MTEXT
5
179
100
AcDbEntity
8
SK2
62
256
6
ByLayer
370
18
48
1
60
0
100
AcDbMText
10
-27.913884
20
-29.467451
30
0
210
0
220
0
230
1
1
\W0.7694;45.00
40
3.50012
41
0
44
1.084337
50
0
71
7
72
5
7
iso_b_vert
0
LINE
5
17A
100
AcDbEntity
8
SK2
62
256
6
ByLayer
370
13
48
1
60
0
100
AcDbLine
10
-45
20
-8.5875
30
0
11
-45
21
-33.67512
31
0
39
0
210
0
220
0
230
1
0
LINE
5
17B
100
AcDbEntity
8
SK2
62
256
6
ByLayer
370
13
48
1
60
0
100
AcDbLine
10
0
20
-8.5875
30
0
11
0
21
-33.67512
31
0
39
0
210
0
220
0
230
1
0
LINE
5
17C
100
AcDbEntity
8
SK2
62
256
6
ByLayer
370
13
48
1
60
0
100
AcDbLine
10
-45
20
-30.50012
30
0
11
0
21
-30.50012
31
0
39
0
210
0
220
0
230
1
0
LINE
5
17D
100
AcDbEntity
8
SK2
62
256
6
ByLayer
370
13
48
1
60
0
100
AcDbLine
10
-45
20
-30.50012
30
0
11
-41.825002
21
-30.082123
31
0
39
0
210
0
220
0
230
1
0
LINE
5
17E
100
AcDbEntity
8
SK2
62
256
6
ByLayer
370
13
48
1
60
0
100
AcDbLine
10
-45
20
-30.50012
30
0
11
-41.824998
21
-30.918117
31
0
39
0
210
0
220
0
230
1
0
LINE
5
17F
100
AcDbEntity
8
SK2
62
256
6
ByLayer
370
13
48
1
60
0
100
AcDbLine
10
-41.825002
20
-30.082123
30
0
11
-41.824998
21
-30.918117
31
0
39
0
210
0
220
0
230
1
0
LINE
5
180
100
AcDbEntity
8
SK2
62
256
6
ByLayer
370
13
48
1
60
0
100
AcDbLine
10
0
20
-30.50012
30
0
11
-3.174998
21
-30.918117
31
0
39
0
210
0
220
0
230
1
0
LINE
5
181
100
AcDbEntity
8
SK2
62
256
6
ByLayer
370
13
48
1
60
0
100
AcDbLine
10
0
20
-30.50012
30
0
11
-3.175002
21
-30.082123
31
0
39
0
210
0
220
0
230
1
0
LINE
5
182
100
AcDbEntity
8
SK2
62
256
6
ByLayer
370
13
48
1
60
0
100
AcDbLine
10
-3.174998
20
-30.918117
30
0
11
-3.175002
21
-30.082123
31
0
39
0
210
0
220
0
230
1
0
ENDBLK
5
184
100
AcDbEntity
8
0
100
AcDbBlockEnd
0
BLOCK
5
189
100
AcDbEntity
8
0
100
AcDbBlockBegin
2
*D10
70
1
10
0
20
0
30
0
3
*D10
0
LINE
5
18B
100
AcDbEntity
8
0
62
256
6
ByLayer
370
-2
48
1
60
0
100
AcDbLine
10
2
20
5.6625
30
0
11
2
21
-24.92482
31
0
39
0
210
0
220
0
230
1
0
LINE
5
18C
100
AcDbEntity
8
0
62
256
6
ByLayer
370
-2
48
1
60
0
100
AcDbLine
10
62
20
-1.5875
30
0
11
62
21
-24.92482
31
0
39
0
210
0
220
0
230
1
0
LINE
5
18D
100
AcDbEntity
8
0
62
256
6
ByLayer
370
-2
48
1
60
0
100
AcDbLine
10
5.175
20
-21.74982
30
0
11
58.825
21
-21.74982
31
0
39
0
210
0
220
0
230
1
0
SOLID
5
18E
100
AcDbEntity
8
0
62
256
6
ByLayer
370
-1
48
1
60
0
100
AcDbTrace
10
5.175
20
-21.220653
30
0
11
5.175
21
-22.278987
31
0
12
2
22
-21.74982
32
0
13
2
23
-21.74982
33
0
39
0
210
0
220
0
230
1
0
SOLID
5
18F
100
AcDbEntity
8
0
62
256
6
ByLayer
370
-1
48
1
60
0
100
AcDbTrace
10
58.825
20
-22.278987
30
0
11
58.825
21
-21.220653
31
0
12
62
22
-21.74982
32
0
13
62
23
-21.74982
33
0
39
0
210
0
220
0
230
1
0
MTEXT
5
190
100
AcDbEntity
8
0
62
256
6
ByLayer
370
18
48
1
60
0
100
AcDbMText
10
32
20
-14.44332
30
0
210
0
220
0
230
1
1
\A1;60
40
3.50012
41
0
44
1
50
0
71
5
72
5
7
iso_b_vert
0
POINT
5
191
100
AcDbEntity
8
Defpoints
62
0
6
ByLayer
370
-1
48
1
60
0
100
AcDbPoint
10
2
20
7.25
30
0
39
0
210
0
220
0
230
1
50
360
0
POINT
5
192
100
AcDbEntity
8
Defpoints
62
0
6
ByLayer
370
-1
48
1
60
0
100
AcDbPoint
10
62
20
0
30
0
39
0
210
0
220
0
230
1
50
360
0
POINT
5
193
100
AcDbEntity
8
Defpoints
62
0
6
ByLayer
370
-1
48
1
60
0
100
AcDbPoint
10
62
20
-21.74982
30
0
39
0
210
0
220
0
230
1
50
360
0
ENDBLK
5
18A
100
AcDbEntity
8
0
100
AcDbBlockEnd
0
BLOCK
5
19F
100
AcDbEntity
8
0
100
AcDbBlockBegin
2
_U4
70
0
10
0
20
0
30
0
3
_U4
0
MTEXT
5
195
100
AcDbEntity
8
SK2
62
256
6
ByLayer
370
18
48
1
60
0
100
AcDbMText
10
26.770389
20
-20.717151
30
0
210
0
220
0
230
1
1
\W0.7468;60.00
40
3.50012
41
0
44
1.084337
50
0
71
7
72
5
7
iso_b_vert
0
LINE
5
196
100
AcDbEntity
8
SK2
62
256
6
ByLayer
370
13
48
1
60
0
100
AcDbLine
10
2
20
5.6625
30
0
11
2
21
-24.92482
31
0
39
0
210
0
220
0
230
1
0
LINE
5
197
100
AcDbEntity
8
SK2
62
256
6
ByLayer
370
13
48
1
60
0
100
AcDbLine
10
62
20
-1.5875
30
0
11
62
21
-24.92482
31
0
39
0
210
0
220
0
230
1
0
LINE
5
198
100
AcDbEntity
8
SK2
62
256
6
ByLayer
370
13
48
1
60
0
100
AcDbLine
10
2
20
-21.74982
30
0
11
62
21
-21.74982
31
0
39
0
210
0
220
0
230
1
0
LINE
5
199
100
AcDbEntity
8
SK2
62
256
6
ByLayer
370
13
48
1
60
0
100
AcDbLine
10
2
20
-21.74982
30
0
11
5.174998
21
-21.331823
31
0
39
0
210
0
220
0
230
1
0
LINE
5
19A
100
AcDbEntity
8
SK2
62
256
6
ByLayer
370
13
48
1
60
0
100
AcDbLine
10
2
20
-21.74982
30
0
11
5.175002
21
-22.167817
31
0
39
0
210
0
220
0
230
1
0
LINE
5
19B
100
AcDbEntity
8
SK2
62
256
6
ByLayer
370
13
48
1
60
0
100
AcDbLine
10
5.174998
20
-21.331823
30
0
11
5.175002
21
-22.167817
31
0
39
0
210
0
220
0
230
1
0
LINE
5
19C
100
AcDbEntity
8
SK2
62
256
6
ByLayer
370
13
48
1
60
0
100
AcDbLine
10
62
20
-21.74982
30
0
11
58.825002
21
-22.167817
31
0
39
0
210
0
220
0
230
1
0
LINE
5
19D
100
AcDbEntity
8
SK2
62
256
6
ByLayer
370
13
48
1
60
0
100
AcDbLine
10
62
20
-21.74982
30
0
11
58.824998
21
-21.331823
31
0
39
0
210
0
220
0
230
1
0
LINE
5
19E
100
AcDbEntity
8
SK2
62
256
6
ByLayer
370
13
48
1
60
0
100
AcDbLine
10
58.825002
20
-22.167817
30
0
11
58.824998
21
-21.331823
31
0
39
0
210
0
220
0
230
1
0
ENDBLK
5
1A0
100
AcDbEntity
8
0
100
AcDbBlockEnd
0
BLOCK
5
1A5
100
AcDbEntity
8
0
100
AcDbBlockBegin
2
*D12
70
1
10
0
20
0
30
0
3
*D12
0
LINE
5
1A7
100
AcDbEntity
8
0
62
256
6
ByLayer
370
-2
48
1
60
0
100
AcDbLine
10
19
20
-8.3375
30
0
11
19
21
-14.32
31
0
39
0
210
0
220
0
230
1
0
LINE
5
1A8
100
AcDbEntity
8
0
62
256
6
ByLayer
370
-2
48
1
60
0
100
AcDbLine
10
62
20
-1.5875
30
0
11
62
21
-14.32
31
0
39
0
210
0
220
0
230
1
0
LINE
5
1A9
100
AcDbEntity
8
0
62
256
6
ByLayer
370
-2
48
1
60
0
100
AcDbLine
10
22.175
20
-13.82
30
0
11
58.825
21
-13.82
31
0
39
0
210
0
220
0
230
1
0
SOLID
5
1AA
100
AcDbEntity
8
0
62
256
6
ByLayer
370
-1
48
1
60
0
100
AcDbTrace
10
22.175
20
-13.290833
30
0
11
22.175
21
-14.349167
31
0
12
19
22
-13.82
32
0
13
19
23
-13.82
33
0
39
0
210
0
220
0
230
1
0
SOLID
5
1AB
100
AcDbEntity
8
0
62
256
6
ByLayer
370
-1
48
1
60
0
100
AcDbTrace
10
58.825
20
-14.349167
30
0
11
58.825
21
-13.290833
31
0
12
62
22
-13.82
32
0
13
62
23
-13.82
33
0
39
0
210
0
220
0
230
1
0
MTEXT
5
1AC
100
AcDbEntity
8
0
62
256
6
ByLayer
370
18
48
1
60
0
100
AcDbMText
10
40.5
20
-7.975
30
0
210
0
220
0
230
1
1
\A1;43
40
2.8
41
0
44
1
50
0
71
5
72
5
7
iso_b_vert
0
POINT
5
1AD
100
AcDbEntity
8
Defpoints
62
0
6
ByLayer
370
-1
48
1
60
0
100
AcDbPoint
10
19
20
-6.75
30
0
39
0
210
0
220
0
230
1
50
360
0
POINT
5
1AE
100
AcDbEntity
8
Defpoints
62
0
6
ByLayer
370
-1
48
1
60
0
100
AcDbPoint
10
62
20
0
30
0
39
0
210
0
220
0
230
1
50
360
0
POINT
5
1AF
100
AcDbEntity
8
Defpoints
62
0
6
ByLayer
370
-1
48
1
60
0
100
AcDbPoint
10
62
20
-13.82
30
0
39
0
210
0
220
0
230
1
50
360
0
ENDBLK
5
1A6
100
AcDbEntity
8
0
100
AcDbBlockEnd
0
BLOCK
5
1BB
100
AcDbEntity
8
0
100
AcDbBlockBegin
2
_U5
70
0
10
0
20
0
30
0
3
_U5
0
MTEXT
5
1B1
100
AcDbEntity
8
SK2
62
256
6
ByLayer
370
18
48
1
60
0
100
AcDbMText
10
36.169041
20
-13.973893
30
0
210
0
220
0
230
1
1
\W0.7694;43.00
40
2.8
41
0
44
1.084337
50
0
71
7
72
5
7
iso_b_vert
0
LINE
5
1B2
100
AcDbEntity
8
SK2
62
256
6
ByLayer
370
13
48
1
60
0
100
AcDbLine
10
19
20
-8.3375
30
0
11
19
21
-14.32
31
0
39
0
210
0
220
0
230
1
0
LINE
5
1B3
100
AcDbEntity
8
SK2
62
256
6
ByLayer
370
13
48
1
60
0
100
AcDbLine
10
62
20
-1.5875
30
0
11
62
21
-14.32
31
0
39
0
210
0
220
0
230
1
0
LINE
5
1B4
100
AcDbEntity
8
SK2
62
256
6
ByLayer
370
13
48
1
60
0
100
AcDbLine
10
19
20
-13.82
30
0
11
62
21
-13.82
31
0
39
0
210
0
220
0
230
1
0
LINE
5
1B5
100
AcDbEntity
8
SK2
62
256
6
ByLayer
370
13
48
1
60
0
100
AcDbLine
10
19
20
-13.82
30
0
11
22.174998
21
-13.402003
31
0
39
0
210
0
220
0
230
1
0
LINE
5
1B6
100
AcDbEntity
8
SK2
62
256
6
ByLayer
370
13
48
1
60
0
100
AcDbLine
10
19
20
-13.82
30
0
11
22.175002
21
-14.237997
31
0
39
0
210
0
220
0
230
1
0
LINE
5
1B7
100
AcDbEntity
8
SK2
62
256
6
ByLayer
370
13
48
1
60
0
100
AcDbLine
10
22.174998
20
-13.402003
30
0
11
22.175002
21
-14.237997
31
0
39
0
210
0
220
0
230
1
0
LINE
5
1B8
100
AcDbEntity
8
SK2
62
256
6
ByLayer
370
13
48
1
60
0
100
AcDbLine
10
62
20
-13.82
30
0
11
58.825002
21
-14.237997
31
0
39
0
210
0
220
0
230
1
0
LINE
5
1B9
100
AcDbEntity
8
SK2
62
256
6
ByLayer
370
13
48
1
60
0
100
AcDbLine
10
62
20
-13.82
30
0
11
58.824998
21
-13.402003
31
0
39
0
210
0
220
0
230
1
0
LINE
5
1BA
100
AcDbEntity
8
SK2
62
256
6
ByLayer
370
13
48
1
60
0
100
AcDbLine
10
58.825002
20
-14.237997
30
0
11
58.824998
21
-13.402003
31
0
39
0
210
0
220
0
230
1
0
ENDBLK
5
1BC
100
AcDbEntity
8
0
100
AcDbBlockEnd
0
BLOCK
5
1C1
100
AcDbEntity
8
0
100
AcDbBlockBegin
2
*D14
70
1
10
0
20
0
30
0
3
*D14
0
LINE
5
1C3
100
AcDbEntity
8
0
62
256
6
ByLayer
370
-2
48
1
60
0
100
AcDbLine
10
-45
20
-1.5875
30
0
11
-45
21
-43.67512
31
0
39
0
210
0
220
0
230
1
0
LINE
5
1C4
100
AcDbEntity
8
0
62
256
6
ByLayer
370
-2
48
1
60
0
100
AcDbLine
10
62
20
-1.5875
30
0
11
62
21
-43.67512
31
0
39
0
210
0
220
0
230
1
0
LINE
5
1C5
100
AcDbEntity
8
0
62
256
6
ByLayer
370
-2
48
1
60
0
100
AcDbLine
10
-41.825
20
-40.50012
30
0
11
58.825
21
-40.50012
31
0
39
0
210
0
220
0
230
1
0
SOLID
5
1C6
100
AcDbEntity
8
0
62
256
6
ByLayer
370
-1
48
1
60
0
100
AcDbTrace
10
-41.825
20
-39.970953
30
0
11
-41.825
21
-41.029287
31
0
12
-45
22
-40.50012
32
0
13
-45
23
-40.50012
33
0
39
0
210
0
220
0
230
1
0
SOLID
5
1C7
100
AcDbEntity
8
0
62
256
6
ByLayer
370
-1
48
1
60
0
100
AcDbTrace
10
58.825
20
-41.029287
30
0
11
58.825
21
-39.970953
31
0
12
62
22
-40.50012
32
0
13
62
23
-40.50012
33
0
39
0
210
0
220
0
230
1
0
MTEXT
5
1C8
100
AcDbEntity
8
0
62
256
6
ByLayer
370
18
48
1
60
0
100
AcDbMText
10
8.5
20
-33.19362
30
0
210
0
220
0
230
1
1
\A1;107
40
3.50012
41
0
44
1
50
0
71
5
72
5
7
iso_b_vert
0
POINT
5
1C9
100
AcDbEntity
8
Defpoints
62
0
6
ByLayer
370
-1
48
1
60
0
100
AcDbPoint
10
-45
20
0
30
0
39
0
210
0
220
0
230
1
50
360
0
POINT
5
1CA
100
AcDbEntity
8
Defpoints
62
0
6
ByLayer
370
-1
48
1
60
0
100
AcDbPoint
10
62
20
0
30
0
39
0
210
0
220
0
230
1
50
360
0
POINT
5
1CB
100
AcDbEntity
8
Defpoints
62
0
6
ByLayer
370
-1
48
1
60
0
100
AcDbPoint
10
62
20
-40.50012
30
0
39
0
210
0
220
0
230
1
50
360
0
ENDBLK
5
1C2
100
AcDbEntity
8
0
100
AcDbBlockEnd
0
BLOCK
5
1D7
100
AcDbEntity
8
0
100
AcDbBlockBegin
2
_U6
70
0
10
0
20
0
30
0
3
_U6
0
MTEXT
5
1CD
100
AcDbEntity
8
SK2
62
256
6
ByLayer
370
18
48
1
60
0
100
AcDbMText
10
2.400059
20
-39.467451
30
0
210
0
220
0
230
1
1
\W0.7022;107.00
40
3.50012
41
0
44
1.084337
50
0
71
7
72
5
7
iso_b_vert
0
LINE
5
1CE
100
AcDbEntity
8
SK2
62
256
6
ByLayer
370
13
48
1
60
0
100
AcDbLine
10
-45
20
-1.5875
30
0
11
-45
21
-43.67512
31
0
39
0
210
0
220
0
230
1
0
LINE
5
1CF
100
AcDbEntity
8
SK2
62
256
6
ByLayer
370
13
48
1
60
0
100
AcDbLine
10
62
20
-1.5875
30
0
11
62
21
-43.67512
31
0
39
0
210
0
220
0
230
1
0
LINE
5
1D0
100
AcDbEntity
8
SK2
62
256
6
ByLayer
370
13
48
1
60
0
100
AcDbLine
10
-45
20
-40.50012
30
0
11
62
21
-40.50012
31
0
39
0
210
0
220
0
230
1
0
LINE
5
1D1
100
AcDbEntity
8
SK2
62
256
6
ByLayer
370
13
48
1
60
0
100
AcDbLine
10
-45
20
-40.50012
30
0
11
-41.825002
21
-40.082123
31
0
39
0
210
0
220
0
230
1
0
LINE
5
1D2
100
AcDbEntity
8
SK2
62
256
6
ByLayer
370
13
48
1
60
0
100
AcDbLine
10
-45
20
-40.50012
30
0
11
-41.824998
21
-40.918117
31
0
39
0
210
0
220
0
230
1
0
LINE
5
1D3
100
AcDbEntity
8
SK2
62
256
6
ByLayer
370
13
48
1
60
0
100
AcDbLine
10
-41.825002
20
-40.082123
30
0
11
-41.824998
21
-40.918117
31
0
39
0
210
0
220
0
230
1
0
LINE
5
1D4
100
AcDbEntity
8
SK2
62
256
6
ByLayer
370
13
48
1
60
0
100
AcDbLine
10
62
20
-40.50012
30
0
11
58.825002
21
-40.918117
31
0
39
0
210
0
220
0
230
1
0
LINE
5
1D5
100
AcDbEntity
8
SK2
62
256
6
ByLayer
370
13
48
1
60
0
100
AcDbLine
10
62
20
-40.50012
30
0
11
58.824998
21
-40.082123
31
0
39
0
210
0
220
0
230
1
0
LINE
5
1D6
100
AcDbEntity
8
SK2
62
256
6
ByLayer
370
13
48
1
60
0
100
AcDbLine
10
58.825002
20
-40.918117
30
0
11
58.824998
21
-40.082123
31
0
39
0
210
0
220
0
230
1
0
ENDBLK
5
1D8
100
AcDbEntity
8
0
100
AcDbBlockEnd
0
ENDSEC
0
SECTION
2
ENTITIES
0
ARC
5
AF
100
AcDbEntity
8
1
62
256
6
ByLayer
370
18
48
1
60
0
100
AcDbCircle
39
0
10
0.913836
20
7.513356
30
0
40
0.800000000000001
210
0
220
0
230
1
100
AcDbArc
50
235.169706
51
270.03581
0
ARC
5
B0
100
AcDbEntity
8
1
62
256
6
ByLayer
370
18
48
1
60
0
100
AcDbCircle
39
0
10
0.913836
20
-7.513356
30
0
40
0.800000000000001
210
0
220
0
230
1
100
AcDbArc
50
89.96419
51
124.830294
0
ARC
5
B1
100
AcDbEntity
8
1
62
256
6
ByLayer
370
18
48
1
60
0
100
AcDbCircle
39
0
10
0
20
6.2
30
0
40
0.800000000000001
210
0
220
0
230
1
100
AcDbArc
50
55.169706
51
90
0
ARC
5
B2
100
AcDbEntity
8
1
62
256
6
ByLayer
370
18
48
1
60
0
100
AcDbCircle
39
0
10
0
20
-6.2
30
0
40
0.800000000000001
210
0
220
0
230
1
100
AcDbArc
50
270
51
304.830294
0
ARC
5
B3
100
AcDbEntity
8
SK2
62
256
6
ByLayer
370
13
48
1
60
0
100
AcDbCircle
39
0
10
62
20
0
30
0
40
20
210
0
220
0
230
1
100
AcDbArc
50
9.606349
51
69.999993
0
ARC
5
B4
100
AcDbEntity
8
SK2
62
256
6
ByLayer
370
13
48
1
60
0
100
AcDbCircle
39
0
10
62
20
0
30
0
40
20
210
0
220
0
230
1
100
AcDbArc
50
290.000007
51
350.393651
0
ELLIPSE
5
B5
100
AcDbEntity
8
1
62
256
6
ByLayer
370
18
48
1
60
0
100
AcDbEllipse
10
3.643787
20
6.255514
30
0
11
-0.00103524311182798
21
-0.00994626923521643
31
0
210
0
220
0
230
1
40
0.458709
41
0.230049188577897
42
1.79807090575238
0
ELLIPSE
5
B6
100
AcDbEntity
8
1
62
256
6
ByLayer
370
18
48
1
60
0
100
AcDbEllipse
10
3.601985
20
6.257489
30
0
11
-2.62690939615386E-05
21
0.0099999654966756
31
0
210
0
220
0
230
1
40
0.003984
41
-2.93920646939103
42
-1.36819841811885
0
POINT
5
70
100
AcDbEntity
8
80
62
256
6
ByLayer
370
18
48
1
60
0
100
AcDbPoint
10
0
20
0
30
0
39
0
210
0
220
0
230
1
50
360
0
POINT
5
72
100
AcDbEntity
8
81
62
256
6
ByLayer
370
18
48
1
60
0
100
AcDbPoint
10
62
20
0
30
0
39
0
210
0
220
0
230
1
50
360
0
POINT
5
74
100
AcDbEntity
8
1
62
256
6
ByLayer
370
18
48
1
60
0
100
AcDbPoint
10
-45
20
0
30
0
39
0
210
0
220
0
230
1
50
360
0
POINT
5
76
100
AcDbEntity
8
1
62
256
6
ByLayer
370
18
48
1
60
1
100
AcDbPoint
10
0
20
-7
30
0
39
0
210
0
220
0
230
1
50
360
0
POINT
5
77
100
AcDbEntity
8
1
62
256
6
ByLayer
370
18
48
1
60
1
100
AcDbPoint
10
62
20
0
30
0
39
0
210
0
220
0
230
1
50
360
0
POINT
5
78
100
AcDbEntity
8
1
62
256
6
ByLayer
370
18
48
1
60
1
100
AcDbPoint
10
59.5432
20
-6.75
30
0
39
0
210
0
220
0
230
1
50
360
0
POINT
5
79
100
AcDbEntity
8
1
62
256
6
ByLayer
370
18
48
1
60
1
100
AcDbPoint
10
59.5432
20
6.75
30
0
39
0
210
0
220
0
230
1
50
360
0
POINT
5
7A
100
AcDbEntity
8
1
62
256
6
ByLayer
370
18
48
1
60
1
100
AcDbPoint
10
-45
20
7
30
0
39
0
210
0
220
0
230
1
50
360
0
POINT
5
7B
100
AcDbEntity
8
1
62
256
6
ByLayer
370
18
48
1
60
1
100
AcDbPoint
10
-45
20
-7
30
0
39
0
210
0
220
0
230
1
50
360
0
POINT
5
7C
100
AcDbEntity
8
1
62
256
6
ByLayer
370
18
48
1
60
1
100
AcDbPoint
10
-45
20
-7
30
0
39
0
210
0
220
0
230
1
50
360
0
POINT
5
7D
100
AcDbEntity
8
1
62
256
6
ByLayer
370
18
48
1
60
1
100
AcDbPoint
10
0
20
-7
30
0
39
0
210
0
220
0
230
1
50
360
0
POINT
5
7E
100
AcDbEntity
8
1
62
256
6
ByLayer
370
18
48
1
60
1
100
AcDbPoint
10
2
20
7.25
30
0
39
0
210
0
220
0
230
1
50
360
0
POINT
5
7F
100
AcDbEntity
8
1
62
256
6
ByLayer
370
18
48
1
60
1
100
AcDbPoint
10
62
20
0
30
0
39
0
210
0
220
0
230
1
50
360
0
POINT
5
80
100
AcDbEntity
8
1
62
256
6
ByLayer
370
18
48
1
60
1
100
AcDbPoint
10
19
20
-6.75
30
0
39
0
210
0
220
0
230
1
50
360
0
POINT
5
81
100
AcDbEntity
8
1
62
256
6
ByLayer
370
18
48
1
60
1
100
AcDbPoint
10
62
20
0
30
0
39
0
210
0
220
0
230
1
50
360
0
POINT
5
82
100
AcDbEntity
8
1
62
256
6
ByLayer
370
18
48
1
60
1
100
AcDbPoint
10
-45
20
0
30
0
39
0
210
0
220
0
230
1
50
360
0
POINT
5
83
100
AcDbEntity
8
1
62
256
6
ByLayer
370
18
48
1
60
1
100
AcDbPoint
10
62
20
0
30
0
39
0
210
0
220
0
230
1
50
360
0
SPLINE
5
B7
100
AcDbEntity
8
1
62
256
6
ByLayer
370
18
48
1
60
0
100
AcDbSpline
70
4
71
3
72
14
73
10
40
0
40
0
40
0
40
0
40
0.265054768287947
40
0.265054768287947
40
0.495608539609424
40
0.495608539609424
40
0.773913929532655
40
0.773913929532655
40
1
40
1
40
1
40
1
41
1
10
58.8245925009607
20
-0.253028421873495
30
0
41
1
10
58.825322910204
20
-0.253358003241175
30
0
41
1
10
58.8260390119815
20
-0.254063727734007
30
0
41
1
10
58.8272352214819
20
-0.255807691810901
30
0
41
1
10
58.8277502237643
20
-0.256813968179415
30
0
41
1
10
58.828733883699
20
-0.259295680693015
30
0
41
1
10
58.8291865075906
20
-0.260862476992884
30
0
41
1
10
58.8297718659676
20
-0.263881445885374
30
0
41
1
10
58.8299545715963
20
-0.265335556298623
30
0
41
1
10
58.8300232454883
20
-0.266790878839856
30
0
0
SPLINE
5
B8
100
AcDbEntity
8
1
62
256
6
ByLayer
370
18
48
1
60
0
100
AcDbSpline
70
4
71
3
72
40
73
36
40
0
40
0
40
0
40
0
40
0.035976557611707
40
0.035976557611707
40
0.0867146335268812
40
0.0867146335268812
40
0.137452709442055
40
0.137452709442055
40
0.18819078535723
40
0.18819078535723
40
0.289666937187576
40
0.289666937187576
40
0.340405013102749
40
0.340405013102749
40
0.391143089017922
40
0.391143089017922
40
0.441881164933095
40
0.441881164933095
40
0.492619240848269
40
0.492619240848269
40
0.543357316763442
40
0.543357316763442
40
0.594095392678615
40
0.594095392678615
40
0.644833468593788
40
0.644833468593788
40
0.695571544508961
40
0.695571544508961
40
0.797047696339308
40
0.797047696339308
40
0.847785772254481
40
0.847785772254481
40
0.898523848169654
40
0.898523848169654
40
1
40
1
40
1
40
1
41
1
10
20.635454418647
20
-0.218918057173511
30
0
41
1
10
20.4300810694323
20
-0.110918435259748
30
0
41
1
10
20.2244602750422
20
-0.0026623318599945
30
0
41
1
10
19.7301428372896
20
0.257497833131794
30
0
41
1
10
19.4416736100879
20
0.409303064910716
30
0
41
1
10
18.8662197084805
20
0.711780144935716
30
0
41
1
10
18.5793125999996
20
0.862519478676518
30
-1E-16
41
1
10
18.0055869916882
20
1.16108890842437
30
-1E-16
41
1
10
17.7188573053391
20
1.30902363349466
30
-1E-16
41
1
10
16.859280539765
20
1.74875587898089
30
-1E-16
41
1
10
16.2869668095693
20
2.03639070646599
30
-1E-16
41
1
10
15.4292560765181
20
2.45728025431904
30
-2E-16
41
1
10
15.143431139556
20
2.595764034409
30
-2E-16
41
1
10
14.571105692404
20
2.86816832710142
30
-2E-16
41
1
10
14.2846460664654
20
3.0021197949203
30
-2E-16
41
1
10
13.7110473232828
20
3.26508926730156
30
-2E-16
41
1
10
13.4238861259096
20
3.39410131062417
30
-2E-16
41
1
10
12.8483160009068
20
3.64659949494489
30
-2E-16
41
1
10
12.5599242488528
20
3.77009098411125
30
-2E-16
41
1
10
11.9818035081402
20
4.01108834152282
30
-2E-16
41
1
10
11.6915376599169
20
4.1287916342323
30
-3E-16
41
1
10
11.1126892327401
20
4.3562104955347
30
-3E-16
41
1
10
10.8240649736197
20
4.46595771560482
30
-3E-16
41
1
10
10.2482855602799
20
4.67700634541765
30
-3E-16
41
1
10
9.96109093559713
20
4.77834123197593
30
-3E-16
41
1
10
9.38689612979897
20
4.97294912090527
30
-3E-16
41
1
10
9.09993119646265
20
5.06619526803067
30
1E-16
41
1
10
8.23965374618257
20
5.33289629526919
30
1E-16
41
1
10
7.66700616159034
20
5.49326308568777
30
1E-16
41
1
10
6.80806427306283
20
5.70464806687645
30
1E-16
41
1
10
6.52174288623411
20
5.77025289532722
30
1E-16
41
1
10
5.94838298888996
20
5.8922179054056
30
1E-16
41
1
10
5.66132791628402
20
5.94860757261833
30
1E-16
41
1
10
4.79901374669896
20
6.10278541491664
30
1E-16
41
1
10
4.22265091061033
20
6.18556977704816
30
1E-16
41
1
10
3.64381903288509
20
6.24572119872838
30
1E-16
0
SPLINE
5
B9
100
AcDbEntity
8
1
62
256
6
ByLayer
370
18
48
1
60
0
100
AcDbSpline
70
4
71
3
72
30
73
26
40
0
40
0
40
0
40
0
40
0.125000000000001
40
0.125000000000001
40
0.250000000000001
40
0.250000000000001
40
0.312500000000001
40
0.312500000000001
40
0.375000000000002
40
0.375000000000002
40
0.500000000000002
40
0.500000000000002
40
0.562500000000002
40
0.562500000000002
40
0.625000000000002
40
0.625000000000002
40
0.750000000000001
40
0.750000000000001
40
0.8125
40
0.8125
40
0.875
40
0.875
40
0.9375
40
0.9375
40
1
40
1
40
1
40
1
41
1
10
28.9999999999999
20
5.45385802520761
30
1E-16
41
1
10
30.2605529331491
20
5.04455825242854
30
-3E-16
41
1
10
31.5207992308339
20
4.54627555991789
30
-3E-16
41
1
10
34.0410962465558
20
3.41915601494162
30
-2E-16
41
1
10
35.3013025910079
20
2.79063585791226
30
-2E-16
41
1
10
37.1912597506027
20
1.79472677177839
30
-1E-16
41
1
10
37.821490544593
20
1.45388792115551
30
-1E-16
41
1
10
39.0813027277911
20
0.763718815412631
30
0
41
1
10
39.7114050671713
20
0.414168259206207
30
0
41
1
10
41.6016515093016
20
-0.635401004602983
30
0
41
1
10
42.8615410339179
20
-1.33660345380468
30
1E-16
41
1
10
44.751460372203
20
-2.33977629002831
30
1E-16
41
1
10
45.3815965570769
20
-2.66613072420392
30
2E-16
41
1
10
46.6412479898097
20
-3.29453306901513
30
2E-16
41
1
10
47.2711373292259
20
-3.59672222383611
30
2E-16
41
1
10
49.1610139636591
20
-4.45631774434494
30
3E-16
41
1
10
50.420804492071
20
-4.9660514542386
30
3E-16
41
1
10
52.3101138847844
20
-5.59897915365781
30
-1E-16
41
1
10
52.9400174404475
20
-5.78824006023018
30
-1E-16
41
1
10
54.1994853130742
20
-6.11848883453123
30
-1E-16
41
1
10
54.8292003017344
20
-6.25951036249796
30
-1E-16
41
1
10
56.0890289360346
20
-6.48996769762692
30
0
41
1
10
56.7180941837861
20
-6.57925620444246
30
0
41
1
10
57.977365632579
20
-6.70423880914083
30
0
41
1
10
58.6069093059417
20
-6.73982492087066
30
0
41
1
10
59.2363529681379
20
-6.74809874479828
30
0
0
SPLINE
5
BA
100
AcDbEntity
8
1
62
256
6
ByLayer
370
18
48
1
60
0
100
AcDbSpline
70
4
71
3
72
8
73
4
40
0
40
0
40
0
40
0
40
1
40
1
40
1
40
1
41
1
10
29
20
5.38867473519042
30
-3E-16
41
1
10
29
20
5.33963336575877
30
1E-16
41
1
10
29
20
5.28924361419135
30
1E-16
41
1
10
29
20
5.23753555243886
30
1E-16
0
SPLINE
5
BB
100
AcDbEntity
8
1
62
256
6
ByLayer
370
18
48
1
60
0
100
AcDbSpline
70
4
71
3
72
40
73
36
40
0
40
0
40
0
40
0
40
0.0338882459043746
40
0.0338882459043746
40
0.10820453468096
40
0.10820453468096
40
0.145362679069253
40
0.145362679069253
40
0.182520823457546
40
0.182520823457546
40
0.256837112234133
40
0.256837112234133
40
0.293995256622426
40
0.293995256622426
40
0.33115340101072
40
0.33115340101072
40
0.405469689787307
40
0.405469689787307
40
0.479785978563893
40
0.479785978563893
40
0.554102267340481
40
0.554102267340481
40
0.628418556117068
40
0.628418556117068
40
0.702734844893654
40
0.702734844893654
40
0.777051133670242
40
0.777051133670242
40
0.851367422446829
40
0.851367422446829
40
0.888525566835122
40
0.888525566835122
40
0.925683711223414
40
0.925683711223414
40
1
40
1
40
1
40
1
41
1
10
35.5379967944714
20
6.41478160930146
30
1E-16
41
1
10
35.7993083994473
20
6.45924576906177
30
0
41
1
10
36.0603695514272
20
6.49917642972844
30
0
41
1
10
36.8941262434148
20
6.61185931278206
30
0
41
1
10
37.4667910740129
20
6.66719055323671
30
0
41
1
10
38.326063158987
20
6.71702727664697
30
0
41
1
10
38.6125736436793
20
6.72808868305563
30
0
41
1
10
39.1857418588286
20
6.73890056182472
30
0
41
1
10
39.4724279672719
20
6.73859600063395
30
0
41
1
10
40.3320642642845
20
6.72074454280801
30
0
41
1
10
40.9048355264515
20
6.68645042254096
30
0
41
1
10
41.7635470222103
20
6.6017938515588
30
0
41
1
10
42.0497187745062
20
6.5680185899127
30
0
41
1
10
42.6220793433986
20
6.48925985648066
30
0
41
1
10
42.9082982820561
20
6.4442636461753
30
0
41
1
10
43.7691318764641
20
6.29347205670152
30
1E-16
41
1
10
44.3425558341712
20
6.17187198321082
30
1E-16
41
1
10
45.4874679890623
20
5.88855781822349
30
1E-16
41
1
10
46.0586474852435
20
5.7260413956287
30
1E-16
41
1
10
47.2042562627845
20
5.36434126961794
30
-3E-16
41
1
10
47.7792809010695
20
5.16481352835501
30
-3E-16
41
1
10
48.9251033474442
20
4.73316066818248
30
-3E-16
41
1
10
49.496519245523
20
4.50040325741381
30
-3E-16
41
1
10
50.6408014493086
20
4.0068411826706
30
-2E-16
41
1
10
51.2137944889811
20
3.74523934958208
30
-2E-16
41
1
10
52.3616524279704
20
3.19905545008015
30
-2E-16
41
1
10
52.9343786877449
20
2.91534511638792
30
-2E-16
41
1
10
54.0787524121478
20
2.32888660139523
30
-1E-16
41
1
10
54.6501064868915
20
2.02557409003873
30
-1E-16
41
1
10
55.5103835233986
20
1.56311983137894
30
-1E-16
41
1
10
55.7976431644611
20
1.40749608674878
30
-1E-16
41
1
10
56.3711025453612
20
1.09481105682869
30
-1E-16
41
1
10
56.6575573808634
20
0.937610102703303
30
-1E-16
41
1
10
57.5163704569246
20
0.463924039402684
30
0
41
1
10
58.0881309359629
20
0.14527292149495
30
0
41
1
10
58.6602321438843
20
-0.174238353854094
30
0
0
SPLINE
5
BC
100
AcDbEntity
8
1
62
256
6
ByLayer
370
18
48
1
60
0
100
AcDbSpline
70
4
71
3
72
8
73
4
40
0
40
0
40
0
40
0
40
1
40
1
40
1
40
1
41
1
10
3.5532421280017
20
0.281841256010324
30
0
41
1
10
3.52189688994298
20
0.299180487977736
30
0
41
1
10
3.50168123375136
20
0.3334490785154
30
0
41
1
10
3.50168123375136
20
0.36922407239868
30
0
0
SPLINE
5
BD
100
AcDbEntity
8
1
62
256
6
ByLayer
370
18
48
1
60
0
100
AcDbSpline
70
4
71
3
72
12
73
8
40
0
40
0
40
0
40
0
40
0.5
40
0.5
40
0.75
40
0.75
40
1
40
1
40
1
40
1
41
1
10
3.50168123375136
20
6.32694343365236
30
1E-16
41
1
10
3.50168123375138
20
6.30885775285225
30
1E-16
41
1
10
3.50934175423725
20
6.2905353915848
30
1E-16
41
1
10
3.53456746218708
20
6.26744397499513
30
1E-16
41
1
10
3.54528086824382
20
6.26059981578643
30
1E-16
41
1
10
3.57125063290042
20
6.25061653652796
30
1E-16
41
1
10
3.5863946838715
20
6.24765059748839
30
1E-16
41
1
10
3.60201864867341
20
6.24769271520628
30
1E-16
0
SPLINE
5
BE
100
AcDbEntity
8
1
62
256
6
ByLayer
370
18
48
1
60
0
100
AcDbSpline
70
4
71
3
72
23
73
19
40
0
40
0
40
0
40
0
40
0.124999999999992
40
0.124999999999992
40
0.249999999999985
40
0.249999999999985
40
0.312499999999981
40
0.312499999999981
40
0.374999999999977
40
0.374999999999977
40
0.406249999999977
40
0.406249999999977
40
0.437499999999976
40
0.499999999999979
40
0.499999999999979
40
0.749999999999989
40
0.749999999999989
40
1
40
1
40
1
40
1
41
1
10
61.4230694147943
20
-2.03822303739287
30
0
41
1
10
61.328737510252
20
-2.18935078421271
30
0
41
1
10
61.2364099295501
20
-2.35235094539272
30
0
41
1
10
61.0625829632757
20
-2.68925839125643
30
0
41
1
10
60.9804685235086
20
-2.86395555722646
30
0
41
1
10
60.8629380127883
20
-3.13466709868643
30
0
41
1
10
60.8246923285546
20
-3.22633299872143
30
0
41
1
10
60.7498593438243
20
-3.41258765391365
30
0
41
1
10
60.7131492378585
20
-3.50748729421684
30
0
41
1
10
60.6596116653349
20
-3.65047595561561
30
0
41
1
10
60.6420018493695
20
-3.69823811190437
30
0
41
1
10
60.606749684437
20
-3.79374754153457
30
0
41
1
10
60.5540148890302
20
-3.93707081690073
30
0
41
1
10
60.5016913035417
20
-4.08056536753949
30
0
41
1
10
60.3280955630091
20
-4.55922970156567
30
0
41
1
10
60.1918211738887
20
-4.94357737627274
30
0
41
1
10
59.9224772079349
20
-5.70947245951984
30
0
41
1
10
59.7892002161035
20
-6.09139510888338
30
0
41
1
10
59.6546645093671
20
-6.47102293179415
30
0
0
SPLINE
5
BF
100
AcDbEntity
8
1
62
256
6
ByLayer
370
18
48
1
60
0
100
AcDbSpline
70
4
71
3
72
8
73
4
40
0
40
0
40
0
40
0
40
1
40
1
40
1
40
1
41
1
10
3.64381903288506
20
6.24572119872838
30
1E-16
41
1
10
3.63090512159582
20
6.24706319483016
30
1E-16
41
1
10
3.61662503664164
20
6.24773110836301
30
1E-16
41
1
10
3.60201864867341
20
6.24769271520628
30
1E-16
0
SPLINE
5
C0
100
AcDbEntity
8
1
62
256
6
ByLayer
370
18
48
1
60
0
100
AcDbSpline
70
4
71
3
72
10
73
6
40
0
40
0
40
0
40
0
40
0.5
40
0.5
40
1
40
1
40
1
40
1
41
1
10
61.4230694147942
20
2.03822303739284
30
0
41
1
10
61.242805284469
20
1.99088425568703
30
0
41
1
10
61.0608341799835
20
1.95112304632335
30
0
41
1
10
60.6946212976966
20
1.8816805641967
30
0
41
1
10
60.5103751911376
20
1.85201850758628
30
0
41
1
10
60.3253306596144
20
1.82590080628353
30
0
0
SPLINE
5
C1
100
AcDbEntity
8
1
62
256
6
ByLayer
370
18
48
1
60
0
100
AcDbSpline
70
4
71
3
72
32
73
28
40
0
40
0
40
0
40
0
40
0.124999999999999
40
0.124999999999999
40
0.187499999999998
40
0.187499999999998
40
0.249999999999997
40
0.249999999999997
40
0.312499999999997
40
0.312499999999997
40
0.374999999999996
40
0.374999999999996
40
0.437499999999996
40
0.437499999999996
40
0.499999999999995
40
0.499999999999995
40
0.562499999999994
40
0.562499999999994
40
0.624999999999994
40
0.624999999999994
40
0.687499999999993
40
0.687499999999993
40
0.749999999999992
40
0.749999999999992
40
0.874999999999996
40
0.874999999999996
40
1
40
1
40
1
40
1
41
1
10
61.9058708041386
20
0.0812587400210418
30
0
41
1
10
61.873196499309
20
-0.0264730108484912
30
0
41
1
10
61.8356307004584
20
-0.131741775377009
30
0
41
1
10
61.7716685256644
20
-0.285684885287907
30
0
41
1
10
61.7488651948292
20
-0.336731284451815
30
0
41
1
10
61.7017409037485
20
-0.434746832386764
30
0
41
1
10
61.6774083946491
20
-0.481819316752564
30
0
41
1
10
61.6272382705825
20
-0.571973475647582
30
0
41
1
10
61.6014016889167
20
-0.615057770285347
30
0
41
1
10
61.548146194241
20
-0.696882180915026
30
0
41
1
10
61.5207899633844
20
-0.735436763318774
30
0
41
1
10
61.4666994563984
20
-0.804815085481494
30
0
41
1
10
61.4396915212303
20
-0.836077090498577
30
1E-16
41
1
10
61.385714343271
20
-0.891604590942535
30
1E-16
41
1
10
61.3584991123319
20
-0.916022201050794
30
-1E-16
41
1
10
61.3058184899587
20
-0.956060945959678
30
-1E-16
41
1
10
61.2802264606846
20
-0.971881694372996
30
-1E-16
41
1
10
61.230342673166
20
-0.995454756121774
30
-1E-16
41
1
10
61.2058693239665
20
-1.00320928229456
30
0
41
1
10
61.1592238379577
20
-1.01046380946644
30
1E-16
41
1
10
61.1370016696289
20
-1.01005904893728
30
1E-16
41
1
10
61.0944085491665
20
-1.00181435648955
30
1E-16
41
1
10
61.0739170066112
20
-0.993888459443951
30
1E-16
41
1
10
61.0158125122481
20
-0.959982428208491
30
1E-16
41
1
10
60.9817012517477
20
-0.924402830999185
30
1E-16
41
1
10
60.9199487965311
20
-0.831900429631389
30
1E-16
41
1
10
60.8924008708048
20
-0.774752571263747
30
0
41
1
10
60.8680418695768
20
-0.70972899753869
30
0
0
SPLINE
5
C2
100
AcDbEntity
8
1
62
256
6
ByLayer
370
18
48
1
60
0
100
AcDbSpline
70
4
71
3
72
66
73
62
40
0
40
0
40
0
40
0
40
0.0482403888310034
40
0.0482403888310034
40
0.0723605832465051
40
0.0723605832465051
40
0.0964807776620068
40
0.0964807776620068
40
0.14472116649301
40
0.14472116649301
40
0.168841360908511
40
0.168841360908511
40
0.192961555324013
40
0.192961555324013
40
0.241201944155017
40
0.241201944155017
40
0.289442332986021
40
0.289442332986021
40
0.313562527401523
40
0.313562527401523
40
0.337682721817025
40
0.337682721817025
40
0.385923110648028
40
0.385923110648028
40
0.41004330506353
40
0.41004330506353
40
0.434163499479031
40
0.434163499479031
40
0.482403888310034
40
0.482403888310034
40
0.530644277141037
40
0.530644277141037
40
0.554764471556538
40
0.554764471556538
40
0.578884665972039
40
0.578884665972039
40
0.627125054803042
40
0.627125054803042
40
0.651245249218542
40
0.651245249218542
40
0.675365443634043
40
0.675365443634043
40
0.723605832465045
40
0.723605832465045
40
0.747726026880546
40
0.747726026880546
40
0.771846221296047
40
0.771846221296047
40
0.820086610127048
40
0.820086610127048
40
0.868326998958048
40
0.868326998958048
40
0.892447193373549
40
0.892447193373549
40
0.916567387789049
40
0.916567387789049
40
0.964807776620049
40
0.964807776620049
40
0.988927971035549
40
0.988927971035549
40
1
40
1
40
1
40
1
41
1
10
3.65030439058506
20
6.5775014775445
30
0
41
1
10
4.2241168008189
20
6.51355537326043
30
0
41
1
10
4.79791031563181
20
6.42773867398705
30
1E-16
41
1
10
5.65952288023695
20
6.26719270771255
30
1E-16
41
1
10
5.94706216151633
20
6.20831402532315
30
1E-16
41
1
10
6.52090308749695
20
6.08016532507023
30
1E-16
41
1
10
6.80735348475881
20
6.01088769463294
30
1E-16
41
1
10
7.66654056740643
20
5.7885002907868
30
1E-16
41
1
10
8.23911895305247
20
5.62091289487444
30
1E-16
41
1
10
9.09891529840289
20
5.34192158544039
30
-3E-16
41
1
10
9.38565777755866
20
5.24430926240916
30
-3E-16
41
1
10
9.95938119230175
20
5.03966552592149
30
-3E-16
41
1
10
10.2464551535175
20
4.93254239893062
30
-3E-16
41
1
10
11.1064750163668
20
4.60020899377929
30
-3E-16
41
1
10
11.6793268278867
20
4.36385449075414
30
-3E-16
41
1
10
12.8251321728132
20
3.86351411273105
30
-2E-16
41
1
10
13.3978535311106
20
3.59915025983952
30
-2E-16
41
1
10
14.2587510763599
20
3.18410559823636
30
-2E-16
41
1
10
14.5459868865813
20
3.04292289350579
30
-2E-16
41
1
10
15.1191975478404
20
2.75590906900126
30
-2E-16
41
1
10
15.405382423412
20
2.60986930887378
30
-2E-16
41
1
10
16.2641168010417
20
2.16658587394329
30
-1E-16
41
1
10
16.8370066221774
20
1.864499029972
30
-1E-16
41
1
10
17.6971601733864
20
1.40197045793457
30
-1E-16
41
1
10
17.9840457542247
20
1.2462777625768
30
-1E-16
41
1
10
18.5581339338779
20
0.931766301837172
30
-1E-16
41
1
10
18.84474261455
20
0.773091272123651
30
0
41
1
10
19.7041185556632
20
0.297492377325824
30
0
41
1
10
20.2765494112642
20
-0.0201153327300574
30
0
41
1
10
21.4219192382927
20
-0.653737740817604
30
0
41
1
10
21.9951823321257
20
-0.969576747692827
30
1E-16
41
1
10
22.8565801802721
20
-1.4388424919878
30
1E-16
41
1
10
23.1433571593876
20
-1.59389523763721
30
1E-16
41
1
10
23.7162021507977
20
-1.90127370410622
30
1E-16
41
1
10
24.0021355798973
20
-2.0538249350474
30
1E-16
41
1
10
24.8606551362167
20
-2.5042983995863
30
2E-16
41
1
10
25.4334650202837
20
-2.79595549709276
30
2E-16
41
1
10
26.2937072234456
20
-3.21990681891643
30
2E-16
41
1
10
26.5808760409093
20
-3.35905138690973
30
2E-16
41
1
10
27.1546163362942
20
-3.63183522452556
30
2E-16
41
1
10
27.440823084707
20
-3.76554295470808
30
2E-16
41
1
10
28.299846793432
20
-4.15505479643949
30
3E-16
41
1
10
28.8725962194139
20
-4.4000909063671
30
3E-16
41
1
10
29.7317504192232
20
-4.74595418026152
30
3E-16
41
1
10
30.0181675130801
20
-4.85757609861437
30
3E-16
41
1
10
30.5911142907268
20
-5.07330695221404
30
3E-16
41
1
10
30.8779751489169
20
-5.17741219060716
30
3E-16
41
1
10
31.7382143626759
20
-5.47490888845081
30
-1E-16
41
1
10
32.3112524897283
20
-5.65405440011477
30
-1E-16
41
1
10
33.4566118314805
20
-5.97446193354489
30
-1E-16
41
1
10
34.0285546526425
20
-6.11591846548512
30
-1E-16
41
1
10
34.8885733153445
20
-6.29690170431695
30
-1E-16
41
1
10
35.1757652488831
20
-6.35207120531922
30
-1E-16
41
1
10
35.7489290486913
20
-6.45149670007478
30
0
41
1
10
36.0351737520951
20
-6.4957711973185
30
0
41
1
10
36.894126243419
20
-6.61185931278249
30
0
41
1
10
37.4667910740172
20
-6.66719055323705
30
0
41
1
10
38.3260631589914
20
-6.71702727664717
30
0
41
1
10
38.6125736436838
20
-6.72808868305577
30
0
41
1
10
39.0307100714909
20
-6.73597614130426
30
0
41
1
10
39.1622838847061
20
-6.73725437933763
30
0
41
1
10
39.2938557179472
20
-6.73733558264396
30
0
0
SPLINE
5
C3
100
AcDbEntity
8
1
62
256
6
ByLayer
370
18
48
1
60
0
100
AcDbSpline
70
4
71
3
72
28
73
24
40
0
40
0
40
0
40
0
40
0.0624999999999998
40
0.0624999999999998
40
0.125
40
0.125
40
0.25
40
0.25
40
0.3125
40
0.3125
40
0.375
40
0.375
40
0.437499999999999
40
0.437499999999999
40
0.499999999999999
40
0.499999999999999
40
0.625
40
0.625
40
0.75
40
0.75
40
0.875
40
0.875
40
1
40
1
40
1
40
1
41
1
10
3.60201864867341
20
6.24769271520628
30
1E-16
41
1
10
3.60201369056901
20
6.21192807599883
30
1E-16
41
1
10
3.60200845650181
20
6.16888144746903
30
1E-16
41
1
10
3.60199761200855
20
6.0684918130716
30
1E-16
41
1
10
3.60199200899399
20
6.01119092050416
30
1E-16
41
1
10
3.60197501289139
20
5.82006642271031
30
1E-16
41
1
10
3.60196338813597
20
5.66665886165154
30
1E-16
41
1
10
3.60194608451604
20
5.39802680693472
30
1E-16
41
1
10
3.60194033596611
20
5.30203017811465
30
1E-16
41
1
10
3.60192894112589
20
5.09680551948773
30
1E-16
41
1
10
3.60192329665813
20
4.98752915093797
30
1E-16
41
1
10
3.60191232101542
20
4.75895834176481
30
-3E-16
41
1
10
3.60190696751525
20
4.63928111636898
30
-3E-16
41
1
10
3.60189653839927
20
4.38916575448209
30
-3E-16
41
1
10
3.60189145131758
20
4.25840880527477
30
-3E-16
41
1
10
3.6018766652426
20
3.85182342665672
30
-2E-16
41
1
10
3.60186757083085
20
3.56530323649861
30
-2E-16
41
1
10
3.60185041222303
20
2.96247955363464
30
-2E-16
41
1
10
3.60184233926293
20
2.6456830313158
30
-2E-16
41
1
10
3.60182648866902
20
1.9829536508831
30
-1E-16
41
1
10
3.60181890134203
20
1.64541376856283
30
-1E-16
41
1
10
3.6018033022072
20
0.958471025364048
30
-1E-16
41
1
10
3.60179529590607
20
0.609068358067816
30
0
41
1
10
3.60178643219916
20
0.253476253501844
30
0
0
SPLINE
5
C4
100
AcDbEntity
8
1
62
256
6
ByLayer
370
18
48
1
60
0
100
AcDbSpline
70
4
71
3
72
38
73
34
40
0
40
0
40
0
40
0
40
0.383188113009357
40
0.383188113009357
40
0.588041249791515
40
0.588041249791515
40
0.724966849939621
40
0.724966849939621
40
0.816443824155945
40
0.816443824155945
40
0.877557207875869
40
0.877557207875869
40
0.918402867302211
40
0.918402867302211
40
0.945716140713067
40
0.945716140713067
40
0.963980370547872
40
0.963980370547872
40
0.976178404419107
40
0.976178404419107
40
0.984319385111141
40
0.984319385111141
40
0.992517482611471
40
0.992517482611471
40
0.995221729551194
40
0.995221729551194
40
0.997042030326415
40
0.997042030326415
40
0.998347606513366
40
0.998347606513366
40
0.999666746694349
40
0.999666746694349
40
1
40
1
40
1
40
1
41
1
10
59.2363529681376
20
-6.74809874478834
30
0
41
1
10
59.2882916917687
20
-6.71430064710216
30
0
41
1
10
59.340309053659
20
-6.68021717951578
30
0
41
1
10
59.420229908458
20
-6.62750561462568
30
0
41
1
10
59.4480886318826
20
-6.60906742349522
30
0
41
1
10
59.494587359452
20
-6.57818760590061
30
0
41
1
10
59.5132197321881
20
-6.56578579371168
30
0
41
1
10
59.5443301994294
20
-6.54503132650282
30
0
41
1
10
59.5567984392634
20
-6.53670089665684
30
0
41
1
10
59.5776172801946
20
-6.5227703666491
30
0
41
1
10
59.5859628806388
20
-6.51718048604434
30
0
41
1
10
59.599875684128
20
-6.50785298243224
30
0
41
1
10
59.6054462786545
20
-6.50411597500476
30
0
41
1
10
59.6147287711774
20
-6.49788500850181
30
0
41
1
10
59.6184439668609
20
-6.49539012610029
30
0
41
1
10
59.6246390643214
20
-6.49122810627091
30
0
41
1
10
59.6271217038044
20
-6.48955970674783
30
0
41
1
10
59.6312709543906
20
-6.48677038210013
30
0
41
1
10
59.632934739146
20
-6.48565166213618
30
0
41
1
10
59.6357148754395
20
-6.48378189914115
30
0
41
1
10
59.6368292596454
20
-6.48303231687333
30
0
41
1
10
59.6390696461867
20
-6.48152511779773
30
0
41
1
10
59.6401956910592
20
-6.48076747084448
30
0
41
1
10
59.6416960713949
20
-6.4797578120336
30
0
41
1
10
59.6420693657166
20
-6.47950659010684
30
0
41
1
10
59.6426898038037
20
-6.47908906070714
30
0
41
1
10
59.6429382272371
20
-6.47892188841257
30
0
41
1
10
59.6433554412488
20
-6.4786411891059
30
0
41
1
10
59.6435273590074
20
-6.47852554059986
30
0
41
1
10
59.643856554928
20
-6.47830417958363
30
0
41
1
10
59.6440186459826
20
-6.47819522413721
30
0
41
1
10
59.6441783381442
20
-6.47808807640095
30
0
41
1
10
59.6442082334518
20
-6.47806803095227
30
0
41
1
10
59.6442339971109
20
-6.47805077951128
30
0
0
SPLINE
5
C5
100
AcDbEntity
8
1
62
256
6
ByLayer
370
18
48
1
60
0
100
AcDbSpline
70
4
71
3
72
10
73
6
40
0
40
0
40
0
40
0
40
0.5
40
0.5
40
1
40
1
40
1
40
1
41
1
10
59.2109220703836
20
-6.65803375778816
30
0
41
1
10
59.2155447198878
20
-6.68422933550769
30
0
41
1
10
59.220014443886
20
-6.70490511827561
30
0
41
1
10
59.2284362762776
20
-6.73502427735528
30
0
41
1
10
59.2324489411922
20
-6.74447266509341
30
0
41
1
10
59.236352968123
20
-6.74809874479831
30
0
0
SPLINE
5
C6
100
AcDbEntity
8
1
62
256
6
ByLayer
370
18
48
1
60
0
100
AcDbSpline
70
4
71
3
72
26
73
22
40
0
40
0
40
0
40
0
40
0.0189334773491555
40
0.0189334773491555
40
0.215146781879322
40
0.215146781879322
40
0.411360086409488
40
0.411360086409488
40
0.460413412542031
40
0.460413412542031
40
0.509466738674573
40
0.509466738674573
40
0.607573390939658
40
0.607573390939658
40
0.80378669546983
40
0.80378669546983
40
0.901893347734916
40
0.901893347734916
40
0.950946673867458
40
0.950946673867458
40
1
40
1
40
1
40
1
41
1
10
41.7920603008569
20
0.206910149797182
30
0
41
1
10
41.9046121418228
20
0.147525908151948
30
0
41
1
10
42.0170785307966
20
0.0881611534235844
30
0
41
1
10
43.2941595237877
20
-0.585943004499086
30
0
41
1
10
44.4508579942567
20
-1.19721287125611
30
1E-16
41
1
10
46.7692259080037
20
-2.37300459395152
30
1E-16
41
1
10
47.9305372946044
20
-2.93820024573518
30
2E-16
41
1
10
49.398275215408
20
-3.59099824937036
30
2E-16
41
1
10
49.6915561425814
20
-3.71838921622287
30
2E-16
41
1
10
50.2762511971503
20
-3.96574151317543
30
2E-16
41
1
10
50.567925557107
20
-4.08581230009386
30
3E-16
41
1
10
51.4413838965088
20
-4.43454078815086
30
3E-16
41
1
10
52.0217686164281
20
-4.65182365297187
30
3E-16
41
1
10
53.7607256213584
20
-5.25309802527249
30
-1E-16
41
1
10
54.9170033137904
20
-5.58599612693334
30
-1E-16
41
1
10
56.662509426266
20
-5.96759912728044
30
-1E-16
41
1
10
57.2462106350428
20
-6.07511737423164
30
-1E-16
41
1
10
58.1265006920298
20
-6.20447831286128
30
-1E-16
41
1
10
58.4202205567194
20
-6.24219569062618
30
-1E-16
41
1
10
59.0071141740207
20
-6.30645836005027
30
-1E-16
41
1
10
59.3004971290191
20
-6.33246609184619
30
-1E-16
41
1
10
59.594013117079
20
-6.35402906067048
30
-1E-16
0
SPLINE
5
C7
100
AcDbEntity
8
1
62
256
6
ByLayer
370
18
48
1
60
0
100
AcDbSpline
70
4
71
3
72
16
73
12
40
0
40
0
40
0
40
0
40
0.319388587325177
40
0.319388587325177
40
0.638777174650355
40
0.638777174650355
40
0.798471468312926
40
0.798471468312926
40
0.958165761975497
40
0.958165761975497
40
1
40
1
40
1
40
1
41
1
10
60.3253306596144
20
1.8259008062835
30
0
41
1
10
60.2179024952678
20
1.81073809553053
30
0
41
1
10
60.1136486203663
20
1.78749589294912
30
0
41
1
10
59.9113377615573
20
1.72777839557855
30
0
41
1
10
59.8127898511586
20
1.69093457515533
30
0
41
1
10
59.6770038900713
20
1.63251375944245
30
0
41
1
10
59.6333992137371
20
1.61241972799564
30
0
41
1
10
59.5493392936688
20
1.5716736040612
30
0
41
1
10
59.5085876824922
20
1.55096000281327
30
0
41
1
10
59.459944776143
20
1.52559273491161
30
0
41
1
10
59.4499969094803
20
1.5203698511103
30
0
41
1
10
59.4401967630575
20
1.51519387445185
30
0
0
SPLINE
5
C8
100
AcDbEntity
8
1
62
256
6
ByLayer
370
18
48
1
60
0
100
AcDbSpline
70
4
71
3
72
8
73
4
40
0
40
0
40
0
40
0
40
1
40
1
40
1
40
1
41
1
10
61.4230694147942
20
-2.03822303739284
30
0
41
1
10
61.6184036179785
20
-1.4848613437178
30
0
41
1
10
61.8086635669229
20
-0.929683527553635
30
0
41
1
10
61.9937753795522
20
-0.372663145822799
30
0
0
SPLINE
5
C9
100
AcDbEntity
8
1
62
256
6
ByLayer
370
18
48
1
60
0
100
AcDbSpline
70
4
71
3
72
52
73
48
40
0
40
0
40
0
40
0
40
0.0745767755465884
40
0.0745767755465884
40
0.149153551093177
40
0.149153551093177
40
0.186441938866471
40
0.186441938866471
40
0.205086132753118
40
0.205086132753118
40
0.223730326639765
40
0.223730326639765
40
0.298307102186354
40
0.298307102186354
40
0.372883877732942
40
0.372883877732942
40
0.391528071619589
40
0.391528071619589
40
0.410172265506237
40
0.410172265506237
40
0.447460653279532
40
0.447460653279532
40
0.522037428826122
40
0.522037428826122
40
0.559325816599418
40
0.559325816599418
40
0.577970010486066
40
0.577970010486066
40
0.596614204372714
40
0.596614204372714
40
0.671190979919306
40
0.671190979919306
40
0.745767755465898
40
0.745767755465898
40
0.764411949352546
40
0.764411949352546
40
0.783056143239194
40
0.783056143239194
40
0.820344531012491
40
0.820344531012491
40
0.894921306559085
40
0.894921306559085
40
0.969498082105679
40
0.969498082105679
40
0.988142275992328
40
0.988142275992328
40
1
40
1
40
1
40
1
41
1
10
6.77990846511577
20
6.38436907274439
30
1E-16
41
1
10
7.87112239947132
20
6.19709595928262
30
1E-16
41
1
10
8.95024715749148
20
5.93398338306588
30
1E-16
41
1
10
11.1036083542664
20
5.27690601633691
30
-3E-16
41
1
10
12.1774739457574
20
4.88264027605135
30
-3E-16
41
1
10
13.7973060880781
20
4.20757759914952
30
-3E-16
41
1
10
14.3388447678937
20
3.96874341067212
30
-2E-16
41
1
10
15.1552133437971
20
3.59174310836283
30
-2E-16
41
1
10
15.428240740752
20
3.46277397352816
30
-2E-16
41
1
10
15.9720709258505
20
3.20079680316002
30
-2E-16
41
1
10
16.243315384539
20
3.06757785812383
30
-2E-16
41
1
10
17.5970684370003
20
2.39189697110396
30
-1E-16
41
1
10
18.6719637103913
20
1.82032967597442
30
-1E-16
41
1
10
20.8231978199814
20
0.646847392529736
30
0
41
1
10
21.8996212982668
20
0.0450981915922171
30
0
41
1
10
23.2568430850974
20
-0.706653338073721
30
0
41
1
10
23.5293009084847
20
-0.856925660892813
30
1E-16
41
1
10
24.0743117267904
20
-1.15608050355618
30
1E-16
41
1
10
24.3460848301639
20
-1.30451540435843
30
1E-16
41
1
10
25.1595916912742
20
-1.74576297592958
30
1E-16
41
1
10
25.6995222683741
20
-2.0344904111264
30
1E-16
41
1
10
27.3161634043796
20
-2.87760102573307
30
2E-16
41
1
10
28.3890727739664
20
-3.41006082639851
30
2E-16
41
1
10
30.0046105557261
20
-4.14244282730581
30
3E-16
41
1
10
30.5440966137433
20
-4.37560036860677
30
3E-16
41
1
10
31.3567566677669
20
-4.70577963078171
30
3E-16
41
1
10
31.6281761242285
20
-4.81263671557289
30
3E-16
41
1
10
32.1723187700202
20
-5.01954486704037
30
3E-16
41
1
10
32.445121855183
20
-5.11965515655314
30
3E-16
41
1
10
33.803912814966
20
-5.59781625878023
30
-1E-16
41
1
10
34.8803631270484
20
-5.91389276006078
30
-1E-16
41
1
10
37.0308931924708
20
-6.39966246206984
30
-1E-16
41
1
10
38.1045766950543
20
-6.56968560159379
30
0
41
1
10
39.4560266136774
20
-6.68350296231304
30
0
41
1
10
39.7267747324324
20
-6.70133451677972
30
0
41
1
10
40.269551120858
20
-6.72693942872161
30
0
41
1
10
40.5419060513954
20
-6.73471663233414
30
0
41
1
10
41.3590971205141
20
-6.74270754111805
30
0
41
1
10
41.9008170509773
20
-6.72755734165199
30
0
41
1
10
43.5212841788786
20
-6.62265063485444
30
0
41
1
10
44.5944618449361
20
-6.47330404658655
30
0
41
1
10
46.7448011516276
20
-6.02601834697143
30
-1E-16
41
1
10
47.8218336620854
20
-5.7280352889376
30
-1E-16
41
1
10
49.1817376648461
20
-5.269471004157
30
3E-16
41
1
10
49.4545089300254
20
-5.17342242239735
30
3E-16
41
1
10
49.8989417510006
20
-5.01074186023018
30
3E-16
41
1
10
50.071452920566
20
-4.9460479620501
30
3E-16
41
1
10
50.2437279914107
20
-4.87994652742901
30
3E-16
0
SPLINE
5
CA
100
AcDbEntity
8
1
62
256
6
ByLayer
370
18
48
1
60
0
100
AcDbSpline
70
4
71
3
72
8
73
4
40
0
40
0
40
0
40
0
40
1
40
1
40
1
40
1
41
1
10
59.2109220703836
20
-6.65803375778819
30
0
41
1
10
59.3268166214288
20
-6.59271987331715
30
0
41
1
10
59.4430231777352
20
-6.52593770175787
30
0
41
1
10
59.5595961920701
20
-6.4577206916122
30
0
0
SPLINE
5
CB
100
AcDbEntity
8
1
62
256
6
ByLayer
370
18
48
1
60
0
100
AcDbSpline
70
4
71
3
72
8
73
4
40
0
40
0
40
0
40
0
40
1
40
1
40
1
40
1
41
1
10
61.9937753795426
20
0.37266314582493
30
0
41
1
10
61.964619356239
20
0.275483861930354
30
0
41
1
10
61.9353176521889
20
0.178349114692679
30
0
41
1
10
61.9058708041386
20
0.0812587400210134
30
0
0
SPLINE
5
CC
100
AcDbEntity
8
1
62
256
6
ByLayer
370
18
48
1
60
0
100
AcDbSpline
70
4
71
3
72
10
73
6
40
0
40
0
40
0
40
0
40
0.5
40
0.5
40
1
40
1
40
1
40
1
41
1
10
3.50168123375136
20
6.55925673229424
30
0
41
1
10
3.50168123375136
20
6.56674336881542
30
0
41
1
10
3.52097775051942
20
6.57362693865591
30
0
41
1
10
3.58100604447765
20
6.5807781134348
30
0
41
1
10
3.61974909221379
20
6.58090658391939
30
0
41
1
10
3.65030439058506
20
6.5775014775445
30
0
0
SPLINE
5
CD
100
AcDbEntity
8
1
62
256
6
ByLayer
370
18
48
1
60
0
100
AcDbSpline
70
4
71
3
72
26
73
22
40
0
40
0
40
0
40
0
40
0.176911567584533
40
0.176911567584533
40
0.356654091077078
40
0.356654091077078
40
0.401589721950214
40
0.401589721950214
40
0.44652535282335
40
0.44652535282335
40
0.53639661456962
40
0.53639661456962
40
0.716139138062161
40
0.716139138062161
40
0.806010399808432
40
0.806010399808432
40
0.850946030681567
40
0.850946030681567
40
0.895881661554703
40
0.895881661554703
40
1
40
1
40
1
40
1
41
1
10
3.65730923040673
20
0.22431430685387
30
0
41
1
10
4.81369679396192
20
-0.38311023945198
30
0
41
1
10
5.95852431486367
20
-0.988154667307072
30
1E-16
41
1
10
8.26433020098222
20
-2.16392686759107
30
1E-16
41
1
10
9.42484512142073
20
-2.73470231071374
30
2E-16
41
1
10
10.8869994133974
20
-3.39610912898144
30
2E-16
41
1
10
11.1799832512299
20
-3.52581713141629
30
2E-16
41
1
10
11.7673879332614
20
-3.7794962204157
30
2E-16
41
1
10
12.0609956954626
20
-3.90310670242312
30
2E-16
41
1
10
12.9387505786558
20
-4.26220899696057
30
3E-16
41
1
10
13.5212691804991
20
-4.48651406010009
30
3E-16
41
1
10
15.2646315267906
20
-5.10942567936704
30
-1E-16
41
1
10
16.4215048060694
20
-5.45785159641369
30
-1E-16
41
1
10
18.1634582256365
20
-5.86434837448925
30
-1E-16
41
1
10
18.7452809907515
20
-5.98040674188118
30
-1E-16
41
1
10
19.6218123393576
20
-6.12346382143298
30
-1E-16
41
1
10
19.9145914285285
20
-6.16593148104408
30
-1E-16
41
1
10
20.5017120921042
20
-6.24013481998941
30
-1E-16
41
1
10
20.7954487427545
20
-6.27177706027453
30
-1E-16
41
1
10
21.7661460120458
20
-6.35827447641645
30
0
41
1
10
22.4404682938283
20
-6.38867156579536
30
0
41
1
10
23.1131951751284
20
-6.38967473693216
30
0
0
SPLINE
5
CE
100
AcDbEntity
8
1
62
256
6
ByLayer
370
18
48
1
60
0
100
AcDbSpline
70
4
71
3
72
22
73
18
40
0
40
0
40
0
40
0
40
0.0664142001375657
40
0.0664142001375657
40
0.222011833447972
40
0.222011833447972
40
0.377609466758379
40
0.377609466758379
40
0.533207100068785
40
0.533207100068785
40
0.611005916723989
40
0.611005916723989
40
0.688804733379192
40
0.688804733379192
40
0.844402366689596
40
0.844402366689596
40
1
40
1
40
1
40
1
41
1
10
41.3065261749322
20
-0.475365456062491
30
0
41
1
10
41.0340814382395
20
-0.330275962243178
30
0
41
1
10
40.7615452513733
20
-0.184786989524923
30
0
41
1
10
39.8501137618141
20
0.301908467671069
30
0
41
1
10
39.2114516985013
20
0.643410302168746
30
0
41
1
10
37.9343008328336
20
1.31787400632115
30
-1E-16
41
1
10
37.295512806009
20
1.65125195612558
30
-1E-16
41
1
10
36.0178064001422
20
2.30124979733284
30
-1E-16
41
1
10
35.379324136176
20
2.61780216307329
30
-2E-16
41
1
10
34.421653671085
20
3.07450790535205
30
-2E-16
41
1
10
34.1020873631522
20
3.22381243690378
30
-2E-16
41
1
10
33.463846240843
20
3.51495372806528
30
-2E-16
41
1
10
33.1451297727563
20
3.65684816454871
30
-2E-16
41
1
10
32.1895084824598
20
4.07064156331839
30
-2E-16
41
1
10
31.5530153880098
20
4.33042076619199
30
-3E-16
41
1
10
30.2779491747262
20
4.81329170703813
30
-3E-16
41
1
10
29.6388832640582
20
5.0365318079065
30
-3E-16
41
1
10
29
20
5.23753555243886
30
1E-16
0
SPLINE
5
CF
100
AcDbEntity
8
1
62
256
6
ByLayer
370
18
48
1
60
0
100
AcDbSpline
70
4
71
3
72
22
73
18
40
0
40
0
40
0
40
0
40
0.125
40
0.125
40
0.187500000000001
40
0.187500000000001
40
0.250000000000002
40
0.250000000000002
40
0.500000000000004
40
0.500000000000004
40
0.625000000000005
40
0.625000000000005
40
0.687500000000004
40
0.687500000000004
40
0.750000000000004
40
0.750000000000004
40
1
40
1
40
1
40
1
41
1
10
28.9999999999861
20
5.38867473520608
30
-3E-16
41
1
10
28.2970558751165
20
5.62215201869318
30
1E-16
41
1
10
27.5928748460507
20
5.82896036086797
30
1E-16
41
1
10
26.5306728136581
20
6.09432577489167
30
1E-16
41
1
10
26.175382783589
20
6.17539482155217
30
1E-16
41
1
10
25.4633858986505
20
6.32165915923099
30
1E-16
41
1
10
25.1086251674288
20
6.38643434481344
30
1E-16
41
1
10
23.3393072867451
20
6.66832276739646
30
0
41
1
10
21.9385864699854
20
6.75959320566466
30
0
41
1
10
19.8296416760622
20
6.69283987380752
30
0
41
1
10
19.1253463407592
20
6.63668336185839
30
0
41
1
10
18.0632782789351
20
6.50146198195097
30
0
41
1
10
17.7082300128718
20
6.44789655606141
30
0
41
1
10
16.9957918860134
20
6.32383204420907
30
1E-16
41
1
10
16.640391969957
20
6.25366377734645
30
1E-16
41
1
10
14.8658111473383
20
5.86361961047862
30
1E-16
41
1
10
13.4534659218705
20
5.42646565437036
30
-3E-16
41
1
10
12.0284957587375
20
4.88292394108208
30
-3E-16
0
SPLINE
5
D0
100
AcDbEntity
8
1
62
256
6
ByLayer
370
18
48
1
60
0
100
AcDbSpline
70
4
71
3
72
12
73
8
40
0
40
0
40
0
40
0
40
0.31306859224818
40
0.31306859224818
40
0.65653429612409
40
0.65653429612409
40
1
40
1
40
1
40
1
41
1
10
3.71394540650354
20
6.71510603714046
30
0
41
1
10
3.99869848060195
20
6.71569177727486
30
0
41
1
10
4.3001375831189
20
6.70073839819338
30
0
41
1
10
4.95714601872254
20
6.64684273314484
30
0
41
1
10
5.31111078548807
20
6.60597932309472
30
0
41
1
10
6.03452780034735
20
6.50701976230712
30
0
41
1
10
6.40403640324098
20
6.44883818162407
30
0
41
1
10
6.77990846391185
20
6.38436907289483
30
1E-16
0
SPLINE
5
D1
100
AcDbEntity
8
1
62
256
6
ByLayer
370
18
48
1
60
0
100
AcDbSpline
70
4
71
3
72
26
73
22
40
0
40
0
40
0
40
0
40
0.132335933103557
40
0.132335933103557
40
0.176893219869565
40
0.176893219869565
40
0.221450506635572
40
0.221450506635572
40
0.310565080167587
40
0.310565080167587
40
0.488794227231618
40
0.488794227231618
40
0.577908800763633
40
0.577908800763633
40
0.622466087529641
40
0.622466087529641
40
0.667023374295649
40
0.667023374295649
40
0.845252521359681
40
0.845252521359681
40
1
40
1
40
1
40
1
41
1
10
23.6777038477943
20
-6.39309379763492
30
0
41
1
10
22.8163150121963
20
-6.41366929008478
30
0
41
1
10
21.9532958762549
20
-6.38616725506702
30
0
41
1
10
20.7914697396449
20
-6.28334695087514
30
-1E-16
41
1
10
20.4977198435508
20
-6.2518719495902
30
-1E-16
41
1
10
19.9105660600198
20
-6.17798099257917
30
-1E-16
41
1
10
19.6177724187535
20
-6.13565869561401
30
-1E-16
41
1
10
18.7412027138716
20
-5.99300585729594
30
-1E-16
41
1
10
18.159364519553
20
-5.87716959892325
30
-1E-16
41
1
10
16.417364659322
20
-5.47120477451679
30
-1E-16
41
1
10
15.2604750286773
20
-5.12295402339376
30
-1E-16
41
1
10
13.5170699928409
20
-4.50001653800359
30
3E-16
41
1
10
12.9345344624774
20
-4.27565255852082
30
3E-16
41
1
10
12.0567424469904
20
-3.91638782544211
30
2E-16
41
1
10
11.7631206506992
20
-3.79271065123945
30
2E-16
41
1
10
11.1756828596667
20
-3.53887223281484
30
2E-16
41
1
10
10.8826840087079
20
-3.40907358476079
30
2E-16
41
1
10
9.42046095545916
20
-2.74715850543478
30
2E-16
41
1
10
8.25990774602695
20
-2.17580426353882
30
1E-16
41
1
10
6.0888119371146
20
-1.06738390306168
30
1E-16
41
1
10
5.07897181788346
20
-0.535153898227179
30
0
41
1
10
4.06107295921592
20
0.0008267245034972
30
0
0
SPLINE
5
D2
100
AcDbEntity
8
1
62
256
6
ByLayer
370
18
48
1
60
0
100
AcDbSpline
70
2053
71
3
72
66
73
62
40
0
40
0
40
0
40
0
40
0.0625000000000002
40
0.0625000000000002
40
0.125
40
0.125
40
0.1875
40
0.1875
40
0.250000000000001
40
0.250000000000001
40
0.281250000000001
40
0.281250000000001
40
0.296875000000001
40
0.296875000000001
40
0.312500000000001
40
0.312500000000001
40
0.343750000000001
40
0.343750000000001
40
0.375000000000001
40
0.375000000000001
40
0.406250000000001
40
0.406250000000001
40
0.437500000000001
40
0.437500000000001
40
0.468750000000001
40
0.468750000000001
40
0.500000000000001
40
0.500000000000001
40
0.531250000000001
40
0.531250000000001
40
0.5625
40
0.5625
40
0.59375
40
0.59375
40
0.625
40
0.625
40
0.65625
40
0.65625
40
0.6875
40
0.6875
40
0.71875
40
0.71875
40
0.75
40
0.75
40
0.78125
40
0.78125
40
0.8125
40
0.8125
40
0.828125
40
0.828125
40
0.84375
40
0.84375
40
0.875
40
0.875
40
0.90625
40
0.90625
40
0.9375
40
0.9375
40
0.96875
40
0.96875
40
1
40
1
40
1
40
1
41
1
10
60.2749211712499
20
-2.57345165577971
30
2E-16
41
1
10
60.228177955574
20
-2.62524422774572
30
2E-16
41
1
10
60.1845220612934
20
-2.65699011845797
30
2E-16
41
1
10
60.1013322697062
20
-2.68178991975898
30
2E-16
41
1
10
60.064001948538
20
-2.67411914940291
30
2E-16
41
1
10
59.9958648371661
20
-2.61764739921418
30
2E-16
41
1
10
59.9668445915896
20
-2.57036872673157
30
2E-16
41
1
10
59.9181484278004
20
-2.43527821399084
30
1E-16
41
1
10
59.8997715643433
20
-2.35119086006577
30
1E-16
41
1
10
59.8828146083918
20
-2.19846501492674
30
1E-16
41
1
10
59.8791903246209
20
-2.14477201455801
30
1E-16
41
1
10
59.8770546336752
20
-2.06028367318564
30
1E-16
41
1
10
59.8768961849609
20
-2.03144198887122
30
1E-16
41
1
10
59.8777966882828
20
-1.97232032741957
30
1E-16
41
1
10
59.8788726423935
20
-1.94181543297029
30
1E-16
41
1
10
59.8840237115043
20
-1.85037557438281
30
1E-16
41
1
10
59.8899656150007
20
-1.78915921087662
30
1E-16
41
1
10
59.9074511955123
20
-1.66625114646871
30
1E-16
41
1
10
59.9191251787665
20
-1.60449421937966
30
1E-16
41
1
10
59.9472927560418
20
-1.48783429807833
30
1E-16
41
1
10
59.9641465042177
20
-1.43132062950483
30
1E-16
41
1
10
60.0020294042239
20
-1.32682244816974
30
1E-16
41
1
10
60.0228687394913
20
-1.27906620768488
30
1E-16
41
1
10
60.0681804572812
20
-1.19186195907037
30
1E-16
41
1
10
60.0922279314384
20
-1.15331482603665
30
1E-16
41
1
10
60.1419228241628
20
-1.08642478608721
30
1E-16
41
1
10
60.1679248059365
20
-1.05768422642626
30
1E-16
41
1
10
60.220057281449
20
-1.01074401320855
30
1E-16
41
1
10
60.2462843731208
20
-0.992324298437524
30
1E-16
41
1
10
60.2988618324869
20
-0.964786136151844
30
1E-16
41
1
10
60.3251580541991
20
-0.95578503881319
30
1E-16
41
1
10
60.3761121097601
20
-0.947158162755017
30
1E-16
41
1
10
60.4009756536573
20
-0.947413644949989
30
1E-16
41
1
10
60.4492437265764
20
-0.957018385540891
30
1E-16
41
1
10
60.4726046894658
20
-0.966457763415917
30
1E-16
41
1
10
60.5160903429668
20
-0.994039813675357
30
1E-16
41
1
10
60.5364203269026
20
-1.01219861363262
30
1E-16
41
1
10
60.5738605003196
20
-1.05782804526942
30
1E-16
41
1
10
60.5910922810889
20
-1.08563807468667
30
1E-16
41
1
10
60.6205629119692
20
-1.14981154296336
30
1E-16
41
1
10
60.6329384047154
20
-1.18619944199625
30
1E-16
41
1
10
60.6523145594668
20
-1.26867323439134
30
1E-16
41
1
10
60.6592110127165
20
-1.31482041867639
30
1E-16
41
1
10
60.6662986180867
20
-1.41372573847599
30
1E-16
41
1
10
60.6665725139613
20
-1.46767746935385
30
1E-16
41
1
10
60.6600917333838
20
-1.58062435943623
30
1E-16
41
1
10
60.6534736164123
20
-1.63890061591738
30
1E-16
41
1
10
60.6385884215712
20
-1.72915749864074
30
1E-16
41
1
10
60.6327462781458
20
-1.75991131964258
30
1E-16
41
1
10
60.6197396449902
20
-1.82072254722067
30
-1E-16
41
1
10
60.6125583110631
20
-1.85093704486397
30
-1E-16
41
1
10
60.5891257985779
20
-1.94104585067137
30
-1E-16
41
1
10
60.57073424478
20
-2.00110955780141
30
-1E-16
41
1
10
60.5309725308842
20
-2.11509009708365
30
-1E-16
41
1
10
60.5095563771924
20
-2.1693895685911
30
-1E-16
41
1
10
60.4642627540569
20
-2.27255914981137
30
-1E-16
41
1
10
60.4410582382298
20
-2.31991606866308
30
1E-16
41
1
10
60.3937890460661
20
-2.40708491766466
30
1E-16
41
1
10
60.3695763779007
20
-2.44703642145001
30
1E-16
41
1
10
60.321953294752
20
-2.51704386173125
30
2E-16
41
1
10
60.2982927790878
20
-2.5475553697967
30
2E-16
41
1
10
60.2749211712499
20
-2.57345165577971
30
2E-16
0
SPLINE
5
D3
100
AcDbEntity
8
1
62
256
6
ByLayer
370
18
48
1
60
0
100
AcDbSpline
70
4
71
3
72
8
73
4
40
0
40
0
40
0
40
0
40
1
40
1
40
1
40
1
41
1
10
3.64846502936561
20
6.25729217899664
30
1E-16
41
1
10
3.63411875317109
20
6.25878888096491
30
1E-16
41
1
10
3.61825073997395
20
6.25953807548743
30
1E-16
41
1
10
3.60201864867341
20
6.25950080102177
30
1E-16
0
SPLINE
5
D4
100
AcDbEntity
8
1
62
256
6
ByLayer
370
18
48
1
60
0
100
AcDbSpline
70
4
71
3
72
12
73
8
40
0
40
0
40
0
40
0
40
0.249999999999999
40
0.249999999999999
40
0.499999999999999
40
0.499999999999999
40
1
40
1
40
1
40
1
41
1
10
3.60201864867341
20
6.25950080102177
30
1E-16
41
1
10
3.58639164975693
20
6.2594649160564
30
1E-16
41
1
10
3.57124590735341
20
6.26199266996213
30
1E-16
41
1
10
3.5452770651608
20
6.27049595163385
30
1E-16
41
1
10
3.5345657190166
20
6.27632361326482
30
1E-16
41
1
10
3.50934375660228
20
6.29597781341815
30
1E-16
41
1
10
3.50168123375138
20
6.31156482649712
30
1E-16
41
1
10
3.50168123375136
20
6.32694343365236
30
1E-16
0
SPLINE
5
D5
100
AcDbEntity
8
1
62
256
6
ByLayer
370
18
48
1
60
0
100
AcDbSpline
70
4
71
3
72
16
73
12
40
0
40
0
40
0
40
0
40
0.0757571971697432
40
0.0757571971697432
40
0.306817897877312
40
0.306817897877312
40
0.422348248231094
40
0.422348248231094
40
0.537878598584875
40
0.537878598584875
40
1
40
1
40
1
40
1
41
1
10
21.223742195854
20
-6.72603760828807
30
0
41
1
10
20.9934514364559
20
-6.72603301539243
30
0
41
1
10
20.7631077976349
20
-6.72238639108488
30
0
41
1
10
19.8296416760638
20
-6.69283987380763
30
0
41
1
10
19.1253463407607
20
-6.63668336185853
30
0
41
1
10
18.0632782789363
20
-6.50146198195117
30
0
41
1
10
17.708230012873
20
-6.44789655606161
30
0
41
1
10
16.9957918860144
20
-6.32383204420927
30
-1E-16
41
1
10
16.6403919699579
20
-6.25366377734665
30
-1E-16
41
1
10
14.8658111473389
20
-5.86361961047882
30
-1E-16
41
1
10
13.4534659218708
20
-5.42646565437047
30
3E-16
41
1
10
12.0284957587375
20
-4.88292394108205
30
3E-16
0
SPLINE
5
D6
100
AcDbEntity
8
1
62
256
6
ByLayer
370
18
48
1
60
0
100
AcDbSpline
70
4
71
3
72
40
73
36
40
0
40
0
40
0
40
0
40
0.10393945756396
40
0.10393945756396
40
0.15590918634594
40
0.15590918634594
40
0.20787891512792
40
0.20787891512792
40
0.311818372691881
40
0.311818372691881
40
0.363788101473861
40
0.363788101473861
40
0.415757830255843
40
0.415757830255843
40
0.467727559037823
40
0.467727559037823
40
0.519697287819804
40
0.519697287819804
40
0.571667016601785
40
0.571667016601785
40
0.623636745383766
40
0.623636745383766
40
0.675606474165747
40
0.675606474165747
40
0.727576202947728
40
0.727576202947728
40
0.831515660511691
40
0.831515660511691
40
0.88348538929367
40
0.88348538929367
40
0.93545511807565
40
0.93545511807565
40
0.987424846857629
40
0.987424846857629
40
1
40
1
40
1
40
1
41
1
10
3.64846502936553
20
6.25729217899666
30
1E-16
41
1
10
4.22718877481341
20
6.19747171813484
30
1E-16
41
1
10
4.80344086210081
20
6.11498473445121
30
1E-16
41
1
10
5.66558389399222
20
5.96119998620071
30
1E-16
41
1
10
5.95258042608705
20
5.90493193491017
30
1E-16
41
1
10
6.52582042765579
20
5.78319130998929
30
1E-16
41
1
10
6.81208249978448
20
5.71769122983193
30
1E-16
41
1
10
7.67085206128769
20
5.50659796475964
30
1E-16
41
1
10
8.24338654127303
20
5.34638869202979
30
1E-16
41
1
10
9.10349457467944
20
5.07985918886766
30
1E-16
41
1
10
9.39040276793793
20
4.98665897112423
30
1E-16
41
1
10
9.96448237122129
20
4.7921183748756
30
-3E-16
41
1
10
10.2516205066688
20
4.69080886547249
30
-3E-16
41
1
10
10.827295416644
20
4.47979950141453
30
-3E-16
41
1
10
11.1158697447165
20
4.37006178458529
30
-3E-16
41
1
10
11.6946208423879
20
4.14263607463192
30
-3E-16
41
1
10
11.9848451655424
20
4.02491479978272
30
-2E-16
41
1
10
12.5628762083499
20
3.78386041258076
30
-2E-16
41
1
10
12.8512208419171
20
3.66032963345413
30
-2E-16
41
1
10
13.4266914675189
20
3.40773030735892
30
-2E-16
41
1
10
13.713801095578
20
3.27865825340655
30
-2E-16
41
1
10
14.2872971680336
20
3.01555476435678
30
-2E-16
41
1
10
14.5737045034001
20
2.88152656585822
30
-2E-16
41
1
10
15.145920845229
20
2.60894440162522
30
-2E-16
41
1
10
15.4316905797037
20
2.47036339035367
30
-2E-16
41
1
10
16.2892407107639
20
2.04916394357451
30
-1E-16
41
1
10
16.8614477960428
20
1.76128199390226
30
-1E-16
41
1
10
17.7208583358436
20
1.32110757119247
30
-1E-16
41
1
10
18.0075318060233
20
1.17301390864373
30
-1E-16
41
1
10
18.5811430304916
20
0.874103711059291
30
-1E-16
41
1
10
18.867993887658
20
0.72318894509948
30
0
41
1
10
19.4433396254767
20
0.420345156396053
30
0
41
1
10
19.7317558348071
20
0.268345961484101
30
0
41
1
10
20.0909096486521
20
0.0790335396449393
30
0
41
1
10
20.1609458252105
20
0.0421120508118236
30
0
41
1
10
20.2310137041434
20
0.0051754385736729
30
0
0
SPLINE
5
D7
100
AcDbEntity
8
1
62
256
6
ByLayer
370
18
48
1
60
0
100
AcDbSpline
70
4
71
3
72
10
73
6
40
0
40
0
40
0
40
0
40
0.5
40
0.5
40
1
40
1
40
1
40
1
41
1
10
59.6546645093671
20
-6.47102293179418
30
0
41
1
10
59.6330361957261
20
-6.48530329402135
30
0
41
1
10
59.6148054698472
20
-6.49119509542666
30
0
41
1
10
59.5835495097971
20
-6.48657595180325
30
0
41
1
10
59.5705534920287
20
-6.47592465599445
30
0
41
1
10
59.55959619207
20
-6.45772069161234
30
0
0
SPLINE
5
D8
100
AcDbEntity
8
1
62
256
6
ByLayer
370
18
48
1
60
0
100
AcDbSpline
70
4
71
3
72
40
73
36
40
0
40
0
40
0
40
0
40
0.0115965635970296
40
0.0115965635970296
40
0.0556899307137709
40
0.0556899307137709
40
0.0997832978305126
40
0.0997832978305126
40
0.143876664947254
40
0.143876664947254
40
0.187970032063995
40
0.187970032063995
40
0.232063399180737
40
0.232063399180737
40
0.320250133414219
40
0.320250133414219
40
0.408436867647702
40
0.408436867647702
40
0.496623601881185
40
0.496623601881185
40
0.540716968997926
40
0.540716968997926
40
0.584810336114666
40
0.584810336114666
40
0.672997070348147
40
0.672997070348147
40
0.761183804581628
40
0.761183804581628
40
0.80527717169837
40
0.80527717169837
40
0.849370538815111
40
0.849370538815111
40
0.937557273048594
40
0.937557273048594
40
1
40
1
40
1
40
1
41
1
10
38.7687318066847
20
6.39987207029395
30
0
41
1
10
38.8443314931029
20
6.40179725157577
30
0
41
1
10
38.9199457288307
20
6.40340160427914
30
0
41
1
10
39.2831279499842
20
6.40960219565264
30
0
41
1
10
39.5711821434082
20
6.40922297506529
30
0
41
1
10
40.1496028876946
20
6.39544632315045
30
0
41
1
10
40.4400378876469
20
6.38250029528717
30
1E-16
41
1
10
41.0184488926929
20
6.34574637521897
30
-1E-16
41
1
10
41.3069597700975
20
6.32191253426987
30
1E-16
41
1
10
41.8827388475262
20
6.26429393340987
30
1E-16
41
1
10
42.1700077340339
20
6.23056006379446
30
1E-16
41
1
10
42.743437712062
20
6.15374273483661
30
1E-16
41
1
10
43.0297290110975
20
6.11025368505892
30
1E-16
41
1
10
43.8884890960832
20
5.96291260819848
30
1E-16
41
1
10
44.4603462478668
20
5.84390061595721
30
1E-16
41
1
10
45.6042063181936
20
5.56856778049027
30
1E-16
41
1
10
46.175505499907
20
5.41313067773737
30
1E-16
41
1
10
47.3226085610798
20
5.06394636275391
30
1E-16
41
1
10
47.8981588054412
20
4.87082653784196
30
-3E-16
41
1
10
48.765087121321
20
4.55628475007671
30
-3E-16
41
1
10
49.0551420478726
20
4.44709918190824
30
-3E-16
41
1
10
49.6337295366147
20
4.22193663569106
30
-3E-16
41
1
10
49.9222738207693
20
4.10594741152832
30
-3E-16
41
1
10
50.7862220945872
20
3.74842534958742
30
-2E-16
41
1
10
51.3597317522751
20
3.4975006335001
30
-2E-16
41
1
10
52.5050472699347
20
2.97501006769971
30
-2E-16
41
1
10
53.0767658814869
20
2.70356574417727
30
-2E-16
41
1
10
53.9338669645517
20
2.28386164520134
30
-1E-16
41
1
10
54.2194228044819
20
2.1418189875279
30
-1E-16
41
1
10
54.7908422774223
20
1.85414754015554
30
-1E-16
41
1
10
55.0769093889396
20
1.70862747948709
30
-1E-16
41
1
10
55.9364929317966
20
1.26788570324968
30
-1E-16
41
1
10
56.5113495998792
20
0.968510660946748
30
-1E-16
41
1
10
57.4972295978903
20
0.450532581882158
30
0
41
1
10
57.907443847619
20
0.233630571913295
30
0
41
1
10
58.3175407094528
20
0.0161480596664489
30
0
0
SPLINE
5
D9
100
AcDbEntity
8
1
62
256
6
ByLayer
370
18
48
1
60
0
100
AcDbSpline
70
4
71
3
72
8
73
4
40
0
40
0
40
0
40
0
40
1
40
1
40
1
40
1
41
1
10
59.5914294157882
20
-6.36527110615151
30
-1E-16
41
1
10
59.5807682071975
20
-6.39608902626276
30
-1E-16
41
1
10
59.5701567824535
20
-6.42690544550058
30
-1E-16
41
1
10
59.5595961920701
20
-6.4577206916122
30
0
0
SPLINE
5
DA
100
AcDbEntity
8
1
62
256
6
ByLayer
370
18
48
1
60
0
100
AcDbSpline
70
4
71
3
72
38
73
34
40
0
40
0
40
0
40
0
40
0.383188113049577
40
0.383188113049577
40
0.588041249846754
40
0.588041249846754
40
0.724966850005564
40
0.724966850005564
40
0.816443824228271
40
0.816443824228271
40
0.877557207953296
40
0.877557207953296
40
0.918402867382357
40
0.918402867382357
40
0.945716140795398
40
0.945716140795398
40
0.963980370631445
40
0.963980370631445
40
0.976178404503557
40
0.976178404503557
40
0.984319385196206
40
0.984319385196206
40
0.992517482697147
40
0.992517482697147
40
0.995221729637104
40
0.995221729637104
40
0.997042030412442
40
0.997042030412442
40
0.998347606599686
40
0.998347606599686
40
0.999666746781011
40
0.999666746781011
40
1
40
1
40
1
40
1
41
1
10
59.2363529681331
20
6.74809874479135
30
0
41
1
10
59.2882916917656
20
6.71430064710412
30
0
41
1
10
59.3403090536576
20
6.68021717951677
30
0
41
1
10
59.4202299084581
20
6.6275056146257
30
0
41
1
10
59.4480886318826
20
6.60906742349522
30
0
41
1
10
59.494587359452
20
6.57818760590058
30
0
41
1
10
59.5132197321881
20
6.56578579371165
30
0
41
1
10
59.5443301994295
20
6.54503132650279
30
0
41
1
10
59.5567984392634
20
6.53670089665687
30
0
41
1
10
59.5776172801946
20
6.52277036664913
30
0
41
1
10
59.5859628806389
20
6.51718048604428
30
0
41
1
10
59.5998756841281
20
6.50785298243215
30
0
41
1
10
59.6054462786546
20
6.50411597500474
30
0
41
1
10
59.6147287711774
20
6.49788500850178
30
0
41
1
10
59.6184439668609
20
6.49539012610023
30
0
41
1
10
59.6246390643214
20
6.49122810627088
30
0
41
1
10
59.6271217038044
20
6.4895597067478
30
0
41
1
10
59.6312709543906
20
6.4867703821001
30
0
41
1
10
59.632934739146
20
6.48565166213618
30
0
41
1
10
59.6357148754395
20
6.48378189914115
30
0
41
1
10
59.6368292596454
20
6.48303231687336
30
0
41
1
10
59.6390696461867
20
6.48152511779773
30
0
41
1
10
59.6401956910592
20
6.48076747084446
30
0
41
1
10
59.6416960713949
20
6.47975781203357
30
0
41
1
10
59.6420693657166
20
6.47950659010684
30
0
41
1
10
59.6426898038037
20
6.47908906070714
30
0
41
1
10
59.6429382272371
20
6.47892188841257
30
0
41
1
10
59.6433554412488
20
6.4786411891059
30
0
41
1
10
59.6435273590075
20
6.4785255405998
30
0
41
1
10
59.6438565549281
20
6.47830417958355
30
0
41
1
10
59.6440186459828
20
6.47819522413712
30
0
41
1
10
59.644178338136
20
6.47808807640649
30
0
41
1
10
59.6442082334364
20
6.47806803096256
30
0
41
1
10
59.6442339970909
20
6.47805077952464
30
0
0
SPLINE
5
DB
100
AcDbEntity
8
1
62
256
6
ByLayer
370
18
48
1
60
0
100
AcDbSpline
70
4
71
3
72
36
73
32
40
0
40
0
40
0
40
0
40
0.103577150649052
40
0.103577150649052
40
0.140928102705342
40
0.140928102705342
40
0.178279054761631
40
0.178279054761631
40
0.252980958874211
40
0.252980958874211
40
0.290331910930501
40
0.290331910930501
40
0.327682862986792
40
0.327682862986792
40
0.40238476709937
40
0.40238476709937
40
0.477086671211949
40
0.477086671211949
40
0.551788575324528
40
0.551788575324528
40
0.626490479437107
40
0.626490479437107
40
0.701192383549686
40
0.701192383549686
40
0.775894287662264
40
0.775894287662264
40
0.813245239718554
40
0.813245239718554
40
0.850596191774843
40
0.850596191774843
40
1
40
1
40
1
40
1
41
1
10
26.8435340692871
20
-6.413550916128
30
-1E-16
41
1
10
26.0401775503715
20
-6.54806393537874
30
0
41
1
10
25.2381355576243
20
-6.64018697960324
30
0
41
1
10
24.1431706876241
20
-6.70549751133413
30
0
41
1
10
23.85245163943
20
-6.71709484943509
30
0
41
1
10
23.2720256405303
20
-6.72867489083802
30
0
41
1
10
22.9821500604517
20
-6.7286783053448
30
0
41
1
10
22.1129825333687
20
-6.71142585834582
30
0
41
1
10
21.5341070925174
20
-6.67691884492521
30
0
41
1
10
20.6647169402276
20
-6.59104758378635
30
0
41
1
10
20.3747419623524
20
-6.55673592423199
30
0
41
1
10
19.7940589521031
20
-6.47681783199803
30
0
41
1
10
19.5033436149915
20
-6.43119713970975
30
-1E-16
41
1
10
18.6329141664853
20
-6.27819525604588
30
-1E-16
41
1
10
18.0539423868141
20
-6.15443599941185
30
-1E-16
41
1
10
16.895463344529
20
-5.86579922897053
30
-1E-16
41
1
10
16.3159379448433
20
-5.70095970431524
30
-1E-16
41
1
10
15.1537390450179
20
-5.33231199644445
30
3E-16
41
1
10
14.5737446263916
20
-5.12915758038162
30
3E-16
41
1
10
13.4150478138896
20
-4.68994961484737
30
3E-16
41
1
10
12.8360459772964
20
-4.45370128919197
30
3E-16
41
1
10
11.6759454101749
20
-3.9515276091399
30
2E-16
41
1
10
11.0941566338474
20
-3.68531892748098
30
2E-16
41
1
10
9.93403716022368
20
-3.1312034634513
30
2E-16
41
1
10
9.35486000330258
20
-2.8427576130749
30
2E-16
41
1
10
8.48518009819344
20
-2.39664962601773
30
1E-16
41
1
10
8.19512267236036
20
-2.2457283766544
30
1E-16
41
1
10
7.61437134600095
20
-1.93995415108111
30
1E-16
41
1
10
7.32354701681331
20
-1.7850332920695
30
1E-16
41
1
10
5.87212506202403
20
-1.00501842926576
30
1E-16
41
1
10
4.71587513645622
20
-0.361291949383116
30
0
41
1
10
3.55324212800173
20
0.281841256010324
30
0
0
SPLINE
5
DC
100
AcDbEntity
8
1
62
256
6
ByLayer
370
18
48
1
60
0
100
AcDbSpline
70
4
71
3
72
30
73
26
40
0
40
0
40
0
40
0
40
0.125
40
0.125
40
0.1875
40
0.1875
40
0.25
40
0.25
40
0.375
40
0.375
40
0.4375
40
0.4375
40
0.5
40
0.5
40
0.625
40
0.625
40
0.6875
40
0.6875
40
0.75
40
0.75
40
0.875
40
0.875
40
0.9375
40
0.9375
40
1
40
1
40
1
40
1
41
1
10
58.8300232454883
20
-0.266790878839657
30
0
41
1
10
58.8478040283227
20
-0.64359745418011
30
0
41
1
10
58.8798349232799
20
-1.01213247544419
30
1E-16
41
1
10
58.938781110309
20
-1.55413615854209
30
1E-16
41
1
10
58.9602870134888
20
-1.73298877915838
30
1E-16
41
1
10
59.0056420662639
20
-2.0871649059356
30
1E-16
41
1
10
59.029585066104
20
-2.26313930761364
30
1E-16
41
1
10
59.1024731506125
20
-2.78115874520964
30
2E-16
41
1
10
59.1517681057173
20
-3.1096191058983
30
2E-16
41
1
10
59.2212329247206
20
-3.57834617061823
30
2E-16
41
1
10
59.2436719100533
20
-3.73056522960047
30
2E-16
41
1
10
59.2865169553652
20
-4.0268446793811
30
2E-16
41
1
10
59.3070145843859
20
-4.17158983454101
30
3E-16
41
1
10
59.3639976040555
20
-4.58678054817594
30
3E-16
41
1
10
59.3959480316583
20
-4.8387140494263
30
3E-16
41
1
10
59.4357451053699
20
-5.18005716238864
30
-1E-16
41
1
10
59.4476822161846
20
-5.28770933480723
30
-1E-16
41
1
10
59.4693899605449
20
-5.49044573917368
30
-1E-16
41
1
10
59.4791960333789
20
-5.58589570183119
30
-1E-16
41
1
10
59.5060408399713
20
-5.84802821540927
30
-1E-16
41
1
10
59.5205782714237
20
-5.99199262869342
30
-1E-16
41
1
10
59.5443487609427
20
-6.16261869518164
30
-1E-16
41
1
10
59.5526197338164
20
-6.21189834844242
30
-1E-16
41
1
10
59.5713219435473
20
-6.29491989415098
30
-1E-16
41
1
10
59.5817752675765
20
-6.32863497701908
30
-1E-16
41
1
10
59.594013117076
20
-6.35402906067051
30
-1E-16
0
SPLINE
5
DD
100
AcDbEntity
8
1
62
256
6
ByLayer
370
18
48
1
60
0
100
AcDbSpline
70
4
71
3
72
16
73
12
40
0
40
0
40
0
40
0
40
0.159539156872238
40
0.159539156872238
40
0.369654367654179
40
0.369654367654179
40
0.579769578436119
40
0.579769578436119
40
0.78988478921806
40
0.78988478921806
40
1
40
1
40
1
40
1
41
1
10
50.2457016252352
20
4.87080674907139
30
-2E-16
41
1
10
50.7239474339712
20
5.05496574976914
30
-2E-16
41
1
10
51.2021638443154
20
5.22781058122064
30
-1E-16
41
1
10
52.3101138847837
20
5.59897915365755
30
1E-16
41
1
10
52.9400174404466
20
5.78824006022992
30
1E-16
41
1
10
54.1994853130734
20
6.11848883453101
30
1E-16
41
1
10
54.8292003017336
20
6.25951036249776
30
1E-16
41
1
10
56.0890289360336
20
6.48996769762678
30
0
41
1
10
56.7180941837851
20
6.57925620444234
30
0
41
1
10
57.977365632578
20
6.70423880914075
30
0
41
1
10
58.6069093059407
20
6.7398249208706
30
0
41
1
10
59.2363529681368
20
6.74809874479826
30
0
0
SPLINE
5
DE
100
AcDbEntity
8
1
62
256
6
ByLayer
370
18
48
1
60
0
100
AcDbSpline
70
4
71
3
72
8
73
4
40
0
40
0
40
0
40
0
40
1
40
1
40
1
40
1
41
1
10
61.9937753795473
20
0.372663145827005
30
0
41
1
10
62.0020729740739
20
0.124277906794617
30
0
41
1
10
62.0020767737698
20
-0.124164164386713
30
0
41
1
10
61.9937753795472
20
-0.372663145827715
30
0
0
SPLINE
5
DF
100
AcDbEntity
8
1
62
256
6
ByLayer
370
18
48
1
60
0
100
AcDbSpline
70
4
71
3
72
8
73
4
40
0
40
0
40
0
40
0
40
1
40
1
40
1
40
1
41
1
10
58.6602321438843
20
-0.174238353854122
30
0
41
1
10
58.7153577752212
20
-0.202200993404063
30
0
41
1
10
58.770119869537
20
-0.228448825529881
30
0
41
1
10
58.8245925009607
20
-0.253028421873523
30
0
0
SPLINE
5
E0
100
AcDbEntity
8
1
62
256
6
ByLayer
370
18
48
1
60
0
100
AcDbSpline
70
4
71
3
72
23
73
19
40
0
40
0
40
0
40
0
40
0.125000000000004
40
0.125000000000004
40
0.250000000000009
40
0.250000000000009
40
0.31250000000001
40
0.31250000000001
40
0.37500000000001
40
0.37500000000001
40
0.406250000000009
40
0.406250000000009
40
0.437500000000008
40
0.500000000000008
40
0.500000000000008
40
0.750000000000004
40
0.750000000000004
40
1
40
1
40
1
40
1
41
1
10
61.4230694147943
20
2.03822303739284
30
0
41
1
10
61.328737510252
20
2.18935078421265
30
0
41
1
10
61.2364099295501
20
2.35235094539263
30
0
41
1
10
61.0625829632758
20
2.68925839125626
30
0
41
1
10
60.9804685235088
20
2.86395555722626
30
0
41
1
10
60.8629380127884
20
3.13466709868615
30
0
41
1
10
60.8246923285547
20
3.22633299872112
30
0
41
1
10
60.7498593438244
20
3.41258765391331
30
0
41
1
10
60.7131492378588
20
3.50748729421645
30
0
41
1
10
60.6596116653351
20
3.65047595561524
30
0
41
1
10
60.6420018493696
20
3.698238111904
30
0
41
1
10
60.6067496844372
20
3.79374754153423
30
0
41
1
10
60.5540148890304
20
3.93707081690042
30
0
41
1
10
60.5016913035418
20
4.08056536753918
30
0
41
1
10
60.3280955630091
20
4.55922970156544
30
0
41
1
10
60.1918211738888
20
4.94357737627257
30
0
41
1
10
59.922477207935
20
5.70947245951979
30
0
41
1
10
59.7892002161035
20
6.09139510888338
30
0
41
1
10
59.654664509367
20
6.47102293179418
30
0
0
SPLINE
5
E1
100
AcDbEntity
8
1
62
256
6
ByLayer
370
18
48
1
60
0
100
AcDbSpline
70
4
71
3
72
10
73
6
40
0
40
0
40
0
40
0
40
0.388590611115549
40
0.388590611115549
40
1
40
1
40
1
40
1
41
1
10
3.65030439058506
20
6.5775014775445
30
0
41
1
10
3.65007017887549
20
6.53602554773764
30
0
41
1
10
3.64983440070483
20
6.49454929722916
30
0
41
1
10
3.64922360524304
20
6.38781336667634
30
1E-16
41
1
10
3.64884626917615
20
6.3225531995204
30
1E-16
41
1
10
3.64846502936564
20
6.25729217899664
30
1E-16
0
SPLINE
5
E2
100
AcDbEntity
8
1
62
256
6
ByLayer
370
18
48
1
60
0
100
AcDbSpline
70
4
71
3
72
16
73
12
40
0
40
0
40
0
40
0
40
0.249999999999997
40
0.249999999999997
40
0.499999999999994
40
0.499999999999994
40
0.624999999999996
40
0.624999999999996
40
0.749999999999997
40
0.749999999999997
40
1
40
1
40
1
40
1
41
1
10
58.6375222871975
20
0.782135166864776
30
0
41
1
10
58.7395104447891
20
0.865228827648025
30
-1E-16
41
1
10
58.8451663429731
20
0.937079294527734
30
-1E-16
41
1
10
59.0618180347486
20
1.06089879746906
30
-1E-16
41
1
10
59.17284024104
20
1.11275617718712
30
-1E-16
41
1
10
59.3422369946316
20
1.17490554770978
30
-1E-16
41
1
10
59.3991655385359
20
1.19315621300512
30
-1E-16
41
1
10
59.513684449494
20
1.2261125174235
30
-1E-16
41
1
10
59.5713228015561
20
1.24009577747208
30
-1E-16
41
1
10
59.7450968111898
20
1.27378765181641
30
-1E-16
41
1
10
59.8620932953176
20
1.28502562071296
30
-1E-16
41
1
10
59.9793104750719
20
1.28566374015708
30
-1E-16
0
SPLINE
5
E3
100
AcDbEntity
8
1
62
256
6
ByLayer
370
18
48
1
60
0
100
AcDbSpline
70
4
71
3
72
12
73
8
40
0
40
0
40
0
40
0
40
0.027250522244596
40
0.211780065788349
40
0.396309609332101
40
0.765368696419607
40
1
40
1
40
1
40
1
41
1
10
11.2133313794172
20
-4.56348610048664
30
-2E-16
41
1
10
11.1726616130916
20
-4.57913451955997
30
-2E-16
41
1
10
10.8566775201244
20
-4.70093780299484
30
-2E-16
41
1
10
10.2666026036727
20
-4.93163421312096
30
-1E-16
41
1
10
9.17159409256951
20
-5.37023410927821
30
-1E-16
41
1
10
8.00863478732884
20
-5.85285817251818
30
-1E-16
41
1
10
7.12323231277153
20
-6.23432585011346
30
-1E-16
41
1
10
6.77990846511579
20
-6.38436907274439
30
-1E-16
0
SPLINE
5
E4
100
AcDbEntity
8
1
62
256
6
ByLayer
370
18
48
1
60
0
100
AcDbSpline
70
4
71
3
72
14
73
10
40
0
40
0
40
0
40
0
40
0.0823552808599945
40
0.0823552808599945
40
0.265884224687985
40
0.265884224687985
40
0.632942112343993
40
0.632942112343993
40
1
40
1
40
1
40
1
41
1
10
59.4996968947563
20
1.50076873216642
30
-1E-16
41
1
10
59.5114851512201
20
1.49705927143197
30
-1E-16
41
1
10
59.5234208435209
20
1.49311662796336
30
-1E-16
41
1
10
59.5622295119587
20
1.47993817593812
30
-1E-16
41
1
10
59.5886892593227
20
1.4713641100972
30
-1E-16
41
1
10
59.6714088468204
20
1.44032555290204
30
-1E-16
41
1
10
59.7297968589573
20
1.41447394840824
30
-1E-16
41
1
10
59.8515340168942
20
1.35487479821333
30
-1E-16
41
1
10
59.9145770501642
20
1.32161444892824
30
-1E-16
41
1
10
59.9793104750761
20
1.28566374015523
30
-1E-16
0
SPLINE
5
E5
100
AcDbEntity
8
1
62
256
6
ByLayer
370
18
48
1
60
0
100
AcDbSpline
70
4
71
3
72
38
73
34
40
0
40
0
40
0
40
0
40
0.0881677022681035
40
0.0881677022681035
40
0.176335404536207
40
0.176335404536207
40
0.22041925567026
40
0.22041925567026
40
0.264503106804313
40
0.264503106804313
40
0.352670809072418
40
0.352670809072418
40
0.440838511340523
40
0.440838511340523
40
0.484922362474576
40
0.484922362474576
40
0.52900621360863
40
0.52900621360863
40
0.617173915876737
40
0.617173915876737
40
0.705341618144844
40
0.705341618144844
40
0.793509320412951
40
0.793509320412951
40
0.837593171547004
40
0.837593171547004
40
0.881677022681057
40
0.881677022681057
40
0.925760873815111
40
0.925760873815111
40
0.969844724949164
40
0.969844724949164
40
1
40
1
40
1
40
1
41
1
10
58.830023245488
20
-0.266790878839657
30
0
41
1
10
58.2512890292093
20
0.0401977270996099
30
0
41
1
10
57.6709660074153
20
0.347388383349966
30
0
41
1
10
56.5163400057171
20
0.953217711834583
30
-1E-16
41
1
10
55.9413583993672
20
1.2523035253341
30
-1E-16
41
1
10
55.0815898710743
20
1.6926912816896
30
-1E-16
41
1
10
54.7954607998645
20
1.83810822313814
30
-1E-16
41
1
10
54.2239221536964
20
2.12559676075227
30
-1E-16
41
1
10
53.9383102571414
20
2.26755434148919
30
-1E-16
41
1
10
53.081043891211
20
2.68704523369138
30
-2E-16
41
1
10
52.5092203109757
20
2.95839293774301
30
-2E-16
41
1
10
51.3637119956417
20
3.48079956787507
30
-2E-16
41
1
10
50.7901143614188
20
3.73173102129806
30
-2E-16
41
1
10
49.926051448356
20
4.08933573175281
30
-3E-16
41
1
10
49.6374719032961
20
4.20536717547017
30
-3E-16
41
1
10
49.0588187094324
20
4.43062883700577
30
-3E-16
41
1
10
48.7687045041621
20
4.53988355624068
30
-3E-16
41
1
10
47.9015963127528
20
4.85467766345985
30
-3E-16
41
1
10
47.3259247265476
20
5.04801722017393
30
1E-16
41
1
10
46.1785793603303
20
5.39774933514914
30
1E-16
41
1
10
45.6071611063415
20
5.55349030324174
30
1E-16
41
1
10
44.4630792840222
20
5.82950540019866
30
1E-16
41
1
10
43.8911152985993
20
5.94890581004904
30
1E-16
41
1
10
43.0322050864935
20
6.09690534854312
30
1E-16
41
1
10
42.7458651926746
20
6.1406358243915
30
1E-16
41
1
10
42.1723406291135
20
6.21790330808409
30
1E-16
41
1
10
41.8850264334223
20
6.25186777212213
30
1E-16
41
1
10
41.3091641924821
20
6.3099761597307
30
1E-16
41
1
10
41.0206150711966
20
6.33406718491418
30
-1E-16
41
1
10
40.4421331011018
20
6.37135918598244
30
1E-16
41
1
10
40.1516595913503
20
6.38458665555982
30
0
41
1
10
39.664516078906
20
6.39668062514474
30
0
41
1
10
39.4671825713944
20
6.39855695216576
30
0
41
1
10
39.2701804248874
20
6.39777256644908
30
0
0
SPLINE
5
E6
100
AcDbEntity
8
1
62
256
6
ByLayer
370
18
48
1
60
0
100
AcDbSpline
70
4
71
3
72
18
73
14
40
0
40
0
40
0
40
0
40
0.234715731674948
40
0.234715731674948
40
0.430698480942701
40
0.430698480942701
40
0.628402622066103
40
0.628402622066103
40
0.800810796902496
40
0.800810796902496
40
0.9670651924456
40
0.9670651924456
40
1
40
1
40
1
40
1
41
1
10
59.5940131170759
20
-6.35402906067026
30
-1E-16
41
1
10
59.5940965966206
20
-6.35420228444963
30
-1E-16
41
1
10
59.5941222953901
20
-6.35456062516676
30
-1E-16
41
1
10
59.5940361767335
20
-6.35557591107073
30
-1E-16
41
1
10
59.593944572368
20
-6.35618735190943
30
-1E-16
41
1
10
59.5936517153724
20
-6.35766256102363
30
-1E-16
41
1
10
59.5934440284969
20
-6.35855351239641
30
-1E-16
41
1
10
59.5929729141424
20
-6.36034828105639
30
-1E-16
41
1
10
59.5927136682539
20
-6.36125990880532
30
-1E-16
41
1
10
59.59217346636
20
-6.36303772150791
30
-1E-16
41
1
10
59.5918872039663
20
-6.36392598470007
30
-1E-16
41
1
10
59.5915441975385
20
-6.36493765428597
30
-1E-16
41
1
10
59.5914868109802
20
-6.36510519621518
30
-1E-16
41
1
10
59.5914294157883
20
-6.36527110615154
30
-1E-16
0
SPLINE
5
E7
100
AcDbEntity
8
1
62
256
6
ByLayer
370
18
48
1
60
0
100
AcDbSpline
70
4
71
3
72
8
73
4
40
0
40
0
40
0
40
0
40
1
40
1
40
1
40
1
41
1
10
61.4230694147942
20
2.03822303739287
30
0
41
1
10
61.6184036179787
20
1.48486134371751
30
0
41
1
10
61.8086635669232
20
0.929683527553038
30
0
41
1
10
61.9937753795526
20
0.372663145821917
30
0
0
SPLINE
5
E8
100
AcDbEntity
8
1
62
256
6
ByLayer
370
18
48
1
60
0
100
AcDbSpline
70
4
71
3
72
71
73
67
40
0
40
0
40
0
40
0
40
0.124999999999995
40
0.124999999999995
40
0.24999999999999
40
0.24999999999999
40
0.312499999999987
40
0.312499999999987
40
0.328124999999986
40
0.328124999999986
40
0.335937499999985
40
0.335937499999985
40
0.339843749999985
40
0.341796874999985
40
0.341796874999985
40
0.343749999999985
40
0.343749999999985
40
0.347656249999984
40
0.347656249999984
40
0.349609374999984
40
0.349609374999984
40
0.351562499999984
40
0.359374999999984
40
0.359374999999984
40
0.374999999999985
40
0.374999999999985
40
0.437499999999988
40
0.437499999999988
40
0.468749999999989
40
0.468749999999989
40
0.499999999999991
40
0.499999999999991
40
0.531249999999992
40
0.531249999999992
40
0.546874999999993
40
0.546874999999993
40
0.562499999999994
40
0.562499999999994
40
0.593749999999996
40
0.593749999999996
40
0.609374999999997
40
0.609374999999997
40
0.624999999999998
40
0.640624999999998
40
0.640624999999998
40
0.656249999999999
40
0.656249999999999
40
0.6875
40
0.6875
40
0.703125000000001
40
0.703125000000001
40
0.718750000000001
40
0.718750000000001
40
0.750000000000002
40
0.750000000000002
40
0.765625000000002
40
0.765625000000002
40
0.781250000000002
40
0.781250000000002
40
0.812500000000001
40
0.812500000000001
40
0.875000000000001
40
0.875000000000001
40
0.9375
40
0.9375
40
1
40
1
40
1
40
1
41
1
10
12.0284925833477
20
-4.88292236799353
30
3E-16
41
1
10
11.2856437799772
20
-4.59947098922456
30
3E-16
41
1
10
10.5329547754365
20
-4.30369886918402
30
3E-16
41
1
10
8.99086108676082
20
-3.73145145493862
30
2E-16
41
1
10
8.20604669765081
20
-3.45733115785964
30
2E-16
41
1
10
7.00066289212671
20
-3.0937630671074
30
2E-16
41
1
10
6.59529077850732
20
-2.98073352748361
30
2E-16
41
1
10
6.08376588670183
20
-2.85183285634594
30
2E-16
41
1
10
5.98124696615304
20
-2.82667666382022
30
2E-16
41
1
10
5.82715678600911
20
-2.78991544387245
30
2E-16
41
1
10
5.77574259989967
20
-2.77782412822131
30
2E-16
41
1
10
5.69854461730517
20
-2.75993478138594
30
2E-16
41
1
10
5.65992636067688
20
-2.75105164909766
30
2E-16
41
1
10
5.62127969454087
20
-2.74226313833407
30
2E-16
41
1
10
5.59550932684735
20
-2.7364241456757
30
2E-16
41
1
10
5.58256757459941
20
-2.73395687996546
30
2E-16
41
1
10
5.54327489899737
20
-2.73119162136948
30
2E-16
41
1
10
5.5159519904862
20
-2.73443901560452
30
2E-16
41
1
10
5.48090013031782
20
-2.75234182827481
30
2E-16
41
1
10
5.46988535102525
20
-2.75937121275001
30
2E-16
41
1
10
5.447332056047
20
-2.77257225007935
30
2E-16
41
1
10
5.39099053446702
20
-2.80560947801865
30
2E-16
41
1
10
5.33486039054981
20
-2.83882063933064
30
2E-16
41
1
10
5.20058405043909
20
-2.91885949345382
30
2E-16
41
1
10
5.11161423842151
20
-2.97268156655252
30
2E-16
41
1
10
4.6701926090623
20
-3.2439235377478
30
2E-16
41
1
10
4.32813939912614
20
-3.46744060312147
30
2E-16
41
1
10
3.83791632985586
20
-3.81504858553086
30
2E-16
41
1
10
3.67919259851735
20
-3.93242733333437
30
2E-16
41
1
10
3.37487236179373
20
-4.16891634642477
30
3E-16
41
1
10
3.22895572769138
20
-4.28824024231471
30
3E-16
41
1
10
2.95222434019098
20
-4.52923346582571
30
3E-16
41
1
10
2.82137793913239
20
-4.65089924221769
30
3E-16
41
1
10
2.63946687622547
20
-4.835408723873
30
3E-16
41
1
10
2.58123673980896
20
-4.89724844320284
30
3E-16
41
1
10
2.47035024146794
20
-5.02166953278956
30
3E-16
41
1
10
2.41762882627154
20
-5.08438074457854
30
3E-16
41
1
10
2.27225776159372
20
-5.26977511653942
30
3E-16
41
1
10
2.19116905899412
20
-5.39093149268058
30
3E-16
41
1
10
2.09828156051873
20
-5.56799473218666
30
-1E-16
41
1
10
2.07205229142733
20
-5.62656177195825
30
-1E-16
41
1
10
2.03123588607528
20
-5.73928998903139
30
-1E-16
41
1
10
2.00172628648454
20
-5.84804379511959
30
-1E-16
41
1
10
1.99510654680739
20
-5.94870890811708
30
-1E-16
41
1
10
2.00018224257673
20
-6.04523054340171
30
-1E-16
41
1
10
2.00867417473521
20
-6.09169566908358
30
-1E-16
41
1
10
2.05145222779689
20
-6.22253206550025
30
-1E-16
41
1
10
2.1023349935721
20
-6.29783555401957
30
-1E-16
41
1
10
2.2075623995824
20
-6.39548069360129
30
-1E-16
41
1
10
2.24771911907004
20
-6.42559188774368
30
-1E-16
41
1
10
2.33565686683573
20
-6.48014529683687
30
0
41
1
10
2.38343198277079
20
-6.50466618537143
30
0
41
1
10
2.53677082447302
20
-6.57103035556977
30
0
41
1
10
2.65228026586874
20
-6.60572470344798
30
0
41
1
10
2.84162356018646
20
-6.64642512550972
30
0
41
1
10
2.90762236348667
20
-6.65811243828711
30
0
41
1
10
3.0436589098284
20
-6.6779137377581
30
0
41
1
10
3.11349857103141
20
-6.68601407881042
30
0
41
1
10
3.32782219945196
20
-6.70562913179523
30
0
41
1
10
3.47708015266022
20
-6.7124902240526
30
0
41
1
10
3.94027433259996
20
-6.71849423410879
30
0
41
1
10
4.26971851913021
20
-6.7032337324917
30
0
41
1
10
4.95714601871435
20
-6.64684273314575
30
0
41
1
10
5.31111078548142
20
-6.60597932309557
30
0
41
1
10
6.03452780034385
20
-6.50701976230766
30
0
41
1
10
6.40403640323919
20
-6.44883818162438
30
0
41
1
10
6.77990846391182
20
-6.38436907289486
30
-1E-16
0
SPLINE
5
E9
100
AcDbEntity
8
1
62
256
6
ByLayer
370
18
48
1
60
0
100
AcDbSpline
70
4
71
3
72
10
73
6
40
0
40
0
40
0
40
0
40
0.5
40
0.5
40
1
40
1
40
1
40
1
41
1
10
58.6602321438842
20
-0.174238353854094
30
0
41
1
10
58.65059826331
20
-0.0159461875578586
30
0
41
1
10
58.6435141655554
20
0.142870812583311
30
0
41
1
10
58.6355505132551
20
0.461648599397648
30
0
41
1
10
58.634677705134
20
0.622024943926732
30
0
41
1
10
58.6375222871975
20
0.782135166864776
30
0
0
SPLINE
5
EA
100
AcDbEntity
8
1
62
256
6
ByLayer
370
18
48
1
60
0
100
AcDbSpline
70
4
71
3
72
8
73
4
40
0
40
0
40
0
40
0
40
1
40
1
40
1
40
1
41
1
10
59.6546645093671
20
6.47102293179418
30
0
41
1
10
59.651187628836
20
6.47336582678184
30
0
41
1
10
59.6477107915527
20
6.47570844269751
30
0
41
1
10
59.6442339970911
20
6.47805077952449
30
0
0
SPLINE
5
EB
100
AcDbEntity
8
1
62
256
6
ByLayer
370
18
48
1
60
0
100
AcDbSpline
70
4
71
3
72
10
73
6
40
0
40
0
40
0
40
0
40
0.614728612324796
40
0.614728612324796
40
1
40
1
40
1
40
1
41
1
10
6.77990846511577
20
-6.38436907274439
30
-1E-16
41
1
10
7.87112239947135
20
-6.19709595928262
30
-1E-16
41
1
10
8.95024715749148
20
-5.93398338306591
30
-1E-16
41
1
10
10.7017202088525
20
-5.39953830148426
30
2E-16
41
1
10
11.3754069393894
20
-5.16781460185001
30
3E-16
41
1
10
12.0501635518509
20
-4.912723325407
30
3E-16
0
SPLINE
5
EC
100
AcDbEntity
8
1
62
256
6
ByLayer
370
18
48
1
60
0
100
AcDbSpline
70
4
71
3
72
24
73
20
40
0
40
0
40
0
40
0
40
0.0808822639098439
40
0.0808822639098439
40
0.264705811127877
40
0.264705811127877
40
0.448529358345911
40
0.448529358345911
40
0.494485245150419
40
0.494485245150419
40
0.540441131954927
40
0.540441131954927
40
0.632352905563943
40
0.632352905563943
40
0.816176452781972
40
0.816176452781972
40
0.908088226390986
40
0.908088226390986
40
1
40
1
40
1
40
1
41
1
10
41.0103004585428
20
6.73841459960153
30
0
41
1
10
41.4890885204854
20
6.73878606697926
30
0
41
1
10
41.9656363053651
20
6.72336103652626
30
0
41
1
10
43.5212841788785
20
6.62265063485444
30
0
41
1
10
44.5944618449361
20
6.47330404658655
30
0
41
1
10
46.7448011516277
20
6.02601834697143
30
1E-16
41
1
10
47.8218336620855
20
5.72803528893763
30
1E-16
41
1
10
49.1817376648461
20
5.26947100415703
30
-3E-16
41
1
10
49.4545089300254
20
5.17342242239735
30
-3E-16
41
1
10
49.9978250396917
20
4.97454653838625
30
-3E-16
41
1
10
50.2688314296521
20
4.87152073906776
30
-3E-16
41
1
10
51.0802162664798
20
4.55218985412893
30
-3E-16
41
1
10
51.61907117277
20
4.32576954578172
30
-3E-16
41
1
10
53.2332271040207
20
3.6117706962207
30
-2E-16
41
1
10
54.3056411953644
20
3.08876497379617
30
-2E-16
41
1
10
55.9220171049524
20
2.25448709174302
30
-1E-16
41
1
10
56.4621719939467
20
1.96822366123527
30
-1E-16
41
1
10
57.5474672470882
20
1.38296540933197
30
-1E-16
41
1
10
58.0930952541588
20
1.08337481729669
30
-1E-16
41
1
10
58.6375222871975
20
0.782135166864776
30
0
0
SPLINE
5
ED
100
AcDbEntity
8
1
62
256
6
ByLayer
370
18
48
1
60
0
100
AcDbSpline
70
4
71
3
72
16
73
12
40
0
40
0
40
0
40
0
40
0.208780236816241
40
0.208780236816241
40
0.417560473632482
40
0.417560473632482
40
0.626340710448722
40
0.626340710448722
40
0.835120947264964
40
0.835120947264964
40
1
40
1
40
1
40
1
41
1
10
59.6442339970904
20
6.47805077952316
30
0
41
1
10
59.0054262889504
20
6.48311204046104
30
0
41
1
10
58.367173036967
20
6.46111593861832
30
0
41
1
10
57.0894894275991
20
6.36345683404096
30
1E-16
41
1
10
56.4506540161071
20
6.28791888689884
30
1E-16
41
1
10
55.1751424030689
20
6.08585091822479
30
1E-16
41
1
10
54.5377525944343
20
5.95916475606234
30
1E-16
41
1
10
53.2604576552193
20
5.65674180994461
30
1E-16
41
1
10
52.6217552024066
20
5.48141841049866
30
1E-16
41
1
10
51.4785736084959
20
5.12825974861292
30
-3E-16
41
1
10
50.9742020215321
20
4.95868628604421
30
-3E-16
41
1
10
50.4698635414283
20
4.77665370578109
30
-3E-16
0
SPLINE
5
EE
100
AcDbEntity
8
1
62
256
6
ByLayer
370
18
48
1
60
0
100
AcDbSpline
70
4
71
3
72
8
73
4
40
0
40
0
40
0
40
0
40
1
40
1
40
1
40
1
41
1
10
59.6546645093671
20
-6.47102293179412
30
0
41
1
10
59.6511876288487
20
-6.47336582677332
30
0
41
1
10
59.6477107915778
20
-6.47570844268054
30
0
41
1
10
59.6442339971288
20
-6.47805077949909
30
0
0
SPLINE
5
EF
100
AcDbEntity
8
1
62
256
6
ByLayer
370
18
48
1
60
0
100
AcDbSpline
70
4
71
3
72
52
73
48
40
0
40
0
40
0
40
0
40
0.0481730380108845
40
0.0481730380108845
40
0.0963460760217691
40
0.0963460760217691
40
0.144519114032654
40
0.144519114032654
40
0.192692152043538
40
0.192692152043538
40
0.240865190054423
40
0.240865190054423
40
0.289038228065307
40
0.289038228065307
40
0.385384304087076
40
0.385384304087076
40
0.409470823092518
40
0.409470823092518
40
0.43355734209796
40
0.43355734209796
40
0.481730380108844
40
0.481730380108844
40
0.505816899114285
40
0.505816899114285
40
0.529903418119727
40
0.529903418119727
40
0.57807645613061
40
0.57807645613061
40
0.626249494141493
40
0.626249494141493
40
0.674422532152377
40
0.674422532152377
40
0.72259557016326
40
0.72259557016326
40
0.770768608174143
40
0.770768608174143
40
0.818941646185026
40
0.818941646185026
40
0.843028165190468
40
0.843028165190468
40
0.86711468419591
40
0.86711468419591
40
0.963460760217676
40
0.963460760217676
40
0.987547279223118
40
0.987547279223118
40
1
40
1
40
1
40
1
41
1
10
59.2109220703836
20
-6.65803375778816
30
0
41
1
10
58.6307267704327
20
-6.60454902498569
30
0
41
1
10
58.0509948936231
20
-6.52828154715289
30
0
41
1
10
56.8899311697864
20
-6.3313851213581
30
-1E-16
41
1
10
56.3099805215712
20
-6.21092990339784
30
-1E-16
41
1
10
55.1522097680251
20
-5.92889841555484
30
-1E-16
41
1
10
54.5737411533032
20
-5.76730002757492
30
-1E-16
41
1
10
53.4150270797826
20
-5.40519392973417
30
3E-16
41
1
10
52.8337473265433
20
-5.20439697851728
30
3E-16
41
1
10
51.6746300762471
20
-4.76987703539984
30
3E-16
41
1
10
51.0961630143557
20
-4.53583546018743
30
3E-16
41
1
10
49.9383775771122
20
-4.0382415387148
30
2E-16
41
1
10
49.3585839599992
20
-3.77447666712658
30
2E-16
41
1
10
47.6167889343241
20
-2.94608064503399
30
2E-16
41
1
10
46.4619023186984
20
-2.348699742684
30
1E-16
41
1
10
45.0118940405523
20
-1.56953535446456
30
1E-16
41
1
10
44.7213045840122
20
-1.41191668947349
30
1E-16
41
1
10
44.1409883635538
20
-1.09494256651945
30
1E-16
41
1
10
43.851191963942
20
-0.935564528120636
30
1E-16
41
1
10
42.9823384313408
20
-0.455749440918538
30
0
41
1
10
42.4037852908152
20
-0.133688462086724
30
0
41
1
10
41.5348883615827
20
0.348900281380367
30
0
41
1
10
41.2450799995636
20
0.509682681443479
30
0
41
1
10
40.6647642158638
20
0.830459313983994
30
-1E-16
41
1
10
40.3741410719069
20
0.990514571910325
30
-1E-16
41
1
10
39.5040232784309
20
1.46676232559858
30
-1E-16
41
1
10
38.92523387174
20
1.7796448563852
30
-1E-16
41
1
10
37.7672514111305
20
2.3910201940709
30
-1E-16
41
1
10
37.1880920657636
20
2.68957363959439
30
-2E-16
41
1
10
36.0266566703112
20
3.26762867246364
30
-2E-16
41
1
10
35.4466302300824
20
3.54622270603104
30
-2E-16
41
1
10
34.2883951902214
20
4.07614362267782
30
-2E-16
41
1
10
33.7097052655721
20
4.32787576959197
30
-3E-16
41
1
10
32.5502121788399
20
4.80062382958354
30
-3E-16
41
1
10
31.968629123618
20
5.02191688825968
30
-3E-16
41
1
10
30.809152317058
20
5.42723146768395
30
1E-16
41
1
10
30.2304799923073
20
5.61174210237593
30
1E-16
41
1
10
29.3617057668411
20
5.85889206002651
30
1E-16
41
1
10
29.0719882026532
20
5.93634434329513
30
1E-16
41
1
10
28.4919484619231
20
6.08105030021838
30
1E-16
41
1
10
28.201368596801
20
6.14835433489344
30
1E-16
41
1
10
26.7493560907526
20
6.45790908787856
30
0
41
1
10
25.5941935701306
20
6.61894945978776
30
0
41
1
10
24.1431706876253
20
6.70549751133407
30
0
41
1
10
23.8524516394311
20
6.71709484943503
30
0
41
1
10
23.4121986343186
20
6.7258783085438
30
0
41
1
10
23.262248817004
20
6.72732505313996
30
0
41
1
10
23.1123637132941
20
6.72722957790575
30
0
0
SPLINE
5
F0
100
AcDbEntity
8
1
62
256
6
ByLayer
370
18
48
1
60
0
100
AcDbSpline
70
4
71
3
72
8
73
4
40
0
40
0
40
0
40
0
40
1
40
1
40
1
40
1
41
1
10
60.8680418695768
20
-0.709728997538491
30
0
41
1
10
60.6341172804239
20
-0.0852940042261991
30
0
41
1
10
60.3373514232818
20
0.580177825211848
30
0
41
1
10
59.9793104750726
20
1.28566374015753
30
-1E-16
0
SPLINE
5
F1
100
AcDbEntity
8
1
62
256
6
ByLayer
370
18
48
1
60
0
100
AcDbSpline
70
4
71
3
72
24
73
20
40
0
40
0
40
0
40
0
40
0.050193244955055
40
0.050193244955055
40
0.10038648991011
40
0.10038648991011
40
0.200772979820222
40
0.200772979820222
40
0.401545959640447
40
0.401545959640447
40
0.501932449550559
40
0.501932449550559
40
0.552125694505615
40
0.552125694505615
40
0.602318939460671
40
0.602318939460671
40
0.8030919192809
40
0.8030919192809
40
1
40
1
40
1
40
1
41
1
10
59.5914294157884
20
-6.36527110615154
30
-1E-16
41
1
10
59.2979293949043
20
-6.34388106161023
30
-1E-16
41
1
10
59.0045103030852
20
-6.31809732216774
30
-1E-16
41
1
10
58.4175904104726
20
-6.25420271141908
30
-1E-16
41
1
10
58.123858873528
20
-6.21665831735913
30
-1E-16
41
1
10
57.2435133325405
20
-6.08777875265824
30
-1E-16
41
1
10
56.6597833265031
20
-5.98053496821839
30
-1E-16
41
1
10
54.9142102338694
20
-5.59961868605498
30
-1E-16
41
1
10
53.7579196468497
20
-5.2669886331071
30
-1E-16
41
1
10
52.0189285197365
20
-4.66583910877296
30
3E-16
41
1
10
51.4385334391349
20
-4.44854686576616
30
3E-16
41
1
10
50.5650549397131
20
-4.09972782416304
30
3E-16
41
1
10
50.2733725007854
20
-3.97961514322401
30
2E-16
41
1
10
49.6886592380801
20
-3.73215163850924
30
2E-16
41
1
10
49.3953722673148
20
-3.6046932187127
30
2E-16
41
1
10
47.9275434797488
20
-2.95147357283281
30
2E-16
41
1
10
46.7661953385103
20
-2.38576824865336
30
1E-16
41
1
10
44.470092484734
20
-1.21996363414019
30
1E-16
41
1
10
43.3355994578064
20
-0.620089567522086
30
0
41
1
10
42.1935955444368
20
-0.0163275542495001
30
0
0
SPLINE
5
F2
100
AcDbEntity
8
SK1
62
256
6
ByLayer
370
18
48
1
60
0
100
AcDbSpline
70
4
71
3
72
12
73
8
40
0
40
0
40
0
40
0
40
0.250000000000001
40
0.250000000000001
40
0.500000000000001
40
0.500000000000001
40
1
40
1
40
1
40
1
41
1
10
-43.9
20
-5.78092737651386
30
-1E-16
41
1
10
-43.9
20
-5.77512662097291
30
-1E-16
41
1
10
-43.9042016956282
20
-5.76543218329013
30
-1E-16
41
1
10
-43.9170234176167
20
-5.74339622751842
30
-1E-16
41
1
10
-43.9254954864758
20
-5.73116518692285
30
-1E-16
41
1
10
-43.9538426693661
20
-5.6937850946122
30
-1E-16
41
1
10
-43.9765304760167
20
-5.66798479367037
30
-1E-16
41
1
10
-44
20
-5.64431453125425
30
-1E-16
0
SPLINE
5
F3
100
AcDbEntity
8
SK1
62
256
6
ByLayer
370
18
48
1
60
0
100
AcDbSpline
70
4
71
3
72
8
73
4
40
0
40
0
40
0
40
0
40
1
40
1
40
1
40
1
41
1
10
-44.2349364905389
20
5.81158824351783
30
0
41
1
10
-44.1566621658777
20
5.89067717861636
30
0
41
1
10
-44.0783485018698
20
5.9697288271739
30
0
41
1
10
-44
20
6.04874745577874
30
0
0
SPLINE
5
F4
100
AcDbEntity
8
SK1
62
256
6
ByLayer
370
18
48
1
60
0
100
AcDbSpline
70
4
71
3
72
12
73
8
40
0
40
0
40
0
40
0
40
0.500000000000003
40
0.500000000000003
40
0.750000000000001
40
0.750000000000001
40
1
40
1
40
1
40
1
41
1
10
-44
20
-6.04874745577877
30
0
41
1
10
-43.9765248032773
20
-6.07242343945407
30
0
41
1
10
-43.9537853574511
20
-6.09573373903331
30
0
41
1
10
-43.9256353788013
20
-6.12505050424858
30
0
41
1
10
-43.9170526356788
20
-6.1340846499796
30
0
41
1
10
-43.9042470853815
20
-6.14783054257413
30
0
41
1
10
-43.9
20
-6.15257616877596
30
0
41
1
10
-43.9
20
-6.1530056670764
30
0
0
SPLINE
5
F5
100
AcDbEntity
8
SK1
62
256
6
ByLayer
370
18
48
1
60
0
100
AcDbSpline
70
4
71
3
72
12
73
8
40
0
40
0
40
0
40
0
40
0.5
40
0.5
40
0.75
40
0.75
40
1
40
1
40
1
40
1
41
1
10
-45.0000000000001
20
-4.21537641767935
30
-2E-16
41
1
10
-44.8589373351094
20
-4.42566769371317
30
-2E-16
41
1
10
-44.7230040519661
20
-4.63188300250422
30
-2E-16
41
1
10
-44.5291778348446
20
-4.93297703148224
30
-1E-16
41
1
10
-44.465948960373
20
-5.03246739258955
30
-1E-16
41
1
10
-44.3454673258227
20
-5.22517028429201
30
-1E-16
41
1
10
-44.2883170206571
20
-5.31819784523492
30
-1E-16
41
1
10
-44.2349364905389
20
-5.40715531899335
30
-1E-16
0
SPLINE
5
F6
100
AcDbEntity
8
SK1
62
256
6
ByLayer
370
18
48
1
60
0
100
AcDbSpline
70
4
71
3
72
12
73
8
40
0
40
0
40
0
40
0
40
0.500000000000004
40
0.500000000000004
40
0.750000000000002
40
0.750000000000002
40
1
40
1
40
1
40
1
41
1
10
-44
20
6.04874745577877
30
0
41
1
10
-43.9765248032773
20
6.07242343945407
30
0
41
1
10
-43.9537853574511
20
6.09573373903331
30
0
41
1
10
-43.9256353788013
20
6.12505050424858
30
0
41
1
10
-43.9170526356788
20
6.13408464997963
30
0
41
1
10
-43.9042470853815
20
6.14783054257413
30
0
41
1
10
-43.9
20
6.15257616877596
30
0
41
1
10
-43.9
20
6.1530056670764
30
0
0
SPLINE
5
F7
100
AcDbEntity
8
SK1
62
256
6
ByLayer
370
18
48
1
60
0
100
AcDbSpline
70
4
71
3
72
8
73
4
40
0
40
0
40
0
40
0
40
1
40
1
40
1
40
1
41
1
10
-44.2349364905389
20
-5.81158824351783
30
0
41
1
10
-44.1566621658777
20
-5.89067717861636
30
0
41
1
10
-44.0783485018698
20
-5.9697288271739
30
0
41
1
10
-44
20
-6.04874745577874
30
0
0
SPLINE
5
F8
100
AcDbEntity
8
SK1
62
256
6
ByLayer
370
18
48
1
60
0
100
AcDbSpline
70
4
71
3
72
8
73
4
40
0
40
0
40
0
40
0
40
1
40
1
40
1
40
1
41
1
10
-44
20
-5.64431453125425
30
-1E-16
41
1
10
-44.078348500265
20
-5.56529590426794
30
-1E-16
41
1
10
-44.1566621642082
20
-5.48624425577876
30
-1E-16
41
1
10
-44.2349364905389
20
-5.40715531899335
30
-1E-16
0
SPLINE
5
F9
100
AcDbEntity
8
SK1
62
256
6
ByLayer
370
18
48
1
60
0
100
AcDbSpline
70
4
71
3
72
12
73
8
40
0
40
0
40
0
40
0
40
0.25
40
0.25
40
0.5
40
0.5
40
1
40
1
40
1
40
1
41
1
10
-44.2349364905389
20
-5.81158824351783
30
0
41
1
10
-44.2882412385381
20
-5.75262897040585
30
0
41
1
10
-44.345594482428
20
-5.68701877881011
30
0
41
1
10
-44.4667722327336
20
-5.54504998992024
30
0
41
1
10
-44.5295250914056
20
-5.46995229075685
30
0
41
1
10
-44.7229958850389
20
-5.23481441483921
30
1E-16
41
1
10
-44.8588524619118
20
-5.06506554626546
30
1E-16
41
1
10
-45.0000000000001
20
-4.88551579374266
30
1E-16
0
SPLINE
5
FA
100
AcDbEntity
8
SK1
62
256
6
ByLayer
370
18
48
1
60
0
100
AcDbSpline
70
4
71
3
72
12
73
8
40
0
40
0
40
0
40
0
40
0.25
40
0.25
40
0.500000000000001
40
0.500000000000001
40
1
40
1
40
1
40
1
41
1
10
-44.2349364905389
20
5.81158824351783
30
0
41
1
10
-44.2882412385381
20
5.75262897040585
30
0
41
1
10
-44.345594482428
20
5.68701877881011
30
0
41
1
10
-44.4667722327336
20
5.54504998992024
30
0
41
1
10
-44.5295250914056
20
5.46995229075685
30
0
41
1
10
-44.7229958850389
20
5.23481441483921
30
-1E-16
41
1
10
-44.8588524619118
20
5.06506554626546
30
-1E-16
41
1
10
-45.0000000000001
20
4.88551579374266
30
-1E-16
0
SPLINE
5
FB
100
AcDbEntity
8
1
62
256
6
ByLayer
370
18
48
1
60
0
100
AcDbSpline
70
4
71
2
72
6
73
3
40
0
40
0
40
0
40
1
40
1
40
1
41
1
10
42.1681962098755
20
-0.0028990874941996
30
0
41
1
10
42.1681766448369
20
-0.0028887479025457
30
0
41
1
10
42.1681570795036
20
-0.0028778728718351
30
0
0
SPLINE
5
FC
100
AcDbEntity
8
1
62
256
6
ByLayer
370
18
48
1
60
0
100
AcDbSpline
70
4
71
3
72
14
73
10
40
0
40
0
40
0
40
0
40
0.019567779920566
40
0.231252316999283
40
0.330107256405344
40
0.442851695826961
40
0.591933114952335
40
0.777622259122596
40
1
40
1
40
1
40
1
41
1
10
59.5057281539758
20
1.50075774271625
30
-1E-16
41
1
10
59.4500026530001
20
1.51712878943434
30
-1E-16
41
1
10
58.7917577800283
20
1.71157984116664
30
-1E-16
41
1
10
57.8610247563241
20
2.01575968445451
30
-1E-16
41
1
10
56.6702934373988
20
2.41518205026867
30
-1E-16
41
1
10
55.659641854163
20
2.76789699041532
30
-2E-16
41
1
10
54.4113834150333
20
3.22167955527115
30
-2E-16
41
1
10
52.8672433707561
20
3.81304569244239
30
-2E-16
41
1
10
51.7457400431291
20
4.2690660149616
30
-3E-16
41
1
10
51.137324767272
20
4.52443859252696
30
-3E-16
0
SPLINE
5
FD
100
AcDbEntity
8
1
62
256
6
ByLayer
370
18
48
1
60
0
100
AcDbSpline
70
4
71
3
72
30
73
26
40
0
40
0
40
0
40
0
40
7.0724044998E-06
40
2.59317994677E-05
40
4.38540215457E-05
40
6.00924808463E-05
40
0.0001966487846668
40
0.0003055991357266
40
0.0005019199009949
40
0.0008614903285677
40
0.0015298656362084
40
0.0028072448762428
40
0.0053574570546502
40
0.0107752142086133
40
0.0232222661056689
40
0.0807014977733558
40
0.157816271177379
40
0.224012769512734
40
0.274882744514526
40
0.329309296514768
40
0.388137434287984
40
0.498068165303701
40
0.639907627580168
40
0.813658400824489
40
1
40
1
40
1
40
1
41
1
10
25.2614942344063
20
0.419855391645285
30
0
41
1
10
25.2614920431734
20
0.419856464045409
30
0
41
1
10
25.2614763746828
20
0.419862317914379
30
0
41
1
10
25.2614032837105
20
0.419883830315285
30
0
41
1
10
25.2612617696172
20
0.41992269342029
30
0
41
1
10
25.260678424487
20
0.420077741491781
30
0
41
1
10
25.2595601424884
20
0.42036403942808
30
0
41
1
10
25.2578759288305
20
0.420803425654356
30
0
41
1
10
25.2552265303923
20
0.421488792884247
30
0
41
1
10
25.2504434578812
20
0.422730486787799
30
0
41
1
10
25.2413380348024
20
0.425088045422115
30
0
41
1
10
25.2235190626117
20
0.429695368875684
30
0
41
1
10
25.18656393921
20
0.439228923990413
30
0
41
1
10
25.1042391378343
20
0.460439239259301
30
0
41
1
10
24.7975312886416
20
0.539646465957446
30
0
41
1
10
24.1969002649057
20
0.697879506996856
30
0
41
1
10
23.378546474426
20
0.922128864939253
30
-1E-16
41
1
10
22.5891274643631
20
1.14732057387283
30
-1E-16
41
1
10
21.8938418578873
20
1.35207641359975
30
-1E-16
41
1
10
21.2300276940372
20
1.55308995794056
30
-1E-16
41
1
10
20.3297605013969
20
1.83380232974935
30
-1E-16
41
1
10
19.0819989065899
20
2.23962622821267
30
-1E-16
41
1
10
17.3835544237238
20
2.82661529864609
30
-2E-16
41
1
10
15.3965800281808
20
3.56316939643017
30
-2E-16
41
1
10
13.987374596796
20
4.13040940162276
30
-3E-16
41
1
10
13.2622492884728
20
4.43411016683112
30
-3E-16
0
SPLINE
5
FE
100
AcDbEntity
8
1
62
256
6
ByLayer
370
18
48
1
60
0
100
AcDbSpline
70
4
71
3
72
22
73
18
40
0
40
0
40
0
40
0
40
0.0946964186814374
40
0.178292891884326
40
0.245633082149779
40
0.297166365402644
40
0.360047299866718
40
0.418149264402926
40
0.480975836732536
40
0.53209991124942
40
0.572424091618665
40
0.623987755813773
40
0.718393758657804
40
0.785374069752293
40
0.863091174534575
40
0.964036203692194
40
1
40
1
40
1
40
1
41
1
10
23.115688585759
20
-6.38985712627331
30
0
41
1
10
23.5053292162241
20
-6.38938682649169
30
0
41
1
10
24.2397901376044
20
-6.38893529414656
30
0
41
1
10
25.2587352239852
20
-6.39091340231582
30
0
41
1
10
26.0929187389474
20
-6.39113479053432
30
0
41
1
10
26.8471008700188
20
-6.39110317554983
30
0
41
1
10
27.5617508479022
20
-6.39256259058067
30
0
41
1
10
28.3235638749648
20
-6.39282014224358
30
0
41
1
10
29.0365572160626
20
-6.39249746131424
30
0
41
1
10
29.6758983496337
20
-6.39230638075736
30
0
41
1
10
30.2685685968239
20
-6.39247876759768
30
0
41
1
10
31.0405483650068
20
-6.3948650882418
30
0
41
1
10
31.9230593560634
20
-6.39519390694772
30
0
41
1
10
32.9137811109675
20
-6.39357186176849
30
0
41
1
10
33.9317284618684
20
-6.39394844528189
30
0
41
1
10
34.8211688662699
20
-6.39511342383079
30
0
41
1
10
35.3885437019121
20
-6.39629391649206
30
0
41
1
10
35.5375834586595
20
-6.39657309868107
30
0
0
SPLINE
5
FF
100
AcDbEntity
8
1
62
256
6
ByLayer
370
18
48
1
60
0
100
AcDbSpline
70
4
71
3
72
23
73
19
40
0
40
0
40
0
40
0
40
0.0836752303315101
40
0.163599908865496
40
0.228309526372529
40
0.272417782659843
40
0.320055658177334
40
0.377758833286432
40
0.457476779011118
40
0.550702508209977
40
0.615607340412057
40
0.663398389853653
40
0.714392179931265
40
0.77613237944747
40
0.843060040964515
40
0.894107521842438
40
0.950699690787024
40
1
40
1
40
1
40
1
41
1
10
39.2941672051748
20
6.39796855901565
30
0
41
1
10
38.9492068808584
20
6.39580307361999
30
0
41
1
10
38.2742870952669
20
6.39303858319974
30
0
41
1
10
37.3261261519878
20
6.39665241533723
30
0
41
1
10
36.5488874044028
20
6.39739034749323
30
0
41
1
10
35.8981848765545
20
6.39731106091247
30
0
41
1
10
35.2780647636574
20
6.39579506847534
30
0
41
1
10
34.5088432103713
20
6.39509146276566
30
0
41
1
10
33.5506198526716
20
6.3932209524699
30
0
41
1
10
32.5623194058698
20
6.39431197842575
30
0
41
1
10
31.7067200327603
20
6.39512674132334
30
0
41
1
10
31.026584355219
20
6.39476481287352
30
0
41
1
10
30.3596055228481
20
6.39257817831174
30
0
41
1
10
29.6131071468515
20
6.39223606155315
30
0
41
1
10
28.866386369145
20
6.39259288073325
30
0
41
1
10
28.1410550624017
20
6.39284989913585
30
0
41
1
10
27.4889696605553
20
6.39230440011664
30
0
41
1
10
27.0489897697612
20
6.39158419626813
30
0
41
1
10
26.8441474929119
20
6.39136909874901
30
0
0
LINE
5
84
100
AcDbEntity
8
1
62
256
6
ByLayer
370
18
48
1
60
0
100
AcDbLine
10
0.914336
20
6.713356
30
0
11
0.914336
21
0
31
0
39
0
210
0
220
0
230
1
0
LINE
5
85
100
AcDbEntity
8
1
62
256
6
ByLayer
370
18
48
1
60
0
100
AcDbLine
10
0.914336
20
0
30
0
11
0.914336
21
-6.713356
31
0
39
0
210
0
220
0
230
1
0
LINE
5
86
100
AcDbEntity
8
1
62
256
6
ByLayer
370
18
48
1
60
0
100
AcDbLine
10
3.501681
20
0.369224
30
0
11
3.501681
21
6.559257
31
0
39
0
210
0
220
0
230
1
0
LINE
5
87
100
AcDbEntity
8
1
62
256
6
ByLayer
370
18
48
1
60
0
100
AcDbLine
10
0
20
7
30
0
11
0
21
0
31
0
39
0
210
0
220
0
230
1
0
LINE
5
88
100
AcDbEntity
8
1
62
256
6
ByLayer
370
18
48
1
60
0
100
AcDbLine
10
0
20
0
30
0
11
0
21
-7
31
0
39
0
210
0
220
0
230
1
0
LINE
5
89
100
AcDbEntity
8
1
62
256
6
ByLayer
370
18
48
1
60
0
100
AcDbLine
10
0.456918
20
6.856678
30
0
11
0.456918
21
0
31
0
39
0
210
0
220
0
230
1
0
LINE
5
8A
100
AcDbEntity
8
1
62
256
6
ByLayer
370
18
48
1
60
0
100
AcDbLine
10
0.456918
20
0
30
0
11
0.456918
21
-6.856678
31
0
39
0
210
0
220
0
230
1
0
LINE
5
8B
100
AcDbEntity
8
1
62
256
6
ByLayer
370
18
48
1
60
0
100
AcDbLine
10
61.905871
20
0.081259
30
0
11
60.325331
21
1.825901
31
0
39
0
210
0
220
0
230
1
0
LINE
5
8C
100
AcDbEntity
8
1
62
256
6
ByLayer
370
18
48
1
60
0
100
AcDbLine
10
29
20
5.453858
30
0
11
29
21
5.388675
31
0
39
0
210
0
220
0
230
1
0
LINE
5
8D
100
AcDbEntity
8
SK1
62
256
6
ByLayer
370
18
48
1
60
0
100
AcDbLine
10
-44.234936
20
-5.811588
30
0
11
-44.234936
21
-5.407012
31
0
39
0
210
0
220
0
230
1
0
LINE
5
8F
100
AcDbEntity
8
SK1
62
256
6
ByLayer
370
18
48
1
60
0
100
AcDbLine
10
-45
20
-4.885516
30
0
11
-45
21
-4.21532
31
0
39
0
210
0
220
0
230
1
0
LINE
5
90
100
AcDbEntity
8
SK1
62
256
6
ByLayer
370
18
48
1
60
0
100
AcDbLine
10
0
20
7
30
0
11
0
21
-7
31
0
39
0
210
0
220
0
230
1
0
LINE
5
91
100
AcDbEntity
8
SK1
62
256
6
ByLayer
370
18
48
1
60
0
100
AcDbLine
10
-45
20
4.885516
30
0
11
-45
21
-4.215376
31
0
39
0
210
0
220
0
230
1
0
LINE
5
92
100
AcDbEntity
8
SK1
62
256
6
ByLayer
370
18
48
1
60
0
100
AcDbLine
10
-43.055
20
-7
30
0
11
-43.055
21
7
31
0
39
0
210
0
220
0
230
1
0
LINE
5
93
100
AcDbEntity
8
SK1
62
256
6
ByLayer
370
18
48
1
60
0
100
AcDbLine
10
-44
20
-6.048747
30
0
11
-44
21
-5.644241
31
0
39
0
210
0
220
0
230
1
0
LINE
5
94
100
AcDbEntity
8
SK1
62
256
6
ByLayer
370
18
48
1
60
0
100
AcDbLine
10
-43.9
20
-6.155
30
0
11
-43.9
21
-5.780927
31
0
39
0
210
0
220
0
230
1
0
LINE
5
95
100
AcDbEntity
8
SK1
62
256
6
ByLayer
370
18
48
1
60
0
100
AcDbLine
10
-43.9
20
6.155
30
0
11
-43.9
21
6.153006
31
0
39
0
210
0
220
0
230
1
0
LINE
5
96
100
AcDbEntity
8
SK1
62
256
6
ByLayer
370
18
48
1
60
0
100
AcDbLine
10
-43.9
20
-6.155
30
0
11
-43.055
21
-7
31
0
39
0
210
0
220
0
230
1
0
LINE
5
97
100
AcDbEntity
8
SK1
62
256
6
ByLayer
370
18
48
1
60
0
100
AcDbLine
10
-43.055
20
7
30
0
11
-43.9
21
6.155
31
0
39
0
210
0
220
0
230
1
0
LINE
5
98
100
AcDbEntity
8
SK1
62
256
6
ByLayer
370
18
48
1
60
0
100
AcDbLine
10
-43.055
20
-7
30
0
11
0
21
-7
31
0
39
0
210
0
220
0
230
1
0
LINE
5
99
100
AcDbEntity
8
SK1
62
256
6
ByLayer
370
18
48
1
60
0
100
AcDbLine
10
0
20
7
30
0
11
-43.055
21
7
31
0
39
0
210
0
220
0
230
1
0
LINE
5
9A
100
AcDbEntity
8
1
62
256
6
ByLayer
370
18
48
1
60
0
100
AcDbLine
10
0.914336
20
-6.713356
30
0
11
3.726695
21
-6.715114
31
0
39
0
210
0
220
0
230
1
0
LINE
5
9B
100
AcDbEntity
8
1
62
256
6
ByLayer
370
18
48
1
60
0
100
AcDbLine
10
21.211272
20
-6.726041
30
0
11
23.112649
21
-6.72723
31
0
39
0
210
0
220
0
230
1
0
LINE
5
9C
100
AcDbEntity
8
1
62
256
6
ByLayer
370
18
48
1
60
0
100
AcDbLine
10
39.294165
20
-6.737343
30
0
11
41.013208
21
-6.738418
31
0
39
0
210
0
220
0
230
1
0
LINE
5
9D
100
AcDbEntity
8
1
62
256
6
ByLayer
370
18
48
1
60
0
100
AcDbLine
10
41.013208
20
6.738418
30
0
11
39.294165
21
6.737343
31
0
39
0
210
0
220
0
230
1
0
LINE
5
9E
100
AcDbEntity
8
1
62
256
6
ByLayer
370
18
48
1
60
0
100
AcDbLine
10
23.112649
20
6.72723
30
0
11
21.211272
21
6.726041
31
0
39
0
210
0
220
0
230
1
0
LINE
5
9F
100
AcDbEntity
8
1
62
256
6
ByLayer
370
18
48
1
60
0
100
AcDbLine
10
3.726695
20
6.715114
30
0
11
0.914336
21
6.713356
31
0
39
0
210
0
220
0
230
1
0
LINE
5
A0
100
AcDbEntity
8
SK4
62
256
6
ByLayer
370
18
48
0.05
60
0
100
AcDbLine
10
67
20
0
30
0
11
-50
21
0
31
0
39
0
210
0
220
0
230
1
0
LINE
5
A2
100
AcDbEntity
8
4
62
256
6
ByLayer
370
18
48
0.05
60
0
100
AcDbLine
10
-45
20
0
30
0
11
67
21
0
31
0
39
0
210
0
220
0
230
1
0
LINE
5
A4
100
AcDbEntity
8
80
62
256
6
ByLayer
370
18
48
1
60
0
100
AcDbLine
10
0
20
0
30
0
11
-6
21
0
31
0
39
0
210
0
220
0
230
1
0
LINE
5
A5
100
AcDbEntity
8
81
62
256
6
ByLayer
370
18
48
1
60
0
100
AcDbLine
10
62
20
0
30
0
11
68
21
0
31
0
39
0
210
0
220
0
230
1
0
LINE
5
A6
100
AcDbEntity
8
SK2
62
256
6
ByLayer
370
13
48
1
60
0
100
AcDbLine
10
62.542957
20
1.491762
30
0
11
69.926319
21
21.777376
31
0
39
0
210
0
220
0
230
1
0
LINE
5
A8
100
AcDbEntity
8
SK2
62
256
6
ByLayer
370
13
48
1
60
0
100
AcDbLine
10
62.542957
20
-1.491762
30
0
11
69.926319
21
-21.777376
31
0
39
0
210
0
220
0
230
1
0
LINE
5
A9
100
AcDbEntity
8
1
62
256
6
ByLayer
370
13
48
1
60
0
100
AcDbLine
10
68.840405
20
18.793852
30
0
11
71.936996
21
17.977479
31
0
39
0
210
0
220
0
230
1
0
LINE
5
AA
100
AcDbEntity
8
1
62
256
6
ByLayer
370
13
48
1
60
0
100
AcDbLine
10
68.840405
20
18.793852
30
0
11
71.620192
21
17.203838
31
0
39
0
210
0
220
0
230
1
0
LINE
5
AB
100
AcDbEntity
8
1
62
256
6
ByLayer
370
13
48
1
60
0
100
AcDbLine
10
71.936996
20
17.977479
30
0
11
71.620192
21
17.203838
31
0
39
0
210
0
220
0
230
1
0
LINE
5
AC
100
AcDbEntity
8
1
62
256
6
ByLayer
370
13
48
1
60
0
100
AcDbLine
10
68.840405
20
-18.793852
30
0
11
71.620189
21
-17.20384
31
0
39
0
210
0
220
0
230
1
0
LINE
5
AD
100
AcDbEntity
8
1
62
256
6
ByLayer
370
13
48
1
60
0
100
AcDbLine
10
68.840405
20
-18.793852
30
0
11
71.936998
21
-17.977478
31
0
39
0
210
0
220
0
230
1
0
LINE
5
AE
100
AcDbEntity
8
1
62
256
6
ByLayer
370
13
48
1
60
0
100
AcDbLine
10
71.620189
20
-17.20384
30
0
11
71.936998
21
-17.977478
31
0
39
0
210
0
220
0
230
1
0
MTEXT
5
100
100
AcDbEntity
8
SK2
62
256
6
ByLayer
370
18
48
1
60
0
100
AcDbMText
10
75.717388
20
-2.467451
30
0
210
0
220
0
230
1
1
\W0.7237;140.00
40
3.50012
41
0
44
1.084337
50
0
71
7
72
5
7
iso_b_vert
0
MTEXT
5
103
100
AcDbEntity
8
SK6
62
256
6
ByLayer
370
18
48
1
60
0
100
AcDbMText
10
-28.999407
20
-51.230847
30
0
210
0
220
0
230
1
1
\W0.7348;860.1-1350-038A1-GM X1BM
40
3.175
41
0
44
1.084337
50
0
71
7
72
5
7
iso_b_vert
0
DIMENSION
5
106
100
AcDbEntity
8
SK2
62
256
6
ByLayer
370
18
48
1
60
0
100
AcDbDimension
2
_U0
10
62
20
-30.50012
30
0
11
31
21
-30.50012
31
0
70
32
71
2
72
1
41
1
210
0
220
0
230
1
3
Standard
100
AcDbAlignedDimension
13
0
23
-7
33
0
14
62
24
0
34
0
50
0
100
AcDbRotatedDimension
1001
ACAD
1000
DSTYLE
1002
{
1070
   371
1070
    13
1070
   372
1070
    13
1070
     3
1000

1070
   170
1070
     0
1070
   144
1040
1.0
1070
   277
1070
     2
1070
   284
1070
     8
1070
   278
1070
    46
1070
   146
1040
0.999966
1070
   345
1005
16
1070
   347
1005
16
1070
   346
1005
16
1070
   344
1005
107
1070
   343
1005
107
1070
   172
1070
     1
1070
    76
1070
     0
1070
    75
1070
     0
1070
   282
1070
     0
1070
   281
1070
     0
1070
    71
1070
     0
1070
    74
1070
     0
1070
   279
1070
     0
1070
   173
1070
     1
1070
   340
1005
101
1070
   271
1070
     1
1070
   272
1070
     2
1070
    77
1070
     1
1070
    73
1070
     1
1070
   171
1070
     3
1070
   274
1070
     4
1070
   177
1070
   150
1070
   176
1070
     9
1070
   178
1070
    43
1070
    78
1070
     8
1070
    48
1040
-0.1
1070
    41
1040
3.175
1070
   147
1040
1.75006
1070
    42
1040
1.5875
1070
    44
1040
3.175
1070
   140
1040
3.50012
1002
}
1001
ACAD_DSTYLE_DIM_LINETYPE
1070
   380
1005
16
1001
ACAD_DSTYLE_DIM_EXT1_LINETYPE
1070
   381
1005
16
1001
ACAD_DSTYLE_DIM_EXT2_LINETYPE
1070
   382
1005
16
0
DIMENSION
5
12C
100
AcDbEntity
8
2
62
256
6
ByLayer
370
18
48
1
60
0
100
AcDbDimension
2
_U1
10
68.75006
20
6.75
30
0
11
68.75006
21
23.739948
31
0
70
32
71
1
72
1
41
1
210
0
220
0
230
1
3
Standard
100
AcDbAlignedDimension
13
59.5432
23
-6.75
33
0
14
59.5432
24
6.75
34
0
50
90
100
AcDbRotatedDimension
1001
ACAD
1000
DSTYLE
1002
{
1070
   371
1070
    13
1070
   372
1070
    13
1070
     3
1000

1070
   170
1070
     0
1070
   144
1040
1.0
1070
   277
1070
     2
1070
   284
1070
     8
1070
   278
1070
    46
1070
   146
1040
0.999966
1070
   345
1005
16
1070
   347
1005
16
1070
   346
1005
16
1070
   344
1005
107
1070
   343
1005
107
1070
   172
1070
     1
1070
    76
1070
     0
1070
    75
1070
     0
1070
   282
1070
     0
1070
   281
1070
     0
1070
    71
1070
     0
1070
    74
1070
     0
1070
   279
1070
     0
1070
   173
1070
     1
1070
   340
1005
101
1070
   271
1070
     1
1070
   272
1070
     2
1070
    77
1070
     1
1070
    73
1070
     0
1070
   171
1070
     3
1070
   274
1070
     4
1070
   177
1070
   150
1070
   176
1070
     9
1070
   178
1070
    43
1070
    78
1070
     8
1070
    48
1040
-0.1
1070
    41
1040
3.175
1070
   147
1040
1.75006
1070
    42
1040
1.5875
1070
    44
1040
3.175
1070
   140
1040
3.50012
1002
}
1001
ACAD_DSTYLE_DIM_LINETYPE
1070
   380
1005
16
1001
ACAD_DSTYLE_DIM_EXT1_LINETYPE
1070
   381
1005
16
1001
ACAD_DSTYLE_DIM_EXT2_LINETYPE
1070
   382
1005
16
0
DIMENSION
5
14B
100
AcDbEntity
8
SK2
62
256
6
ByLayer
370
18
48
1
60
0
100
AcDbDimension
2
_U2
10
-48.24994
20
-7
30
0
11
-48.24994
21
22.161943
31
0
70
32
71
1
72
1
41
1
210
0
220
0
230
1
3
Standard
100
AcDbAlignedDimension
13
-45
23
7
33
0
14
-45
24
-7
34
0
50
90
100
AcDbRotatedDimension
1001
ACAD
1000
DSTYLE
1002
{
1070
   371
1070
    13
1070
   372
1070
    13
1070
     3
1000

1070
   170
1070
     0
1070
   144
1040
1.0
1070
   277
1070
     2
1070
   284
1070
     8
1070
   278
1070
    46
1070
   146
1040
0.999966
1070
   345
1005
16
1070
   347
1005
16
1070
   346
1005
16
1070
   344
1005
107
1070
   343
1005
107
1070
   172
1070
     1
1070
    76
1070
     0
1070
    75
1070
     0
1070
   282
1070
     0
1070
   281
1070
     0
1070
    71
1070
     0
1070
    74
1070
     0
1070
   279
1070
     0
1070
   173
1070
     1
1070
   340
1005
101
1070
   271
1070
     1
1070
   272
1070
     2
1070
    77
1070
     1
1070
    73
1070
     0
1070
   171
1070
     3
1070
   274
1070
     4
1070
   177
1070
   150
1070
   176
1070
     9
1070
   178
1070
    43
1070
    78
1070
     8
1070
    48
1040
-0.1
1070
    41
1040
3.175
1070
   147
1040
1.75006
1070
    42
1040
1.5875
1070
    44
1040
3.175
1070
   140
1040
3.50012
1002
}
1001
ACAD_DSTYLE_DIM_LINETYPE
1070
   380
1005
16
1001
ACAD_DSTYLE_DIM_EXT1_LINETYPE
1070
   381
1005
16
1001
ACAD_DSTYLE_DIM_EXT2_LINETYPE
1070
   382
1005
16
0
DIMENSION
5
169
100
AcDbEntity
8
SK2
62
256
6
ByLayer
370
18
48
1
60
0
100
AcDbDimension
2
_U3
10
0
20
-30.50012
30
0
11
-22.5
21
-30.50012
31
0
70
32
71
1
72
1
41
1
210
0
220
0
230
1
3
Standard
100
AcDbAlignedDimension
13
-45
23
-7
33
0
14
0
24
-7
34
0
50
0
100
AcDbRotatedDimension
1001
ACAD
1000
DSTYLE
1002
{
1070
   371
1070
    13
1070
   372
1070
    13
1070
     3
1000

1070
   170
1070
     0
1070
   144
1040
1.0
1070
   277
1070
     2
1070
   284
1070
     8
1070
   278
1070
    46
1070
   146
1040
0.999966
1070
   345
1005
16
1070
   347
1005
16
1070
   346
1005
16
1070
   344
1005
107
1070
   343
1005
107
1070
   172
1070
     1
1070
    76
1070
     0
1070
    75
1070
     0
1070
   282
1070
     0
1070
   281
1070
     0
1070
    71
1070
     0
1070
    74
1070
     0
1070
   279
1070
     0
1070
   173
1070
     1
1070
   340
1005
101
1070
   271
1070
     1
1070
   272
1070
     2
1070
    77
1070
     1
1070
    73
1070
     1
1070
   171
1070
     3
1070
   274
1070
     4
1070
   177
1070
   150
1070
   176
1070
     9
1070
   178
1070
    43
1070
    78
1070
     8
1070
    48
1040
-0.1
1070
    41
1040
3.175
1070
   147
1040
1.75006
1070
    42
1040
1.5875
1070
    44
1040
3.175
1070
   140
1040
3.50012
1002
}
1001
ACAD_DSTYLE_DIM_LINETYPE
1070
   380
1005
16
1001
ACAD_DSTYLE_DIM_EXT1_LINETYPE
1070
   381
1005
16
1001
ACAD_DSTYLE_DIM_EXT2_LINETYPE
1070
   382
1005
16
0
DIMENSION
5
185
100
AcDbEntity
8
SK2
62
256
6
ByLayer
370
18
48
1
60
0
100
AcDbDimension
2
_U4
10
62
20
-21.74982
30
0
11
32
21
-21.74982
31
0
70
32
71
1
72
1
41
1
210
0
220
0
230
1
3
Standard
100
AcDbAlignedDimension
13
2
23
7.25
33
0
14
62
24
0
34
0
50
0
100
AcDbRotatedDimension
1001
ACAD
1000
DSTYLE
1002
{
1070
   371
1070
    13
1070
   372
1070
    13
1070
     3
1000

1070
   170
1070
     0
1070
   144
1040
1.0
1070
   277
1070
     2
1070
   284
1070
     8
1070
   278
1070
    46
1070
   146
1040
0.999966
1070
   345
1005
16
1070
   347
1005
16
1070
   346
1005
16
1070
   344
1005
107
1070
   343
1005
107
1070
   172
1070
     1
1070
    76
1070
     0
1070
    75
1070
     0
1070
   282
1070
     0
1070
   281
1070
     0
1070
    71
1070
     0
1070
    74
1070
     0
1070
   279
1070
     0
1070
   173
1070
     1
1070
   340
1005
101
1070
   271
1070
     1
1070
   272
1070
     2
1070
    77
1070
     1
1070
    73
1070
     1
1070
   171
1070
     3
1070
   274
1070
     4
1070
   177
1070
   150
1070
   176
1070
     9
1070
   178
1070
    43
1070
    78
1070
     8
1070
    48
1040
-0.1
1070
    41
1040
3.175
1070
   147
1040
1.75006
1070
    42
1040
1.5875
1070
    44
1040
3.175
1070
   140
1040
3.50012
1002
}
1001
ACAD_DSTYLE_DIM_LINETYPE
1070
   380
1005
16
1001
ACAD_DSTYLE_DIM_EXT1_LINETYPE
1070
   381
1005
16
1001
ACAD_DSTYLE_DIM_EXT2_LINETYPE
1070
   382
1005
16
0
DIMENSION
5
1A1
100
AcDbEntity
8
SK2
62
256
6
ByLayer
370
18
48
1
60
0
100
AcDbDimension
2
_U5
10
62
20
-13.82
30
0
11
40.5
21
-13.82
31
0
70
32
71
1
72
1
41
1
210
0
220
0
230
1
3
Standard
100
AcDbAlignedDimension
13
19
23
-6.75
33
0
14
62
24
0
34
0
50
0
100
AcDbRotatedDimension
1001
ACAD
1000
DSTYLE
1002
{
1070
   371
1070
    13
1070
   372
1070
    13
1070
     3
1000

1070
   170
1070
     0
1070
   144
1040
1.0
1070
   277
1070
     2
1070
   284
1070
     8
1070
   278
1070
    46
1070
   146
1040
1.25
1070
   345
1005
16
1070
   347
1005
16
1070
   346
1005
16
1070
   344
1005
107
1070
   343
1005
107
1070
   172
1070
     1
1070
    76
1070
     0
1070
    75
1070
     0
1070
   282
1070
     0
1070
   281
1070
     0
1070
    71
1070
     0
1070
    74
1070
     0
1070
   279
1070
     0
1070
   173
1070
     1
1070
   340
1005
101
1070
   271
1070
     1
1070
   272
1070
     2
1070
    77
1070
     1
1070
    73
1070
     1
1070
   171
1070
     3
1070
   274
1070
     4
1070
   177
1070
   150
1070
   176
1070
     9
1070
   178
1070
    43
1070
    78
1070
     8
1070
    48
1040
-0.1
1070
    41
1040
3.175
1070
   147
1040
0.42
1070
    42
1040
1.5875
1070
    44
1040
0.5
1070
   140
1040
2.8
1002
}
1001
ACAD_DSTYLE_DIM_LINETYPE
1070
   380
1005
16
1001
ACAD_DSTYLE_DIM_EXT1_LINETYPE
1070
   381
1005
16
1001
ACAD_DSTYLE_DIM_EXT2_LINETYPE
1070
   382
1005
16
0
DIMENSION
5
1BD
100
AcDbEntity
8
SK2
62
256
6
ByLayer
370
18
48
1
60
0
100
AcDbDimension
2
_U6
10
62
20
-40.50012
30
0
11
8.5
21
-40.50012
31
0
70
32
71
1
72
1
41
1
210
0
220
0
230
1
3
Standard
100
AcDbAlignedDimension
13
-45
23
0
33
0
14
62
24
0
34
0
50
0
100
AcDbRotatedDimension
1001
ACAD
1000
DSTYLE
1002
{
1070
   371
1070
    13
1070
   372
1070
    13
1070
     3
1000

1070
   170
1070
     0
1070
   144
1040
1.0
1070
   277
1070
     2
1070
   284
1070
     8
1070
   278
1070
    46
1070
   146
1040
0.999966
1070
   345
1005
16
1070
   347
1005
16
1070
   346
1005
16
1070
   344
1005
107
1070
   343
1005
107
1070
   172
1070
     1
1070
    76
1070
     0
1070
    75
1070
     0
1070
   282
1070
     0
1070
   281
1070
     0
1070
    71
1070
     0
1070
    74
1070
     0
1070
   279
1070
     0
1070
   173
1070
     1
1070
   340
1005
101
1070
   271
1070
     1
1070
   272
1070
     2
1070
    77
1070
     1
1070
    73
1070
     1
1070
   171
1070
     3
1070
   274
1070
     4
1070
   177
1070
   150
1070
   176
1070
     9
1070
   178
1070
    43
1070
    78
1070
     8
1070
    48
1040
-0.1
1070
    41
1040
3.175
1070
   147
1040
1.75006
1070
    42
1040
1.5875
1070
    44
1040
3.175
1070
   140
1040
3.50012
1002
}
1001
ACAD_DSTYLE_DIM_LINETYPE
1070
   380
1005
16
1001
ACAD_DSTYLE_DIM_EXT1_LINETYPE
1070
   381
1005
16
1001
ACAD_DSTYLE_DIM_EXT2_LINETYPE
1070
   382
1005
16
0
ENDSEC
0
SECTION
2
OBJECTS
0
DICTIONARY
5
249
330
0
100
AcDbDictionary
280
0
281
1
3
ACAD_GROUP
350
24a
3
ACAD_MLINESTYLE
350
24b
0
DICTIONARY
5
24a
330
0
100
AcDbDictionary
280
0
281
1
0
DICTIONARY
5
24b
330
0
100
AcDbDictionary
280
0
281
1
3
Standard
350
18
0
MLINESTYLE
5
18
330
24b
100
AcDbMlineStyle
2
Standard
70
0
3

62
256
51
90
52
90
71
2
49
-0.5
62
256
6
ByLayer
49
0.5
62
256
6
ByLayer
0
RASTERVARIABLES
5
237
330

100
AcDbRasterVariables
90
0
70
1
71
1
72
1
0
ENDSEC
0
EOF
