0
SECTION
2
HEADER
9
$ACADVER
1
AC1015
9
$DWGCODEPAGE
3
ANSI_1252
9
$HANDSEED
5
256
9
$ANGBASE
50
0
9
$ANGDIR
70
0
9
$ATTMODE
70
1
9
$AUNITS
70
0
9
$AUPREC
70
0
9
$CECOLOR
62
256
9
$CELTSCALE
40
1
9
$CELTYPE
6
ByLayer
9
$CELWEIGHT
370
18
9
$CLAYER
8
0
9
$CMLJUST
70
0
9
$CMLSCALE
40
1
9
$CMLSTYLE
2
Standard
9
$DIMSTYLE
2
Standard
9
$TEXTSIZE
40
0.2
9
$TEXTSTYLE
7
Standard
9
$LUNITS
70
2
9
$LUPREC
70
4
9
$EXTNAMES
290
1
9
$INSUNITS
70
4
9
$LTSCALE
40
1
9
$LWDISPLAY
290
1
9
$PDMODE
70
0
9
$PDSIZE
40
0
9
$PLINEGEN
70
0
0
ENDSEC
0
SECTION
2
CLASSES
0
CLASS
1
RASTERVARIABLES
2
AcDbRasterVariables
3
ISM
90
0
280
0
281
0
0
ENDSEC
0
SECTION
2
TABLES
0
TABLE
2
VPORT
5
24c
100
AcDbSymbolTable
0
VPORT
5
1
100
AcDbSymbolTableRecord
100
AcDbViewportTableRecord
2
*Active
70
0
10
0
20
0
11
1
21
1
12
-1
22
1
13
0
23
0
14
0.5
24
0.5
15
10
25
10
16
0
26
0
36
1
17
0
27
0
37
0
0
ENDTAB
0
TABLE
2
LTYPE
5
24d
100
AcDbSymbolTable
0
LTYPE
5
14
100
AcDbSymbolTableRecord
100
AcDbLinetypeTableRecord
70
0
2
ByBlock
3

72
65
73
0
40
0
0
LTYPE
5
15
100
AcDbSymbolTableRecord
100
AcDbLinetypeTableRecord
70
0
2
ByLayer
3

72
65
73
0
40
0
0
LTYPE
5
16
100
AcDbSymbolTableRecord
100
AcDbLinetypeTableRecord
70
0
2
Continuous
3
Solid line
72
65
73
0
40
0
0
LTYPE
5
6E
100
AcDbSymbolTableRecord
100
AcDbLinetypeTableRecord
70
0
2
CENTER
3
____ _ ____ _ ____ _ ____
72
65
73
4
40
47.5
49
22
74
0
49
-8.5
74
0
49
8.5
74
0
49
-8.5
74
0
0
LTYPE
5
6F
100
AcDbSymbolTableRecord
100
AcDbLinetypeTableRecord
70
0
2
DASHED
3
__ __ __ __ __ __ __ __ __
72
65
73
2
40
25.72
49
12.86
74
0
49
-12.86
74
0
0
ENDTAB
0
TABLE
2
LAYER
5
24e
100
AcDbSymbolTable
0
LAYER
5
10
100
AcDbSymbolTableRecord
100
AcDbLayerTableRecord
2
0
70
0
62
7
6
Continuous
290
1
370
-3
390
0
0
LAYER
5
71
100
AcDbSymbolTableRecord
100
AcDbLayerTableRecord
2
80
70
0
62
-6
6
Continuous
290
1
370
-3
390
0
0
LAYER
5
73
100
AcDbSymbolTableRecord
100
AcDbLayerTableRecord
2
81
70
0
62
-3
6
Continuous
290
1
370
-3
390
0
0
LAYER
5
75
100
AcDbSymbolTableRecord
100
AcDbLayerTableRecord
2
1
70
0
62
4
6
Continuous
290
1
370
-3
390
0
0
LAYER
5
A6
100
AcDbSymbolTableRecord
100
AcDbLayerTableRecord
2
4
70
0
62
-2
6
CENTER
290
1
370
-3
390
0
0
LAYER
5
110
100
AcDbSymbolTableRecord
100
AcDbLayerTableRecord
2
Defpoints
70
0
62
7
6
Continuous
290
0
370
-3
390
0
0
LAYER
5
13D
100
AcDbSymbolTableRecord
100
AcDbLayerTableRecord
2
2
70
0
62
7
6
Continuous
290
1
370
-3
390
0
0
LAYER
5
238
100
AcDbSymbolTableRecord
100
AcDbLayerTableRecord
2
SK1
70
0
62
4
6
Continuous
290
1
370
-3
390
0
0
LAYER
5
239
100
AcDbSymbolTableRecord
100
AcDbLayerTableRecord
2
SK4
70
0
62
2
6
CENTER
290
1
370
-3
390
0
0
LAYER
5
23a
100
AcDbSymbolTableRecord
100
AcDbLayerTableRecord
2
SK2
70
0
62
7
6
Continuous
290
1
370
-3
390
0
0
LAYER
5
23b
100
AcDbSymbolTableRecord
100
AcDbLayerTableRecord
2
SK6
70
0
62
5
6
Continuous
290
1
370
-3
390
0
0
ENDTAB
0
TABLE
2
STYLE
5
24f
100
AcDbSymbolTable
0
STYLE
5
11
100
AcDbSymbolTableRecord
100
AcDbTextStyleTableRecord
2
Standard
3
txt
70
0
71
0
40
0
41
1
42
0
50
0
0
STYLE
5
101
100
AcDbSymbolTableRecord
100
AcDbTextStyleTableRecord
2
iso_b_vert
3
simplex.shx
70
0
71
0
40
0
41
1
42
0
50
0
0
STYLE
5
102
100
AcDbSymbolTableRecord
100
AcDbTextStyleTableRecord
2
DWGDirectTextStyle
3
simplex
70
0
71
0
40
0
41
1
42
0
50
0
0
ENDTAB
0
TABLE
2
DIMSTYLE
5
250
100
AcDbSymbolTable
100
AcDbDimStyleTable
0
DIMSTYLE
105
27
100
AcDbSymbolTableRecord
100
AcDbDimStyleTableRecord
2
Standard
70
0
3
<>
41
0.18
42
0.0625
44
0.18
140
0.18
147
0.09
73
0
74
0
77
1
271
2
275
0
278
52
280
0
340
11
0
ENDTAB
0
TABLE
2
VIEW
5
251
100
AcDbSymbolTable
0
ENDTAB
0
TABLE
2
UCS
5
252
100
AcDbSymbolTable
0
ENDTAB
0
TABLE
2
APPID
5
253
100
AcDbSymbolTable
0
APPID
5
12
100
AcDbSymbolTableRecord
100
AcDbRegAppTableRecord
2
ACAD
70
0
0
APPID
5
105
100
AcDbSymbolTableRecord
100
AcDbRegAppTableRecord
2
ACAD_DSTYLE_DIMBREAK
70
0
0
APPID
5
1F7
100
AcDbSymbolTableRecord
100
AcDbRegAppTableRecord
2
ACAD_DSTYLE_DIM_LINETYPE
70
0
0
APPID
5
1F8
100
AcDbSymbolTableRecord
100
AcDbRegAppTableRecord
2
ACAD_DSTYLE_DIM_EXT1_LINETYPE
70
0
0
APPID
5
1F9
100
AcDbSymbolTableRecord
100
AcDbRegAppTableRecord
2
ACAD_DSTYLE_DIM_EXT2_LINETYPE
70
0
0
APPID
5
234
100
AcDbSymbolTableRecord
100
AcDbRegAppTableRecord
2
ACAD_MLEADERVER
70
0
0
ENDTAB
0
TABLE
2
BLOCK_RECORD
5
254
100
AcDbSymbolTable
0
BLOCK_RECORD
5
1F
100
AcDbSymbolTableRecord
100
AcDbBlockTableRecord
2
*Model_Space
340
0
70
0
0
BLOCK_RECORD
5
1B
100
AcDbSymbolTableRecord
100
AcDbBlockTableRecord
2
*Paper_Space
340
0
70
0
0
BLOCK_RECORD
5
23
100
AcDbSymbolTableRecord
100
AcDbBlockTableRecord
2
*Paper_Space0
340
0
70
0
0
BLOCK_RECORD
5
107
100
AcDbSymbolTableRecord
100
AcDbBlockTableRecord
2
_Closed
340
0
70
0
0
BLOCK_RECORD
5
111
100
AcDbSymbolTableRecord
100
AcDbBlockTableRecord
2
*D2
340
0
70
0
0
BLOCK_RECORD
5
11D
100
AcDbSymbolTableRecord
100
AcDbBlockTableRecord
2
_U0
340
0
70
0
0
BLOCK_RECORD
5
12F
100
AcDbSymbolTableRecord
100
AcDbBlockTableRecord
2
*D4
340
0
70
0
0
BLOCK_RECORD
5
13E
100
AcDbSymbolTableRecord
100
AcDbBlockTableRecord
2
_U1
340
0
70
0
0
BLOCK_RECORD
5
14E
100
AcDbSymbolTableRecord
100
AcDbBlockTableRecord
2
*D6
340
0
70
0
0
BLOCK_RECORD
5
15C
100
AcDbSymbolTableRecord
100
AcDbBlockTableRecord
2
_U2
340
0
70
0
0
BLOCK_RECORD
5
16C
100
AcDbSymbolTableRecord
100
AcDbBlockTableRecord
2
*D8
340
0
70
0
0
BLOCK_RECORD
5
178
100
AcDbSymbolTableRecord
100
AcDbBlockTableRecord
2
_U3
340
0
70
0
0
BLOCK_RECORD
5
188
100
AcDbSymbolTableRecord
100
AcDbBlockTableRecord
2
*D10
340
0
70
0
0
BLOCK_RECORD
5
194
100
AcDbSymbolTableRecord
100
AcDbBlockTableRecord
2
_U4
340
0
70
0
0
BLOCK_RECORD
5
1A4
100
AcDbSymbolTableRecord
100
AcDbBlockTableRecord
2
*D12
340
0
70
0
0
BLOCK_RECORD
5
1B0
100
AcDbSymbolTableRecord
100
AcDbBlockTableRecord
2
_U5
340
0
70
0
0
BLOCK_RECORD
5
1C0
100
AcDbSymbolTableRecord
100
AcDbBlockTableRecord
2
*D14
340
0
70
0
0
BLOCK_RECORD
5
1CC
100
AcDbSymbolTableRecord
100
AcDbBlockTableRecord
2
_U6
340
0
70
0
0
ENDTAB
0
ENDSEC
0
SECTION
2
BLOCKS
0
BLOCK
5
20
100
AcDbEntity
8
0
100
AcDbBlockBegin
2
*Model_Space
70
0
10
0
20
0
30
0
3
*Model_Space
0
ENDBLK
5
21
100
AcDbEntity
8
0
100
AcDbBlockEnd
0
BLOCK
5
1C
100
AcDbEntity
8
0
100
AcDbBlockBegin
2
*Paper_Space
70
0
10
0
20
0
30
0
3
*Paper_Space
0
ENDBLK
5
1D
100
AcDbEntity
8
0
100
AcDbBlockEnd
0
BLOCK
5
24
100
AcDbEntity
8
0
100
AcDbBlockBegin
2
*Paper_Space0
70
0
10
0
20
0
30
0
3
*Paper_Space0
0
ENDBLK
5
25
100
AcDbEntity
8
0
100
AcDbBlockEnd
0
BLOCK
5
108
100
AcDbEntity
8
0
100
AcDbBlockBegin
2
_Closed
70
0
10
0
20
0
30
0
3
_Closed
0
LINE
5
10A
100
AcDbEntity
8
0
62
256
6
ByLayer
370
-2
48
1
60
0
100
AcDbLine
10
-1
20
0.166667
30
0
11
0
21
0
31
0
39
0
210
0
220
0
230
1
0
LINE
5
10B
100
AcDbEntity
8
0
62
256
6
ByLayer
370
-2
48
1
60
0
100
AcDbLine
10
0
20
0
30
0
11
-1
21
-0.166667
31
0
39
0
210
0
220
0
230
1
0
LINE
5
10C
100
AcDbEntity
8
0
62
256
6
ByLayer
370
-2
48
1
60
0
100
AcDbLine
10
-1
20
0.166667
30
0
11
-1
21
-0.166667
31
0
39
0
210
0
220
0
230
1
0
LINE
5
10D
100
AcDbEntity
8
0
62
256
6
ByLayer
370
-2
48
1
60
0
100
AcDbLine
10
0
20
0
30
0
11
-1
21
0
31
0
39
0
210
0
220
0
230
1
0
ENDBLK
5
109
100
AcDbEntity
8
0
100
AcDbBlockEnd
0
BLOCK
5
112
100
AcDbEntity
8
0
100
AcDbBlockBegin
2
*D2
70
1
10
0
20
0
30
0
3
*D2
0
LINE
5
114
100
AcDbEntity
8
0
62
256
6
ByLayer
370
-2
48
1
60
0
100
AcDbLine
10
0
20
-7.5875
30
0
11
0
21
-32.67512
31
0
39
0
210
0
220
0
230
1
0
LINE
5
115
100
AcDbEntity
8
0
62
256
6
ByLayer
370
-2
48
1
60
0
100
AcDbLine
10
57
20
-1.5875
30
0
11
57
21
-32.67512
31
0
39
0
210
0
220
0
230
1
0
LINE
5
116
100
AcDbEntity
8
0
62
256
6
ByLayer
370
-2
48
1
60
0
100
AcDbLine
10
3.175
20
-29.50012
30
0
11
53.825
21
-29.50012
31
0
39
0
210
0
220
0
230
1
0
SOLID
5
117
100
AcDbEntity
8
0
62
256
6
ByLayer
370
-1
48
1
60
0
100
AcDbTrace
10
3.175
20
-28.970953
30
0
11
3.175
21
-30.029287
31
0
12
0
22
-29.50012
32
0
13
0
23
-29.50012
33
0
39
0
210
0
220
0
230
1
0
SOLID
5
118
100
AcDbEntity
8
0
62
256
6
ByLayer
370
-1
48
1
60
0
100
AcDbTrace
10
53.825
20
-30.029287
30
0
11
53.825
21
-28.970953
31
0
12
57
22
-29.50012
32
0
13
57
23
-29.50012
33
0
39
0
210
0
220
0
230
1
0
MTEXT
5
119
100
AcDbEntity
8
0
62
256
6
ByLayer
370
18
48
1
60
0
100
AcDbMText
10
28.5
20
-22.193619
30
0
210
0
220
0
230
1
1
\A1;57
40
3.50012
41
0
44
1
50
0
71
5
72
5
7
iso_b_vert
0
POINT
5
11A
100
AcDbEntity
8
Defpoints
62
0
6
ByLayer
370
-1
48
1
60
0
100
AcDbPoint
10
0
20
-6
30
0
39
0
210
0
220
0
230
1
50
360
0
POINT
5
11B
100
AcDbEntity
8
Defpoints
62
0
6
ByLayer
370
-1
48
1
60
0
100
AcDbPoint
10
57
20
0
30
0
39
0
210
0
220
0
230
1
50
360
0
POINT
5
11C
100
AcDbEntity
8
Defpoints
62
0
6
ByLayer
370
-1
48
1
60
0
100
AcDbPoint
10
57
20
-29.50012
30
0
39
0
210
0
220
0
230
1
50
360
0
ENDBLK
5
113
100
AcDbEntity
8
0
100
AcDbBlockEnd
0
BLOCK
5
12A
100
AcDbEntity
8
0
100
AcDbBlockBegin
2
_U0
70
0
10
0
20
0
30
0
3
_U0
0
MTEXT
5
11E
100
AcDbEntity
8
SK2
62
256
6
ByLayer
370
18
48
1
60
0
100
AcDbMText
10
23.270389
20
-28.467451
30
0
210
0
220
0
230
1
1
\W0.7468;57.00
40
3.50012
41
0
44
1.084337
50
0
71
7
72
5
7
iso_b_vert
0
MTEXT
5
11F
100
AcDbEntity
8
SK2
62
256
6
ByLayer
370
18
48
1
60
0
100
AcDbMText
10
19.744329
20
-28.400814
30
0
210
0
220
0
230
1
1
\W0.1790;(
40
3.175
41
0
44
1.084337
50
0
71
7
72
5
7
iso_b_vert
0
MTEXT
5
120
100
AcDbEntity
8
SK2
62
256
6
ByLayer
370
18
48
1
60
0
100
AcDbMText
10
37.258393
20
-28.400814
30
0
210
0
220
0
230
1
1
\W0.1969;)
40
3.175
41
0
44
1.084337
50
0
71
7
72
5
7
iso_b_vert
0
LINE
5
121
100
AcDbEntity
8
SK2
62
256
6
ByLayer
370
13
48
1
60
0
100
AcDbLine
10
0
20
-7.5875
30
0
11
0
21
-32.67512
31
0
39
0
210
0
220
0
230
1
0
LINE
5
122
100
AcDbEntity
8
SK2
62
256
6
ByLayer
370
13
48
1
60
0
100
AcDbLine
10
57
20
-1.5875
30
0
11
57
21
-32.67512
31
0
39
0
210
0
220
0
230
1
0
LINE
5
123
100
AcDbEntity
8
SK2
62
256
6
ByLayer
370
13
48
1
60
0
100
AcDbLine
10
0
20
-29.50012
30
0
11
57
21
-29.50012
31
0
39
0
210
0
220
0
230
1
0
LINE
5
124
100
AcDbEntity
8
SK2
62
256
6
ByLayer
370
13
48
1
60
0
100
AcDbLine
10
0
20
-29.50012
30
0
11
3.174998
21
-29.082123
31
0
39
0
210
0
220
0
230
1
0
LINE
5
125
100
AcDbEntity
8
SK2
62
256
6
ByLayer
370
13
48
1
60
0
100
AcDbLine
10
0
20
-29.50012
30
0
11
3.175002
21
-29.918117
31
0
39
0
210
0
220
0
230
1
0
LINE
5
126
100
AcDbEntity
8
SK2
62
256
6
ByLayer
370
13
48
1
60
0
100
AcDbLine
10
3.174998
20
-29.082123
30
0
11
3.175002
21
-29.918117
31
0
39
0
210
0
220
0
230
1
0
LINE
5
127
100
AcDbEntity
8
SK2
62
256
6
ByLayer
370
13
48
1
60
0
100
AcDbLine
10
57
20
-29.50012
30
0
11
53.825002
21
-29.918117
31
0
39
0
210
0
220
0
230
1
0
LINE
5
128
100
AcDbEntity
8
SK2
62
256
6
ByLayer
370
13
48
1
60
0
100
AcDbLine
10
57
20
-29.50012
30
0
11
53.824998
21
-29.082123
31
0
39
0
210
0
220
0
230
1
0
LINE
5
129
100
AcDbEntity
8
SK2
62
256
6
ByLayer
370
13
48
1
60
0
100
AcDbLine
10
53.825002
20
-29.918117
30
0
11
53.824998
21
-29.082123
31
0
39
0
210
0
220
0
230
1
0
ENDBLK
5
12B
100
AcDbEntity
8
0
100
AcDbBlockEnd
0
BLOCK
5
130
100
AcDbEntity
8
0
100
AcDbBlockBegin
2
*D4
70
1
10
0
20
0
30
0
3
*D4
0
LINE
5
132
100
AcDbEntity
8
0
62
256
6
ByLayer
370
-2
48
1
60
0
100
AcDbLine
10
56.6585
20
-5.3
30
0
11
66.92506
21
-5.3
31
0
39
0
210
0
220
0
230
1
0
LINE
5
133
100
AcDbEntity
8
0
62
256
6
ByLayer
370
-2
48
1
60
0
100
AcDbLine
10
56.6585
20
5.3
30
0
11
66.92506
21
5.3
31
0
39
0
210
0
220
0
230
1
0
LINE
5
134
100
AcDbEntity
8
0
62
256
6
ByLayer
370
-2
48
1
60
0
100
AcDbLine
10
63.75006
20
5.3
30
0
11
63.75006
21
32.929896
31
0
39
0
210
0
220
0
230
1
0
LINE
5
135
100
AcDbEntity
8
0
62
256
6
ByLayer
370
-2
48
1
60
0
100
AcDbLine
10
63.75006
20
-8.475
30
0
11
63.75006
21
-11.65
31
0
39
0
210
0
220
0
230
1
0
LINE
5
136
100
AcDbEntity
8
0
62
256
6
ByLayer
370
-2
48
1
60
0
100
AcDbLine
10
63.75006
20
8.475
30
0
11
63.75006
21
11.65
31
0
39
0
210
0
220
0
230
1
0
SOLID
5
137
100
AcDbEntity
8
0
62
256
6
ByLayer
370
-1
48
1
60
0
100
AcDbTrace
10
64.279227
20
-8.475
30
0
11
63.220893
21
-8.475
31
0
12
63.75006
22
-5.3
32
0
13
63.75006
23
-5.3
33
0
39
0
210
0
220
0
230
1
0
SOLID
5
138
100
AcDbEntity
8
0
62
256
6
ByLayer
370
-1
48
1
60
0
100
AcDbTrace
10
63.220893
20
8.475
30
0
11
64.279227
21
8.475
31
0
12
63.75006
22
5.3
32
0
13
63.75006
23
5.3
33
0
39
0
210
0
220
0
230
1
0
MTEXT
5
139
100
AcDbEntity
8
0
62
256
6
ByLayer
370
18
48
1
60
0
100
AcDbMText
10
56.443559
20
22.289948
30
0
210
0
220
0
230
1
1
\A1;10.6
40
3.50012
41
0
44
1
50
90
71
5
72
5
7
iso_b_vert
0
POINT
5
13A
100
AcDbEntity
8
Defpoints
62
0
6
ByLayer
370
-1
48
1
60
0
100
AcDbPoint
10
55.071
20
-5.3
30
0
39
0
210
0
220
0
230
1
50
360
0
POINT
5
13B
100
AcDbEntity
8
Defpoints
62
0
6
ByLayer
370
-1
48
1
60
0
100
AcDbPoint
10
55.071
20
5.3
30
0
39
0
210
0
220
0
230
1
50
360
0
POINT
5
13C
100
AcDbEntity
8
Defpoints
62
0
6
ByLayer
370
-1
48
1
60
0
100
AcDbPoint
10
63.75006
20
5.3
30
0
39
0
210
0
220
0
230
1
50
360
0
ENDBLK
5
131
100
AcDbEntity
8
0
100
AcDbBlockEnd
0
BLOCK
5
149
100
AcDbEntity
8
0
100
AcDbBlockBegin
2
_U1
70
0
10
0
20
0
30
0
3
_U1
0
MTEXT
5
13F
100
AcDbEntity
8
2
62
256
6
ByLayer
370
18
48
1
60
0
100
AcDbMText
10
63.060403
20
9.457505
30
0
210
0
220
0
230
1
1
\W0.6864;10.60
40
3.50012
41
0
44
1.084337
50
90
71
7
72
5
7
iso_b_vert
0
LINE
5
140
100
AcDbEntity
8
2
62
256
6
ByLayer
370
13
48
1
60
0
100
AcDbLine
10
56.6585
20
-5.3
30
0
11
66.92506
21
-5.3
31
0
39
0
210
0
220
0
230
1
0
LINE
5
141
100
AcDbEntity
8
2
62
256
6
ByLayer
370
13
48
1
60
0
100
AcDbLine
10
56.6585
20
5.3
30
0
11
66.92506
21
5.3
31
0
39
0
210
0
220
0
230
1
0
LINE
5
142
100
AcDbEntity
8
2
62
256
6
ByLayer
370
13
48
1
60
0
100
AcDbLine
10
63.75006
20
-5.3
30
0
11
63.75006
21
19.255339
31
0
39
0
210
0
220
0
230
1
0
LINE
5
143
100
AcDbEntity
8
2
62
256
6
ByLayer
370
13
48
1
60
0
100
AcDbLine
10
63.75006
20
-5.3
30
0
11
63.332063
21
-2.125002
31
0
39
0
210
0
220
0
230
1
0
LINE
5
144
100
AcDbEntity
8
2
62
256
6
ByLayer
370
13
48
1
60
0
100
AcDbLine
10
63.75006
20
-5.3
30
0
11
64.168057
21
-2.124998
31
0
39
0
210
0
220
0
230
1
0
LINE
5
145
100
AcDbEntity
8
2
62
256
6
ByLayer
370
13
48
1
60
0
100
AcDbLine
10
63.332063
20
-2.125002
30
0
11
64.168057
21
-2.124998
31
0
39
0
210
0
220
0
230
1
0
LINE
5
146
100
AcDbEntity
8
2
62
256
6
ByLayer
370
13
48
1
60
0
100
AcDbLine
10
63.75006
20
5.3
30
0
11
64.168057
21
2.125002
31
0
39
0
210
0
220
0
230
1
0
LINE
5
147
100
AcDbEntity
8
2
62
256
6
ByLayer
370
13
48
1
60
0
100
AcDbLine
10
63.75006
20
5.3
30
0
11
63.332063
21
2.124998
31
0
39
0
210
0
220
0
230
1
0
LINE
5
148
100
AcDbEntity
8
2
62
256
6
ByLayer
370
13
48
1
60
0
100
AcDbLine
10
64.168057
20
2.125002
30
0
11
63.332063
21
2.124998
31
0
39
0
210
0
220
0
230
1
0
ENDBLK
5
14A
100
AcDbEntity
8
0
100
AcDbBlockEnd
0
BLOCK
5
14F
100
AcDbEntity
8
0
100
AcDbBlockBegin
2
*D6
70
1
10
0
20
0
30
0
3
*D6
0
LINE
5
151
100
AcDbEntity
8
0
62
256
6
ByLayer
370
-2
48
1
60
0
100
AcDbLine
10
-46.5875
20
6
30
0
11
-51.42494
21
6
31
0
39
0
210
0
220
0
230
1
0
LINE
5
152
100
AcDbEntity
8
0
62
256
6
ByLayer
370
-2
48
1
60
0
100
AcDbLine
10
-46.5875
20
-6
30
0
11
-51.42494
21
-6
31
0
39
0
210
0
220
0
230
1
0
LINE
5
153
100
AcDbEntity
8
0
62
256
6
ByLayer
370
-2
48
1
60
0
100
AcDbLine
10
-48.24994
20
6
30
0
11
-48.24994
21
29.117532
31
0
39
0
210
0
220
0
230
1
0
LINE
5
154
100
AcDbEntity
8
0
62
256
6
ByLayer
370
-2
48
1
60
0
100
AcDbLine
10
-48.24994
20
9.175
30
0
11
-48.24994
21
12.35
31
0
39
0
210
0
220
0
230
1
0
LINE
5
155
100
AcDbEntity
8
0
62
256
6
ByLayer
370
-2
48
1
60
0
100
AcDbLine
10
-48.24994
20
-9.175
30
0
11
-48.24994
21
-12.35
31
0
39
0
210
0
220
0
230
1
0
SOLID
5
156
100
AcDbEntity
8
0
62
256
6
ByLayer
370
-1
48
1
60
0
100
AcDbTrace
10
-48.779107
20
9.175
30
0
11
-47.720773
21
9.175
31
0
12
-48.24994
22
6
32
0
13
-48.24994
23
6
33
0
39
0
210
0
220
0
230
1
0
SOLID
5
157
100
AcDbEntity
8
0
62
256
6
ByLayer
370
-1
48
1
60
0
100
AcDbTrace
10
-47.720773
20
-9.175
30
0
11
-48.779107
21
-9.175
31
0
12
-48.24994
22
-6
32
0
13
-48.24994
23
-6
33
0
39
0
210
0
220
0
230
1
0
MTEXT
5
158
100
AcDbEntity
8
0
62
256
6
ByLayer
370
18
48
1
60
0
100
AcDbMText
10
-55.556441
20
20.97767
30
0
210
0
220
0
230
1
1
\A1;12
40
3.50012
41
0
44
1
50
90
71
5
72
5
7
iso_b_vert
0
POINT
5
159
100
AcDbEntity
8
Defpoints
62
0
6
ByLayer
370
-1
48
1
60
0
100
AcDbPoint
10
-45
20
6
30
0
39
0
210
0
220
0
230
1
50
360
0
POINT
5
15A
100
AcDbEntity
8
Defpoints
62
0
6
ByLayer
370
-1
48
1
60
0
100
AcDbPoint
10
-45
20
-6
30
0
39
0
210
0
220
0
230
1
50
360
0
POINT
5
15B
100
AcDbEntity
8
Defpoints
62
0
6
ByLayer
370
-1
48
1
60
0
100
AcDbPoint
10
-48.24994
20
-6
30
0
39
0
210
0
220
0
230
1
50
360
0
ENDBLK
5
150
100
AcDbEntity
8
0
100
AcDbBlockEnd
0
BLOCK
5
167
100
AcDbEntity
8
0
100
AcDbBlockBegin
2
_U2
70
0
10
0
20
0
30
0
3
_U2
0
MTEXT
5
15D
100
AcDbEntity
8
SK2
62
256
6
ByLayer
370
18
48
1
60
0
100
AcDbMText
10
-48.939597
20
16.157505
30
0
210
0
220
0
230
1
1
\W0.6864;12.00
40
3.50012
41
0
44
1.084337
50
90
71
7
72
5
7
iso_b_vert
0
LINE
5
15E
100
AcDbEntity
8
SK2
62
256
6
ByLayer
370
13
48
1
60
0
100
AcDbLine
10
-46.5875
20
6
30
0
11
-51.42494
21
6
31
0
39
0
210
0
220
0
230
1
0
LINE
5
15F
100
AcDbEntity
8
SK2
62
256
6
ByLayer
370
13
48
1
60
0
100
AcDbLine
10
-46.5875
20
-6
30
0
11
-51.42494
21
-6
31
0
39
0
210
0
220
0
230
1
0
LINE
5
160
100
AcDbEntity
8
SK2
62
256
6
ByLayer
370
13
48
1
60
0
100
AcDbLine
10
-48.24994
20
-6
30
0
11
-48.24994
21
25.955339
31
0
39
0
210
0
220
0
230
1
0
LINE
5
161
100
AcDbEntity
8
SK2
62
256
6
ByLayer
370
13
48
1
60
0
100
AcDbLine
10
-48.24994
20
6
30
0
11
-47.831943
21
2.825002
31
0
39
0
210
0
220
0
230
1
0
LINE
5
162
100
AcDbEntity
8
SK2
62
256
6
ByLayer
370
13
48
1
60
0
100
AcDbLine
10
-48.24994
20
6
30
0
11
-48.667937
21
2.824998
31
0
39
0
210
0
220
0
230
1
0
LINE
5
163
100
AcDbEntity
8
SK2
62
256
6
ByLayer
370
13
48
1
60
0
100
AcDbLine
10
-47.831943
20
2.825002
30
0
11
-48.667937
21
2.824998
31
0
39
0
210
0
220
0
230
1
0
LINE
5
164
100
AcDbEntity
8
SK2
62
256
6
ByLayer
370
13
48
1
60
0
100
AcDbLine
10
-48.24994
20
-6
30
0
11
-48.667937
21
-2.825002
31
0
39
0
210
0
220
0
230
1
0
LINE
5
165
100
AcDbEntity
8
SK2
62
256
6
ByLayer
370
13
48
1
60
0
100
AcDbLine
10
-48.24994
20
-6
30
0
11
-47.831943
21
-2.824998
31
0
39
0
210
0
220
0
230
1
0
LINE
5
166
100
AcDbEntity
8
SK2
62
256
6
ByLayer
370
13
48
1
60
0
100
AcDbLine
10
-48.667937
20
-2.825002
30
0
11
-47.831943
21
-2.824998
31
0
39
0
210
0
220
0
230
1
0
ENDBLK
5
168
100
AcDbEntity
8
0
100
AcDbBlockEnd
0
BLOCK
5
16D
100
AcDbEntity
8
0
100
AcDbBlockBegin
2
*D8
70
1
10
0
20
0
30
0
3
*D8
0
LINE
5
16F
100
AcDbEntity
8
0
62
256
6
ByLayer
370
-2
48
1
60
0
100
AcDbLine
10
-45
20
-7.5875
30
0
11
-45
21
-32.67512
31
0
39
0
210
0
220
0
230
1
0
LINE
5
170
100
AcDbEntity
8
0
62
256
6
ByLayer
370
-2
48
1
60
0
100
AcDbLine
10
0
20
-7.5875
30
0
11
0
21
-32.67512
31
0
39
0
210
0
220
0
230
1
0
LINE
5
171
100
AcDbEntity
8
0
62
256
6
ByLayer
370
-2
48
1
60
0
100
AcDbLine
10
-41.825
20
-29.50012
30
0
11
-3.175
21
-29.50012
31
0
39
0
210
0
220
0
230
1
0
SOLID
5
172
100
AcDbEntity
8
0
62
256
6
ByLayer
370
-1
48
1
60
0
100
AcDbTrace
10
-41.825
20
-28.970953
30
0
11
-41.825
21
-30.029287
31
0
12
-45
22
-29.50012
32
0
13
-45
23
-29.50012
33
0
39
0
210
0
220
0
230
1
0
SOLID
5
173
100
AcDbEntity
8
0
62
256
6
ByLayer
370
-1
48
1
60
0
100
AcDbTrace
10
-3.175
20
-30.029287
30
0
11
-3.175
21
-28.970953
31
0
12
0
22
-29.50012
32
0
13
0
23
-29.50012
33
0
39
0
210
0
220
0
230
1
0
MTEXT
5
174
100
AcDbEntity
8
0
62
256
6
ByLayer
370
18
48
1
60
0
100
AcDbMText
10
-22.5
20
-22.193619
30
0
210
0
220
0
230
1
1
\A1;45
40
3.50012
41
0
44
1
50
0
71
5
72
5
7
iso_b_vert
0
POINT
5
175
100
AcDbEntity
8
Defpoints
62
0
6
ByLayer
370
-1
48
1
60
0
100
AcDbPoint
10
-45
20
-6
30
0
39
0
210
0
220
0
230
1
50
360
0
POINT
5
176
100
AcDbEntity
8
Defpoints
62
0
6
ByLayer
370
-1
48
1
60
0
100
AcDbPoint
10
0
20
-6
30
0
39
0
210
0
220
0
230
1
50
360
0
POINT
5
177
100
AcDbEntity
8
Defpoints
62
0
6
ByLayer
370
-1
48
1
60
0
100
AcDbPoint
10
0
20
-29.50012
30
0
39
0
210
0
220
0
230
1
50
360
0
ENDBLK
5
16E
100
AcDbEntity
8
0
100
AcDbBlockEnd
0
BLOCK
5
183
100
AcDbEntity
8
0
100
AcDbBlockBegin
2
_U3
70
0
10
0
20
0
30
0
3
_U3
0
MTEXT
5
179
100
AcDbEntity
8
SK2
62
256
6
ByLayer
370
18
48
1
60
0
100
AcDbMText
10
-27.913884
20
-28.467451
30
0
210
0
220
0
230
1
1
\W0.7694;45.00
40
3.50012
41
0
44
1.084337
50
0
71
7
72
5
7
iso_b_vert
0
LINE
5
17A
100
AcDbEntity
8
SK2
62
256
6
ByLayer
370
13
48
1
60
0
100
AcDbLine
10
-45
20
-7.5875
30
0
11
-45
21
-32.67512
31
0
39
0
210
0
220
0
230
1
0
LINE
5
17B
100
AcDbEntity
8
SK2
62
256
6
ByLayer
370
13
48
1
60
0
100
AcDbLine
10
0
20
-7.5875
30
0
11
0
21
-32.67512
31
0
39
0
210
0
220
0
230
1
0
LINE
5
17C
100
AcDbEntity
8
SK2
62
256
6
ByLayer
370
13
48
1
60
0
100
AcDbLine
10
-45
20
-29.50012
30
0
11
0
21
-29.50012
31
0
39
0
210
0
220
0
230
1
0
LINE
5
17D
100
AcDbEntity
8
SK2
62
256
6
ByLayer
370
13
48
1
60
0
100
AcDbLine
10
-45
20
-29.50012
30
0
11
-41.825002
21
-29.082123
31
0
39
0
210
0
220
0
230
1
0
LINE
5
17E
100
AcDbEntity
8
SK2
62
256
6
ByLayer
370
13
48
1
60
0
100
AcDbLine
10
-45
20
-29.50012
30
0
11
-41.824998
21
-29.918117
31
0
39
0
210
0
220
0
230
1
0
LINE
5
17F
100
AcDbEntity
8
SK2
62
256
6
ByLayer
370
13
48
1
60
0
100
AcDbLine
10
-41.825002
20
-29.082123
30
0
11
-41.824998
21
-29.918117
31
0
39
0
210
0
220
0
230
1
0
LINE
5
180
100
AcDbEntity
8
SK2
62
256
6
ByLayer
370
13
48
1
60
0
100
AcDbLine
10
0
20
-29.50012
30
0
11
-3.174998
21
-29.918117
31
0
39
0
210
0
220
0
230
1
0
LINE
5
181
100
AcDbEntity
8
SK2
62
256
6
ByLayer
370
13
48
1
60
0
100
AcDbLine
10
0
20
-29.50012
30
0
11
-3.175002
21
-29.082123
31
0
39
0
210
0
220
0
230
1
0
LINE
5
182
100
AcDbEntity
8
SK2
62
256
6
ByLayer
370
13
48
1
60
0
100
AcDbLine
10
-3.174998
20
-29.918117
30
0
11
-3.175002
21
-29.082123
31
0
39
0
210
0
220
0
230
1
0
ENDBLK
5
184
100
AcDbEntity
8
0
100
AcDbBlockEnd
0
BLOCK
5
189
100
AcDbEntity
8
0
100
AcDbBlockBegin
2
*D10
70
1
10
0
20
0
30
0
3
*D10
0
LINE
5
18B
100
AcDbEntity
8
0
62
256
6
ByLayer
370
-2
48
1
60
0
100
AcDbLine
10
2
20
4.2125
30
0
11
2
21
-23.92482
31
0
39
0
210
0
220
0
230
1
0
LINE
5
18C
100
AcDbEntity
8
0
62
256
6
ByLayer
370
-2
48
1
60
0
100
AcDbLine
10
57
20
-1.5875
30
0
11
57
21
-23.92482
31
0
39
0
210
0
220
0
230
1
0
LINE
5
18D
100
AcDbEntity
8
0
62
256
6
ByLayer
370
-2
48
1
60
0
100
AcDbLine
10
5.175
20
-20.74982
30
0
11
53.825
21
-20.74982
31
0
39
0
210
0
220
0
230
1
0
SOLID
5
18E
100
AcDbEntity
8
0
62
256
6
ByLayer
370
-1
48
1
60
0
100
AcDbTrace
10
5.175
20
-20.220653
30
0
11
5.175
21
-21.278987
31
0
12
2
22
-20.74982
32
0
13
2
23
-20.74982
33
0
39
0
210
0
220
0
230
1
0
SOLID
5
18F
100
AcDbEntity
8
0
62
256
6
ByLayer
370
-1
48
1
60
0
100
AcDbTrace
10
53.825
20
-21.278987
30
0
11
53.825
21
-20.220653
31
0
12
57
22
-20.74982
32
0
13
57
23
-20.74982
33
0
39
0
210
0
220
0
230
1
0
MTEXT
5
190
100
AcDbEntity
8
0
62
256
6
ByLayer
370
18
48
1
60
0
100
AcDbMText
10
29.5
20
-13.44332
30
0
210
0
220
0
230
1
1
\A1;55
40
3.50012
41
0
44
1
50
0
71
5
72
5
7
iso_b_vert
0
POINT
5
191
100
AcDbEntity
8
Defpoints
62
0
6
ByLayer
370
-1
48
1
60
0
100
AcDbPoint
10
2
20
5.8
30
0
39
0
210
0
220
0
230
1
50
360
0
POINT
5
192
100
AcDbEntity
8
Defpoints
62
0
6
ByLayer
370
-1
48
1
60
0
100
AcDbPoint
10
57
20
0
30
0
39
0
210
0
220
0
230
1
50
360
0
POINT
5
193
100
AcDbEntity
8
Defpoints
62
0
6
ByLayer
370
-1
48
1
60
0
100
AcDbPoint
10
57
20
-20.74982
30
0
39
0
210
0
220
0
230
1
50
360
0
ENDBLK
5
18A
100
AcDbEntity
8
0
100
AcDbBlockEnd
0
BLOCK
5
19F
100
AcDbEntity
8
0
100
AcDbBlockBegin
2
_U4
70
0
10
0
20
0
30
0
3
_U4
0
MTEXT
5
195
100
AcDbEntity
8
SK2
62
256
6
ByLayer
370
18
48
1
60
0
100
AcDbMText
10
24.270389
20
-19.717151
30
0
210
0
220
0
230
1
1
\W0.7468;55.00
40
3.50012
41
0
44
1.084337
50
0
71
7
72
5
7
iso_b_vert
0
LINE
5
196
100
AcDbEntity
8
SK2
62
256
6
ByLayer
370
13
48
1
60
0
100
AcDbLine
10
2
20
4.2125
30
0
11
2
21
-23.92482
31
0
39
0
210
0
220
0
230
1
0
LINE
5
197
100
AcDbEntity
8
SK2
62
256
6
ByLayer
370
13
48
1
60
0
100
AcDbLine
10
57
20
-1.5875
30
0
11
57
21
-23.92482
31
0
39
0
210
0
220
0
230
1
0
LINE
5
198
100
AcDbEntity
8
SK2
62
256
6
ByLayer
370
13
48
1
60
0
100
AcDbLine
10
2
20
-20.74982
30
0
11
57
21
-20.74982
31
0
39
0
210
0
220
0
230
1
0
LINE
5
199
100
AcDbEntity
8
SK2
62
256
6
ByLayer
370
13
48
1
60
0
100
AcDbLine
10
2
20
-20.74982
30
0
11
5.174998
21
-20.331823
31
0
39
0
210
0
220
0
230
1
0
LINE
5
19A
100
AcDbEntity
8
SK2
62
256
6
ByLayer
370
13
48
1
60
0
100
AcDbLine
10
2
20
-20.74982
30
0
11
5.175002
21
-21.167817
31
0
39
0
210
0
220
0
230
1
0
LINE
5
19B
100
AcDbEntity
8
SK2
62
256
6
ByLayer
370
13
48
1
60
0
100
AcDbLine
10
5.174998
20
-20.331823
30
0
11
5.175002
21
-21.167817
31
0
39
0
210
0
220
0
230
1
0
LINE
5
19C
100
AcDbEntity
8
SK2
62
256
6
ByLayer
370
13
48
1
60
0
100
AcDbLine
10
57
20
-20.74982
30
0
11
53.825002
21
-21.167817
31
0
39
0
210
0
220
0
230
1
0
LINE
5
19D
100
AcDbEntity
8
SK2
62
256
6
ByLayer
370
13
48
1
60
0
100
AcDbLine
10
57
20
-20.74982
30
0
11
53.824998
21
-20.331823
31
0
39
0
210
0
220
0
230
1
0
LINE
5
19E
100
AcDbEntity
8
SK2
62
256
6
ByLayer
370
13
48
1
60
0
100
AcDbLine
10
53.825002
20
-21.167817
30
0
11
53.824998
21
-20.331823
31
0
39
0
210
0
220
0
230
1
0
ENDBLK
5
1A0
100
AcDbEntity
8
0
100
AcDbBlockEnd
0
BLOCK
5
1A5
100
AcDbEntity
8
0
100
AcDbBlockBegin
2
*D12
70
1
10
0
20
0
30
0
3
*D12
0
LINE
5
1A7
100
AcDbEntity
8
0
62
256
6
ByLayer
370
-2
48
1
60
0
100
AcDbLine
10
23.3
20
-6.8875
30
0
11
23.3
21
-13.32
31
0
39
0
210
0
220
0
230
1
0
LINE
5
1A8
100
AcDbEntity
8
0
62
256
6
ByLayer
370
-2
48
1
60
0
100
AcDbLine
10
57
20
-1.5875
30
0
11
57
21
-13.32
31
0
39
0
210
0
220
0
230
1
0
LINE
5
1A9
100
AcDbEntity
8
0
62
256
6
ByLayer
370
-2
48
1
60
0
100
AcDbLine
10
26.475
20
-12.82
30
0
11
53.825
21
-12.82
31
0
39
0
210
0
220
0
230
1
0
SOLID
5
1AA
100
AcDbEntity
8
0
62
256
6
ByLayer
370
-1
48
1
60
0
100
AcDbTrace
10
26.475
20
-12.290833
30
0
11
26.475
21
-13.349167
31
0
12
23.3
22
-12.82
32
0
13
23.3
23
-12.82
33
0
39
0
210
0
220
0
230
1
0
SOLID
5
1AB
100
AcDbEntity
8
0
62
256
6
ByLayer
370
-1
48
1
60
0
100
AcDbTrace
10
53.825
20
-13.349167
30
0
11
53.825
21
-12.290833
31
0
12
57
22
-12.82
32
0
13
57
23
-12.82
33
0
39
0
210
0
220
0
230
1
0
MTEXT
5
1AC
100
AcDbEntity
8
0
62
256
6
ByLayer
370
18
48
1
60
0
100
AcDbMText
10
40.15
20
-6.975
30
0
210
0
220
0
230
1
1
\A1;33.7
40
2.8
41
0
44
1
50
0
71
5
72
5
7
iso_b_vert
0
POINT
5
1AD
100
AcDbEntity
8
Defpoints
62
0
6
ByLayer
370
-1
48
1
60
0
100
AcDbPoint
10
23.3
20
-5.3
30
0
39
0
210
0
220
0
230
1
50
360
0
POINT
5
1AE
100
AcDbEntity
8
Defpoints
62
0
6
ByLayer
370
-1
48
1
60
0
100
AcDbPoint
10
57
20
0
30
0
39
0
210
0
220
0
230
1
50
360
0
POINT
5
1AF
100
AcDbEntity
8
Defpoints
62
0
6
ByLayer
370
-1
48
1
60
0
100
AcDbPoint
10
57
20
-12.82
30
0
39
0
210
0
220
0
230
1
50
360
0
ENDBLK
5
1A6
100
AcDbEntity
8
0
100
AcDbBlockEnd
0
BLOCK
5
1BB
100
AcDbEntity
8
0
100
AcDbBlockBegin
2
_U5
70
0
10
0
20
0
30
0
3
_U5
0
MTEXT
5
1B1
100
AcDbEntity
8
SK2
62
256
6
ByLayer
370
18
48
1
60
0
100
AcDbMText
10
35.966454
20
-12.973893
30
0
210
0
220
0
230
1
1
\W0.7468;33.70
40
2.8
41
0
44
1.084337
50
0
71
7
72
5
7
iso_b_vert
0
LINE
5
1B2
100
AcDbEntity
8
SK2
62
256
6
ByLayer
370
13
48
1
60
0
100
AcDbLine
10
23.3
20
-6.8875
30
0
11
23.3
21
-13.32
31
0
39
0
210
0
220
0
230
1
0
LINE
5
1B3
100
AcDbEntity
8
SK2
62
256
6
ByLayer
370
13
48
1
60
0
100
AcDbLine
10
57
20
-1.5875
30
0
11
57
21
-13.32
31
0
39
0
210
0
220
0
230
1
0
LINE
5
1B4
100
AcDbEntity
8
SK2
62
256
6
ByLayer
370
13
48
1
60
0
100
AcDbLine
10
23.3
20
-12.82
30
0
11
57
21
-12.82
31
0
39
0
210
0
220
0
230
1
0
LINE
5
1B5
100
AcDbEntity
8
SK2
62
256
6
ByLayer
370
13
48
1
60
0
100
AcDbLine
10
23.3
20
-12.82
30
0
11
26.474998
21
-12.402003
31
0
39
0
210
0
220
0
230
1
0
LINE
5
1B6
100
AcDbEntity
8
SK2
62
256
6
ByLayer
370
13
48
1
60
0
100
AcDbLine
10
23.3
20
-12.82
30
0
11
26.475002
21
-13.237997
31
0
39
0
210
0
220
0
230
1
0
LINE
5
1B7
100
AcDbEntity
8
SK2
62
256
6
ByLayer
370
13
48
1
60
0
100
AcDbLine
10
26.474998
20
-12.402003
30
0
11
26.475002
21
-13.237997
31
0
39
0
210
0
220
0
230
1
0
LINE
5
1B8
100
AcDbEntity
8
SK2
62
256
6
ByLayer
370
13
48
1
60
0
100
AcDbLine
10
57
20
-12.82
30
0
11
53.825002
21
-13.237997
31
0
39
0
210
0
220
0
230
1
0
LINE
5
1B9
100
AcDbEntity
8
SK2
62
256
6
ByLayer
370
13
48
1
60
0
100
AcDbLine
10
57
20
-12.82
30
0
11
53.824998
21
-12.402003
31
0
39
0
210
0
220
0
230
1
0
LINE
5
1BA
100
AcDbEntity
8
SK2
62
256
6
ByLayer
370
13
48
1
60
0
100
AcDbLine
10
53.825002
20
-13.237997
30
0
11
53.824998
21
-12.402003
31
0
39
0
210
0
220
0
230
1
0
ENDBLK
5
1BC
100
AcDbEntity
8
0
100
AcDbBlockEnd
0
BLOCK
5
1C1
100
AcDbEntity
8
0
100
AcDbBlockBegin
2
*D14
70
1
10
0
20
0
30
0
3
*D14
0
LINE
5
1C3
100
AcDbEntity
8
0
62
256
6
ByLayer
370
-2
48
1
60
0
100
AcDbLine
10
-45
20
-1.5875
30
0
11
-45
21
-42.67512
31
0
39
0
210
0
220
0
230
1
0
LINE
5
1C4
100
AcDbEntity
8
0
62
256
6
ByLayer
370
-2
48
1
60
0
100
AcDbLine
10
57
20
-1.5875
30
0
11
57
21
-42.67512
31
0
39
0
210
0
220
0
230
1
0
LINE
5
1C5
100
AcDbEntity
8
0
62
256
6
ByLayer
370
-2
48
1
60
0
100
AcDbLine
10
-41.825
20
-39.50012
30
0
11
53.825
21
-39.50012
31
0
39
0
210
0
220
0
230
1
0
SOLID
5
1C6
100
AcDbEntity
8
0
62
256
6
ByLayer
370
-1
48
1
60
0
100
AcDbTrace
10
-41.825
20
-38.970953
30
0
11
-41.825
21
-40.029287
31
0
12
-45
22
-39.50012
32
0
13
-45
23
-39.50012
33
0
39
0
210
0
220
0
230
1
0
SOLID
5
1C7
100
AcDbEntity
8
0
62
256
6
ByLayer
370
-1
48
1
60
0
100
AcDbTrace
10
53.825
20
-40.029287
30
0
11
53.825
21
-38.970953
31
0
12
57
22
-39.50012
32
0
13
57
23
-39.50012
33
0
39
0
210
0
220
0
230
1
0
MTEXT
5
1C8
100
AcDbEntity
8
0
62
256
6
ByLayer
370
18
48
1
60
0
100
AcDbMText
10
6
20
-32.19362
30
0
210
0
220
0
230
1
1
\A1;102
40
3.50012
41
0
44
1
50
0
71
5
72
5
7
iso_b_vert
0
POINT
5
1C9
100
AcDbEntity
8
Defpoints
62
0
6
ByLayer
370
-1
48
1
60
0
100
AcDbPoint
10
-45
20
0
30
0
39
0
210
0
220
0
230
1
50
360
0
POINT
5
1CA
100
AcDbEntity
8
Defpoints
62
0
6
ByLayer
370
-1
48
1
60
0
100
AcDbPoint
10
57
20
0
30
0
39
0
210
0
220
0
230
1
50
360
0
POINT
5
1CB
100
AcDbEntity
8
Defpoints
62
0
6
ByLayer
370
-1
48
1
60
0
100
AcDbPoint
10
57
20
-39.50012
30
0
39
0
210
0
220
0
230
1
50
360
0
ENDBLK
5
1C2
100
AcDbEntity
8
0
100
AcDbBlockEnd
0
BLOCK
5
1D7
100
AcDbEntity
8
0
100
AcDbBlockBegin
2
_U6
70
0
10
0
20
0
30
0
3
_U6
0
MTEXT
5
1CD
100
AcDbEntity
8
SK2
62
256
6
ByLayer
370
18
48
1
60
0
100
AcDbMText
10
-0.099941
20
-38.467451
30
0
210
0
220
0
230
1
1
\W0.7022;102.00
40
3.50012
41
0
44
1.084337
50
0
71
7
72
5
7
iso_b_vert
0
LINE
5
1CE
100
AcDbEntity
8
SK2
62
256
6
ByLayer
370
13
48
1
60
0
100
AcDbLine
10
-45
20
-1.5875
30
0
11
-45
21
-42.67512
31
0
39
0
210
0
220
0
230
1
0
LINE
5
1CF
100
AcDbEntity
8
SK2
62
256
6
ByLayer
370
13
48
1
60
0
100
AcDbLine
10
57
20
-1.5875
30
0
11
57
21
-42.67512
31
0
39
0
210
0
220
0
230
1
0
LINE
5
1D0
100
AcDbEntity
8
SK2
62
256
6
ByLayer
370
13
48
1
60
0
100
AcDbLine
10
-45
20
-39.50012
30
0
11
57
21
-39.50012
31
0
39
0
210
0
220
0
230
1
0
LINE
5
1D1
100
AcDbEntity
8
SK2
62
256
6
ByLayer
370
13
48
1
60
0
100
AcDbLine
10
-45
20
-39.50012
30
0
11
-41.825002
21
-39.082123
31
0
39
0
210
0
220
0
230
1
0
LINE
5
1D2
100
AcDbEntity
8
SK2
62
256
6
ByLayer
370
13
48
1
60
0
100
AcDbLine
10
-45
20
-39.50012
30
0
11
-41.824998
21
-39.918117
31
0
39
0
210
0
220
0
230
1
0
LINE
5
1D3
100
AcDbEntity
8
SK2
62
256
6
ByLayer
370
13
48
1
60
0
100
AcDbLine
10
-41.825002
20
-39.082123
30
0
11
-41.824998
21
-39.918117
31
0
39
0
210
0
220
0
230
1
0
LINE
5
1D4
100
AcDbEntity
8
SK2
62
256
6
ByLayer
370
13
48
1
60
0
100
AcDbLine
10
57
20
-39.50012
30
0
11
53.825002
21
-39.918117
31
0
39
0
210
0
220
0
230
1
0
LINE
5
1D5
100
AcDbEntity
8
SK2
62
256
6
ByLayer
370
13
48
1
60
0
100
AcDbLine
10
57
20
-39.50012
30
0
11
53.824998
21
-39.082123
31
0
39
0
210
0
220
0
230
1
0
LINE
5
1D6
100
AcDbEntity
8
SK2
62
256
6
ByLayer
370
13
48
1
60
0
100
AcDbLine
10
53.825002
20
-39.918117
30
0
11
53.824998
21
-39.082123
31
0
39
0
210
0
220
0
230
1
0
ENDBLK
5
1D8
100
AcDbEntity
8
0
100
AcDbBlockEnd
0
ENDSEC
0
SECTION
2
ENTITIES
0
ARC
5
B2
100
AcDbEntity
8
1
62
256
6
ByLayer
370
18
48
1
60
0
100
AcDbCircle
39
0
10
1.345108
20
6.06642
30
0
40
0.800000000000002
210
0
220
0
230
1
100
AcDbArc
50
212.78668
51
270.03581
0
ARC
5
B3
100
AcDbEntity
8
1
62
256
6
ByLayer
370
18
48
1
60
0
100
AcDbCircle
39
0
10
1.345108
20
-6.06642
30
0
40
0.800000000000002
210
0
220
0
230
1
100
AcDbArc
50
89.96419
51
147.21332
0
ARC
5
B4
100
AcDbEntity
8
1
62
256
6
ByLayer
370
18
48
1
60
0
100
AcDbCircle
39
0
10
0
20
5.2
30
0
40
0.800000000000002
210
0
220
0
230
1
100
AcDbArc
50
32.78668
51
90
0
ARC
5
B5
100
AcDbEntity
8
1
62
256
6
ByLayer
370
18
48
1
60
0
100
AcDbCircle
39
0
10
0
20
-5.2
30
0
40
0.800000000000002
210
0
220
0
230
1
100
AcDbArc
50
270
51
327.21332
0
ARC
5
B6
100
AcDbEntity
8
SK2
62
256
6
ByLayer
370
13
48
1
60
0
100
AcDbCircle
39
0
10
57
20
0
30
0
40
20
210
0
220
0
230
1
100
AcDbArc
50
9.606349
51
70.000403
0
ARC
5
B7
100
AcDbEntity
8
SK2
62
256
6
ByLayer
370
13
48
1
60
0
100
AcDbCircle
39
0
10
57
20
0
30
0
40
20
210
0
220
0
230
1
100
AcDbArc
50
289.999597
51
350.393651
0
ELLIPSE
5
B8
100
AcDbEntity
8
1
62
256
6
ByLayer
370
18
48
1
60
0
100
AcDbEllipse
10
3.601646
20
5.103166
30
0
11
-0.1
21
1.22460635382238E-17
31
0
210
0
220
0
230
1
40
1
41
0.000701516185393452
42
1.59407202947351
0
POINT
5
70
100
AcDbEntity
8
80
62
256
6
ByLayer
370
18
48
1
60
0
100
AcDbPoint
10
0
20
0
30
0
39
0
210
0
220
0
230
1
50
360
0
POINT
5
72
100
AcDbEntity
8
81
62
256
6
ByLayer
370
18
48
1
60
0
100
AcDbPoint
10
57
20
0
30
0
39
0
210
0
220
0
230
1
50
360
0
POINT
5
74
100
AcDbEntity
8
1
62
256
6
ByLayer
370
18
48
1
60
0
100
AcDbPoint
10
-45
20
0
30
0
39
0
210
0
220
0
230
1
50
360
0
POINT
5
76
100
AcDbEntity
8
1
62
256
6
ByLayer
370
18
48
1
60
1
100
AcDbPoint
10
0
20
-6
30
0
39
0
210
0
220
0
230
1
50
360
0
POINT
5
77
100
AcDbEntity
8
1
62
256
6
ByLayer
370
18
48
1
60
1
100
AcDbPoint
10
57
20
0
30
0
39
0
210
0
220
0
230
1
50
360
0
POINT
5
78
100
AcDbEntity
8
1
62
256
6
ByLayer
370
18
48
1
60
1
100
AcDbPoint
10
55.071
20
-5.3
30
0
39
0
210
0
220
0
230
1
50
360
0
POINT
5
79
100
AcDbEntity
8
1
62
256
6
ByLayer
370
18
48
1
60
1
100
AcDbPoint
10
55.071
20
5.3
30
0
39
0
210
0
220
0
230
1
50
360
0
POINT
5
7A
100
AcDbEntity
8
1
62
256
6
ByLayer
370
18
48
1
60
1
100
AcDbPoint
10
-45
20
6
30
0
39
0
210
0
220
0
230
1
50
360
0
POINT
5
7B
100
AcDbEntity
8
1
62
256
6
ByLayer
370
18
48
1
60
1
100
AcDbPoint
10
-45
20
-6
30
0
39
0
210
0
220
0
230
1
50
360
0
POINT
5
7C
100
AcDbEntity
8
1
62
256
6
ByLayer
370
18
48
1
60
1
100
AcDbPoint
10
-45
20
-6
30
0
39
0
210
0
220
0
230
1
50
360
0
POINT
5
7D
100
AcDbEntity
8
1
62
256
6
ByLayer
370
18
48
1
60
1
100
AcDbPoint
10
0
20
-6
30
0
39
0
210
0
220
0
230
1
50
360
0
POINT
5
7E
100
AcDbEntity
8
1
62
256
6
ByLayer
370
18
48
1
60
1
100
AcDbPoint
10
2
20
5.8
30
0
39
0
210
0
220
0
230
1
50
360
0
POINT
5
7F
100
AcDbEntity
8
1
62
256
6
ByLayer
370
18
48
1
60
1
100
AcDbPoint
10
57
20
0
30
0
39
0
210
0
220
0
230
1
50
360
0
POINT
5
80
100
AcDbEntity
8
1
62
256
6
ByLayer
370
18
48
1
60
1
100
AcDbPoint
10
23.3
20
-5.3
30
0
39
0
210
0
220
0
230
1
50
360
0
POINT
5
81
100
AcDbEntity
8
1
62
256
6
ByLayer
370
18
48
1
60
1
100
AcDbPoint
10
57
20
0
30
0
39
0
210
0
220
0
230
1
50
360
0
POINT
5
82
100
AcDbEntity
8
1
62
256
6
ByLayer
370
18
48
1
60
1
100
AcDbPoint
10
-45
20
0
30
0
39
0
210
0
220
0
230
1
50
360
0
POINT
5
83
100
AcDbEntity
8
1
62
256
6
ByLayer
370
18
48
1
60
1
100
AcDbPoint
10
57
20
0
30
0
39
0
210
0
220
0
230
1
50
360
0
SPLINE
5
B9
100
AcDbEntity
8
SK1
62
256
6
ByLayer
370
18
48
1
60
0
100
AcDbSpline
70
4
71
3
72
8
73
4
40
0
40
0
40
0
40
0
40
1
40
1
40
1
40
1
41
1
10
-44.25
20
-1.21475330764841
30
1E-16
41
1
10
-44.3060037825368
20
-1.19008237507779
30
1E-16
41
1
10
-44.3619875814424
20
-1.16540304972284
30
1E-16
41
1
10
-44.4179491924311
20
-1.14071440582111
30
1E-16
0
SPLINE
5
BA
100
AcDbEntity
8
SK1
62
256
6
ByLayer
370
18
48
1
60
0
100
AcDbSpline
70
4
71
3
72
12
73
8
40
0
40
0
40
0
40
0
40
0.5
40
0.5
40
0.75
40
0.75
40
1
40
1
40
1
40
1
41
1
10
-44.25
20
-3.01884502764685
30
2E-16
41
1
10
-44.2265754814923
20
-3.02916405772709
30
2E-16
41
1
10
-44.2038494963526
20
-3.03273729682789
30
2E-16
41
1
10
-44.175680621431
20
-3.02547125619051
30
2E-16
41
1
10
-44.1670810890644
20
-3.02078522881993
30
2E-16
41
1
10
-44.1542487488419
20
-3.00548819497035
30
2E-16
41
1
10
-44.15
20
-2.99451036059364
30
2E-16
41
1
10
-44.15
20
-2.98085048310145
30
2E-16
0
SPLINE
5
BB
100
AcDbEntity
8
SK1
62
256
6
ByLayer
370
18
48
1
60
0
100
AcDbSpline
70
4
71
3
72
12
73
8
40
0
40
0
40
0
40
0
40
0.250000000000002
40
0.250000000000002
40
0.500000000000004
40
0.500000000000004
40
1
40
1
40
1
40
1
41
1
10
-44.15
20
-1.35716793510289
30
1E-16
41
1
10
-44.15
20
-1.34091852492705
30
1E-16
41
1
10
-44.1541964903379
20
-1.32390329074764
30
1E-16
41
1
10
-44.1670510016405
20
-1.2930651037191
30
1E-16
41
1
10
-44.1755314964661
20
-1.2792514521426
30
1E-16
41
1
10
-44.2039103264456
20
-1.24281171619108
30
1E-16
41
1
10
-44.2265803533262
20
-1.22507019157558
30
1E-16
41
1
10
-44.25
20
-1.21475330764838
30
1E-16
0
SPLINE
5
BC
100
AcDbEntity
8
SK1
62
256
6
ByLayer
370
18
48
1
60
0
100
AcDbSpline
70
4
71
3
72
8
73
4
40
0
40
0
40
0
40
0
40
1
40
1
40
1
40
1
41
1
10
-44.4179491924311
20
-2.9448061258195
30
2E-16
41
1
10
-44.3619874070149
20
-2.96949484667363
30
2E-16
41
1
10
-44.3060036139575
20
-2.9941741693392
30
2E-16
41
1
10
-44.25
20
-3.01884502764682
30
2E-16
0
SPLINE
5
BD
100
AcDbEntity
8
SK1
62
256
6
ByLayer
370
18
48
1
60
0
100
AcDbSpline
70
4
71
3
72
12
73
8
40
0
40
0
40
0
40
0
40
0.25
40
0.25
40
0.5
40
0.5
40
1
40
1
40
1
40
1
41
1
10
-44.4179491924311
20
-2.94480612581952
30
2E-16
41
1
10
-44.4585118025587
20
-2.98387780377277
30
2E-16
41
1
10
-44.5017617157541
20
-3.01672585929313
30
2E-16
41
1
10
-44.5926945369118
20
-3.07222330934303
30
2E-16
41
1
10
-44.6405857309337
20
-3.09492092774192
30
2E-16
41
1
10
-44.7885787506849
20
-3.14916346297898
30
2E-16
41
1
10
-44.8923167485562
20
-3.16710985762282
30
2E-16
41
1
10
-45.0000000000001
20
-3.17141536028404
30
2E-16
0
SPLINE
5
BE
100
AcDbEntity
8
SK1
62
256
6
ByLayer
370
18
48
1
60
0
100
AcDbSpline
70
4
71
3
72
10
73
6
40
0
40
0
40
0
40
0
40
0.5
40
0.5
40
1
40
1
40
1
40
1
41
1
10
-45.0000000000001
20
-0.219367780004859
30
0
41
1
10
-44.892418923189
20
-0.351470518003595
30
0
41
1
10
-44.7890116623726
20
-0.492640259358893
30
0
41
1
10
-44.5927829535177
20
-0.798619484491468
30
0
41
1
10
-44.4993017440334
20
-0.964868031372845
30
1E-16
41
1
10
-44.4179491924311
20
-1.14071440582111
30
1E-16
0
SPLINE
5
BF
100
AcDbEntity
8
1
62
256
6
ByLayer
370
18
48
1
60
0
100
AcDbSpline
70
4
71
3
72
32
73
28
40
0
40
0
40
0
40
0
40
0.124999999999995
40
0.124999999999995
40
0.187499999999997
40
0.187499999999997
40
0.249999999999998
40
0.249999999999998
40
0.312499999999999
40
0.312499999999999
40
0.375000000000001
40
0.375000000000001
40
0.437500000000002
40
0.437500000000002
40
0.500000000000003
40
0.500000000000003
40
0.562500000000004
40
0.562500000000004
40
0.625000000000006
40
0.625000000000006
40
0.687500000000007
40
0.687500000000007
40
0.750000000000008
40
0.750000000000008
40
0.875000000000004
40
0.875000000000004
40
1
40
1
40
1
40
1
41
1
10
56.9260911499306
20
0.0638031588155457
30
0
41
1
10
56.9004357698417
20
-0.0207862159410297
30
0
41
1
10
56.8709396611142
20
-0.103441690311257
30
0
41
1
10
56.8207175090532
20
-0.22431553957415
30
0
41
1
10
56.8028126715083
20
-0.264396415954565
30
0
41
1
10
56.765811376289
20
-0.341356772110572
30
0
41
1
10
56.7467058506257
20
-0.378317389464229
30
0
41
1
10
56.7073130124694
20
-0.449105099411071
30
0
41
1
10
56.6870265113094
20
-0.482934249274649
30
0
41
1
10
56.6452110858601
20
-0.547181564287229
30
0
41
1
10
56.6237313786689
20
-0.577454051211447
30
0
41
1
10
56.5812603139242
20
-0.631928881946322
30
0
41
1
10
56.5600540833475
20
-0.65647534514531
30
0
41
1
10
56.5176720028757
20
-0.700074715864019
30
0
41
1
10
56.4963030067311
20
-0.719247061578045
30
0
41
1
10
56.4549389624973
20
-0.75068489091376
30
0
41
1
10
56.4348444802525
20
-0.763107108186432
30
0
41
1
10
56.3956764693119
20
-0.78161632704095
30
0
41
1
10
56.3764603580887
20
-0.787705066109936
30
0
41
1
10
56.339835013519
20
-0.793401213370885
30
0
41
1
10
56.3223864961645
20
-0.793083401399883
30
0
41
1
10
56.2889430089868
20
-0.786609791033698
30
0
41
1
10
56.2728533533507
20
-0.780386494094273
30
0
41
1
10
56.2272305651844
20
-0.753763980680077
30
0
41
1
10
56.2004469087917
20
-0.725827408056745
30
0
41
1
10
56.1519597958072
20
-0.653195892909281
30
0
41
1
10
56.1303295726445
20
-0.608324241154151
30
0
41
1
10
56.1112032457547
20
-0.557268694377683
30
0
0
SPLINE
5
C0
100
AcDbEntity
8
1
62
256
6
ByLayer
370
18
48
1
60
0
100
AcDbSpline
70
4
71
3
72
10
73
6
40
0
40
0
40
0
40
0
40
0.5
40
0.5
40
1
40
1
40
1
40
1
41
1
10
54.3724147894211
20
-0.0443061467703671
30
0
41
1
10
54.3658943137069
20
0.079735700668806
30
0
41
1
10
54.3614398398572
20
0.205043916125248
30
0
41
1
10
54.3576644251233
20
0.454669669200399
30
0
41
1
10
54.3583347015109
20
0.578326689153386
30
0
41
1
10
54.3618407060928
20
0.700835843662162
30
0
0
SPLINE
5
C1
100
AcDbEntity
8
1
62
256
6
ByLayer
370
18
48
1
60
0
100
AcDbSpline
70
4
71
3
72
8
73
4
40
0
40
0
40
0
40
0
40
1
40
1
40
1
40
1
41
1
10
56.9951125202594
20
0.292609581184422
30
0
41
1
10
56.9722195282157
20
0.216305465571423
30
0
41
1
10
56.9492122632924
20
0.140036701884071
30
0
41
1
10
56.9260911499306
20
0.0638031588155457
30
0
0
SPLINE
5
C2
100
AcDbEntity
8
1
62
256
6
ByLayer
370
18
48
1
60
0
100
AcDbSpline
70
4
71
3
72
10
73
6
40
0
40
0
40
0
40
0
40
0.5
40
0.5
40
1
40
1
40
1
40
1
41
1
10
3.50164593791789
20
-5.21436643850279
30
0
41
1
10
3.50164593791789
20
-5.20948351653118
30
0
41
1
10
3.52017085205603
20
-5.20441117039061
30
0
41
1
10
3.57872714132174
20
-5.1987842654176
30
0
41
1
10
3.61648820254968
20
-5.19856050711294
30
0
41
1
10
3.64710958540328
20
-5.20106064186459
30
0
0
SPLINE
5
C3
100
AcDbEntity
8
1
62
256
6
ByLayer
370
18
48
1
60
0
100
AcDbSpline
70
4
71
3
72
10
73
6
40
0
40
0
40
0
40
0
40
0.5
40
0.5
40
1
40
1
40
1
40
1
41
1
10
3.55643199062871
20
1.95982254493711
30
-1E-16
41
1
10
3.53990947798059
20
1.96759296435238
30
-1E-16
41
1
10
3.52604194043215
20
1.97952140252124
30
-1E-16
41
1
10
3.50689057245779
20
2.00834015687823
30
-1E-16
41
1
10
3.50164593791789
20
2.02524577086814
30
-1E-16
41
1
10
3.50164593791789
20
2.04232099628254
30
-1E-16
0
SPLINE
5
C4
100
AcDbEntity
8
1
62
256
6
ByLayer
370
18
48
1
60
0
100
AcDbSpline
70
4
71
3
72
8
73
4
40
0
40
0
40
0
40
0
40
1
40
1
40
1
40
1
41
1
10
56.5361248490233
20
-1.63117694026317
30
0
41
1
10
56.6933148445645
20
-1.18648869538808
30
0
41
1
10
56.8463314659529
20
-0.740306994337317
30
0
41
1
10
56.9951125202596
20
-0.292609581159184
30
0
0
SPLINE
5
C5
100
AcDbEntity
8
1
62
256
6
ByLayer
370
18
48
1
60
0
100
AcDbSpline
70
4
71
3
72
22
73
18
40
0
40
0
40
0
40
0
40
0.0538706080551174
40
0.0538706080551174
40
0.107741216110235
40
0.107741216110235
40
0.215482432220471
40
0.215482432220471
40
0.43096486444094
40
0.43096486444094
40
0.538706080551173
40
0.538706080551173
40
0.646447296661407
40
0.646447296661407
40
0.861929728881876
40
0.861929728881876
40
1
40
1
40
1
40
1
41
1
10
55.1082666223908
20
-5.00030121256714
30
0
41
1
10
54.8383217988016
20
-4.98237976848844
30
0
41
1
10
54.5684553539669
20
-4.96030179104221
30
0
41
1
10
54.02864191316
20
-4.9051398802624
30
1E-16
41
1
10
53.758490225334
20
-4.87249660009903
30
1E-16
41
1
10
52.9487530532647
20
-4.75991123501669
30
1E-16
41
1
10
52.4118235118082
20
-4.66562044177843
30
1E-16
41
1
10
50.8061750265403
20
-4.32971797400742
30
-2E-16
41
1
10
49.7425309592136
20
-4.03504192544338
30
-2E-16
41
1
10
48.1430981156063
20
-3.50403398357062
30
2E-16
41
1
10
47.6093107257934
20
-3.31237855760884
30
2E-16
41
1
10
46.5379731426779
20
-2.9030504919173
30
2E-16
41
1
10
45.9999278089043
20
-2.6850114038287
30
2E-16
41
1
10
44.3798209930157
20
-1.99849848170916
30
1E-16
41
1
10
43.3114209208575
20
-1.50640796083823
30
1E-16
41
1
10
41.5619032754735
20
-0.675195819887961
30
0
41
1
10
40.8795742066642
20
-0.344549378564096
30
0
41
1
10
40.1956442990176
20
-0.0131427282476295
30
0
0
SPLINE
5
C6
100
AcDbEntity
8
1
62
256
6
ByLayer
370
18
48
1
60
0
100
AcDbSpline
70
4
71
3
72
16
73
12
40
0
40
0
40
0
40
0
40
0.259235146667101
40
0.259235146667101
40
0.388852720000653
40
0.388852720000653
40
0.518470293334206
40
0.518470293334206
40
0.777705440001306
40
0.777705440001306
40
1
40
1
40
1
40
1
41
1
10
55.1504578312375
20
5.08641108472943
30
0
41
1
10
54.4841663513147
20
5.09100301567042
30
0
41
1
10
53.8196823698461
20
5.06453935016174
30
0
41
1
10
52.8225498247491
20
4.97853111313088
30
-1E-16
41
1
10
52.4900983349376
20
4.94211619788757
30
-1E-16
41
1
10
51.824517010312
20
4.85410726660197
30
-1E-16
41
1
10
51.4912853808569
20
4.80250083254671
30
-1E-16
41
1
10
50.4923563268751
20
4.62603321281077
30
2E-16
41
1
10
49.82590614948
20
4.47921745472235
30
2E-16
41
1
10
48.5906615427192
20
4.15797440454327
30
2E-16
41
1
10
48.0210772942824
20
3.9902506677154
30
2E-16
41
1
10
47.450622593182
20
3.80477458562458
30
0
0
SPLINE
5
C7
100
AcDbEntity
8
1
62
256
6
ByLayer
370
18
48
1
60
0
100
AcDbSpline
70
4
71
3
72
8
73
4
40
0
40
0
40
0
40
0
40
1
40
1
40
1
40
1
41
1
10
54.372414789421
20
-0.0443061467703956
30
0
41
1
10
54.415846249052
20
-0.0658722885149814
30
0
41
1
10
54.4589979571472
20
-0.0862171247023866
30
0
41
1
10
54.5019218521773
20
-0.105371362255767
30
0
0
SPLINE
5
C8
100
AcDbEntity
8
1
62
256
6
ByLayer
370
18
48
1
60
0
100
AcDbSpline
70
4
71
3
72
32
73
28
40
0
40
0
40
0
40
0
40
0.095904839210711
40
0.095904839210711
40
0.191809678421422
40
0.191809678421422
40
0.239762098026778
40
0.239762098026778
40
0.287714517632135
40
0.287714517632135
40
0.383619356842846
40
0.383619356842846
40
0.479524196053557
40
0.479524196053557
40
0.527476615658912
40
0.527476615658912
40
0.575429035264267
40
0.575429035264267
40
0.671333874474981
40
0.671333874474981
40
0.767238713685694
40
0.767238713685694
40
0.863143552896407
40
0.863143552896407
40
0.95904839210712
40
0.95904839210712
40
1
40
1
40
1
40
1
41
1
10
54.5072913513042
20
-0.118856688017445
30
0
41
1
10
53.9748407337363
20
0.140516496062247
30
0
41
1
10
53.4409669425033
20
0.399294161464553
30
0
41
1
10
52.3787945805998
20
0.90798965872554
30
-1E-16
41
1
10
51.849755158555
20
1.15833922391792
30
-1E-16
41
1
10
51.0586795192093
20
1.52552592005748
30
-1E-16
41
1
10
50.7953939486148
20
1.64651382224383
30
-1E-16
41
1
10
50.2695485567656
20
1.8851212288377
30
-1E-16
41
1
10
50.0068435501418
20
2.0026547573033
30
-1E-16
41
1
10
49.2180387153616
20
2.34868744140209
30
-1E-16
41
1
10
48.6916931569153
20
2.57091475745099
30
-2E-16
41
1
10
47.6375756795895
20
2.99511194476187
30
-2E-16
41
1
10
47.1100057624306
20
3.19669451438676
30
-2E-16
41
1
10
46.3147840470887
20
3.48063469342858
30
-2E-16
41
1
10
46.0491025975469
20
3.57220302758051
30
-2E-16
41
1
10
45.516339890151
20
3.74862157014374
30
2E-16
41
1
10
45.2492962765637
20
3.8334600209661
30
2E-16
41
1
10
44.4518644811822
20
4.07514351633915
30
2E-16
41
1
10
43.9236649839326
20
4.21906353933517
30
2E-16
41
1
10
42.8683425507177
20
4.47467222740755
30
2E-16
41
1
10
42.3418518925996
20
4.58572224178275
30
2E-16
41
1
10
41.2899328586822
20
4.77091231434926
30
-1E-16
41
1
10
40.7649515654315
20
4.84353873996326
30
-1E-16
41
1
10
39.7117876613257
20
4.95545831298367
30
0
41
1
10
39.1839708785959
20
4.99400125939761
30
0
41
1
10
38.4285133334594
20
5.01918335506002
30
0
41
1
10
38.2021870984786
20
5.02267932359368
30
0
41
1
10
37.9754493290137
20
5.0222380862412
30
0
0
SPLINE
5
C9
100
AcDbEntity
8
1
62
256
6
ByLayer
370
18
48
1
60
0
100
AcDbSpline
70
4
71
3
72
30
73
26
40
0
40
0
40
0
40
0
40
0.125
40
0.125
40
0.187499999999999
40
0.187499999999999
40
0.249999999999999
40
0.249999999999999
40
0.374999999999999
40
0.374999999999999
40
0.437499999999999
40
0.437499999999999
40
0.499999999999999
40
0.499999999999999
40
0.624999999999999
40
0.624999999999999
40
0.687499999999999
40
0.687499999999999
40
0.75
40
0.75
40
0.875
40
0.875
40
0.9375
40
0.9375
40
1
40
1
40
1
40
1
41
1
10
54.5072913513049
20
-0.118856688017388
30
0
41
1
10
54.5189517406497
20
-0.418766185936079
30
0
41
1
10
54.5427220522461
20
-0.712513440600844
30
0
41
1
10
54.5878892432206
20
-1.14512095301828
30
1E-16
41
1
10
54.6045635739777
20
-1.28797623223579
30
1E-16
41
1
10
54.640013895651
20
-1.57107168673295
30
1E-16
41
1
10
54.65887958249
20
-1.71193823427237
30
1E-16
41
1
10
54.7164503128148
20
-2.12577847000409
30
1E-16
41
1
10
54.7557600923296
20
-2.38852555506765
30
1E-16
41
1
10
54.8114387933734
20
-2.76397742869443
30
2E-16
41
1
10
54.8294755093933
20
-2.88599311043009
30
2E-16
41
1
10
54.8639847410863
20
-3.1236563539978
30
2E-16
41
1
10
54.880515573526
20
-3.23975146266085
30
2E-16
41
1
10
54.9264030185374
20
-3.57199346589851
30
2E-16
41
1
10
54.9522290028888
20
-3.77393453039869
30
-2E-16
41
1
10
54.9843979921694
20
-4.04790220549199
30
-2E-16
41
1
10
54.9940477110412
20
-4.13437175863794
30
-2E-16
41
1
10
55.011577683784
20
-4.29731528036402
30
-2E-16
41
1
10
55.0194612811027
20
-4.37384242248567
30
-2E-16
41
1
10
55.0409564073722
20
-4.58367970270416
30
-2E-16
41
1
10
55.0525296749691
20
-4.69911944577021
30
1E-16
41
1
10
55.0714045836944
20
-4.835967775923
30
1E-16
41
1
10
55.0779663498961
20
-4.87549765862354
30
1E-16
41
1
10
55.0928355658792
20
-4.94203800925914
30
0
41
1
10
55.1011240319643
20
-4.96888906958176
30
0
41
1
10
55.1108560426561
20
-4.9890767897403
30
0
0
SPLINE
5
CA
100
AcDbEntity
8
1
62
256
6
ByLayer
370
18
48
1
60
0
100
AcDbSpline
70
4
71
3
72
10
73
6
40
0
40
0
40
0
40
0
40
0.234434094835767
40
0.234434094835767
40
1
40
1
40
1
40
1
41
1
10
12.7851858917545
20
-3.24199245609341
30
0
41
1
10
12.2885175594716
20
-3.39155541472374
30
0
41
1
10
11.7932869670837
20
-3.54333777133843
30
0
41
1
10
9.6876800857211
20
-4.19955152582605
30
0
41
1
10
8.0912466337619
20
-4.72426307240221
30
0
41
1
10
6.51245662458192
20
-5.26748068142498
30
0
0
SPLINE
5
CB
100
AcDbEntity
8
1
62
256
6
ByLayer
370
18
48
1
60
0
100
AcDbSpline
70
4
71
3
72
16
73
12
40
0
40
0
40
0
40
0
40
0.373270743862924
40
0.373270743862924
40
0.559906115794386
40
0.559906115794386
40
0.746541487725848
40
0.746541487725848
40
0.93317685965731
40
0.93317685965731
40
1
40
1
40
1
40
1
41
1
10
6.51245662458723
20
-5.26748068142314
30
0
41
1
10
7.51934643383069
20
-5.28275727716587
30
0
41
1
10
8.51498933862797
20
-5.22352147212715
30
0
41
1
10
10.0051812440003
20
-5.03015284083219
30
1E-16
41
1
10
10.5011806698897
20
-4.94821650730879
30
1E-16
41
1
10
11.494059389616
20
-4.75088824088883
30
-2E-16
41
1
10
11.9910627140512
20
-4.63564065919914
30
-2E-16
41
1
10
12.9875515405645
20
-4.37280594737061
30
-2E-16
41
1
10
13.4873455922066
20
-4.22552766413796
30
-2E-16
41
1
10
14.1694560828452
20
-4.00498075511243
30
-2E-16
41
1
10
14.349668785427
20
-3.94484917780204
30
-2E-16
41
1
10
14.5296045317653
20
-3.88305293544718
30
-2E-16
0
SPLINE
5
CC
100
AcDbEntity
8
1
62
256
6
ByLayer
370
18
48
1
60
0
100
AcDbSpline
70
4
71
3
72
26
73
22
40
0
40
0
40
0
40
0
40
0.199199183050987
40
0.199199183050987
40
0.399399387288238
40
0.399399387288238
40
0.449449438347552
40
0.449449438347552
40
0.499499489406865
40
0.499499489406865
40
0.599599591525492
40
0.599599591525492
40
0.699699693644118
40
0.699699693644118
40
0.799799795762745
40
0.799799795762745
40
0.899899897881371
40
0.899899897881371
40
0.949949948940686
40
0.949949948940686
40
1
40
1
40
1
40
1
41
1
10
39.4313701142737
20
5.2902241231198
30
0
41
1
10
40.4225813813364
20
5.29075926740086
30
0
41
1
10
41.4076743973175
20
5.2189540101806
30
-1E-16
41
1
10
43.3869455682299
20
4.93584904161358
30
-1E-16
41
1
10
44.3812987590665
20
4.72398196683278
30
2E-16
41
1
10
45.6373388961303
20
4.37699065104857
30
2E-16
41
1
10
45.8886873030862
20
4.30369359307383
30
2E-16
41
1
10
46.3895172112888
20
4.15024191012086
30
2E-16
41
1
10
46.6393297030221
20
4.0699702991075
30
2E-16
41
1
10
47.3873251416903
20
3.81907314543278
30
2E-16
41
1
10
47.8843660852991
20
3.63878268061069
30
2E-16
41
1
10
48.8768718537594
20
3.25492167151694
30
-2E-16
41
1
10
49.3722950450343
20
3.05126471275403
30
-2E-16
41
1
10
50.3639329408158
20
2.62449403766578
30
-2E-16
41
1
10
50.8601527235905
20
2.40141750171958
30
-1E-16
41
1
10
51.8548277405199
20
1.93815428322506
30
-1E-16
41
1
10
52.3537833194251
20
1.69890781117809
30
-1E-16
41
1
10
53.105565945683
20
1.33008326557555
30
-1E-16
41
1
10
53.357034702848
20
1.20539099701114
30
-1E-16
41
1
10
53.8595536812333
20
0.954279233179903
30
-1E-16
41
1
10
54.110675181554
20
0.827828012647672
30
-1E-16
41
1
10
54.3618407060928
20
0.700835843662162
30
0
0
SPLINE
5
CD
100
AcDbEntity
8
1
62
256
6
ByLayer
370
18
48
1
60
0
100
AcDbSpline
70
4
71
3
72
36
73
32
40
0
40
0
40
0
40
0
40
0.497564738594574
40
0.497564738594574
40
0.664981312479906
40
0.664981312479906
40
0.776797683926645
40
0.776797683926645
40
0.851462652089536
40
0.851462652089536
40
0.901316360279268
40
0.901316360279268
40
0.934610097973588
40
0.934610097973588
40
0.956849901025447
40
0.956849901025447
40
0.971751046615241
40
0.971751046615241
40
0.981741988177915
40
0.981741988177915
40
0.988294710290753
40
0.988294710290753
40
0.992640520888403
40
0.992640520888403
40
0.995621640093557
40
0.995621640093557
40
0.998449406788442
40
0.998449406788442
40
0.99990286287403
40
0.99990286287403
40
1
40
1
40
1
40
1
41
1
10
54.829996122964
20
5.29883397544089
30
0
41
1
10
54.8830117593114
20
5.26419870645461
30
0
41
1
10
54.9361518131466
20
5.22921841569479
30
0
41
1
10
55.0072010137734
20
5.18212209368571
30
0
41
1
10
55.0250904390222
20
5.1702359830112
30
0
41
1
10
55.054921986175
20
5.15036937361057
30
0
41
1
10
55.0668659836476
20
5.14240281952493
30
0
41
1
10
55.0868080254907
20
5.12908033082476
30
0
41
1
10
55.094798662466
20
5.12373642672435
30
0
41
1
10
55.108141813481
20
5.1148035159319
30
0
41
1
10
55.1134886523183
20
5.11122143156334
30
0
41
1
10
55.1224158350002
20
5.10523660719866
30
0
41
1
10
55.1259931259465
20
5.10283727578076
30
0
41
1
10
55.1319643913402
20
5.09883048591252
30
0
41
1
10
55.134356388771
20
5.09722497147962
30
0
41
1
10
55.138324153804
20
5.0945614000604
30
0
41
1
10
55.1399014327836
20
5.09350255276786
30
0
41
1
10
55.1425424222601
20
5.09172913055048
30
0
41
1
10
55.1436120215144
20
5.09101067366825
30
0
41
1
10
55.1454151016759
20
5.08979897049753
30
0
41
1
10
55.1461383987938
20
5.08931275058072
30
0
41
1
10
55.1473360170716
20
5.08850769863639
30
0
41
1
10
55.1478126137842
20
5.08818732734713
30
0
41
1
10
55.1486048066256
20
5.08765491323643
30
0
41
1
10
55.1489244748867
20
5.08744009951056
30
0
41
1
10
55.14952943161
20
5.08703371966757
30
0
41
1
10
55.1498197331484
20
5.08683876801158
30
0
41
1
10
55.150211536616
20
5.08657596867184
30
0
41
1
10
55.1503370506482
20
5.08649185012911
30
0
41
1
10
55.1504436502792
20
5.08642056540006
30
0
41
1
10
55.150451964198
20
5.08641500673522
30
0
41
1
10
55.1504602786388
20
5.08640944885121
30
0
0
SPLINE
5
CE
100
AcDbEntity
8
1
62
256
6
ByLayer
370
18
48
1
60
0
100
AcDbSpline
70
4
71
3
72
10
73
6
40
0
40
0
40
0
40
0
40
0.5
40
0.5
40
1
40
1
40
1
40
1
41
1
10
54.8108518220134
20
-5.23050910440767
30
0
41
1
10
54.8141913919949
20
-5.25065742450258
30
0
41
1
10
54.8173840748734
20
-5.26648276937112
30
0
41
1
10
54.8237033932119
20
-5.28933419732815
30
0
41
1
10
54.8268426703688
20
-5.29636229660824
30
0
41
1
10
54.8299961229537
20
-5.29883397544799
30
0
0
SPLINE
5
CF
100
AcDbEntity
8
1
62
256
6
ByLayer
370
18
48
1
60
0
100
AcDbSpline
70
4
71
3
72
38
73
34
40
0
40
0
40
0
40
0
40
0.0625
40
0.0625
40
0.125
40
0.125
40
0.1875
40
0.1875
40
0.25
40
0.25
40
0.3125
40
0.3125
40
0.375
40
0.375
40
0.4375
40
0.4375
40
0.5
40
0.5
40
0.5625
40
0.5625
40
0.625
40
0.625
40
0.6875
40
0.6875
40
0.75
40
0.75
40
0.8125
40
0.8125
40
0.875
40
0.875
40
0.9375
40
0.9375
40
1
40
1
40
1
40
1
41
1
10
23.2
20
5.26365689835353
30
0
41
1
10
23.859263830432
20
5.23767179647456
30
0
41
1
10
24.5186419111816
20
5.17981326576896
30
-1E-16
41
1
10
25.8371244626541
20
5.00245648068116
30
-1E-16
41
1
10
26.4959650361728
20
4.88299770244117
30
1E-16
41
1
10
27.8139255425636
20
4.58672950808722
30
2E-16
41
1
10
28.4734102989998
20
4.40984467291935
30
2E-16
41
1
10
29.7918344450002
20
4.00514334712872
30
2E-16
41
1
10
30.4510090075797
20
3.77722470130135
30
2E-16
41
1
10
31.7693253605438
20
3.27851904781502
30
-2E-16
41
1
10
32.4285706749789
20
3.00774321347075
30
-2E-16
41
1
10
33.7460148864691
20
2.43379478489024
30
-1E-16
41
1
10
34.4051471666203
20
2.13011641733178
30
-1E-16
41
1
10
35.7234552082019
20
1.50042590617363
30
-1E-16
41
1
10
36.3824683676998
20
1.17457294747371
30
-1E-16
41
1
10
37.7007059620689
20
0.512654023634809
30
0
41
1
10
38.359992268143
20
0.176545258818976
30
0
41
1
10
39.67769810093
20
-0.493864696941444
30
0
41
1
10
40.3361565746864
20
-0.828142900815635
30
1E-16
41
1
10
41.6540673054362
20
-1.48315349301018
30
1E-16
41
1
10
42.3127393629125
20
-1.80346806270327
30
1E-16
41
1
10
43.6301832069387
20
-2.41883204709501
30
1E-16
41
1
10
44.2894245019767
20
-2.71405190255129
30
2E-16
41
1
10
45.6072297359102
20
-3.26837234571903
30
2E-16
41
1
10
46.2661291814153
20
-3.52758541426724
30
2E-16
41
1
10
47.5839320579273
20
-4.00041344083496
30
-2E-16
41
1
10
48.2421459030897
20
-4.21376598155877
30
-2E-16
41
1
10
49.560024452445
20
-4.58789856032902
30
-2E-16
41
1
10
50.2188768315887
20
-4.74843937873473
30
-2E-16
41
1
10
51.5367367728501
20
-5.01065680918751
30
1E-16
41
1
10
52.1947253652605
20
-5.11215563709149
30
1E-16
41
1
10
53.5124447922457
20
-5.25282393651591
30
0
41
1
10
54.1712449414818
20
-5.29184921322033
30
0
41
1
10
54.8299961229682
20
-5.29883397544796
30
0
0
SPLINE
5
D0
100
AcDbEntity
8
1
62
256
6
ByLayer
370
18
48
1
60
0
100
AcDbSpline
70
4
71
3
72
8
73
4
40
0
40
0
40
0
40
0
40
1
40
1
40
1
40
1
41
1
10
3.64710958540326
20
5.20106064186456
30
0
41
1
10
3.64665215056542
20
5.1350812483131
30
0
41
1
10
3.64618934287822
20
5.0691028543161
30
0
41
1
10
3.64572116537789
20
5.00312551157421
30
0
0
SPLINE
5
D1
100
AcDbEntity
8
1
62
256
6
ByLayer
370
18
48
1
60
0
100
AcDbSpline
70
4
71
3
72
16
73
12
40
0
40
0
40
0
40
0
40
0.401506874432621
40
0.401506874432621
40
0.602260311648933
40
0.602260311648933
40
0.702637030257089
40
0.702637030257089
40
0.803013748865245
40
0.803013748865245
40
1
40
1
40
1
40
1
41
1
10
23.2000000000132
20
5.25660812079724
30
0
41
1
10
22.0399081171204
20
5.31140520371702
30
0
41
1
10
20.8871983909311
20
5.26740716671438
30
0
41
1
10
19.1498298535337
20
5.05663194698968
30
-1E-16
41
1
10
18.5691608681976
20
4.96237820858178
30
-1E-16
41
1
10
17.6937086093333
20
4.78557115548975
30
2E-16
41
1
10
17.4005792166576
20
4.72058209985442
30
2E-16
41
1
10
16.8151572371306
20
4.57977267391385
30
2E-16
41
1
10
16.5233195862131
20
4.50408481467193
30
2E-16
41
1
10
15.6608335900333
20
4.26498842893795
30
2E-16
41
1
10
15.0921701249428
20
4.08723590099208
30
2E-16
41
1
10
14.5246150414584
20
3.89246875036861
30
2E-16
0
SPLINE
5
D2
100
AcDbEntity
8
1
62
256
6
ByLayer
370
18
48
1
60
0
100
AcDbSpline
70
4
71
3
72
10
73
6
40
0
40
0
40
0
40
0
40
0.5
40
0.5
40
1
40
1
40
1
40
1
41
1
10
56.5361248490234
20
1.63117694026297
30
0
41
1
10
56.3911403125489
20
1.59481297728868
30
0
41
1
10
56.2444356462372
20
1.56330609153048
30
0
41
1
10
55.9512928256292
20
1.50864377911461
30
0
41
1
10
55.804462068392
20
1.4851269833616
30
0
41
1
10
55.6574583783508
20
1.46415360711339
30
0
0
SPLINE
5
D3
100
AcDbEntity
8
1
62
256
6
ByLayer
370
18
48
1
60
0
100
AcDbSpline
70
4
71
3
72
36
73
32
40
0
40
0
40
0
40
0
40
0.497564738655279
40
0.497564738655279
40
0.664981312565587
40
0.664981312565587
40
0.77679768402881
40
0.77679768402881
40
0.851462652202604
40
0.851462652202604
40
0.901316360399575
40
0.901316360399575
40
0.93461009809871
40
0.93461009809871
40
0.956849901153906
40
0.956849901153906
40
0.971751046745735
40
0.971751046745735
40
0.98174198830971
40
0.98174198830971
40
0.988294710423337
40
0.988294710423337
40
0.992640521021521
40
0.992640521021521
40
0.995621640227118
40
0.995621640227118
40
0.998449406922716
40
0.998449406922716
40
0.999902863008327
40
0.999902863008327
40
1
40
1
40
1
40
1
41
1
10
54.8299961229678
20
-5.29883397543841
30
0
41
1
10
54.8830117593139
20
-5.26419870645293
30
0
41
1
10
54.9361518131478
20
-5.22921841569399
30
0
41
1
10
55.0072010137735
20
-5.18212209368571
30
0
41
1
10
55.0250904390223
20
-5.17023598301111
30
0
41
1
10
55.0549219861752
20
-5.15036937361043
30
0
41
1
10
55.0668659836478
20
-5.14240281952482
30
0
41
1
10
55.0868080254909
20
-5.12908033082462
30
0
41
1
10
55.0947986624663
20
-5.12373642672418
30
0
41
1
10
55.1081418134813
20
-5.11480351593173
30
0
41
1
10
55.1134886523186
20
-5.11122143156317
30
0
41
1
10
55.1224158350004
20
-5.10523660719849
30
0
41
1
10
55.1259931259467
20
-5.10283727578064
30
0
41
1
10
55.1319643913404
20
-5.09883048591237
30
0
41
1
10
55.1343563887713
20
-5.0972249714795
30
0
41
1
10
55.1383241538042
20
-5.09456140006026
30
0
41
1
10
55.1399014327838
20
-5.09350255276775
30
0
41
1
10
55.1425424222603
20
-5.09172913055036
30
0
41
1
10
55.1436120215145
20
-5.09101067366817
30
0
41
1
10
55.145415101676
20
-5.08979897049747
30
0
41
1
10
55.1461383987939
20
-5.08931275058063
30
0
41
1
10
55.1473360170716
20
-5.08850769863633
30
0
41
1
10
55.1478126137842
20
-5.08818732734707
30
0
41
1
10
55.1486048066257
20
-5.08765491323638
30
0
41
1
10
55.1489244748867
20
-5.08744009951053
30
0
41
1
10
55.1495294316101
20
-5.08703371966752
30
0
41
1
10
55.1498197331485
20
-5.08683876801149
30
0
41
1
10
55.1502115366161
20
-5.08657596867178
30
0
41
1
10
55.1503370506483
20
-5.08649185012905
30
0
41
1
10
55.1504436502657
20
-5.08642056540913
30
0
41
1
10
55.1504519641844
20
-5.08641500674426
30
0
41
1
10
55.1504602786253
20
-5.08640944886025
30
0
0
SPLINE
5
D4
100
AcDbEntity
8
1
62
256
6
ByLayer
370
18
48
1
60
0
100
AcDbSpline
70
4
71
3
72
8
73
4
40
0
40
0
40
0
40
0
40
1
40
1
40
1
40
1
41
1
10
55.158495210715
20
5.08100162726743
30
0
41
1
10
55.1558160480005
20
5.08280494990137
30
0
41
1
10
55.1531369215025
20
5.08460810245924
30
0
41
1
10
55.1504578312318
20
5.08641108469863
30
0
0
SPLINE
5
D5
100
AcDbEntity
8
1
62
256
6
ByLayer
370
18
48
1
60
0
100
AcDbSpline
70
4
71
3
72
22
73
18
40
0
40
0
40
0
40
0
40
0.0881533167216601
40
0.0881533167216601
40
0.278756707070981
40
0.278756707070981
40
0.374058402245642
40
0.374058402245642
40
0.469360097420303
40
0.469360097420303
40
0.659963487769623
40
0.659963487769623
40
0.755265182944283
40
0.755265182944283
40
0.850566878118943
40
0.850566878118943
40
1
40
1
40
1
40
1
41
1
10
24.3754555143395
20
-5.01917848072191
30
0
41
1
10
23.881481329087
20
-5.03112373669654
30
0
41
1
10
23.388391379015
20
-5.02606486149688
30
0
41
1
10
21.8290671409869
20
-4.95641587329371
30
0
41
1
10
20.7625883930409
20
-4.82969196231696
30
1E-16
41
1
10
19.1480794315311
20
-4.52474529921406
30
-2E-16
41
1
10
18.6062590612201
20
-4.40364896457808
30
-2E-16
41
1
10
17.5306260831865
20
-4.1288068161856
30
-2E-16
41
1
10
16.9951048278566
20
-3.97498108255027
30
-2E-16
41
1
10
15.3920235029875
20
-3.46932483276268
30
2E-16
41
1
10
14.3280665343308
20
-3.07301534389768
30
2E-16
41
1
10
12.7245369546995
20
-2.41353385358846
30
1E-16
41
1
10
12.188874975633
20
-2.18269896317909
30
1E-16
41
1
10
11.112887183602
20
-1.70322927179902
30
1E-16
41
1
10
10.5709807397264
20
-1.45404761146736
30
1E-16
41
1
10
9.1883939861693
20
-0.806144277309699
30
0
41
1
10
8.34945711375852
20
-0.401106532062812
30
0
41
1
10
7.511125211494
20
0.0035119411809603
30
0
0
SPLINE
5
D6
100
AcDbEntity
8
1
62
256
6
ByLayer
370
18
48
1
60
0
100
AcDbSpline
70
4
71
3
72
20
73
16
40
0
40
0
40
0
40
0
40
0.125000000000002
40
0.125000000000002
40
0.250000000000005
40
0.250000000000005
40
0.375000000000007
40
0.375000000000007
40
0.437500000000006
40
0.437500000000006
40
0.500000000000006
40
0.500000000000006
40
0.750000000000003
40
0.750000000000003
40
1
40
1
40
1
40
1
41
1
10
56.5361248490233
20
1.63117694026317
30
0
41
1
10
56.4631165670699
20
1.74929954840482
30
0
41
1
10
56.3919963778141
20
1.87452025581777
30
0
41
1
10
56.2549189653972
20
2.13722412242731
30
0
41
1
10
56.1895832354362
20
2.2734048023174
30
0
41
1
10
56.0641740522945
20
2.55527895430856
30
0
41
1
10
56.0045285767034
20
2.70003898699008
30
0
41
1
10
55.9191279625769
20
2.92048486680545
30
0
41
1
10
55.8912672282152
20
2.99470048713309
30
0
41
1
10
55.8368022456653
20
3.14370208655288
30
0
41
1
10
55.810342153721
20
3.21849402302956
30
0
41
1
10
55.6781956605641
20
3.5922839479442
30
0
41
1
10
55.5738893129918
20
3.89171437878864
30
0
41
1
10
55.3663770464732
20
4.48822497386072
30
0
41
1
10
55.2630985351252
20
4.78550570241231
30
0
41
1
10
55.158495210715
20
5.08100162726743
30
0
0
SPLINE
5
D7
100
AcDbEntity
8
1
62
256
6
ByLayer
370
18
48
1
60
0
100
AcDbSpline
70
4
71
3
72
60
73
56
40
0
40
0
40
0
40
0
40
0.0666466010575688
40
0.0666466010575688
40
0.103652144676869
40
0.103652144676869
40
0.140657688296168
40
0.140657688296168
40
0.177663231915468
40
0.177663231915468
40
0.196166003725118
40
0.196166003725118
40
0.214668775534768
40
0.214668775534768
40
0.288679862773368
40
0.288679862773368
40
0.362690950011967
40
0.362690950011967
40
0.381193721821617
40
0.381193721821617
40
0.399696493631266
40
0.399696493631266
40
0.436702037250566
40
0.436702037250566
40
0.473707580869865
40
0.473707580869865
40
0.510713124489165
40
0.510713124489165
40
0.547718668108464
40
0.547718668108464
40
0.566221439918114
40
0.566221439918114
40
0.584724211727764
40
0.584724211727764
40
0.658735298966364
40
0.658735298966364
40
0.695740842585664
40
0.695740842585664
40
0.732746386204964
40
0.732746386204964
40
0.751249158014614
40
0.751249158014614
40
0.769751929824264
40
0.769751929824264
40
0.806757473443564
40
0.806757473443564
40
0.880768560682164
40
0.880768560682164
40
0.954779647920764
40
0.954779647920764
40
0.973282419730414
40
0.973282419730414
40
0.991785191540064
40
0.991785191540064
40
1
40
1
40
1
40
1
41
1
10
6.8127037194603
20
5.26983244237721
30
0
41
1
10
7.71746807563807
20
5.27027885121194
30
0
41
1
10
8.61384387609138
20
5.21069401914096
30
0
41
1
10
10.0051812440003
20
5.03015284083219
30
-1E-16
41
1
10
10.5011806698897
20
4.94821650730879
30
-1E-16
41
1
10
11.4940593896161
20
4.75088824088883
30
2E-16
41
1
10
11.9910627140512
20
4.63564065919914
30
2E-16
41
1
10
12.9875515405645
20
4.37280594737061
30
2E-16
41
1
10
13.4873455922066
20
4.22552766413796
30
2E-16
41
1
10
14.2407585116017
20
3.98192652785144
30
2E-16
41
1
10
14.4926323269377
20
3.89685421619208
30
2E-16
41
1
10
14.9942876640944
20
3.72071284602913
30
2E-16
41
1
10
15.2445030524497
20
3.62949246146701
30
2E-16
41
1
10
16.4933758347676
20
3.15908300399579
30
-2E-16
41
1
10
17.4850881423146
20
2.73644432793472
30
-2E-16
41
1
10
19.4700707984677
20
1.82730250973145
30
-1E-16
41
1
10
20.463446823476
20
1.34101308552701
30
-1E-16
41
1
10
21.7162853606453
20
0.711638327921833
30
0
41
1
10
21.9679522518405
20
0.584765837584797
30
0
41
1
10
22.4705688017178
20
0.330331320004206
30
0
41
1
10
22.7212016846165
20
0.203000194375164
30
0
41
1
10
23.4714696314859
20
-0.178543931333479
30
0
41
1
10
23.9694934459252
20
-0.432260345870446
30
0
41
1
10
24.9637268611717
20
-0.93347064931686
30
1E-16
41
1
10
25.4595763141032
20
-1.18168492724007
30
1E-16
41
1
10
26.4516494824238
20
-1.66763221077309
30
1E-16
41
1
10
26.9477072183311
20
-1.90570147271919
30
1E-16
41
1
10
27.9416557498614
20
-2.36855088841881
30
1E-16
41
1
10
28.4396380680724
20
-2.59315459951191
30
2E-16
41
1
10
29.1898387048433
20
-2.91657838812989
30
2E-16
41
1
10
29.4403975523502
20
-3.02222207178067
30
2E-16
41
1
10
29.9427487138831
20
-3.22869723092907
30
2E-16
41
1
10
30.1942873474785
20
-3.32936473318711
30
2E-16
41
1
10
31.4472907484018
20
-3.8151189793777
30
-2E-16
41
1
10
32.4401410179556
20
-4.15248104486491
30
-2E-16
41
1
10
33.928130119166
20
-4.56685286015977
30
-2E-16
41
1
10
34.4236994025242
20
-4.68993130381023
30
-2E-16
41
1
10
35.416796120901
20
-4.90316604131604
30
1E-16
41
1
10
35.9140548374409
20
-4.99357955881305
30
1E-16
41
1
10
36.6626265645086
20
-5.10328456656194
30
1E-16
41
1
10
36.9126013348554
20
-5.13553089414361
30
1E-16
41
1
10
37.4138138252683
20
-5.19109907854619
30
1E-16
41
1
10
37.665480250375
20
-5.21446595885854
30
0
41
1
10
38.4187829246741
20
-5.27066673068811
30
0
41
1
10
38.9182992953253
20
-5.28957626673201
30
0
41
1
10
40.4126808006466
20
-5.29147919052696
30
0
41
1
10
41.4027137177608
20
-5.21966356077203
30
1E-16
41
1
10
43.3869455682298
20
-4.93584904161358
30
1E-16
41
1
10
44.3812987590665
20
-4.72398196683275
30
-2E-16
41
1
10
45.6373388961304
20
-4.37699065104857
30
-2E-16
41
1
10
45.8886873030862
20
-4.30369359307383
30
-2E-16
41
1
10
46.3895172112888
20
-4.15024191012083
30
-2E-16
41
1
10
46.6393297030222
20
-4.06997029910747
30
-2E-16
41
1
10
46.9993591512132
20
-3.94920704425252
30
-2E-16
41
1
10
47.109976822467
20
-3.91143428155414
30
-2E-16
41
1
10
47.220523659913
20
-3.87303478464526
30
-2E-16
0
SPLINE
5
D8
100
AcDbEntity
8
1
62
256
6
ByLayer
370
18
48
1
60
0
100
AcDbSpline
70
4
71
3
72
14
73
10
40
0
40
0
40
0
40
0
40
0.220772636045757
40
0.220772636045757
40
0.480515090697171
40
0.480515090697171
40
0.740257545348586
40
0.740257545348586
40
1
40
1
40
1
40
1
41
1
10
47.2215589159667
20
3.86884059243221
30
1E-16
41
1
10
47.7814553691106
20
4.06384138814755
30
2E-16
41
1
10
48.3410082320869
20
4.24183201094289
30
2E-16
41
1
10
49.5600244524448
20
4.58789856032897
30
2E-16
41
1
10
50.2188768315884
20
4.74843937873467
30
2E-16
41
1
10
51.5367367728498
20
5.01065680918745
30
-1E-16
41
1
10
52.1947253652603
20
5.11215563709146
30
-1E-16
41
1
10
53.5124447922455
20
5.25282393651588
30
0
41
1
10
54.1712449414816
20
5.2918492132203
30
0
41
1
10
54.8299961229679
20
5.29883397544793
30
0
0
SPLINE
5
D9
100
AcDbEntity
8
1
62
256
6
ByLayer
370
18
48
1
60
0
100
AcDbSpline
70
4
71
3
72
10
73
6
40
0
40
0
40
0
40
0
40
0.5
40
0.5
40
1
40
1
40
1
40
1
41
1
10
55.158495210715
20
-5.08100162726743
30
0
41
1
10
55.1416150127416
20
-5.0920346366851
30
0
41
1
10
55.1273152241066
20
-5.09660426862632
30
0
41
1
10
55.1027373401496
20
-5.09304716287946
30
0
41
1
10
55.0926325388776
20
-5.08496618751349
30
0
41
1
10
55.08399902227
20
-5.07110586487897
30
0
0
SPLINE
5
DA
100
AcDbEntity
8
1
62
256
6
ByLayer
370
18
48
1
60
0
100
AcDbSpline
70
4
71
3
72
14
73
10
40
0
40
0
40
0
40
0
40
0.270092623340603
40
0.270092623340603
40
0.50516716097124
40
0.50516716097124
40
0.78069686372123
40
0.78069686372123
40
1
40
1
40
1
40
1
41
1
10
54.5019218521773
20
-0.105371362255767
30
0
41
1
10
54.502660980008
20
-0.1057011885691
30
0
41
1
10
54.503386321462
20
-0.106402299678081
30
0
41
1
10
54.5045964216087
20
-0.108147145097547
30
0
41
1
10
54.5051168337875
20
-0.10915820652022
30
0
41
1
10
54.5060870087687
20
-0.111619703308577
30
0
41
1
10
54.5065247689013
20
-0.113153814805145
30
0
41
1
10
54.5070730275343
20
-0.116078925605649
30
0
41
1
10
54.5072374321667
20
-0.117469867973739
30
0
41
1
10
54.5072913513049
20
-0.118856688017814
30
0
0
SPLINE
5
DB
100
AcDbEntity
8
1
62
256
6
ByLayer
370
18
48
1
60
0
100
AcDbSpline
70
4
71
3
72
34
73
30
40
0
40
0
40
0
40
0
40
0.0246498428766402
40
0.0246498428766402
40
0.0716999265643007
40
0.0716999265643007
40
0.165800093939622
40
0.165800093939622
40
0.259900261314942
40
0.259900261314942
40
0.354000428690263
40
0.354000428690263
40
0.448100596065584
40
0.448100596065584
40
0.495150679753244
40
0.495150679753244
40
0.542200763440904
40
0.542200763440904
40
0.636300930816227
40
0.636300930816227
40
0.73040109819155
40
0.73040109819155
40
0.777451181879211
40
0.777451181879211
40
0.824501265566872
40
0.824501265566872
40
0.918601432942195
40
0.918601432942195
40
1
40
1
40
1
40
1
41
1
10
37.4388373246388
20
5.0241317534946
30
0
41
1
10
37.5784149958695
20
5.02780536258683
30
0
41
1
10
37.7178805335149
20
5.03026970172806
30
0
41
1
10
38.1226775513924
20
5.0339275999128
30
0
41
1
10
38.3877115646323
20
5.03096826327552
30
0
41
1
10
39.1816902270515
20
5.00539800272404
30
0
41
1
10
39.7094152398247
20
4.96740216215079
30
0
41
1
10
40.7623770620084
20
4.85646971878629
30
-1E-16
41
1
10
41.2872447678527
20
4.78431641968567
30
-1E-16
41
1
10
42.3389368165185
20
4.59998833321055
30
2E-16
41
1
10
42.8653098730711
20
4.48931714528317
30
2E-16
41
1
10
43.9203985762329
20
4.23435125632929
30
2E-16
41
1
10
44.4484740225074
20
4.09071469405907
30
2E-16
41
1
10
45.2457245275094
20
3.84938042776082
30
2E-16
41
1
10
45.5127087200053
20
3.76464113516516
30
2E-16
41
1
10
46.0454095930095
20
3.58837233009524
30
-2E-16
41
1
10
46.3110566707352
20
3.49686411476975
30
-2E-16
41
1
10
47.1061647637025
20
3.21305968124403
30
-2E-16
41
1
10
47.6336443909508
20
3.01152325872954
30
-2E-16
41
1
10
48.6875684386138
20
2.58730425708021
30
-2E-16
41
1
10
49.2138093894096
20
2.36500043863362
30
-1E-16
41
1
10
50.0024494574609
20
2.01877249037761
30
-1E-16
41
1
10
50.2650984056953
20
1.90115759568135
30
-1E-16
41
1
10
50.790822256762
20
1.66237533242236
30
-1E-16
41
1
10
51.0540458153857
20
1.54128259738471
30
-1E-16
41
1
10
51.844937184002
20
1.17373697981853
30
-1E-16
41
1
10
52.3738540225146
20
0.923087965829779
30
-1E-16
41
1
10
53.3641151703027
20
0.448061745168928
30
0
41
1
10
53.8255139276572
20
0.224372161346025
30
0
41
1
10
54.2862811629828
20
-0.000192374810041
30
0
0
SPLINE
5
DC
100
AcDbEntity
8
1
62
256
6
ByLayer
370
18
48
1
60
0
100
AcDbSpline
70
4
71
3
72
8
73
4
40
0
40
0
40
0
40
0
40
1
40
1
40
1
40
1
41
1
10
55.1584952107149
20
-5.08100162726746
30
0
41
1
10
55.1558160479851
20
-5.08280494991172
30
0
41
1
10
55.1531369214718
20
-5.08460810247988
30
0
41
1
10
55.1504578311858
20
-5.08641108472958
30
0
0
SPLINE
5
DD
100
AcDbEntity
8
1
62
256
6
ByLayer
370
18
48
1
60
0
100
AcDbSpline
70
4
71
3
72
8
73
4
40
0
40
0
40
0
40
0
40
1
40
1
40
1
40
1
41
1
10
55.1082666223913
20
-5.00030121256742
30
0
41
1
10
55.1001420968366
20
-5.02390302549199
30
0
41
1
10
55.0920526571038
20
-5.047504510192
30
0
41
1
10
55.08399902227
20
-5.07110586487894
30
0
0
SPLINE
5
DE
100
AcDbEntity
8
1
62
256
6
ByLayer
370
18
48
1
60
0
100
AcDbSpline
70
4
71
3
72
10
73
6
40
0
40
0
40
0
40
0
40
0.5
40
0.5
40
1
40
1
40
1
40
1
41
1
10
3.50164593791789
20
5.21436643850276
30
0
41
1
10
3.50164593791789
20
5.20948351653118
30
0
41
1
10
3.52017085205603
20
5.20441117039061
30
0
41
1
10
3.57872714132179
20
5.1987842654176
30
0
41
1
10
3.6164882025497
20
5.19856050711294
30
0
41
1
10
3.64710958540331
20
5.20106064186459
30
0
0
SPLINE
5
DF
100
AcDbEntity
8
1
62
256
6
ByLayer
370
18
48
1
60
0
100
AcDbSpline
70
2053
71
3
72
64
73
60
40
0
40
0
40
0
40
0
40
0.0625
40
0.0625
40
0.125
40
0.125
40
0.1875
40
0.1875
40
0.21875
40
0.21875
40
0.25
40
0.25
40
0.281250000000001
40
0.281250000000001
40
0.312500000000001
40
0.312500000000001
40
0.343750000000001
40
0.343750000000001
40
0.375000000000001
40
0.375000000000001
40
0.406250000000001
40
0.406250000000001
40
0.437500000000001
40
0.437500000000001
40
0.468750000000001
40
0.468750000000001
40
0.500000000000001
40
0.500000000000001
40
0.531250000000002
40
0.531250000000002
40
0.562500000000002
40
0.562500000000002
40
0.593750000000002
40
0.593750000000002
40
0.625000000000002
40
0.625000000000002
40
0.656250000000002
40
0.656250000000002
40
0.687500000000002
40
0.687500000000002
40
0.718750000000002
40
0.718750000000002
40
0.750000000000003
40
0.750000000000003
40
0.781250000000003
40
0.781250000000003
40
0.812500000000003
40
0.812500000000003
40
0.828125000000003
40
0.828125000000003
40
0.843750000000003
40
0.843750000000003
40
0.875000000000001
40
0.875000000000001
40
0.937500000000001
40
0.937500000000001
40
0.96875
40
0.96875
40
1
40
1
40
1
40
1
41
1
10
55.456383430437
20
-2.49222066977861
30
2E-16
41
1
10
55.4163025435803
20
-2.54504794708385
30
2E-16
41
1
10
55.3790240739672
20
-2.57875000875723
30
2E-16
41
1
10
55.3081276992919
20
-2.60904972836067
30
2E-16
41
1
10
55.2762361769321
20
-2.60478416059303
30
2E-16
41
1
10
55.2175000603884
20
-2.55704973018928
30
2E-16
41
1
10
55.1919793735512
20
-2.51471301134845
30
2E-16
41
1
10
55.1585689968206
20
-2.42267728655924
30
1E-16
41
1
10
55.1485813076119
20
-2.38801847905188
30
1E-16
41
1
10
55.1308123527986
20
-2.31074783607718
30
1E-16
41
1
10
55.1229900247061
20
-2.2678707849025
30
1E-16
41
1
10
55.1100435625639
20
-2.1744008372464
30
1E-16
41
1
10
55.105059333476
20
-2.12496804596069
30
1E-16
41
1
10
55.0983810527514
20
-2.02057273136367
30
1E-16
41
1
10
55.0966928680235
20
-1.96481566602623
30
1E-16
41
1
10
55.097526626613
20
-1.85101889555818
30
1E-16
41
1
10
55.0999864096964
20
-1.79347806217368
30
1E-16
41
1
10
55.1096971752365
20
-1.67708155653875
30
1E-16
41
1
10
55.1170816981378
20
-1.6179573832992
30
1E-16
41
1
10
55.1365526178925
20
-1.50550822977476
30
1E-16
41
1
10
55.1488481230509
20
-1.45071356129651
30
1E-16
41
1
10
55.1780742657897
20
-1.34800070928588
30
1E-16
41
1
10
55.1947068859248
20
-1.3008635041692
30
1E-16
41
1
10
55.2319036648226
20
-1.21442901292087
30
1E-16
41
1
10
55.252250292126
20
-1.17579534378359
30
1E-16
41
1
10
55.2949008245791
20
-1.10880205551822
30
1E-16
41
1
10
55.3175844255847
20
-1.07988070542947
30
1E-16
41
1
10
55.363597450061
20
-1.03235764480891
30
1E-16
41
1
10
55.3869986110661
20
-1.01353763755125
30
1E-16
41
1
10
55.4343239436285
20
-0.984874302871418
30
1E-16
41
1
10
55.4581019629455
20
-0.975191766335314
30
1E-16
41
1
10
55.5045513879397
20
-0.964739223845982
30
1E-16
41
1
10
55.5273898341576
20
-0.963867141483092
30
1E-16
41
1
10
55.5720315114936
20
-0.970710402231617
30
1E-16
41
1
10
55.5935931268912
20
-0.978441732348642
30
1E-16
41
1
10
55.6341892478092
20
-1.00205491134662
30
1E-16
41
1
10
55.6533515254699
20
-1.01794968503611
30
1E-16
41
1
10
55.6890091240589
20
-1.0584651624126
30
1E-16
41
1
10
55.7055141716298
20
-1.08325126264285
30
1E-16
41
1
10
55.7341742503932
20
-1.14065240179204
30
1E-16
41
1
10
55.7465056013338
20
-1.17340410849377
30
1E-16
41
1
10
55.7665269043374
20
-1.24815103687948
30
1E-16
41
1
10
55.7740697511967
20
-1.2899234824628
30
1E-16
41
1
10
55.7832465373179
20
-1.3802171511642
30
1E-16
41
1
10
55.7849570719602
20
-1.42981725163676
30
1E-16
41
1
10
55.7820188773259
20
-1.53402728501763
30
1E-16
41
1
10
55.777478346896
20
-1.5881652914066
30
1E-16
41
1
10
55.766124846311
20
-1.67262512455739
30
1E-16
41
1
10
55.7615357551657
20
-1.70152595890477
30
1E-16
41
1
10
55.7510991576291
20
-1.7588952934596
30
1E-16
41
1
10
55.7452446823443
20
-1.7874871177313
30
1E-16
41
1
10
55.7259192834143
20
-1.87301276260422
30
-1E-16
41
1
10
55.710462782396
20
-1.93041543511245
30
-1E-16
41
1
10
55.6597534120141
20
-2.09498958246354
30
-1E-16
41
1
10
55.6197289021498
20
-2.19660515467271
30
-1E-16
41
1
10
55.5585926020172
20
-2.32545397557348
30
-1E-16
41
1
10
55.5377138298576
20
-2.36510448661926
30
-1E-16
41
1
10
55.496739443708
20
-2.43505052353802
30
1E-16
41
1
10
55.4764238738653
20
-2.46580703112599
30
2E-16
41
1
10
55.456383430437
20
-2.49222066977861
30
2E-16
0
SPLINE
5
E0
100
AcDbEntity
8
1
62
256
6
ByLayer
370
18
48
1
60
0
100
AcDbSpline
70
4
71
3
72
8
73
4
40
0
40
0
40
0
40
0
40
1
40
1
40
1
40
1
41
1
10
55.3587193104597
20
0.963762165618647
30
-1E-16
41
1
10
55.3888711403124
20
0.954396061137885
30
-1E-16
41
1
10
55.4208649916731
20
0.942505247555829
30
-1E-16
41
1
10
55.4539323668148
20
0.929143042218044
30
-1E-16
0
SPLINE
5
E1
100
AcDbEntity
8
1
62
256
6
ByLayer
370
18
48
1
60
0
100
AcDbSpline
70
4
71
3
72
8
73
4
40
0
40
0
40
0
40
0
40
1
40
1
40
1
40
1
41
1
10
54.8108518220155
20
-5.23050910440506
30
0
41
1
10
54.9016740351494
20
-5.17835254797711
30
0
41
1
10
54.9927103868416
20
-5.12520845559229
30
0
41
1
10
55.08399902227
20
-5.07110586487894
30
0
0
SPLINE
5
E2
100
AcDbEntity
8
1
62
256
6
ByLayer
370
18
48
1
60
0
100
AcDbSpline
70
4
71
3
72
22
73
18
40
0
40
0
40
0
40
0
40
0.164839775572718
40
0.164839775572718
40
0.373629831679538
40
0.373629831679538
40
0.478024859732948
40
0.478024859732948
40
0.582419887786358
40
0.582419887786358
40
0.79120994389318
40
0.79120994389318
40
0.89560497194659
40
0.89560497194659
40
0.947802485973295
40
0.947802485973295
40
1
40
1
40
1
40
1
41
1
10
39.7220559177519
20
0.226904169472903
30
0
41
1
10
40.5658278936134
20
-0.18067211184399
30
0
41
1
10
41.4062989251088
20
-0.589049821339898
30
0
41
1
10
43.3143978150338
20
-1.49415955239167
30
1E-16
41
1
10
44.382772630999
20
-1.98560330029537
30
1E-16
41
1
10
46.002771708008
20
-2.67144995833706
30
2E-16
41
1
10
46.5408069563677
20
-2.8893332869913
30
2E-16
41
1
10
47.6121227874718
20
-3.29845555811741
30
2E-16
41
1
10
48.1459041817719
20
-3.49006633324476
30
2E-16
41
1
10
49.7453158870324
20
-4.02111253471426
30
-2E-16
41
1
10
50.8089566356828
20
-4.31603215247804
30
-2E-16
41
1
10
52.4145492710932
20
-4.65262104706426
30
1E-16
41
1
10
52.9514530912335
20
-4.74719240652558
30
1E-16
41
1
10
53.7611374774237
20
-4.86027876502877
30
1E-16
41
1
10
54.0312772982377
20
-4.8931031799024
30
1E-16
41
1
10
54.571065221927
20
-4.9486532614234
30
0
41
1
10
54.8408987627238
20
-4.97096386622391
30
0
41
1
10
55.1108560426566
20
-4.9890767897403
30
0
0
SPLINE
5
E3
100
AcDbEntity
8
1
62
256
6
ByLayer
370
18
48
1
60
0
100
AcDbSpline
70
4
71
3
72
18
73
14
40
0
40
0
40
0
40
0
40
0.257221073363999
40
0.257221073363999
40
0.385831610046018
40
0.385831610046018
40
0.514442146728037
40
0.514442146728037
40
0.643052683410057
40
0.643052683410057
40
0.771663220092076
40
0.771663220092076
40
1
40
1
40
1
40
1
41
1
10
55.6574583783509
20
1.46415360711336
30
0
41
1
10
55.5737492597533
20
1.4522106222858
30
0
41
1
10
55.4926230644681
20
1.43345539589913
30
0
41
1
10
55.3749419053857
20
1.39597343595708
30
0
41
1
10
55.336097987676
20
1.38180442744189
30
0
41
1
10
55.2615068211322
20
1.35134976390742
30
0
41
1
10
55.22572804727
20
1.33509143709895
30
0
41
1
10
55.1570112565738
20
1.30108524345599
30
0
41
1
10
55.1240740708333
20
1.2833340389106
30
0
41
1
10
55.0609535214637
20
1.24682011412912
30
0
41
1
10
55.0308033237421
20
1.22805547215316
30
0
41
1
10
54.9531557013714
20
1.17678984561542
30
0
41
1
10
54.9093010327061
20
1.14442661291804
30
0
41
1
10
54.8714256458964
20
1.11366557906288
30
0
0
SPLINE
5
E4
100
AcDbEntity
8
1
62
256
6
ByLayer
370
18
48
1
60
0
100
AcDbSpline
70
4
71
3
72
18
73
14
40
0
40
0
40
0
40
0
40
0.193305183660309
40
0.193305183660309
40
0.327754319716926
40
0.327754319716926
40
0.394978887745233
40
0.394978887745233
40
0.46220345577354
40
0.46220345577354
40
0.73110172788677
40
0.73110172788677
40
1
40
1
40
1
40
1
41
1
10
22.2230828726651
20
-5.27944948152123
30
0
41
1
10
21.3913676146203
20
-5.27903980279143
30
0
41
1
10
20.5615906124685
20
-5.22790486793767
30
0
41
1
10
19.1498298535336
20
-5.05663194698968
30
1E-16
41
1
10
18.5691608681975
20
-4.96237820858175
30
1E-16
41
1
10
17.6937086093331
20
-4.78557115548969
30
-2E-16
41
1
10
17.4005792166573
20
-4.72058209985434
30
-2E-16
41
1
10
16.8151572371304
20
-4.57977267391379
30
-2E-16
41
1
10
16.5233195862129
20
-4.50408481467187
30
-2E-16
41
1
10
15.0676320435296
20
-4.10054245948564
30
-2E-16
41
1
10
13.9142368168444
20
-3.69725914591029
30
-2E-16
41
1
10
11.6030545799223
20
-2.7695922169566
30
2E-16
41
1
10
10.4453588985203
20
-2.2451655177905
30
1E-16
41
1
10
9.27270175430428
20
-1.6806488452371
30
1E-16
0
SPLINE
5
E5
100
AcDbEntity
8
1
62
256
6
ByLayer
370
18
48
1
60
0
100
AcDbSpline
70
4
71
3
72
24
73
20
40
0
40
0
40
0
40
0
40
0.0282398754714858
40
0.0282398754714858
40
0.14970989103755
40
0.14970989103755
40
0.271179906603614
40
0.271179906603614
40
0.392649922169679
40
0.392649922169679
40
0.514119937735743
40
0.514119937735743
40
0.635589953301807
40
0.635589953301807
40
0.757059968867871
40
0.757059968867871
40
0.878529984433936
40
0.878529984433936
40
1
40
1
40
1
40
1
41
1
10
39.6418215855134
20
-0.47447316451786
30
0
41
1
10
39.4869405479466
20
-0.399012701391769
30
0
41
1
10
39.3320541505288
20
-0.323385077479173
30
0
41
1
10
38.5108978301919
20
0.0780835031014533
30
0
41
1
10
37.846161014834
20
0.404325087194394
30
0
41
1
10
36.5156195027925
20
1.04928590036619
30
-1E-16
41
1
10
35.8492457403889
20
1.367499667099
30
-1E-16
41
1
10
34.5169210178182
20
1.98325289762437
30
-1E-16
41
1
10
33.8517094807889
20
2.28032327744319
30
-1E-16
41
1
10
32.5211427310841
20
2.84299307658336
30
-2E-16
41
1
10
31.85465616792
20
3.10902680364254
30
-2E-16
41
1
10
30.524098059154
20
3.59851719953139
30
-2E-16
41
1
10
29.858783878761
20
3.82293607369229
30
2E-16
41
1
10
28.5266407253422
20
4.22210514706327
30
2E-16
41
1
10
27.8621943570382
20
4.39639391595819
30
2E-16
41
1
10
26.5311091126706
20
4.68907207687616
30
-1E-16
41
1
10
25.8644833886101
20
4.80796417338647
30
-1E-16
41
1
10
24.5317952129549
20
4.98495275652547
30
-1E-16
41
1
10
23.8663077283366
20
5.04325155216296
30
0
41
1
10
23.2
20
5.06993841425734
30
0
0
SPLINE
5
E6
100
AcDbEntity
8
1
62
256
6
ByLayer
370
18
48
1
60
0
100
AcDbSpline
70
4
71
3
72
8
73
4
40
0
40
0
40
0
40
0
40
1
40
1
40
1
40
1
41
1
10
23.2
20
5.25660812079792
30
0
41
1
10
23.2
20
5.19481598658658
30
0
41
1
10
23.2
20
5.13259002208497
30
0
41
1
10
23.2
20
5.06993841425734
30
0
0
SPLINE
5
E7
100
AcDbEntity
8
1
62
256
6
ByLayer
370
18
48
1
60
0
100
AcDbSpline
70
4
71
3
72
8
73
4
40
0
40
0
40
0
40
0
40
1
40
1
40
1
40
1
41
1
10
56.1112032457547
20
-0.557268694377655
30
0
41
1
10
55.9364823414364
20
-0.0908711809070439
30
0
41
1
10
55.7170798804497
20
0.404803946209768
30
0
41
1
10
55.4539323668182
20
0.929143042215799
30
-1E-16
0
SPLINE
5
E8
100
AcDbEntity
8
1
62
256
6
ByLayer
370
18
48
1
60
0
100
AcDbSpline
70
4
71
3
72
8
73
4
40
0
40
0
40
0
40
0
40
1
40
1
40
1
40
1
41
1
10
56.5361248490233
20
1.63117694026317
30
0
41
1
10
56.6933148445612
20
1.18648869539737
30
0
41
1
10
56.8463314659465
20
0.740306994355961
30
0
41
1
10
56.9951125202503
20
0.292609581187236
30
0
0
SPLINE
5
E9
100
AcDbEntity
8
1
62
256
6
ByLayer
370
18
48
1
60
0
100
AcDbSpline
70
4
71
3
72
65
73
61
40
0
40
0
40
0
40
0
40
0.124999999999972
40
0.124999999999972
40
0.249999999999943
40
0.249999999999943
40
0.281249999999936
40
0.281249999999936
40
0.285156249999935
40
0.285156249999935
40
0.289062499999934
40
0.289062499999934
40
0.291015624999934
40
0.291015624999934
40
0.292968749999934
40
0.292968749999934
40
0.296874999999934
40
0.296874999999934
40
0.312499999999936
40
0.312499999999936
40
0.374999999999943
40
0.374999999999943
40
0.437499999999951
40
0.437499999999951
40
0.453124999999952
40
0.453124999999952
40
0.468749999999953
40
0.468749999999953
40
0.499999999999955
40
0.499999999999955
40
0.515624999999957
40
0.515624999999957
40
0.531249999999958
40
0.531249999999958
40
0.562499999999961
40
0.562499999999961
40
0.578124999999963
40
0.578124999999963
40
0.593749999999964
40
0.609374999999966
40
0.609374999999966
40
0.624999999999967
40
0.624999999999967
40
0.65624999999997
40
0.65624999999997
40
0.687499999999973
40
0.687499999999973
40
0.718749999999976
40
0.718749999999976
40
0.734374999999978
40
0.734374999999978
40
0.74999999999998
40
0.74999999999998
40
0.812499999999985
40
0.812499999999985
40
0.87499999999999
40
0.87499999999999
40
0.937499999999995
40
0.937499999999995
40
1
40
1
40
1
40
1
41
1
10
9.27270049502647
20
-1.68064851412657
30
1E-16
41
1
10
8.67978525888384
20
-1.39513656388553
30
1E-16
41
1
10
8.07901934463615
20
-1.11991928152591
30
1E-16
41
1
10
6.85204127307605
20
-0.615816908576051
30
0
41
1
10
6.22669464051748
20
-0.387523683422472
30
0
41
1
10
5.43202227736089
20
-0.143671007957948
30
0
41
1
10
5.2724550415146
20
-0.0969452648759273
30
0
41
1
10
5.09226660850061
20
-0.0467797383360562
30
0
41
1
10
5.0722746843162
20
-0.0410089535263296
30
0
41
1
10
5.03210474513074
20
-0.0305575929225768
30
0
41
1
10
5.01145195259221
20
-0.0275076087980324
30
0
41
1
10
4.98000459544306
20
-0.0293217782834745
30
0
41
1
10
4.96967193468788
20
-0.0307801512855121
30
0
41
1
10
4.94955277063303
20
-0.0368093212128997
30
0
41
1
10
4.93994057940876
20
-0.0415208818536996
30
0
41
1
10
4.91264778680372
20
-0.0578560293392627
30
0
41
1
10
4.89449733688215
20
-0.0688204624988771
30
0
41
1
10
4.80381006958055
20
-0.12374498363215
30
0
41
1
10
4.73163164785404
20
-0.168301930932273
30
0
41
1
10
4.37295517321513
20
-0.39424026418942
30
0
41
1
10
4.09212374450519
20
-0.585604424745753
30
0
41
1
10
3.55566830820072
20
-0.990789781515986
30
1E-16
41
1
10
3.29951984248547
20
-1.20455914618398
30
1E-16
41
1
10
3.00184582843718
20
-1.49227295586104
30
1E-16
41
1
10
2.94346119137319
20
-1.55086261233925
30
1E-16
41
1
10
2.82930920843677
20
-1.6704157910651
30
1E-16
41
1
10
2.77338919955682
20
-1.73156106573177
30
1E-16
41
1
10
2.61177582033102
20
-1.91720799949289
30
1E-16
41
1
10
2.51191587452317
20
-2.04409358239639
30
1E-16
41
1
10
2.37704046534631
20
-2.2402232559414
30
1E-16
41
1
10
2.33458147520582
20
-2.3065718255211
30
1E-16
41
1
10
2.25542125542231
20
-2.44149078152299
30
1E-16
41
1
10
2.2189366316029
20
-2.50975514056796
30
2E-16
41
1
10
2.12115173467521
20
-2.71433465959268
30
2E-16
41
1
10
2.07080498450068
20
-2.8514639652976
30
2E-16
41
1
10
2.02213913126536
20
-3.0583781049755
30
2E-16
41
1
10
2.01057152483196
20
-3.12724339878506
30
2E-16
41
1
10
1.99743470449567
20
-3.26134190868947
30
2E-16
41
1
10
1.99404468350787
20
-3.39277327715484
30
2E-16
41
1
10
2.00993581217693
20
-3.51890392785938
30
2E-16
41
1
10
2.03544891288968
20
-3.64238247744285
30
-2E-16
41
1
10
2.05308958978978
20
-3.70273563630843
30
-2E-16
41
1
10
2.11828091787413
20
-3.87531954680117
30
-2E-16
41
1
10
2.17829954219965
20
-3.98087266263516
30
-2E-16
41
1
10
2.3258919249561
20
-4.17621132883284
30
-2E-16
41
1
10
2.41147762549878
20
-4.26344853566113
30
-2E-16
41
1
10
2.59991736864657
20
-4.42184350246566
30
-2E-16
41
1
10
2.70290879769794
20
-4.49305728623989
30
-2E-16
41
1
10
2.86795746320763
20
-4.59036054909916
30
-2E-16
41
1
10
2.92485347751912
20
-4.6212400797792
30
-2E-16
41
1
10
3.04066726214143
20
-4.67952835515726
30
-2E-16
41
1
10
3.09971316703309
20
-4.70702086045821
30
-2E-16
41
1
10
3.39997476091918
20
-4.83723861093156
30
-1E-16
41
1
10
3.65595814659193
20
-4.91872286945747
30
1E-16
41
1
10
4.18945007622716
20
-5.05183087715619
30
1E-16
41
1
10
4.46811441487426
20
-5.10331894594404
30
1E-16
41
1
10
5.03580623920703
20
-5.18318723579736
30
0
41
1
10
5.32514890128874
20
-5.21167795015589
30
0
41
1
10
5.91256878838186
20
-5.25155957286043
30
0
41
1
10
6.21066605053574
20
-5.26290222646486
30
0
41
1
10
6.5124585455313
20
-5.26748075083776
30
0
0
SPLINE
5
EA
100
AcDbEntity
8
1
62
256
6
ByLayer
370
18
48
1
60
0
100
AcDbSpline
70
4
71
3
72
20
73
16
40
0
40
0
40
0
40
0
40
0.125000000000002
40
0.125000000000002
40
0.250000000000005
40
0.250000000000005
40
0.375000000000007
40
0.375000000000007
40
0.437500000000006
40
0.437500000000006
40
0.500000000000005
40
0.500000000000005
40
0.750000000000003
40
0.750000000000003
40
1
40
1
40
1
40
1
41
1
10
56.5361248490233
20
-1.63117694026317
30
0
41
1
10
56.46311656707
20
-1.74929954840479
30
0
41
1
10
56.3919963778141
20
-1.87452025581777
30
0
41
1
10
56.2549189653973
20
-2.13722412242731
30
0
41
1
10
56.1895832354362
20
-2.27340480231737
30
0
41
1
10
56.0641740522945
20
-2.55527895430856
30
0
41
1
10
56.0045285767033
20
-2.70003898699011
30
0
41
1
10
55.9191279625768
20
-2.92048486680548
30
0
41
1
10
55.8912672282151
20
-2.99470048713312
30
0
41
1
10
55.8368022456653
20
-3.14370208655291
30
0
41
1
10
55.810342153721
20
-3.21849402302959
30
0
41
1
10
55.6781956605642
20
-3.59228394794425
30
0
41
1
10
55.5738893129918
20
-3.89171437878866
30
0
41
1
10
55.3663770464732
20
-4.48822497386078
30
0
41
1
10
55.2630985351252
20
-4.78550570241237
30
0
41
1
10
55.1584952107149
20
-5.08100162726748
30
0
0
SPLINE
5
EB
100
AcDbEntity
8
1
62
256
6
ByLayer
370
18
48
1
60
0
100
AcDbSpline
70
4
71
3
72
38
73
34
40
0
40
0
40
0
40
0
40
0.0269799043218416
40
0.0269799043218416
40
0.0767583972201538
40
0.0767583972201538
40
0.176315383016779
40
0.176315383016779
40
0.226093875915092
40
0.226093875915092
40
0.275872368813405
40
0.275872368813405
40
0.325650861711717
40
0.325650861711717
40
0.37542935461003
40
0.37542935461003
40
0.425207847508343
40
0.425207847508343
40
0.474986340406656
40
0.474986340406656
40
0.574543326203283
40
0.574543326203283
40
0.624321819101596
40
0.624321819101596
40
0.67410031199991
40
0.67410031199991
40
0.773657297796536
40
0.773657297796536
40
0.82343579069485
40
0.82343579069485
40
0.873214283593163
40
0.873214283593163
40
1
40
1
40
1
40
1
41
1
10
5.60412840154976
20
5.01334428641667
30
0
41
1
10
5.74764061834765
20
5.01129015918744
30
0
41
1
10
5.89106642594521
20
5.00783084559984
30
0
41
1
10
6.29887931912731
20
4.99417320181036
30
0
41
1
10
6.56308188950848
20
4.98071047745623
30
0
41
1
10
7.35572950201384
20
4.92541576695135
30
0
41
1
10
7.88412439788237
20
4.86888376843453
30
-1E-16
41
1
10
8.67819703506973
20
4.75599081157097
30
-1E-16
41
1
10
8.94315418107692
20
4.71363190420314
30
-1E-16
41
1
10
9.47352801358059
20
4.62011637898189
30
-1E-16
41
1
10
9.73892823083023
20
4.56899129767586
30
2E-16
41
1
10
10.2710752309949
20
4.45723329516363
30
2E-16
41
1
10
10.5382474600268
20
4.39646284251754
30
2E-16
41
1
10
11.0721040832524
20
4.26630535147149
30
2E-16
41
1
10
11.3383404618568
20
4.19704646665696
30
2E-16
41
1
10
11.8696712847777
20
4.05088855592433
30
2E-16
41
1
10
12.1347697092914
20
3.97399153515329
30
2E-16
41
1
10
12.6638861707945
20
3.8131068805892
30
2E-16
41
1
10
12.9278851566798
20
3.72914003101215
30
2E-16
41
1
10
13.7194025170679
20
3.46664409221159
30
-2E-16
41
1
10
14.2465350165478
20
3.27739716196342
30
-2E-16
41
1
10
15.0369375646233
20
2.9759889579403
30
-2E-16
41
1
10
15.3003578817171
20
2.87261039901821
30
-2E-16
41
1
10
15.827110592706
20
2.66032222909058
30
-2E-16
41
1
10
16.0903915583842
20
2.55140212952472
30
-2E-16
41
1
10
16.8817193212562
20
2.21726222061912
30
-1E-16
41
1
10
17.411489502926
20
1.98470679777617
30
-1E-16
41
1
10
18.2091214682036
20
1.62411024405927
30
-1E-16
41
1
10
18.4755284387828
20
1.50194511601296
30
-1E-16
41
1
10
19.0091901285719
20
1.2537706847433
30
-1E-16
41
1
10
19.2756440860901
20
1.1280787352672
30
-1E-16
41
1
10
20.2181373379885
20
0.681266783436968
30
0
41
1
10
20.891277264175
20
0.356772409311844
30
0
41
1
10
21.5627984390242
20
0.0326632875797088
30
0
0
SPLINE
5
EC
100
AcDbEntity
8
1
62
256
6
ByLayer
370
18
48
1
60
0
100
AcDbSpline
70
4
71
3
72
18
73
14
40
0
40
0
40
0
40
0
40
0.25
40
0.25
40
0.5
40
0.5
40
0.625
40
0.625
40
0.75
40
0.75
40
0.875
40
0.875
40
1
40
1
40
1
40
1
41
1
10
54.3618407060928
20
0.700835843662162
30
0
41
1
10
54.4473392168647
20
0.75453525837878
30
0
41
1
10
54.5352225447611
20
0.799303327078576
30
0
41
1
10
54.7141886182176
20
0.872344762480765
30
-1E-16
41
1
10
54.8052709131755
20
0.900904089818567
30
-1E-16
41
1
10
54.9433120609781
20
0.929825387076249
30
-1E-16
41
1
10
54.9895712643078
20
0.936639884903343
30
-1E-16
41
1
10
55.0822930931391
20
0.948277659337919
30
-1E-16
41
1
10
55.1287893808947
20
0.952367100630738
30
-1E-16
41
1
10
55.2219016853907
20
0.954953073089683
30
-1E-16
41
1
10
55.2685123969453
20
0.953430057175808
30
-1E-16
41
1
10
55.3616014635533
20
0.944986316152608
30
-1E-16
41
1
10
55.4081241433438
20
0.938405896566024
30
-1E-16
41
1
10
55.4539323668187
20
0.929143042216651
30
-1E-16
0
SPLINE
5
ED
100
AcDbEntity
8
1
62
256
6
ByLayer
370
18
48
1
60
0
100
AcDbSpline
70
4
71
3
72
8
73
4
40
0
40
0
40
0
40
0
40
1
40
1
40
1
40
1
41
1
10
56.9951125202552
20
0.29260958118229
30
0
41
1
10
57.0016356672645
20
0.097341732908518
30
0
41
1
10
57.0016226655892
20
-0.0977309329505545
30
0
41
1
10
56.9951125202558
20
-0.292609581162736
30
0
0
SPLINE
5
EE
100
AcDbEntity
8
1
62
256
6
ByLayer
370
18
48
1
60
0
100
AcDbSpline
70
4
71
3
72
22
73
18
40
0
40
0
40
0
40
0
40
0.175954253720692
40
0.175954253720692
40
0.271946756704361
40
0.271946756704361
40
0.36793925968803
40
0.36793925968803
40
0.559924265655369
40
0.559924265655369
40
0.655916768639037
40
0.655916768639037
40
0.751909271622707
40
0.751909271622707
40
0.943894277590043
40
0.943894277590043
40
1
40
1
40
1
40
1
41
1
10
7.09028467742084
20
0.217227962991359
30
0
41
1
10
8.07018393017637
20
-0.254283867930098
30
0
41
1
10
9.04983877353351
20
-0.728766029708538
30
0
41
1
10
10.575028180894
20
-1.44239254356805
30
1E-16
41
1
10
11.1169001700781
20
-1.69121450647344
30
1E-16
41
1
10
12.1928468925413
20
-2.17008041807358
30
1E-16
41
1
10
12.7284984427097
20
-2.40066500184378
30
1E-16
41
1
10
14.3320015856533
20
-3.05956724307012
30
2E-16
41
1
10
15.3959551082904
20
-3.4557037464308
30
2E-16
41
1
10
16.999008177068
20
-3.96142178972801
30
-2E-16
41
1
10
17.5345141805223
20
-4.11531992388382
30
-2E-16
41
1
10
18.6101019476335
20
-4.39041521378144
30
-2E-16
41
1
10
19.1518909162573
20
-4.5116907533058
30
-2E-16
41
1
10
20.766338899665
20
-4.81735190018537
30
1E-16
41
1
10
21.8328058014333
20
-4.94475489923755
30
0
41
1
10
23.210588436734
20
-5.00740027372194
30
0
41
1
10
23.5221631635818
20
-5.01480774817972
30
0
41
1
10
23.8339561171981
20
-5.01544535667108
30
0
0
SPLINE
5
EF
100
AcDbEntity
8
1
62
256
6
ByLayer
370
18
48
1
60
0
100
AcDbSpline
70
4
71
3
72
48
73
44
40
0
40
0
40
0
40
0
40
0.051710321372028
40
0.051710321372028
40
0.103420642744056
40
0.103420642744056
40
0.155130964116084
40
0.155130964116084
40
0.206841285488112
40
0.206841285488112
40
0.310261928232168
40
0.310261928232168
40
0.361972249604196
40
0.361972249604196
40
0.413682570976224
40
0.413682570976224
40
0.439537731662238
40
0.439537731662238
40
0.465392892348252
40
0.465392892348252
40
0.51710321372028
40
0.51710321372028
40
0.568813535092308
40
0.568813535092308
40
0.594668695778321
40
0.594668695778321
40
0.620523856464335
40
0.620523856464335
40
0.672234177836361
40
0.672234177836361
40
0.723944499208386
40
0.723944499208386
40
0.775654820580412
40
0.775654820580412
40
0.827365141952438
40
0.827365141952438
40
0.930785784696489
40
0.930785784696489
40
0.956640945382501
40
0.956640945382501
40
0.982496106068514
40
0.982496106068514
40
1
40
1
40
1
40
1
41
1
10
54.8108518220166
20
-5.23050910440665
30
0
41
1
10
54.2766958311356
20
-5.18619679467434
30
1E-16
41
1
10
53.743016549234
20
-5.1212119788953
30
1E-16
41
1
10
52.6742305115212
20
-4.95119699120241
30
1E-16
41
1
10
52.13971797483
20
-4.846205093273
30
-1E-16
41
1
10
51.0715751810794
20
-4.59886951695594
30
-2E-16
41
1
10
50.5367637000475
20
-4.45629950138124
30
-2E-16
41
1
10
49.4684194338437
20
-4.13725386097946
30
-2E-16
41
1
10
48.9345842200498
20
-3.96093736053939
30
-2E-16
41
1
10
47.3305561470836
20
-3.38600479898932
30
2E-16
41
1
10
46.2668462134011
20
-2.94512097423072
30
2E-16
41
1
10
44.6657293136236
20
-2.22271309756488
30
1E-16
41
1
10
44.1305242629102
20
-1.97153207426086
30
1E-16
41
1
10
43.0636121349082
20
-1.45731037630981
30
1E-16
41
1
10
42.5309401216504
20
-1.19384293906171
30
1E-16
41
1
10
41.73114351194
20
-0.792880620557639
30
0
41
1
10
41.4644178051228
20
-0.658257932989414
30
0
41
1
10
40.9304115492241
20
-0.387654988955205
30
0
41
1
10
40.6628802807521
20
-0.251546250851021
30
0
41
1
10
39.8614601942508
20
0.156399800987657
30
0
41
1
10
39.3284288008832
20
0.428044866804356
30
0
41
1
10
38.2623401315772
20
0.965750932750069
30
-1E-16
41
1
10
37.7293621681245
20
1.23196521255781
30
-1E-16
41
1
10
36.9278729524366
20
1.62318334422795
30
-1E-16
41
1
10
36.6603048321793
20
1.75226921511879
30
-1E-16
41
1
10
36.126230247651
20
2.00615296068639
30
-1E-16
41
1
10
35.8594702164147
20
2.13107536140106
30
-1E-16
41
1
10
35.0595541753773
20
2.49896744478266
30
-2E-16
41
1
10
34.5268025191419
20
2.73512755873733
30
-2E-16
41
1
10
33.4596286196202
20
3.1845365694152
30
-2E-16
41
1
10
32.9243192097114
20
3.39822926650453
30
-2E-16
41
1
10
31.856545453968
20
3.79566730359971
30
2E-16
41
1
10
31.3236151036971
20
3.97970156876653
30
2E-16
41
1
10
30.2571522218299
20
4.31517650395915
30
2E-16
41
1
10
29.7235209818992
20
4.46680151208921
30
2E-16
41
1
10
28.1189762854887
20
4.8673332432007
30
1E-16
41
1
10
27.0550458344694
20
5.05937856953125
30
-1E-16
41
1
10
25.7197857971167
20
5.19753079631155
30
0
41
1
10
25.4521976958662
20
5.22007726486916
30
0
41
1
10
24.9175719149996
20
5.25470722044
30
0
41
1
10
24.65058114699
20
5.26679998278513
30
0
41
1
10
24.2031145388566
20
5.27833464116904
30
0
41
1
10
24.0225721488645
20
5.28059988458412
30
0
41
1
10
23.8420684728683
20
5.28047599057493
30
0
0
SPLINE
5
F0
100
AcDbEntity
8
1
62
256
6
ByLayer
370
18
48
1
60
0
100
AcDbSpline
70
4
71
3
72
40
73
36
40
0
40
0
40
0
40
0
40
0.0467411341906999
40
0.0467411341906999
40
0.0807860936838898
40
0.0807860936838898
40
0.11483105317708
40
0.11483105317708
40
0.182920972163459
40
0.182920972163459
40
0.21696593165665
40
0.21696593165665
40
0.25101089114984
40
0.25101089114984
40
0.31910081013622
40
0.31910081013622
40
0.3871907291226
40
0.3871907291226
40
0.421235688615789
40
0.421235688615789
40
0.455280648108978
40
0.455280648108978
40
0.523370567095356
40
0.523370567095356
40
0.591460486081734
40
0.591460486081734
40
0.659550405068111
40
0.659550405068111
40
0.727640324054489
40
0.727640324054489
40
0.795730243040867
40
0.795730243040867
40
0.863820162027244
40
0.863820162027244
40
1
40
1
40
1
40
1
41
1
10
27.0856582745199
20
-5.02754937308478
30
0
41
1
10
26.7196179724095
20
-5.08442727705892
30
0
41
1
10
26.3534798538919
20
-5.1319658557068
30
0
41
1
10
25.7197857971167
20
-5.19753079631155
30
0
41
1
10
25.4521976958662
20
-5.22007726486916
30
0
41
1
10
24.9175719149997
20
-5.25470722044003
30
0
41
1
10
24.65058114699
20
-5.26679998278513
30
0
41
1
10
23.8501032889988
20
-5.28743445800183
30
0
41
1
10
23.3173089862864
20
-5.28032131043759
30
0
41
1
10
22.5171008428941
20
-5.23842934808548
30
0
41
1
10
22.2502049967019
20
-5.2192669060934
30
0
41
1
10
21.7157536710512
20
-5.17060024845404
30
1E-16
41
1
10
21.4480355759949
20
-5.14106596019212
30
1E-16
41
1
10
20.646460763451
20
-5.03742447940462
30
1E-16
41
1
10
20.1132925913556
20
-4.94822558502045
30
1E-16
41
1
10
19.0466570840462
20
-4.73166153541817
30
-2E-16
41
1
10
18.5133522377311
20
-4.60415690393717
30
-2E-16
41
1
10
17.7111843542945
20
-4.38588794123856
30
-2E-16
41
1
10
17.4435895795945
20
-4.30866930739373
30
-2E-16
41
1
10
16.9093997212877
20
-4.14615844126203
30
-2E-16
41
1
10
16.6425664469561
20
-4.06080258564515
30
-2E-16
41
1
10
15.842421274952
20
-3.79301001071357
30
-2E-16
41
1
10
15.3094282972875
20
-3.59888178061709
30
2E-16
41
1
10
14.2415611422793
20
-3.18325871798424
30
2E-16
41
1
10
13.7059087755274
20
-2.9613678358472
30
2E-16
41
1
10
12.6378325426848
20
-2.49745833592033
30
2E-16
41
1
10
12.1047815642637
20
-2.25496558341649
30
1E-16
41
1
10
11.0378646274261
20
-1.75386883107163
30
1E-16
41
1
10
10.5034178813255
20
-1.4951340500858
30
1E-16
41
1
10
9.43338603052254
20
-0.967431545364917
30
1E-16
41
1
10
8.89961399663284
20
-0.699194680767903
30
0
41
1
10
7.83181207703299
20
-0.159350207077296
30
0
41
1
10
7.29747431618227
20
0.112352135754009
30
0
41
1
10
5.69211352667566
20
0.924212698040066
30
-1E-16
41
1
10
4.62687797889694
20
1.45639945987873
30
-1E-16
41
1
10
3.55643199062868
20
1.95982254493714
30
-1E-16
0
SPLINE
5
F1
100
AcDbEntity
8
1
62
256
6
ByLayer
370
18
48
1
60
0
100
AcDbSpline
70
4
71
3
72
38
73
34
40
0
40
0
40
0
40
0
40
0.150224631572166
40
0.150224631572166
40
0.197584344443483
40
0.197584344443483
40
0.244944057314801
40
0.244944057314801
40
0.339663483057437
40
0.339663483057437
40
0.387023195928755
40
0.387023195928755
40
0.434382908800073
40
0.434382908800073
40
0.529102334542709
40
0.529102334542709
40
0.576462047414027
40
0.576462047414027
40
0.623821760285345
40
0.623821760285345
40
0.671181473156663
40
0.671181473156663
40
0.718541186027981
40
0.718541186027981
40
0.765900898899299
40
0.765900898899299
40
0.813260611770617
40
0.813260611770617
40
0.907980037513254
40
0.907980037513254
40
0.955339750384573
40
0.955339750384573
40
1
40
1
40
1
40
1
41
1
10
22.0561041430029
20
-0.216090531025571
30
0
41
1
10
21.2204715116761
20
0.186254041545368
30
0
41
1
10
20.3831080261373
20
0.590825122888361
30
0
41
1
10
19.2743695985798
20
1.11563627497884
30
-1E-16
41
1
10
19.0078827495632
20
1.24116004145461
30
-1E-16
41
1
10
18.474120556352
20
1.48902328017439
30
-1E-16
41
1
10
18.2076629528052
20
1.6110477334756
30
-1E-16
41
1
10
17.4098774850044
20
1.97126680371815
30
-1E-16
41
1
10
16.8800042503157
20
2.20363179146949
30
-1E-16
41
1
10
16.088513374843
20
2.53756733575392
30
-2E-16
41
1
10
15.8251745467954
20
2.64642472853043
30
-2E-16
41
1
10
15.2983076225657
20
2.85860917389954
30
-2E-16
41
1
10
15.0348314565273
20
2.96194946159952
30
-2E-16
41
1
10
14.2442644417605
20
3.26328210057647
30
-2E-16
41
1
10
13.7170285225865
20
3.45253575065038
30
-2E-16
41
1
10
12.9253582349559
20
3.71511539784248
30
2E-16
41
1
10
12.661306508278
20
3.79911716305631
30
2E-16
41
1
10
12.1320877251196
20
3.96009147944088
30
2E-16
41
1
10
11.8669411064156
20
4.03704657876966
30
2E-16
41
1
10
11.3355190080202
20
4.18334581948699
30
2E-16
41
1
10
11.0692396094033
20
4.25268796757283
30
2E-16
41
1
10
10.5353021637376
20
4.38303690165156
30
2E-16
41
1
10
10.2680837098568
20
4.4439177778236
30
2E-16
41
1
10
9.73584078443628
20
4.55591924079786
30
2E-16
41
1
10
9.47038881190767
20
4.60717480579342
30
-1E-16
41
1
10
8.93990879113488
20
4.700970165504
30
-1E-16
41
1
10
8.67489868434564
20
4.7434809716913
30
-1E-16
41
1
10
7.88066614415533
20
4.85686236493081
30
-1E-16
41
1
10
7.3521603247446
20
4.91375930339058
30
0
41
1
10
6.55934720784816
20
4.96965871880491
30
0
41
1
10
6.29508837531833
20
4.98333190773567
30
0
41
1
10
5.78111233138017
20
5.00096447207252
30
0
41
1
10
5.53141241101147
20
5.00546901648497
30
0
41
1
10
5.28144483681675
20
5.00558404787895
30
0
0
SPLINE
5
F2
100
AcDbEntity
8
1
62
256
6
ByLayer
370
18
48
1
60
0
100
AcDbSpline
70
4
71
3
72
10
73
6
40
0
40
0
40
0
40
0
40
0.957398085744498
40
0.957398085744498
40
1
40
1
40
1
40
1
41
1
10
3.64710958540326
20
-5.20106064186459
30
0
41
1
10
4.17607562918585
20
-5.24424897188922
30
0
41
1
10
4.70505150320002
20
-5.26668881788001
30
0
41
1
10
5.25821495977641
20
-5.26883378097111
30
0
41
1
10
5.2817835327003
20
-5.26888466452493
30
0
41
1
10
5.30535429335319
20
-5.26889504380085
30
0
0
SPLINE
5
F3
100
AcDbEntity
8
1
62
256
6
ByLayer
370
18
48
1
60
0
100
AcDbSpline
70
4
71
3
72
38
73
34
40
0
40
0
40
0
40
0
40
0.0333115562532093
40
0.0333115562532093
40
0.0735902414093248
40
0.0735902414093248
40
0.11386892656544
40
0.11386892656544
40
0.154147611721555
40
0.154147611721555
40
0.19442629687767
40
0.19442629687767
40
0.274983667189903
40
0.274983667189903
40
0.355541037502135
40
0.355541037502135
40
0.436098407814368
40
0.436098407814368
40
0.5166557781266
40
0.5166557781266
40
0.597213148438833
40
0.597213148438833
40
0.677770518751065
40
0.677770518751065
40
0.758327889063298
40
0.758327889063298
40
0.83888525937553
40
0.83888525937553
40
0.879163944531647
40
0.879163944531647
40
0.919442629687764
40
0.919442629687764
40
1
40
1
40
1
40
1
41
1
10
34.7024850037506
20
5.03032090920075
30
-1E-16
41
1
10
34.9206200805046
20
5.06467840946794
30
-1E-16
41
1
10
35.1388261234505
20
5.09569007070783
30
-1E-16
41
1
10
35.6213627559724
20
5.15661888185761
30
-1E-16
41
1
10
35.8857452127513
20
5.18500172138701
30
-1E-16
41
1
10
36.4151556635132
20
5.23177782334523
30
0
41
1
10
36.6801334312671
20
5.25015938971364
30
0
41
1
10
37.208795423693
20
5.27671126394856
30
0
41
1
10
37.472746055967
20
5.28490475943562
30
0
41
1
10
37.9999273319689
20
5.29100468476636
30
0
41
1
10
38.2633748024347
20
5.28887708797893
30
0
41
1
10
39.0548467952702
20
5.26723204105346
30
0
41
1
10
39.5833332500755
20
5.23256398967052
30
0
41
1
10
40.6421498174125
20
5.12256526164603
30
-1E-16
41
1
10
41.1697415294076
20
5.04694558994692
30
-1E-16
41
1
10
42.2251402416778
20
4.85839365253776
30
1E-16
41
1
10
42.7527778193994
20
4.74525984474559
30
2E-16
41
1
10
43.8095124636389
20
4.4825555815469
30
2E-16
41
1
10
44.3386981712689
20
4.33196208412343
30
2E-16
41
1
10
45.3950741531063
20
4.00079776967576
30
2E-16
41
1
10
45.9227640271102
20
3.81983542772031
30
2E-16
41
1
10
46.9781104413465
20
3.4284694965111
30
-2E-16
41
1
10
47.5060572965029
20
3.21726811659377
30
-2E-16
41
1
10
48.5643418355563
20
2.77355524902939
30
-2E-16
41
1
10
49.0926291562179
20
2.54135590740702
30
-2E-16
41
1
10
50.1479142478431
20
2.05705019355611
30
-1E-16
41
1
10
50.6746652008872
20
1.80438013907181
30
-1E-16
41
1
10
51.468106689435
20
1.4181116794033
30
-1E-16
41
1
10
51.7329740743249
20
1.28790420618466
30
-1E-16
41
1
10
52.261735438048
20
1.02579570821342
30
-1E-16
41
1
10
52.5258677574268
20
0.893770699692226
30
-1E-16
41
1
10
53.3177480431457
20
0.495229756346362
30
0
41
1
10
53.8449367637157
20
0.226165119589183
30
0
41
1
10
54.3724147894211
20
-0.0443061467703956
30
0
0
SPLINE
5
F4
100
AcDbEntity
8
1
62
256
6
ByLayer
370
18
48
1
60
0
100
AcDbSpline
70
4
71
3
72
16
73
12
40
0
40
0
40
0
40
0
40
0.228448921604302
40
0.228448921604302
40
0.459323453146118
40
0.459323453146118
40
0.656785358724319
40
0.656785358724319
40
0.829633742404094
40
0.829633742404094
40
1
40
1
40
1
40
1
41
1
10
55.110856042656
20
-4.98907678974027
30
0
41
1
10
55.1109367529299
20
-4.98924421212334
30
0
41
1
10
55.1109610363873
20
-4.98959221021775
30
0
41
1
10
55.1108702033443
20
-4.99066401039963
30
0
41
1
10
55.1107508345881
20
-4.99141289421866
30
0
41
1
10
55.1103932336006
20
-4.99309950190371
30
0
41
1
10
55.1101685176494
20
-4.99402124747996
30
0
41
1
10
55.1096741355815
20
-4.99584797279715
30
0
41
1
10
55.1094071855051
20
-4.99676445559456
30
0
41
1
10
55.1088523359325
20
-4.9985564876053
30
0
41
1
10
55.1085583677415
20
-4.99945368994835
30
0
41
1
10
55.1082666223914
20
-5.00030121256717
30
0
0
SPLINE
5
F5
100
AcDbEntity
8
1
62
256
6
ByLayer
370
18
48
1
60
0
100
AcDbSpline
70
4
71
3
72
76
73
72
40
0
40
0
40
0
40
0
40
0.0462096878974035
40
0.0462096878974035
40
0.0693145318461053
40
0.0693145318461053
40
0.0924193757948071
40
0.0924193757948071
40
0.138629063692211
40
0.138629063692211
40
0.161733907640913
40
0.161733907640913
40
0.184838751589615
40
0.184838751589615
40
0.23104843948702
40
0.23104843948702
40
0.254153283435722
40
0.254153283435722
40
0.277258127384424
40
0.277258127384424
40
0.300362971333126
40
0.300362971333126
40
0.323467815281829
40
0.323467815281829
40
0.346572659230531
40
0.346572659230531
40
0.369677503179233
40
0.369677503179233
40
0.415887191076638
40
0.415887191076638
40
0.438992035025339
40
0.438992035025339
40
0.462096878974041
40
0.462096878974041
40
0.508306566871445
40
0.508306566871445
40
0.554516254768848
40
0.554516254768848
40
0.577621098717551
40
0.577621098717551
40
0.600725942666253
40
0.600725942666253
40
0.646935630563659
40
0.646935630563659
40
0.670040474512362
40
0.670040474512362
40
0.693145318461065
40
0.693145318461065
40
0.716250162409768
40
0.716250162409768
40
0.739355006358471
40
0.739355006358471
40
0.762459850307174
40
0.762459850307174
40
0.785564694255877
40
0.785564694255877
40
0.831774382153283
40
0.831774382153283
40
0.854879226101986
40
0.854879226101986
40
0.877984070050689
40
0.877984070050689
40
0.924193757948095
40
0.924193757948095
40
0.947298601896798
40
0.947298601896798
40
0.9704034458455
40
0.9704034458455
40
0.993508289794203
40
0.993508289794203
40
1
40
1
40
1
40
1
41
1
10
3.64710958540326
20
5.20106064186459
30
0
41
1
10
4.17607562918585
20
5.24424897188922
30
0
41
1
10
4.70505150320002
20
5.26668881788001
30
0
41
1
10
5.4994479548451
20
5.26976919321615
30
0
41
1
10
5.76459408611481
20
5.26568294956277
30
0
41
1
10
6.29398334698658
20
5.24726084597987
30
0
41
1
10
6.55824585754425
20
5.2329223346083
30
0
41
1
10
7.35074555958499
20
5.17480812750824
30
-1E-16
41
1
10
7.8785626075059
20
5.11594382895089
30
-1E-16
41
1
10
8.67110970254674
20
4.99828202430228
30
-1E-16
41
1
10
8.93544795400803
20
4.95418291635147
30
-1E-16
41
1
10
9.46443854441907
20
4.85612240374607
30
1E-16
41
1
10
9.72928512300797
20
4.8020849080153
30
2E-16
41
1
10
10.5227610167248
20
4.62667710843698
30
2E-16
41
1
10
11.0510636540376
20
4.49202482800118
30
2E-16
41
1
10
11.8433356571239
20
4.2646852879277
30
2E-16
41
1
10
12.1074088493721
20
4.1846856074049
30
2E-16
41
1
10
12.6355522857054
20
4.01619341099862
30
2E-16
41
1
10
12.899593088257
20
3.92764278287274
30
2E-16
41
1
10
13.428657324942
20
3.74324441578756
30
2E-16
41
1
10
13.6937230103975
20
3.64744971639061
30
2E-16
41
1
10
14.2228942632235
20
3.44951309859604
30
-2E-16
41
1
10
14.4872475536885
20
3.34727582135409
30
-2E-16
41
1
10
15.0155652303023
20
3.13639551946531
30
-2E-16
41
1
10
15.2795344924636
20
3.02775994380014
30
-2E-16
41
1
10
15.8071818544094
20
2.80417913375618
30
-2E-16
41
1
10
16.0708131629004
20
2.68914069771265
30
-2E-16
41
1
10
16.8629235402682
20
2.3372907785826
30
-1E-16
41
1
10
17.3937114208707
20
2.09366022856085
30
-1E-16
41
1
10
18.1872228757404
20
1.71754051276244
30
-1E-16
41
1
10
18.4514302431506
20
1.59040937942928
30
-1E-16
41
1
10
18.9792064441004
20
1.33252482294782
30
-1E-16
41
1
10
19.2427337504984
20
1.20168394094392
30
-1E-16
41
1
10
20.0342794974739
20
0.80739986453537
30
0
41
1
10
20.5626143735971
20
0.540945606623865
30
0
41
1
10
21.6221895538046
20
0.0041950085343103
30
0
41
1
10
22.1506071660125
20
-0.264214157880957
30
0
41
1
10
22.9423839709676
20
-0.664505201477624
30
0
41
1
10
23.2062640073922
20
-0.79735892414476
30
0
41
1
10
23.7339353006271
20
-1.06190114666163
30
1E-16
41
1
10
23.9976196227982
20
-1.19379338761516
30
1E-16
41
1
10
24.7904248611578
20
-1.58405204090255
30
1E-16
41
1
10
25.3210276184327
20
-1.83853944558203
30
1E-16
41
1
10
26.1137693642169
20
-2.20806574600252
30
1E-16
41
1
10
26.3777297108559
20
-2.3293172686422
30
1E-16
41
1
10
26.9051455930429
20
-2.56779496526747
30
2E-16
41
1
10
27.1686692357034
20
-2.68488901294094
30
2E-16
41
1
10
27.696467495814
20
-2.91288287679356
30
2E-16
41
1
10
27.9606893521275
20
-3.02388515897326
30
2E-16
41
1
10
28.4897576434697
20
-3.23996527417538
30
2E-16
41
1
10
28.7548471785097
20
-3.34515176154508
30
2E-16
41
1
10
29.2841089615582
20
-3.54892624628036
30
2E-16
41
1
10
29.5483010674371
20
-3.64753135516705
30
-2E-16
41
1
10
30.0759169355006
20
-3.83794597908678
30
-2E-16
41
1
10
30.3394481398671
20
-3.92958619240872
30
-2E-16
41
1
10
31.1308506094592
20
-4.19171668817208
30
-2E-16
41
1
10
31.6591556103443
20
-4.35003737958104
30
-2E-16
41
1
10
32.4529126429858
20
-4.56263513088902
30
-2E-16
41
1
10
32.7178094896211
20
-4.62944898356938
30
-2E-16
41
1
10
33.2464457601822
20
-4.75382217638787
30
-2E-16
41
1
10
33.5104657335157
20
-4.8113751643115
30
-1E-16
41
1
10
34.3020994956647
20
-4.9698080155332
30
1E-16
41
1
10
34.8290318412169
20
-5.05657304612294
30
1E-16
41
1
10
35.6213627559724
20
-5.15661888185761
30
1E-16
41
1
10
35.8857452127513
20
-5.18500172138701
30
1E-16
41
1
10
36.4151556635131
20
-5.23177782334523
30
0
41
1
10
36.6801334312671
20
-5.25015938971364
30
0
41
1
10
37.208795423693
20
-5.27671126394856
30
0
41
1
10
37.472746055967
20
-5.28490475943562
30
0
41
1
10
37.8103970961357
20
-5.28881166248138
30
0
41
1
10
37.8844461962666
20
-5.28925987215706
30
0
41
1
10
37.9584955213669
20
-5.28930135047739
30
0
0
SPLINE
5
F6
100
AcDbEntity
8
1
62
256
6
ByLayer
370
18
48
1
60
0
100
AcDbSpline
70
4
71
3
72
28
73
24
40
0
40
0
40
0
40
0
40
0.0108615561766374
40
0.0108615561766374
40
0.155205583136058
40
0.155205583136058
40
0.227377596615768
40
0.227377596615768
40
0.299549610095479
40
0.299549610095479
40
0.443893637054899
40
0.443893637054899
40
0.58823766401432
40
0.58823766401432
40
0.66040967749403
40
0.66040967749403
40
0.732581690973741
40
0.732581690973741
40
0.876925717933161
40
0.876925717933161
40
0.949097731412872
40
0.949097731412872
40
1
40
1
40
1
40
1
41
1
10
3.60202749734486
20
5.00314795480574
30
0
41
1
10
3.60202664180218
20
5.00320602613232
30
0
41
1
10
3.60202578198033
20
5.0031286759293
30
0
41
1
10
3.60201344130644
20
5.00008936800467
30
0
41
1
10
3.6020012506867
20
4.97370240447825
30
0
41
1
10
3.60198240364062
20
4.89947666935041
30
-1E-16
41
1
10
3.6019760244032
20
4.86893002603657
30
-1E-16
41
1
10
3.60196311934769
20
4.79596989183307
30
-1E-16
41
1
10
3.60195657664616
20
4.75339624424774
30
-1E-16
41
1
10
3.60193705486853
20
4.60945132121589
30
-1E-16
41
1
10
3.60192408912931
20
4.49137291530838
30
2E-16
41
1
10
3.60189832981158
20
4.21192795872045
30
2E-16
41
1
10
3.60188566308054
20
4.05193504893046
30
2E-16
41
1
10
3.60186676261745
20
3.78308505651574
30
2E-16
41
1
10
3.60186050692843
20
3.68909048252934
30
2E-16
41
1
10
3.60184799525558
20
3.49240513541233
30
-2E-16
41
1
10
3.60184172029253
20
3.38938715615123
30
-2E-16
41
1
10
3.60182287216307
20
3.06948207457629
30
-2E-16
41
1
10
3.60181036341029
20
2.84335340895694
30
-2E-16
41
1
10
3.60179094110842
20
2.48552001618674
30
-2E-16
41
1
10
3.6017843561321
20
2.36311852476138
30
-1E-16
41
1
10
3.60177281641563
20
2.14898226755719
30
-1E-16
41
1
10
3.60176794572615
20
2.0587033070467
30
-1E-16
41
1
10
3.60176296681755
20
1.96699938205683
30
-1E-16
0
SPLINE
5
F7
100
AcDbEntity
8
1
62
256
6
ByLayer
370
18
48
1
60
0
100
AcDbSpline
70
4
71
2
72
6
73
3
40
0
40
0
40
0
40
1
40
1
40
1
41
1
10
5.29863546736206
20
5.00558147656287
30
0
41
1
10
4.45037551316011
20
5.0062033610316
30
0
41
1
10
3.60199584741588
20
5.00300493310735
30
0
0
SPLINE
5
F8
100
AcDbEntity
8
1
62
256
6
ByLayer
370
18
48
1
60
0
100
AcDbSpline
70
4
71
2
72
6
73
3
40
0
40
0
40
0
40
1
40
1
40
1
41
1
10
40.1747936860834
20
-0.0030947708519875
30
0
41
1
10
40.1747867720229
20
-0.0030869592492593
30
0
41
1
10
40.1747798579602
20
-0.0030791149428069
30
0
0
SPLINE
5
F9
100
AcDbEntity
8
1
62
256
6
ByLayer
370
18
48
1
60
0
100
AcDbSpline
70
4
71
3
72
16
73
12
40
0
40
0
40
0
40
0
40
0.0583850668395314
40
0.223499053833639
40
0.387942872398156
40
0.473839761486964
40
0.558943326075754
40
0.641837508529647
40
0.728927743198436
40
0.854874571153175
40
1
40
1
40
1
40
1
41
1
10
55.37294736654
20
0.961395221772932
30
-1E-16
41
1
10
55.244615108203
20
0.999671982455624
30
-1E-16
41
1
10
54.7539045437981
20
1.14786920650704
30
-1E-16
41
1
10
53.9067950580984
20
1.41966167652626
30
-1E-16
41
1
10
53.0031914701457
20
1.7209329850821
30
-1E-16
41
1
10
52.2766411094873
20
1.97257057266913
30
-1E-16
41
1
10
51.728194642229
20
2.16696412325371
30
-1E-16
41
1
10
51.1786324126349
20
2.36622464693499
30
-1E-16
41
1
10
50.5428417796749
20
2.60202290116055
30
-2E-16
41
1
10
49.7756702210983
20
2.8941598649588
30
-2E-16
41
1
10
49.1979760358508
20
3.12268407919751
30
-2E-16
41
1
10
48.8894698492472
20
3.2470742812888
30
-2E-16
0
SPLINE
5
FA
100
AcDbEntity
8
1
62
256
6
ByLayer
370
18
48
1
60
0
100
AcDbSpline
70
4
71
2
72
6
73
3
40
0
40
0
40
0
40
1
40
1
40
1
41
1
10
23.2002022176844
20
5.11588454209652
30
0
41
1
10
23.7087652426624
20
5.07484564037435
30
0
41
1
10
24.217481592911
20
5.00756338865125
30
0
0
SPLINE
5
FB
100
AcDbEntity
8
1
62
256
6
ByLayer
370
18
48
1
60
0
100
AcDbSpline
70
4
71
3
72
30
73
26
40
0
40
0
40
0
40
0
40
1.74620668513E-05
40
2.72998716607E-05
40
3.56922771446E-05
40
4.36509080249E-05
40
5.19087144579E-05
40
0.0003817774402823
40
0.0006299066018943
40
0.001078978718624
40
0.0019049175847844
40
0.0034943868554174
40
0.0067085315324639
40
0.0136593428064174
40
0.0299755808157732
40
0.0716679276415699
40
0.163536723230933
40
0.309292334561
40
0.489432276278905
40
0.648818796457072
40
0.6928911332779
40
0.74195452389344
40
0.812687477281942
40
0.905629439401323
40
1
40
1
40
1
40
1
41
1
10
25.4995967404915
20
0.167534422731649
30
0
41
1
10
25.4996159146284
20
0.167530433721453
30
0
41
1
10
25.4996369235275
20
0.167526825070411
30
0
41
1
10
25.4996250134289
20
0.167534314702209
30
0
41
1
10
25.4995952176175
20
0.167543827757868
30
0
41
1
10
25.4995432341936
20
0.16755895392771
30
0
41
1
10
25.4985907577603
20
0.16782291037967
30
0
41
1
10
25.4967296751481
20
0.168322871924488
30
0
41
1
10
25.4937676327547
20
0.169136235667253
30
0
41
1
10
25.4892672136709
20
0.170364538556811
30
0
41
1
10
25.4808467496168
20
0.172664121666742
30
0
41
1
10
25.4640792024936
20
0.177222177434885
30
0
41
1
10
25.4286552637037
20
0.186807899326709
30
0
41
1
10
25.3476397410778
20
0.20862520575298
30
0
41
1
10
25.1463465241185
20
0.262760729301135
30
0
41
1
10
24.6775909467034
20
0.390083043623605
30
0
41
1
10
23.8034792327048
20
0.635310356977328
30
0
41
1
10
22.5029391321133
20
1.0211416484405
30
-1E-16
41
1
10
21.0011305691275
20
1.49984929699735
30
-1E-16
41
1
10
19.8224286202436
20
1.90280061886082
30
-1E-16
41
1
10
19.049945584436
20
2.17757564099054
30
-1E-16
41
1
10
18.5497351519142
20
2.35866945911036
30
-1E-16
41
1
10
17.9022070637382
20
2.59847286989032
30
-2E-16
41
1
10
17.1196000351917
20
2.89665418911321
30
-2E-16
41
1
10
16.5544589316168
20
3.12034662548692
30
-2E-16
41
1
10
16.2704305345538
20
3.23478605333793
30
-2E-16
0
SPLINE
5
FC
100
AcDbEntity
8
1
62
256
6
ByLayer
370
18
48
1
60
0
100
AcDbSpline
70
4
71
2
72
6
73
3
40
0
40
0
40
0
40
1
40
1
40
1
41
1
10
24.217481592911
20
-5.00756338865418
30
0
41
1
10
24.1799175049518
20
-5.01253157263446
30
0
41
1
10
24.142354252996
20
-5.01735666519991
30
0
0
SPLINE
5
FD
100
AcDbEntity
8
1
62
256
6
ByLayer
370
18
48
1
60
0
100
AcDbSpline
70
4
71
3
72
21
73
17
40
0
40
0
40
0
40
0
40
0.104263551380104
40
0.181999847044639
40
0.245861413595529
40
0.302957739175027
40
0.351228140914729
40
0.395375510032982
40
0.465461357229324
40
0.54280723869177
40
0.599448136366199
40
0.65490712754631
40
0.747243241028331
40
0.854957101724725
40
0.9493448571563
40
1
40
1
40
1
40
1
41
1
10
23.8440822053362
20
-5.01543756790323
30
0
41
1
10
24.2209282753797
20
-5.01558691645798
30
0
41
1
10
24.8788921026646
20
-5.01583608301311
30
0
41
1
10
25.769364337184
20
-5.01621974008805
30
0
41
1
10
26.4873415039937
20
-5.01640338663282
30
0
41
1
10
27.1003051583466
20
-5.01726561685982
30
0
41
1
10
27.6415518765015
20
-5.0179013460658
30
0
41
1
10
28.2299068808006
20
-5.01791286140519
30
0
41
1
10
28.9234133838982
20
-5.01754190352943
30
0
41
1
10
29.6622542123943
20
-5.01732257864435
30
0
41
1
10
30.3480681801553
20
-5.01949903095311
30
0
41
1
10
31.0879234726338
20
-5.0199880201007
30
0
41
1
10
32.0130889514779
20
-5.01855742975153
30
0
41
1
10
33.0788447904061
20
-5.01902543558498
30
0
41
1
10
33.9945570877042
20
-5.02002915599277
30
0
41
1
10
34.518709633646
20
-5.02100105232913
30
0
41
1
10
34.7019372031886
20
-5.02124578026778
30
0
0
SPLINE
5
FE
100
AcDbEntity
8
1
62
256
6
ByLayer
370
18
48
1
60
0
100
AcDbSpline
70
4
71
3
72
20
73
16
40
0
40
0
40
0
40
0
40
0.1031421065652
40
0.204252505376964
40
0.277324990855841
40
0.35081848270085
40
0.445010520840963
40
0.55250103196228
40
0.644645682325468
40
0.700855829932277
40
0.758970807119605
40
0.838062779506102
40
0.907894199321466
40
0.96048265685065
40
1
40
1
40
1
40
1
41
1
10
37.9576420870053
20
5.02222804250942
30
0
41
1
10
37.5835428431545
20
5.02054192126491
30
0
41
1
10
36.8433864861423
20
5.01834037666112
30
0
41
1
10
35.8504808650038
20
5.02134462818941
30
0
41
1
10
34.949355835838
20
5.02184148368357
30
0
41
1
10
34.0778514159236
20
5.02012033724014
30
0
41
1
10
33.0788445807954
20
5.01902605385632
30
0
41
1
10
32.0130897946428
20
5.01855494273758
30
0
41
1
10
31.0847785150929
20
5.01999939970725
30
0
41
1
10
30.3360197048126
20
5.01947399404307
30
0
41
1
10
29.6343546356388
20
5.01725869302808
30
0
41
1
10
28.8832337677145
20
5.01757727176209
30
0
41
1
10
28.1522491419972
20
5.01794294226451
30
0
41
1
10
27.5647140625281
20
5.01786990067734
30
0
41
1
10
27.2305941288857
20
5.01740258263416
30
0
41
1
10
27.0872167791468
20
5.0172098808581
30
0
0
SPLINE
5
FF
100
AcDbEntity
8
1
62
256
6
ByLayer
370
18
48
1
60
0
100
AcDbSpline
70
4
71
3
72
8
73
4
40
0
40
0
40
0
40
0
40
1
40
1
40
1
40
1
41
1
10
24.1422581771808
20
5.01556722790599
30
0
41
1
10
24.0662169592835
20
5.01553481215885
30
0
41
1
10
23.9901849263341
20
5.01550186830485
30
0
41
1
10
23.9141581985597
20
5.01546847413891
30
0
0
LINE
5
84
100
AcDbEntity
8
SK1
62
256
6
ByLayer
370
18
48
1
60
0
100
AcDbLine
10
-45
20
-4.255
30
0
11
-45
21
-3.171415
31
0
39
0
210
0
220
0
230
1
0
LINE
5
86
100
AcDbEntity
8
SK1
62
256
6
ByLayer
370
18
48
1
60
0
100
AcDbLine
10
-43.255
20
-6
30
0
11
-43.255
21
6
31
0
39
0
210
0
220
0
230
1
0
LINE
5
87
100
AcDbEntity
8
SK1
62
256
6
ByLayer
370
18
48
1
60
0
100
AcDbLine
10
-44.417949
20
-2.944806
30
0
11
-44.417949
21
-1.140666
31
0
39
0
210
0
220
0
230
1
0
LINE
5
88
100
AcDbEntity
8
SK1
62
256
6
ByLayer
370
18
48
1
60
0
100
AcDbLine
10
-44.15
20
-2.98085
30
0
11
-44.15
21
-1.357168
31
0
39
0
210
0
220
0
230
1
0
LINE
5
89
100
AcDbEntity
8
SK1
62
256
6
ByLayer
370
18
48
1
60
0
100
AcDbLine
10
-44.25
20
-3.018845
30
0
11
-44.25
21
-1.214737
31
0
39
0
210
0
220
0
230
1
0
LINE
5
8A
100
AcDbEntity
8
SK1
62
256
6
ByLayer
370
18
48
1
60
0
100
AcDbLine
10
-45
20
4.255
30
0
11
-45
21
-0.219368
31
0
39
0
210
0
220
0
230
1
0
LINE
5
8B
100
AcDbEntity
8
SK1
62
256
6
ByLayer
370
18
48
1
60
0
100
AcDbLine
10
0
20
6
30
0
11
0
21
-6
31
0
39
0
210
0
220
0
230
1
0
LINE
5
8C
100
AcDbEntity
8
SK1
62
256
6
ByLayer
370
18
48
1
60
0
100
AcDbLine
10
-45
20
-3.171415
30
0
11
-45
21
-0.219421
31
0
39
0
210
0
220
0
230
1
0
LINE
5
8D
100
AcDbEntity
8
1
62
256
6
ByLayer
370
18
48
1
60
0
100
AcDbLine
10
3.501646
20
5.267768
30
0
11
3.501646
21
2.042321
31
0
39
0
210
0
220
0
230
1
0
LINE
5
8E
100
AcDbEntity
8
1
62
256
6
ByLayer
370
18
48
1
60
0
100
AcDbLine
10
1.345608
20
5.266421
30
0
11
1.345608
21
0
31
0
39
0
210
0
220
0
230
1
0
LINE
5
8F
100
AcDbEntity
8
1
62
256
6
ByLayer
370
18
48
1
60
0
100
AcDbLine
10
1.345608
20
0
30
0
11
1.345608
21
-5.266421
31
0
39
0
210
0
220
0
230
1
0
LINE
5
90
100
AcDbEntity
8
1
62
256
6
ByLayer
370
18
48
1
60
0
100
AcDbLine
10
23.2
20
5.263657
30
0
11
23.2
21
5.256608
31
0
39
0
210
0
220
0
230
1
0
LINE
5
91
100
AcDbEntity
8
1
62
256
6
ByLayer
370
18
48
1
60
0
100
AcDbLine
10
56.926091
20
0.063803
30
0
11
55.657458
21
1.464154
31
0
39
0
210
0
220
0
230
1
0
LINE
5
92
100
AcDbEntity
8
1
62
256
6
ByLayer
370
18
48
1
60
0
100
AcDbLine
10
0.672554
20
5.63321
30
0
11
0.672554
21
0
31
0
39
0
210
0
220
0
230
1
0
LINE
5
93
100
AcDbEntity
8
1
62
256
6
ByLayer
370
18
48
1
60
0
100
AcDbLine
10
0.672554
20
0
30
0
11
0.672554
21
-5.63321
31
0
39
0
210
0
220
0
230
1
0
LINE
5
94
100
AcDbEntity
8
1
62
256
6
ByLayer
370
18
48
1
60
0
100
AcDbLine
10
3.501646
20
-5.214366
30
0
11
3.501646
21
-5.267768
31
0
39
0
210
0
220
0
230
1
0
LINE
5
95
100
AcDbEntity
8
1
62
256
6
ByLayer
370
18
48
1
60
0
100
AcDbLine
10
0
20
6
30
0
11
0
21
0
31
0
39
0
210
0
220
0
230
1
0
LINE
5
96
100
AcDbEntity
8
1
62
256
6
ByLayer
370
18
48
1
60
0
100
AcDbLine
10
0
20
0
30
0
11
0
21
-6
31
0
39
0
210
0
220
0
230
1
0
LINE
5
97
100
AcDbEntity
8
SK1
62
256
6
ByLayer
370
18
48
1
60
0
100
AcDbLine
10
-45
20
-4.255
30
0
11
-43.255
21
-6
31
0
39
0
210
0
220
0
230
1
0
LINE
5
98
100
AcDbEntity
8
SK1
62
256
6
ByLayer
370
18
48
1
60
0
100
AcDbLine
10
-43.255
20
6
30
0
11
-45
21
4.255
31
0
39
0
210
0
220
0
230
1
0
LINE
5
99
100
AcDbEntity
8
SK1
62
256
6
ByLayer
370
18
48
1
60
0
100
AcDbLine
10
-43.255
20
-6
30
0
11
0
21
-6
31
0
39
0
210
0
220
0
230
1
0
LINE
5
9A
100
AcDbEntity
8
SK1
62
256
6
ByLayer
370
18
48
1
60
0
100
AcDbLine
10
0
20
6
30
0
11
-43.255
21
6
31
0
39
0
210
0
220
0
230
1
0
LINE
5
9B
100
AcDbEntity
8
1
62
256
6
ByLayer
370
18
48
1
60
0
100
AcDbLine
10
1.345608
20
-5.266421
30
0
11
3.501646
21
-5.267768
31
0
39
0
210
0
220
0
230
1
0
LINE
5
9C
100
AcDbEntity
8
1
62
256
6
ByLayer
370
18
48
1
60
0
100
AcDbLine
10
5.30336
20
-5.268894
30
0
11
6.809888
21
-5.269836
31
0
39
0
210
0
220
0
230
1
0
LINE
5
9D
100
AcDbEntity
8
1
62
256
6
ByLayer
370
18
48
1
60
0
100
AcDbLine
10
22.221195
20
-5.279468
30
0
11
23.842784
21
-5.280481
31
0
39
0
210
0
220
0
230
1
0
LINE
5
9E
100
AcDbEntity
8
1
62
256
6
ByLayer
370
18
48
1
60
0
100
AcDbLine
10
37.956838
20
-5.289303
30
0
11
39.430094
21
-5.290223
31
0
39
0
210
0
220
0
230
1
0
LINE
5
9F
100
AcDbEntity
8
1
62
256
6
ByLayer
370
18
48
1
60
0
100
AcDbLine
10
39.430094
20
5.290223
30
0
11
37.956838
21
5.289303
31
0
39
0
210
0
220
0
230
1
0
LINE
5
A0
100
AcDbEntity
8
1
62
256
6
ByLayer
370
18
48
1
60
0
100
AcDbLine
10
23.842784
20
5.280481
30
0
11
22.221195
21
5.279468
31
0
39
0
210
0
220
0
230
1
0
LINE
5
A1
100
AcDbEntity
8
1
62
256
6
ByLayer
370
18
48
1
60
0
100
AcDbLine
10
6.809888
20
5.269836
30
0
11
5.30336
21
5.268894
31
0
39
0
210
0
220
0
230
1
0
LINE
5
A2
100
AcDbEntity
8
1
62
256
6
ByLayer
370
18
48
1
60
0
100
AcDbLine
10
3.501646
20
5.267768
30
0
11
1.345608
21
5.266421
31
0
39
0
210
0
220
0
230
1
0
LINE
5
A3
100
AcDbEntity
8
SK4
62
256
6
ByLayer
370
18
48
0.05
60
0
100
AcDbLine
10
62
20
0
30
0
11
-50
21
0
31
0
39
0
210
0
220
0
230
1
0
LINE
5
A5
100
AcDbEntity
8
4
62
256
6
ByLayer
370
18
48
0.05
60
0
100
AcDbLine
10
-45
20
0
30
0
11
62
21
0
31
0
39
0
210
0
220
0
230
1
0
LINE
5
A7
100
AcDbEntity
8
80
62
256
6
ByLayer
370
18
48
1
60
0
100
AcDbLine
10
0
20
0
30
0
11
-6
21
0
31
0
39
0
210
0
220
0
230
1
0
LINE
5
A8
100
AcDbEntity
8
81
62
256
6
ByLayer
370
18
48
1
60
0
100
AcDbLine
10
57
20
0
30
0
11
63
21
0
31
0
39
0
210
0
220
0
230
1
0
LINE
5
A9
100
AcDbEntity
8
SK2
62
256
6
ByLayer
370
13
48
1
60
0
100
AcDbLine
10
57.542946
20
1.491766
30
0
11
64.926164
21
21.777432
31
0
39
0
210
0
220
0
230
1
0
LINE
5
AB
100
AcDbEntity
8
SK2
62
256
6
ByLayer
370
13
48
1
60
0
100
AcDbLine
10
57.542946
20
-1.491766
30
0
11
64.926164
21
-21.777432
31
0
39
0
210
0
220
0
230
1
0
LINE
5
AC
100
AcDbEntity
8
1
62
256
6
ByLayer
370
13
48
1
60
0
100
AcDbLine
10
63.840271
20
18.793901
30
0
11
66.936867
21
17.97755
31
0
39
0
210
0
220
0
230
1
0
LINE
5
AD
100
AcDbEntity
8
1
62
256
6
ByLayer
370
13
48
1
60
0
100
AcDbLine
10
63.840271
20
18.793901
30
0
11
66.620069
21
17.203907
31
0
39
0
210
0
220
0
230
1
0
LINE
5
AE
100
AcDbEntity
8
1
62
256
6
ByLayer
370
13
48
1
60
0
100
AcDbLine
10
66.936867
20
17.97755
30
0
11
66.620069
21
17.203907
31
0
39
0
210
0
220
0
230
1
0
LINE
5
AF
100
AcDbEntity
8
1
62
256
6
ByLayer
370
13
48
1
60
0
100
AcDbLine
10
63.840271
20
-18.793901
30
0
11
66.620066
21
-17.203908
31
0
39
0
210
0
220
0
230
1
0
LINE
5
B0
100
AcDbEntity
8
1
62
256
6
ByLayer
370
13
48
1
60
0
100
AcDbLine
10
63.840271
20
-18.793901
30
0
11
66.93687
21
-17.977549
31
0
39
0
210
0
220
0
230
1
0
LINE
5
B1
100
AcDbEntity
8
1
62
256
6
ByLayer
370
13
48
1
60
0
100
AcDbLine
10
66.620066
20
-17.203908
30
0
11
66.93687
21
-17.977549
31
0
39
0
210
0
220
0
230
1
0
MTEXT
5
100
100
AcDbEntity
8
SK2
62
256
6
ByLayer
370
18
48
1
60
0
100
AcDbMText
10
70.717388
20
-2.467451
30
0
210
0
220
0
230
1
1
\W0.7237;140.00
40
3.50012
41
0
44
1.084337
50
0
71
7
72
5
7
iso_b_vert
0
MTEXT
5
103
100
AcDbEntity
8
SK6
62
256
6
ByLayer
370
18
48
1
60
0
100
AcDbMText
10
-32.481028
20
-52.814381
30
0
210
0
220
0
230
1
1
\W0.7348;860.1-1060-033A1-GM X1BM
40
3.175
41
0
44
1.084337
50
0
71
7
72
5
7
iso_b_vert
0
DIMENSION
5
106
100
AcDbEntity
8
SK2
62
256
6
ByLayer
370
18
48
1
60
0
100
AcDbDimension
2
_U0
10
57
20
-29.50012
30
0
11
28.5
21
-29.50012
31
0
70
32
71
2
72
1
41
1
210
0
220
0
230
1
3
Standard
100
AcDbAlignedDimension
13
0
23
-6
33
0
14
57
24
0
34
0
50
0
100
AcDbRotatedDimension
1001
ACAD
1000
DSTYLE
1002
{
1070
   371
1070
    13
1070
   372
1070
    13
1070
     3
1000

1070
   170
1070
     0
1070
   144
1040
1.0
1070
   277
1070
     2
1070
   284
1070
     8
1070
   278
1070
    46
1070
   146
1040
0.999966
1070
   345
1005
16
1070
   347
1005
16
1070
   346
1005
16
1070
   344
1005
107
1070
   343
1005
107
1070
   172
1070
     1
1070
    76
1070
     0
1070
    75
1070
     0
1070
   282
1070
     0
1070
   281
1070
     0
1070
    71
1070
     0
1070
    74
1070
     0
1070
   279
1070
     0
1070
   173
1070
     1
1070
   340
1005
101
1070
   271
1070
     1
1070
   272
1070
     2
1070
    77
1070
     1
1070
    73
1070
     1
1070
   171
1070
     3
1070
   274
1070
     4
1070
   177
1070
   150
1070
   176
1070
     9
1070
   178
1070
    43
1070
    78
1070
     8
1070
    48
1040
-0.1
1070
    41
1040
3.175
1070
   147
1040
1.75006
1070
    42
1040
1.5875
1070
    44
1040
3.175
1070
   140
1040
3.50012
1002
}
1001
ACAD_DSTYLE_DIM_LINETYPE
1070
   380
1005
16
1001
ACAD_DSTYLE_DIM_EXT1_LINETYPE
1070
   381
1005
16
1001
ACAD_DSTYLE_DIM_EXT2_LINETYPE
1070
   382
1005
16
0
DIMENSION
5
12C
100
AcDbEntity
8
2
62
256
6
ByLayer
370
18
48
1
60
0
100
AcDbDimension
2
_U1
10
63.75006
20
5.3
30
0
11
63.75006
21
22.289948
31
0
70
32
71
1
72
1
41
1
210
0
220
0
230
1
3
Standard
100
AcDbAlignedDimension
13
55.071
23
-5.3
33
0
14
55.071
24
5.3
34
0
50
90
100
AcDbRotatedDimension
1001
ACAD
1000
DSTYLE
1002
{
1070
   371
1070
    13
1070
   372
1070
    13
1070
     3
1000

1070
   170
1070
     0
1070
   144
1040
1.0
1070
   277
1070
     2
1070
   284
1070
     8
1070
   278
1070
    46
1070
   146
1040
0.999966
1070
   345
1005
16
1070
   347
1005
16
1070
   346
1005
16
1070
   344
1005
107
1070
   343
1005
107
1070
   172
1070
     1
1070
    76
1070
     0
1070
    75
1070
     0
1070
   282
1070
     0
1070
   281
1070
     0
1070
    71
1070
     0
1070
    74
1070
     0
1070
   279
1070
     0
1070
   173
1070
     1
1070
   340
1005
101
1070
   271
1070
     1
1070
   272
1070
     2
1070
    77
1070
     1
1070
    73
1070
     0
1070
   171
1070
     3
1070
   274
1070
     4
1070
   177
1070
   150
1070
   176
1070
     9
1070
   178
1070
    43
1070
    78
1070
     8
1070
    48
1040
-0.1
1070
    41
1040
3.175
1070
   147
1040
1.75006
1070
    42
1040
1.5875
1070
    44
1040
3.175
1070
   140
1040
3.50012
1002
}
1001
ACAD_DSTYLE_DIM_LINETYPE
1070
   380
1005
16
1001
ACAD_DSTYLE_DIM_EXT1_LINETYPE
1070
   381
1005
16
1001
ACAD_DSTYLE_DIM_EXT2_LINETYPE
1070
   382
1005
16
0
DIMENSION
5
14B
100
AcDbEntity
8
SK2
62
256
6
ByLayer
370
18
48
1
60
0
100
AcDbDimension
2
_U2
10
-48.24994
20
-6
30
0
11
-48.24994
21
20.97767
31
0
70
32
71
1
72
1
41
1
210
0
220
0
230
1
3
Standard
100
AcDbAlignedDimension
13
-45
23
6
33
0
14
-45
24
-6
34
0
50
90
100
AcDbRotatedDimension
1001
ACAD
1000
DSTYLE
1002
{
1070
   371
1070
    13
1070
   372
1070
    13
1070
     3
1000

1070
   170
1070
     0
1070
   144
1040
1.0
1070
   277
1070
     2
1070
   284
1070
     8
1070
   278
1070
    46
1070
   146
1040
0.999966
1070
   345
1005
16
1070
   347
1005
16
1070
   346
1005
16
1070
   344
1005
107
1070
   343
1005
107
1070
   172
1070
     1
1070
    76
1070
     0
1070
    75
1070
     0
1070
   282
1070
     0
1070
   281
1070
     0
1070
    71
1070
     0
1070
    74
1070
     0
1070
   279
1070
     0
1070
   173
1070
     1
1070
   340
1005
101
1070
   271
1070
     1
1070
   272
1070
     2
1070
    77
1070
     1
1070
    73
1070
     0
1070
   171
1070
     3
1070
   274
1070
     4
1070
   177
1070
   150
1070
   176
1070
     9
1070
   178
1070
    43
1070
    78
1070
     8
1070
    48
1040
-0.1
1070
    41
1040
3.175
1070
   147
1040
1.75006
1070
    42
1040
1.5875
1070
    44
1040
3.175
1070
   140
1040
3.50012
1002
}
1001
ACAD_DSTYLE_DIM_LINETYPE
1070
   380
1005
16
1001
ACAD_DSTYLE_DIM_EXT1_LINETYPE
1070
   381
1005
16
1001
ACAD_DSTYLE_DIM_EXT2_LINETYPE
1070
   382
1005
16
0
DIMENSION
5
169
100
AcDbEntity
8
SK2
62
256
6
ByLayer
370
18
48
1
60
0
100
AcDbDimension
2
_U3
10
0
20
-29.50012
30
0
11
-22.5
21
-29.50012
31
0
70
32
71
1
72
1
41
1
210
0
220
0
230
1
3
Standard
100
AcDbAlignedDimension
13
-45
23
-6
33
0
14
0
24
-6
34
0
50
0
100
AcDbRotatedDimension
1001
ACAD
1000
DSTYLE
1002
{
1070
   371
1070
    13
1070
   372
1070
    13
1070
     3
1000

1070
   170
1070
     0
1070
   144
1040
1.0
1070
   277
1070
     2
1070
   284
1070
     8
1070
   278
1070
    46
1070
   146
1040
0.999966
1070
   345
1005
16
1070
   347
1005
16
1070
   346
1005
16
1070
   344
1005
107
1070
   343
1005
107
1070
   172
1070
     1
1070
    76
1070
     0
1070
    75
1070
     0
1070
   282
1070
     0
1070
   281
1070
     0
1070
    71
1070
     0
1070
    74
1070
     0
1070
   279
1070
     0
1070
   173
1070
     1
1070
   340
1005
101
1070
   271
1070
     1
1070
   272
1070
     2
1070
    77
1070
     1
1070
    73
1070
     1
1070
   171
1070
     3
1070
   274
1070
     4
1070
   177
1070
   150
1070
   176
1070
     9
1070
   178
1070
    43
1070
    78
1070
     8
1070
    48
1040
-0.1
1070
    41
1040
3.175
1070
   147
1040
1.75006
1070
    42
1040
1.5875
1070
    44
1040
3.175
1070
   140
1040
3.50012
1002
}
1001
ACAD_DSTYLE_DIM_LINETYPE
1070
   380
1005
16
1001
ACAD_DSTYLE_DIM_EXT1_LINETYPE
1070
   381
1005
16
1001
ACAD_DSTYLE_DIM_EXT2_LINETYPE
1070
   382
1005
16
0
DIMENSION
5
185
100
AcDbEntity
8
SK2
62
256
6
ByLayer
370
18
48
1
60
0
100
AcDbDimension
2
_U4
10
57
20
-20.74982
30
0
11
29.5
21
-20.74982
31
0
70
32
71
1
72
1
41
1
210
0
220
0
230
1
3
Standard
100
AcDbAlignedDimension
13
2
23
5.8
33
0
14
57
24
0
34
0
50
0
100
AcDbRotatedDimension
1001
ACAD
1000
DSTYLE
1002
{
1070
   371
1070
    13
1070
   372
1070
    13
1070
     3
1000

1070
   170
1070
     0
1070
   144
1040
1.0
1070
   277
1070
     2
1070
   284
1070
     8
1070
   278
1070
    46
1070
   146
1040
0.999966
1070
   345
1005
16
1070
   347
1005
16
1070
   346
1005
16
1070
   344
1005
107
1070
   343
1005
107
1070
   172
1070
     1
1070
    76
1070
     0
1070
    75
1070
     0
1070
   282
1070
     0
1070
   281
1070
     0
1070
    71
1070
     0
1070
    74
1070
     0
1070
   279
1070
     0
1070
   173
1070
     1
1070
   340
1005
101
1070
   271
1070
     1
1070
   272
1070
     2
1070
    77
1070
     1
1070
    73
1070
     1
1070
   171
1070
     3
1070
   274
1070
     4
1070
   177
1070
   150
1070
   176
1070
     9
1070
   178
1070
    43
1070
    78
1070
     8
1070
    48
1040
-0.1
1070
    41
1040
3.175
1070
   147
1040
1.75006
1070
    42
1040
1.5875
1070
    44
1040
3.175
1070
   140
1040
3.50012
1002
}
1001
ACAD_DSTYLE_DIM_LINETYPE
1070
   380
1005
16
1001
ACAD_DSTYLE_DIM_EXT1_LINETYPE
1070
   381
1005
16
1001
ACAD_DSTYLE_DIM_EXT2_LINETYPE
1070
   382
1005
16
0
DIMENSION
5
1A1
100
AcDbEntity
8
SK2
62
256
6
ByLayer
370
18
48
1
60
0
100
AcDbDimension
2
_U5
10
57
20
-12.82
30
0
11
40.15
21
-12.82
31
0
70
32
71
1
72
1
41
1
210
0
220
0
230
1
3
Standard
100
AcDbAlignedDimension
13
23.3
23
-5.3
33
0
14
57
24
0
34
0
50
0
100
AcDbRotatedDimension
1001
ACAD
1000
DSTYLE
1002
{
1070
   371
1070
    13
1070
   372
1070
    13
1070
     3
1000

1070
   170
1070
     0
1070
   144
1040
1.0
1070
   277
1070
     2
1070
   284
1070
     8
1070
   278
1070
    46
1070
   146
1040
1.25
1070
   345
1005
16
1070
   347
1005
16
1070
   346
1005
16
1070
   344
1005
107
1070
   343
1005
107
1070
   172
1070
     1
1070
    76
1070
     0
1070
    75
1070
     0
1070
   282
1070
     0
1070
   281
1070
     0
1070
    71
1070
     0
1070
    74
1070
     0
1070
   279
1070
     0
1070
   173
1070
     1
1070
   340
1005
101
1070
   271
1070
     1
1070
   272
1070
     2
1070
    77
1070
     1
1070
    73
1070
     1
1070
   171
1070
     3
1070
   274
1070
     4
1070
   177
1070
   150
1070
   176
1070
     9
1070
   178
1070
    43
1070
    78
1070
     8
1070
    48
1040
-0.1
1070
    41
1040
3.175
1070
   147
1040
0.42
1070
    42
1040
1.5875
1070
    44
1040
0.5
1070
   140
1040
2.8
1002
}
1001
ACAD_DSTYLE_DIM_LINETYPE
1070
   380
1005
16
1001
ACAD_DSTYLE_DIM_EXT1_LINETYPE
1070
   381
1005
16
1001
ACAD_DSTYLE_DIM_EXT2_LINETYPE
1070
   382
1005
16
0
DIMENSION
5
1BD
100
AcDbEntity
8
SK2
62
256
6
ByLayer
370
18
48
1
60
0
100
AcDbDimension
2
_U6
10
57
20
-39.50012
30
0
11
6
21
-39.50012
31
0
70
32
71
1
72
1
41
1
210
0
220
0
230
1
3
Standard
100
AcDbAlignedDimension
13
-45
23
0
33
0
14
57
24
0
34
0
50
0
100
AcDbRotatedDimension
1001
ACAD
1000
DSTYLE
1002
{
1070
   371
1070
    13
1070
   372
1070
    13
1070
     3
1000

1070
   170
1070
     0
1070
   144
1040
1.0
1070
   277
1070
     2
1070
   284
1070
     8
1070
   278
1070
    46
1070
   146
1040
0.999966
1070
   345
1005
16
1070
   347
1005
16
1070
   346
1005
16
1070
   344
1005
107
1070
   343
1005
107
1070
   172
1070
     1
1070
    76
1070
     0
1070
    75
1070
     0
1070
   282
1070
     0
1070
   281
1070
     0
1070
    71
1070
     0
1070
    74
1070
     0
1070
   279
1070
     0
1070
   173
1070
     1
1070
   340
1005
101
1070
   271
1070
     1
1070
   272
1070
     2
1070
    77
1070
     1
1070
    73
1070
     1
1070
   171
1070
     3
1070
   274
1070
     4
1070
   177
1070
   150
1070
   176
1070
     9
1070
   178
1070
    43
1070
    78
1070
     8
1070
    48
1040
-0.1
1070
    41
1040
3.175
1070
   147
1040
1.75006
1070
    42
1040
1.5875
1070
    44
1040
3.175
1070
   140
1040
3.50012
1002
}
1001
ACAD_DSTYLE_DIM_LINETYPE
1070
   380
1005
16
1001
ACAD_DSTYLE_DIM_EXT1_LINETYPE
1070
   381
1005
16
1001
ACAD_DSTYLE_DIM_EXT2_LINETYPE
1070
   382
1005
16
0
ENDSEC
0
SECTION
2
OBJECTS
0
DICTIONARY
5
249
330
0
100
AcDbDictionary
280
0
281
1
3
ACAD_GROUP
350
24a
3
ACAD_MLINESTYLE
350
24b
0
DICTIONARY
5
24a
330
0
100
AcDbDictionary
280
0
281
1
0
DICTIONARY
5
24b
330
0
100
AcDbDictionary
280
0
281
1
3
Standard
350
18
0
MLINESTYLE
5
18
330
24b
100
AcDbMlineStyle
2
Standard
70
0
3

62
256
51
90
52
90
71
2
49
-0.5
62
256
6
ByLayer
49
0.5
62
256
6
ByLayer
0
RASTERVARIABLES
5
237
330

100
AcDbRasterVariables
90
0
70
1
71
1
72
1
0
ENDSEC
0
EOF
