0
SECTION
2
HEADER
9
$ACADVER
1
AC1015
9
$DWGCODEPAGE
3
ANSI_1252
9
$HANDSEED
5
256
9
$ANGBASE
50
0
9
$ANGDIR
70
0
9
$ATTMODE
70
1
9
$AUNITS
70
0
9
$AUPREC
70
0
9
$CECOLOR
62
256
9
$CELTSCALE
40
1
9
$CELTYPE
6
ByLayer
9
$CELWEIGHT
370
18
9
$CLAYER
8
0
9
$CMLJUST
70
0
9
$CMLSCALE
40
1
9
$CMLSTYLE
2
Standard
9
$DIMSTYLE
2
Standard
9
$TEXTSIZE
40
0.2
9
$TEXTSTYLE
7
Standard
9
$LUNITS
70
2
9
$LUPREC
70
4
9
$EXTNAMES
290
1
9
$INSUNITS
70
4
9
$LTSCALE
40
1
9
$LWDISPLAY
290
1
9
$PDMODE
70
0
9
$PDSIZE
40
0
9
$PLINEGEN
70
0
0
ENDSEC
0
SECTION
2
CLASSES
0
CLASS
1
RASTERVARIABLES
2
AcDbRasterVariables
3
ISM
90
0
280
0
281
0
0
ENDSEC
0
SECTION
2
TABLES
0
TABLE
2
VPORT
5
24c
100
AcDbSymbolTable
0
VPORT
5
1
100
AcDbSymbolTableRecord
100
AcDbViewportTableRecord
2
*Active
70
0
10
0
20
0
11
1
21
1
12
-1
22
1
13
0
23
0
14
0.5
24
0.5
15
10
25
10
16
0
26
0
36
1
17
0
27
0
37
0
0
ENDTAB
0
TABLE
2
LTYPE
5
24d
100
AcDbSymbolTable
0
LTYPE
5
14
100
AcDbSymbolTableRecord
100
AcDbLinetypeTableRecord
70
0
2
ByBlock
3

72
65
73
0
40
0
0
LTYPE
5
15
100
AcDbSymbolTableRecord
100
AcDbLinetypeTableRecord
70
0
2
ByLayer
3

72
65
73
0
40
0
0
LTYPE
5
16
100
AcDbSymbolTableRecord
100
AcDbLinetypeTableRecord
70
0
2
Continuous
3
Solid line
72
65
73
0
40
0
0
LTYPE
5
6E
100
AcDbSymbolTableRecord
100
AcDbLinetypeTableRecord
70
0
2
CENTER
3
____ _ ____ _ ____ _ ____
72
65
73
4
40
47.5
49
22
74
0
49
-8.5
74
0
49
8.5
74
0
49
-8.5
74
0
0
LTYPE
5
6F
100
AcDbSymbolTableRecord
100
AcDbLinetypeTableRecord
70
0
2
DASHED
3
__ __ __ __ __ __ __ __ __
72
65
73
2
40
25.72
49
12.86
74
0
49
-12.86
74
0
0
ENDTAB
0
TABLE
2
LAYER
5
24e
100
AcDbSymbolTable
0
LAYER
5
10
100
AcDbSymbolTableRecord
100
AcDbLayerTableRecord
2
0
70
0
62
7
6
Continuous
290
1
370
-3
390
0
0
LAYER
5
71
100
AcDbSymbolTableRecord
100
AcDbLayerTableRecord
2
80
70
0
62
-6
6
Continuous
290
1
370
-3
390
0
0
LAYER
5
73
100
AcDbSymbolTableRecord
100
AcDbLayerTableRecord
2
81
70
0
62
-3
6
Continuous
290
1
370
-3
390
0
0
LAYER
5
75
100
AcDbSymbolTableRecord
100
AcDbLayerTableRecord
2
1
70
0
62
4
6
Continuous
290
1
370
-3
390
0
0
LAYER
5
A6
100
AcDbSymbolTableRecord
100
AcDbLayerTableRecord
2
4
70
0
62
-2
6
CENTER
290
1
370
-3
390
0
0
LAYER
5
110
100
AcDbSymbolTableRecord
100
AcDbLayerTableRecord
2
Defpoints
70
0
62
7
6
Continuous
290
0
370
-3
390
0
0
LAYER
5
13D
100
AcDbSymbolTableRecord
100
AcDbLayerTableRecord
2
2
70
0
62
7
6
Continuous
290
1
370
-3
390
0
0
LAYER
5
238
100
AcDbSymbolTableRecord
100
AcDbLayerTableRecord
2
SK1
70
0
62
4
6
Continuous
290
1
370
-3
390
0
0
LAYER
5
239
100
AcDbSymbolTableRecord
100
AcDbLayerTableRecord
2
SK4
70
0
62
2
6
CENTER
290
1
370
-3
390
0
0
LAYER
5
23a
100
AcDbSymbolTableRecord
100
AcDbLayerTableRecord
2
SK2
70
0
62
7
6
Continuous
290
1
370
-3
390
0
0
LAYER
5
23b
100
AcDbSymbolTableRecord
100
AcDbLayerTableRecord
2
SK6
70
0
62
5
6
Continuous
290
1
370
-3
390
0
0
ENDTAB
0
TABLE
2
STYLE
5
24f
100
AcDbSymbolTable
0
STYLE
5
11
100
AcDbSymbolTableRecord
100
AcDbTextStyleTableRecord
2
Standard
3
txt
70
0
71
0
40
0
41
1
42
0
50
0
0
STYLE
5
101
100
AcDbSymbolTableRecord
100
AcDbTextStyleTableRecord
2
iso_b_vert
3
simplex.shx
70
0
71
0
40
0
41
1
42
0
50
0
0
STYLE
5
102
100
AcDbSymbolTableRecord
100
AcDbTextStyleTableRecord
2
DWGDirectTextStyle
3
simplex
70
0
71
0
40
0
41
1
42
0
50
0
0
ENDTAB
0
TABLE
2
DIMSTYLE
5
250
100
AcDbSymbolTable
100
AcDbDimStyleTable
0
DIMSTYLE
105
27
100
AcDbSymbolTableRecord
100
AcDbDimStyleTableRecord
2
Standard
70
0
3
<>
41
0.18
42
0.0625
44
0.18
140
0.18
147
0.09
73
0
74
0
77
1
271
2
275
0
278
52
280
0
340
11
0
ENDTAB
0
TABLE
2
VIEW
5
251
100
AcDbSymbolTable
0
ENDTAB
0
TABLE
2
UCS
5
252
100
AcDbSymbolTable
0
ENDTAB
0
TABLE
2
APPID
5
253
100
AcDbSymbolTable
0
APPID
5
12
100
AcDbSymbolTableRecord
100
AcDbRegAppTableRecord
2
ACAD
70
0
0
APPID
5
105
100
AcDbSymbolTableRecord
100
AcDbRegAppTableRecord
2
ACAD_DSTYLE_DIMBREAK
70
0
0
APPID
5
1F7
100
AcDbSymbolTableRecord
100
AcDbRegAppTableRecord
2
ACAD_DSTYLE_DIM_LINETYPE
70
0
0
APPID
5
1F8
100
AcDbSymbolTableRecord
100
AcDbRegAppTableRecord
2
ACAD_DSTYLE_DIM_EXT1_LINETYPE
70
0
0
APPID
5
1F9
100
AcDbSymbolTableRecord
100
AcDbRegAppTableRecord
2
ACAD_DSTYLE_DIM_EXT2_LINETYPE
70
0
0
APPID
5
234
100
AcDbSymbolTableRecord
100
AcDbRegAppTableRecord
2
ACAD_MLEADERVER
70
0
0
ENDTAB
0
TABLE
2
BLOCK_RECORD
5
254
100
AcDbSymbolTable
0
BLOCK_RECORD
5
1F
100
AcDbSymbolTableRecord
100
AcDbBlockTableRecord
2
*Model_Space
340
0
70
0
0
BLOCK_RECORD
5
1B
100
AcDbSymbolTableRecord
100
AcDbBlockTableRecord
2
*Paper_Space
340
0
70
0
0
BLOCK_RECORD
5
23
100
AcDbSymbolTableRecord
100
AcDbBlockTableRecord
2
*Paper_Space0
340
0
70
0
0
BLOCK_RECORD
5
107
100
AcDbSymbolTableRecord
100
AcDbBlockTableRecord
2
_Closed
340
0
70
0
0
BLOCK_RECORD
5
111
100
AcDbSymbolTableRecord
100
AcDbBlockTableRecord
2
*D2
340
0
70
0
0
BLOCK_RECORD
5
11D
100
AcDbSymbolTableRecord
100
AcDbBlockTableRecord
2
_U0
340
0
70
0
0
BLOCK_RECORD
5
12F
100
AcDbSymbolTableRecord
100
AcDbBlockTableRecord
2
*D4
340
0
70
0
0
BLOCK_RECORD
5
13E
100
AcDbSymbolTableRecord
100
AcDbBlockTableRecord
2
_U1
340
0
70
0
0
BLOCK_RECORD
5
14E
100
AcDbSymbolTableRecord
100
AcDbBlockTableRecord
2
*D6
340
0
70
0
0
BLOCK_RECORD
5
15C
100
AcDbSymbolTableRecord
100
AcDbBlockTableRecord
2
_U2
340
0
70
0
0
BLOCK_RECORD
5
16C
100
AcDbSymbolTableRecord
100
AcDbBlockTableRecord
2
*D8
340
0
70
0
0
BLOCK_RECORD
5
178
100
AcDbSymbolTableRecord
100
AcDbBlockTableRecord
2
_U3
340
0
70
0
0
BLOCK_RECORD
5
188
100
AcDbSymbolTableRecord
100
AcDbBlockTableRecord
2
*D10
340
0
70
0
0
BLOCK_RECORD
5
194
100
AcDbSymbolTableRecord
100
AcDbBlockTableRecord
2
_U4
340
0
70
0
0
BLOCK_RECORD
5
1A4
100
AcDbSymbolTableRecord
100
AcDbBlockTableRecord
2
*D12
340
0
70
0
0
BLOCK_RECORD
5
1B0
100
AcDbSymbolTableRecord
100
AcDbBlockTableRecord
2
_U5
340
0
70
0
0
BLOCK_RECORD
5
1C0
100
AcDbSymbolTableRecord
100
AcDbBlockTableRecord
2
*D14
340
0
70
0
0
BLOCK_RECORD
5
1CC
100
AcDbSymbolTableRecord
100
AcDbBlockTableRecord
2
_U6
340
0
70
0
0
ENDTAB
0
ENDSEC
0
SECTION
2
BLOCKS
0
BLOCK
5
20
100
AcDbEntity
8
0
100
AcDbBlockBegin
2
*Model_Space
70
0
10
0
20
0
30
0
3
*Model_Space
0
ENDBLK
5
21
100
AcDbEntity
8
0
100
AcDbBlockEnd
0
BLOCK
5
1C
100
AcDbEntity
8
0
100
AcDbBlockBegin
2
*Paper_Space
70
0
10
0
20
0
30
0
3
*Paper_Space
0
ENDBLK
5
1D
100
AcDbEntity
8
0
100
AcDbBlockEnd
0
BLOCK
5
24
100
AcDbEntity
8
0
100
AcDbBlockBegin
2
*Paper_Space0
70
0
10
0
20
0
30
0
3
*Paper_Space0
0
ENDBLK
5
25
100
AcDbEntity
8
0
100
AcDbBlockEnd
0
BLOCK
5
108
100
AcDbEntity
8
0
100
AcDbBlockBegin
2
_Closed
70
0
10
0
20
0
30
0
3
_Closed
0
LINE
5
10A
100
AcDbEntity
8
0
62
256
6
ByLayer
370
-2
48
1
60
0
100
AcDbLine
10
-1
20
0.166667
30
0
11
0
21
0
31
0
39
0
210
0
220
0
230
1
0
LINE
5
10B
100
AcDbEntity
8
0
62
256
6
ByLayer
370
-2
48
1
60
0
100
AcDbLine
10
0
20
0
30
0
11
-1
21
-0.166667
31
0
39
0
210
0
220
0
230
1
0
LINE
5
10C
100
AcDbEntity
8
0
62
256
6
ByLayer
370
-2
48
1
60
0
100
AcDbLine
10
-1
20
0.166667
30
0
11
-1
21
-0.166667
31
0
39
0
210
0
220
0
230
1
0
LINE
5
10D
100
AcDbEntity
8
0
62
256
6
ByLayer
370
-2
48
1
60
0
100
AcDbLine
10
0
20
0
30
0
11
-1
21
0
31
0
39
0
210
0
220
0
230
1
0
ENDBLK
5
109
100
AcDbEntity
8
0
100
AcDbBlockEnd
0
BLOCK
5
112
100
AcDbEntity
8
0
100
AcDbBlockBegin
2
*D2
70
1
10
0
20
0
30
0
3
*D2
0
LINE
5
114
100
AcDbEntity
8
0
62
256
6
ByLayer
370
-2
48
1
60
0
100
AcDbLine
10
0
20
-6.5875
30
0
11
0
21
-31.67512
31
0
39
0
210
0
220
0
230
1
0
LINE
5
115
100
AcDbEntity
8
0
62
256
6
ByLayer
370
-2
48
1
60
0
100
AcDbLine
10
49
20
-1.5875
30
0
11
49
21
-31.67512
31
0
39
0
210
0
220
0
230
1
0
LINE
5
116
100
AcDbEntity
8
0
62
256
6
ByLayer
370
-2
48
1
60
0
100
AcDbLine
10
3.175
20
-28.50012
30
0
11
45.825
21
-28.50012
31
0
39
0
210
0
220
0
230
1
0
SOLID
5
117
100
AcDbEntity
8
0
62
256
6
ByLayer
370
-1
48
1
60
0
100
AcDbTrace
10
3.175
20
-27.970953
30
0
11
3.175
21
-29.029287
31
0
12
0
22
-28.50012
32
0
13
0
23
-28.50012
33
0
39
0
210
0
220
0
230
1
0
SOLID
5
118
100
AcDbEntity
8
0
62
256
6
ByLayer
370
-1
48
1
60
0
100
AcDbTrace
10
45.825
20
-29.029287
30
0
11
45.825
21
-27.970953
31
0
12
49
22
-28.50012
32
0
13
49
23
-28.50012
33
0
39
0
210
0
220
0
230
1
0
MTEXT
5
119
100
AcDbEntity
8
0
62
256
6
ByLayer
370
18
48
1
60
0
100
AcDbMText
10
24.5
20
-21.193619
30
0
210
0
220
0
230
1
1
\A1;49
40
3.50012
41
0
44
1
50
0
71
5
72
5
7
iso_b_vert
0
POINT
5
11A
100
AcDbEntity
8
Defpoints
62
0
6
ByLayer
370
-1
48
1
60
0
100
AcDbPoint
10
0
20
-5
30
0
39
0
210
0
220
0
230
1
50
360
0
POINT
5
11B
100
AcDbEntity
8
Defpoints
62
0
6
ByLayer
370
-1
48
1
60
0
100
AcDbPoint
10
49
20
0
30
0
39
0
210
0
220
0
230
1
50
360
0
POINT
5
11C
100
AcDbEntity
8
Defpoints
62
0
6
ByLayer
370
-1
48
1
60
0
100
AcDbPoint
10
49
20
-28.50012
30
0
39
0
210
0
220
0
230
1
50
360
0
ENDBLK
5
113
100
AcDbEntity
8
0
100
AcDbBlockEnd
0
BLOCK
5
12A
100
AcDbEntity
8
0
100
AcDbBlockBegin
2
_U0
70
0
10
0
20
0
30
0
3
_U0
0
MTEXT
5
11E
100
AcDbEntity
8
SK2
62
256
6
ByLayer
370
18
48
1
60
0
100
AcDbMText
10
19.086116
20
-27.467451
30
0
210
0
220
0
230
1
1
\W0.7694;49.00
40
3.50012
41
0
44
1.084337
50
0
71
7
72
5
7
iso_b_vert
0
MTEXT
5
11F
100
AcDbEntity
8
SK2
62
256
6
ByLayer
370
18
48
1
60
0
100
AcDbMText
10
15.560056
20
-27.400814
30
0
210
0
220
0
230
1
1
\W0.1790;(
40
3.175
41
0
44
1.084337
50
0
71
7
72
5
7
iso_b_vert
0
MTEXT
5
120
100
AcDbEntity
8
SK2
62
256
6
ByLayer
370
18
48
1
60
0
100
AcDbMText
10
33.442666
20
-27.400814
30
0
210
0
220
0
230
1
1
\W0.1969;)
40
3.175
41
0
44
1.084337
50
0
71
7
72
5
7
iso_b_vert
0
LINE
5
121
100
AcDbEntity
8
SK2
62
256
6
ByLayer
370
13
48
1
60
0
100
AcDbLine
10
0
20
-6.5875
30
0
11
0
21
-31.67512
31
0
39
0
210
0
220
0
230
1
0
LINE
5
122
100
AcDbEntity
8
SK2
62
256
6
ByLayer
370
13
48
1
60
0
100
AcDbLine
10
49
20
-1.5875
30
0
11
49
21
-31.67512
31
0
39
0
210
0
220
0
230
1
0
LINE
5
123
100
AcDbEntity
8
SK2
62
256
6
ByLayer
370
13
48
1
60
0
100
AcDbLine
10
0
20
-28.50012
30
0
11
49
21
-28.50012
31
0
39
0
210
0
220
0
230
1
0
LINE
5
124
100
AcDbEntity
8
SK2
62
256
6
ByLayer
370
13
48
1
60
0
100
AcDbLine
10
0
20
-28.50012
30
0
11
3.174998
21
-28.082123
31
0
39
0
210
0
220
0
230
1
0
LINE
5
125
100
AcDbEntity
8
SK2
62
256
6
ByLayer
370
13
48
1
60
0
100
AcDbLine
10
0
20
-28.50012
30
0
11
3.175002
21
-28.918117
31
0
39
0
210
0
220
0
230
1
0
LINE
5
126
100
AcDbEntity
8
SK2
62
256
6
ByLayer
370
13
48
1
60
0
100
AcDbLine
10
3.174998
20
-28.082123
30
0
11
3.175002
21
-28.918117
31
0
39
0
210
0
220
0
230
1
0
LINE
5
127
100
AcDbEntity
8
SK2
62
256
6
ByLayer
370
13
48
1
60
0
100
AcDbLine
10
49
20
-28.50012
30
0
11
45.825002
21
-28.918117
31
0
39
0
210
0
220
0
230
1
0
LINE
5
128
100
AcDbEntity
8
SK2
62
256
6
ByLayer
370
13
48
1
60
0
100
AcDbLine
10
49
20
-28.50012
30
0
11
45.824998
21
-28.082123
31
0
39
0
210
0
220
0
230
1
0
LINE
5
129
100
AcDbEntity
8
SK2
62
256
6
ByLayer
370
13
48
1
60
0
100
AcDbLine
10
45.825002
20
-28.918117
30
0
11
45.824998
21
-28.082123
31
0
39
0
210
0
220
0
230
1
0
ENDBLK
5
12B
100
AcDbEntity
8
0
100
AcDbBlockEnd
0
BLOCK
5
130
100
AcDbEntity
8
0
100
AcDbBlockBegin
2
*D4
70
1
10
0
20
0
30
0
3
*D4
0
LINE
5
132
100
AcDbEntity
8
0
62
256
6
ByLayer
370
-2
48
1
60
0
100
AcDbLine
10
48.804
20
-4.9
30
0
11
58.92506
21
-4.9
31
0
39
0
210
0
220
0
230
1
0
LINE
5
133
100
AcDbEntity
8
0
62
256
6
ByLayer
370
-2
48
1
60
0
100
AcDbLine
10
48.804
20
4.9
30
0
11
58.92506
21
4.9
31
0
39
0
210
0
220
0
230
1
0
LINE
5
134
100
AcDbEntity
8
0
62
256
6
ByLayer
370
-2
48
1
60
0
100
AcDbLine
10
55.75006
20
4.9
30
0
11
55.75006
21
29.696466
31
0
39
0
210
0
220
0
230
1
0
LINE
5
135
100
AcDbEntity
8
0
62
256
6
ByLayer
370
-2
48
1
60
0
100
AcDbLine
10
55.75006
20
-8.075
30
0
11
55.75006
21
-11.25
31
0
39
0
210
0
220
0
230
1
0
LINE
5
136
100
AcDbEntity
8
0
62
256
6
ByLayer
370
-2
48
1
60
0
100
AcDbLine
10
55.75006
20
8.075
30
0
11
55.75006
21
11.25
31
0
39
0
210
0
220
0
230
1
0
SOLID
5
137
100
AcDbEntity
8
0
62
256
6
ByLayer
370
-1
48
1
60
0
100
AcDbTrace
10
56.279227
20
-8.075
30
0
11
55.220893
21
-8.075
31
0
12
55.75006
22
-4.9
32
0
13
55.75006
23
-4.9
33
0
39
0
210
0
220
0
230
1
0
SOLID
5
138
100
AcDbEntity
8
0
62
256
6
ByLayer
370
-1
48
1
60
0
100
AcDbTrace
10
55.220893
20
8.075
30
0
11
56.279227
21
8.075
31
0
12
55.75006
22
4.9
32
0
13
55.75006
23
4.9
33
0
39
0
210
0
220
0
230
1
0
MTEXT
5
139
100
AcDbEntity
8
0
62
256
6
ByLayer
370
18
48
1
60
0
100
AcDbMText
10
48.443559
20
20.473233
30
0
210
0
220
0
230
1
1
\A1;9.8
40
3.50012
41
0
44
1
50
90
71
5
72
5
7
iso_b_vert
0
POINT
5
13A
100
AcDbEntity
8
Defpoints
62
0
6
ByLayer
370
-1
48
1
60
0
100
AcDbPoint
10
47.2165
20
-4.9
30
0
39
0
210
0
220
0
230
1
50
360
0
POINT
5
13B
100
AcDbEntity
8
Defpoints
62
0
6
ByLayer
370
-1
48
1
60
0
100
AcDbPoint
10
47.2165
20
4.9
30
0
39
0
210
0
220
0
230
1
50
360
0
POINT
5
13C
100
AcDbEntity
8
Defpoints
62
0
6
ByLayer
370
-1
48
1
60
0
100
AcDbPoint
10
55.75006
20
4.9
30
0
39
0
210
0
220
0
230
1
50
360
0
ENDBLK
5
131
100
AcDbEntity
8
0
100
AcDbBlockEnd
0
BLOCK
5
149
100
AcDbEntity
8
0
100
AcDbBlockBegin
2
_U1
70
0
10
0
20
0
30
0
3
_U1
0
MTEXT
5
13F
100
AcDbEntity
8
2
62
256
6
ByLayer
370
18
48
1
60
0
100
AcDbMText
10
55.060403
20
9.057505
30
0
210
0
220
0
230
1
1
\W0.7346;9.80
40
3.50012
41
0
44
1.084337
50
90
71
7
72
5
7
iso_b_vert
0
LINE
5
140
100
AcDbEntity
8
2
62
256
6
ByLayer
370
13
48
1
60
0
100
AcDbLine
10
48.804
20
-4.9
30
0
11
58.92506
21
-4.9
31
0
39
0
210
0
220
0
230
1
0
LINE
5
141
100
AcDbEntity
8
2
62
256
6
ByLayer
370
13
48
1
60
0
100
AcDbLine
10
48.804
20
4.9
30
0
11
58.92506
21
4.9
31
0
39
0
210
0
220
0
230
1
0
LINE
5
142
100
AcDbEntity
8
2
62
256
6
ByLayer
370
13
48
1
60
0
100
AcDbLine
10
55.75006
20
-4.9
30
0
11
55.75006
21
17.11468
31
0
39
0
210
0
220
0
230
1
0
LINE
5
143
100
AcDbEntity
8
2
62
256
6
ByLayer
370
13
48
1
60
0
100
AcDbLine
10
55.75006
20
-4.9
30
0
11
55.332063
21
-1.725002
31
0
39
0
210
0
220
0
230
1
0
LINE
5
144
100
AcDbEntity
8
2
62
256
6
ByLayer
370
13
48
1
60
0
100
AcDbLine
10
55.75006
20
-4.9
30
0
11
56.168057
21
-1.724998
31
0
39
0
210
0
220
0
230
1
0
LINE
5
145
100
AcDbEntity
8
2
62
256
6
ByLayer
370
13
48
1
60
0
100
AcDbLine
10
55.332063
20
-1.725002
30
0
11
56.168057
21
-1.724998
31
0
39
0
210
0
220
0
230
1
0
LINE
5
146
100
AcDbEntity
8
2
62
256
6
ByLayer
370
13
48
1
60
0
100
AcDbLine
10
55.75006
20
4.9
30
0
11
56.168057
21
1.725002
31
0
39
0
210
0
220
0
230
1
0
LINE
5
147
100
AcDbEntity
8
2
62
256
6
ByLayer
370
13
48
1
60
0
100
AcDbLine
10
55.75006
20
4.9
30
0
11
55.332063
21
1.724998
31
0
39
0
210
0
220
0
230
1
0
LINE
5
148
100
AcDbEntity
8
2
62
256
6
ByLayer
370
13
48
1
60
0
100
AcDbLine
10
56.168057
20
1.725002
30
0
11
55.332063
21
1.724998
31
0
39
0
210
0
220
0
230
1
0
ENDBLK
5
14A
100
AcDbEntity
8
0
100
AcDbBlockEnd
0
BLOCK
5
14F
100
AcDbEntity
8
0
100
AcDbBlockBegin
2
*D6
70
1
10
0
20
0
30
0
3
*D6
0
LINE
5
151
100
AcDbEntity
8
0
62
256
6
ByLayer
370
-2
48
1
60
0
100
AcDbLine
10
-41.5875
20
5
30
0
11
-46.42494
21
5
31
0
39
0
210
0
220
0
230
1
0
LINE
5
152
100
AcDbEntity
8
0
62
256
6
ByLayer
370
-2
48
1
60
0
100
AcDbLine
10
-41.5875
20
-5
30
0
11
-46.42494
21
-5
31
0
39
0
210
0
220
0
230
1
0
LINE
5
153
100
AcDbEntity
8
0
62
256
6
ByLayer
370
-2
48
1
60
0
100
AcDbLine
10
-43.24994
20
5
30
0
11
-43.24994
21
28.117532
31
0
39
0
210
0
220
0
230
1
0
LINE
5
154
100
AcDbEntity
8
0
62
256
6
ByLayer
370
-2
48
1
60
0
100
AcDbLine
10
-43.24994
20
8.175
30
0
11
-43.24994
21
11.35
31
0
39
0
210
0
220
0
230
1
0
LINE
5
155
100
AcDbEntity
8
0
62
256
6
ByLayer
370
-2
48
1
60
0
100
AcDbLine
10
-43.24994
20
-8.175
30
0
11
-43.24994
21
-11.35
31
0
39
0
210
0
220
0
230
1
0
SOLID
5
156
100
AcDbEntity
8
0
62
256
6
ByLayer
370
-1
48
1
60
0
100
AcDbTrace
10
-43.779107
20
8.175
30
0
11
-42.720773
21
8.175
31
0
12
-43.24994
22
5
32
0
13
-43.24994
23
5
33
0
39
0
210
0
220
0
230
1
0
SOLID
5
157
100
AcDbEntity
8
0
62
256
6
ByLayer
370
-1
48
1
60
0
100
AcDbTrace
10
-42.720773
20
-8.175
30
0
11
-43.779107
21
-8.175
31
0
12
-43.24994
22
-5
32
0
13
-43.24994
23
-5
33
0
39
0
210
0
220
0
230
1
0
MTEXT
5
158
100
AcDbEntity
8
0
62
256
6
ByLayer
370
18
48
1
60
0
100
AcDbMText
10
-50.556441
20
19.97767
30
0
210
0
220
0
230
1
1
\A1;10
40
3.50012
41
0
44
1
50
90
71
5
72
5
7
iso_b_vert
0
POINT
5
159
100
AcDbEntity
8
Defpoints
62
0
6
ByLayer
370
-1
48
1
60
0
100
AcDbPoint
10
-40
20
5
30
0
39
0
210
0
220
0
230
1
50
360
0
POINT
5
15A
100
AcDbEntity
8
Defpoints
62
0
6
ByLayer
370
-1
48
1
60
0
100
AcDbPoint
10
-40
20
-5
30
0
39
0
210
0
220
0
230
1
50
360
0
POINT
5
15B
100
AcDbEntity
8
Defpoints
62
0
6
ByLayer
370
-1
48
1
60
0
100
AcDbPoint
10
-43.24994
20
-5
30
0
39
0
210
0
220
0
230
1
50
360
0
ENDBLK
5
150
100
AcDbEntity
8
0
100
AcDbBlockEnd
0
BLOCK
5
167
100
AcDbEntity
8
0
100
AcDbBlockBegin
2
_U2
70
0
10
0
20
0
30
0
3
_U2
0
MTEXT
5
15D
100
AcDbEntity
8
SK2
62
256
6
ByLayer
370
18
48
1
60
0
100
AcDbMText
10
-43.939597
20
15.157505
30
0
210
0
220
0
230
1
1
\W0.6864;10.00
40
3.50012
41
0
44
1.084337
50
90
71
7
72
5
7
iso_b_vert
0
LINE
5
15E
100
AcDbEntity
8
SK2
62
256
6
ByLayer
370
13
48
1
60
0
100
AcDbLine
10
-41.5875
20
5
30
0
11
-46.42494
21
5
31
0
39
0
210
0
220
0
230
1
0
LINE
5
15F
100
AcDbEntity
8
SK2
62
256
6
ByLayer
370
13
48
1
60
0
100
AcDbLine
10
-41.5875
20
-5
30
0
11
-46.42494
21
-5
31
0
39
0
210
0
220
0
230
1
0
LINE
5
160
100
AcDbEntity
8
SK2
62
256
6
ByLayer
370
13
48
1
60
0
100
AcDbLine
10
-43.24994
20
-5
30
0
11
-43.24994
21
24.955339
31
0
39
0
210
0
220
0
230
1
0
LINE
5
161
100
AcDbEntity
8
SK2
62
256
6
ByLayer
370
13
48
1
60
0
100
AcDbLine
10
-43.24994
20
5
30
0
11
-42.831943
21
1.825002
31
0
39
0
210
0
220
0
230
1
0
LINE
5
162
100
AcDbEntity
8
SK2
62
256
6
ByLayer
370
13
48
1
60
0
100
AcDbLine
10
-43.24994
20
5
30
0
11
-43.667937
21
1.824998
31
0
39
0
210
0
220
0
230
1
0
LINE
5
163
100
AcDbEntity
8
SK2
62
256
6
ByLayer
370
13
48
1
60
0
100
AcDbLine
10
-42.831943
20
1.825002
30
0
11
-43.667937
21
1.824998
31
0
39
0
210
0
220
0
230
1
0
LINE
5
164
100
AcDbEntity
8
SK2
62
256
6
ByLayer
370
13
48
1
60
0
100
AcDbLine
10
-43.24994
20
-5
30
0
11
-43.667937
21
-1.825002
31
0
39
0
210
0
220
0
230
1
0
LINE
5
165
100
AcDbEntity
8
SK2
62
256
6
ByLayer
370
13
48
1
60
0
100
AcDbLine
10
-43.24994
20
-5
30
0
11
-42.831943
21
-1.824998
31
0
39
0
210
0
220
0
230
1
0
LINE
5
166
100
AcDbEntity
8
SK2
62
256
6
ByLayer
370
13
48
1
60
0
100
AcDbLine
10
-43.667937
20
-1.825002
30
0
11
-42.831943
21
-1.824998
31
0
39
0
210
0
220
0
230
1
0
ENDBLK
5
168
100
AcDbEntity
8
0
100
AcDbBlockEnd
0
BLOCK
5
16D
100
AcDbEntity
8
0
100
AcDbBlockBegin
2
*D8
70
1
10
0
20
0
30
0
3
*D8
0
LINE
5
16F
100
AcDbEntity
8
0
62
256
6
ByLayer
370
-2
48
1
60
0
100
AcDbLine
10
-40
20
-6.5875
30
0
11
-40
21
-31.67512
31
0
39
0
210
0
220
0
230
1
0
LINE
5
170
100
AcDbEntity
8
0
62
256
6
ByLayer
370
-2
48
1
60
0
100
AcDbLine
10
0
20
-6.5875
30
0
11
0
21
-31.67512
31
0
39
0
210
0
220
0
230
1
0
LINE
5
171
100
AcDbEntity
8
0
62
256
6
ByLayer
370
-2
48
1
60
0
100
AcDbLine
10
-36.825
20
-28.50012
30
0
11
-3.175
21
-28.50012
31
0
39
0
210
0
220
0
230
1
0
SOLID
5
172
100
AcDbEntity
8
0
62
256
6
ByLayer
370
-1
48
1
60
0
100
AcDbTrace
10
-36.825
20
-27.970953
30
0
11
-36.825
21
-29.029287
31
0
12
-40
22
-28.50012
32
0
13
-40
23
-28.50012
33
0
39
0
210
0
220
0
230
1
0
SOLID
5
173
100
AcDbEntity
8
0
62
256
6
ByLayer
370
-1
48
1
60
0
100
AcDbTrace
10
-3.175
20
-29.029287
30
0
11
-3.175
21
-27.970953
31
0
12
0
22
-28.50012
32
0
13
0
23
-28.50012
33
0
39
0
210
0
220
0
230
1
0
MTEXT
5
174
100
AcDbEntity
8
0
62
256
6
ByLayer
370
18
48
1
60
0
100
AcDbMText
10
-20
20
-21.193619
30
0
210
0
220
0
230
1
1
\A1;40
40
3.50012
41
0
44
1
50
0
71
5
72
5
7
iso_b_vert
0
POINT
5
175
100
AcDbEntity
8
Defpoints
62
0
6
ByLayer
370
-1
48
1
60
0
100
AcDbPoint
10
-40
20
-5
30
0
39
0
210
0
220
0
230
1
50
360
0
POINT
5
176
100
AcDbEntity
8
Defpoints
62
0
6
ByLayer
370
-1
48
1
60
0
100
AcDbPoint
10
0
20
-5
30
0
39
0
210
0
220
0
230
1
50
360
0
POINT
5
177
100
AcDbEntity
8
Defpoints
62
0
6
ByLayer
370
-1
48
1
60
0
100
AcDbPoint
10
0
20
-28.50012
30
0
39
0
210
0
220
0
230
1
50
360
0
ENDBLK
5
16E
100
AcDbEntity
8
0
100
AcDbBlockEnd
0
BLOCK
5
183
100
AcDbEntity
8
0
100
AcDbBlockBegin
2
_U3
70
0
10
0
20
0
30
0
3
_U3
0
MTEXT
5
179
100
AcDbEntity
8
SK2
62
256
6
ByLayer
370
18
48
1
60
0
100
AcDbMText
10
-25.413884
20
-27.467451
30
0
210
0
220
0
230
1
1
\W0.7694;40.00
40
3.50012
41
0
44
1.084337
50
0
71
7
72
5
7
iso_b_vert
0
LINE
5
17A
100
AcDbEntity
8
SK2
62
256
6
ByLayer
370
13
48
1
60
0
100
AcDbLine
10
-40
20
-6.5875
30
0
11
-40
21
-31.67512
31
0
39
0
210
0
220
0
230
1
0
LINE
5
17B
100
AcDbEntity
8
SK2
62
256
6
ByLayer
370
13
48
1
60
0
100
AcDbLine
10
0
20
-6.5875
30
0
11
0
21
-31.67512
31
0
39
0
210
0
220
0
230
1
0
LINE
5
17C
100
AcDbEntity
8
SK2
62
256
6
ByLayer
370
13
48
1
60
0
100
AcDbLine
10
-40
20
-28.50012
30
0
11
0
21
-28.50012
31
0
39
0
210
0
220
0
230
1
0
LINE
5
17D
100
AcDbEntity
8
SK2
62
256
6
ByLayer
370
13
48
1
60
0
100
AcDbLine
10
-40
20
-28.50012
30
0
11
-36.825002
21
-28.082123
31
0
39
0
210
0
220
0
230
1
0
LINE
5
17E
100
AcDbEntity
8
SK2
62
256
6
ByLayer
370
13
48
1
60
0
100
AcDbLine
10
-40
20
-28.50012
30
0
11
-36.824998
21
-28.918117
31
0
39
0
210
0
220
0
230
1
0
LINE
5
17F
100
AcDbEntity
8
SK2
62
256
6
ByLayer
370
13
48
1
60
0
100
AcDbLine
10
-36.825002
20
-28.082123
30
0
11
-36.824998
21
-28.918117
31
0
39
0
210
0
220
0
230
1
0
LINE
5
180
100
AcDbEntity
8
SK2
62
256
6
ByLayer
370
13
48
1
60
0
100
AcDbLine
10
0
20
-28.50012
30
0
11
-3.174998
21
-28.918117
31
0
39
0
210
0
220
0
230
1
0
LINE
5
181
100
AcDbEntity
8
SK2
62
256
6
ByLayer
370
13
48
1
60
0
100
AcDbLine
10
0
20
-28.50012
30
0
11
-3.175002
21
-28.082123
31
0
39
0
210
0
220
0
230
1
0
LINE
5
182
100
AcDbEntity
8
SK2
62
256
6
ByLayer
370
13
48
1
60
0
100
AcDbLine
10
-3.174998
20
-28.918117
30
0
11
-3.175002
21
-28.082123
31
0
39
0
210
0
220
0
230
1
0
ENDBLK
5
184
100
AcDbEntity
8
0
100
AcDbBlockEnd
0
BLOCK
5
189
100
AcDbEntity
8
0
100
AcDbBlockBegin
2
*D10
70
1
10
0
20
0
30
0
3
*D10
0
LINE
5
18B
100
AcDbEntity
8
0
62
256
6
ByLayer
370
-2
48
1
60
0
100
AcDbLine
10
2
20
3.8125
30
0
11
2
21
-22.92482
31
0
39
0
210
0
220
0
230
1
0
LINE
5
18C
100
AcDbEntity
8
0
62
256
6
ByLayer
370
-2
48
1
60
0
100
AcDbLine
10
49
20
-1.5875
30
0
11
49
21
-22.92482
31
0
39
0
210
0
220
0
230
1
0
LINE
5
18D
100
AcDbEntity
8
0
62
256
6
ByLayer
370
-2
48
1
60
0
100
AcDbLine
10
5.175
20
-19.74982
30
0
11
45.825
21
-19.74982
31
0
39
0
210
0
220
0
230
1
0
SOLID
5
18E
100
AcDbEntity
8
0
62
256
6
ByLayer
370
-1
48
1
60
0
100
AcDbTrace
10
5.175
20
-19.220653
30
0
11
5.175
21
-20.278987
31
0
12
2
22
-19.74982
32
0
13
2
23
-19.74982
33
0
39
0
210
0
220
0
230
1
0
SOLID
5
18F
100
AcDbEntity
8
0
62
256
6
ByLayer
370
-1
48
1
60
0
100
AcDbTrace
10
45.825
20
-20.278987
30
0
11
45.825
21
-19.220653
31
0
12
49
22
-19.74982
32
0
13
49
23
-19.74982
33
0
39
0
210
0
220
0
230
1
0
MTEXT
5
190
100
AcDbEntity
8
0
62
256
6
ByLayer
370
18
48
1
60
0
100
AcDbMText
10
25.5
20
-12.443319
30
0
210
0
220
0
230
1
1
\A1;47
40
3.50012
41
0
44
1
50
0
71
5
72
5
7
iso_b_vert
0
POINT
5
191
100
AcDbEntity
8
Defpoints
62
0
6
ByLayer
370
-1
48
1
60
0
100
AcDbPoint
10
2
20
5.4
30
0
39
0
210
0
220
0
230
1
50
360
0
POINT
5
192
100
AcDbEntity
8
Defpoints
62
0
6
ByLayer
370
-1
48
1
60
0
100
AcDbPoint
10
49
20
0
30
0
39
0
210
0
220
0
230
1
50
360
0
POINT
5
193
100
AcDbEntity
8
Defpoints
62
0
6
ByLayer
370
-1
48
1
60
0
100
AcDbPoint
10
49
20
-19.74982
30
0
39
0
210
0
220
0
230
1
50
360
0
ENDBLK
5
18A
100
AcDbEntity
8
0
100
AcDbBlockEnd
0
BLOCK
5
19F
100
AcDbEntity
8
0
100
AcDbBlockBegin
2
_U4
70
0
10
0
20
0
30
0
3
_U4
0
MTEXT
5
195
100
AcDbEntity
8
SK2
62
256
6
ByLayer
370
18
48
1
60
0
100
AcDbMText
10
20.086116
20
-18.717151
30
0
210
0
220
0
230
1
1
\W0.7694;47.00
40
3.50012
41
0
44
1.084337
50
0
71
7
72
5
7
iso_b_vert
0
LINE
5
196
100
AcDbEntity
8
SK2
62
256
6
ByLayer
370
13
48
1
60
0
100
AcDbLine
10
2
20
3.8125
30
0
11
2
21
-22.92482
31
0
39
0
210
0
220
0
230
1
0
LINE
5
197
100
AcDbEntity
8
SK2
62
256
6
ByLayer
370
13
48
1
60
0
100
AcDbLine
10
49
20
-1.5875
30
0
11
49
21
-22.92482
31
0
39
0
210
0
220
0
230
1
0
LINE
5
198
100
AcDbEntity
8
SK2
62
256
6
ByLayer
370
13
48
1
60
0
100
AcDbLine
10
2
20
-19.74982
30
0
11
49
21
-19.74982
31
0
39
0
210
0
220
0
230
1
0
LINE
5
199
100
AcDbEntity
8
SK2
62
256
6
ByLayer
370
13
48
1
60
0
100
AcDbLine
10
2
20
-19.74982
30
0
11
5.174998
21
-19.331823
31
0
39
0
210
0
220
0
230
1
0
LINE
5
19A
100
AcDbEntity
8
SK2
62
256
6
ByLayer
370
13
48
1
60
0
100
AcDbLine
10
2
20
-19.74982
30
0
11
5.175002
21
-20.167817
31
0
39
0
210
0
220
0
230
1
0
LINE
5
19B
100
AcDbEntity
8
SK2
62
256
6
ByLayer
370
13
48
1
60
0
100
AcDbLine
10
5.174998
20
-19.331823
30
0
11
5.175002
21
-20.167817
31
0
39
0
210
0
220
0
230
1
0
LINE
5
19C
100
AcDbEntity
8
SK2
62
256
6
ByLayer
370
13
48
1
60
0
100
AcDbLine
10
49
20
-19.74982
30
0
11
45.825002
21
-20.167817
31
0
39
0
210
0
220
0
230
1
0
LINE
5
19D
100
AcDbEntity
8
SK2
62
256
6
ByLayer
370
13
48
1
60
0
100
AcDbLine
10
49
20
-19.74982
30
0
11
45.824998
21
-19.331823
31
0
39
0
210
0
220
0
230
1
0
LINE
5
19E
100
AcDbEntity
8
SK2
62
256
6
ByLayer
370
13
48
1
60
0
100
AcDbLine
10
45.825002
20
-20.167817
30
0
11
45.824998
21
-19.331823
31
0
39
0
210
0
220
0
230
1
0
ENDBLK
5
1A0
100
AcDbEntity
8
0
100
AcDbBlockEnd
0
BLOCK
5
1A5
100
AcDbEntity
8
0
100
AcDbBlockBegin
2
*D12
70
1
10
0
20
0
30
0
3
*D12
0
LINE
5
1A7
100
AcDbEntity
8
0
62
256
6
ByLayer
370
-2
48
1
60
0
100
AcDbLine
10
17.9
20
-6.4875
30
0
11
17.9
21
-12.32
31
0
39
0
210
0
220
0
230
1
0
LINE
5
1A8
100
AcDbEntity
8
0
62
256
6
ByLayer
370
-2
48
1
60
0
100
AcDbLine
10
49
20
-1.5875
30
0
11
49
21
-12.32
31
0
39
0
210
0
220
0
230
1
0
LINE
5
1A9
100
AcDbEntity
8
0
62
256
6
ByLayer
370
-2
48
1
60
0
100
AcDbLine
10
21.075
20
-11.82
30
0
11
45.825
21
-11.82
31
0
39
0
210
0
220
0
230
1
0
SOLID
5
1AA
100
AcDbEntity
8
0
62
256
6
ByLayer
370
-1
48
1
60
0
100
AcDbTrace
10
21.075
20
-11.290833
30
0
11
21.075
21
-12.349167
31
0
12
17.9
22
-11.82
32
0
13
17.9
23
-11.82
33
0
39
0
210
0
220
0
230
1
0
SOLID
5
1AB
100
AcDbEntity
8
0
62
256
6
ByLayer
370
-1
48
1
60
0
100
AcDbTrace
10
45.825
20
-12.349167
30
0
11
45.825
21
-11.290833
31
0
12
49
22
-11.82
32
0
13
49
23
-11.82
33
0
39
0
210
0
220
0
230
1
0
MTEXT
5
1AC
100
AcDbEntity
8
0
62
256
6
ByLayer
370
18
48
1
60
0
100
AcDbMText
10
33.45
20
-5.975
30
0
210
0
220
0
230
1
1
\A1;31.1
40
2.8
41
0
44
1
50
0
71
5
72
5
7
iso_b_vert
0
POINT
5
1AD
100
AcDbEntity
8
Defpoints
62
0
6
ByLayer
370
-1
48
1
60
0
100
AcDbPoint
10
17.9
20
-4.9
30
0
39
0
210
0
220
0
230
1
50
360
0
POINT
5
1AE
100
AcDbEntity
8
Defpoints
62
0
6
ByLayer
370
-1
48
1
60
0
100
AcDbPoint
10
49
20
0
30
0
39
0
210
0
220
0
230
1
50
360
0
POINT
5
1AF
100
AcDbEntity
8
Defpoints
62
0
6
ByLayer
370
-1
48
1
60
0
100
AcDbPoint
10
49
20
-11.82
30
0
39
0
210
0
220
0
230
1
50
360
0
ENDBLK
5
1A6
100
AcDbEntity
8
0
100
AcDbBlockEnd
0
BLOCK
5
1BB
100
AcDbEntity
8
0
100
AcDbBlockBegin
2
_U5
70
0
10
0
20
0
30
0
3
_U5
0
MTEXT
5
1B1
100
AcDbEntity
8
SK2
62
256
6
ByLayer
370
18
48
1
60
0
100
AcDbMText
10
29.966348
20
-11.973893
30
0
210
0
220
0
230
1
1
\W0.6261;31.10
40
2.8
41
0
44
1.084337
50
0
71
7
72
5
7
iso_b_vert
0
LINE
5
1B2
100
AcDbEntity
8
SK2
62
256
6
ByLayer
370
13
48
1
60
0
100
AcDbLine
10
17.9
20
-6.4875
30
0
11
17.9
21
-12.32
31
0
39
0
210
0
220
0
230
1
0
LINE
5
1B3
100
AcDbEntity
8
SK2
62
256
6
ByLayer
370
13
48
1
60
0
100
AcDbLine
10
49
20
-1.5875
30
0
11
49
21
-12.32
31
0
39
0
210
0
220
0
230
1
0
LINE
5
1B4
100
AcDbEntity
8
SK2
62
256
6
ByLayer
370
13
48
1
60
0
100
AcDbLine
10
17.9
20
-11.82
30
0
11
49
21
-11.82
31
0
39
0
210
0
220
0
230
1
0
LINE
5
1B5
100
AcDbEntity
8
SK2
62
256
6
ByLayer
370
13
48
1
60
0
100
AcDbLine
10
17.9
20
-11.82
30
0
11
21.074998
21
-11.402003
31
0
39
0
210
0
220
0
230
1
0
LINE
5
1B6
100
AcDbEntity
8
SK2
62
256
6
ByLayer
370
13
48
1
60
0
100
AcDbLine
10
17.9
20
-11.82
30
0
11
21.075002
21
-12.237997
31
0
39
0
210
0
220
0
230
1
0
LINE
5
1B7
100
AcDbEntity
8
SK2
62
256
6
ByLayer
370
13
48
1
60
0
100
AcDbLine
10
21.074998
20
-11.402003
30
0
11
21.075002
21
-12.237997
31
0
39
0
210
0
220
0
230
1
0
LINE
5
1B8
100
AcDbEntity
8
SK2
62
256
6
ByLayer
370
13
48
1
60
0
100
AcDbLine
10
49
20
-11.82
30
0
11
45.825002
21
-12.237997
31
0
39
0
210
0
220
0
230
1
0
LINE
5
1B9
100
AcDbEntity
8
SK2
62
256
6
ByLayer
370
13
48
1
60
0
100
AcDbLine
10
49
20
-11.82
30
0
11
45.824998
21
-11.402003
31
0
39
0
210
0
220
0
230
1
0
LINE
5
1BA
100
AcDbEntity
8
SK2
62
256
6
ByLayer
370
13
48
1
60
0
100
AcDbLine
10
45.825002
20
-12.237997
30
0
11
45.824998
21
-11.402003
31
0
39
0
210
0
220
0
230
1
0
ENDBLK
5
1BC
100
AcDbEntity
8
0
100
AcDbBlockEnd
0
BLOCK
5
1C1
100
AcDbEntity
8
0
100
AcDbBlockBegin
2
*D14
70
1
10
0
20
0
30
0
3
*D14
0
LINE
5
1C3
100
AcDbEntity
8
0
62
256
6
ByLayer
370
-2
48
1
60
0
100
AcDbLine
10
-40
20
-1.5875
30
0
11
-40
21
-41.67512
31
0
39
0
210
0
220
0
230
1
0
LINE
5
1C4
100
AcDbEntity
8
0
62
256
6
ByLayer
370
-2
48
1
60
0
100
AcDbLine
10
49
20
-1.5875
30
0
11
49
21
-41.67512
31
0
39
0
210
0
220
0
230
1
0
LINE
5
1C5
100
AcDbEntity
8
0
62
256
6
ByLayer
370
-2
48
1
60
0
100
AcDbLine
10
-36.825
20
-38.50012
30
0
11
45.825
21
-38.50012
31
0
39
0
210
0
220
0
230
1
0
SOLID
5
1C6
100
AcDbEntity
8
0
62
256
6
ByLayer
370
-1
48
1
60
0
100
AcDbTrace
10
-36.825
20
-37.970953
30
0
11
-36.825
21
-39.029287
31
0
12
-40
22
-38.50012
32
0
13
-40
23
-38.50012
33
0
39
0
210
0
220
0
230
1
0
SOLID
5
1C7
100
AcDbEntity
8
0
62
256
6
ByLayer
370
-1
48
1
60
0
100
AcDbTrace
10
45.825
20
-39.029287
30
0
11
45.825
21
-37.970953
31
0
12
49
22
-38.50012
32
0
13
49
23
-38.50012
33
0
39
0
210
0
220
0
230
1
0
MTEXT
5
1C8
100
AcDbEntity
8
0
62
256
6
ByLayer
370
18
48
1
60
0
100
AcDbMText
10
4.5
20
-31.19362
30
0
210
0
220
0
230
1
1
\A1;89
40
3.50012
41
0
44
1
50
0
71
5
72
5
7
iso_b_vert
0
POINT
5
1C9
100
AcDbEntity
8
Defpoints
62
0
6
ByLayer
370
-1
48
1
60
0
100
AcDbPoint
10
-40
20
0
30
0
39
0
210
0
220
0
230
1
50
360
0
POINT
5
1CA
100
AcDbEntity
8
Defpoints
62
0
6
ByLayer
370
-1
48
1
60
0
100
AcDbPoint
10
49
20
0
30
0
39
0
210
0
220
0
230
1
50
360
0
POINT
5
1CB
100
AcDbEntity
8
Defpoints
62
0
6
ByLayer
370
-1
48
1
60
0
100
AcDbPoint
10
49
20
-38.50012
30
0
39
0
210
0
220
0
230
1
50
360
0
ENDBLK
5
1C2
100
AcDbEntity
8
0
100
AcDbBlockEnd
0
BLOCK
5
1D7
100
AcDbEntity
8
0
100
AcDbBlockBegin
2
_U6
70
0
10
0
20
0
30
0
3
_U6
0
MTEXT
5
1CD
100
AcDbEntity
8
SK2
62
256
6
ByLayer
370
18
48
1
60
0
100
AcDbMText
10
-0.729611
20
-37.467451
30
0
210
0
220
0
230
1
1
\W0.7468;89.00
40
3.50012
41
0
44
1.084337
50
0
71
7
72
5
7
iso_b_vert
0
LINE
5
1CE
100
AcDbEntity
8
SK2
62
256
6
ByLayer
370
13
48
1
60
0
100
AcDbLine
10
-40
20
-1.5875
30
0
11
-40
21
-41.67512
31
0
39
0
210
0
220
0
230
1
0
LINE
5
1CF
100
AcDbEntity
8
SK2
62
256
6
ByLayer
370
13
48
1
60
0
100
AcDbLine
10
49
20
-1.5875
30
0
11
49
21
-41.67512
31
0
39
0
210
0
220
0
230
1
0
LINE
5
1D0
100
AcDbEntity
8
SK2
62
256
6
ByLayer
370
13
48
1
60
0
100
AcDbLine
10
-40
20
-38.50012
30
0
11
49
21
-38.50012
31
0
39
0
210
0
220
0
230
1
0
LINE
5
1D1
100
AcDbEntity
8
SK2
62
256
6
ByLayer
370
13
48
1
60
0
100
AcDbLine
10
-40
20
-38.50012
30
0
11
-36.825002
21
-38.082123
31
0
39
0
210
0
220
0
230
1
0
LINE
5
1D2
100
AcDbEntity
8
SK2
62
256
6
ByLayer
370
13
48
1
60
0
100
AcDbLine
10
-40
20
-38.50012
30
0
11
-36.824998
21
-38.918117
31
0
39
0
210
0
220
0
230
1
0
LINE
5
1D3
100
AcDbEntity
8
SK2
62
256
6
ByLayer
370
13
48
1
60
0
100
AcDbLine
10
-36.825002
20
-38.082123
30
0
11
-36.824998
21
-38.918117
31
0
39
0
210
0
220
0
230
1
0
LINE
5
1D4
100
AcDbEntity
8
SK2
62
256
6
ByLayer
370
13
48
1
60
0
100
AcDbLine
10
49
20
-38.50012
30
0
11
45.825002
21
-38.918117
31
0
39
0
210
0
220
0
230
1
0
LINE
5
1D5
100
AcDbEntity
8
SK2
62
256
6
ByLayer
370
13
48
1
60
0
100
AcDbLine
10
49
20
-38.50012
30
0
11
45.824998
21
-38.082123
31
0
39
0
210
0
220
0
230
1
0
LINE
5
1D6
100
AcDbEntity
8
SK2
62
256
6
ByLayer
370
13
48
1
60
0
100
AcDbLine
10
45.825002
20
-38.918117
30
0
11
45.824998
21
-38.082123
31
0
39
0
210
0
220
0
230
1
0
ENDBLK
5
1D8
100
AcDbEntity
8
0
100
AcDbBlockEnd
0
ENDSEC
0
SECTION
2
ENTITIES
0
ARC
5
B2
100
AcDbEntity
8
1
62
256
6
ByLayer
370
18
48
1
60
0
100
AcDbCircle
39
0
10
0.29451
20
5.070673
30
0
40
0.200000000000001
210
0
220
0
230
1
100
AcDbArc
50
222.584886
51
270.03581
0
ARC
5
B3
100
AcDbEntity
8
1
62
256
6
ByLayer
370
18
48
1
60
0
100
AcDbCircle
39
0
10
0.29451
20
-5.070673
30
0
40
0.200000000000001
210
0
220
0
230
1
100
AcDbArc
50
89.96419
51
137.415114
0
ARC
5
B4
100
AcDbEntity
8
1
62
256
6
ByLayer
370
18
48
1
60
0
100
AcDbCircle
39
0
10
0
20
4.8
30
0
40
0.199999999999996
210
0
220
0
230
1
100
AcDbArc
50
42.584886
51
90
0
ARC
5
B5
100
AcDbEntity
8
1
62
256
6
ByLayer
370
18
48
1
60
0
100
AcDbCircle
39
0
10
0
20
-4.8
30
0
40
0.199999999999996
210
0
220
0
230
1
100
AcDbArc
50
270
51
317.415114
0
ARC
5
B6
100
AcDbEntity
8
SK2
62
256
6
ByLayer
370
13
48
1
60
0
100
AcDbCircle
39
0
10
49
20
0
30
0
40
20
210
0
220
0
230
1
100
AcDbArc
50
9.606349
51
69.999527
0
ARC
5
B7
100
AcDbEntity
8
SK2
62
256
6
ByLayer
370
13
48
1
60
0
100
AcDbCircle
39
0
10
49
20
0
30
0
40
20
210
0
220
0
230
1
100
AcDbArc
50
290.000473
51
350.393651
0
ELLIPSE
5
B8
100
AcDbEntity
8
1
62
256
6
ByLayer
370
18
48
1
60
0
100
AcDbEllipse
10
3.601735
20
4.728044
30
0
11
0.1
21
0
31
0
210
0
220
0
230
1
40
1
41
-3.14139638857968
42
-1.54454532804266
0
POINT
5
70
100
AcDbEntity
8
80
62
256
6
ByLayer
370
18
48
1
60
0
100
AcDbPoint
10
0
20
0
30
0
39
0
210
0
220
0
230
1
50
360
0
POINT
5
72
100
AcDbEntity
8
81
62
256
6
ByLayer
370
18
48
1
60
0
100
AcDbPoint
10
49
20
0
30
0
39
0
210
0
220
0
230
1
50
360
0
POINT
5
74
100
AcDbEntity
8
1
62
256
6
ByLayer
370
18
48
1
60
0
100
AcDbPoint
10
-40
20
0
30
0
39
0
210
0
220
0
230
1
50
360
0
POINT
5
76
100
AcDbEntity
8
1
62
256
6
ByLayer
370
18
48
1
60
1
100
AcDbPoint
10
0
20
-5
30
0
39
0
210
0
220
0
230
1
50
360
0
POINT
5
77
100
AcDbEntity
8
1
62
256
6
ByLayer
370
18
48
1
60
1
100
AcDbPoint
10
49
20
0
30
0
39
0
210
0
220
0
230
1
50
360
0
POINT
5
78
100
AcDbEntity
8
1
62
256
6
ByLayer
370
18
48
1
60
1
100
AcDbPoint
10
47.2165
20
-4.9
30
0
39
0
210
0
220
0
230
1
50
360
0
POINT
5
79
100
AcDbEntity
8
1
62
256
6
ByLayer
370
18
48
1
60
1
100
AcDbPoint
10
47.2165
20
4.9
30
0
39
0
210
0
220
0
230
1
50
360
0
POINT
5
7A
100
AcDbEntity
8
1
62
256
6
ByLayer
370
18
48
1
60
1
100
AcDbPoint
10
-40
20
5
30
0
39
0
210
0
220
0
230
1
50
360
0
POINT
5
7B
100
AcDbEntity
8
1
62
256
6
ByLayer
370
18
48
1
60
1
100
AcDbPoint
10
-40
20
-5
30
0
39
0
210
0
220
0
230
1
50
360
0
POINT
5
7C
100
AcDbEntity
8
1
62
256
6
ByLayer
370
18
48
1
60
1
100
AcDbPoint
10
-40
20
-5
30
0
39
0
210
0
220
0
230
1
50
360
0
POINT
5
7D
100
AcDbEntity
8
1
62
256
6
ByLayer
370
18
48
1
60
1
100
AcDbPoint
10
0
20
-5
30
0
39
0
210
0
220
0
230
1
50
360
0
POINT
5
7E
100
AcDbEntity
8
1
62
256
6
ByLayer
370
18
48
1
60
1
100
AcDbPoint
10
2
20
5.4
30
0
39
0
210
0
220
0
230
1
50
360
0
POINT
5
7F
100
AcDbEntity
8
1
62
256
6
ByLayer
370
18
48
1
60
1
100
AcDbPoint
10
49
20
0
30
0
39
0
210
0
220
0
230
1
50
360
0
POINT
5
80
100
AcDbEntity
8
1
62
256
6
ByLayer
370
18
48
1
60
1
100
AcDbPoint
10
17.9
20
-4.9
30
0
39
0
210
0
220
0
230
1
50
360
0
POINT
5
81
100
AcDbEntity
8
1
62
256
6
ByLayer
370
18
48
1
60
1
100
AcDbPoint
10
49
20
0
30
0
39
0
210
0
220
0
230
1
50
360
0
POINT
5
82
100
AcDbEntity
8
1
62
256
6
ByLayer
370
18
48
1
60
1
100
AcDbPoint
10
-40
20
0
30
0
39
0
210
0
220
0
230
1
50
360
0
POINT
5
83
100
AcDbEntity
8
1
62
256
6
ByLayer
370
18
48
1
60
1
100
AcDbPoint
10
49
20
0
30
0
39
0
210
0
220
0
230
1
50
360
0
SPLINE
5
B9
100
AcDbEntity
8
SK1
62
256
6
ByLayer
370
18
48
1
60
0
100
AcDbSpline
70
4
71
3
72
12
73
8
40
0
40
0
40
0
40
0
40
0.5
40
0.5
40
0.75
40
0.75
40
1
40
1
40
1
40
1
41
1
10
-39.35
20
-0.815037084861075
30
0
41
1
10
-39.3264104701644
20
-0.813972720593313
30
0
41
1
10
-39.3036887129937
20
-0.804865740671858
30
0
41
1
10
-39.2755991955322
20
-0.779332566689163
30
0
41
1
10
-39.2670477710575
20
-0.768541761085288
30
0
41
1
10
-39.2542669630692
20
-0.742327012173604
30
0
41
1
10
-39.25
20
-0.726438372985911
30
0
41
1
10
-39.25
20
-0.709656077207285
30
0
0
SPLINE
5
BA
100
AcDbEntity
8
SK1
62
256
6
ByLayer
370
18
48
1
60
0
100
AcDbSpline
70
4
71
3
72
8
73
4
40
0
40
0
40
0
40
0
40
1
40
1
40
1
40
1
41
1
10
-39.5179491924311
20
-0.822623747139517
30
1E-16
41
1
10
-39.4620006339541
20
-0.820093374236819
30
1E-16
41
1
10
-39.4060161870619
20
-0.817564546338275
30
1E-16
41
1
10
-39.35
20
-0.815037084861046
30
0
0
SPLINE
5
BB
100
AcDbEntity
8
SK1
62
256
6
ByLayer
370
18
48
1
60
0
100
AcDbSpline
70
4
71
3
72
10
73
6
40
0
40
0
40
0
40
0
40
0.5
40
0.5
40
1
40
1
40
1
40
1
41
1
10
-39.5179491924311
20
-0.822623747139517
30
1E-16
41
1
10
-39.5876699751126
20
-0.947739138706737
30
1E-16
41
1
10
-39.6641388303331
20
-1.05660554502717
30
1E-16
41
1
10
-39.8261141227368
20
-1.2519135481902
30
1E-16
41
1
10
-39.9120448679354
20
-1.33838116228557
30
1E-16
41
1
10
-40
20
-1.41445948994996
30
1E-16
0
SPLINE
5
BC
100
AcDbEntity
8
SK1
62
256
6
ByLayer
370
18
48
1
60
0
100
AcDbSpline
70
4
71
3
72
12
73
8
40
0
40
0
40
0
40
0
40
0.250000000000002
40
0.250000000000002
40
0.500000000000004
40
0.500000000000004
40
1
40
1
40
1
40
1
41
1
10
-39.25
20
1.08860947282631
30
-1E-16
41
1
10
-39.25
20
1.10510460624673
30
-1E-16
41
1
10
-39.2542356595512
20
1.12021801273698
30
-1E-16
41
1
10
-39.2670201478927
20
1.14484167009664
30
-1E-16
41
1
10
-39.2754787240944
20
1.1545808946621
30
-1E-16
41
1
10
-39.3037388541837
20
1.17727900471905
30
-1E-16
41
1
10
-39.3264173879165
20
1.18409980064706
30
-1E-16
41
1
10
-39.35
20
1.18303574850964
30
-1E-16
0
SPLINE
5
BD
100
AcDbEntity
8
SK1
62
256
6
ByLayer
370
18
48
1
60
0
100
AcDbSpline
70
4
71
3
72
10
73
6
40
0
40
0
40
0
40
0
40
0.5
40
0.5
40
1
40
1
40
1
40
1
41
1
10
-39.5179491924311
20
0.822623747139545
30
-1E-16
41
1
10
-39.5876699751127
20
0.947739138706766
30
-1E-16
41
1
10
-39.6641388303331
20
1.05660554502717
30
-1E-16
41
1
10
-39.8261141227368
20
1.2519135481902
30
-1E-16
41
1
10
-39.9120448679354
20
1.33838116228557
30
-1E-16
41
1
10
-40
20
1.41445948994996
30
-1E-16
0
SPLINE
5
BE
100
AcDbEntity
8
SK1
62
256
6
ByLayer
370
18
48
1
60
0
100
AcDbSpline
70
4
71
3
72
12
73
8
40
0
40
0
40
0
40
0
40
0.5
40
0.5
40
0.75
40
0.75
40
1
40
1
40
1
40
1
41
1
10
-40.0000000000001
20
1.70503072131385
30
-1E-16
41
1
10
-39.912301819033
20
1.64059263203748
30
-1E-16
41
1
10
-39.8274381477609
20
1.56629719858529
30
-1E-16
41
1
10
-39.7059808874661
20
1.43580316064663
30
-1E-16
41
1
10
-39.6664759928798
20
1.38910277053148
30
-1E-16
41
1
10
-39.589878508053
20
1.28798450844064
30
-1E-16
41
1
10
-39.5527406338607
20
1.23342007883355
30
-1E-16
41
1
10
-39.5179491924311
20
1.17544908623111
30
-1E-16
0
SPLINE
5
BF
100
AcDbEntity
8
SK1
62
256
6
ByLayer
370
18
48
1
60
0
100
AcDbSpline
70
4
71
3
72
12
73
8
40
0
40
0
40
0
40
0
40
0.5
40
0.5
40
0.75
40
0.75
40
1
40
1
40
1
40
1
41
1
10
-39.35
20
0.815037084861103
30
0
41
1
10
-39.3264104701644
20
0.813972720593313
30
0
41
1
10
-39.3036887129937
20
0.804865740671858
30
0
41
1
10
-39.2755991955322
20
0.779332566689192
30
0
41
1
10
-39.2670477710575
20
0.768541761085288
30
0
41
1
10
-39.2542669630692
20
0.742327012173632
30
0
41
1
10
-39.25
20
0.726438372985911
30
0
41
1
10
-39.25
20
0.709656077207285
30
0
0
SPLINE
5
C0
100
AcDbEntity
8
SK1
62
256
6
ByLayer
370
18
48
1
60
0
100
AcDbSpline
70
4
71
3
72
8
73
4
40
0
40
0
40
0
40
0
40
1
40
1
40
1
40
1
41
1
10
-39.35
20
1.18303574850961
30
-1E-16
41
1
10
-39.4060167501942
20
1.18050826162371
30
-1E-16
41
1
10
-39.4620012198747
20
1.17797943263454
30
-1E-16
41
1
10
-39.5179491924311
20
1.17544908623111
30
-1E-16
0
SPLINE
5
C1
100
AcDbEntity
8
SK1
62
256
6
ByLayer
370
18
48
1
60
0
100
AcDbSpline
70
4
71
3
72
8
73
4
40
0
40
0
40
0
40
0
40
1
40
1
40
1
40
1
41
1
10
-39.5179491924311
20
0.822623747139545
30
-1E-16
41
1
10
-39.4620006339542
20
0.820093374236819
30
-1E-16
41
1
10
-39.4060161870619
20
0.817564546338275
30
-1E-16
41
1
10
-39.35
20
0.815037084861046
30
0
0
SPLINE
5
C2
100
AcDbEntity
8
1
62
256
6
ByLayer
370
18
48
1
60
0
100
AcDbSpline
70
4
71
3
72
20
73
16
40
0
40
0
40
0
40
0
40
0.249999999999995
40
0.249999999999995
40
0.499999999999989
40
0.499999999999989
40
0.562499999999989
40
0.562499999999989
40
0.624999999999989
40
0.624999999999989
40
0.749999999999992
40
0.749999999999992
40
0.874999999999996
40
0.874999999999996
40
1
40
1
40
1
40
1
41
1
10
47.2981717715923
20
4.69713534940038
30
0
41
1
10
47.3950807809559
20
4.42384671645496
30
0
41
1
10
47.4912093103051
20
4.14862884603326
30
0
41
1
10
47.6857502165857
20
3.59629997685968
30
0
41
1
10
47.7840947165487
20
3.31955133572095
30
0
41
1
10
47.9094926372557
20
2.97482537604768
30
0
41
1
10
47.9346887573931
20
2.90594150597295
30
0
41
1
10
47.9853363651951
20
2.76830082864819
30
0
41
1
10
48.0106342557527
20
2.69946441667253
30
0
41
1
10
48.0881320253156
20
2.49376999473543
30
0
41
1
10
48.1424920433975
20
2.35811645846641
30
0
41
1
10
48.2558989895672
20
2.09691986838183
30
0
41
1
10
48.3152400225948
20
1.97051904419874
30
0
41
1
10
48.4405113062383
20
1.72650542595198
30
0
41
1
10
48.5067710568746
20
1.60843025615085
30
0
41
1
10
48.5746076254016
20
1.49824090054335
30
0
0
SPLINE
5
C3
100
AcDbEntity
8
1
62
256
6
ByLayer
370
18
48
1
60
0
100
AcDbSpline
70
4
71
3
72
12
73
8
40
0
40
0
40
0
40
0
40
0.46885702638561
40
0.46885702638561
40
0.93771405277122
40
0.93771405277122
40
1
40
1
40
1
40
1
41
1
10
47.51471741962
20
0.969478297757775
30
-1E-16
41
1
10
47.467334533791
20
0.995301681484108
30
-1E-16
41
1
10
47.4218746143457
20
1.01802839013186
30
-1E-16
41
1
10
47.3344284620152
20
1.05788790901462
30
-1E-16
41
1
10
47.2914087924818
20
1.07668492801653
30
-1E-16
41
1
10
47.2456737873585
20
1.09314850192516
30
-1E-16
41
1
10
47.240356474437
20
1.09500097172909
30
-1E-16
41
1
10
47.2350917031137
20
1.09677018106282
30
-1E-16
0
SPLINE
5
C4
100
AcDbEntity
8
1
62
256
6
ByLayer
370
18
48
1
60
0
100
AcDbSpline
70
4
71
3
72
18
73
14
40
0
40
0
40
0
40
0
40
0.236167695021267
40
0.236167695021267
40
0.432098402641153
40
0.432098402641153
40
0.629808036938417
40
0.629808036938417
40
0.801575297279803
40
0.801575297279803
40
0.966760981669541
40
0.966760981669541
40
1
40
1
40
1
40
1
41
1
10
47.2535784740309
20
-4.61284778806984
30
-1E-16
41
1
10
47.2536627178168
20
-4.61302167514489
30
-1E-16
41
1
10
47.2536888505682
20
-4.61338165257112
30
-1E-16
41
1
10
47.2536023044072
20
-4.61440060402302
30
-1E-16
41
1
10
47.2535107190319
20
-4.61501173760635
30
-1E-16
41
1
10
47.2532174576385
20
-4.61648728579431
30
-1E-16
41
1
10
47.2530092446918
20
-4.61737916373119
30
-1E-16
41
1
10
47.2525373461808
20
-4.61917336996902
30
-1E-16
41
1
10
47.2522781485448
20
-4.62008304796834
30
-1E-16
41
1
10
47.2517389411328
20
-4.62185421664142
30
-1E-16
41
1
10
47.2514537194863
20
-4.62273773366189
30
-1E-16
41
1
10
47.2511112103089
20
-4.62374648986787
30
0
41
1
10
47.2510531598782
20
-4.62391570928457
30
0
41
1
10
47.2509951069739
20
-4.62408324663514
30
0
0
SPLINE
5
C5
100
AcDbEntity
8
1
62
256
6
ByLayer
370
18
48
1
60
0
100
AcDbSpline
70
4
71
3
72
20
73
16
40
0
40
0
40
0
40
0
40
0.249999999999995
40
0.249999999999995
40
0.49999999999999
40
0.49999999999999
40
0.56249999999999
40
0.56249999999999
40
0.624999999999989
40
0.624999999999989
40
0.749999999999993
40
0.749999999999993
40
0.874999999999996
40
0.874999999999996
40
1
40
1
40
1
40
1
41
1
10
47.2981717715923
20
-4.69713534940036
30
0
41
1
10
47.3950807809559
20
-4.42384671645493
30
0
41
1
10
47.4912093103051
20
-4.1486288460332
30
0
41
1
10
47.6857502165856
20
-3.59629997685963
30
0
41
1
10
47.7840947165487
20
-3.31955133572089
30
0
41
1
10
47.9094926372558
20
-2.97482537604759
30
0
41
1
10
47.9346887573932
20
-2.90594150597289
30
0
41
1
10
47.9853363651952
20
-2.76830082864814
30
0
41
1
10
48.0106342557527
20
-2.69946441667244
30
0
41
1
10
48.0881320253156
20
-2.49376999473535
30
0
41
1
10
48.1424920433977
20
-2.35811645846638
30
0
41
1
10
48.2558989895672
20
-2.09691986838186
30
0
41
1
10
48.3152400225948
20
-1.97051904419877
30
0
41
1
10
48.4405113062383
20
-1.72650542595196
30
0
41
1
10
48.5067710568747
20
-1.60843025615083
30
0
41
1
10
48.5746076254016
20
-1.49824090054335
30
0
0
SPLINE
5
C6
100
AcDbEntity
8
1
62
256
6
ByLayer
370
18
48
1
60
0
100
AcDbSpline
70
4
71
3
72
34
73
30
40
0
40
0
40
0
40
0
40
0.0317827340645491
40
0.0317827340645491
40
0.0809782631051273
40
0.0809782631051273
40
0.130173792145706
40
0.130173792145706
40
0.228564850226862
40
0.228564850226862
40
0.326955908308019
40
0.326955908308019
40
0.425346966389175
40
0.425346966389175
40
0.523738024470332
40
0.523738024470332
40
0.57293355351091
40
0.57293355351091
40
0.622129082551489
40
0.622129082551489
40
0.720520140632645
40
0.720520140632645
40
0.769715669673224
40
0.769715669673224
40
0.818911198713802
40
0.818911198713802
40
0.917302256794961
40
0.917302256794961
40
1
40
1
40
1
40
1
41
1
10
32.8299703875136
20
4.65459170407189
30
0
41
1
10
32.9744007060582
20
4.65550965846751
30
0
41
1
10
33.1190639386813
20
4.65429687571651
30
0
41
1
10
33.4884930454538
20
4.64539843612855
30
0
41
1
10
33.7136036068228
20
4.63487969245949
30
0
41
1
10
34.1651505630171
20
4.60432603934311
30
1E-16
41
1
10
34.3917535195349
20
4.58421249246248
30
1E-16
41
1
10
35.0679710875279
20
4.51125209637746
30
-1E-16
41
1
10
35.5156363842815
20
4.44651619567645
30
-1E-16
41
1
10
36.4090867374522
20
4.27896418848169
30
0
41
1
10
36.8545872705197
20
4.17760619992751
30
2E-16
41
1
10
37.7448137234855
20
3.94346973901426
30
2E-16
41
1
10
38.1889888632373
20
3.81138563633181
30
2E-16
41
1
10
39.0804622353992
20
3.51558621385135
30
-2E-16
41
1
10
39.5274583433322
20
3.35257204977822
30
-2E-16
41
1
10
40.2004407730149
20
3.088016950466
30
-2E-16
41
1
10
40.4251200262459
20
2.99651025743043
30
-2E-16
41
1
10
40.8757892939948
20
2.80705307446971
30
-2E-16
41
1
10
41.1022383002637
20
2.70887021153786
30
-2E-16
41
1
10
41.7785624731625
20
2.40764325503133
30
-1E-16
41
1
10
42.2271227088171
20
2.19751451764577
30
-1E-16
41
1
10
42.8973807336896
20
1.87110894565524
30
-1E-16
41
1
10
43.1202924294651
20
1.76037418933098
30
-1E-16
41
1
10
43.5657832468108
20
1.53581979311835
30
-1E-16
41
1
10
43.7884683269142
20
1.42206266447346
30
-1E-16
41
1
10
44.4566434645682
20
1.07719092085904
30
-1E-16
41
1
10
44.902257956986
20
0.842516767039456
30
-1E-16
41
1
10
45.7238486255399
20
0.404763425572781
30
0
41
1
10
46.0995567439866
20
0.202572577940202
30
0
41
1
10
46.4762567330225
20
-0.0009475563422257
30
0
0
SPLINE
5
C7
100
AcDbEntity
8
1
62
256
6
ByLayer
370
18
48
1
60
0
100
AcDbSpline
70
4
71
3
72
32
73
28
40
0
40
0
40
0
40
0
40
0.540768748273764
40
0.540768748273764
40
0.702168768119726
40
0.702168768119726
40
0.807021881507306
40
0.807021881507306
40
0.875227841118301
40
0.875227841118301
40
0.919624149081926
40
0.919624149081926
40
0.948456800368796
40
0.948456800368796
40
0.9672897272411
40
0.9672897272411
40
0.97968323274031
40
0.97968323274031
40
0.987585988789529
40
0.987585988789529
40
0.992625935104595
40
0.992625935104595
40
0.996031125847748
40
0.996031125847748
40
0.999479491148526
40
0.999479491148526
40
1
40
1
40
1
40
1
41
1
10
46.9935800303209
20
4.89868894364582
30
0
41
1
10
47.0466750923711
20
4.86418681978867
30
0
41
1
10
47.0998657298114
20
4.82928165095908
30
0
41
1
10
47.1690676406947
20
4.78344436358438
30
0
41
1
10
47.184986146199
20
4.77287123068976
30
0
41
1
10
47.2112674475411
20
4.75536768023545
30
0
41
1
10
47.2216218368259
20
4.74845952686121
30
0
41
1
10
47.2387051980745
20
4.73704260155844
30
0
41
1
10
47.245433288175
20
4.73254125796183
30
0
41
1
10
47.2565481378614
20
4.72509651081353
30
0
41
1
10
47.2609342799054
20
4.72215644476216
30
0
41
1
10
47.2681871469461
20
4.71729106055517
30
0
41
1
10
47.2710510502702
20
4.71536890722601
30
0
41
1
10
47.275762811092
20
4.71220538605843
30
0
41
1
10
47.2776172192185
20
4.7109600339156
30
0
41
1
10
47.2806696686697
20
4.70890966321585
30
0
41
1
10
47.281881308062
20
4.70809560492751
30
0
41
1
10
47.2839019683326
20
4.7067373926657
30
0
41
1
10
47.284699628809
20
4.70620107620948
30
0
41
1
10
47.2860118208707
20
4.70531866954335
30
0
41
1
10
47.2865232983658
20
4.7049746951582
30
0
41
1
10
47.2873664462178
20
4.70440773608266
30
0
41
1
10
47.2877034063809
20
4.70418117060265
30
0
41
1
10
47.2883551527549
20
4.70374307652713
30
0
41
1
10
47.2886763884972
20
4.70352720569517
30
0
41
1
10
47.288989716402
20
4.70331686982865
30
0
41
1
10
47.2890298305921
20
4.70328994465857
30
0
41
1
10
47.28906822948
20
4.70326418078076
30
0
0
SPLINE
5
C8
100
AcDbEntity
8
1
62
256
6
ByLayer
370
18
48
1
60
0
100
AcDbSpline
70
4
71
3
72
14
73
10
40
0
40
0
40
0
40
0
40
0.264433224693071
40
0.264433224693071
40
0.49616561907951
40
0.49616561907951
40
0.775831026900448
40
0.775831026900448
40
1
40
1
40
1
40
1
41
1
10
46.6908230119903
20
-0.116948959602922
30
0
41
1
10
46.6915580060721
20
-0.117309515971954
30
0
41
1
10
46.6922754945977
20
-0.118042230538293
30
0
41
1
10
46.6934751490616
20
-0.119833912102706
30
0
41
1
10
46.6939917608737
20
-0.120865219278073
30
0
41
1
10
46.6949741250706
20
-0.123397929612139
30
0
41
1
10
46.6954229804394
20
-0.124990786300913
30
0
41
1
10
46.6959916968229
20
-0.128031873859669
30
0
41
1
10
46.6961647155657
20
-0.129481349648955
30
0
41
1
10
46.6962240632721
20
-0.130928338292421
30
0
0
SPLINE
5
C9
100
AcDbEntity
8
1
62
256
6
ByLayer
370
18
48
1
60
0
100
AcDbSpline
70
4
71
3
72
66
73
62
40
0
40
0
40
0
40
0
40
0.0624999999999882
40
0.0624999999999882
40
0.124999999999976
40
0.124999999999976
40
0.156249999999971
40
0.156249999999971
40
0.187499999999966
40
0.187499999999966
40
0.21874999999996
40
0.21874999999996
40
0.249999999999955
40
0.249999999999955
40
0.28124999999995
40
0.28124999999995
40
0.296874999999947
40
0.296874999999947
40
0.312499999999944
40
0.312499999999944
40
0.34374999999994
40
0.34374999999994
40
0.359374999999937
40
0.359374999999937
40
0.374999999999935
40
0.390624999999932
40
0.390624999999932
40
0.40624999999993
40
0.40624999999993
40
0.437499999999925
40
0.437499999999925
40
0.46874999999992
40
0.46874999999992
40
0.499999999999916
40
0.499999999999916
40
0.562499999999906
40
0.562499999999906
40
0.624999999999897
40
0.624999999999897
40
0.640624999999895
40
0.640624999999895
40
0.648437499999893
40
0.648437499999893
40
0.650390624999894
40
0.650390624999894
40
0.652343749999894
40
0.652343749999894
40
0.656249999999896
40
0.656249999999896
40
0.660156249999897
40
0.660156249999897
40
0.664062499999898
40
0.6718749999999
40
0.6718749999999
40
0.687499999999904
40
0.687499999999904
40
0.749999999999923
40
0.749999999999923
40
0.874999999999961
40
0.874999999999961
40
1
40
1
40
1
40
1
41
1
10
5.46255724190999
20
-4.80427713166563
30
0
41
1
10
5.19105389649198
20
-4.77839628292745
30
0
41
1
10
4.92434716573433
20
-4.74453674866251
30
1E-16
41
1
10
4.40264956552664
20
-4.65636525266839
30
1E-16
41
1
10
4.14761829549636
20
-4.60213206675851
30
1E-16
41
1
10
3.77657164258821
20
-4.49987654951508
30
1E-16
41
1
10
3.65482074921047
20
-4.46227848139352
30
1E-16
41
1
10
3.41594477496923
20
-4.37852197372229
30
-2E-16
41
1
10
3.29854290720041
20
-4.33225364715804
30
-2E-16
41
1
10
3.0707144443962
20
-4.22945539752834
30
-2E-16
41
1
10
2.96092747718828
20
-4.17324688608377
30
-2E-16
41
1
10
2.75148694570817
20
-4.04889512682021
30
-2E-16
41
1
10
2.65147664784507
20
-3.98050331258426
30
-2E-16
41
1
10
2.46604228037955
20
-3.82941668219394
30
-2E-16
41
1
10
2.38143262419507
20
-3.74746665601447
30
-2E-16
41
1
10
2.26963663322974
20
-3.61253534160781
30
2E-16
41
1
10
2.23490407452658
20
-3.56554697239201
30
2E-16
41
1
10
2.17122377729166
20
-3.46697094943133
30
2E-16
41
1
10
2.1421491853842
20
-3.41510989563756
30
2E-16
41
1
10
2.06593904602892
20
-3.25348307920569
30
2E-16
41
1
10
2.03024696280104
20
-3.13909377299166
30
2E-16
41
1
10
2.00259362772007
20
-2.95617419662256
30
2E-16
41
1
10
1.99773120180791
20
-2.89282613147006
30
2E-16
41
1
10
1.99732759619209
20
-2.76509780589262
30
2E-16
41
1
10
2.00605976003521
20
-2.63620741116836
30
2E-16
41
1
10
2.03239433898742
20
-2.50510660128464
30
2E-16
41
1
10
2.06728897968569
20
-2.37294842571561
30
1E-16
41
1
10
2.08916668269868
20
-2.30606279104188
30
1E-16
41
1
10
2.16522708780886
20
-2.10883214263282
30
1E-16
41
1
10
2.23000945003636
20
-1.98036750810709
30
1E-16
41
1
10
2.38204507654749
20
-1.72837951298877
30
1E-16
41
1
10
2.4697875136265
20
-1.60452942784389
30
1E-16
41
1
10
2.65785293466746
20
-1.36827222419913
30
1E-16
41
1
10
2.75879703924122
20
-1.25475703553497
30
1E-16
41
1
10
3.0778203525733
20
-0.925115044528383
30
1E-16
41
1
10
3.31299862052885
20
-0.719012079149053
30
0
41
1
10
3.80332568920886
20
-0.334313107392035
30
0
41
1
10
4.05993353629592
20
-0.154525470840525
30
0
41
1
10
4.38878440043629
20
0.0572638593998533
30
0
41
1
10
4.45496342824791
20
0.0989657027785142
30
0
41
1
10
4.55480336471393
20
0.160601860463459
30
0
41
1
10
4.58817938272134
20
0.180994800768815
30
0
41
1
10
4.63000856017047
20
0.206297534336414
30
0
41
1
10
4.63844832570874
20
0.211407831193128
30
0
41
1
10
4.65641017745489
20
0.21870197249217
30
0
41
1
10
4.66576704391193
20
0.221077465369859
30
0
41
1
10
4.69470932260003
20
0.225256110991467
30
0
41
1
10
4.71398016479546
20
0.224265188868429
30
0
41
1
10
4.75219250392337
20
0.216839639571674
30
0
41
1
10
4.77077124924276
20
0.210987720781304
30
0
41
1
10
4.8082619400744
20
0.200643680267831
30
0
41
1
10
4.86447004789301
20
0.185023812023275
30
0
41
1
10
4.92059018122387
20
0.16909464683431
30
0
41
1
10
5.03271366097781
20
0.136826759716939
30
0
41
1
10
5.10731166615986
20
0.114768575211997
30
0
41
1
10
5.47940019011224
20
0.0018058465371098
30
0
41
1
10
5.77455638163264
20
-0.0972278554341415
30
0
41
1
10
6.65049814532165
20
-0.417044324298104
30
0
41
1
10
7.219321098564
20
-0.660278925132104
30
0
41
1
10
8.33492005650416
20
-1.18449465550503
30
1E-16
41
1
10
8.88174323734415
20
-1.46533389009016
30
1E-16
41
1
10
9.42349096898232
20
-1.75066671785586
30
1E-16
0
SPLINE
5
CA
100
AcDbEntity
8
1
62
256
6
ByLayer
370
18
48
1
60
0
100
AcDbSpline
70
4
71
3
72
34
73
30
40
0
40
0
40
0
40
0
40
0.183875705095906
40
0.183875705095906
40
0.231809947651589
40
0.231809947651589
40
0.279744190207273
40
0.279744190207273
40
0.375612675318641
40
0.375612675318641
40
0.423546917874325
40
0.423546917874325
40
0.471481160430009
40
0.471481160430009
40
0.567349645541378
40
0.567349645541378
40
0.615283888097062
40
0.615283888097062
40
0.663218130652746
40
0.663218130652746
40
0.759086615764117
40
0.759086615764117
40
0.807020858319802
40
0.807020858319802
40
0.854955100875487
40
0.854955100875487
40
0.950823585986859
40
0.950823585986859
40
1
40
1
40
1
40
1
41
1
10
19.6871800641591
20
-0.23409191913936
30
0
41
1
10
18.831734873988
20
0.223430826230128
30
0
41
1
10
17.9747919033322
20
0.683789205875968
30
0
41
1
10
16.8833891308954
20
1.25096157598577
30
-1E-16
41
1
10
16.6571691131128
20
1.36766543780473
30
-1E-16
41
1
10
16.2062662377396
20
1.5965600348182
30
-1E-16
41
1
10
15.9811159265109
20
1.70904520813411
30
-1E-16
41
1
10
15.3068458782275
20
2.04038668797654
30
-1E-16
41
1
10
14.8587818987525
20
2.2531914217675
30
-1E-16
41
1
10
14.189069689363
20
2.55715798085174
30
-2E-16
41
1
10
13.9661777655457
20
2.6559320695149
30
-2E-16
41
1
10
13.519959831561
20
2.84799658106229
30
-2E-16
41
1
10
13.2966774752918
20
2.94128793076553
30
-2E-16
41
1
10
12.6262239283118
20
3.21246878594261
30
-2E-16
41
1
10
12.1784454980447
20
3.38162773938342
30
-2E-16
41
1
10
11.5048641644126
20
3.61394471392151
30
-2E-16
41
1
10
11.2799955921277
20
3.68784076224779
30
2E-16
41
1
10
10.8288314148138
20
3.82865292753135
30
2E-16
41
1
10
10.6021098770429
20
3.89566443674099
30
2E-16
41
1
10
9.92406612975464
20
4.08410961099128
30
2E-16
41
1
10
9.47446172426703
20
4.19312490083976
30
0
41
1
10
8.80290886969937
20
4.32906850737356
30
0
41
1
10
8.57951434704293
20
4.36982321201077
30
0
41
1
10
8.13280825579014
20
4.44296278232184
30
0
41
1
10
7.90951096422793
20
4.47532215179956
30
-1E-16
41
1
10
7.23981793916184
20
4.55881872417783
30
1E-16
41
1
10
6.79354036212655
20
4.59657922690391
30
1E-16
41
1
10
6.1170183240001
20
4.62523490810381
30
0
41
1
10
5.88739054369179
20
4.63010281070197
30
0
41
1
10
5.65731880448752
20
4.63014397489988
30
0
0
SPLINE
5
CB
100
AcDbEntity
8
1
62
256
6
ByLayer
370
18
48
1
60
0
100
AcDbSpline
70
4
71
3
72
10
73
6
40
0
40
0
40
0
40
0
40
0.5
40
0.5
40
1
40
1
40
1
40
1
41
1
10
46.5714737289303
20
-0.0550541042412647
30
0
41
1
10
46.5652449401074
20
0.0603815955207381
30
0
41
1
10
46.5609421897472
20
0.177112745258626
30
0
41
1
10
46.5571144754534
20
0.40794976408921
30
0
41
1
10
46.5575520391718
20
0.522418179776793
30
0
41
1
10
46.5606135125801
20
0.635939360939972
30
0
0
SPLINE
5
CC
100
AcDbEntity
8
1
62
256
6
ByLayer
370
18
48
1
60
0
100
AcDbSpline
70
4
71
3
72
8
73
4
40
0
40
0
40
0
40
0
40
1
40
1
40
1
40
1
41
1
10
48.5746076254019
20
1.49824090054307
30
0
41
1
10
48.7187152509446
20
1.09036807629127
30
0
41
1
10
48.8590252156942
20
0.681136417463819
30
0
41
1
10
48.9954813866349
20
0.270525839201383
30
0
0
SPLINE
5
CD
100
AcDbEntity
8
1
62
256
6
ByLayer
370
18
48
1
60
0
100
AcDbSpline
70
4
71
3
72
8
73
4
40
0
40
0
40
0
40
0
40
1
40
1
40
1
40
1
41
1
10
46.5714737289375
20
-0.0550541042383941
30
0
41
1
10
46.6115104469474
20
-0.0769283324420087
30
0
41
1
10
46.6512761777009
20
-0.0975489897913349
30
0
41
1
10
46.690823011994
20
-0.116948959609715
30
0
0
SPLINE
5
CE
100
AcDbEntity
8
1
62
256
6
ByLayer
370
18
48
1
60
0
100
AcDbSpline
70
4
71
3
72
32
73
28
40
0
40
0
40
0
40
0
40
0.54076874824667
40
0.54076874824667
40
0.702168768101725
40
0.702168768101725
40
0.807021881495176
40
0.807021881495176
40
0.87522784111009
40
0.87522784111009
40
0.919624149076209
40
0.919624149076209
40
0.948456800364773
40
0.948456800364773
40
0.967289727238127
40
0.967289727238127
40
0.979683232738092
40
0.979683232738092
40
0.987585988787702
40
0.987585988787702
40
0.992625935103103
40
0.992625935103103
40
0.996031125846426
40
0.996031125846426
40
0.999479491147078
40
0.999479491147078
40
1
40
1
40
1
40
1
41
1
10
46.993580030323
20
-4.89868894364449
30
0
41
1
10
47.0466750923702
20
-4.86418681978924
30
0
41
1
10
47.0998657298075
20
-4.82928165096163
30
0
41
1
10
47.1690676406886
20
-4.78344436358844
30
0
41
1
10
47.1849861461937
20
-4.77287123069328
30
0
41
1
10
47.211267447537
20
-4.75536768023809
30
0
41
1
10
47.2216218368224
20
-4.74845952686351
30
0
41
1
10
47.2387051980719
20
-4.73704260156015
30
0
41
1
10
47.2454332881727
20
-4.73254125796336
30
0
41
1
10
47.2565481378597
20
-4.72509651081469
30
0
41
1
10
47.2609342799039
20
-4.72215644476316
30
0
41
1
10
47.268187146945
20
-4.71729106055591
30
0
41
1
10
47.2710510502693
20
-4.71536890722666
30
0
41
1
10
47.2757628110912
20
-4.71220538605891
30
0
41
1
10
47.2776172192178
20
-4.71096003391602
30
0
41
1
10
47.2806696686692
20
-4.70890966321619
30
0
41
1
10
47.2818813080616
20
-4.70809560492782
30
0
41
1
10
47.2839019683323
20
-4.70673739266593
30
0
41
1
10
47.2846996288087
20
-4.70620107620965
30
0
41
1
10
47.2860118208705
20
-4.70531866954346
30
0
41
1
10
47.2865232983656
20
-4.70497469515834
30
0
41
1
10
47.2873664462176
20
-4.7044077360828
30
0
41
1
10
47.2877034063808
20
-4.70418117060274
30
0
41
1
10
47.2883551527548
20
-4.70374307652722
30
0
41
1
10
47.2886763884971
20
-4.70352720569522
30
0
41
1
10
47.288989716402
20
-4.70331686982865
30
0
41
1
10
47.2890298305922
20
-4.70328994465848
30
0
41
1
10
47.2890682294803
20
-4.70326418078062
30
0
0
SPLINE
5
CF
100
AcDbEntity
8
1
62
256
6
ByLayer
370
18
48
1
60
0
100
AcDbSpline
70
4
71
3
72
24
73
20
40
0
40
0
40
0
40
0
40
0.0731950084086708
40
0.0731950084086708
40
0.165875507567803
40
0.165875507567803
40
0.258556006726936
40
0.258556006726936
40
0.443917005045201
40
0.443917005045201
40
0.536597504204333
40
0.536597504204333
40
0.629278003363466
40
0.629278003363466
40
0.814639001681733
40
0.814639001681733
40
0.907319500840866
40
0.907319500840866
40
1
40
1
40
1
40
1
41
1
10
13.370739257972
20
3.57810324515432
30
-2E-16
41
1
10
13.5697196507365
20
3.65445566113385
30
-1E-16
41
1
10
13.7688811713702
20
3.7280424524956
30
0
41
1
10
14.220903272007
20
3.88817262583186
30
2E-16
41
1
10
14.473921019858
20
3.97297942107414
30
2E-16
41
1
10
14.9813512954865
20
4.13261262715457
30
2E-16
41
1
10
15.2360473745704
20
4.20749919610702
30
2E-16
41
1
10
16.0011834627247
20
4.41569889254691
30
2E-16
41
1
10
16.509515297746
20
4.53177158378406
30
-1E-16
41
1
10
17.2722639732895
20
4.67002169660955
30
-1E-16
41
1
10
17.526560483336
20
4.71012679352648
30
-1E-16
41
1
10
18.0357156235058
20
4.77810442291172
30
-1E-16
41
1
10
18.2908367741556
20
4.80600664643544
30
0
41
1
10
19.055566055539
20
4.87075759302371
30
0
41
1
10
19.5638246075085
20
4.88865791609123
30
0
41
1
10
20.3265704903269
20
4.87758373504929
30
0
41
1
10
20.580893469794
20
4.86756958243438
30
0
41
1
10
21.0901800340339
20
4.83490172228767
30
0
41
1
10
21.3455862276513
20
4.81218891137917
30
0
41
1
10
21.5999999999894
20
4.78335193238584
30
0
0
SPLINE
5
D0
100
AcDbEntity
8
1
62
256
6
ByLayer
370
18
48
1
60
0
100
AcDbSpline
70
4
71
3
72
34
73
30
40
0
40
0
40
0
40
0
40
0.0523006758588165
40
0.0523006758588165
40
0.150896144347049
40
0.150896144347049
40
0.200193878591166
40
0.200193878591166
40
0.249491612835283
40
0.249491612835283
40
0.348087081323518
40
0.348087081323518
40
0.397384815567636
40
0.397384815567636
40
0.446682549811754
40
0.446682549811754
40
0.54527801829999
40
0.54527801829999
40
0.594575752544108
40
0.594575752544108
40
0.643873486788227
40
0.643873486788227
40
0.742468955276465
40
0.742468955276465
40
0.791766689520584
40
0.791766689520584
40
0.841064423764704
40
0.841064423764704
40
1
40
1
40
1
40
1
41
1
10
5.63805138476138
20
4.64010005596774
30
0
41
1
10
5.87594714915465
20
4.64064678381968
30
0
41
1
10
6.11335983178955
20
4.63602354174836
30
0
41
1
10
6.79754160204928
20
4.60770114217166
30
1E-16
41
1
10
7.24370558047102
20
4.57033877157912
30
1E-16
41
1
10
7.91322935902437
20
4.48738429703974
30
-1E-16
41
1
10
8.13646933512678
20
4.45519517997971
30
-1E-16
41
1
10
8.58305814923764
20
4.38237355146194
30
0
41
1
10
8.80639470397253
20
4.34176903358892
30
0
41
1
10
9.47778329396797
20
4.20625222426804
30
0
41
1
10
9.92728297591509
20
4.09747755971711
30
2E-16
41
1
10
10.6051736984112
20
3.90931326539649
30
2E-16
41
1
10
10.8318511833624
20
3.84238034426025
30
2E-16
41
1
10
11.2829184581751
20
3.70169787566888
30
2E-16
41
1
10
11.5077365465004
20
3.62785665993474
30
2E-16
41
1
10
12.181172445832
20
3.39568487579874
30
-2E-16
41
1
10
12.6288499576148
20
3.2265728036748
30
-2E-16
41
1
10
13.299136847467
20
2.95537398014056
30
-2E-16
41
1
10
13.522361890782
20
2.86206345133493
30
-2E-16
41
1
10
13.9684613802137
20
2.66993336945239
30
-2E-16
41
1
10
14.1912932037052
20
2.57111642039487
30
-2E-16
41
1
10
14.8608376327355
20
2.26700926734273
30
-1E-16
41
1
10
15.3087924454162
20
2.05405385114651
30
-1E-16
41
1
10
15.9828951174774
20
1.72239236259645
30
-1E-16
41
1
10
16.2079895216086
20
1.60978545026026
30
-1E-16
41
1
10
16.6587792455564
20
1.38061529954362
30
-1E-16
41
1
10
16.8849474704125
20
1.26376845759813
30
-1E-16
41
1
10
17.8380568362889
20
0.76769406554854
30
0
41
1
10
18.5592950403279
20
0.381548104503963
30
0
41
1
10
19.2786412765491
20
-0.0041944922802202
30
0
0
SPLINE
5
D1
100
AcDbEntity
8
1
62
256
6
ByLayer
370
18
48
1
60
0
100
AcDbSpline
70
4
71
3
72
8
73
4
40
0
40
0
40
0
40
0
40
1
40
1
40
1
40
1
41
1
10
47.28906822948
20
4.70326418078076
30
0
41
1
10
47.2921027028445
20
4.70122153708084
30
0
41
1
10
47.295137216968
20
4.69917859312216
30
0
41
1
10
47.2981717715923
20
4.69713534940038
30
0
0
SPLINE
5
D2
100
AcDbEntity
8
1
62
256
6
ByLayer
370
18
48
1
60
0
100
AcDbSpline
70
4
71
3
72
32
73
28
40
0
40
0
40
0
40
0
40
0.125000000000005
40
0.125000000000005
40
0.187500000000004
40
0.187500000000004
40
0.250000000000003
40
0.250000000000003
40
0.312500000000001
40
0.312500000000001
40
0.375
40
0.375
40
0.437499999999998
40
0.437499999999998
40
0.499999999999997
40
0.499999999999997
40
0.562499999999995
40
0.562499999999995
40
0.624999999999994
40
0.624999999999994
40
0.687499999999993
40
0.687499999999993
40
0.749999999999991
40
0.749999999999991
40
0.874999999999996
40
0.874999999999996
40
1
40
1
40
1
40
1
41
1
10
48.9316691763384
20
0.0589878260885541
30
0
41
1
10
48.907950051351
20
-0.0192174449130391
30
0
41
1
10
48.8806800640372
20
-0.0956347702744438
30
0
41
1
10
48.8342482630757
20
-0.207386064876402
30
0
41
1
10
48.817694734025
20
-0.244441969454613
30
0
41
1
10
48.7834859893887
20
-0.315593996844456
30
0
41
1
10
48.7658223901907
20
-0.349765133643331
30
0
41
1
10
48.7294025964239
20
-0.415210374915262
30
0
41
1
10
48.7106471519554
20
-0.446486381393072
30
0
41
1
10
48.6719876076724
20
-0.505884842442754
30
0
41
1
10
48.652129010458
20
-0.533872613372949
30
0
41
1
10
48.6128633090904
20
-0.584236136128197
30
0
41
1
10
48.593257548746
20
-0.606930036067013
30
0
41
1
10
48.5540741158572
20
-0.647238888241191
30
0
41
1
10
48.5343178741386
20
-0.664964264467471
30
0
41
1
10
48.496075644564
20
-0.694029427438466
30
0
41
1
10
48.4774977270168
20
-0.705514118879734
30
0
41
1
10
48.4412857923737
20
-0.722626415556704
30
0
41
1
10
48.4235199536957
20
-0.728255627148457
30
0
41
1
10
48.3896587860746
20
-0.733521876502977
30
0
41
1
10
48.3735271379545
20
-0.733228050341097
30
0
41
1
10
48.3426076875448
20
-0.727243014342122
30
0
41
1
10
48.3277323455417
20
-0.721489400190563
30
0
41
1
10
48.2855527866708
20
-0.696876133071612
30
0
41
1
10
48.2607905383076
20
-0.671047981023463
30
0
41
1
10
48.2159628300763
20
-0.603898089660333
30
0
41
1
10
48.1959650765861
20
-0.562412977660131
30
0
41
1
10
48.1782822460652
20
-0.515210679696821
30
0
0
SPLINE
5
D3
100
AcDbEntity
8
1
62
256
6
ByLayer
370
18
48
1
60
0
100
AcDbSpline
70
4
71
3
72
10
73
6
40
0
40
0
40
0
40
0
40
0.5
40
0.5
40
1
40
1
40
1
40
1
41
1
10
3.50173531719833
20
-4.76024090631796
30
1E-16
41
1
10
3.50173531719833
20
-4.75274517381715
30
1E-16
41
1
10
3.52119971000025
20
-4.74511330026868
30
1E-16
41
1
10
3.58154998098502
20
-4.73702815221779
30
1E-16
41
1
10
3.62049171410749
20
-4.73697497294913
30
1E-16
41
1
10
3.65102731693105
20
-4.74098952304578
30
1E-16
0
SPLINE
5
D4
100
AcDbEntity
8
1
62
256
6
ByLayer
370
18
48
1
60
0
100
AcDbSpline
70
4
71
3
72
28
73
24
40
0
40
0
40
0
40
0
40
0.103039299654011
40
0.103039299654011
40
0.206078599308021
40
0.206078599308021
40
0.309117898962032
40
0.309117898962032
40
0.360637548789039
40
0.360637548789039
40
0.412157198616045
40
0.412157198616045
40
0.515196498270058
40
0.515196498270058
40
0.618235797924071
40
0.618235797924071
40
0.721275097578085
40
0.721275097578085
40
0.824314397232098
40
0.824314397232098
40
0.927353696886111
40
0.927353696886111
40
1
40
1
40
1
40
1
41
1
10
46.5606135125797
20
0.635939360925704
30
0
41
1
10
46.1319434876743
20
0.876820166426057
30
-1E-16
41
1
10
45.7047970914293
20
1.11389761809104
30
-1E-16
41
1
10
44.852146594748
20
1.57817049873631
30
-1E-16
41
1
10
44.4265772807658
20
1.80522777648139
30
-1E-16
41
1
10
43.5740327709115
20
2.24429566534664
30
-1E-16
41
1
10
43.1474231892793
20
2.45691201839844
30
-2E-16
41
1
10
42.5050251870787
20
2.76214631531616
30
-2E-16
41
1
10
42.2904606575602
20
2.86158319326913
30
-2E-16
41
1
10
41.8601763381942
20
3.05536335179326
30
-2E-16
41
1
10
41.644094044785
20
3.14992460552494
30
-2E-16
41
1
10
40.9969928015083
20
3.42444647710701
30
-2E-16
41
1
10
40.5680428078364
20
3.5941736105483
30
-2E-16
41
1
10
39.71253559108
20
3.90480722984114
30
2E-16
41
1
10
39.2863888464551
20
4.04616773300324
30
2E-16
41
1
10
38.4341534825603
20
4.29792299310068
30
2E-16
41
1
10
38.0081113324046
20
4.40842674929974
30
2E-16
41
1
10
37.1547158110161
20
4.59727006878543
30
-1E-16
41
1
10
36.7269466708566
20
4.67529823638415
30
-1E-16
41
1
10
35.8673598547354
20
4.79691825793577
30
0
41
1
10
35.4343938464868
20
4.84054867377682
30
0
41
1
10
34.7014052344954
20
4.88334539444102
30
0
41
1
10
34.3993488870734
20
4.89202914497221
30
0
41
1
10
34.0979552946655
20
4.89180041703048
30
0
0
SPLINE
5
D5
100
AcDbEntity
8
1
62
256
6
ByLayer
370
18
48
1
60
0
100
AcDbSpline
70
4
71
3
72
20
73
16
40
0
40
0
40
0
40
0
40
0.0273952691402714
40
0.0273952691402714
40
0.189496057616893
40
0.189496057616893
40
0.270546451855205
40
0.270546451855205
40
0.351596846093516
40
0.351596846093516
40
0.675798423046759
40
0.675798423046759
40
0.837899211523379
40
0.837899211523379
40
1
40
1
40
1
40
1
41
1
10
13.3922297661513
20
-3.57836107837701
30
1E-16
41
1
10
13.3200030568479
20
-3.60603448874855
30
1E-16
41
1
10
13.2477409408242
20
-3.63334025881704
30
0
41
1
10
12.7475969826145
20
-3.81959942848599
30
-2E-16
41
1
10
12.3183381321535
20
-3.96584314474544
30
-2E-16
41
1
10
11.6710993214188
20
-4.16370958735754
30
-2E-16
41
1
10
11.4546870740237
20
-4.22596717359357
30
-2E-16
41
1
10
11.0238731594959
20
-4.3418501696051
30
-2E-16
41
1
10
10.8090033675465
20
-4.39560591582702
30
-2E-16
41
1
10
9.73694187052112
20
-4.64348791689622
30
1E-16
41
1
10
8.88658205259563
20
-4.77477027182977
30
1E-16
41
1
10
7.60812174675419
20
-4.86601398963469
30
0
41
1
10
7.18139783272244
20
-4.8788400689383
30
0
41
1
10
6.32509266574539
20
-4.86861639084691
30
0
41
1
10
5.89532965761489
20
-4.84552760827381
30
0
41
1
10
5.46257936594665
20
-4.80427957076577
30
0
0
SPLINE
5
D6
100
AcDbEntity
8
1
62
256
6
ByLayer
370
18
48
1
60
0
100
AcDbSpline
70
4
71
3
72
16
73
12
40
0
40
0
40
0
40
0
40
0.248370086301661
40
0.248370086301661
40
0.496740172603323
40
0.496740172603323
40
0.745110258904985
40
0.745110258904985
40
0.993480345206646
40
0.993480345206646
40
1
40
1
40
1
40
1
41
1
10
47.28906822948
20
4.70326418078074
30
0
41
1
10
46.7532891386518
20
4.7078384298093
30
0
41
1
10
46.2189519729594
20
4.68538375850474
30
0
41
1
10
45.1492294723841
20
4.58701635864082
30
-1E-16
41
1
10
44.6132315968042
20
4.51102582568393
30
-1E-16
41
1
10
43.5436382331658
20
4.30939465766667
30
0
41
1
10
43.0085411060596
20
4.18349365089333
30
2E-16
41
1
10
41.937324374438
20
3.88427422515818
30
2E-16
41
1
10
41.4015149505866
20
3.7109509905068
30
2E-16
41
1
10
40.8526159759599
20
3.51276976096762
30
0
41
1
10
40.838576332871
20
3.50768696559612
30
0
41
1
10
40.8245369369601
20
3.5025905710319
30
0
0
SPLINE
5
D7
100
AcDbEntity
8
1
62
256
6
ByLayer
370
18
48
1
60
0
100
AcDbSpline
70
4
71
3
72
10
73
6
40
0
40
0
40
0
40
0
40
0.5
40
0.5
40
1
40
1
40
1
40
1
41
1
10
3.50173531719833
20
4.76024090631796
30
-1E-16
41
1
10
3.50173531719833
20
4.75274517381715
30
-1E-16
41
1
10
3.52119971000028
20
4.74511330026868
30
-1E-16
41
1
10
3.58154998098499
20
4.73702815221779
30
-1E-16
41
1
10
3.62049171410752
20
4.73697497294913
30
-1E-16
41
1
10
3.65102731693108
20
4.74098952304578
30
-1E-16
0
SPLINE
5
D8
100
AcDbEntity
8
1
62
256
6
ByLayer
370
18
48
1
60
0
100
AcDbSpline
70
4
71
3
72
10
73
6
40
0
40
0
40
0
40
0
40
0.665092515976406
40
0.665092515976406
40
1
40
1
40
1
40
1
41
1
10
3.65102731693105
20
-4.74098952304578
30
1E-16
41
1
10
4.09841006979283
20
-4.79980743746938
30
0
41
1
10
4.54563403203889
20
-4.83901317023182
30
0
41
1
10
5.21885688254272
20
-4.86884387314907
30
0
41
1
10
5.44449033383319
20
-4.87390078293049
30
0
41
1
10
5.67009192316118
20
-4.87400945527989
30
0
0
SPLINE
5
D9
100
AcDbEntity
8
1
62
256
6
ByLayer
370
18
48
1
60
0
100
AcDbSpline
70
4
71
3
72
38
73
34
40
0
40
0
40
0
40
0
40
0.0175208790688735
40
0.0175208790688735
40
0.0993941391464665
40
0.0993941391464665
40
0.140330769185263
40
0.140330769185263
40
0.181267399224059
40
0.181267399224059
40
0.222204029262856
40
0.222204029262856
40
0.263140659301652
40
0.263140659301652
40
0.345013919379245
40
0.345013919379245
40
0.426887179456838
40
0.426887179456838
40
0.508760439534431
40
0.508760439534431
40
0.549697069573229
40
0.549697069573229
40
0.590633699612026
40
0.590633699612026
40
0.672506959689621
40
0.672506959689621
40
0.754380219767215
40
0.754380219767215
40
0.83625347984481
40
0.83625347984481
40
0.918126739922405
40
0.918126739922405
40
1
40
1
40
1
40
1
41
1
10
30.1956577143876
20
4.65795812017606
30
-1E-16
41
1
10
30.2913484788159
20
4.67445320530692
30
-1E-16
41
1
10
30.3871012354251
20
4.69009038154562
30
-1E-16
41
1
10
30.9307490275096
20
4.77385559697282
30
-1E-16
41
1
10
31.3786147043371
20
4.82382061902382
30
0
41
1
10
32.0484348918756
20
4.86990526324476
30
0
41
1
10
32.2715348209364
20
4.88045953748207
30
0
41
1
10
32.7174220519295
20
4.89179974870959
30
0
41
1
10
32.9403849845053
20
4.8925455283466
30
0
41
1
10
33.3875351736388
20
4.88425063310279
30
0
41
1
10
33.611777073208
20
4.87520826682447
30
0
41
1
10
34.0595715689862
20
4.84747869082457
30
0
41
1
10
34.2832075247158
20
4.82880351920545
30
0
41
1
10
34.9533547412449
20
4.75837523135488
30
-1E-16
41
1
10
35.3985696586211
20
4.69184837052558
30
-1E-16
41
1
10
36.2921490019834
20
4.52232731946182
30
-1E-16
41
1
10
36.7406908765282
20
4.41897339634423
30
2E-16
41
1
10
37.6345535160501
20
4.17840829376797
30
2E-16
41
1
10
38.0799572668227
20
4.04043657775316
30
2E-16
41
1
10
38.7497696612032
20
3.81077953524357
30
2E-16
41
1
10
38.9732638582146
20
3.73040801425282
30
2E-16
41
1
10
39.4208263335362
20
3.56215563255333
30
-2E-16
41
1
10
39.6449492418714
20
3.47423947477185
30
-2E-16
41
1
10
40.3156004564475
20
3.20056603347382
30
-2E-16
41
1
10
40.761040283681
20
3.0040764203583
30
-2E-16
41
1
10
41.6538778293501
20
2.59042783014363
30
-2E-16
41
1
10
42.1015082621565
20
2.37271462731408
30
-1E-16
41
1
10
42.9965344751135
20
1.91791482754471
30
-1E-16
41
1
10
43.4422096677577
20
1.68104045715157
30
-1E-16
41
1
10
44.335887190118
20
1.19832989329746
30
-1E-16
41
1
10
44.7841761282056
20
0.951270561709151
30
-1E-16
41
1
10
45.6788499660006
20
0.451412990469009
30
0
41
1
10
46.125118408253
20
0.198605077613394
30
0
41
1
10
46.5714737289371
20
-0.0550541042383372
30
0
0
SPLINE
5
DA
100
AcDbEntity
8
1
62
256
6
ByLayer
370
18
48
1
60
0
100
AcDbSpline
70
4
71
3
72
14
73
10
40
0
40
0
40
0
40
0
40
0.0618344667989188
40
0.0618344667989188
40
0.374556311199279
40
0.374556311199279
40
0.68727815559964
40
0.68727815559964
40
1
40
1
40
1
40
1
41
1
10
41.9186744408203
20
4.01949261385039
30
2E-16
41
1
10
42.0232686521676
20
4.05332498696401
30
2E-16
41
1
10
42.1278760608977
20
4.08628014761942
30
2E-16
41
1
10
42.7616536573928
20
4.28046107635205
30
2E-16
41
1
10
43.2908733925689
20
4.41948969598084
30
2E-16
41
1
10
44.3493069462339
20
4.64677978833765
30
-1E-16
41
1
10
44.8777265601104
20
4.73488270101296
30
-1E-16
41
1
10
45.9359631225965
20
4.8574730338953
30
0
41
1
10
46.4648953512908
20
4.89181778284524
30
0
41
1
10
46.9935800303247
20
4.89868894365281
30
0
0
SPLINE
5
DB
100
AcDbEntity
8
1
62
256
6
ByLayer
370
18
48
1
60
0
100
AcDbSpline
70
4
71
3
72
26
73
22
40
0
40
0
40
0
40
0
40
0.132580666658141
40
0.132580666658141
40
0.229923280752452
40
0.229923280752452
40
0.278594587799607
40
0.278594587799607
40
0.327265894846762
40
0.327265894846762
40
0.521951123035385
40
0.521951123035385
40
0.619293737129696
40
0.619293737129696
40
0.667965044176851
40
0.667965044176851
40
0.716636351224007
40
0.716636351224007
40
0.91132157941263
40
0.91132157941263
40
1
40
1
40
1
40
1
41
1
10
7.20925865072616
20
0.21988338873652
30
0
41
1
10
7.82556904449663
20
-0.109348974321108
30
0
41
1
10
8.44120771311412
20
-0.440009141654315
30
0
41
1
10
9.51322029937936
20
-1.00535610686919
30
1E-16
41
1
10
9.96833905441446
20
-1.24237568252963
30
1E-16
41
1
10
10.6547749468478
20
-1.59084024577885
30
1E-16
41
1
10
10.8844486204364
20
-1.70592156894563
30
1E-16
41
1
10
11.3417845337051
20
-1.93110923606162
30
1E-16
41
1
10
11.5698808725452
20
-2.04144287603316
30
1E-16
41
1
10
12.7079225727898
20
-2.58099972578555
30
2E-16
41
1
10
13.6106411122209
20
-2.97390548562475
30
2E-16
41
1
10
14.9686061924865
20
-3.48268345691906
30
2E-16
41
1
10
15.421856585854
20
-3.63892974004671
30
-2E-16
41
1
10
16.104450589921
20
-3.85084402986587
30
-2E-16
41
1
10
16.3324347671129
20
-3.91773325117046
30
-2E-16
41
1
10
16.7896327829013
20
-4.04344180028147
30
-2E-16
41
1
10
17.0193115668446
20
-4.10243001692146
30
-2E-16
41
1
10
18.1634763877828
20
-4.37453334071404
30
0
41
1
10
19.06849619838
20
-4.51985456658682
30
1E-16
41
1
10
20.3851085030002
20
-4.62192150326362
30
0
41
1
10
20.7970933821401
20
-4.63821868149867
30
0
41
1
10
21.2099351569217
20
-4.63871213370402
30
0
0
SPLINE
5
DC
100
AcDbEntity
8
1
62
256
6
ByLayer
370
18
48
1
60
0
100
AcDbSpline
70
4
71
3
72
22
73
18
40
0
40
0
40
0
40
0
40
0.107430070349729
40
0.107430070349729
40
0.234940060299768
40
0.234940060299768
40
0.362450050249807
40
0.362450050249807
40
0.489960040199846
40
0.489960040199846
40
0.617470030149884
40
0.617470030149884
40
0.744980020099923
40
0.744980020099923
40
0.872490010049961
40
0.872490010049961
40
1
40
1
40
1
40
1
41
1
10
34.1922443527715
20
-0.347475070766961
30
0
41
1
10
33.7414259178185
20
-0.103203888250988
30
0
41
1
10
33.289997604451
20
0.142826686334956
30
0
41
1
10
32.3028227496798
20
0.677350043894592
30
0
41
1
10
31.7669049774435
20
0.965130302627387
30
-1E-16
41
1
10
30.6976982684327
20
1.52537841210139
30
-1E-16
41
1
10
30.1637205631145
20
1.79796261312148
30
-1E-16
41
1
10
29.0928567698478
20
2.32104510806627
30
-1E-16
41
1
10
28.5570728037953
20
2.57080267045208
30
-2E-16
41
1
10
27.4860764767631
20
3.03806019211859
30
-2E-16
41
1
10
26.9520767214243
20
3.25498091241769
30
-2E-16
41
1
10
25.8829290248114
20
3.6494686587975
30
2E-16
41
1
10
25.3470816497895
20
3.82736864691964
30
2E-16
41
1
10
24.2755618451223
20
4.13718834603711
30
2E-16
41
1
10
23.7410704976707
20
4.26910438198638
30
0
41
1
10
22.6713708452247
20
4.48210323128487
30
-1E-16
41
1
10
22.135598736521
20
4.56360804574217
30
-1E-16
41
1
10
21.5999999999756
20
4.61858788509778
30
1E-16
0
SPLINE
5
DD
100
AcDbEntity
8
1
62
256
6
ByLayer
370
18
48
1
60
0
100
AcDbSpline
70
4
71
3
72
26
73
22
40
0
40
0
40
0
40
0
40
0.0172140969933838
40
0.0172140969933838
40
0.0951000688170826
40
0.0951000688170826
40
0.172986040640781
40
0.172986040640781
40
0.25087201246448
40
0.25087201246448
40
0.406643956111877
40
0.406643956111877
40
0.562415899759275
40
0.562415899759275
40
0.718187843406672
40
0.718187843406672
40
0.796073815230371
40
0.796073815230371
40
0.87395978705407
40
0.87395978705407
40
1
40
1
40
1
40
1
41
1
10
3.60208366104899
20
4.62804442900037
30
0
41
1
10
3.60208218389667
20
4.62806536609452
30
0
41
1
10
3.60208070360321
20
4.62782210225254
30
0
41
1
10
3.60207251196536
20
4.62501781167273
30
0
41
1
10
3.60206574832151
20
4.61727096159481
30
0
41
1
10
3.60205234687857
20
4.59107896776163
30
1E-16
41
1
10
3.60204569275015
20
4.57263929572537
30
1E-16
41
1
10
3.60203254379994
20
4.52506691396471
30
-1E-16
41
1
10
3.60202603390164
20
4.49583601092539
30
-1E-16
41
1
10
3.6020069742446
20
4.3927930240184
30
0
41
1
10
3.60199484792565
20
4.30349507677269
30
0
41
1
10
3.60197179972161
20
4.08461476752291
30
2E-16
41
1
10
3.60196097490163
20
3.95596484659472
30
2E-16
41
1
10
3.60194023945948
20
3.66192638593182
30
2E-16
41
1
10
3.60193040136849
20
3.49760011930326
30
-2E-16
41
1
10
3.60191574572298
20
3.22688918500168
30
-2E-16
41
1
10
3.60191089656607
20
3.13302471109589
30
-2E-16
41
1
10
3.60190110580811
20
2.93808740210514
30
-2E-16
41
1
10
3.6018961538378
20
2.83679602348201
30
-2E-16
41
1
10
3.60188289490611
20
2.56340226637073
30
-2E-16
41
1
10
3.60187444229302
20
2.38695653580498
30
-1E-16
41
1
10
3.60186532036855
20
2.20301500825744
30
-1E-16
0
SPLINE
5
DE
100
AcDbEntity
8
1
62
256
6
ByLayer
370
18
48
1
60
0
100
AcDbSpline
70
4
71
3
72
8
73
4
40
0
40
0
40
0
40
0
40
1
40
1
40
1
40
1
41
1
10
48.1782822460652
20
-0.515210679696793
30
0
41
1
10
48.0045458109003
20
-0.0514410942790278
30
0
41
1
10
47.7829786003889
20
0.443703799607761
30
0
41
1
10
47.5147174196201
20
0.969478297757775
30
-1E-16
0
SPLINE
5
DF
100
AcDbEntity
8
1
62
256
6
ByLayer
370
18
48
1
60
0
100
AcDbSpline
70
4
71
3
72
14
73
10
40
0
40
0
40
0
40
0
40
0.0043809180461137
40
0.0043809180461137
40
0.203504734436891
40
0.203504734436891
40
0.601752367218445
40
0.601752367218445
40
1
40
1
40
1
40
1
41
1
10
47.2462243011319
20
1.15782440817412
30
0
41
1
10
47.2468855522504
20
1.15816026776994
30
0
41
1
10
47.2475472816706
20
1.15849599517091
30
0
41
1
10
47.2783081727316
20
1.17408491776251
30
0
41
1
10
47.3095670601907
20
1.18915591199538
30
0
41
1
10
47.407064602299
20
1.23300381427922
30
0
41
1
10
47.4779726379067
20
1.26070081192918
30
0
41
1
10
47.623492390621
20
1.30550280685975
30
0
41
1
10
47.6986484116997
20
1.32291893557465
30
0
41
1
10
47.7762403540881
20
1.33438075733031
30
0
0
SPLINE
5
E0
100
AcDbEntity
8
1
62
256
6
ByLayer
370
18
48
1
60
0
100
AcDbSpline
70
4
71
3
72
26
73
22
40
0
40
0
40
0
40
0
40
0.105881367963828
40
0.105881367963828
40
0.303051793925976
40
0.303051793925976
40
0.352344400416512
40
0.352344400416512
40
0.401637006907049
40
0.401637006907049
40
0.500222219888121
40
0.500222219888121
40
0.697392645850265
40
0.697392645850265
40
0.746685252340802
40
0.746685252340802
40
0.795977858831339
40
0.795977858831339
40
0.894563071812412
40
0.894563071812412
40
1
40
1
40
1
40
1
41
1
10
21.4278066608981
20
-4.64721315975638
30
0
41
1
10
20.9406708797039
20
-4.65384122339663
30
0
41
1
10
20.4549571646662
20
-4.63841391797487
30
0
41
1
10
19.0645674103316
20
-4.53186867074405
30
1E-16
41
1
10
18.1595159610643
20
-4.38715999597932
30
0
41
1
10
17.0152723941957
20
-4.11554995844429
30
-2E-16
41
1
10
16.7855751439331
20
-4.05664331896668
30
-2E-16
41
1
10
16.3283445119362
20
-3.93107032321288
30
-2E-16
41
1
10
16.1003453548348
20
-3.86423514780708
30
-2E-16
41
1
10
15.4177119959723
20
-3.65244001416539
30
-2E-16
41
1
10
14.9644411014998
20
-3.49621794464497
30
2E-16
41
1
10
13.6064282851561
20
-2.98734944018622
30
2E-16
41
1
10
12.7036879637732
20
-2.59415960546968
30
2E-16
41
1
10
11.5655882167847
20
-2.05396763603309
30
1E-16
41
1
10
11.3374795337568
20
-1.94349176480645
30
1E-16
41
1
10
10.8801146635048
20
-1.71798986159933
30
1E-16
41
1
10
10.6504219784711
20
-1.60273590133247
30
1E-16
41
1
10
9.96393400938527
20
-1.25372338328333
30
1E-16
41
1
10
9.50878913953386
20
-1.01629648668563
30
1E-16
41
1
10
8.56948696670793
20
-0.520031512175052
30
0
41
1
10
8.0856204292667
20
-0.260644712958395
30
0
41
1
10
7.60176235031278
20
-0.0012895766170971
30
0
0
SPLINE
5
E1
100
AcDbEntity
8
1
62
256
6
ByLayer
370
18
48
1
60
0
100
AcDbSpline
70
4
71
3
72
12
73
8
40
0
40
0
40
0
40
0
40
0.326610432588956
40
0.326610432588956
40
0.733833945380837
40
0.733833945380837
40
1
40
1
40
1
40
1
41
1
10
11.8111746113667
20
-2.89218191739627
30
0
41
1
10
11.1098306502443
20
-3.09119533833518
30
0
41
1
10
10.4119441300699
20
-3.29364093692308
30
0
41
1
10
8.85137342414532
20
-3.7551115636804
30
0
41
1
10
7.99053223857658
20
-4.01581334948611
30
0
41
1
10
6.5751824048352
20
-4.45343946480381
30
1E-16
41
1
10
6.01772856615321
20
-4.62813710205546
30
0
41
1
10
5.46256861658028
20
-4.80428298141606
30
0
0
SPLINE
5
E2
100
AcDbEntity
8
1
62
256
6
ByLayer
370
18
48
1
60
0
100
AcDbSpline
70
4
71
3
72
8
73
4
40
0
40
0
40
0
40
0
40
1
40
1
40
1
40
1
41
1
10
3.55269323211371
20
2.19526108462645
30
-1E-16
41
1
10
3.52166871422125
20
2.21083893875124
30
-1E-16
41
1
10
3.50173531719835
20
2.2412087713966
30
-1E-16
41
1
10
3.50173531719835
20
2.27269888722873
30
-1E-16
0
SPLINE
5
E3
100
AcDbEntity
8
1
62
256
6
ByLayer
370
18
48
1
60
0
100
AcDbSpline
70
4
71
3
72
14
73
10
40
0
40
0
40
0
40
0
40
0.25
40
0.25
40
0.500000000000001
40
0.500000000000001
40
0.75
40
0.75
40
1
40
1
40
1
40
1
41
1
10
47.5147174196201
20
0.969478297757775
30
-1E-16
41
1
10
47.4328055428741
20
0.973251817672008
30
-1E-16
41
1
10
47.3505444698707
20
0.966389588734899
30
-1E-16
41
1
10
47.1867515820944
20
0.942245771933614
30
-1E-16
41
1
10
47.1051677285251
20
0.922098346652859
30
-1E-16
41
1
10
46.9439013088283
20
0.865708290449248
30
-1E-16
41
1
10
46.8639490176938
20
0.830075632998529
30
-1E-16
41
1
10
46.7083256501283
20
0.744701032745297
30
0
41
1
10
46.6329456654917
20
0.694275076971508
30
0
41
1
10
46.5606135125915
20
0.635939360935197
30
0
0
SPLINE
5
E4
100
AcDbEntity
8
1
62
256
6
ByLayer
370
18
48
1
60
0
100
AcDbSpline
70
4
71
3
72
8
73
4
40
0
40
0
40
0
40
0
40
1
40
1
40
1
40
1
41
1
10
46.9758279220351
20
-4.83375480283672
30
0
41
1
10
47.0598760454927
20
-4.7864762888467
30
0
41
1
10
47.1441569879247
20
-4.73810580054212
30
0
41
1
10
47.2287146751702
20
-4.68867438510202
30
0
0
SPLINE
5
E5
100
AcDbEntity
8
1
62
256
6
ByLayer
370
18
48
1
60
0
100
AcDbSpline
70
4
71
3
72
8
73
4
40
0
40
0
40
0
40
0
40
1
40
1
40
1
40
1
41
1
10
47.2890682294803
20
-4.70326418078056
30
0
41
1
10
47.2921027028447
20
-4.70122153708067
30
0
41
1
10
47.2951372169681
20
-4.69917859312207
30
0
41
1
10
47.2981717715923
20
-4.69713534940036
30
0
0
SPLINE
5
E6
100
AcDbEntity
8
1
62
256
6
ByLayer
370
18
48
1
60
0
100
AcDbSpline
70
4
71
3
72
44
73
40
40
0
40
0
40
0
40
0
40
0.001198582040311
40
0.001198582040311
40
0.0677853432376246
40
0.0677853432376246
40
0.134372104434938
40
0.134372104434938
40
0.167665485033595
40
0.167665485033595
40
0.200958865632251
40
0.200958865632251
40
0.267545626829565
40
0.267545626829565
40
0.300839007428221
40
0.300839007428221
40
0.334132388026877
40
0.334132388026877
40
0.400719149224189
40
0.400719149224189
40
0.467305910421501
40
0.467305910421501
40
0.533892671618813
40
0.533892671618813
40
0.56718605221747
40
0.56718605221747
40
0.600479432816126
40
0.600479432816126
40
0.667066194013438
40
0.667066194013438
40
0.700359574612095
40
0.700359574612095
40
0.733652955210751
40
0.733652955210751
40
0.800239716408063
40
0.800239716408063
40
0.866826477605376
40
0.866826477605376
40
1
40
1
40
1
40
1
41
1
10
23.9355474249761
20
-4.64348176055998
30
1E-16
41
1
10
23.9273891223558
20
-4.64490673316513
30
1E-16
41
1
10
23.9192303566077
20
-4.64632559871561
30
1E-16
41
1
10
23.457787900037
20
-4.72622327673432
30
1E-16
41
1
10
23.0058189682006
20
-4.78546708110213
30
1E-16
41
1
10
22.1023203323558
20
-4.86435303833969
30
0
41
1
10
21.6506694680208
20
-4.88405641082454
30
0
41
1
10
20.9713402348092
20
-4.8835775471922
30
0
41
1
10
20.7445844994108
20
-4.87839512519136
30
0
41
1
10
20.2920702135075
20
-4.8580550739816
30
0
41
1
10
20.0660675056608
20
-4.84290494397621
30
0
41
1
10
19.3882944725985
20
-4.78270301782888
30
1E-16
41
1
10
18.9367159313168
20
-4.72292178800365
30
1E-16
41
1
10
18.257913380332
20
-4.60447506592217
30
1E-16
41
1
10
18.0311711098793
20
-4.56013954020224
30
1E-16
41
1
10
17.5781803942567
20
-4.46229639246585
30
1E-16
41
1
10
17.3519958553141
20
-4.40881567143384
30
-2E-16
41
1
10
16.6738775388454
20
-4.23514770090671
30
-2E-16
41
1
10
16.2224383810664
20
-4.1016730146558
30
-2E-16
41
1
10
15.3178686693506
20
-3.80207768312067
30
-2E-16
41
1
10
14.8640268192176
20
-3.63556085019636
30
-2E-16
41
1
10
13.9593892033381
20
-3.27511124331676
30
2E-16
41
1
10
13.5079030899705
20
-3.08101816738417
30
2E-16
41
1
10
12.8297871841715
20
-2.77200825802029
30
2E-16
41
1
10
12.6036035434176
20
-2.66602408209317
30
2E-16
41
1
10
12.1506096412577
20
-2.4485641447169
30
1E-16
41
1
10
11.9237625985473
20
-2.33706560396891
30
1E-16
41
1
10
11.244674085667
20
-1.99651734304442
30
1E-16
41
1
10
10.7930668949595
20
-1.76073223721363
30
1E-16
41
1
10
10.1151389440834
20
-1.39757220228762
30
1E-16
41
1
10
9.88906123889797
20
-1.27496606969925
30
1E-16
41
1
10
9.43638220785235
20
-1.02718955544313
30
1E-16
41
1
10
9.20954523664287
20
-0.901888394215945
30
1E-16
41
1
10
8.52982188006419
20
-0.52407679217734
30
0
41
1
10
8.07789721156638
20
-0.269598013302641
30
0
41
1
10
7.17374647859404
20
0.239665979002666
30
0
41
1
10
6.72102287457634
20
0.494558915185024
30
0
41
1
10
5.36106489296941
20
1.25089265564875
30
-1E-16
41
1
10
4.45965315595126
20
1.73986353616016
30
-1E-16
41
1
10
3.55269323211368
20
2.19526108462648
30
-1E-16
0
SPLINE
5
E7
100
AcDbEntity
8
1
62
256
6
ByLayer
370
18
48
1
60
0
100
AcDbSpline
70
4
71
3
72
8
73
4
40
0
40
0
40
0
40
0
40
1
40
1
40
1
40
1
41
1
10
47.2509951069739
20
-4.62408324663511
30
0
41
1
10
47.2435342920049
20
-4.64561473053442
30
0
41
1
10
47.2361072516219
20
-4.66714503686043
30
0
41
1
10
47.2287146751702
20
-4.68867438510202
30
0
0
SPLINE
5
E8
100
AcDbEntity
8
1
62
256
6
ByLayer
370
18
48
1
60
0
100
AcDbSpline
70
4
71
3
72
32
73
28
40
0
40
0
40
0
40
0
40
0.125
40
0.125
40
0.1875
40
0.1875
40
0.25
40
0.25
40
0.3125
40
0.3125
40
0.375
40
0.375
40
0.4375
40
0.4375
40
0.5
40
0.5
40
0.5625
40
0.5625
40
0.625
40
0.625
40
0.6875
40
0.6875
40
0.75
40
0.75
40
0.875
40
0.875
40
1
40
1
40
1
40
1
41
1
10
46.6962240632724
20
-0.130928338299071
30
0
41
1
10
46.7075228676623
20
-0.406410622470105
30
0
41
1
10
46.7297321770154
20
-0.676160583706633
30
0
41
1
10
46.7715831626746
20
-1.07332095928339
30
1E-16
41
1
10
46.7869864177715
20
-1.20445289742676
30
1E-16
41
1
10
46.8196714308997
20
-1.46428012766597
30
1E-16
41
1
10
46.8370118805187
20
-1.5933832468684
30
1E-16
41
1
10
46.8723825715346
20
-1.84712486149957
30
1E-16
41
1
10
46.8903543331608
20
-1.97140278984764
30
1E-16
41
1
10
46.9260642763642
20
-2.21489310009855
30
1E-16
41
1
10
46.9438435487549
20
-2.33437669873567
30
1E-16
41
1
10
46.9782648643175
20
-2.56652605747251
30
2E-16
41
1
10
46.9949146747782
20
-2.67924846148222
30
2E-16
41
1
10
47.0266429859126
20
-2.89801784962566
30
2E-16
41
1
10
47.0417447994575
20
-3.00424433392524
30
2E-16
41
1
10
47.0698424711464
20
-3.20804097650122
30
2E-16
41
1
10
47.0828703590259
20
-3.30582235300713
30
2E-16
41
1
10
47.1068443609857
20
-3.49310454886211
30
2E-16
41
1
10
47.1177888851051
20
-3.58261974290275
30
2E-16
41
1
10
47.1375560157414
20
-3.75152863686952
30
-2E-16
41
1
10
47.1464101386371
20
-3.83116303309947
30
-2E-16
41
1
10
47.1624532030238
20
-3.98070503998611
30
-2E-16
41
1
10
47.1696150429742
20
-4.05036111040485
30
-2E-16
41
1
10
47.1892287001344
20
-4.24187781632773
30
0
41
1
10
47.1998489444656
20
-4.34743958338956
30
0
41
1
10
47.2230236983991
20
-4.51444713304414
30
1E-16
41
1
10
47.2356714816927
20
-4.57588607646034
30
-1E-16
41
1
10
47.2535784740311
20
-4.61284778807027
30
-1E-16
0
SPLINE
5
E9
100
AcDbEntity
8
1
62
256
6
ByLayer
370
18
48
1
60
0
100
AcDbSpline
70
4
71
3
72
34
73
30
40
0
40
0
40
0
40
0
40
0.0971437164905955
40
0.0971437164905955
40
0.194287432981191
40
0.194287432981191
40
0.242859291226489
40
0.242859291226489
40
0.291431149471787
40
0.291431149471787
40
0.388574865962382
40
0.388574865962382
40
0.43714672420768
40
0.43714672420768
40
0.485718582452978
40
0.485718582452978
40
0.582862298943573
40
0.582862298943573
40
0.680006015434169
40
0.680006015434169
40
0.777149731924764
40
0.777149731924764
40
0.87429344841536
40
0.87429344841536
40
0.922865306660656
40
0.922865306660656
40
0.971437164905953
40
0.971437164905953
40
1
40
1
40
1
40
1
41
1
10
46.6962240632724
20
-0.130928338299071
30
0
41
1
10
46.2474510094204
20
0.11130358022541
30
0
41
1
10
45.8002125995286
20
0.351964594704242
30
0
41
1
10
44.907194692042
20
0.826941036554047
30
-1E-16
41
1
10
44.4614691868847
20
1.06131450682773
30
-1E-16
41
1
10
43.7931352596664
20
1.40582847107959
30
-1E-16
41
1
10
43.5703981867458
20
1.51948209155714
30
-1E-16
41
1
10
43.124808659247
20
1.7438636654629
30
-1E-16
41
1
10
42.901849734644
20
1.85451651688237
30
-1E-16
41
1
10
42.2314605630705
20
2.18072912337419
30
-1E-16
41
1
10
41.7828233178745
20
2.39078532572753
30
-1E-16
41
1
10
41.1064066000739
20
2.6920090348479
30
-2E-16
41
1
10
40.8799153685186
20
2.79021899466718
30
-2E-16
41
1
10
40.4291109830076
20
2.97976529545576
30
-2E-16
41
1
10
40.2043673395331
20
3.07132328023613
30
-2E-16
41
1
10
39.5311912977022
20
3.33608689880569
30
-2E-16
41
1
10
39.0840662197715
20
3.49930136610973
30
-2E-16
41
1
10
38.192338982458
20
3.79563188435338
30
2E-16
41
1
10
37.7480396853612
20
3.92802783207549
30
2E-16
41
1
10
36.857589052005
20
4.16286728741989
30
2E-16
41
1
10
36.4119824685599
20
4.26463695221238
30
0
41
1
10
35.5183431810313
20
4.43312378584329
30
0
41
1
10
35.0705887627814
20
4.49836967924733
30
-1E-16
41
1
10
34.3942642749249
20
4.5721304653172
30
1E-16
41
1
10
34.1676268632959
20
4.59252917306102
30
1E-16
41
1
10
33.7159580915803
20
4.62368071809254
30
0
41
1
10
33.4907853877427
20
4.63450907300728
30
0
41
1
10
33.1342724498978
20
4.64360748576499
30
0
41
1
10
33.0025307523942
20
4.64509685083053
30
0
41
1
10
32.8709895888469
20
4.64480828530719
30
0
0
SPLINE
5
EA
100
AcDbEntity
8
1
62
256
6
ByLayer
370
18
48
1
60
0
100
AcDbSpline
70
4
71
3
72
50
73
46
40
0
40
0
40
0
40
0
40
0.0526315789473673
40
0.0526315789473673
40
0.105263157894735
40
0.105263157894735
40
0.157894736842102
40
0.157894736842102
40
0.210526315789469
40
0.210526315789469
40
0.263157894736836
40
0.263157894736836
40
0.315789473684204
40
0.315789473684204
40
0.342105263157887
40
0.342105263157887
40
0.368421052631571
40
0.368421052631571
40
0.421052631578939
40
0.421052631578939
40
0.473684210526308
40
0.473684210526308
40
0.526315789473676
40
0.526315789473676
40
0.578947368421045
40
0.578947368421045
40
0.631578947368413
40
0.631578947368413
40
0.657894736842098
40
0.657894736842098
40
0.684210526315783
40
0.684210526315783
40
0.736842105263153
40
0.736842105263153
40
0.763157894736838
40
0.763157894736838
40
0.789473684210523
40
0.789473684210523
40
0.842105263157892
40
0.842105263157892
40
0.894736842105262
40
0.894736842105262
40
0.947368421052632
40
0.947368421052632
40
1
40
1
40
1
40
1
41
1
10
46.9758279220357
20
-4.83375480283763
30
0
41
1
10
46.5234574820834
20
-4.79149661632067
30
1E-16
41
1
10
46.0716917250943
20
-4.72951737940221
30
1E-16
41
1
10
45.1669201980517
20
-4.5674110097595
30
1E-16
41
1
10
44.713713665973
20
-4.46714881659886
30
-2E-16
41
1
10
43.8092967880406
20
-4.23134587995949
30
-2E-16
41
1
10
43.3573177102577
20
-4.09573077955221
30
-2E-16
41
1
10
42.4513783540696
20
-3.79130692472734
30
-2E-16
41
1
10
41.9993878811647
20
-3.62337640188386
30
2E-16
41
1
10
41.0949399136369
20
-3.25908190513454
30
2E-16
41
1
10
40.6417635131867
20
-3.06239738828649
30
2E-16
41
1
10
39.7369150942067
20
-2.64642825638228
30
2E-16
41
1
10
39.2850097617857
20
-2.42706033158973
30
1E-16
41
1
10
38.6059778971691
20
-2.08387124791034
30
1E-16
41
1
10
38.3793412497315
20
-1.96707105880373
30
1E-16
41
1
10
37.9269696440935
20
-1.7302119230074
30
1E-16
41
1
10
37.7010401341869
20
-1.61004945046383
30
1E-16
41
1
10
37.0235602451888
20
-1.24515469031766
30
1E-16
41
1
10
36.5722910752184
20
-0.996060191404098
30
1E-16
41
1
10
35.6678179319377
20
-0.490857865374892
30
0
41
1
10
35.2144260071706
20
-0.234505472975087
30
0
41
1
10
34.310744550654
20
0.276186700947477
30
0
41
1
10
33.8594688184245
20
0.530993300592456
30
0
41
1
10
32.9554530390285
20
1.03493094244905
30
-1E-16
41
1
10
32.5019620608397
20
1.28463296785949
30
-1E-16
41
1
10
31.5977868686544
20
1.76982853837666
30
-1E-16
41
1
10
31.1464762490751
20
2.00561558594109
30
-1E-16
41
1
10
30.4686492816848
20
2.34580958740327
30
-1E-16
41
1
10
30.2425754430284
20
2.45697981395827
30
-2E-16
41
1
10
29.789902608204
20
2.6744296030806
30
-2E-16
41
1
10
29.5631920464082
20
2.78071934915948
30
-2E-16
41
1
10
28.8844595112456
20
3.08990180595797
30
-2E-16
41
1
10
28.4330640405576
20
3.28377260257389
30
-2E-16
41
1
10
27.7554614050157
20
3.55340281672034
30
-2E-16
41
1
10
27.5295117897075
20
3.63975571097239
30
2E-16
41
1
10
27.0771248419996
20
3.80499881244086
30
2E-16
41
1
10
26.8504516626605
20
3.88395966088822
30
2E-16
41
1
10
26.171062806094
20
4.10840624039997
30
2E-16
41
1
10
25.7195268241048
20
4.24147814501339
30
2E-16
41
1
10
24.8161849280159
20
4.47190210241902
30
-1E-16
41
1
10
24.3643543403445
20
4.56925342595696
30
-1E-16
41
1
10
23.4577879000369
20
4.72622327673429
30
-1E-16
41
1
10
23.0058189682006
20
4.78546708110213
30
-1E-16
41
1
10
22.1023203323557
20
4.86435303833969
30
0
41
1
10
21.6506694680208
20
4.88405641082454
30
0
41
1
10
21.1977833125464
20
4.883737168403
30
0
0
SPLINE
5
EB
100
AcDbEntity
8
1
62
256
6
ByLayer
370
18
48
1
60
0
100
AcDbSpline
70
4
71
3
72
8
73
4
40
0
40
0
40
0
40
0
40
1
40
1
40
1
40
1
41
1
10
48.9954813866349
20
0.270525839201383
30
0
41
1
10
49.001513139094
20
0.0899676941268126
30
0
41
1
10
49.0014992857491
20
-0.0903823885674058
30
0
41
1
10
48.9954813866352
20
-0.270525839189531
30
0
0
SPLINE
5
EC
100
AcDbEntity
8
1
62
256
6
ByLayer
370
18
48
1
60
0
100
AcDbSpline
70
4
71
3
72
8
73
4
40
0
40
0
40
0
40
0
40
1
40
1
40
1
40
1
41
1
10
48.5746076254019
20
-1.49824090054307
30
0
41
1
10
48.7187152509465
20
-1.09036807628576
30
0
41
1
10
48.8590252156979
20
-0.681136417452734
30
0
41
1
10
48.9954813866404
20
-0.2705258391847
30
0
0
SPLINE
5
ED
100
AcDbEntity
8
1
62
256
6
ByLayer
370
18
48
1
60
0
100
AcDbSpline
70
4
71
3
72
10
73
6
40
0
40
0
40
0
40
0
40
0.5
40
0.5
40
1
40
1
40
1
40
1
41
1
10
47.2981717715923
20
-4.69713534940038
30
0
41
1
10
47.2824006920558
20
-4.70758107442396
30
0
41
1
10
47.2690061481023
20
-4.71197735197742
30
0
41
1
10
47.2461450493789
20
-4.70889341302262
30
0
41
1
10
47.2367446576014
20
-4.70148367472004
30
0
41
1
10
47.2287146751702
20
-4.68867438510202
30
0
0
SPLINE
5
EE
100
AcDbEntity
8
1
62
256
6
ByLayer
370
18
48
1
60
0
100
AcDbSpline
70
4
71
3
72
26
73
22
40
0
40
0
40
0
40
0
40
0.054770789110978
40
0.054770789110978
40
0.109541578221956
40
0.109541578221956
40
0.219083156443915
40
0.219083156443915
40
0.438166312887835
40
0.438166312887835
40
0.492937101998815
40
0.492937101998815
40
0.547707891109795
40
0.547707891109795
40
0.657249469331755
40
0.657249469331755
40
0.876332625775676
40
0.876332625775676
40
0.985874203997636
40
0.985874203997636
40
1
40
1
40
1
40
1
41
1
10
47.2509951069739
20
-4.62408324663514
30
0
41
1
10
47.0223774598621
20
-4.60728153259382
30
-1E-16
41
1
10
46.7942887039288
20
-4.58663803378616
30
-1E-16
41
1
10
46.3392764575892
20
-4.53497279413563
30
1E-16
41
1
10
46.1122856902477
20
-4.50443796052912
30
1E-16
41
1
10
45.4323968660172
20
-4.39915637901194
30
0
41
1
10
44.9805802953904
20
-4.31073154278727
30
0
41
1
10
43.6259698364128
20
-3.99438411999571
30
-2E-16
41
1
10
42.7240739523635
20
-3.71543490174781
30
-2E-16
41
1
10
41.5856187852226
20
-3.29216609694447
30
2E-16
41
1
10
41.357378164637
20
-3.20380962427725
30
2E-16
41
1
10
40.8994786798339
20
-3.02006255772321
30
2E-16
41
1
10
40.6703186181794
20
-2.92487009519596
30
2E-16
41
1
10
39.9858972315747
20
-2.63174771289721
30
2E-16
41
1
10
39.5320765771353
20
-2.42558876848764
30
1E-16
41
1
10
38.1741900484357
20
-1.78174472705621
30
1E-16
41
1
10
37.2736647365572
20
-1.31874803161131
30
1E-16
41
1
10
35.9153893649809
20
-0.599833281004777
30
0
41
1
10
35.4613555290279
20
-0.356176338201493
30
0
41
1
10
34.945986470557
20
-0.0789736896425097
30
0
41
1
10
34.8870466640568
20
-0.0472638904286953
30
0
41
1
10
34.8280605165791
20
-0.0155283714754546
30
0
0
SPLINE
5
EF
100
AcDbEntity
8
1
62
256
6
ByLayer
370
18
48
1
60
0
100
AcDbSpline
70
4
71
3
72
8
73
4
40
0
40
0
40
0
40
0
40
1
40
1
40
1
40
1
41
1
10
48.9954813866349
20
0.270525839201383
30
0
41
1
10
48.97431612824
20
0.199980393657029
30
0
41
1
10
48.9530452603293
20
0.129467763369178
30
0
41
1
10
48.9316691763384
20
0.0589878260885541
30
0
0
SPLINE
5
F0
100
AcDbEntity
8
1
62
256
6
ByLayer
370
18
48
1
60
0
100
AcDbSpline
70
4
71
3
72
64
73
60
40
0
40
0
40
0
40
0
40
0.0339572300727832
40
0.0339572300727832
40
0.0713138743759856
40
0.0713138743759856
40
0.108670518679188
40
0.108670518679188
40
0.146027162982391
40
0.146027162982391
40
0.183383807285593
40
0.183383807285593
40
0.220740451588796
40
0.220740451588796
40
0.258097095891998
40
0.258097095891998
40
0.295453740195201
40
0.295453740195201
40
0.332810384498403
40
0.332810384498403
40
0.351488706650004
40
0.351488706650004
40
0.370167028801606
40
0.370167028801606
40
0.407523673104808
40
0.407523673104808
40
0.44488031740801
40
0.44488031740801
40
0.482236961711213
40
0.482236961711213
40
0.500915283862815
40
0.500915283862815
40
0.519593606014417
40
0.519593606014417
40
0.55695025031762
40
0.55695025031762
40
0.594306894620824
40
0.594306894620824
40
0.631663538924028
40
0.631663538924028
40
0.669020183227231
40
0.669020183227231
40
0.706376827530435
40
0.706376827530435
40
0.743733471833639
40
0.743733471833639
40
0.781090116136843
40
0.781090116136843
40
0.818446760440047
40
0.818446760440047
40
0.85580340474325
40
0.85580340474325
40
0.874481726894852
40
0.874481726894852
40
0.893160049046454
40
0.893160049046454
40
0.967873337652861
40
0.967873337652861
40
1
40
1
40
1
40
1
41
1
10
41.3106825431296
20
-3.29106334453837
30
2E-16
41
1
10
40.9189347375091
20
-3.45521711921893
30
2E-16
41
1
10
40.5291176920891
20
-3.6083072722511
30
2E-16
41
1
10
39.71253559108
20
-3.90480722984114
30
-2E-16
41
1
10
39.2863888464552
20
-4.04616773300324
30
-2E-16
41
1
10
38.4341534825603
20
-4.29792299310068
30
-2E-16
41
1
10
38.0081113324046
20
-4.40842674929971
30
-2E-16
41
1
10
37.1547158110161
20
-4.59727006878543
30
1E-16
41
1
10
36.7269466708566
20
-4.67529823638415
30
1E-16
41
1
10
35.8673598547355
20
-4.79691825793577
30
0
41
1
10
35.4343938464868
20
-4.84054867377682
30
0
41
1
10
34.5746007610655
20
-4.8907490778538
30
0
41
1
10
34.1467878545906
20
-4.89771764539154
30
0
41
1
10
33.2932008400558
20
-4.87596385150269
30
0
41
1
10
32.8670954739305
20
-4.84730094023746
30
0
41
1
10
32.0149320513123
20
-4.75491747689463
30
1E-16
41
1
10
31.5887883834261
20
-4.69115721630226
30
1E-16
41
1
10
30.7334689190347
20
-4.52961346300435
30
1E-16
41
1
10
30.3046745579205
20
-4.43160818167112
30
-2E-16
41
1
10
29.6577185058418
20
-4.25951973069348
30
-2E-16
41
1
10
29.4413841476647
20
-4.19796504700133
30
-2E-16
41
1
10
29.0106687720675
20
-4.06782052934116
30
-2E-16
41
1
10
28.795886229852
20
-3.99907986957558
30
-2E-16
41
1
10
28.1530401225537
20
-3.78217874743629
30
-2E-16
41
1
10
27.7260905587935
20
-3.62375441032694
30
2E-16
41
1
10
26.8730406922988
20
-3.28257819084305
30
2E-16
41
1
10
26.4473558613866
20
-3.09926925845304
30
2E-16
41
1
10
25.594479607375
20
-2.71153214087417
30
2E-16
41
1
10
25.1673516672403
20
-2.50706144349135
30
2E-16
41
1
10
24.5244889365267
20
-2.18589624330105
30
1E-16
41
1
10
24.3097489746928
20
-2.07657376194561
30
1E-16
41
1
10
23.8790774103072
20
-1.85381039594262
30
1E-16
41
1
10
23.6626800904995
20
-1.74017450646866
30
1E-16
41
1
10
23.0153924674126
20
-1.39548825934708
30
1E-16
41
1
10
22.586587330628
20
-1.16049950460638
30
1E-16
41
1
10
21.7310533972305
20
-0.686194746055946
30
0
41
1
10
21.3046049522595
20
-0.446374468796932
30
0
41
1
10
20.4522202559883
20
0.0347637292334753
30
0
41
1
10
20.0259545059712
20
0.275485909633773
30
0
41
1
10
19.1720111188411
20
0.754951148243009
30
0
41
1
10
18.7442180978206
20
0.993486487340931
30
-1E-16
41
1
10
17.8840565173331
20
1.46285673430503
30
-1E-16
41
1
10
17.4507392794463
20
1.69506725347506
30
-1E-16
41
1
10
16.5907081421854
20
2.14124925777958
30
-1E-16
41
1
10
16.1625192556069
20
2.35574450888635
30
-1E-16
41
1
10
15.308587207528
20
2.76601529226923
30
-2E-16
41
1
10
14.8824640781726
20
2.96116842536736
30
-2E-16
41
1
10
14.0295991769925
20
3.32835333841618
30
-2E-16
41
1
10
13.6032742035255
20
3.50093571965698
30
-2E-16
41
1
10
12.7475969826145
20
3.81959942848596
30
2E-16
41
1
10
12.3183381321535
20
3.96584314474544
30
2E-16
41
1
10
11.6710993214187
20
4.16370958735754
30
2E-16
41
1
10
11.4546870740237
20
4.22596717359357
30
2E-16
41
1
10
11.0238731594959
20
4.3418501696051
30
2E-16
41
1
10
10.8090033675465
20
4.39560591582702
30
2E-16
41
1
10
9.73694187052109
20
4.64348791689622
30
-1E-16
41
1
10
8.88658205259563
20
4.77477027182977
30
-1E-16
41
1
10
7.66778381808322
20
4.86175590733433
30
0
41
1
10
7.30087052940675
20
4.87490398990354
30
0
41
1
10
6.93298946129576
20
4.87482141191438
30
0
0
SPLINE
5
F1
100
AcDbEntity
8
1
62
256
6
ByLayer
370
18
48
1
60
0
100
AcDbSpline
70
4
71
3
72
8
73
4
40
0
40
0
40
0
40
0
40
1
40
1
40
1
40
1
41
1
10
21.6
20
4.78335193237143
30
0
41
1
10
21.6
20
4.72905698619329
30
0
41
1
10
21.6
20
4.67413063926531
30
0
41
1
10
21.6
20
4.61858788491682
30
1E-16
0
SPLINE
5
F2
100
AcDbEntity
8
1
62
256
6
ByLayer
370
18
48
1
60
0
100
AcDbSpline
70
4
71
3
72
22
73
18
40
0
40
0
40
0
40
0
40
0.292253471099218
40
0.292253471099218
40
0.438380206648826
40
0.438380206648826
40
0.511443574423631
40
0.511443574423631
40
0.584506942198436
40
0.584506942198436
40
0.730633677748046
40
0.730633677748046
40
0.803697045522852
40
0.803697045522852
40
0.876760413297658
40
0.876760413297658
40
1
40
1
40
1
40
1
41
1
10
9.42349632183036
20
-1.75067207785221
30
1E-16
41
1
10
10.4442142003372
20
-2.2878345007131
30
1E-16
41
1
10
11.4504119584461
20
-2.78046135230355
30
2E-16
41
1
10
12.9600229846125
20
-3.42204936568103
30
2E-16
41
1
10
13.4632211789912
20
-3.61976149124908
30
2E-16
41
1
10
14.2209032720063
20
-3.88817262583163
30
-2E-16
41
1
10
14.4739210198572
20
-3.97297942107389
30
-2E-16
41
1
10
14.9813512954857
20
-4.13261262715432
30
-2E-16
41
1
10
15.2360473745695
20
-4.20749919610677
30
-2E-16
41
1
10
16.0011834627237
20
-4.41569889254669
30
-2E-16
41
1
10
16.509515297745
20
-4.53177158378384
30
1E-16
41
1
10
17.2722639732884
20
-4.67002169660935
30
1E-16
41
1
10
17.5265604833348
20
-4.71012679352629
30
1E-16
41
1
10
18.0357156235045
20
-4.77810442291158
30
1E-16
41
1
10
18.2908367741542
20
-4.80600664643532
30
0
41
1
10
18.9757154024952
20
-4.86399650057425
30
0
41
1
10
19.4045739830886
20
-4.88243079123845
30
0
41
1
10
19.8334018569652
20
-4.88288348782541
30
0
0
SPLINE
5
F3
100
AcDbEntity
8
1
62
256
6
ByLayer
370
18
48
1
60
0
100
AcDbSpline
70
4
71
3
72
10
73
6
40
0
40
0
40
0
40
0
40
0.5
40
0.5
40
1
40
1
40
1
40
1
41
1
10
47.7762403540881
20
1.33438075733031
30
0
41
1
10
47.9105456877064
20
1.35422023740239
30
0
41
1
10
48.0445224807047
20
1.37693912814245
30
0
41
1
10
48.3113708184384
20
1.43057112845474
30
0
41
1
10
48.4437854939989
20
1.46131095967789
30
0
41
1
10
48.5746076254
20
1.49824090054165
30
0
0
SPLINE
5
F4
100
AcDbEntity
8
1
62
256
6
ByLayer
370
18
48
1
60
0
100
AcDbSpline
70
4
71
3
72
38
73
34
40
0
40
0
40
0
40
0
40
0.0625
40
0.0625
40
0.125
40
0.125
40
0.1875
40
0.1875
40
0.25
40
0.25
40
0.3125
40
0.3125
40
0.375
40
0.375
40
0.4375
40
0.4375
40
0.5
40
0.5
40
0.5625
40
0.5625
40
0.625
40
0.625
40
0.6875
40
0.6875
40
0.75
40
0.75
40
0.8125
40
0.8125
40
0.875
40
0.875
40
0.9375
40
0.9375
40
1
40
1
40
1
40
1
41
1
10
21.6
20
4.7988475009837
30
0
41
1
10
22.1294831830191
20
4.74363265951439
30
-1E-16
41
1
10
22.6588202253362
20
4.66136790878684
30
-1E-16
41
1
10
23.717635675879
20
4.44558973810442
30
2E-16
41
1
10
24.2472760031057
20
4.31207928488669
30
2E-16
41
1
10
25.3058036385596
20
3.99845031987922
30
2E-16
41
1
10
25.834796846862
20
3.8183317258719
30
2E-16
41
1
10
26.8935735569925
20
3.41711327204902
30
-2E-16
41
1
10
27.4230995051006
20
3.19614134523252
30
-2E-16
41
1
10
28.4818321768663
20
2.72084425539685
30
-2E-16
41
1
10
29.010758085727
20
2.46664291514713
30
-2E-16
41
1
10
30.0690446086831
20
1.93321580677974
30
-1E-16
41
1
10
30.5987252239004
20
1.65386184810069
30
-1E-16
41
1
10
31.6567147728305
20
1.08053788406173
30
-1E-16
41
1
10
32.1860842741337
20
0.785914527341816
30
0
41
1
10
33.2439169349659
20
0.191450421270105
30
0
41
1
10
33.7735305798414
20
-0.108981265248247
30
0
41
1
10
34.8295616295681
20
-0.703500867434485
30
0
41
1
10
35.3565876538444
20
-0.997979477334667
30
1E-16
41
1
10
36.4128319707957
20
-1.57405241531421
30
1E-16
41
1
10
36.9423676052206
20
-1.85573974657677
30
1E-16
41
1
10
38.0001897025321
20
-2.39457719415489
30
1E-16
41
1
10
38.5293564658349
20
-2.65216281124353
30
2E-16
41
1
10
39.5872286938312
20
-3.13494232557613
30
2E-16
41
1
10
40.1165515704381
20
-3.36042420726602
30
2E-16
41
1
10
41.1747484769622
20
-3.77111082792592
30
-2E-16
41
1
10
41.7033556499119
20
-3.95621280518401
30
-2E-16
41
1
10
42.7616536573915
20
-4.28046107635171
30
-2E-16
41
1
10
43.2908733925677
20
-4.41948969598056
30
-2E-16
41
1
10
44.3493069462326
20
-4.64677978833743
30
1E-16
41
1
10
44.8777265601091
20
-4.73488270101277
30
1E-16
41
1
10
45.9359631225951
20
-4.85747303389519
30
0
41
1
10
46.4648953512894
20
-4.89181778284518
30
0
41
1
10
46.9935800303232
20
-4.89868894365281
30
0
0
SPLINE
5
F5
100
AcDbEntity
8
1
62
256
6
ByLayer
370
18
48
1
60
0
100
AcDbSpline
70
4
71
3
72
68
73
64
40
0
40
0
40
0
40
0
40
0.0459095298753346
40
0.0459095298753346
40
0.0918190597506693
40
0.0918190597506693
40
0.137728589626004
40
0.137728589626004
40
0.160683354563672
40
0.160683354563672
40
0.183638119501339
40
0.183638119501339
40
0.206592884439007
40
0.206592884439007
40
0.229547649376674
40
0.229547649376674
40
0.27545717925201
40
0.27545717925201
40
0.321366709127345
40
0.321366709127345
40
0.344321474065012
40
0.344321474065012
40
0.36727623900268
40
0.36727623900268
40
0.413185768878015
40
0.413185768878015
40
0.436140533815683
40
0.436140533815683
40
0.459095298753351
40
0.459095298753351
40
0.505004828628686
40
0.505004828628686
40
0.527959593566354
40
0.527959593566354
40
0.550914358504022
40
0.550914358504022
40
0.573869123441689
40
0.573869123441689
40
0.596823888379357
40
0.596823888379357
40
0.642733418254692
40
0.642733418254692
40
0.66568818319236
40
0.66568818319236
40
0.688642948130028
40
0.688642948130028
40
0.711597713067695
40
0.711597713067695
40
0.734552478005363
40
0.734552478005363
40
0.757507242943031
40
0.757507242943031
40
0.780462007880698
40
0.780462007880698
40
0.826371537756034
40
0.826371537756034
40
0.918190597506704
40
0.918190597506704
40
0.964100127382039
40
0.964100127382039
40
0.987054892319707
40
0.987054892319707
40
1
40
1
40
1
40
1
41
1
10
3.65102731693105
20
4.74098952304578
30
-1E-16
41
1
10
4.09841006979278
20
4.79980743746938
30
0
41
1
10
4.54563403203875
20
4.83901317023179
30
0
41
1
10
5.44114499094738
20
4.87869352474499
30
0
41
1
10
5.8895554569533
20
4.87907652857837
30
0
41
1
10
6.78458580291741
20
4.84069915795155
30
0
41
1
10
7.23183997638441
20
4.80207421729654
30
0
41
1
10
7.9039806169495
20
4.71543010564073
30
-1E-16
41
1
10
8.12820111653531
20
4.6817767781788
30
-1E-16
41
1
10
8.57573767878299
20
4.60509760337894
30
-1E-16
41
1
10
8.79921909565996
20
4.56203066111399
30
-1E-16
41
1
10
9.24646218410916
20
4.46697199451202
30
-1E-16
41
1
10
9.4702329489204
20
4.41500192854582
30
2E-16
41
1
10
9.91819859071435
20
4.30231443782364
30
2E-16
41
1
10
10.1425625512576
20
4.24154018035648
30
2E-16
41
1
10
10.8143058362602
20
4.04691343504925
30
2E-16
41
1
10
11.2604448999337
20
3.90018129746048
30
2E-16
41
1
10
12.1533900956268
20
3.57687572892624
30
-2E-16
41
1
10
12.6010108432596
20
3.40105367892286
30
-2E-16
41
1
10
13.2734360448414
20
3.11665595915096
30
-2E-16
41
1
10
13.4971551388196
20
3.01867244571355
30
-2E-16
41
1
10
13.9438794422553
20
2.81649957921081
30
-2E-16
41
1
10
14.166838695328
20
2.71223124687046
30
-2E-16
41
1
10
14.8363105824283
20
2.39255266804079
30
-1E-16
41
1
10
15.2835669897583
20
2.17060443831167
30
-1E-16
41
1
10
15.9556910395781
20
1.82425533551708
30
-1E-16
41
1
10
16.1799514750706
20
1.70663296700425
30
-1E-16
41
1
10
16.6270601040169
20
1.46791900806483
30
-1E-16
41
1
10
16.8500988766017
20
1.34662602835124
30
-1E-16
41
1
10
17.5197736075243
20
0.980554290659512
30
-1E-16
41
1
10
17.9662625391794
20
0.732394168502196
30
0
41
1
10
18.6373789843664
20
0.356326595469625
30
0
41
1
10
18.8616332793742
20
0.23035105449523
30
0
41
1
10
19.3095267908517
20
-0.0217018200096391
30
0
41
1
10
19.5330870621759
20
-0.147813858690086
30
0
41
1
10
19.9798687919182
20
-0.399433168469813
30
0
41
1
10
20.2031330986929
20
-0.52486524937666
30
0
41
1
10
20.6494251233703
20
-0.774940879518937
30
0
41
1
10
20.8723355300011
20
-0.899787292139422
30
1E-16
41
1
10
21.5426275735516
20
-1.26977003621957
30
1E-16
41
1
10
21.9916888877773
20
-1.51199410908904
30
1E-16
41
1
10
22.6625990105297
20
-1.86479013704687
30
1E-16
41
1
10
22.8859391468218
20
-1.9807016885965
30
1E-16
41
1
10
23.3320888761833
20
-2.20900450514583
30
1E-16
41
1
10
23.5549653057045
20
-2.32127697194653
30
1E-16
41
1
10
24.0014764881098
20
-2.54025594467785
30
2E-16
41
1
10
24.2250568074109
20
-2.64705876597424
30
2E-16
41
1
10
24.672847817677
20
-2.85534267399396
30
2E-16
41
1
10
24.8972012865968
20
-2.95689677677689
30
2E-16
41
1
10
25.3447525040614
20
-3.15381183518392
30
2E-16
41
1
10
25.5681497332451
20
-3.24926530754718
30
2E-16
41
1
10
26.0142901155969
20
-3.43396138853762
30
2E-16
41
1
10
26.2371308011994
20
-3.52306015894385
30
2E-16
41
1
10
26.9066647874822
20
-3.77856007743242
30
-2E-16
41
1
10
27.3543657854305
20
-3.93385852003553
30
-2E-16
41
1
10
28.6986361587693
20
-4.35275494469633
30
-2E-16
41
1
10
29.5873031023985
20
-4.56685753872566
30
1E-16
41
1
10
30.930749027505
20
-4.77385559697225
30
1E-16
41
1
10
31.3786147043324
20
-4.82382061902336
30
0
41
1
10
32.0484348918709
20
-4.8699052632445
30
0
41
1
10
32.2715348209316
20
-4.8804595374819
30
0
41
1
10
32.6202052350721
20
-4.88932724184826
30
0
41
1
10
32.7459381770919
20
-4.89095876606044
30
0
41
1
10
32.8717835885058
20
-4.89102979324971
30
0
0
SPLINE
5
F6
100
AcDbEntity
8
1
62
256
6
ByLayer
370
18
48
1
60
0
100
AcDbSpline
70
4
71
3
72
10
73
6
40
0
40
0
40
0
40
0
40
0.5
40
0.5
40
1
40
1
40
1
40
1
41
1
10
46.9758279220339
20
-4.83375480283817
30
0
41
1
10
46.9789322473824
20
-4.85269908337492
30
0
41
1
10
46.9818954509858
20
-4.86763382131954
30
0
41
1
10
46.987753552764
20
-4.88934726757876
30
0
41
1
10
46.9906594245694
20
-4.89613045807258
30
0
41
1
10
46.9935800303107
20
-4.89868894365284
30
0
0
SPLINE
5
F7
100
AcDbEntity
8
1
62
256
6
ByLayer
370
18
48
1
60
0
100
AcDbSpline
70
2053
71
3
72
60
73
56
40
0
40
0
40
0
40
0
40
0.0625000000000006
40
0.0625000000000006
40
0.125000000000001
40
0.125000000000001
40
0.187500000000001
40
0.187500000000001
40
0.250000000000002
40
0.250000000000002
40
0.281250000000002
40
0.281250000000002
40
0.312500000000002
40
0.312500000000002
40
0.343750000000001
40
0.343750000000001
40
0.375000000000001
40
0.375000000000001
40
0.406250000000001
40
0.406250000000001
40
0.437500000000001
40
0.437500000000001
40
0.46875
40
0.46875
40
0.5
40
0.5
40
0.53125
40
0.53125
40
0.5625
40
0.5625
40
0.59375
40
0.59375
40
0.625
40
0.625
40
0.656249999999999
40
0.656249999999999
40
0.687499999999999
40
0.687499999999999
40
0.718749999999999
40
0.718749999999999
40
0.749999999999999
40
0.749999999999999
40
0.781249999999999
40
0.781249999999999
40
0.812499999999999
40
0.812499999999999
40
0.843749999999998
40
0.843749999999998
40
0.874999999999998
40
0.874999999999998
40
0.937500000000001
40
0.937500000000001
40
0.96875
40
0.96875
40
1
40
1
40
1
40
1
41
1
10
47.7627023738199
20
-1.86104179815162
30
-1E-16
41
1
10
47.7287585119673
20
-1.89893952040151
30
-1E-16
41
1
10
47.697048335849
20
-1.92240972703544
30
-1E-16
41
1
10
47.63663468314
20
-1.94152745859355
30
-1E-16
41
1
10
47.6095174589676
20
-1.93661837042498
30
1E-16
41
1
10
47.5600606816635
20
-1.89714481942315
30
1E-16
41
1
10
47.5389931506006
20
-1.86361753534661
30
1E-16
41
1
10
47.5036872703568
20
-1.76726540717141
30
1E-16
41
1
10
47.4903631115356
20
-1.70700767148691
30
1E-16
41
1
10
47.4780898213222
20
-1.59736253186699
30
1E-16
41
1
10
47.4754643873133
20
-1.5587075719742
30
1E-16
41
1
10
47.4734094017396
20
-1.4776133686313
30
1E-16
41
1
10
47.4740006222581
20
-1.43453266798261
30
1E-16
41
1
10
47.4789806114913
20
-1.34655446686577
30
1E-16
41
1
10
47.4832859066584
20
-1.30235312663873
30
1E-16
41
1
10
47.4959425761383
20
-1.21355273235969
30
1E-16
41
1
10
47.5043937327972
20
-1.16887227759719
30
1E-16
41
1
10
47.5247779476476
20
-1.08441227340057
30
1E-16
41
1
10
47.5369681476157
20
-1.04347242864202
30
1E-16
41
1
10
47.5643789051839
20
-0.967662879334284
30
1E-16
41
1
10
47.5794539939887
20
-0.932986244476552
30
1E-16
41
1
10
47.6122263564498
20
-0.869596635644029
30
1E-16
41
1
10
47.6296266300169
20
-0.841521249313814
30
1E-16
41
1
10
47.6655745217082
20
-0.792736975686211
30
0
41
1
10
47.6843835411291
20
-0.771727811554882
30
0
41
1
10
47.7221030945288
20
-0.737306829241334
30
0
41
1
10
47.741079639029
20
-0.723739092222132
30
0
41
1
10
47.7791252743287
20
-0.703306304690187
30
0
41
1
10
47.7981603173371
20
-0.696524305909293
30
0
41
1
10
47.8350506476148
20
-0.689731546927646
30
0
41
1
10
47.8530551222856
20
-0.689632332798709
30
0
41
1
10
47.8880173370503
20
-0.695989763254858
30
0
41
1
10
47.9049493450548
20
-0.70251334396616
30
0
41
1
10
47.9364821734423
20
-0.721852800130478
30
0
41
1
10
47.9512317885992
20
-0.734677401956645
30
0
41
1
10
47.9784146813222
20
-0.767046268476349
30
0
41
1
10
47.9909388850737
20
-0.786834493788177
30
0
41
1
10
48.0123945355269
20
-0.832624184955904
30
1E-16
41
1
10
48.0214203331119
20
-0.858633487281651
30
1E-16
41
1
10
48.0355942277823
20
-0.917670035602043
30
1E-16
41
1
10
48.0406714997902
20
-0.950767149192075
30
1E-16
41
1
10
48.0459680492593
20
-1.02178633822615
30
1E-16
41
1
10
48.0462517721162
20
-1.06055423270286
30
1E-16
41
1
10
48.0417137980628
20
-1.14187835364919
30
1E-16
41
1
10
48.0369904890278
20
-1.18387406773041
30
1E-16
41
1
10
48.0227373335341
20
-1.27066655303577
30
1E-16
41
1
10
48.0131779116285
20
-1.31520734302134
30
1E-16
41
1
10
47.9906090322556
20
-1.40203737326507
30
1E-16
41
1
10
47.9773050535374
20
-1.44547840567958
30
1E-16
41
1
10
47.9341093522185
20
-1.56924659921358
30
1E-16
41
1
10
47.9004595451737
20
-1.64482278179634
30
1E-16
41
1
10
47.8490056220016
20
-1.73978978046674
30
1E-16
41
1
10
47.831430399009
20
-1.76884095709704
30
1E-16
41
1
10
47.7968557703217
20
-1.81982684484831
30
-1E-16
41
1
10
47.7796743047462
20
-1.84209293702668
30
-1E-16
41
1
10
47.7627023738199
20
-1.86104179815162
30
-1E-16
0
SPLINE
5
F8
100
AcDbEntity
8
1
62
256
6
ByLayer
370
18
48
1
60
0
100
AcDbSpline
70
4
71
3
72
26
73
22
40
0
40
0
40
0
40
0
40
0.0443304216497869
40
0.0443304216497869
40
0.150515930355367
40
0.150515930355367
40
0.362886947766526
40
0.362886947766526
40
0.469072456472104
40
0.469072456472104
40
0.522165210824894
40
0.522165210824894
40
0.575257965177684
40
0.575257965177684
40
0.787628982588842
40
0.787628982588842
40
0.893814491294421
40
0.893814491294421
40
0.94690724564721
40
0.94690724564721
40
1
40
1
40
1
40
1
41
1
10
34.4347465880662
20
0.206910957922787
30
0
41
1
10
34.6259471699816
20
0.104371898972431
30
0
41
1
10
34.8172736402948
20
0.0016047799345813
30
0
41
1
10
35.4643236536943
20
-0.345692731332321
30
0
41
1
10
35.9183418590127
20
-0.588869399255003
30
0
41
1
10
37.2765744190433
20
-1.30649597725446
30
1E-16
41
1
10
38.1770844688816
20
-1.76882744935889
30
1E-16
41
1
10
39.5349080434915
20
-2.41199460018996
30
1E-16
41
1
10
39.9887018946327
20
-2.6179796420565
30
2E-16
41
1
10
40.6730704573962
20
-2.91091944853557
30
2E-16
41
1
10
40.902205491687
20
-3.00606195441799
30
2E-16
41
1
10
41.3600791224378
20
-3.18975259026865
30
2E-16
41
1
10
41.5883086807872
20
-3.27809792052952
30
2E-16
41
1
10
42.7267177103265
20
-3.70138794134203
30
-2E-16
41
1
10
43.6286159788571
20
-3.9805966721849
30
-2E-16
41
1
10
44.9832118553484
20
-4.29766475285729
30
0
41
1
10
45.4350224061788
20
-4.38638310135647
30
0
41
1
10
46.1148982468597
20
-4.49218339075958
30
1E-16
41
1
10
46.3418840351249
20
-4.52290418193232
30
1E-16
41
1
10
46.7968837564207
20
-4.57496843740014
30
-1E-16
41
1
10
47.0249361716707
20
-4.59585787931474
30
-1E-16
41
1
10
47.2535784740363
20
-4.61284778807024
30
-1E-16
0
SPLINE
5
F9
100
AcDbEntity
8
1
62
256
6
ByLayer
370
18
48
1
60
0
100
AcDbSpline
70
4
71
3
72
8
73
4
40
0
40
0
40
0
40
0
40
1
40
1
40
1
40
1
41
1
10
3.65102731693102
20
4.74098952304567
30
-1E-16
41
1
10
3.65073100153117
20
4.70331576167783
30
-1E-16
41
1
10
3.65043212672546
20
4.66564260614655
30
-1E-16
41
1
10
3.65013068249741
20
4.62797007978085
30
-1E-16
0
SPLINE
5
FA
100
AcDbEntity
8
1
62
256
6
ByLayer
370
18
48
1
60
0
100
AcDbSpline
70
4
71
2
72
6
73
3
40
0
40
0
40
0
40
1
40
1
40
1
41
1
10
5.66573417816821
20
4.6299648017787
30
0
41
1
10
4.58368316423162
20
4.63085827110785
30
0
41
1
10
3.50173531719833
20
4.62767613372944
30
0
0
SPLINE
5
FB
100
AcDbEntity
8
1
62
256
6
ByLayer
370
18
48
1
60
0
100
AcDbSpline
70
4
71
1
72
4
73
2
40
0
40
0
40
1
40
1
41
1
10
7.59654448085152
20
0.0015253390281487
30
0
41
1
10
7.59652818881756
20
0.0015335877910445
30
0
0
SPLINE
5
FC
100
AcDbEntity
8
1
62
256
6
ByLayer
370
18
48
1
60
0
100
AcDbSpline
70
4
71
3
72
13
73
9
40
0
40
0
40
0
40
0
40
0.083561612699326
40
0.172942120125398
40
0.323318024293603
40
0.511249715172798
40
0.744359347252142
40
1
40
1
40
1
40
1
41
1
10
47.2404156966955
20
1.0950823378972
30
-1E-16
41
1
10
47.07247423485
20
1.14938311306329
30
-1E-16
41
1
10
46.7254003846401
20
1.26296728889696
30
-1E-16
41
1
10
46.0784056335759
20
1.4800113425591
30
-1E-16
41
1
10
45.2264286987613
20
1.77547170787636
30
-1E-16
41
1
10
44.0940269201503
20
2.18640185552511
30
-1E-16
41
1
10
42.7615014592223
20
2.69603746762778
30
-2E-16
41
1
10
41.807262000841
20
3.08432177171463
30
-2E-16
41
1
10
41.3102966061698
20
3.29285716673488
30
-2E-16
0
SPLINE
5
FD
100
AcDbEntity
8
1
62
256
6
ByLayer
370
18
48
1
60
0
100
AcDbSpline
70
4
71
3
72
28
73
24
40
0
40
0
40
0
40
0
40
4.2020481933E-06
40
1.14407176576E-05
40
1.74254090607E-05
40
3.65293919811E-05
40
5.08427630773E-05
40
0.0001539052880553
40
0.0002369990605736
40
0.0003891269637157
40
0.0006729810319285
40
0.0012199971848843
40
0.0023303121828113
40
0.0263938914050871
40
0.0908288056582626
40
0.160772438023706
40
0.22865491408491
40
0.31579921181789
40
0.398836330667823
40
0.4940219536054
40
0.629241539111506
40
0.80501292675359
40
1
40
1
40
1
40
1
41
1
10
23.0323675380679
20
0.197431732163636
30
0
41
1
10
23.0323712745074
20
0.197430989291149
30
0
41
1
10
23.0323803601157
20
0.197429271593478
30
0
41
1
10
23.0323887744299
20
0.197428174226928
30
0
41
1
10
23.0323715960756
20
0.197435064012041
30
0
41
1
10
23.0323333527204
20
0.197448079310845
30
0
41
1
10
23.032104201726
20
0.197518259425891
30
0
41
1
10
23.0315772558162
20
0.197668999063893
30
0
41
1
10
23.0308341480053
20
0.197886416941287
30
0
41
1
10
23.0296151130894
20
0.198239175077475
30
0
41
1
10
23.0272776000831
20
0.198912496176234
30
0
41
1
10
23.0224428416944
20
0.200290942334192
30
0
41
1
10
22.954574071286
20
0.219371214687612
30
0
41
1
10
22.6784487335493
20
0.294876603256881
30
0
41
1
10
22.2068702529408
20
0.42976104156304
30
0
41
1
10
21.5957535274879
20
0.609414388641198
30
0
41
1
10
20.9193055656519
20
0.81536129514086
30
0
41
1
10
20.2036905550968
20
1.04026334118828
30
-1E-16
41
1
10
19.412319866385
20
1.29874726691236
30
-1E-16
41
1
10
18.4847407657796
20
1.61367122481661
30
-1E-16
41
1
10
17.2864043033996
20
2.03975577380743
30
-1E-16
41
1
10
15.8041729806952
20
2.59871745734833
30
-2E-16
41
1
10
14.728248420158
20
3.03451136065416
30
-2E-16
41
1
10
14.1651361077892
20
3.27080970761642
30
-2E-16
0
SPLINE
5
FE
100
AcDbEntity
8
1
62
256
6
ByLayer
370
18
48
1
60
0
100
AcDbSpline
70
4
71
3
72
24
73
20
40
0
40
0
40
0
40
0
40
0.0915606800702721
40
0.158534705608407
40
0.203031773579711
40
0.250638600688194
40
0.308986107311791
40
0.369376723820662
40
0.422911200678824
40
0.525539456359099
40
0.609129149831632
40
0.67233942398007
40
0.695224035302025
40
0.723812584936069
40
0.780262624626456
40
0.85707781868415
40
0.916103827029125
40
0.95627988348512
40
1
40
1
40
1
40
1
41
1
10
21.1988972719179
20
-4.63869974244861
30
0
41
1
10
21.473708543822
20
-4.63892226358712
30
0
41
1
10
21.9495287388772
20
-4.63922276314307
30
0
41
1
10
22.5590008399926
20
-4.63919185336795
30
0
41
1
10
23.0363677344902
20
-4.63936103808959
30
0
41
1
10
23.4878607259925
20
-4.63991771404338
30
0
41
1
10
23.9871890298113
20
-4.64059284190918
30
0
41
1
10
24.5042890361367
20
-4.64054450990028
30
0
41
1
10
25.1541581005313
20
-4.64010331508209
30
0
41
1
10
25.8726537661955
20
-4.64022777086709
30
0
41
1
10
26.6207497577298
20
-4.64174776211624
30
0
41
1
10
27.1302544228203
20
-4.64101607929538
30
0
41
1
10
27.4743306851496
20
-4.64092440172706
30
0
41
1
10
27.7970147024889
20
-4.64098192592363
30
0
41
1
10
28.281480235191
20
-4.64084743572388
30
0
41
1
10
28.8562832566994
20
-4.64212695649832
30
0
41
1
10
29.3851227520936
20
-4.64205658788995
30
0
41
1
10
29.8131686978903
20
-4.64333288410117
30
0
41
1
10
30.0644227045996
20
-4.64373685945068
30
0
41
1
10
30.1954642507265
20
-4.64384119662361
30
0
0
SPLINE
5
FF
100
AcDbEntity
8
1
62
256
6
ByLayer
370
18
48
1
60
0
100
AcDbSpline
70
4
71
3
72
22
73
18
40
0
40
0
40
0
40
0
40
0.117136318947808
40
0.211815715919125
40
0.284116244761042
40
0.343545972649199
40
0.383987692405759
40
0.44340400894868
40
0.520727141808411
40
0.577550456159975
40
0.606328046957437
40
0.629363982274629
40
0.692992232987741
40
0.777134661492526
40
0.880441544284071
40
0.943981478971916
40
1
40
1
40
1
40
1
41
1
10
32.8706822664791
20
4.64491476348121
30
0
41
1
10
32.5220878082861
20
4.64290597359644
30
0
41
1
10
31.8915281591816
20
4.64063795391053
30
0
41
1
10
31.0471334335033
20
4.64337660898448
30
0
41
1
10
30.3712818837439
20
4.64416476556096
30
0
41
1
10
29.8590491052985
20
4.64346968480641
30
0
41
1
10
29.3851227520832
20
4.64205658790951
30
0
41
1
10
28.8562832567678
20
4.64212695636937
30
0
41
1
10
28.281480234892
20
4.64084743628698
30
0
41
1
10
27.7970147031157
20
4.64098192474287
30
0
41
1
10
27.4743306841294
20
4.64092440364868
30
0
41
1
10
27.1302544280471
20
4.64101606945016
30
0
41
1
10
26.62074968767
20
4.64174789407926
30
0
41
1
10
25.8726541446484
20
4.64022705802125
30
0
41
1
10
25.1254229137124
20
4.64010108905691
30
0
41
1
10
24.4609534046136
20
4.6405784902567
30
0
41
1
10
24.1044404635616
20
4.64054377082675
30
0
41
1
10
23.9373940192248
20
4.64043360714177
30
0
0
LINE
5
84
100
AcDbEntity
8
SK1
62
256
6
ByLayer
370
18
48
1
60
0
100
AcDbLine
10
0
20
5
30
0
11
0
21
-5
31
0
39
0
210
0
220
0
230
1
0
LINE
5
86
100
AcDbEntity
8
SK1
62
256
6
ByLayer
370
18
48
1
60
0
100
AcDbLine
10
-38.66
20
-5
30
0
11
-38.66
21
5
31
0
39
0
210
0
220
0
230
1
0
LINE
5
87
100
AcDbEntity
8
SK1
62
256
6
ByLayer
370
18
48
1
60
0
100
AcDbLine
10
-40
20
1.414459
30
0
11
-40
21
1.705031
31
0
39
0
210
0
220
0
230
1
0
LINE
5
88
100
AcDbEntity
8
SK1
62
256
6
ByLayer
370
18
48
1
60
0
100
AcDbLine
10
-40
20
1.705031
30
0
11
-40
21
3.66
31
0
39
0
210
0
220
0
230
1
0
LINE
5
89
100
AcDbEntity
8
SK1
62
256
6
ByLayer
370
18
48
1
60
0
100
AcDbLine
10
-39.35
20
0.815037
30
0
11
-39.35
21
1.183036
31
0
39
0
210
0
220
0
230
1
0
LINE
5
8A
100
AcDbEntity
8
SK1
62
256
6
ByLayer
370
18
48
1
60
0
100
AcDbLine
10
-39.517949
20
0.822624
30
0
11
-39.517949
21
1.175449
31
0
39
0
210
0
220
0
230
1
0
LINE
5
8B
100
AcDbEntity
8
SK1
62
256
6
ByLayer
370
18
48
1
60
0
100
AcDbLine
10
-40
20
-3.66
30
0
11
-40
21
-1.414459
31
0
39
0
210
0
220
0
230
1
0
LINE
5
8C
100
AcDbEntity
8
SK1
62
256
6
ByLayer
370
18
48
1
60
0
100
AcDbLine
10
-39.25
20
-0.709656
30
0
11
-39.25
21
1.088609
31
0
39
0
210
0
220
0
230
1
0
LINE
5
8D
100
AcDbEntity
8
1
62
256
6
ByLayer
370
18
48
1
60
0
100
AcDbLine
10
3.501735
20
-4.760241
30
0
11
3.501735
21
-4.872677
31
0
39
0
210
0
220
0
230
1
0
LINE
5
8E
100
AcDbEntity
8
1
62
256
6
ByLayer
370
18
48
1
60
0
100
AcDbLine
10
0.147255
20
4.935336
30
0
11
0.147255
21
0
31
0
39
0
210
0
220
0
230
1
0
LINE
5
8F
100
AcDbEntity
8
1
62
256
6
ByLayer
370
18
48
1
60
0
100
AcDbLine
10
0.147255
20
0
30
0
11
0.147255
21
-4.935336
31
0
39
0
210
0
220
0
230
1
0
LINE
5
90
100
AcDbEntity
8
1
62
256
6
ByLayer
370
18
48
1
60
0
100
AcDbLine
10
48.931669
20
0.058988
30
0
11
47.77624
21
1.334381
31
0
39
0
210
0
220
0
230
1
0
LINE
5
91
100
AcDbEntity
8
1
62
256
6
ByLayer
370
18
48
1
60
0
100
AcDbLine
10
0.294635
20
4.870673
30
0
11
0.294635
21
0
31
0
39
0
210
0
220
0
230
1
0
LINE
5
92
100
AcDbEntity
8
1
62
256
6
ByLayer
370
18
48
1
60
0
100
AcDbLine
10
0.294635
20
0
30
0
11
0.294635
21
-4.870673
31
0
39
0
210
0
220
0
230
1
0
LINE
5
93
100
AcDbEntity
8
1
62
256
6
ByLayer
370
18
48
1
60
0
100
AcDbLine
10
0
20
5
30
0
11
0
21
0
31
0
39
0
210
0
220
0
230
1
0
LINE
5
94
100
AcDbEntity
8
1
62
256
6
ByLayer
370
18
48
1
60
0
100
AcDbLine
10
0
20
0
30
0
11
0
21
-5
31
0
39
0
210
0
220
0
230
1
0
LINE
5
95
100
AcDbEntity
8
1
62
256
6
ByLayer
370
18
48
1
60
0
100
AcDbLine
10
21.6
20
4.798848
30
0
11
21.6
21
4.783352
31
0
39
0
210
0
220
0
230
1
0
LINE
5
96
100
AcDbEntity
8
1
62
256
6
ByLayer
370
18
48
1
60
0
100
AcDbLine
10
3.501735
20
4.872677
30
0
11
3.501735
21
2.272699
31
0
39
0
210
0
220
0
230
1
0
LINE
5
97
100
AcDbEntity
8
SK1
62
256
6
ByLayer
370
18
48
1
60
0
100
AcDbLine
10
-40
20
-3.66
30
0
11
-38.66
21
-5
31
0
39
0
210
0
220
0
230
1
0
LINE
5
98
100
AcDbEntity
8
SK1
62
256
6
ByLayer
370
18
48
1
60
0
100
AcDbLine
10
-38.66
20
5
30
0
11
-40
21
3.66
31
0
39
0
210
0
220
0
230
1
0
LINE
5
99
100
AcDbEntity
8
SK1
62
256
6
ByLayer
370
18
48
1
60
0
100
AcDbLine
10
-38.66
20
-5
30
0
11
0
21
-5
31
0
39
0
210
0
220
0
230
1
0
LINE
5
9A
100
AcDbEntity
8
SK1
62
256
6
ByLayer
370
18
48
1
60
0
100
AcDbLine
10
0
20
5
30
0
11
-38.66
21
5
31
0
39
0
210
0
220
0
230
1
0
LINE
5
9B
100
AcDbEntity
8
1
62
256
6
ByLayer
370
18
48
1
60
0
100
AcDbLine
10
0.294635
20
-4.870673
30
0
11
3.501735
21
-4.872677
31
0
39
0
210
0
220
0
230
1
0
LINE
5
9C
100
AcDbEntity
8
1
62
256
6
ByLayer
370
18
48
1
60
0
100
AcDbLine
10
5.668307
20
-4.874031
30
0
11
6.926907
21
-4.874818
31
0
39
0
210
0
220
0
230
1
0
LINE
5
9D
100
AcDbEntity
8
1
62
256
6
ByLayer
370
18
48
1
60
0
100
AcDbLine
10
19.840006
20
-4.882889
30
0
11
21.198612
21
-4.883738
31
0
39
0
210
0
220
0
230
1
0
LINE
5
9E
100
AcDbEntity
8
1
62
256
6
ByLayer
370
18
48
1
60
0
100
AcDbLine
10
32.872239
20
-4.891034
30
0
11
34.099854
21
-4.891801
31
0
39
0
210
0
220
0
230
1
0
LINE
5
9F
100
AcDbEntity
8
1
62
256
6
ByLayer
370
18
48
1
60
0
100
AcDbLine
10
34.099854
20
4.891801
30
0
11
32.872239
21
4.891034
31
0
39
0
210
0
220
0
230
1
0
LINE
5
A0
100
AcDbEntity
8
1
62
256
6
ByLayer
370
18
48
1
60
0
100
AcDbLine
10
21.198612
20
4.883738
30
0
11
19.840006
21
4.882889
31
0
39
0
210
0
220
0
230
1
0
LINE
5
A1
100
AcDbEntity
8
1
62
256
6
ByLayer
370
18
48
1
60
0
100
AcDbLine
10
6.926907
20
4.874818
30
0
11
5.668307
21
4.874031
31
0
39
0
210
0
220
0
230
1
0
LINE
5
A2
100
AcDbEntity
8
1
62
256
6
ByLayer
370
18
48
1
60
0
100
AcDbLine
10
3.501735
20
4.872677
30
0
11
0.294635
21
4.870673
31
0
39
0
210
0
220
0
230
1
0
LINE
5
A3
100
AcDbEntity
8
SK4
62
256
6
ByLayer
370
18
48
0.05
60
0
100
AcDbLine
10
54
20
0
30
0
11
-45
21
0
31
0
39
0
210
0
220
0
230
1
0
LINE
5
A5
100
AcDbEntity
8
4
62
256
6
ByLayer
370
18
48
0.05
60
0
100
AcDbLine
10
-40
20
0
30
0
11
54
21
0
31
0
39
0
210
0
220
0
230
1
0
LINE
5
A7
100
AcDbEntity
8
80
62
256
6
ByLayer
370
18
48
1
60
0
100
AcDbLine
10
0
20
0
30
0
11
-6
21
0
31
0
39
0
210
0
220
0
230
1
0
LINE
5
A8
100
AcDbEntity
8
81
62
256
6
ByLayer
370
18
48
1
60
0
100
AcDbLine
10
49
20
0
30
0
11
55
21
0
31
0
39
0
210
0
220
0
230
1
0
LINE
5
A9
100
AcDbEntity
8
SK2
62
256
6
ByLayer
370
13
48
1
60
0
100
AcDbLine
10
49.542969
20
1.491758
30
0
11
56.926497
21
21.777311
31
0
39
0
210
0
220
0
230
1
0
LINE
5
AB
100
AcDbEntity
8
SK2
62
256
6
ByLayer
370
13
48
1
60
0
100
AcDbLine
10
49.542969
20
-1.491758
30
0
11
56.926497
21
-21.777311
31
0
39
0
210
0
220
0
230
1
0
LINE
5
AC
100
AcDbEntity
8
1
62
256
6
ByLayer
370
13
48
1
60
0
100
AcDbLine
10
55.840558
20
18.793796
30
0
11
58.937142
21
17.977398
31
0
39
0
210
0
220
0
230
1
0
LINE
5
AD
100
AcDbEntity
8
1
62
256
6
ByLayer
370
13
48
1
60
0
100
AcDbLine
10
55.840558
20
18.793796
30
0
11
58.620332
21
17.20376
31
0
39
0
210
0
220
0
230
1
0
LINE
5
AE
100
AcDbEntity
8
1
62
256
6
ByLayer
370
13
48
1
60
0
100
AcDbLine
10
58.937142
20
17.977398
30
0
11
58.620332
21
17.20376
31
0
39
0
210
0
220
0
230
1
0
LINE
5
AF
100
AcDbEntity
8
1
62
256
6
ByLayer
370
13
48
1
60
0
100
AcDbLine
10
55.840558
20
-18.793796
30
0
11
58.620329
21
-17.203761
31
0
39
0
210
0
220
0
230
1
0
LINE
5
B0
100
AcDbEntity
8
1
62
256
6
ByLayer
370
13
48
1
60
0
100
AcDbLine
10
55.840558
20
-18.793796
30
0
11
58.937145
21
-17.977397
31
0
39
0
210
0
220
0
230
1
0
LINE
5
B1
100
AcDbEntity
8
1
62
256
6
ByLayer
370
13
48
1
60
0
100
AcDbLine
10
58.620329
20
-17.203761
30
0
11
58.937145
21
-17.977397
31
0
39
0
210
0
220
0
230
1
0
MTEXT
5
100
100
AcDbEntity
8
SK2
62
256
6
ByLayer
370
18
48
1
60
0
100
AcDbMText
10
62.717388
20
-2.467451
30
0
210
0
220
0
230
1
1
\W0.7237;140.00
40
3.50012
41
0
44
1.084337
50
0
71
7
72
5
7
iso_b_vert
0
MTEXT
5
103
100
AcDbEntity
8
SK6
62
256
6
ByLayer
370
18
48
1
60
0
100
AcDbMText
10
-34.08132
20
-53.724971
30
0
210
0
220
0
230
1
1
\W0.7454;860.1-0980-030A1-GM X1BM
40
3.175
41
0
44
1.084337
50
0
71
7
72
5
7
iso_b_vert
0
DIMENSION
5
106
100
AcDbEntity
8
SK2
62
256
6
ByLayer
370
18
48
1
60
0
100
AcDbDimension
2
_U0
10
49
20
-28.50012
30
0
11
24.5
21
-28.50012
31
0
70
32
71
2
72
1
41
1
210
0
220
0
230
1
3
Standard
100
AcDbAlignedDimension
13
0
23
-5
33
0
14
49
24
0
34
0
50
0
100
AcDbRotatedDimension
1001
ACAD
1000
DSTYLE
1002
{
1070
   371
1070
    13
1070
   372
1070
    13
1070
     3
1000

1070
   170
1070
     0
1070
   144
1040
1.0
1070
   277
1070
     2
1070
   284
1070
     8
1070
   278
1070
    46
1070
   146
1040
0.999966
1070
   345
1005
16
1070
   347
1005
16
1070
   346
1005
16
1070
   344
1005
107
1070
   343
1005
107
1070
   172
1070
     1
1070
    76
1070
     0
1070
    75
1070
     0
1070
   282
1070
     0
1070
   281
1070
     0
1070
    71
1070
     0
1070
    74
1070
     0
1070
   279
1070
     0
1070
   173
1070
     1
1070
   340
1005
101
1070
   271
1070
     1
1070
   272
1070
     2
1070
    77
1070
     1
1070
    73
1070
     1
1070
   171
1070
     3
1070
   274
1070
     4
1070
   177
1070
   150
1070
   176
1070
     9
1070
   178
1070
    43
1070
    78
1070
     8
1070
    48
1040
-0.1
1070
    41
1040
3.175
1070
   147
1040
1.75006
1070
    42
1040
1.5875
1070
    44
1040
3.175
1070
   140
1040
3.50012
1002
}
1001
ACAD_DSTYLE_DIM_LINETYPE
1070
   380
1005
16
1001
ACAD_DSTYLE_DIM_EXT1_LINETYPE
1070
   381
1005
16
1001
ACAD_DSTYLE_DIM_EXT2_LINETYPE
1070
   382
1005
16
0
DIMENSION
5
12C
100
AcDbEntity
8
2
62
256
6
ByLayer
370
18
48
1
60
0
100
AcDbDimension
2
_U1
10
55.75006
20
4.9
30
0
11
55.75006
21
20.473233
31
0
70
32
71
1
72
1
41
1
210
0
220
0
230
1
3
Standard
100
AcDbAlignedDimension
13
47.2165
23
-4.9
33
0
14
47.2165
24
4.9
34
0
50
90
100
AcDbRotatedDimension
1001
ACAD
1000
DSTYLE
1002
{
1070
   371
1070
    13
1070
   372
1070
    13
1070
     3
1000

1070
   170
1070
     0
1070
   144
1040
1.0
1070
   277
1070
     2
1070
   284
1070
     8
1070
   278
1070
    46
1070
   146
1040
0.999966
1070
   345
1005
16
1070
   347
1005
16
1070
   346
1005
16
1070
   344
1005
107
1070
   343
1005
107
1070
   172
1070
     1
1070
    76
1070
     0
1070
    75
1070
     0
1070
   282
1070
     0
1070
   281
1070
     0
1070
    71
1070
     0
1070
    74
1070
     0
1070
   279
1070
     0
1070
   173
1070
     1
1070
   340
1005
101
1070
   271
1070
     1
1070
   272
1070
     2
1070
    77
1070
     1
1070
    73
1070
     0
1070
   171
1070
     3
1070
   274
1070
     4
1070
   177
1070
   150
1070
   176
1070
     9
1070
   178
1070
    43
1070
    78
1070
     8
1070
    48
1040
-0.1
1070
    41
1040
3.175
1070
   147
1040
1.75006
1070
    42
1040
1.5875
1070
    44
1040
3.175
1070
   140
1040
3.50012
1002
}
1001
ACAD_DSTYLE_DIM_LINETYPE
1070
   380
1005
16
1001
ACAD_DSTYLE_DIM_EXT1_LINETYPE
1070
   381
1005
16
1001
ACAD_DSTYLE_DIM_EXT2_LINETYPE
1070
   382
1005
16
0
DIMENSION
5
14B
100
AcDbEntity
8
SK2
62
256
6
ByLayer
370
18
48
1
60
0
100
AcDbDimension
2
_U2
10
-43.24994
20
-5
30
0
11
-43.24994
21
19.97767
31
0
70
32
71
1
72
1
41
1
210
0
220
0
230
1
3
Standard
100
AcDbAlignedDimension
13
-40
23
5
33
0
14
-40
24
-5
34
0
50
90
100
AcDbRotatedDimension
1001
ACAD
1000
DSTYLE
1002
{
1070
   371
1070
    13
1070
   372
1070
    13
1070
     3
1000

1070
   170
1070
     0
1070
   144
1040
1.0
1070
   277
1070
     2
1070
   284
1070
     8
1070
   278
1070
    46
1070
   146
1040
0.999966
1070
   345
1005
16
1070
   347
1005
16
1070
   346
1005
16
1070
   344
1005
107
1070
   343
1005
107
1070
   172
1070
     1
1070
    76
1070
     0
1070
    75
1070
     0
1070
   282
1070
     0
1070
   281
1070
     0
1070
    71
1070
     0
1070
    74
1070
     0
1070
   279
1070
     0
1070
   173
1070
     1
1070
   340
1005
101
1070
   271
1070
     1
1070
   272
1070
     2
1070
    77
1070
     1
1070
    73
1070
     0
1070
   171
1070
     3
1070
   274
1070
     4
1070
   177
1070
   150
1070
   176
1070
     9
1070
   178
1070
    43
1070
    78
1070
     8
1070
    48
1040
-0.1
1070
    41
1040
3.175
1070
   147
1040
1.75006
1070
    42
1040
1.5875
1070
    44
1040
3.175
1070
   140
1040
3.50012
1002
}
1001
ACAD_DSTYLE_DIM_LINETYPE
1070
   380
1005
16
1001
ACAD_DSTYLE_DIM_EXT1_LINETYPE
1070
   381
1005
16
1001
ACAD_DSTYLE_DIM_EXT2_LINETYPE
1070
   382
1005
16
0
DIMENSION
5
169
100
AcDbEntity
8
SK2
62
256
6
ByLayer
370
18
48
1
60
0
100
AcDbDimension
2
_U3
10
0
20
-28.50012
30
0
11
-20
21
-28.50012
31
0
70
32
71
1
72
1
41
1
210
0
220
0
230
1
3
Standard
100
AcDbAlignedDimension
13
-40
23
-5
33
0
14
0
24
-5
34
0
50
0
100
AcDbRotatedDimension
1001
ACAD
1000
DSTYLE
1002
{
1070
   371
1070
    13
1070
   372
1070
    13
1070
     3
1000

1070
   170
1070
     0
1070
   144
1040
1.0
1070
   277
1070
     2
1070
   284
1070
     8
1070
   278
1070
    46
1070
   146
1040
0.999966
1070
   345
1005
16
1070
   347
1005
16
1070
   346
1005
16
1070
   344
1005
107
1070
   343
1005
107
1070
   172
1070
     1
1070
    76
1070
     0
1070
    75
1070
     0
1070
   282
1070
     0
1070
   281
1070
     0
1070
    71
1070
     0
1070
    74
1070
     0
1070
   279
1070
     0
1070
   173
1070
     1
1070
   340
1005
101
1070
   271
1070
     1
1070
   272
1070
     2
1070
    77
1070
     1
1070
    73
1070
     1
1070
   171
1070
     3
1070
   274
1070
     4
1070
   177
1070
   150
1070
   176
1070
     9
1070
   178
1070
    43
1070
    78
1070
     8
1070
    48
1040
-0.1
1070
    41
1040
3.175
1070
   147
1040
1.75006
1070
    42
1040
1.5875
1070
    44
1040
3.175
1070
   140
1040
3.50012
1002
}
1001
ACAD_DSTYLE_DIM_LINETYPE
1070
   380
1005
16
1001
ACAD_DSTYLE_DIM_EXT1_LINETYPE
1070
   381
1005
16
1001
ACAD_DSTYLE_DIM_EXT2_LINETYPE
1070
   382
1005
16
0
DIMENSION
5
185
100
AcDbEntity
8
SK2
62
256
6
ByLayer
370
18
48
1
60
0
100
AcDbDimension
2
_U4
10
49
20
-19.74982
30
0
11
25.5
21
-19.74982
31
0
70
32
71
1
72
1
41
1
210
0
220
0
230
1
3
Standard
100
AcDbAlignedDimension
13
2
23
5.4
33
0
14
49
24
0
34
0
50
0
100
AcDbRotatedDimension
1001
ACAD
1000
DSTYLE
1002
{
1070
   371
1070
    13
1070
   372
1070
    13
1070
     3
1000

1070
   170
1070
     0
1070
   144
1040
1.0
1070
   277
1070
     2
1070
   284
1070
     8
1070
   278
1070
    46
1070
   146
1040
0.999966
1070
   345
1005
16
1070
   347
1005
16
1070
   346
1005
16
1070
   344
1005
107
1070
   343
1005
107
1070
   172
1070
     1
1070
    76
1070
     0
1070
    75
1070
     0
1070
   282
1070
     0
1070
   281
1070
     0
1070
    71
1070
     0
1070
    74
1070
     0
1070
   279
1070
     0
1070
   173
1070
     1
1070
   340
1005
101
1070
   271
1070
     1
1070
   272
1070
     2
1070
    77
1070
     1
1070
    73
1070
     1
1070
   171
1070
     3
1070
   274
1070
     4
1070
   177
1070
   150
1070
   176
1070
     9
1070
   178
1070
    43
1070
    78
1070
     8
1070
    48
1040
-0.1
1070
    41
1040
3.175
1070
   147
1040
1.75006
1070
    42
1040
1.5875
1070
    44
1040
3.175
1070
   140
1040
3.50012
1002
}
1001
ACAD_DSTYLE_DIM_LINETYPE
1070
   380
1005
16
1001
ACAD_DSTYLE_DIM_EXT1_LINETYPE
1070
   381
1005
16
1001
ACAD_DSTYLE_DIM_EXT2_LINETYPE
1070
   382
1005
16
0
DIMENSION
5
1A1
100
AcDbEntity
8
SK2
62
256
6
ByLayer
370
18
48
1
60
0
100
AcDbDimension
2
_U5
10
49
20
-11.82
30
0
11
33.45
21
-11.82
31
0
70
32
71
1
72
1
41
1
210
0
220
0
230
1
3
Standard
100
AcDbAlignedDimension
13
17.9
23
-4.9
33
0
14
49
24
0
34
0
50
0
100
AcDbRotatedDimension
1001
ACAD
1000
DSTYLE
1002
{
1070
   371
1070
    13
1070
   372
1070
    13
1070
     3
1000

1070
   170
1070
     0
1070
   144
1040
1.0
1070
   277
1070
     2
1070
   284
1070
     8
1070
   278
1070
    46
1070
   146
1040
1.25
1070
   345
1005
16
1070
   347
1005
16
1070
   346
1005
16
1070
   344
1005
107
1070
   343
1005
107
1070
   172
1070
     1
1070
    76
1070
     0
1070
    75
1070
     0
1070
   282
1070
     0
1070
   281
1070
     0
1070
    71
1070
     0
1070
    74
1070
     0
1070
   279
1070
     0
1070
   173
1070
     1
1070
   340
1005
101
1070
   271
1070
     1
1070
   272
1070
     2
1070
    77
1070
     1
1070
    73
1070
     1
1070
   171
1070
     3
1070
   274
1070
     4
1070
   177
1070
   150
1070
   176
1070
     9
1070
   178
1070
    43
1070
    78
1070
     8
1070
    48
1040
-0.1
1070
    41
1040
3.175
1070
   147
1040
0.42
1070
    42
1040
1.5875
1070
    44
1040
0.5
1070
   140
1040
2.8
1002
}
1001
ACAD_DSTYLE_DIM_LINETYPE
1070
   380
1005
16
1001
ACAD_DSTYLE_DIM_EXT1_LINETYPE
1070
   381
1005
16
1001
ACAD_DSTYLE_DIM_EXT2_LINETYPE
1070
   382
1005
16
0
DIMENSION
5
1BD
100
AcDbEntity
8
SK2
62
256
6
ByLayer
370
18
48
1
60
0
100
AcDbDimension
2
_U6
10
49
20
-38.50012
30
0
11
4.5
21
-38.50012
31
0
70
32
71
1
72
1
41
1
210
0
220
0
230
1
3
Standard
100
AcDbAlignedDimension
13
-40
23
0
33
0
14
49
24
0
34
0
50
0
100
AcDbRotatedDimension
1001
ACAD
1000
DSTYLE
1002
{
1070
   371
1070
    13
1070
   372
1070
    13
1070
     3
1000

1070
   170
1070
     0
1070
   144
1040
1.0
1070
   277
1070
     2
1070
   284
1070
     8
1070
   278
1070
    46
1070
   146
1040
0.999966
1070
   345
1005
16
1070
   347
1005
16
1070
   346
1005
16
1070
   344
1005
107
1070
   343
1005
107
1070
   172
1070
     1
1070
    76
1070
     0
1070
    75
1070
     0
1070
   282
1070
     0
1070
   281
1070
     0
1070
    71
1070
     0
1070
    74
1070
     0
1070
   279
1070
     0
1070
   173
1070
     1
1070
   340
1005
101
1070
   271
1070
     1
1070
   272
1070
     2
1070
    77
1070
     1
1070
    73
1070
     1
1070
   171
1070
     3
1070
   274
1070
     4
1070
   177
1070
   150
1070
   176
1070
     9
1070
   178
1070
    43
1070
    78
1070
     8
1070
    48
1040
-0.1
1070
    41
1040
3.175
1070
   147
1040
1.75006
1070
    42
1040
1.5875
1070
    44
1040
3.175
1070
   140
1040
3.50012
1002
}
1001
ACAD_DSTYLE_DIM_LINETYPE
1070
   380
1005
16
1001
ACAD_DSTYLE_DIM_EXT1_LINETYPE
1070
   381
1005
16
1001
ACAD_DSTYLE_DIM_EXT2_LINETYPE
1070
   382
1005
16
0
ENDSEC
0
SECTION
2
OBJECTS
0
DICTIONARY
5
249
330
0
100
AcDbDictionary
280
0
281
1
3
ACAD_GROUP
350
24a
3
ACAD_MLINESTYLE
350
24b
0
DICTIONARY
5
24a
330
0
100
AcDbDictionary
280
0
281
1
0
DICTIONARY
5
24b
330
0
100
AcDbDictionary
280
0
281
1
3
Standard
350
18
0
MLINESTYLE
5
18
330
24b
100
AcDbMlineStyle
2
Standard
70
0
3

62
256
51
90
52
90
71
2
49
-0.5
62
256
6
ByLayer
49
0.5
62
256
6
ByLayer
0
RASTERVARIABLES
5
237
330

100
AcDbRasterVariables
90
0
70
1
71
1
72
1
0
ENDSEC
0
EOF
