0
SECTION
2
HEADER
9
$ACADVER
1
AC1015
9
$DWGCODEPAGE
3
ANSI_1252
9
$HANDSEED
5
25a
9
$ANGBASE
50
0
9
$ANGDIR
70
0
9
$ATTMODE
70
1
9
$AUNITS
70
0
9
$AUPREC
70
0
9
$CECOLOR
62
256
9
$CELTSCALE
40
1
9
$CELTYPE
6
ByLayer
9
$CELWEIGHT
370
18
9
$CLAYER
8
0
9
$CMLJUST
70
0
9
$CMLSCALE
40
1
9
$CMLSTYLE
2
Standard
9
$DIMSTYLE
2
Standard
9
$TEXTSIZE
40
0.2
9
$TEXTSTYLE
7
Standard
9
$LUNITS
70
2
9
$LUPREC
70
4
9
$EXTNAMES
290
1
9
$INSUNITS
70
4
9
$LTSCALE
40
1
9
$LWDISPLAY
290
1
9
$PDMODE
70
0
9
$PDSIZE
40
0
9
$PLINEGEN
70
0
0
ENDSEC
0
SECTION
2
CLASSES
0
CLASS
1
RASTERVARIABLES
2
AcDbRasterVariables
3
ISM
90
0
280
0
281
0
0
ENDSEC
0
SECTION
2
TABLES
0
TABLE
2
VPORT
5
250
100
AcDbSymbolTable
0
VPORT
5
1
100
AcDbSymbolTableRecord
100
AcDbViewportTableRecord
2
*Active
70
0
10
0
20
0
11
1
21
1
12
-1
22
1
13
0
23
0
14
0.5
24
0.5
15
10
25
10
16
0
26
0
36
1
17
0
27
0
37
0
0
ENDTAB
0
TABLE
2
LTYPE
5
251
100
AcDbSymbolTable
0
LTYPE
5
14
100
AcDbSymbolTableRecord
100
AcDbLinetypeTableRecord
70
0
2
ByBlock
3

72
65
73
0
40
0
0
LTYPE
5
15
100
AcDbSymbolTableRecord
100
AcDbLinetypeTableRecord
70
0
2
ByLayer
3

72
65
73
0
40
0
0
LTYPE
5
16
100
AcDbSymbolTableRecord
100
AcDbLinetypeTableRecord
70
0
2
Continuous
3
Solid line
72
65
73
0
40
0
0
LTYPE
5
6E
100
AcDbSymbolTableRecord
100
AcDbLinetypeTableRecord
70
0
2
CENTER
3
____ _ ____ _ ____ _ ____
72
65
73
4
40
47.5
49
22
74
0
49
-8.5
74
0
49
8.5
74
0
49
-8.5
74
0
0
LTYPE
5
6F
100
AcDbSymbolTableRecord
100
AcDbLinetypeTableRecord
70
0
2
DASHED
3
__ __ __ __ __ __ __ __ __
72
65
73
2
40
25.72
49
12.86
74
0
49
-12.86
74
0
0
ENDTAB
0
TABLE
2
LAYER
5
252
100
AcDbSymbolTable
0
LAYER
5
10
100
AcDbSymbolTableRecord
100
AcDbLayerTableRecord
2
0
70
0
62
7
6
Continuous
290
1
370
-3
390
0
0
LAYER
5
71
100
AcDbSymbolTableRecord
100
AcDbLayerTableRecord
2
80
70
0
62
-6
6
Continuous
290
1
370
-3
390
0
0
LAYER
5
73
100
AcDbSymbolTableRecord
100
AcDbLayerTableRecord
2
81
70
0
62
-3
6
Continuous
290
1
370
-3
390
0
0
LAYER
5
75
100
AcDbSymbolTableRecord
100
AcDbLayerTableRecord
2
1
70
0
62
4
6
Continuous
290
1
370
-3
390
0
0
LAYER
5
A6
100
AcDbSymbolTableRecord
100
AcDbLayerTableRecord
2
4
70
0
62
-2
6
CENTER
290
1
370
-3
390
0
0
LAYER
5
114
100
AcDbSymbolTableRecord
100
AcDbLayerTableRecord
2
Defpoints
70
0
62
7
6
Continuous
290
0
370
-3
390
0
0
LAYER
5
141
100
AcDbSymbolTableRecord
100
AcDbLayerTableRecord
2
2
70
0
62
7
6
Continuous
290
1
370
-3
390
0
0
LAYER
5
23c
100
AcDbSymbolTableRecord
100
AcDbLayerTableRecord
2
SK1
70
0
62
4
6
Continuous
290
1
370
-3
390
0
0
LAYER
5
23d
100
AcDbSymbolTableRecord
100
AcDbLayerTableRecord
2
SK4
70
0
62
2
6
CENTER
290
1
370
-3
390
0
0
LAYER
5
23e
100
AcDbSymbolTableRecord
100
AcDbLayerTableRecord
2
SK2
70
0
62
7
6
Continuous
290
1
370
-3
390
0
0
LAYER
5
23f
100
AcDbSymbolTableRecord
100
AcDbLayerTableRecord
2
SK6
70
0
62
5
6
Continuous
290
1
370
-3
390
0
0
ENDTAB
0
TABLE
2
STYLE
5
253
100
AcDbSymbolTable
0
STYLE
5
11
100
AcDbSymbolTableRecord
100
AcDbTextStyleTableRecord
2
Standard
3
txt
70
0
71
0
40
0
41
1
42
0
50
0
0
STYLE
5
105
100
AcDbSymbolTableRecord
100
AcDbTextStyleTableRecord
2
iso_b_vert
3
simplex.shx
70
0
71
0
40
0
41
1
42
0
50
0
0
STYLE
5
106
100
AcDbSymbolTableRecord
100
AcDbTextStyleTableRecord
2
DWGDirectTextStyle
3
simplex
70
0
71
0
40
0
41
1
42
0
50
0
0
ENDTAB
0
TABLE
2
DIMSTYLE
5
254
100
AcDbSymbolTable
100
AcDbDimStyleTable
0
DIMSTYLE
105
27
100
AcDbSymbolTableRecord
100
AcDbDimStyleTableRecord
2
Standard
70
0
3
<>
41
0.18
42
0.0625
44
0.18
140
0.18
147
0.09
73
0
74
0
77
1
271
2
275
0
278
52
280
0
340
11
0
ENDTAB
0
TABLE
2
VIEW
5
255
100
AcDbSymbolTable
0
ENDTAB
0
TABLE
2
UCS
5
256
100
AcDbSymbolTable
0
ENDTAB
0
TABLE
2
APPID
5
257
100
AcDbSymbolTable
0
APPID
5
12
100
AcDbSymbolTableRecord
100
AcDbRegAppTableRecord
2
ACAD
70
0
0
APPID
5
109
100
AcDbSymbolTableRecord
100
AcDbRegAppTableRecord
2
ACAD_DSTYLE_DIMBREAK
70
0
0
APPID
5
1FB
100
AcDbSymbolTableRecord
100
AcDbRegAppTableRecord
2
ACAD_DSTYLE_DIM_LINETYPE
70
0
0
APPID
5
1FC
100
AcDbSymbolTableRecord
100
AcDbRegAppTableRecord
2
ACAD_DSTYLE_DIM_EXT1_LINETYPE
70
0
0
APPID
5
1FD
100
AcDbSymbolTableRecord
100
AcDbRegAppTableRecord
2
ACAD_DSTYLE_DIM_EXT2_LINETYPE
70
0
0
APPID
5
238
100
AcDbSymbolTableRecord
100
AcDbRegAppTableRecord
2
ACAD_MLEADERVER
70
0
0
ENDTAB
0
TABLE
2
BLOCK_RECORD
5
258
100
AcDbSymbolTable
0
BLOCK_RECORD
5
1F
100
AcDbSymbolTableRecord
100
AcDbBlockTableRecord
2
*Model_Space
340
0
70
0
0
BLOCK_RECORD
5
1B
100
AcDbSymbolTableRecord
100
AcDbBlockTableRecord
2
*Paper_Space
340
0
70
0
0
BLOCK_RECORD
5
23
100
AcDbSymbolTableRecord
100
AcDbBlockTableRecord
2
*Paper_Space0
340
0
70
0
0
BLOCK_RECORD
5
10B
100
AcDbSymbolTableRecord
100
AcDbBlockTableRecord
2
_Closed
340
0
70
0
0
BLOCK_RECORD
5
115
100
AcDbSymbolTableRecord
100
AcDbBlockTableRecord
2
*D2
340
0
70
0
0
BLOCK_RECORD
5
121
100
AcDbSymbolTableRecord
100
AcDbBlockTableRecord
2
_U0
340
0
70
0
0
BLOCK_RECORD
5
133
100
AcDbSymbolTableRecord
100
AcDbBlockTableRecord
2
*D4
340
0
70
0
0
BLOCK_RECORD
5
142
100
AcDbSymbolTableRecord
100
AcDbBlockTableRecord
2
_U1
340
0
70
0
0
BLOCK_RECORD
5
152
100
AcDbSymbolTableRecord
100
AcDbBlockTableRecord
2
*D6
340
0
70
0
0
BLOCK_RECORD
5
160
100
AcDbSymbolTableRecord
100
AcDbBlockTableRecord
2
_U2
340
0
70
0
0
BLOCK_RECORD
5
170
100
AcDbSymbolTableRecord
100
AcDbBlockTableRecord
2
*D8
340
0
70
0
0
BLOCK_RECORD
5
17C
100
AcDbSymbolTableRecord
100
AcDbBlockTableRecord
2
_U3
340
0
70
0
0
BLOCK_RECORD
5
18C
100
AcDbSymbolTableRecord
100
AcDbBlockTableRecord
2
*D10
340
0
70
0
0
BLOCK_RECORD
5
198
100
AcDbSymbolTableRecord
100
AcDbBlockTableRecord
2
_U4
340
0
70
0
0
BLOCK_RECORD
5
1A8
100
AcDbSymbolTableRecord
100
AcDbBlockTableRecord
2
*D12
340
0
70
0
0
BLOCK_RECORD
5
1B4
100
AcDbSymbolTableRecord
100
AcDbBlockTableRecord
2
_U5
340
0
70
0
0
BLOCK_RECORD
5
1C4
100
AcDbSymbolTableRecord
100
AcDbBlockTableRecord
2
*D14
340
0
70
0
0
BLOCK_RECORD
5
1D0
100
AcDbSymbolTableRecord
100
AcDbBlockTableRecord
2
_U6
340
0
70
0
0
ENDTAB
0
ENDSEC
0
SECTION
2
BLOCKS
0
BLOCK
5
20
100
AcDbEntity
8
0
100
AcDbBlockBegin
2
*Model_Space
70
0
10
0
20
0
30
0
3
*Model_Space
0
ENDBLK
5
21
100
AcDbEntity
8
0
100
AcDbBlockEnd
0
BLOCK
5
1C
100
AcDbEntity
8
0
100
AcDbBlockBegin
2
*Paper_Space
70
0
10
0
20
0
30
0
3
*Paper_Space
0
ENDBLK
5
1D
100
AcDbEntity
8
0
100
AcDbBlockEnd
0
BLOCK
5
24
100
AcDbEntity
8
0
100
AcDbBlockBegin
2
*Paper_Space0
70
0
10
0
20
0
30
0
3
*Paper_Space0
0
ENDBLK
5
25
100
AcDbEntity
8
0
100
AcDbBlockEnd
0
BLOCK
5
10C
100
AcDbEntity
8
0
100
AcDbBlockBegin
2
_Closed
70
0
10
0
20
0
30
0
3
_Closed
0
LINE
5
10E
100
AcDbEntity
8
0
62
256
6
ByLayer
370
-2
48
1
60
0
100
AcDbLine
10
-1
20
0.166667
30
0
11
0
21
0
31
0
39
0
210
0
220
0
230
1
0
LINE
5
10F
100
AcDbEntity
8
0
62
256
6
ByLayer
370
-2
48
1
60
0
100
AcDbLine
10
0
20
0
30
0
11
-1
21
-0.166667
31
0
39
0
210
0
220
0
230
1
0
LINE
5
110
100
AcDbEntity
8
0
62
256
6
ByLayer
370
-2
48
1
60
0
100
AcDbLine
10
-1
20
0.166667
30
0
11
-1
21
-0.166667
31
0
39
0
210
0
220
0
230
1
0
LINE
5
111
100
AcDbEntity
8
0
62
256
6
ByLayer
370
-2
48
1
60
0
100
AcDbLine
10
0
20
0
30
0
11
-1
21
0
31
0
39
0
210
0
220
0
230
1
0
ENDBLK
5
10D
100
AcDbEntity
8
0
100
AcDbBlockEnd
0
BLOCK
5
116
100
AcDbEntity
8
0
100
AcDbBlockBegin
2
*D2
70
1
10
0
20
0
30
0
3
*D2
0
LINE
5
118
100
AcDbEntity
8
0
62
256
6
ByLayer
370
-2
48
1
60
0
100
AcDbLine
10
0
20
-6.5875
30
0
11
0
21
-31.67512
31
0
39
0
210
0
220
0
230
1
0
LINE
5
119
100
AcDbEntity
8
0
62
256
6
ByLayer
370
-2
48
1
60
0
100
AcDbLine
10
49
20
-1.5875
30
0
11
49
21
-31.67512
31
0
39
0
210
0
220
0
230
1
0
LINE
5
11A
100
AcDbEntity
8
0
62
256
6
ByLayer
370
-2
48
1
60
0
100
AcDbLine
10
3.175
20
-28.50012
30
0
11
45.825
21
-28.50012
31
0
39
0
210
0
220
0
230
1
0
SOLID
5
11B
100
AcDbEntity
8
0
62
256
6
ByLayer
370
-1
48
1
60
0
100
AcDbTrace
10
3.175
20
-27.970953
30
0
11
3.175
21
-29.029287
31
0
12
0
22
-28.50012
32
0
13
0
23
-28.50012
33
0
39
0
210
0
220
0
230
1
0
SOLID
5
11C
100
AcDbEntity
8
0
62
256
6
ByLayer
370
-1
48
1
60
0
100
AcDbTrace
10
45.825
20
-29.029287
30
0
11
45.825
21
-27.970953
31
0
12
49
22
-28.50012
32
0
13
49
23
-28.50012
33
0
39
0
210
0
220
0
230
1
0
MTEXT
5
11D
100
AcDbEntity
8
0
62
256
6
ByLayer
370
18
48
1
60
0
100
AcDbMText
10
24.5
20
-21.193619
30
0
210
0
220
0
230
1
1
\A1;49
40
3.50012
41
0
44
1
50
0
71
5
72
5
7
iso_b_vert
0
POINT
5
11E
100
AcDbEntity
8
Defpoints
62
0
6
ByLayer
370
-1
48
1
60
0
100
AcDbPoint
10
0
20
-5
30
0
39
0
210
0
220
0
230
1
50
360
0
POINT
5
11F
100
AcDbEntity
8
Defpoints
62
0
6
ByLayer
370
-1
48
1
60
0
100
AcDbPoint
10
49
20
0
30
0
39
0
210
0
220
0
230
1
50
360
0
POINT
5
120
100
AcDbEntity
8
Defpoints
62
0
6
ByLayer
370
-1
48
1
60
0
100
AcDbPoint
10
49
20
-28.50012
30
0
39
0
210
0
220
0
230
1
50
360
0
ENDBLK
5
117
100
AcDbEntity
8
0
100
AcDbBlockEnd
0
BLOCK
5
12E
100
AcDbEntity
8
0
100
AcDbBlockBegin
2
_U0
70
0
10
0
20
0
30
0
3
_U0
0
MTEXT
5
122
100
AcDbEntity
8
SK2
62
256
6
ByLayer
370
18
48
1
60
0
100
AcDbMText
10
19.086116
20
-27.467451
30
0
210
0
220
0
230
1
1
\W0.7694;49.00
40
3.50012
41
0
44
1.084337
50
0
71
7
72
5
7
iso_b_vert
0
MTEXT
5
123
100
AcDbEntity
8
SK2
62
256
6
ByLayer
370
18
48
1
60
0
100
AcDbMText
10
15.560056
20
-27.400814
30
0
210
0
220
0
230
1
1
\W0.1790;(
40
3.175
41
0
44
1.084337
50
0
71
7
72
5
7
iso_b_vert
0
MTEXT
5
124
100
AcDbEntity
8
SK2
62
256
6
ByLayer
370
18
48
1
60
0
100
AcDbMText
10
33.442666
20
-27.400814
30
0
210
0
220
0
230
1
1
\W0.1969;)
40
3.175
41
0
44
1.084337
50
0
71
7
72
5
7
iso_b_vert
0
LINE
5
125
100
AcDbEntity
8
SK2
62
256
6
ByLayer
370
13
48
1
60
0
100
AcDbLine
10
0
20
-6.5875
30
0
11
0
21
-31.67512
31
0
39
0
210
0
220
0
230
1
0
LINE
5
126
100
AcDbEntity
8
SK2
62
256
6
ByLayer
370
13
48
1
60
0
100
AcDbLine
10
49
20
-1.5875
30
0
11
49
21
-31.67512
31
0
39
0
210
0
220
0
230
1
0
LINE
5
127
100
AcDbEntity
8
SK2
62
256
6
ByLayer
370
13
48
1
60
0
100
AcDbLine
10
0
20
-28.50012
30
0
11
49
21
-28.50012
31
0
39
0
210
0
220
0
230
1
0
LINE
5
128
100
AcDbEntity
8
SK2
62
256
6
ByLayer
370
13
48
1
60
0
100
AcDbLine
10
0
20
-28.50012
30
0
11
3.174998
21
-28.082123
31
0
39
0
210
0
220
0
230
1
0
LINE
5
129
100
AcDbEntity
8
SK2
62
256
6
ByLayer
370
13
48
1
60
0
100
AcDbLine
10
0
20
-28.50012
30
0
11
3.175002
21
-28.918117
31
0
39
0
210
0
220
0
230
1
0
LINE
5
12A
100
AcDbEntity
8
SK2
62
256
6
ByLayer
370
13
48
1
60
0
100
AcDbLine
10
3.174998
20
-28.082123
30
0
11
3.175002
21
-28.918117
31
0
39
0
210
0
220
0
230
1
0
LINE
5
12B
100
AcDbEntity
8
SK2
62
256
6
ByLayer
370
13
48
1
60
0
100
AcDbLine
10
49
20
-28.50012
30
0
11
45.825002
21
-28.918117
31
0
39
0
210
0
220
0
230
1
0
LINE
5
12C
100
AcDbEntity
8
SK2
62
256
6
ByLayer
370
13
48
1
60
0
100
AcDbLine
10
49
20
-28.50012
30
0
11
45.824998
21
-28.082123
31
0
39
0
210
0
220
0
230
1
0
LINE
5
12D
100
AcDbEntity
8
SK2
62
256
6
ByLayer
370
13
48
1
60
0
100
AcDbLine
10
45.825002
20
-28.918117
30
0
11
45.824998
21
-28.082123
31
0
39
0
210
0
220
0
230
1
0
ENDBLK
5
12F
100
AcDbEntity
8
0
100
AcDbBlockEnd
0
BLOCK
5
134
100
AcDbEntity
8
0
100
AcDbBlockBegin
2
*D4
70
1
10
0
20
0
30
0
3
*D4
0
LINE
5
136
100
AcDbEntity
8
0
62
256
6
ByLayer
370
-2
48
1
60
0
100
AcDbLine
10
48.9496
20
-4.5
30
0
11
58.92506
21
-4.5
31
0
39
0
210
0
220
0
230
1
0
LINE
5
137
100
AcDbEntity
8
0
62
256
6
ByLayer
370
-2
48
1
60
0
100
AcDbLine
10
48.9496
20
4.5
30
0
11
58.92506
21
4.5
31
0
39
0
210
0
220
0
230
1
0
LINE
5
138
100
AcDbEntity
8
0
62
256
6
ByLayer
370
-2
48
1
60
0
100
AcDbLine
10
55.75006
20
4.5
30
0
11
55.75006
21
24.129622
31
0
39
0
210
0
220
0
230
1
0
LINE
5
139
100
AcDbEntity
8
0
62
256
6
ByLayer
370
-2
48
1
60
0
100
AcDbLine
10
55.75006
20
-7.675
30
0
11
55.75006
21
-10.85
31
0
39
0
210
0
220
0
230
1
0
LINE
5
13A
100
AcDbEntity
8
0
62
256
6
ByLayer
370
-2
48
1
60
0
100
AcDbLine
10
55.75006
20
7.675
30
0
11
55.75006
21
10.85
31
0
39
0
210
0
220
0
230
1
0
SOLID
5
13B
100
AcDbEntity
8
0
62
256
6
ByLayer
370
-1
48
1
60
0
100
AcDbTrace
10
56.279227
20
-7.675
30
0
11
55.220893
21
-7.675
31
0
12
55.75006
22
-4.5
32
0
13
55.75006
23
-4.5
33
0
39
0
210
0
220
0
230
1
0
SOLID
5
13C
100
AcDbEntity
8
0
62
256
6
ByLayer
370
-1
48
1
60
0
100
AcDbTrace
10
55.220893
20
7.675
30
0
11
56.279227
21
7.675
31
0
12
55.75006
22
4.5
32
0
13
55.75006
23
4.5
33
0
39
0
210
0
220
0
230
1
0
MTEXT
5
13D
100
AcDbEntity
8
0
62
256
6
ByLayer
370
18
48
1
60
0
100
AcDbMText
10
48.443559
20
17.489811
30
0
210
0
220
0
230
1
1
\A1;9
40
3.50012
41
0
44
1
50
90
71
5
72
5
7
iso_b_vert
0
POINT
5
13E
100
AcDbEntity
8
Defpoints
62
0
6
ByLayer
370
-1
48
1
60
0
100
AcDbPoint
10
47.3621
20
-4.5
30
0
39
0
210
0
220
0
230
1
50
360
0
POINT
5
13F
100
AcDbEntity
8
Defpoints
62
0
6
ByLayer
370
-1
48
1
60
0
100
AcDbPoint
10
47.3621
20
4.5
30
0
39
0
210
0
220
0
230
1
50
360
0
POINT
5
140
100
AcDbEntity
8
Defpoints
62
0
6
ByLayer
370
-1
48
1
60
0
100
AcDbPoint
10
55.75006
20
4.5
30
0
39
0
210
0
220
0
230
1
50
360
0
ENDBLK
5
135
100
AcDbEntity
8
0
100
AcDbBlockEnd
0
BLOCK
5
14D
100
AcDbEntity
8
0
100
AcDbBlockBegin
2
_U1
70
0
10
0
20
0
30
0
3
_U1
0
MTEXT
5
143
100
AcDbEntity
8
2
62
256
6
ByLayer
370
18
48
1
60
0
100
AcDbMText
10
55.060403
20
8.657505
30
0
210
0
220
0
230
1
1
\W0.7346;9.00
40
3.50012
41
0
44
1.084337
50
90
71
7
72
5
7
iso_b_vert
0
LINE
5
144
100
AcDbEntity
8
2
62
256
6
ByLayer
370
13
48
1
60
0
100
AcDbLine
10
48.9496
20
-4.5
30
0
11
58.92506
21
-4.5
31
0
39
0
210
0
220
0
230
1
0
LINE
5
145
100
AcDbEntity
8
2
62
256
6
ByLayer
370
13
48
1
60
0
100
AcDbLine
10
48.9496
20
4.5
30
0
11
58.92506
21
4.5
31
0
39
0
210
0
220
0
230
1
0
LINE
5
146
100
AcDbEntity
8
2
62
256
6
ByLayer
370
13
48
1
60
0
100
AcDbLine
10
55.75006
20
-4.5
30
0
11
55.75006
21
16.71468
31
0
39
0
210
0
220
0
230
1
0
LINE
5
147
100
AcDbEntity
8
2
62
256
6
ByLayer
370
13
48
1
60
0
100
AcDbLine
10
55.75006
20
-4.5
30
0
11
55.332063
21
-1.325002
31
0
39
0
210
0
220
0
230
1
0
LINE
5
148
100
AcDbEntity
8
2
62
256
6
ByLayer
370
13
48
1
60
0
100
AcDbLine
10
55.75006
20
-4.5
30
0
11
56.168057
21
-1.324998
31
0
39
0
210
0
220
0
230
1
0
LINE
5
149
100
AcDbEntity
8
2
62
256
6
ByLayer
370
13
48
1
60
0
100
AcDbLine
10
55.332063
20
-1.325002
30
0
11
56.168057
21
-1.324998
31
0
39
0
210
0
220
0
230
1
0
LINE
5
14A
100
AcDbEntity
8
2
62
256
6
ByLayer
370
13
48
1
60
0
100
AcDbLine
10
55.75006
20
4.5
30
0
11
56.168057
21
1.325002
31
0
39
0
210
0
220
0
230
1
0
LINE
5
14B
100
AcDbEntity
8
2
62
256
6
ByLayer
370
13
48
1
60
0
100
AcDbLine
10
55.75006
20
4.5
30
0
11
55.332063
21
1.324998
31
0
39
0
210
0
220
0
230
1
0
LINE
5
14C
100
AcDbEntity
8
2
62
256
6
ByLayer
370
13
48
1
60
0
100
AcDbLine
10
56.168057
20
1.325002
30
0
11
55.332063
21
1.324998
31
0
39
0
210
0
220
0
230
1
0
ENDBLK
5
14E
100
AcDbEntity
8
0
100
AcDbBlockEnd
0
BLOCK
5
153
100
AcDbEntity
8
0
100
AcDbBlockBegin
2
*D6
70
1
10
0
20
0
30
0
3
*D6
0
LINE
5
155
100
AcDbEntity
8
0
62
256
6
ByLayer
370
-2
48
1
60
0
100
AcDbLine
10
-41.5875
20
5
30
0
11
-46.42494
21
5
31
0
39
0
210
0
220
0
230
1
0
LINE
5
156
100
AcDbEntity
8
0
62
256
6
ByLayer
370
-2
48
1
60
0
100
AcDbLine
10
-41.5875
20
-5
30
0
11
-46.42494
21
-5
31
0
39
0
210
0
220
0
230
1
0
LINE
5
157
100
AcDbEntity
8
0
62
256
6
ByLayer
370
-2
48
1
60
0
100
AcDbLine
10
-43.24994
20
5
30
0
11
-43.24994
21
28.117532
31
0
39
0
210
0
220
0
230
1
0
LINE
5
158
100
AcDbEntity
8
0
62
256
6
ByLayer
370
-2
48
1
60
0
100
AcDbLine
10
-43.24994
20
8.175
30
0
11
-43.24994
21
11.35
31
0
39
0
210
0
220
0
230
1
0
LINE
5
159
100
AcDbEntity
8
0
62
256
6
ByLayer
370
-2
48
1
60
0
100
AcDbLine
10
-43.24994
20
-8.175
30
0
11
-43.24994
21
-11.35
31
0
39
0
210
0
220
0
230
1
0
SOLID
5
15A
100
AcDbEntity
8
0
62
256
6
ByLayer
370
-1
48
1
60
0
100
AcDbTrace
10
-43.779107
20
8.175
30
0
11
-42.720773
21
8.175
31
0
12
-43.24994
22
5
32
0
13
-43.24994
23
5
33
0
39
0
210
0
220
0
230
1
0
SOLID
5
15B
100
AcDbEntity
8
0
62
256
6
ByLayer
370
-1
48
1
60
0
100
AcDbTrace
10
-42.720773
20
-8.175
30
0
11
-43.779107
21
-8.175
31
0
12
-43.24994
22
-5
32
0
13
-43.24994
23
-5
33
0
39
0
210
0
220
0
230
1
0
MTEXT
5
15C
100
AcDbEntity
8
0
62
256
6
ByLayer
370
18
48
1
60
0
100
AcDbMText
10
-50.556441
20
19.97767
30
0
210
0
220
0
230
1
1
\A1;10
40
3.50012
41
0
44
1
50
90
71
5
72
5
7
iso_b_vert
0
POINT
5
15D
100
AcDbEntity
8
Defpoints
62
0
6
ByLayer
370
-1
48
1
60
0
100
AcDbPoint
10
-40
20
5
30
0
39
0
210
0
220
0
230
1
50
360
0
POINT
5
15E
100
AcDbEntity
8
Defpoints
62
0
6
ByLayer
370
-1
48
1
60
0
100
AcDbPoint
10
-40
20
-5
30
0
39
0
210
0
220
0
230
1
50
360
0
POINT
5
15F
100
AcDbEntity
8
Defpoints
62
0
6
ByLayer
370
-1
48
1
60
0
100
AcDbPoint
10
-43.24994
20
-5
30
0
39
0
210
0
220
0
230
1
50
360
0
ENDBLK
5
154
100
AcDbEntity
8
0
100
AcDbBlockEnd
0
BLOCK
5
16B
100
AcDbEntity
8
0
100
AcDbBlockBegin
2
_U2
70
0
10
0
20
0
30
0
3
_U2
0
MTEXT
5
161
100
AcDbEntity
8
SK2
62
256
6
ByLayer
370
18
48
1
60
0
100
AcDbMText
10
-43.939597
20
15.157505
30
0
210
0
220
0
230
1
1
\W0.6864;10.00
40
3.50012
41
0
44
1.084337
50
90
71
7
72
5
7
iso_b_vert
0
LINE
5
162
100
AcDbEntity
8
SK2
62
256
6
ByLayer
370
13
48
1
60
0
100
AcDbLine
10
-41.5875
20
5
30
0
11
-46.42494
21
5
31
0
39
0
210
0
220
0
230
1
0
LINE
5
163
100
AcDbEntity
8
SK2
62
256
6
ByLayer
370
13
48
1
60
0
100
AcDbLine
10
-41.5875
20
-5
30
0
11
-46.42494
21
-5
31
0
39
0
210
0
220
0
230
1
0
LINE
5
164
100
AcDbEntity
8
SK2
62
256
6
ByLayer
370
13
48
1
60
0
100
AcDbLine
10
-43.24994
20
-5
30
0
11
-43.24994
21
24.955339
31
0
39
0
210
0
220
0
230
1
0
LINE
5
165
100
AcDbEntity
8
SK2
62
256
6
ByLayer
370
13
48
1
60
0
100
AcDbLine
10
-43.24994
20
5
30
0
11
-42.831943
21
1.825002
31
0
39
0
210
0
220
0
230
1
0
LINE
5
166
100
AcDbEntity
8
SK2
62
256
6
ByLayer
370
13
48
1
60
0
100
AcDbLine
10
-43.24994
20
5
30
0
11
-43.667937
21
1.824998
31
0
39
0
210
0
220
0
230
1
0
LINE
5
167
100
AcDbEntity
8
SK2
62
256
6
ByLayer
370
13
48
1
60
0
100
AcDbLine
10
-42.831943
20
1.825002
30
0
11
-43.667937
21
1.824998
31
0
39
0
210
0
220
0
230
1
0
LINE
5
168
100
AcDbEntity
8
SK2
62
256
6
ByLayer
370
13
48
1
60
0
100
AcDbLine
10
-43.24994
20
-5
30
0
11
-43.667937
21
-1.825002
31
0
39
0
210
0
220
0
230
1
0
LINE
5
169
100
AcDbEntity
8
SK2
62
256
6
ByLayer
370
13
48
1
60
0
100
AcDbLine
10
-43.24994
20
-5
30
0
11
-42.831943
21
-1.824998
31
0
39
0
210
0
220
0
230
1
0
LINE
5
16A
100
AcDbEntity
8
SK2
62
256
6
ByLayer
370
13
48
1
60
0
100
AcDbLine
10
-43.667937
20
-1.825002
30
0
11
-42.831943
21
-1.824998
31
0
39
0
210
0
220
0
230
1
0
ENDBLK
5
16C
100
AcDbEntity
8
0
100
AcDbBlockEnd
0
BLOCK
5
171
100
AcDbEntity
8
0
100
AcDbBlockBegin
2
*D8
70
1
10
0
20
0
30
0
3
*D8
0
LINE
5
173
100
AcDbEntity
8
0
62
256
6
ByLayer
370
-2
48
1
60
0
100
AcDbLine
10
-40
20
-6.5875
30
0
11
-40
21
-31.67512
31
0
39
0
210
0
220
0
230
1
0
LINE
5
174
100
AcDbEntity
8
0
62
256
6
ByLayer
370
-2
48
1
60
0
100
AcDbLine
10
0
20
-6.5875
30
0
11
0
21
-31.67512
31
0
39
0
210
0
220
0
230
1
0
LINE
5
175
100
AcDbEntity
8
0
62
256
6
ByLayer
370
-2
48
1
60
0
100
AcDbLine
10
-36.825
20
-28.50012
30
0
11
-3.175
21
-28.50012
31
0
39
0
210
0
220
0
230
1
0
SOLID
5
176
100
AcDbEntity
8
0
62
256
6
ByLayer
370
-1
48
1
60
0
100
AcDbTrace
10
-36.825
20
-27.970953
30
0
11
-36.825
21
-29.029287
31
0
12
-40
22
-28.50012
32
0
13
-40
23
-28.50012
33
0
39
0
210
0
220
0
230
1
0
SOLID
5
177
100
AcDbEntity
8
0
62
256
6
ByLayer
370
-1
48
1
60
0
100
AcDbTrace
10
-3.175
20
-29.029287
30
0
11
-3.175
21
-27.970953
31
0
12
0
22
-28.50012
32
0
13
0
23
-28.50012
33
0
39
0
210
0
220
0
230
1
0
MTEXT
5
178
100
AcDbEntity
8
0
62
256
6
ByLayer
370
18
48
1
60
0
100
AcDbMText
10
-20
20
-21.193619
30
0
210
0
220
0
230
1
1
\A1;40
40
3.50012
41
0
44
1
50
0
71
5
72
5
7
iso_b_vert
0
POINT
5
179
100
AcDbEntity
8
Defpoints
62
0
6
ByLayer
370
-1
48
1
60
0
100
AcDbPoint
10
-40
20
-5
30
0
39
0
210
0
220
0
230
1
50
360
0
POINT
5
17A
100
AcDbEntity
8
Defpoints
62
0
6
ByLayer
370
-1
48
1
60
0
100
AcDbPoint
10
0
20
-5
30
0
39
0
210
0
220
0
230
1
50
360
0
POINT
5
17B
100
AcDbEntity
8
Defpoints
62
0
6
ByLayer
370
-1
48
1
60
0
100
AcDbPoint
10
0
20
-28.50012
30
0
39
0
210
0
220
0
230
1
50
360
0
ENDBLK
5
172
100
AcDbEntity
8
0
100
AcDbBlockEnd
0
BLOCK
5
187
100
AcDbEntity
8
0
100
AcDbBlockBegin
2
_U3
70
0
10
0
20
0
30
0
3
_U3
0
MTEXT
5
17D
100
AcDbEntity
8
SK2
62
256
6
ByLayer
370
18
48
1
60
0
100
AcDbMText
10
-25.413884
20
-27.467451
30
0
210
0
220
0
230
1
1
\W0.7694;40.00
40
3.50012
41
0
44
1.084337
50
0
71
7
72
5
7
iso_b_vert
0
LINE
5
17E
100
AcDbEntity
8
SK2
62
256
6
ByLayer
370
13
48
1
60
0
100
AcDbLine
10
-40
20
-6.5875
30
0
11
-40
21
-31.67512
31
0
39
0
210
0
220
0
230
1
0
LINE
5
17F
100
AcDbEntity
8
SK2
62
256
6
ByLayer
370
13
48
1
60
0
100
AcDbLine
10
0
20
-6.5875
30
0
11
0
21
-31.67512
31
0
39
0
210
0
220
0
230
1
0
LINE
5
180
100
AcDbEntity
8
SK2
62
256
6
ByLayer
370
13
48
1
60
0
100
AcDbLine
10
-40
20
-28.50012
30
0
11
0
21
-28.50012
31
0
39
0
210
0
220
0
230
1
0
LINE
5
181
100
AcDbEntity
8
SK2
62
256
6
ByLayer
370
13
48
1
60
0
100
AcDbLine
10
-40
20
-28.50012
30
0
11
-36.825002
21
-28.082123
31
0
39
0
210
0
220
0
230
1
0
LINE
5
182
100
AcDbEntity
8
SK2
62
256
6
ByLayer
370
13
48
1
60
0
100
AcDbLine
10
-40
20
-28.50012
30
0
11
-36.824998
21
-28.918117
31
0
39
0
210
0
220
0
230
1
0
LINE
5
183
100
AcDbEntity
8
SK2
62
256
6
ByLayer
370
13
48
1
60
0
100
AcDbLine
10
-36.825002
20
-28.082123
30
0
11
-36.824998
21
-28.918117
31
0
39
0
210
0
220
0
230
1
0
LINE
5
184
100
AcDbEntity
8
SK2
62
256
6
ByLayer
370
13
48
1
60
0
100
AcDbLine
10
0
20
-28.50012
30
0
11
-3.174998
21
-28.918117
31
0
39
0
210
0
220
0
230
1
0
LINE
5
185
100
AcDbEntity
8
SK2
62
256
6
ByLayer
370
13
48
1
60
0
100
AcDbLine
10
0
20
-28.50012
30
0
11
-3.175002
21
-28.082123
31
0
39
0
210
0
220
0
230
1
0
LINE
5
186
100
AcDbEntity
8
SK2
62
256
6
ByLayer
370
13
48
1
60
0
100
AcDbLine
10
-3.174998
20
-28.918117
30
0
11
-3.175002
21
-28.082123
31
0
39
0
210
0
220
0
230
1
0
ENDBLK
5
188
100
AcDbEntity
8
0
100
AcDbBlockEnd
0
BLOCK
5
18D
100
AcDbEntity
8
0
100
AcDbBlockBegin
2
*D10
70
1
10
0
20
0
30
0
3
*D10
0
LINE
5
18F
100
AcDbEntity
8
0
62
256
6
ByLayer
370
-2
48
1
60
0
100
AcDbLine
10
2
20
3.4125
30
0
11
2
21
-22.92482
31
0
39
0
210
0
220
0
230
1
0
LINE
5
190
100
AcDbEntity
8
0
62
256
6
ByLayer
370
-2
48
1
60
0
100
AcDbLine
10
49
20
-1.5875
30
0
11
49
21
-22.92482
31
0
39
0
210
0
220
0
230
1
0
LINE
5
191
100
AcDbEntity
8
0
62
256
6
ByLayer
370
-2
48
1
60
0
100
AcDbLine
10
5.175
20
-19.74982
30
0
11
45.825
21
-19.74982
31
0
39
0
210
0
220
0
230
1
0
SOLID
5
192
100
AcDbEntity
8
0
62
256
6
ByLayer
370
-1
48
1
60
0
100
AcDbTrace
10
5.175
20
-19.220653
30
0
11
5.175
21
-20.278987
31
0
12
2
22
-19.74982
32
0
13
2
23
-19.74982
33
0
39
0
210
0
220
0
230
1
0
SOLID
5
193
100
AcDbEntity
8
0
62
256
6
ByLayer
370
-1
48
1
60
0
100
AcDbTrace
10
45.825
20
-20.278987
30
0
11
45.825
21
-19.220653
31
0
12
49
22
-19.74982
32
0
13
49
23
-19.74982
33
0
39
0
210
0
220
0
230
1
0
MTEXT
5
194
100
AcDbEntity
8
0
62
256
6
ByLayer
370
18
48
1
60
0
100
AcDbMText
10
25.5
20
-12.443319
30
0
210
0
220
0
230
1
1
\A1;47
40
3.50012
41
0
44
1
50
0
71
5
72
5
7
iso_b_vert
0
POINT
5
195
100
AcDbEntity
8
Defpoints
62
0
6
ByLayer
370
-1
48
1
60
0
100
AcDbPoint
10
2
20
5
30
0
39
0
210
0
220
0
230
1
50
360
0
POINT
5
196
100
AcDbEntity
8
Defpoints
62
0
6
ByLayer
370
-1
48
1
60
0
100
AcDbPoint
10
49
20
0
30
0
39
0
210
0
220
0
230
1
50
360
0
POINT
5
197
100
AcDbEntity
8
Defpoints
62
0
6
ByLayer
370
-1
48
1
60
0
100
AcDbPoint
10
49
20
-19.74982
30
0
39
0
210
0
220
0
230
1
50
360
0
ENDBLK
5
18E
100
AcDbEntity
8
0
100
AcDbBlockEnd
0
BLOCK
5
1A3
100
AcDbEntity
8
0
100
AcDbBlockBegin
2
_U4
70
0
10
0
20
0
30
0
3
_U4
0
MTEXT
5
199
100
AcDbEntity
8
SK2
62
256
6
ByLayer
370
18
48
1
60
0
100
AcDbMText
10
20.086116
20
-18.717151
30
0
210
0
220
0
230
1
1
\W0.7694;47.00
40
3.50012
41
0
44
1.084337
50
0
71
7
72
5
7
iso_b_vert
0
LINE
5
19A
100
AcDbEntity
8
SK2
62
256
6
ByLayer
370
13
48
1
60
0
100
AcDbLine
10
2
20
3.4125
30
0
11
2
21
-22.92482
31
0
39
0
210
0
220
0
230
1
0
LINE
5
19B
100
AcDbEntity
8
SK2
62
256
6
ByLayer
370
13
48
1
60
0
100
AcDbLine
10
49
20
-1.5875
30
0
11
49
21
-22.92482
31
0
39
0
210
0
220
0
230
1
0
LINE
5
19C
100
AcDbEntity
8
SK2
62
256
6
ByLayer
370
13
48
1
60
0
100
AcDbLine
10
2
20
-19.74982
30
0
11
49
21
-19.74982
31
0
39
0
210
0
220
0
230
1
0
LINE
5
19D
100
AcDbEntity
8
SK2
62
256
6
ByLayer
370
13
48
1
60
0
100
AcDbLine
10
2
20
-19.74982
30
0
11
5.174998
21
-19.331823
31
0
39
0
210
0
220
0
230
1
0
LINE
5
19E
100
AcDbEntity
8
SK2
62
256
6
ByLayer
370
13
48
1
60
0
100
AcDbLine
10
2
20
-19.74982
30
0
11
5.175002
21
-20.167817
31
0
39
0
210
0
220
0
230
1
0
LINE
5
19F
100
AcDbEntity
8
SK2
62
256
6
ByLayer
370
13
48
1
60
0
100
AcDbLine
10
5.174998
20
-19.331823
30
0
11
5.175002
21
-20.167817
31
0
39
0
210
0
220
0
230
1
0
LINE
5
1A0
100
AcDbEntity
8
SK2
62
256
6
ByLayer
370
13
48
1
60
0
100
AcDbLine
10
49
20
-19.74982
30
0
11
45.825002
21
-20.167817
31
0
39
0
210
0
220
0
230
1
0
LINE
5
1A1
100
AcDbEntity
8
SK2
62
256
6
ByLayer
370
13
48
1
60
0
100
AcDbLine
10
49
20
-19.74982
30
0
11
45.824998
21
-19.331823
31
0
39
0
210
0
220
0
230
1
0
LINE
5
1A2
100
AcDbEntity
8
SK2
62
256
6
ByLayer
370
13
48
1
60
0
100
AcDbLine
10
45.825002
20
-20.167817
30
0
11
45.824998
21
-19.331823
31
0
39
0
210
0
220
0
230
1
0
ENDBLK
5
1A4
100
AcDbEntity
8
0
100
AcDbBlockEnd
0
BLOCK
5
1A9
100
AcDbEntity
8
0
100
AcDbBlockBegin
2
*D12
70
1
10
0
20
0
30
0
3
*D12
0
LINE
5
1AB
100
AcDbEntity
8
0
62
256
6
ByLayer
370
-2
48
1
60
0
100
AcDbLine
10
20.4
20
-6.0875
30
0
11
20.4
21
-12.32
31
0
39
0
210
0
220
0
230
1
0
LINE
5
1AC
100
AcDbEntity
8
0
62
256
6
ByLayer
370
-2
48
1
60
0
100
AcDbLine
10
49
20
-1.5875
30
0
11
49
21
-12.32
31
0
39
0
210
0
220
0
230
1
0
LINE
5
1AD
100
AcDbEntity
8
0
62
256
6
ByLayer
370
-2
48
1
60
0
100
AcDbLine
10
23.575
20
-11.82
30
0
11
45.825
21
-11.82
31
0
39
0
210
0
220
0
230
1
0
SOLID
5
1AE
100
AcDbEntity
8
0
62
256
6
ByLayer
370
-1
48
1
60
0
100
AcDbTrace
10
23.575
20
-11.290833
30
0
11
23.575
21
-12.349167
31
0
12
20.4
22
-11.82
32
0
13
20.4
23
-11.82
33
0
39
0
210
0
220
0
230
1
0
SOLID
5
1AF
100
AcDbEntity
8
0
62
256
6
ByLayer
370
-1
48
1
60
0
100
AcDbTrace
10
45.825
20
-12.349167
30
0
11
45.825
21
-11.290833
31
0
12
49
22
-11.82
32
0
13
49
23
-11.82
33
0
39
0
210
0
220
0
230
1
0
MTEXT
5
1B0
100
AcDbEntity
8
0
62
256
6
ByLayer
370
18
48
1
60
0
100
AcDbMText
10
34.7
20
-5.975
30
0
210
0
220
0
230
1
1
\A1;28.6
40
2.8
41
0
44
1
50
0
71
5
72
5
7
iso_b_vert
0
POINT
5
1B1
100
AcDbEntity
8
Defpoints
62
0
6
ByLayer
370
-1
48
1
60
0
100
AcDbPoint
10
20.4
20
-4.5
30
0
39
0
210
0
220
0
230
1
50
360
0
POINT
5
1B2
100
AcDbEntity
8
Defpoints
62
0
6
ByLayer
370
-1
48
1
60
0
100
AcDbPoint
10
49
20
0
30
0
39
0
210
0
220
0
230
1
50
360
0
POINT
5
1B3
100
AcDbEntity
8
Defpoints
62
0
6
ByLayer
370
-1
48
1
60
0
100
AcDbPoint
10
49
20
-11.82
30
0
39
0
210
0
220
0
230
1
50
360
0
ENDBLK
5
1AA
100
AcDbEntity
8
0
100
AcDbBlockEnd
0
BLOCK
5
1BF
100
AcDbEntity
8
0
100
AcDbBlockBegin
2
_U5
70
0
10
0
20
0
30
0
3
_U5
0
MTEXT
5
1B5
100
AcDbEntity
8
SK2
62
256
6
ByLayer
370
18
48
1
60
0
100
AcDbMText
10
30.516454
20
-11.973893
30
0
210
0
220
0
230
1
1
\W0.7468;28.60
40
2.8
41
0
44
1.084337
50
0
71
7
72
5
7
iso_b_vert
0
LINE
5
1B6
100
AcDbEntity
8
SK2
62
256
6
ByLayer
370
13
48
1
60
0
100
AcDbLine
10
20.4
20
-6.0875
30
0
11
20.4
21
-12.32
31
0
39
0
210
0
220
0
230
1
0
LINE
5
1B7
100
AcDbEntity
8
SK2
62
256
6
ByLayer
370
13
48
1
60
0
100
AcDbLine
10
49
20
-1.5875
30
0
11
49
21
-12.32
31
0
39
0
210
0
220
0
230
1
0
LINE
5
1B8
100
AcDbEntity
8
SK2
62
256
6
ByLayer
370
13
48
1
60
0
100
AcDbLine
10
20.4
20
-11.82
30
0
11
49
21
-11.82
31
0
39
0
210
0
220
0
230
1
0
LINE
5
1B9
100
AcDbEntity
8
SK2
62
256
6
ByLayer
370
13
48
1
60
0
100
AcDbLine
10
20.4
20
-11.82
30
0
11
23.574998
21
-11.402003
31
0
39
0
210
0
220
0
230
1
0
LINE
5
1BA
100
AcDbEntity
8
SK2
62
256
6
ByLayer
370
13
48
1
60
0
100
AcDbLine
10
20.4
20
-11.82
30
0
11
23.575002
21
-12.237997
31
0
39
0
210
0
220
0
230
1
0
LINE
5
1BB
100
AcDbEntity
8
SK2
62
256
6
ByLayer
370
13
48
1
60
0
100
AcDbLine
10
23.574998
20
-11.402003
30
0
11
23.575002
21
-12.237997
31
0
39
0
210
0
220
0
230
1
0
LINE
5
1BC
100
AcDbEntity
8
SK2
62
256
6
ByLayer
370
13
48
1
60
0
100
AcDbLine
10
49
20
-11.82
30
0
11
45.825002
21
-12.237997
31
0
39
0
210
0
220
0
230
1
0
LINE
5
1BD
100
AcDbEntity
8
SK2
62
256
6
ByLayer
370
13
48
1
60
0
100
AcDbLine
10
49
20
-11.82
30
0
11
45.824998
21
-11.402003
31
0
39
0
210
0
220
0
230
1
0
LINE
5
1BE
100
AcDbEntity
8
SK2
62
256
6
ByLayer
370
13
48
1
60
0
100
AcDbLine
10
45.825002
20
-12.237997
30
0
11
45.824998
21
-11.402003
31
0
39
0
210
0
220
0
230
1
0
ENDBLK
5
1C0
100
AcDbEntity
8
0
100
AcDbBlockEnd
0
BLOCK
5
1C5
100
AcDbEntity
8
0
100
AcDbBlockBegin
2
*D14
70
1
10
0
20
0
30
0
3
*D14
0
LINE
5
1C7
100
AcDbEntity
8
0
62
256
6
ByLayer
370
-2
48
1
60
0
100
AcDbLine
10
-40
20
-1.5875
30
0
11
-40
21
-41.67512
31
0
39
0
210
0
220
0
230
1
0
LINE
5
1C8
100
AcDbEntity
8
0
62
256
6
ByLayer
370
-2
48
1
60
0
100
AcDbLine
10
49
20
-1.5875
30
0
11
49
21
-41.67512
31
0
39
0
210
0
220
0
230
1
0
LINE
5
1C9
100
AcDbEntity
8
0
62
256
6
ByLayer
370
-2
48
1
60
0
100
AcDbLine
10
-36.825
20
-38.50012
30
0
11
45.825
21
-38.50012
31
0
39
0
210
0
220
0
230
1
0
SOLID
5
1CA
100
AcDbEntity
8
0
62
256
6
ByLayer
370
-1
48
1
60
0
100
AcDbTrace
10
-36.825
20
-37.970953
30
0
11
-36.825
21
-39.029287
31
0
12
-40
22
-38.50012
32
0
13
-40
23
-38.50012
33
0
39
0
210
0
220
0
230
1
0
SOLID
5
1CB
100
AcDbEntity
8
0
62
256
6
ByLayer
370
-1
48
1
60
0
100
AcDbTrace
10
45.825
20
-39.029287
30
0
11
45.825
21
-37.970953
31
0
12
49
22
-38.50012
32
0
13
49
23
-38.50012
33
0
39
0
210
0
220
0
230
1
0
MTEXT
5
1CC
100
AcDbEntity
8
0
62
256
6
ByLayer
370
18
48
1
60
0
100
AcDbMText
10
4.5
20
-31.19362
30
0
210
0
220
0
230
1
1
\A1;89
40
3.50012
41
0
44
1
50
0
71
5
72
5
7
iso_b_vert
0
POINT
5
1CD
100
AcDbEntity
8
Defpoints
62
0
6
ByLayer
370
-1
48
1
60
0
100
AcDbPoint
10
-40
20
0
30
0
39
0
210
0
220
0
230
1
50
360
0
POINT
5
1CE
100
AcDbEntity
8
Defpoints
62
0
6
ByLayer
370
-1
48
1
60
0
100
AcDbPoint
10
49
20
0
30
0
39
0
210
0
220
0
230
1
50
360
0
POINT
5
1CF
100
AcDbEntity
8
Defpoints
62
0
6
ByLayer
370
-1
48
1
60
0
100
AcDbPoint
10
49
20
-38.50012
30
0
39
0
210
0
220
0
230
1
50
360
0
ENDBLK
5
1C6
100
AcDbEntity
8
0
100
AcDbBlockEnd
0
BLOCK
5
1DB
100
AcDbEntity
8
0
100
AcDbBlockBegin
2
_U6
70
0
10
0
20
0
30
0
3
_U6
0
MTEXT
5
1D1
100
AcDbEntity
8
SK2
62
256
6
ByLayer
370
18
48
1
60
0
100
AcDbMText
10
-0.729611
20
-37.467451
30
0
210
0
220
0
230
1
1
\W0.7468;89.00
40
3.50012
41
0
44
1.084337
50
0
71
7
72
5
7
iso_b_vert
0
LINE
5
1D2
100
AcDbEntity
8
SK2
62
256
6
ByLayer
370
13
48
1
60
0
100
AcDbLine
10
-40
20
-1.5875
30
0
11
-40
21
-41.67512
31
0
39
0
210
0
220
0
230
1
0
LINE
5
1D3
100
AcDbEntity
8
SK2
62
256
6
ByLayer
370
13
48
1
60
0
100
AcDbLine
10
49
20
-1.5875
30
0
11
49
21
-41.67512
31
0
39
0
210
0
220
0
230
1
0
LINE
5
1D4
100
AcDbEntity
8
SK2
62
256
6
ByLayer
370
13
48
1
60
0
100
AcDbLine
10
-40
20
-38.50012
30
0
11
49
21
-38.50012
31
0
39
0
210
0
220
0
230
1
0
LINE
5
1D5
100
AcDbEntity
8
SK2
62
256
6
ByLayer
370
13
48
1
60
0
100
AcDbLine
10
-40
20
-38.50012
30
0
11
-36.825002
21
-38.082123
31
0
39
0
210
0
220
0
230
1
0
LINE
5
1D6
100
AcDbEntity
8
SK2
62
256
6
ByLayer
370
13
48
1
60
0
100
AcDbLine
10
-40
20
-38.50012
30
0
11
-36.824998
21
-38.918117
31
0
39
0
210
0
220
0
230
1
0
LINE
5
1D7
100
AcDbEntity
8
SK2
62
256
6
ByLayer
370
13
48
1
60
0
100
AcDbLine
10
-36.825002
20
-38.082123
30
0
11
-36.824998
21
-38.918117
31
0
39
0
210
0
220
0
230
1
0
LINE
5
1D8
100
AcDbEntity
8
SK2
62
256
6
ByLayer
370
13
48
1
60
0
100
AcDbLine
10
49
20
-38.50012
30
0
11
45.825002
21
-38.918117
31
0
39
0
210
0
220
0
230
1
0
LINE
5
1D9
100
AcDbEntity
8
SK2
62
256
6
ByLayer
370
13
48
1
60
0
100
AcDbLine
10
49
20
-38.50012
30
0
11
45.824998
21
-38.082123
31
0
39
0
210
0
220
0
230
1
0
LINE
5
1DA
100
AcDbEntity
8
SK2
62
256
6
ByLayer
370
13
48
1
60
0
100
AcDbLine
10
45.825002
20
-38.918117
30
0
11
45.824998
21
-38.082123
31
0
39
0
210
0
220
0
230
1
0
ENDBLK
5
1DC
100
AcDbEntity
8
0
100
AcDbBlockEnd
0
ENDSEC
0
SECTION
2
ENTITIES
0
ARC
5
B2
100
AcDbEntity
8
1
62
256
6
ByLayer
370
18
48
1
60
0
100
AcDbCircle
39
0
10
1.188553
20
5.271141
30
0
40
0.800000000000002
210
0
220
0
230
1
100
AcDbArc
50
222.025623
51
270.03581
0
ARC
5
B3
100
AcDbEntity
8
1
62
256
6
ByLayer
370
18
48
1
60
0
100
AcDbCircle
39
0
10
1.188553
20
-5.271141
30
0
40
0.800000000000002
210
0
220
0
230
1
100
AcDbArc
50
89.96419
51
137.974377
0
ARC
5
B4
100
AcDbEntity
8
1
62
256
6
ByLayer
370
18
48
1
60
0
100
AcDbCircle
39
0
10
0
20
4.2
30
0
40
0.800000000000002
210
0
220
0
230
1
100
AcDbArc
50
42.025623
51
90
0
ARC
5
B5
100
AcDbEntity
8
1
62
256
6
ByLayer
370
18
48
1
60
0
100
AcDbCircle
39
0
10
0
20
-4.2
30
0
40
0.800000000000002
210
0
220
0
230
1
100
AcDbArc
50
270
51
317.974377
0
ARC
5
B6
100
AcDbEntity
8
SK2
62
256
6
ByLayer
370
13
48
1
60
0
100
AcDbCircle
39
0
10
49
20
0
30
0
40
20
210
0
220
0
230
1
100
AcDbArc
50
9.606349
51
69.999618
0
ARC
5
B7
100
AcDbEntity
8
SK2
62
256
6
ByLayer
370
13
48
1
60
0
100
AcDbCircle
39
0
10
49
20
0
30
0
40
20
210
0
220
0
230
1
100
AcDbArc
50
290.000382
51
350.393651
0
ELLIPSE
5
B8
100
AcDbEntity
8
1
62
256
6
ByLayer
370
18
48
1
60
0
100
AcDbEllipse
10
3.601725
20
4.348013
30
0
11
0.1
21
0
31
0
210
0
220
0
230
1
40
1
41
-3.14152047900702
42
-1.55343356072456
0
POINT
5
70
100
AcDbEntity
8
80
62
256
6
ByLayer
370
18
48
1
60
0
100
AcDbPoint
10
0
20
0
30
0
39
0
210
0
220
0
230
1
50
360
0
POINT
5
72
100
AcDbEntity
8
81
62
256
6
ByLayer
370
18
48
1
60
0
100
AcDbPoint
10
49
20
0
30
0
39
0
210
0
220
0
230
1
50
360
0
POINT
5
74
100
AcDbEntity
8
1
62
256
6
ByLayer
370
18
48
1
60
0
100
AcDbPoint
10
-40
20
0
30
0
39
0
210
0
220
0
230
1
50
360
0
POINT
5
76
100
AcDbEntity
8
1
62
256
6
ByLayer
370
18
48
1
60
1
100
AcDbPoint
10
0
20
-5
30
0
39
0
210
0
220
0
230
1
50
360
0
POINT
5
77
100
AcDbEntity
8
1
62
256
6
ByLayer
370
18
48
1
60
1
100
AcDbPoint
10
49
20
0
30
0
39
0
210
0
220
0
230
1
50
360
0
POINT
5
78
100
AcDbEntity
8
1
62
256
6
ByLayer
370
18
48
1
60
1
100
AcDbPoint
10
47.3621
20
-4.5
30
0
39
0
210
0
220
0
230
1
50
360
0
POINT
5
79
100
AcDbEntity
8
1
62
256
6
ByLayer
370
18
48
1
60
1
100
AcDbPoint
10
47.3621
20
4.5
30
0
39
0
210
0
220
0
230
1
50
360
0
POINT
5
7A
100
AcDbEntity
8
1
62
256
6
ByLayer
370
18
48
1
60
1
100
AcDbPoint
10
-40
20
5
30
0
39
0
210
0
220
0
230
1
50
360
0
POINT
5
7B
100
AcDbEntity
8
1
62
256
6
ByLayer
370
18
48
1
60
1
100
AcDbPoint
10
-40
20
-5
30
0
39
0
210
0
220
0
230
1
50
360
0
POINT
5
7C
100
AcDbEntity
8
1
62
256
6
ByLayer
370
18
48
1
60
1
100
AcDbPoint
10
-40
20
-5
30
0
39
0
210
0
220
0
230
1
50
360
0
POINT
5
7D
100
AcDbEntity
8
1
62
256
6
ByLayer
370
18
48
1
60
1
100
AcDbPoint
10
0
20
-5
30
0
39
0
210
0
220
0
230
1
50
360
0
POINT
5
7E
100
AcDbEntity
8
1
62
256
6
ByLayer
370
18
48
1
60
1
100
AcDbPoint
10
2
20
5
30
0
39
0
210
0
220
0
230
1
50
360
0
POINT
5
7F
100
AcDbEntity
8
1
62
256
6
ByLayer
370
18
48
1
60
1
100
AcDbPoint
10
49
20
0
30
0
39
0
210
0
220
0
230
1
50
360
0
POINT
5
80
100
AcDbEntity
8
1
62
256
6
ByLayer
370
18
48
1
60
1
100
AcDbPoint
10
20.4
20
-4.5
30
0
39
0
210
0
220
0
230
1
50
360
0
POINT
5
81
100
AcDbEntity
8
1
62
256
6
ByLayer
370
18
48
1
60
1
100
AcDbPoint
10
49
20
0
30
0
39
0
210
0
220
0
230
1
50
360
0
POINT
5
82
100
AcDbEntity
8
1
62
256
6
ByLayer
370
18
48
1
60
1
100
AcDbPoint
10
-40
20
0
30
0
39
0
210
0
220
0
230
1
50
360
0
POINT
5
83
100
AcDbEntity
8
1
62
256
6
ByLayer
370
18
48
1
60
1
100
AcDbPoint
10
49
20
0
30
0
39
0
210
0
220
0
230
1
50
360
0
SPLINE
5
B9
100
AcDbEntity
8
SK1
62
256
6
ByLayer
370
18
48
1
60
0
100
AcDbSpline
70
4
71
3
72
12
73
8
40
0
40
0
40
0
40
0
40
0.25
40
0.25
40
0.5
40
0.5
40
1
40
1
40
1
40
1
41
1
10
-39.25
20
0.986426225484678
30
-1E-16
41
1
10
-39.25
20
1.00301683688105
30
-1E-16
41
1
10
-39.2542356595512
20
1.01832451186004
30
-1E-16
41
1
10
-39.2670201478927
20
1.04341294137919
30
-1E-16
41
1
10
-39.2754787240944
20
1.0534216342088
30
-1E-16
41
1
10
-39.3037388541837
20
1.07696115541481
30
-1E-16
41
1
10
-39.3264173879165
20
1.08438883255172
30
-1E-16
41
1
10
-39.35
20
1.08390246810117
30
-1E-16
0
SPLINE
5
BA
100
AcDbEntity
8
SK1
62
256
6
ByLayer
370
18
48
1
60
0
100
AcDbSpline
70
4
71
3
72
12
73
8
40
0
40
0
40
0
40
0
40
0.5
40
0.5
40
0.75
40
0.75
40
1
40
1
40
1
40
1
41
1
10
-40.0000000000001
20
1.62734348174442
30
-1E-16
41
1
10
-39.912301819033
20
1.55975237925344
30
-1E-16
41
1
10
-39.8274381477608
20
1.48241311726676
30
-1E-16
41
1
10
-39.7059808874661
20
1.3475587017644
30
-1E-16
41
1
10
-39.6664759928798
20
1.29943938179937
30
-1E-16
41
1
10
-39.589878508053
20
1.19556571171051
30
-1E-16
41
1
10
-39.5527406338607
20
1.13966313707584
30
-1E-16
41
1
10
-39.5179491924311
20
1.08043470303517
30
-1E-16
0
SPLINE
5
BB
100
AcDbEntity
8
SK1
62
256
6
ByLayer
370
18
48
1
60
0
100
AcDbSpline
70
4
71
3
72
10
73
6
40
0
40
0
40
0
40
0
40
0.5
40
0.5
40
1
40
1
40
1
40
1
41
1
10
-39.5179491924311
20
-0.919162810287446
30
1E-16
41
1
10
-39.5876699751126
20
-1.04194245522285
30
1E-16
41
1
10
-39.6641388303331
20
-1.14821963196866
30
1E-16
41
1
10
-39.8261141227368
20
-1.33799469653559
30
1E-16
41
1
10
-39.9120448679354
20
-1.42150369037543
30
1E-16
41
1
10
-40
20
-1.49452713533145
30
1E-16
0
SPLINE
5
BC
100
AcDbEntity
8
SK1
62
256
6
ByLayer
370
18
48
1
60
0
100
AcDbSpline
70
4
71
3
72
12
73
8
40
0
40
0
40
0
40
0
40
0.499999999999996
40
0.499999999999996
40
0.749999999999998
40
0.749999999999998
40
1
40
1
40
1
40
1
41
1
10
-39.35
20
-0.915695045221497
30
1E-16
41
1
10
-39.3264104701643
20
-0.915208538100217
30
1E-16
41
1
10
-39.3036887129937
20
-0.906697718351268
30
1E-16
41
1
10
-39.2755991955322
20
-0.881963965671531
30
1E-16
41
1
10
-39.2670477710575
20
-0.871429685859539
30
1E-16
41
1
10
-39.2542669630691
20
-0.845640579434104
30
1E-16
41
1
10
-39.25
20
-0.829923835145109
30
1E-16
41
1
10
-39.25
20
-0.813211536505662
30
0
0
SPLINE
5
BD
100
AcDbEntity
8
SK1
62
256
6
ByLayer
370
18
48
1
60
0
100
AcDbSpline
70
4
71
3
72
8
73
4
40
0
40
0
40
0
40
0
40
1
40
1
40
1
40
1
41
1
10
-39.5179491924311
20
-0.919162810287446
30
1E-16
41
1
10
-39.462000627302
20
-0.918006209469183
30
1E-16
41
1
10
-39.4060161806686
20
-0.916850314995486
30
1E-16
41
1
10
-39.35
20
-0.915695045221469
30
1E-16
0
SPLINE
5
BE
100
AcDbEntity
8
SK1
62
256
6
ByLayer
370
18
48
1
60
0
100
AcDbSpline
70
4
71
3
72
8
73
4
40
0
40
0
40
0
40
0
40
1
40
1
40
1
40
1
41
1
10
-39.35
20
1.08390246810114
30
-1E-16
41
1
10
-39.4060167595287
20
1.08274718638879
30
-1E-16
41
1
10
-39.4620012295868
20
1.08159129140267
30
-1E-16
41
1
10
-39.5179491924311
20
1.08043470303517
30
-1E-16
0
SPLINE
5
BF
100
AcDbEntity
8
SK1
62
256
6
ByLayer
370
18
48
1
60
0
100
AcDbSpline
70
4
71
3
72
12
73
8
40
0
40
0
40
0
40
0
40
0.5
40
0.5
40
0.75
40
0.75
40
1
40
1
40
1
40
1
41
1
10
-39.35
20
0.915695045221526
30
-1E-16
41
1
10
-39.3264104701643
20
0.915208538100245
30
-1E-16
41
1
10
-39.3036887129937
20
0.906697718351296
30
-1E-16
41
1
10
-39.2755991955322
20
0.881963965671531
30
-1E-16
41
1
10
-39.2670477710575
20
0.871429685859567
30
-1E-16
41
1
10
-39.2542669630691
20
0.845640579434132
30
-1E-16
41
1
10
-39.25
20
0.829923835145109
30
-1E-16
41
1
10
-39.25
20
0.81321153650569
30
0
0
SPLINE
5
C0
100
AcDbEntity
8
SK1
62
256
6
ByLayer
370
18
48
1
60
0
100
AcDbSpline
70
4
71
3
72
10
73
6
40
0
40
0
40
0
40
0
40
0.5
40
0.5
40
1
40
1
40
1
40
1
41
1
10
-39.5179491924311
20
0.919162810287446
30
-1E-16
41
1
10
-39.5876699751126
20
1.04194245522285
30
-1E-16
41
1
10
-39.6641388303331
20
1.14821963196866
30
-1E-16
41
1
10
-39.8261141227368
20
1.33799469653559
30
-1E-16
41
1
10
-39.9120448679354
20
1.42150369037543
30
-1E-16
41
1
10
-40
20
1.49452713533145
30
-1E-16
0
SPLINE
5
C1
100
AcDbEntity
8
SK1
62
256
6
ByLayer
370
18
48
1
60
0
100
AcDbSpline
70
4
71
3
72
8
73
4
40
0
40
0
40
0
40
0
40
1
40
1
40
1
40
1
41
1
10
-39.5179491924311
20
0.919162810287446
30
-1E-16
41
1
10
-39.462000627302
20
0.918006209469183
30
-1E-16
41
1
10
-39.4060161806686
20
0.916850314995486
30
-1E-16
41
1
10
-39.35
20
0.915695045221469
30
-1E-16
0
SPLINE
5
C2
100
AcDbEntity
8
1
62
256
6
ByLayer
370
18
48
1
60
0
100
AcDbSpline
70
4
71
3
72
10
73
6
40
0
40
0
40
0
40
0
40
0.5
40
0.5
40
1
40
1
40
1
40
1
41
1
10
47.8545721635896
20
1.24925787221085
30
0
41
1
10
47.9801730744582
20
1.26793265959748
30
0
41
1
10
48.1053297309862
20
1.28900702727287
30
0
41
1
10
48.354403519384
20
1.33785088896434
30
0
41
1
10
48.4783118571021
20
1.3656678834127
30
0
41
1
10
48.6012206500504
20
1.39888378499177
30
0
0
SPLINE
5
C3
100
AcDbEntity
8
1
62
256
6
ByLayer
370
18
48
1
60
0
100
AcDbSpline
70
4
71
3
72
34
73
30
40
0
40
0
40
0
40
0
40
0.0410420251789923
40
0.0410420251789923
40
0.0896116152099953
40
0.0896116152099953
40
0.138181205240998
40
0.138181205240998
40
0.235320385303004
40
0.235320385303004
40
0.33245956536501
40
0.33245956536501
40
0.429598745427016
40
0.429598745427016
40
0.526737925489022
40
0.526737925489022
40
0.575307515520025
40
0.575307515520025
40
0.623877105551028
40
0.623877105551028
40
0.721016285613036
40
0.721016285613036
40
0.769585875644039
40
0.769585875644039
40
0.818155465675042
40
0.818155465675042
40
0.915294645737048
40
0.915294645737048
40
1
40
1
40
1
40
1
41
1
10
32.7981178658908
20
4.27195103847814
30
0
41
1
10
32.9878752411979
20
4.27603266674848
30
0
41
1
10
33.1779659819229
20
4.27678566581307
30
0
41
1
10
33.59416834186
20
4.27050284781552
30
0
41
1
10
33.8203826001253
20
4.26234669916243
30
0
41
1
10
34.2740293452971
20
4.23723577894668
30
0
41
1
10
34.501716506356
20
4.2202039929432
30
0
41
1
10
35.1816913603939
20
4.15735985435134
30
0
41
1
10
35.6321907719801
20
4.10053939019954
30
0
41
1
10
36.5315882784453
20
3.95092637665724
30
0
41
1
10
36.9802124018909
20
3.85961726290495
30
0
41
1
10
37.8767619734131
20
3.64756392659635
30
2E-16
41
1
10
38.3241843844189
20
3.52745593449026
30
-2E-16
41
1
10
39.2218793302831
20
3.25758420336137
30
-2E-16
41
1
10
39.6718566012929
20
3.10851411051294
30
-2E-16
41
1
10
40.3490343529658
20
2.86620828279919
30
-2E-16
41
1
10
40.5750713905997
20
2.78233638067954
30
-2E-16
41
1
10
41.0283331161757
20
2.60859493842517
30
-2E-16
41
1
10
41.2557809253026
20
2.51860617314864
30
-2E-16
41
1
10
41.9352798704319
20
2.24227737763755
30
-1E-16
41
1
10
42.3862532445951
20
2.04915939199662
30
-1E-16
41
1
10
43.0604671085162
20
1.7486949693145
30
-1E-16
41
1
10
43.2847586002432
20
1.64667772294712
30
-1E-16
41
1
10
43.7331087571083
20
1.43971251945689
30
-1E-16
41
1
10
43.9572391458448
20
1.33481349909621
30
-1E-16
41
1
10
44.6297411422839
20
1.01665191049557
30
-1E-16
41
1
10
45.078238091585
20
0.799968412281402
30
0
41
1
10
45.9191875339811
20
0.388656829758929
30
0
41
1
10
46.3114288498339
20
0.19471348251659
30
0
41
1
10
46.7046828877085
20
-0.0005247549019884
30
0
0
SPLINE
5
C4
100
AcDbEntity
8
1
62
256
6
ByLayer
370
18
48
1
60
0
100
AcDbSpline
70
4
71
3
72
8
73
4
40
0
40
0
40
0
40
0
40
1
40
1
40
1
40
1
41
1
10
47.6820114986554
20
0.799425634649879
30
0
41
1
10
47.6565544167382
20
0.809541672321444
30
0
41
1
10
47.6312374831066
20
0.819176659659178
30
-1E-16
41
1
10
47.6074107847387
20
0.826815246920575
30
-1E-16
0
SPLINE
5
C5
100
AcDbEntity
8
1
62
256
6
ByLayer
370
18
48
1
60
0
100
AcDbSpline
70
4
71
3
72
26
73
22
40
0
40
0
40
0
40
0
40
0.125779615265954
40
0.125779615265954
40
0.320635894482308
40
0.320635894482308
40
0.369349964286396
40
0.369349964286396
40
0.418064034090484
40
0.418064034090484
40
0.515492173698661
40
0.515492173698661
40
0.710348452915014
40
0.710348452915014
40
0.80777659252319
40
0.80777659252319
40
0.856490662327278
40
0.856490662327278
40
0.905204732131366
40
0.905204732131366
40
1
40
1
40
1
40
1
41
1
10
7.32972596189018
20
0.213255565331139
30
0
41
1
10
7.91733323271532
20
-0.0748201500940695
30
0
41
1
10
8.50308816470155
20
-0.363504556201747
30
0
41
1
10
9.9975404862553
20
-1.08849849412363
30
1E-16
41
1
10
10.906494244287
20
-1.51967406676027
30
1E-16
41
1
10
12.0552072905829
20
-2.02308710847507
30
1E-16
41
1
10
12.2855929883003
20
-2.12204422319937
30
1E-16
41
1
10
12.7442926993272
20
-2.31445649716176
30
1E-16
41
1
10
12.9730529115133
20
-2.40811023633543
30
1E-16
41
1
10
13.6580025838969
20
-2.68076857778112
30
2E-16
41
1
10
14.1128875960774
20
-2.85142086246793
30
2E-16
41
1
10
15.4755876761492
20
-3.32524758833753
30
2E-16
41
1
10
16.3812318891453
20
-3.590621469647
30
2E-16
41
1
10
17.7487541054828
20
-3.89611229040094
30
0
41
1
10
18.2060139651742
20
-3.98237732414404
30
0
41
1
10
18.8958118017783
20
-4.08682166745152
30
0
41
1
10
19.1257745409784
20
-4.1173755710422
30
0
41
1
10
19.58393526951
20
-4.16949095433662
30
0
41
1
10
19.8124467999201
20
-4.19111271075465
30
0
41
1
10
20.484422412224
20
-4.24186866538633
30
0
41
1
10
20.9268046024046
20
-4.25868330803732
30
0
41
1
10
21.3686238552062
20
-4.25887660650596
30
0
0
SPLINE
5
C6
100
AcDbEntity
8
1
62
256
6
ByLayer
370
18
48
1
60
0
100
AcDbSpline
70
4
71
3
72
8
73
4
40
0
40
0
40
0
40
0
40
1
40
1
40
1
40
1
41
1
10
48.2453612463864
20
-0.473152665027584
30
0
41
1
10
48.0958801025894
20
-0.0741298116988105
30
0
41
1
10
47.907841203638
20
0.350230952960857
30
0
41
1
10
47.6820114986554
20
0.799425634649879
30
0
0
SPLINE
5
C7
100
AcDbEntity
8
1
62
256
6
ByLayer
370
18
48
1
60
0
100
AcDbSpline
70
4
71
3
72
10
73
6
40
0
40
0
40
0
40
0
40
0.346803476988922
40
0.346803476988922
40
1
40
1
40
1
40
1
41
1
10
5.59502939855869
20
4.25746158442888
30
0
41
1
10
5.6260735482667
20
4.25800149324547
30
0
41
1
10
5.65710363345752
20
4.25846388967102
30
0
41
1
10
5.74652936406267
20
4.25957631504161
30
0
41
1
10
5.80490119892949
20
4.26002765933302
30
0
41
1
10
5.86323610551528
20
4.26019748901524
30
0
0
SPLINE
5
C8
100
AcDbEntity
8
1
62
256
6
ByLayer
370
18
48
1
60
0
100
AcDbSpline
70
4
71
3
72
38
73
34
40
0
40
0
40
0
40
0
40
0.0421226566549877
40
0.0421226566549877
40
0.0969713359899993
40
0.0969713359899993
40
0.151820015325011
40
0.151820015325011
40
0.261517373995035
40
0.261517373995035
40
0.316366053330048
40
0.316366053330048
40
0.371214732665061
40
0.371214732665061
40
0.426063412000073
40
0.426063412000073
40
0.480912091335086
40
0.480912091335086
40
0.535760770670099
40
0.535760770670099
40
0.590609450005112
40
0.590609450005112
40
0.700306808675139
40
0.700306808675139
40
0.755155488010153
40
0.755155488010153
40
0.810004167345166
40
0.810004167345166
40
0.919701526015191
40
0.919701526015191
40
0.974550205350204
40
0.974550205350204
40
1
40
1
40
1
40
1
41
1
10
7.19717874457848
20
4.2131759696689
30
0
41
1
10
7.36964898957078
20
4.20050610251056
30
0
41
1
10
7.54196690068673
20
4.18532417095236
30
0
41
1
10
7.93844314101631
20
4.14471771767066
30
0
41
1
10
8.16254250089179
20
4.11754493984614
30
0
41
1
10
8.61041564756937
20
4.05549635612769
30
0
41
1
10
8.83419131350351
20
4.02062585037072
30
0
41
1
10
9.50611522252316
20
3.90332539583571
30
0
41
1
10
9.95487885247738
20
3.80813053672807
30
0
41
1
10
10.6299514872511
20
3.64278175499922
30
2E-16
41
1
10
10.8553015030387
20
3.58390750963272
30
-2E-16
41
1
10
11.3065875242009
20
3.45904174462174
30
-2E-16
41
1
10
11.5324938074129
20
3.39308193951612
30
-2E-16
41
1
10
11.9859108050095
20
3.25363052727627
30
-2E-16
41
1
10
12.2131365024373
20
3.18018295340633
30
-2E-16
41
1
10
12.6656355000293
20
3.02748451219091
30
-2E-16
41
1
10
12.8913516302904
20
2.94810162605947
30
-2E-16
41
1
10
13.3418792891907
20
2.78393468422016
30
-2E-16
41
1
10
13.5666932102789
20
2.69915870197627
30
-2E-16
41
1
10
14.0154833360776
20
2.5245397814966
30
-2E-16
41
1
10
14.2394364337521
20
2.43469788585171
30
-1E-16
41
1
10
14.9112691934714
20
2.15828606602233
30
-1E-16
41
1
10
15.3592140169186
20
1.96485537662221
30
-1E-16
41
1
10
16.0314030551872
20
1.66395049270744
30
-1E-16
41
1
10
16.255531058402
20
1.56184177843534
30
-1E-16
41
1
10
16.7038012531069
20
1.35415217476816
30
-1E-16
41
1
10
16.9279245003075
20
1.24855646967362
30
-1E-16
41
1
10
17.602079206934
20
0.928222892438384
30
-1E-16
41
1
10
18.0532730786077
20
0.709524311509767
30
0
41
1
10
18.7338512608721
20
0.376734977888219
30
0
41
1
10
18.9610458475436
20
0.265286763516428
30
0
41
1
10
19.2922318473283
20
0.102445924895307
30
0
41
1
10
19.3970712651704
20
0.0508298667794236
30
0
41
1
10
19.5017992704871
20
-0.000754540500111
30
0
0
SPLINE
5
C9
100
AcDbEntity
8
1
62
256
6
ByLayer
370
18
48
1
60
0
100
AcDbSpline
70
4
71
3
72
8
73
4
40
0
40
0
40
0
40
0
40
1
40
1
40
1
40
1
41
1
10
20
20
-4.48244659246126
30
0
41
1
10
20.0411130181797
20
-4.48277427768917
30
0
41
1
10
20.0822255935027
20
-4.48294978590704
30
0
41
1
10
20.1233375940036
20
-4.48297333147673
30
0
0
SPLINE
5
CA
100
AcDbEntity
8
1
62
256
6
ByLayer
370
18
48
1
60
0
100
AcDbSpline
70
4
71
3
72
12
73
8
40
0
40
0
40
0
40
0
40
0.163785731897058
40
0.163785731897058
40
0.442523821264703
40
0.442523821264703
40
1
40
1
40
1
40
1
41
1
10
44.1149584352647
20
4.19238219487468
30
0
41
1
10
44.2813271429513
20
4.22379201735257
30
0
41
1
10
44.4477981329997
20
4.25290130712796
30
0
41
1
10
44.8974270516056
20
4.32509942473754
30
0
41
1
10
45.1801653428419
20
4.36362751926654
30
0
41
1
10
46.0277944494134
20
4.45810771791801
30
-1E-16
41
1
10
46.5920628898579
20
4.4929657286568
30
0
41
1
10
47.1577438581336
20
4.49902412888045
30
0
0
SPLINE
5
CB
100
AcDbEntity
8
1
62
256
6
ByLayer
370
18
48
1
60
0
100
AcDbSpline
70
4
71
3
72
8
73
4
40
0
40
0
40
0
40
0
40
1
40
1
40
1
40
1
41
1
10
48.9958502530311
20
0.248442097224967
30
0
41
1
10
48.9764127264103
20
0.18365531550171
30
0
41
1
10
48.9568782554938
20
0.118898818621176
30
0
41
1
10
48.9372472027592
20
0.0541724933472949
30
0
0
SPLINE
5
CC
100
AcDbEntity
8
1
62
256
6
ByLayer
370
18
48
1
60
0
100
AcDbSpline
70
4
71
3
72
14
73
10
40
0
40
0
40
0
40
0
40
0.211322055844284
40
0.211322055844284
40
0.474214703896189
40
0.474214703896189
40
0.737107351948095
40
0.737107351948095
40
1
40
1
40
1
40
1
41
1
10
47.2012962079728
20
0.952461681201498
30
1E-16
41
1
10
47.2307153282503
20
0.976512994228102
30
1E-16
41
1
10
47.2642423258434
20
1.00167380296148
30
0
41
1
10
47.3494547804826
20
1.05936772536026
30
0
41
1
10
47.4024969294694
20
1.09147613321582
30
0
41
1
10
47.5181804799886
20
1.15098523289549
30
0
41
1
10
47.5820729858863
20
1.17847286016257
30
0
41
1
10
47.7141502996127
20
1.22206518268141
30
0
41
1
10
47.7836644310808
20
1.23871505990542
30
0
41
1
10
47.8545721635896
20
1.24925787221079
30
0
0
SPLINE
5
CD
100
AcDbEntity
8
1
62
256
6
ByLayer
370
18
48
1
60
0
100
AcDbSpline
70
4
71
3
72
8
73
4
40
0
40
0
40
0
40
0
40
1
40
1
40
1
40
1
41
1
10
3.55582866004295
20
2.07899614722405
30
-1E-16
41
1
10
3.52313993930187
20
2.09393796627666
30
-1E-16
41
1
10
3.50172489484075
20
2.12500408880538
30
-1E-16
41
1
10
3.50172489484075
20
2.15723425890278
30
-1E-16
0
SPLINE
5
CE
100
AcDbEntity
8
1
62
256
6
ByLayer
370
18
48
1
60
0
100
AcDbSpline
70
4
71
3
72
10
73
6
40
0
40
0
40
0
40
0
40
0.5
40
0.5
40
1
40
1
40
1
40
1
41
1
10
3.50172489484078
20
4.34426100502881
30
0
41
1
10
3.50172489484075
20
4.33605194494967
30
0
41
1
10
3.52042906824863
20
4.32771917601849
30
0
41
1
10
3.57932842316799
20
4.31860007885155
30
0
41
1
10
3.61728003265676
20
4.31828433245991
30
0
41
1
10
3.64789783291121
20
4.32239946496873
30
0
0
SPLINE
5
CF
100
AcDbEntity
8
1
62
256
6
ByLayer
370
18
48
1
60
0
100
AcDbSpline
70
4
71
3
72
10
73
6
40
0
40
0
40
0
40
0
40
0.5
40
0.5
40
1
40
1
40
1
40
1
41
1
10
3.50172489484078
20
-4.34426100502881
30
0
41
1
10
3.50172489484075
20
-4.33605194494967
30
0
41
1
10
3.52042906824863
20
-4.32771917601849
30
0
41
1
10
3.57932842316797
20
-4.31860007885155
30
0
41
1
10
3.61728003265676
20
-4.31828433245991
30
0
41
1
10
3.64789783291121
20
-4.32239946496873
30
0
0
SPLINE
5
D0
100
AcDbEntity
8
1
62
256
6
ByLayer
370
18
48
1
60
0
100
AcDbSpline
70
4
71
3
72
42
73
38
40
0
40
0
40
0
40
0
40
0.0065272015637773
40
0.0065272015637773
40
0.0545210569435027
40
0.0545210569435027
40
0.102514912323228
40
0.102514912323228
40
0.198502623082679
40
0.198502623082679
40
0.246496478462405
40
0.246496478462405
40
0.294490333842132
40
0.294490333842132
40
0.390478044601583
40
0.390478044601583
40
0.43847189998131
40
0.43847189998131
40
0.486465755361036
40
0.486465755361036
40
0.534459610740762
40
0.534459610740762
40
0.582453466120489
40
0.582453466120489
40
0.630447321500216
40
0.630447321500216
40
0.678441176879942
40
0.678441176879942
40
0.774428887639395
40
0.774428887639395
40
0.822422743019121
40
0.822422743019121
40
0.870416598398848
40
0.870416598398848
40
0.9664043091583
40
0.9664043091583
40
1
40
1
40
1
40
1
41
1
10
19.9554614977022
20
-0.234794263671176
30
0
41
1
10
19.9248436583516
20
-0.219759744842634
30
0
41
1
10
19.8942181896701
20
-0.204717620209522
30
0
41
1
10
19.6383425545852
20
-0.0790069760842869
30
0
41
1
10
19.4126660174253
20
0.0320072472298989
30
0
41
1
10
18.960142274554
20
0.254005286301719
30
0
41
1
10
18.7329154025405
20
0.365229275171146
30
0
41
1
10
18.0521838035929
20
0.69741098506509
30
0
41
1
10
17.6008815155017
20
0.915754500835874
30
-1E-16
41
1
10
16.9265599061087
20
1.23564258511448
30
-1E-16
41
1
10
16.7023796286543
20
1.34110379576515
30
-1E-16
41
1
10
16.2539925950891
20
1.54853250164896
30
-1E-16
41
1
10
16.0298074559543
20
1.65052512305337
30
-1E-16
41
1
10
15.3574502116627
20
1.95112511711142
30
-1E-16
41
1
10
14.9093986462407
20
2.14441100132603
30
-1E-16
41
1
10
14.237407645719
20
2.42068989619662
30
-1E-16
41
1
10
14.013398866958
20
2.51049266872269
30
-2E-16
41
1
10
13.5645006150983
20
2.68505335466131
30
-2E-16
41
1
10
13.3396354619835
20
2.76981389859029
30
-2E-16
41
1
10
12.8890103971428
20
2.93397630716331
30
-2E-16
41
1
10
12.6632486196414
20
3.01337116315699
30
-2E-16
41
1
10
12.2106638206763
20
3.1661214525364
30
-2E-16
41
1
10
11.9834019206265
20
3.23960861092613
30
-2E-16
41
1
10
11.5298886639179
20
3.37917208711048
30
-2E-16
41
1
10
11.3039299367982
20
3.4451959892281
30
-2E-16
41
1
10
10.8525369270906
20
3.57021107388377
30
-2E-16
41
1
10
10.6271334910722
20
3.6291742019007
30
2E-16
41
1
10
9.95189989387205
20
3.79482822860152
30
0
41
1
10
9.50302856430369
20
3.89027821945805
30
0
41
1
10
8.83094026868798
20
4.00802919868687
30
0
41
1
10
8.60710740148122
20
4.04305828984624
30
0
41
1
10
8.15911935479141
20
4.10544133672602
30
0
41
1
10
7.93496452952704
20
4.13279270815971
30
0
41
1
10
7.26204112271569
20
4.2022635171646
30
0
41
1
10
6.8127793612033
20
4.23195348555842
30
0
41
1
10
6.20405802527628
20
4.24827569387736
30
0
41
1
10
6.04605067441872
20
4.2503078664742
30
0
41
1
10
5.88777651763507
20
4.25026436900723
30
0
0
SPLINE
5
D1
100
AcDbEntity
8
1
62
256
6
ByLayer
370
18
48
1
60
0
100
AcDbSpline
70
4
71
3
72
24
73
20
40
0
40
0
40
0
40
0
40
0.0729925123226476
40
0.0729925123226476
40
0.152851746691903
40
0.152851746691903
40
0.232710981061159
40
0.232710981061159
40
0.392429449799671
40
0.392429449799671
40
0.552147918538182
40
0.552147918538182
40
0.711866387276694
40
0.711866387276694
40
0.79172562164595
40
0.79172562164595
40
0.871584856015206
40
0.871584856015206
40
1
40
1
40
1
40
1
41
1
10
3.60212835034642
20
4.24801287372762
30
0
41
1
10
3.60212218642471
20
4.24796921366743
30
0
41
1
10
3.60211587341769
20
4.24369487386997
30
0
41
1
10
3.60210251759867
20
4.22598606291774
30
0
41
1
10
3.60209544601963
20
4.21174083417671
30
0
41
1
10
3.60208116512447
20
4.1732610922304
30
0
41
1
10
3.60207393776358
20
4.14894049715249
30
0
41
1
10
3.60205228163275
20
4.06155613992377
30
0
41
1
10
3.60203782828293
20
3.98398224300297
30
0
41
1
10
3.60200895001151
20
3.79098113702537
30
0
41
1
10
3.60199464741766
20
3.67637184049681
30
2E-16
41
1
10
3.60196598490035
20
3.4125533134625
30
-2E-16
41
1
10
3.60195171913628
20
3.26422327651218
30
-2E-16
41
1
10
3.601929933148
20
3.01888769884357
30
-2E-16
41
1
10
3.60192263512397
20
2.93365165003749
30
-2E-16
41
1
10
3.60190783355577
20
2.75630455300927
30
-2E-16
41
1
10
3.60190031220907
20
2.66396871967953
30
-2E-16
41
1
10
3.6018803523213
20
2.41555415995862
30
-1E-16
41
1
10
3.60186774017538
20
2.25531595362625
30
-1E-16
41
1
10
3.60185449714385
20
2.0879739308505
30
-1E-16
0
SPLINE
5
D2
100
AcDbEntity
8
1
62
256
6
ByLayer
370
18
48
1
60
0
100
AcDbSpline
70
4
71
3
72
8
73
4
40
0
40
0
40
0
40
0
40
1
40
1
40
1
40
1
41
1
10
20
20
4.48289521916396
30
0
41
1
10
20
20
4.42855197642643
30
0
41
1
10
20
20
4.37386919809146
30
0
41
1
10
20
20
4.31885066639478
30
0
0
SPLINE
5
D3
100
AcDbEntity
8
1
62
256
6
ByLayer
370
18
48
1
60
0
100
AcDbSpline
70
4
71
3
72
34
73
30
40
0
40
0
40
0
40
0
40
0.0978519449483356
40
0.0978519449483356
40
0.195703889896672
40
0.195703889896672
40
0.244629862370841
40
0.244629862370841
40
0.29355583484501
40
0.29355583484501
40
0.391407779793348
40
0.391407779793348
40
0.440333752267518
40
0.440333752267518
40
0.489259724741688
40
0.489259724741688
40
0.587111669690029
40
0.587111669690029
40
0.684963614638369
40
0.684963614638369
40
0.78281555958671
40
0.78281555958671
40
0.88066750453505
40
0.88066750453505
40
0.929593477009219
40
0.929593477009219
40
0.978519449483388
40
0.978519449483388
40
1
40
1
40
1
40
1
41
1
10
46.8833020624439
20
-0.100161155509738
30
0
41
1
10
46.4318578448196
20
0.123668729489566
30
0
41
1
10
45.9818419277839
20
0.34605419660565
30
0
41
1
10
45.0831753997433
20
0.784760009762238
30
0
41
1
10
44.6345721755331
20
1.00113446813259
30
-1E-16
41
1
10
43.9619168009559
20
1.31892435363102
30
-1E-16
41
1
10
43.7377359240447
20
1.42371412193114
30
-1E-16
41
1
10
43.2892892633622
20
1.63049782433927
30
-1E-16
41
1
10
43.0649519953064
20
1.73243116862739
30
-1E-16
41
1
10
42.3906098480347
20
2.03269360028605
30
-1E-16
41
1
10
41.9395604318546
20
2.22573296194969
30
-1E-16
41
1
10
41.2599678186804
20
2.50204740440702
30
-2E-16
41
1
10
41.0324889405899
20
2.59205364739296
30
-2E-16
41
1
10
40.5791038832317
20
2.76587111772605
30
-2E-16
41
1
10
40.353007763539
20
2.84978938361164
30
-2E-16
41
1
10
39.6756518284992
20
3.09228747436904
30
-2E-16
41
1
10
39.2255548872154
20
3.24154732420362
30
-2E-16
41
1
10
38.327622030541
20
3.5119298770851
30
-2E-16
41
1
10
37.880082215522
20
3.63234300732898
30
2E-16
41
1
10
36.9833206040461
20
3.84508813102914
30
0
41
1
10
36.5345955387676
20
3.93680346866842
30
0
41
1
10
35.6350170945215
20
4.08734266526608
30
0
41
1
10
35.1844318872125
20
4.14467145316857
30
0
41
1
10
34.5043545568678
20
4.20831315813368
30
0
41
1
10
34.2766300743759
20
4.22562877575291
30
0
41
1
10
33.8228697077192
20
4.25133318899671
30
0
41
1
10
33.5965970734613
20
4.25979691597436
30
0
41
1
10
33.2718889452268
20
4.26515977931504
30
0
41
1
10
33.1729651002352
20
4.26582076876298
30
0
41
1
10
33.074156591891
20
4.26554488356578
30
0
0
SPLINE
5
D4
100
AcDbEntity
8
1
62
256
6
ByLayer
370
18
48
1
60
0
100
AcDbSpline
70
4
71
3
72
34
73
30
40
0
40
0
40
0
40
0
40
0.497802391033711
40
0.497802391033711
40
0.668866401003411
40
0.668866401003411
40
0.781976832016449
40
0.781976832016449
40
0.856679023454285
40
0.856679023454285
40
0.906051265357061
40
0.906051265357061
40
0.938705349803203
40
0.938705349803203
40
0.960352204872204
40
0.960352204872204
40
0.974748037934985
40
0.974748037934985
40
0.984176969696438
40
0.984176969696438
40
0.990325414582772
40
0.990325414582772
40
0.994385059698802
40
0.994385059698802
40
0.997164212145423
40
0.997164212145423
40
0.999753369869162
40
0.999753369869162
40
1
40
1
40
1
40
1
41
1
10
47.15774385813
20
4.499024128874
30
0
41
1
10
47.2028080671454
20
4.46959588849995
30
0
41
1
10
47.2479369837193
20
4.43989728534046
30
0
41
1
10
47.3086421331521
20
4.39965356158004
30
0
41
1
10
47.3241765111385
20
4.38932917462827
30
0
41
1
10
47.3500072167975
20
4.37211873891323
30
0
41
1
10
47.3602952522601
20
4.36525276032864
30
0
41
1
10
47.377391678216
20
4.35382456787931
30
0
41
1
10
47.3841954156927
20
4.34927173045762
30
0
41
1
10
47.3955027370516
20
4.34169730769773
30
0
41
1
10
47.4000044043195
20
4.33867968818336
30
0
41
1
10
47.4074851856851
20
4.3336616678713
30
0
41
1
10
47.4104643413193
20
4.33166238838555
30
0
41
1
10
47.4154036503375
20
4.32834638773488
30
0
41
1
10
47.4173663228946
20
4.3270284436455
30
0
41
1
10
47.4206166515509
20
4.32484531928995
30
0
41
1
10
47.4219146170153
20
4.32397333192762
30
0
41
1
10
47.4240884685946
20
4.32251234854917
30
0
41
1
10
47.4249554697049
20
4.32192952080612
30
0
41
1
10
47.4264004280344
20
4.32095793823947
30
0
41
1
10
47.4269754569862
20
4.32057121938141
30
0
41
1
10
47.4279272824511
20
4.31993108540411
30
0
41
1
10
47.4283050016462
20
4.31967705609483
30
0
41
1
10
47.4289317578445
20
4.31925560016813
30
0
41
1
10
47.4291842356336
20
4.31908583995744
30
0
41
1
10
47.4296570108179
20
4.31876804220536
30
0
41
1
10
47.4298814950289
20
4.31861717868182
30
0
41
1
10
47.430099947595
20
4.31847049982923
30
0
41
1
10
47.4301187813008
20
4.31845785538772
30
0
41
1
10
47.430137303125
20
4.3184454219674
30
0
0
SPLINE
5
D5
100
AcDbEntity
8
1
62
256
6
ByLayer
370
18
48
1
60
0
100
AcDbSpline
70
4
71
3
72
14
73
10
40
0
40
0
40
0
40
0
40
0.26908099407572
40
0.26908099407572
40
0.50388876028076
40
0.50388876028076
40
0.780343402335002
40
0.780343402335002
40
1
40
1
40
1
40
1
41
1
10
46.8779261808319
20
-0.0865816792639293
30
0
41
1
10
46.8786651339036
20
-0.0869189796656258
30
0
41
1
10
46.8793894745348
20
-0.0876270265849257
30
0
41
1
10
46.8805991220348
20
-0.0893830671873559
30
0
41
1
10
46.8811197338905
20
-0.0903999079878872
30
0
41
1
10
46.882092903832
20
-0.0928779898953564
30
0
41
1
10
46.8825326431497
20
-0.0944242562408988
30
0
41
1
10
46.8830829218022
20
-0.0973689168184535
30
0
41
1
10
46.8832478778514
20
-0.0987670665811606
30
0
41
1
10
46.8833020624439
20
-0.100161155509738
30
0
0
SPLINE
5
D6
100
AcDbEntity
8
1
62
256
6
ByLayer
370
18
48
1
60
0
100
AcDbSpline
70
4
71
3
72
78
73
74
40
0
40
0
40
0
40
0
40
0.018533327724137
40
0.018533327724137
40
0.0371224132061218
40
0.0371224132061218
40
0.0743005841700924
40
0.0743005841700924
40
0.0928896696520776
40
0.0928896696520776
40
0.111478755134063
40
0.111478755134063
40
0.148656926098034
40
0.148656926098034
40
0.185835097062006
40
0.185835097062006
40
0.204424182543992
40
0.204424182543992
40
0.223013268025978
40
0.223013268025978
40
0.260191438989949
40
0.260191438989949
40
0.29736960995392
40
0.29736960995392
40
0.334547780917892
40
0.334547780917892
40
0.371725951881864
40
0.371725951881864
40
0.39031503736385
40
0.39031503736385
40
0.408904122845836
40
0.408904122845836
40
0.44608229380981
40
0.44608229380981
40
0.464671379291797
40
0.464671379291797
40
0.483260464773784
40
0.483260464773784
40
0.520438635737758
40
0.520438635737758
40
0.557616806701733
40
0.557616806701733
40
0.576205892183719
40
0.576205892183719
40
0.594794977665706
40
0.594794977665706
40
0.631973148629679
40
0.631973148629679
40
0.669151319593653
40
0.669151319593653
40
0.706329490557626
40
0.706329490557626
40
0.7435076615216
40
0.7435076615216
40
0.762096747003587
40
0.762096747003587
40
0.780685832485574
40
0.780685832485574
40
0.817864003449548
40
0.817864003449548
40
0.836453088931535
40
0.836453088931535
40
0.855042174413522
40
0.855042174413522
40
0.892220345377496
40
0.892220345377496
40
0.92939851634147
40
0.92939851634147
40
0.947987601823457
40
0.947987601823457
40
0.966576687305444
40
0.966576687305444
40
1
40
1
40
1
40
1
41
1
10
41.6434887088296
20
-2.98256788497318
30
2E-16
41
1
10
41.4293251006518
20
-3.06591369701201
30
2E-16
41
1
10
41.2142718173625
20
-3.14677049442946
30
2E-16
41
1
10
40.7850446036667
20
-3.30192931344541
30
2E-16
41
1
10
40.5705460074312
20
-3.37629273814602
30
2E-16
41
1
10
39.9286952524859
20
-3.5899935509378
30
2E-16
41
1
10
39.502870955975
20
-3.7196608082042
30
-2E-16
41
1
10
38.8644784071831
20
-3.89216135049406
30
-2E-16
41
1
10
38.6517447136084
20
-3.94603567474661
30
-2E-16
41
1
10
38.2267982454589
20
-4.04690153361111
30
0
41
1
10
38.014464740875
20
-4.09376321904315
30
0
41
1
10
37.3770372718845
20
-4.2229229941708
30
0
41
1
10
36.951325134394
20
-4.29376581505275
30
0
41
1
10
36.0985328941873
20
-4.40468221116979
30
0
41
1
10
35.6708942792918
20
-4.44435234665966
30
1E-16
41
1
10
35.0256521588222
20
-4.47911708715162
30
0
41
1
10
34.8098221491568
20
-4.48660234776017
30
0
41
1
10
34.3803022617544
20
-4.49319788636743
30
0
41
1
10
34.1660783275829
20
-4.4923168389237
30
0
41
1
10
33.5244823862396
20
-4.47735717446238
30
0
41
1
10
33.0980564158632
20
-4.45106101183356
30
1E-16
41
1
10
32.2475201518385
20
-4.36632457983023
30
0
41
1
10
31.8227734321446
20
-4.30804420551479
30
0
41
1
10
30.9723542692262
20
-4.16106326019727
30
0
41
1
10
30.5474278319171
20
-4.07178478936649
30
0
41
1
10
29.6942465473911
20
-3.86429980123222
30
-2E-16
41
1
10
29.2662622578842
20
-3.74597691999048
30
-2E-16
41
1
10
28.6213740105411
20
-3.54681552008043
30
2E-16
41
1
10
28.4056087427346
20
-3.47685429015664
30
2E-16
41
1
10
27.9757656029294
20
-3.33142826077614
30
2E-16
41
1
10
27.7612773629318
20
-3.25590967693742
30
2E-16
41
1
10
27.1193885878314
20
-3.02063920856023
30
2E-16
41
1
10
26.693567525425
20
-2.8520946039622
30
2E-16
41
1
10
26.0551310684468
20
-2.58630379830299
30
2E-16
41
1
10
25.842374500155
20
-2.49555422492577
30
2E-16
41
1
10
25.4173562999863
20
-2.30912005683089
30
1E-16
41
1
10
25.2050019668615
20
-2.21357775289675
30
1E-16
41
1
10
24.5674841297285
20
-1.92153407514414
30
1E-16
41
1
10
24.141689328392
20
-1.71999131061645
30
1E-16
41
1
10
23.2886882275476
20
-1.30274697734154
30
1E-16
41
1
10
22.8609658125131
20
-1.08795017689141
30
1E-16
41
1
10
22.2155577668018
20
-0.760207098492288
30
0
41
1
10
21.9996243458293
20
-0.649784117235527
30
0
41
1
10
21.5699120606411
20
-0.428187568732994
30
0
41
1
10
21.355594999628
20
-0.317191552556892
30
0
41
1
10
20.7137262073068
20
0.0153367631270953
30
0
41
1
10
20.2871024770875
20
0.236114646613601
30
0
41
1
10
19.4362286990137
20
0.675542009430671
30
0
41
1
10
19.0113333644801
20
0.892897611112232
30
-1E-16
41
1
10
18.160616891649
20
1.3190704955876
30
-1E-16
41
1
10
17.7355459301129
20
1.52930574757855
30
-1E-16
41
1
10
16.8821282234558
20
1.9367204764998
30
-1E-16
41
1
10
16.4540137388842
20
2.13436101027247
30
-1E-16
41
1
10
15.8089876008724
20
2.42021261223249
30
-1E-16
41
1
10
15.5931348998734
20
2.5136229193692
30
-2E-16
41
1
10
15.1630756166051
20
2.69457804687917
30
-2E-16
41
1
10
14.9484846141471
20
2.78223665025871
30
-2E-16
41
1
10
14.3062568027108
20
3.03728035675209
30
-2E-16
41
1
10
13.8802590592916
20
3.19676150127694
30
-2E-16
41
1
10
13.2415580791434
20
3.41627847837393
30
-2E-16
41
1
10
13.0287142861757
20
3.4862091390556
30
-2E-16
41
1
10
12.6035120772282
20
3.620055935631
30
-2E-16
41
1
10
12.3910857542799
20
3.68386997309221
30
2E-16
41
1
10
11.7533528787291
20
3.86484673270522
30
2E-16
41
1
10
11.3274307260734
20
3.97148075661181
30
2E-16
41
1
10
10.4741931675281
20
4.15656853980263
30
0
41
1
10
10.0463969083546
20
4.23449897890524
30
0
41
1
10
9.40088260639479
20
4.32766880683045
30
0
41
1
10
9.18490711383441
20
4.35483918724239
30
0
41
1
10
8.75441108914882
20
4.40104070297937
30
0
41
1
10
8.53944544640427
20
4.42002374337667
30
0
41
1
10
7.9381874242128
20
4.46154337453109
30
0
41
1
10
7.55212042124464
20
4.47490132122536
30
0
41
1
10
7.16610568579819
20
4.47487510132382
30
0
0
SPLINE
5
D7
100
AcDbEntity
8
1
62
256
6
ByLayer
370
18
48
1
60
0
100
AcDbSpline
70
4
71
3
72
30
73
26
40
0
40
0
40
0
40
0
40
0.125000000000003
40
0.125000000000003
40
0.187500000000005
40
0.187500000000005
40
0.250000000000007
40
0.250000000000007
40
0.312500000000009
40
0.312500000000009
40
0.375000000000011
40
0.375000000000011
40
0.437500000000012
40
0.437500000000012
40
0.500000000000014
40
0.500000000000014
40
0.562500000000016
40
0.562500000000016
40
0.625000000000018
40
0.625000000000018
40
0.750000000000012
40
0.750000000000012
40
0.875000000000006
40
0.875000000000006
40
1
40
1
40
1
40
1
41
1
10
48.9372472027592
20
0.0541724933472949
30
0
41
1
10
48.9154643328728
20
-0.017648673899032
30
0
41
1
10
48.8904204669724
20
-0.0878278502513865
30
0
41
1
10
48.8477790171098
20
-0.190456590191957
30
0
41
1
10
48.8325767965531
20
-0.224487522967877
30
0
41
1
10
48.8011606024993
20
-0.289831221591214
30
0
41
1
10
48.7849389297664
20
-0.32121287783508
30
0
41
1
10
48.7514921803888
20
-0.381315650431759
30
0
41
1
10
48.7342677926117
20
-0.410038513523631
30
0
41
1
10
48.6987641294946
20
-0.464588120610102
30
0
41
1
10
48.6805266422568
20
-0.490291175545963
30
0
41
1
10
48.6444663042663
20
-0.536543390321214
30
0
41
1
10
48.6264610141541
20
-0.557384726999771
30
0
41
1
10
48.590476228848
20
-0.594403060629162
30
0
41
1
10
48.5723327415554
20
-0.610681467367613
30
0
41
1
10
48.53721232664
20
-0.637373963973687
30
0
41
1
10
48.5201509737906
20
-0.647921129582983
30
0
41
1
10
48.4868951154449
20
-0.663636504082291
30
0
41
1
10
48.4705795493121
20
-0.668806188197266
30
0
41
1
10
48.4239340633035
20
-0.676060715369374
30
0
41
1
10
48.3955234476005
20
-0.67012697990512
30
0
41
1
10
48.3438750081668
20
-0.639988285473834
30
0
41
1
10
48.3211341678333
20
-0.616268554001067
30
0
41
1
10
48.2799658643557
20
-0.554600286422783
30
0
41
1
10
48.2616005805382
20
-0.516501714177764
30
0
41
1
10
48.2453612463863
20
-0.473152665027783
30
0
0
SPLINE
5
D8
100
AcDbEntity
8
1
62
256
6
ByLayer
370
18
48
1
60
0
100
AcDbSpline
70
4
71
3
72
8
73
4
40
0
40
0
40
0
40
0
40
1
40
1
40
1
40
1
41
1
10
48.9958502530311
20
0.248442097224967
30
0
41
1
10
49.0013905987349
20
0.0825940207102178
30
0
41
1
10
49.0013759187216
20
-0.0830334611453907
30
0
41
1
10
48.9958502530317
20
-0.248442097208169
30
0
0
SPLINE
5
D9
100
AcDbEntity
8
1
62
256
6
ByLayer
370
18
48
1
60
0
100
AcDbSpline
70
4
71
3
72
10
73
6
40
0
40
0
40
0
40
0
40
0.5
40
0.5
40
1
40
1
40
1
40
1
41
1
10
47.4368294156891
20
-4.31394030133967
30
0
41
1
10
47.4224266662345
20
-4.32343611116241
30
0
41
1
10
47.4101734005006
20
-4.32741747138491
30
0
41
1
10
47.38930016547
20
-4.32456485417876
30
0
41
1
10
47.3807050846936
20
-4.31780460225548
30
0
41
1
10
47.373357218272
20
-4.30612559491902
30
0
0
SPLINE
5
DA
100
AcDbEntity
8
1
62
256
6
ByLayer
370
18
48
1
60
0
100
AcDbSpline
70
4
71
3
72
8
73
4
40
0
40
0
40
0
40
0
40
1
40
1
40
1
40
1
41
1
10
46.7688422158281
20
-0.0340040842415874
30
0
41
1
10
46.8054257285704
20
-0.0525620446487665
30
0
41
1
10
46.8417725032987
20
-0.0700790752115381
30
0
41
1
10
46.8779261808319
20
-0.0865816792639009
30
0
0
SPLINE
5
DB
100
AcDbEntity
8
1
62
256
6
ByLayer
370
18
48
1
60
0
100
AcDbSpline
70
4
71
3
72
8
73
4
40
0
40
0
40
0
40
0
40
1
40
1
40
1
40
1
41
1
10
48.6012206500505
20
1.39888378499177
30
0
41
1
10
48.7364125176617
20
1.01670892898031
30
0
41
1
10
48.8679739751162
20
0.633234899622181
30
0
41
1
10
48.9958502530311
20
0.248442097224938
30
0
0
SPLINE
5
DC
100
AcDbEntity
8
1
62
256
6
ByLayer
370
18
48
1
60
0
100
AcDbSpline
70
4
71
3
72
48
73
44
40
0
40
0
40
0
40
0
40
0.0527814256542616
40
0.0527814256542616
40
0.105562851308523
40
0.105562851308523
40
0.158344276962785
40
0.158344276962785
40
0.211125702617046
40
0.211125702617046
40
0.263907128271308
40
0.263907128271308
40
0.31668855392557
40
0.31668855392557
40
0.369469979579831
40
0.369469979579831
40
0.422251405234093
40
0.422251405234093
40
0.475032830888355
40
0.475032830888355
40
0.527814256542616
40
0.527814256542616
40
0.554204969369746
40
0.554204969369746
40
0.580595682196877
40
0.580595682196877
40
0.633377107851138
40
0.633377107851138
40
0.6861585335054
40
0.6861585335054
40
0.738939959159661
40
0.738939959159661
40
0.791721384813923
40
0.791721384813923
40
0.844502810468185
40
0.844502810468185
40
0.897284236122446
40
0.897284236122446
40
0.923674948949577
40
0.923674948949577
40
0.950065661776708
40
0.950065661776708
40
1
40
1
40
1
40
1
41
1
10
47.1414844116763
20
-4.44112624482688
30
0
41
1
10
46.6872921936911
20
-4.4027672947463
30
0
41
1
10
46.2336461130658
20
-4.34613194085105
30
0
41
1
10
45.3252686759247
20
-4.19754008037725
30
0
41
1
10
44.8703467596562
20
-4.10547076190491
30
0
41
1
10
43.9622693049986
20
-3.88860229009887
30
-2E-16
41
1
10
43.5084378213395
20
-3.76375621427911
30
-2E-16
41
1
10
42.5990032169193
20
-3.48338474488233
30
2E-16
41
1
10
42.145151860411
20
-3.32860989503158
30
2E-16
41
1
10
41.237041270551
20
-2.99274612033346
30
2E-16
41
1
10
40.7821408358166
20
-2.81140495108832
30
2E-16
41
1
10
39.8736704787735
20
-2.42774954871308
30
1E-16
41
1
10
39.4198954255508
20
-2.22536313005352
30
1E-16
41
1
10
38.5109578343175
20
-1.80326091569629
30
1E-16
41
1
10
38.0564477907821
20
-1.58392463059039
30
1E-16
41
1
10
37.1496023782855
20
-1.13516499290253
30
1E-16
41
1
10
36.6966008437947
20
-0.9054354457854
30
1E-16
41
1
10
35.7890449327937
20
-0.439784084552656
30
0
41
1
10
35.3338163707275
20
-0.203378542382921
30
0
41
1
10
34.4261827316128
20
0.267591695549101
30
0
41
1
10
33.9731122685986
20
0.502427812889124
30
0
41
1
10
33.2929004985477
20
0.850387365633878
30
-1E-16
41
1
10
33.0660674647471
20
0.965668286431168
30
-1E-16
41
1
10
32.6119524754508
20
1.19432236794682
30
-1E-16
41
1
10
32.3844272817121
20
1.30777312128376
30
-1E-16
41
1
10
31.7027996696529
20
1.64315421227278
30
-1E-16
41
1
10
31.2494904481452
20
1.86020557952813
30
-1E-16
41
1
10
30.3426600890613
20
2.27705294843992
30
-1E-16
41
1
10
29.8892856370966
20
2.47709796042216
30
-2E-16
41
1
10
28.98003863746
20
2.85601037205109
30
-2E-16
41
1
10
28.5257462900652
20
3.03428173860283
30
-2E-16
41
1
10
27.6188088977719
20
3.36365505611607
30
-2E-16
41
1
10
27.1655844221456
20
3.51493802994688
30
-2E-16
41
1
10
26.257353584103
20
3.7878356708716
30
2E-16
41
1
10
25.8021140576024
20
3.90967852563062
30
2E-16
41
1
10
24.8945172672105
20
4.11915723763798
30
0
41
1
10
24.4413233359585
20
4.20711793171944
30
0
41
1
10
23.7607873386212
20
4.3127610058819
30
0
41
1
10
23.5338444635056
20
4.34360617349117
30
0
41
1
10
23.0794249404834
20
4.39632298033999
30
0
41
1
10
22.8518113481496
20
4.41819366672607
30
0
41
1
10
22.1947907533684
20
4.46802726484992
30
0
41
1
10
21.7658171803615
20
4.48413237832418
30
0
41
1
10
21.3367604879527
20
4.48373114667243
30
0
0
SPLINE
5
DD
100
AcDbEntity
8
1
62
256
6
ByLayer
370
18
48
1
60
0
100
AcDbSpline
70
4
71
3
72
16
73
12
40
0
40
0
40
0
40
0
40
0.229761158685759
40
0.229761158685759
40
0.462045575330318
40
0.462045575330318
40
0.659569788575718
40
0.659569788575718
40
0.831570682393582
40
0.831570682393582
40
1
40
1
40
1
40
1
41
1
10
47.396099124139
20
-4.23619464570109
30
0
41
1
10
47.3961804875565
20
-4.2363628705389
30
0
41
1
10
47.3962051382462
20
-4.23671254266841
30
0
41
1
10
47.3961136589135
20
-4.23779129395726
30
0
41
1
10
47.3959931312938
20
-4.23854606256526
30
0
41
1
10
47.3956321273035
20
-4.24024337544341
30
0
41
1
10
47.3954059906715
20
-4.24116832776619
30
0
41
1
10
47.3949099290226
20
-4.24299599871222
30
0
41
1
10
47.3946430357077
20
-4.24390990299648
30
0
41
1
10
47.3940905832884
20
-4.24568992290242
30
0
41
1
10
47.3937991970316
20
-4.24657753664937
30
0
41
1
10
47.3935101248956
20
-4.24741606816116
30
0
0
SPLINE
5
DE
100
AcDbEntity
8
1
62
256
6
ByLayer
370
18
48
1
60
0
100
AcDbSpline
70
4
71
3
72
24
73
20
40
0
40
0
40
0
40
0
40
0.0532172079044125
40
0.0532172079044125
40
0.171565056916361
40
0.171565056916361
40
0.289912905928309
40
0.289912905928309
40
0.408260754940258
40
0.408260754940258
40
0.526608603952206
40
0.526608603952206
40
0.644956452964155
40
0.644956452964155
40
0.763304301976103
40
0.763304301976103
40
0.881652150988052
40
0.881652150988052
40
1
40
1
40
1
40
1
41
1
10
34.4888970342434
20
-0.395357140356055
30
0
41
1
10
34.2317196929293
20
-0.267615095217906
30
0
41
1
10
33.9746658414521
20
-0.139424386544846
30
0
41
1
10
33.1465843791815
20
0.273554312942821
30
0
41
1
10
32.5753188226304
20
0.558562850246858
30
0
41
1
10
31.4306423203095
20
1.11898936389008
30
-1E-16
41
1
10
30.8583111401201
20
1.39328866156836
30
-1E-16
41
1
10
29.7150363148528
20
1.92028678592695
30
-1E-16
41
1
10
29.1422116536734
20
2.17301562819469
30
-1E-16
41
1
10
28.0002370741083
20
2.64610164245354
30
-2E-16
41
1
10
27.4303634898175
20
2.86586677673543
30
-2E-16
41
1
10
26.2886814013466
20
3.26692509481572
30
-2E-16
41
1
10
25.7157566986009
20
3.447874334245
30
-2E-16
41
1
10
24.5739313588115
20
3.76203580474612
30
2E-16
41
1
10
24.0038851305197
20
3.89520965108005
30
0
41
1
10
22.861158032021
20
4.10941357035694
30
0
41
1
10
22.2880533520421
20
4.19055755653997
30
0
41
1
10
21.1441453968027
20
4.29678381330496
30
0
41
1
10
20.572316601326
20
4.32217676622253
30
0
41
1
10
20.0000000000116
20
4.31885066633254
30
0
0
SPLINE
5
DF
100
AcDbEntity
8
1
62
256
6
ByLayer
370
18
48
1
60
0
100
AcDbSpline
70
2053
71
3
72
60
73
56
40
0
40
0
40
0
40
0
40
0.0624999999999996
40
0.0624999999999996
40
0.124999999999999
40
0.124999999999999
40
0.187499999999999
40
0.187499999999999
40
0.249999999999998
40
0.249999999999998
40
0.281249999999998
40
0.281249999999998
40
0.312499999999998
40
0.312499999999998
40
0.343749999999997
40
0.343749999999997
40
0.374999999999997
40
0.374999999999997
40
0.406249999999997
40
0.406249999999997
40
0.437499999999996
40
0.437499999999996
40
0.468749999999996
40
0.468749999999996
40
0.499999999999996
40
0.499999999999996
40
0.531249999999995
40
0.531249999999995
40
0.562499999999995
40
0.562499999999995
40
0.593749999999995
40
0.593749999999995
40
0.624999999999995
40
0.624999999999995
40
0.656249999999994
40
0.656249999999994
40
0.687499999999994
40
0.687499999999994
40
0.718749999999994
40
0.718749999999994
40
0.749999999999993
40
0.749999999999993
40
0.781249999999993
40
0.781249999999993
40
0.812499999999993
40
0.812499999999993
40
0.843749999999992
40
0.843749999999992
40
0.874999999999992
40
0.874999999999992
40
0.937499999999994
40
0.937499999999994
40
0.968749999999997
40
0.968749999999997
40
1
40
1
40
1
40
1
41
1
10
47.792773538866
20
-1.90537468723538
30
-1E-16
41
1
10
47.7601947449806
20
-1.94586515970997
30
-1E-16
41
1
10
47.7297767800463
20
-1.97192499806587
30
-1E-16
41
1
10
47.6718152447773
20
-1.99609868807596
30
-1E-16
41
1
10
47.6458015895557
20
-1.99352076327389
30
1E-16
41
1
10
47.5981064116598
20
-1.95840829192835
30
1E-16
41
1
10
47.57769302172
20
-1.92688873508177
30
1E-16
41
1
10
47.5427273150474
20
-1.83396201226517
30
1E-16
41
1
10
47.5291988947475
20
-1.77530862780586
30
1E-16
41
1
10
47.5156532984998
20
-1.66796749937208
30
1E-16
41
1
10
47.5124567314114
20
-1.63010580297112
30
1E-16
41
1
10
47.5089210373078
20
-1.55013715920566
30
1E-16
41
1
10
47.5086025448364
20
-1.5074163255556
30
1E-16
41
1
10
47.5114600308681
20
-1.42023370278
30
1E-16
41
1
10
47.5145739724875
20
-1.37619211507786
30
1E-16
41
1
10
47.5246495705496
20
-1.28720567555749
30
1E-16
41
1
10
47.5317003789339
20
-1.24220517095051
30
1E-16
41
1
10
47.5493174214462
20
-1.15664772140767
30
1E-16
41
1
10
47.5601039248991
20
-1.11491816024625
30
1E-16
41
1
10
47.58490751435
20
-1.03709708010192
30
1E-16
41
1
10
47.598760912369
20
-1.0013000717266
30
1E-16
41
1
10
47.6292874726274
20
-0.935500317165321
30
1E-16
41
1
10
47.6457142345083
20
-0.90611190246949
30
1E-16
41
1
10
47.6799184934556
20
-0.854805297863066
30
1E-16
41
1
10
47.697967542988
20
-0.832527114022128
30
1E-16
41
1
10
47.7343869213047
20
-0.795679031646443
30
0
41
1
10
47.7528198600842
20
-0.78094249049883
30
0
41
1
10
47.7899665542404
20
-0.758230540168711
30
0
41
1
10
47.8086083057478
20
-0.750360209791353
30
0
41
1
10
47.8449032020502
20
-0.74145521119965
30
0
41
1
10
47.8626977224395
20
-0.740329526889468
30
0
41
1
10
47.8973998426927
20
-0.744674473567642
30
0
41
1
10
47.9142019237484
20
-0.750189279343516
30
0
41
1
10
47.9456829439125
20
-0.767553097239272
30
0
41
1
10
47.960492710899
20
-0.779408328340509
30
0
41
1
10
47.9879568199685
20
-0.809886797560466
30
0
41
1
10
48.0006622314395
20
-0.828697402150652
30
1E-16
41
1
10
48.022597988978
20
-0.872472089474257
30
1E-16
41
1
10
48.0319584978391
20
-0.897512202630764
30
1E-16
41
1
10
48.0469753180515
20
-0.954741439063724
30
1E-16
41
1
10
48.0525320684859
20
-0.986839993986877
30
1E-16
41
1
10
48.0589585360109
20
-1.0561630304841
30
1E-16
41
1
10
48.0598886785982
20
-1.09423303203255
30
1E-16
41
1
10
48.0567575077708
20
-1.17420019572975
30
1E-16
41
1
10
48.0527847721126
20
-1.21570635742933
30
1E-16
41
1
10
48.0400934683345
20
-1.3019395270847
30
1E-16
41
1
10
48.0313489195799
20
-1.34637470342784
30
1E-16
41
1
10
48.0103815277661
20
-1.43342632593672
30
1E-16
41
1
10
47.9978835056984
20
-1.4772002776196
30
1E-16
41
1
10
47.9570244139837
20
-1.60251563361913
30
1E-16
41
1
10
47.9248682450252
20
-1.67984478678494
30
1E-16
41
1
10
47.8755755640295
20
-1.77799048635268
30
1E-16
41
1
10
47.858715406432
20
-1.80821215731513
30
1E-16
41
1
10
47.825545304722
20
-1.86161057026672
30
-1E-16
41
1
10
47.8090629358086
20
-1.88512945099808
30
-1E-16
41
1
10
47.792773538866
20
-1.90537468723538
30
-1E-16
0
SPLINE
5
E0
100
AcDbEntity
8
1
62
256
6
ByLayer
370
18
48
1
60
0
100
AcDbSpline
70
4
71
3
72
10
73
6
40
0
40
0
40
0
40
0
40
0.599494428885578
40
0.599494428885578
40
1
40
1
40
1
40
1
41
1
10
3.64789783291121
20
-4.32239946496873
30
0
41
1
10
4.09739071682247
20
-4.3828127789134
30
0
41
1
10
4.54684344276461
20
-4.42505006855865
30
0
41
1
10
5.29735385749075
20
-4.46565397599429
30
0
41
1
10
5.5981874963671
20
-4.47390209443913
30
0
41
1
10
5.89886731398258
20
-4.47406806211887
30
0
0
SPLINE
5
E1
100
AcDbEntity
8
1
62
256
6
ByLayer
370
18
48
1
60
0
100
AcDbSpline
70
4
71
3
72
38
73
34
40
0
40
0
40
0
40
0
40
0.0142935150520097
40
0.0142935150520097
40
0.0964357221310058
40
0.0964357221310058
40
0.137506825670505
40
0.137506825670505
40
0.178577929210004
40
0.178577929210004
40
0.260720136289002
40
0.260720136289002
40
0.342862343368001
40
0.342862343368001
40
0.425004550446999
40
0.425004550446999
40
0.466075653986499
40
0.466075653986499
40
0.507146757525999
40
0.507146757525999
40
0.589288964604999
40
0.589288964604999
40
0.671431171683999
40
0.671431171683999
40
0.753573378762999
40
0.753573378762999
40
0.835715585842
40
0.835715585842
40
0.8767866893815
40
0.8767866893815
40
0.917857792921
40
0.917857792921
40
1
40
1
40
1
40
1
41
1
10
30.3726206360756
20
4.26856712953597
30
0
41
1
10
30.4506687432144
20
4.28114963089723
30
0
41
1
10
30.5287264988874
20
4.29320406570804
30
0
41
1
10
31.0555016215917
20
4.37093111138847
30
0
41
1
10
31.5046447057325
20
4.41977365354182
30
0
41
1
10
32.1795315741714
20
4.46646383880719
30
0
41
1
10
32.4043647012641
20
4.47755087747362
30
0
41
1
10
32.8528791299906
20
4.49061667346203
30
0
41
1
10
33.0769297829791
20
4.49256122710264
30
0
41
1
10
33.7497783514425
20
4.48484636177523
30
0
41
1
10
34.1986949522053
20
4.46177750355579
30
-1E-16
41
1
10
35.0972871035556
20
4.37975234183784
30
0
41
1
10
35.5468042988278
20
4.32022765411406
30
0
41
1
10
36.4444263255769
20
4.16795101438674
30
0
41
1
10
36.8928550739697
20
4.07500897358634
30
0
41
1
10
37.566046224869
20
3.91134640055245
30
2E-16
41
1
10
37.7904342004736
20
3.85264845092414
30
2E-16
41
1
10
38.2395902738466
20
3.7272206345823
30
2E-16
41
1
10
38.46458007762
20
3.6605641192416
30
2E-16
41
1
10
39.1385790403585
20
3.4505679755074
30
-2E-16
41
1
10
39.5872101809915
20
3.29678180080083
30
-2E-16
41
1
10
40.4840603899402
20
2.96302345076106
30
-2E-16
41
1
10
40.9320612406585
20
2.78261555031699
30
-2E-16
41
1
10
41.8319142714516
20
2.40158349657332
30
-1E-16
41
1
10
42.2812471077765
20
2.20153339807729
30
-1E-16
41
1
10
43.1782520923639
20
1.78402637688166
30
-1E-16
41
1
10
43.6259337193924
20
1.56609295605347
30
-1E-16
41
1
10
44.3000704391692
20
1.23230349483964
30
-1E-16
41
1
10
44.5252495809959
20
1.11962711313154
30
-1E-16
41
1
10
44.9747751579409
20
0.892690891690052
30
-1E-16
41
1
10
45.1992951595093
20
0.778342551599252
30
0
41
1
10
45.8723809441067
20
0.433144575237179
30
0
41
1
10
46.3204280575469
20
0.200056415838816
30
0
41
1
10
46.7688422158281
20
-0.0340040842415874
30
0
0
SPLINE
5
E2
100
AcDbEntity
8
1
62
256
6
ByLayer
370
18
48
1
60
0
100
AcDbSpline
70
4
71
3
72
32
73
28
40
0
40
0
40
0
40
0
40
0.103060908528789
40
0.103060908528789
40
0.206121817057578
40
0.206121817057578
40
0.309182725586367
40
0.309182725586367
40
0.412243634115156
40
0.412243634115156
40
0.463774088379551
40
0.463774088379551
40
0.515304542643947
40
0.515304542643947
40
0.618365451172741
40
0.618365451172741
40
0.669895905437138
40
0.669895905437138
40
0.721426359701535
40
0.721426359701535
40
0.824487268230329
40
0.824487268230329
40
0.927548176759123
40
0.927548176759123
40
0.97907863102352
40
0.97907863102352
40
1
40
1
40
1
40
1
41
1
10
46.7601958879717
20
0.599960740010658
30
0
41
1
10
46.3323034616938
20
0.820592621849386
30
-1E-16
41
1
10
45.9058048985999
20
1.03744388841403
30
-1E-16
41
1
10
45.0552065024262
20
1.4630098819031
30
-1E-16
41
1
10
44.6304806551142
20
1.67050444464544
30
-1E-16
41
1
10
43.7802608612929
20
2.07154728624275
30
-1E-16
41
1
10
43.3555004050077
20
2.26636992791185
30
-1E-16
41
1
10
42.5027250791244
20
2.63760011906047
30
-2E-16
41
1
10
42.0750267024086
20
2.81459243191407
30
-2E-16
41
1
10
41.4306190887565
20
3.0654271488369
30
-2E-16
41
1
10
41.2149165154027
20
3.14653744632966
30
-2E-16
41
1
10
40.7850446036667
20
3.30192931344544
30
-2E-16
41
1
10
40.5705460074312
20
3.37629273814602
30
-2E-16
41
1
10
39.9286952524859
20
3.5899935509378
30
-2E-16
41
1
10
39.502870955975
20
3.7196608082042
30
2E-16
41
1
10
38.8644784071832
20
3.89216135049409
30
2E-16
41
1
10
38.6517447136084
20
3.94603567474664
30
2E-16
41
1
10
38.226798245459
20
4.04690153361108
30
0
41
1
10
38.014464740875
20
4.09376321904315
30
0
41
1
10
37.3770372718845
20
4.2229229941708
30
0
41
1
10
36.9513251343941
20
4.29376581505278
30
0
41
1
10
36.0985328941872
20
4.40468221116976
30
0
41
1
10
35.6708942792918
20
4.44435234665966
30
-1E-16
41
1
10
35.0256521588222
20
4.47911708715162
30
0
41
1
10
34.8098221491569
20
4.48660234776017
30
0
41
1
10
34.5078696493704
20
4.49123901169193
30
0
41
1
10
34.4207654469905
20
4.49188908658346
30
0
41
1
10
34.3337377268209
20
4.491855247855
30
0
0
SPLINE
5
E3
100
AcDbEntity
8
1
62
256
6
ByLayer
370
18
48
1
60
0
100
AcDbSpline
70
4
71
3
72
24
73
20
40
0
40
0
40
0
40
0
40
0.0167161437022761
40
0.0167161437022761
40
0.0986564650604201
40
0.0986564650604201
40
0.180596786418565
40
0.180596786418565
40
0.344477429134852
40
0.344477429134852
40
0.508358071851139
40
0.508358071851139
40
0.590298393209282
40
0.590298393209282
40
0.672238714567426
40
0.672238714567426
40
0.836119357283713
40
0.836119357283713
40
1
40
1
40
1
40
1
41
1
10
13.584764114412
20
-3.29791655230332
30
2E-16
41
1
10
13.5413254429949
20
-3.31311459830835
30
2E-16
41
1
10
13.4978908991261
20
-3.32817871413013
30
2E-16
41
1
10
13.2415580791434
20
-3.41627847837393
30
2E-16
41
1
10
13.0287142861757
20
-3.4862091390556
30
2E-16
41
1
10
12.6035120772283
20
-3.620055935631
30
2E-16
41
1
10
12.3910857542799
20
-3.68386997309221
30
-2E-16
41
1
10
11.7533528787291
20
-3.86484673270522
30
-2E-16
41
1
10
11.3274307260735
20
-3.97148075661181
30
-2E-16
41
1
10
10.4741931675281
20
-4.15656853980263
30
0
41
1
10
10.0463969083546
20
-4.23449897890524
30
0
41
1
10
9.40088260639479
20
-4.32766880683045
30
0
41
1
10
9.18490711383441
20
-4.35483918724239
30
0
41
1
10
8.75441108914882
20
-4.40104070297937
30
0
41
1
10
8.5394454464043
20
-4.42002374337667
30
0
41
1
10
7.89478164528651
20
-4.46454074315568
30
0
41
1
10
7.46538078734972
20
-4.47773450787616
30
0
41
1
10
6.60663868487759
20
-4.47098433056482
30
0
41
1
10
6.1766752815897
20
-4.45096049324397
30
1E-16
41
1
10
5.74479503528866
20
-4.41464279782946
30
0
0
SPLINE
5
E4
100
AcDbEntity
8
1
62
256
6
ByLayer
370
18
48
1
60
0
100
AcDbSpline
70
4
71
3
72
20
73
16
40
0
40
0
40
0
40
0
40
0.500000000000009
40
0.500000000000009
40
0.562500000000008
40
0.562500000000008
40
0.625000000000007
40
0.625000000000007
40
0.750000000000005
40
0.750000000000005
40
0.875000000000002
40
0.875000000000002
40
0.937500000000001
40
0.937500000000001
40
1
40
1
40
1
40
1
41
1
10
47.436829415689
20
-4.31394030133967
30
0
41
1
10
47.6141556886381
20
-3.81450494775885
30
0
41
1
10
47.7885927308009
20
-3.30781160708082
30
0
41
1
10
47.9913871027856
20
-2.74039664707775
30
0
41
1
10
48.0138674839897
20
-2.67732907396703
30
0
41
1
10
48.0598033196881
20
-2.55161888234247
30
0
41
1
10
48.0833380762165
20
-2.48885586130817
30
0
41
1
10
48.1554983004017
20
-2.30231654007221
30
0
41
1
10
48.205347437511
20
-2.18099313860878
30
0
41
1
10
48.3098200635381
20
-1.94482870372218
30
0
41
1
10
48.3644517904791
20
-1.83000224007094
30
0
41
1
10
48.4507699960755
20
-1.66285236952908
30
0
41
1
10
48.4803110387619
20
-1.60792206112475
30
0
41
1
10
48.5400854532005
20
-1.50130042485142
30
0
41
1
10
48.570418679652
20
-1.44940664461507
30
0
41
1
10
48.6012206500505
20
-1.3988837849918
30
0
0
SPLINE
5
E5
100
AcDbEntity
8
1
62
256
6
ByLayer
370
18
48
1
60
0
100
AcDbSpline
70
4
71
3
72
10
73
6
40
0
40
0
40
0
40
0
40
0.5
40
0.5
40
1
40
1
40
1
40
1
41
1
10
47.1414844116735
20
-4.44112624482781
30
0
41
1
10
47.1443219729422
20
-4.45821362907182
30
1E-16
41
1
10
47.1470340093073
20
-4.47163017717915
30
1E-16
41
1
10
47.1524006752482
20
-4.4909934411572
30
0
41
1
10
47.1550657942882
20
-4.49694249995608
30
0
41
1
10
47.1577438581207
20
-4.49902412888054
30
0
0
SPLINE
5
E6
100
AcDbEntity
8
1
62
256
6
ByLayer
370
18
48
1
60
0
100
AcDbSpline
70
4
71
3
72
34
73
30
40
0
40
0
40
0
40
0
40
0.033268877623779
40
0.033268877623779
40
0.0666044335677867
40
0.0666044335677867
40
0.199946657343818
40
0.199946657343818
40
0.33328888111985
40
0.33328888111985
40
0.366624437063858
40
0.366624437063858
40
0.399959993007866
40
0.399959993007866
40
0.466631104895881
40
0.466631104895881
40
0.533302216783896
40
0.533302216783896
40
0.599973328671911
40
0.599973328671911
40
0.666644440559926
40
0.666644440559926
40
0.73331555244794
40
0.73331555244794
40
0.799986664335956
40
0.799986664335956
40
0.866657776223971
40
0.866657776223971
40
1
40
1
40
1
40
1
41
1
10
23.9862714507439
20
-4.2777579043773
30
0
41
1
10
23.7598794679066
20
-4.31288438194107
30
0
41
1
10
23.5333899948517
20
-4.34365889599763
30
0
41
1
10
23.0794249404834
20
-4.39632298033999
30
0
41
1
10
22.8518113481495
20
-4.41819366672607
30
0
41
1
10
21.7159299042625
20
-4.50434782968628
30
0
41
1
10
20.8111161738418
20
-4.49954089974236
30
0
41
1
10
18.9912477518664
20
-4.34230225668932
30
0
41
1
10
18.0861361512812
20
-4.19078172078051
30
0
41
1
10
16.9501975303591
20
-3.91826453537729
30
-2E-16
41
1
10
16.7225619279708
20
-3.85951899834913
30
-2E-16
41
1
10
16.2679126369637
20
-3.73429636270069
30
-2E-16
41
1
10
16.0408776700473
20
-3.667838031462
30
-2E-16
41
1
10
15.3601347548248
20
-3.45755236482813
30
2E-16
41
1
10
14.9068008248736
20
-3.30281045682844
30
2E-16
41
1
10
13.9990328905355
20
-2.96688846692837
30
2E-16
41
1
10
13.5436722367851
20
-2.78533052923859
30
2E-16
41
1
10
12.6350617732362
20
-2.40176948831976
30
1E-16
41
1
10
12.1816388459853
20
-2.19974660882039
30
1E-16
41
1
10
11.2742001008853
20
-1.77926487293988
30
1E-16
41
1
10
10.8199745264829
20
-1.5604050762816
30
1E-16
41
1
10
9.91003639455806
20
-1.11097101110491
30
1E-16
41
1
10
9.45638645948526
20
-0.881594450055985
30
1E-16
41
1
10
8.5494845648725
20
-0.417857284016435
30
0
41
1
10
8.09631119808938
20
-0.183343598069939
30
0
41
1
10
7.18802072438319
20
0.286138113091027
30
0
41
1
10
6.73232070220286
20
0.521331149552765
30
0
41
1
10
5.37059551088615
20
1.21495183842643
30
-1E-16
41
1
10
4.46617002674247
20
1.66288454453814
30
-1E-16
41
1
10
3.55582866004292
20
2.07899614722405
30
-1E-16
0
SPLINE
5
E7
100
AcDbEntity
8
1
62
256
6
ByLayer
370
18
48
1
60
0
100
AcDbSpline
70
4
71
3
72
18
73
14
40
0
40
0
40
0
40
0
40
0.25
40
0.25
40
0.5
40
0.5
40
0.5625
40
0.5625
40
0.625
40
0.625
40
0.75
40
0.75
40
1
40
1
40
1
40
1
41
1
10
8.37864571357113
20
-1.01607471618954
30
1E-16
41
1
10
9.3568232227492
20
-1.50881997052562
30
1E-16
41
1
10
10.322464657816
20
-1.97579016571234
30
1E-16
41
1
10
12.2516713702398
20
-2.81932142354216
30
2E-16
41
1
10
13.215101282833
20
-3.1961159959705
30
2E-16
41
1
10
14.4320960053157
20
-3.58811820811357
30
2E-16
41
1
10
14.676633089671
20
-3.66267150576249
30
-2E-16
41
1
10
15.164927194501
20
-3.80265390156589
30
-2E-16
41
1
10
15.4083359449769
20
-3.86797991458474
30
-2E-16
41
1
10
16.1367822695451
20
-4.04973036503827
30
0
41
1
10
16.6202545869903
20
-4.15171396588923
30
0
41
1
10
18.0681652267979
20
-4.39810922132972
30
0
41
1
10
19.0300250024418
20
-4.48280771943175
30
0
41
1
10
20.0000000000076
20
-4.48289521917613
30
0
0
SPLINE
5
E8
100
AcDbEntity
8
1
62
256
6
ByLayer
370
18
48
1
60
0
100
AcDbSpline
70
4
71
3
72
10
73
6
40
0
40
0
40
0
40
0
40
0.5
40
0.5
40
1
40
1
40
1
40
1
41
1
10
46.7688422158281
20
-0.034004084241559
30
0
41
1
10
46.7632736022718
20
0.07272320926117
30
0
41
1
10
46.7595637859672
20
0.179501889807085
30
0
41
1
10
46.7565057485054
20
0.390853170825238
30
0
41
1
10
46.7571375604879
20
0.495781419818201
30
0
41
1
10
46.7601958879717
20
0.599960740010658
30
0
0
SPLINE
5
E9
100
AcDbEntity
8
1
62
256
6
ByLayer
370
18
48
1
60
0
100
AcDbSpline
70
4
71
3
72
18
73
14
40
0
40
0
40
0
40
0
40
0.125
40
0.125
40
0.25
40
0.25
40
0.375
40
0.375
40
0.5
40
0.5
40
0.75
40
0.75
40
1
40
1
40
1
40
1
41
1
10
47.6820114986554
20
0.799425634649879
30
0
41
1
10
47.6435200059194
20
0.808215909589848
30
0
41
1
10
47.6045421331888
20
0.81556740336768
30
0
41
1
10
47.526078940036
20
0.823206510021038
30
-1E-16
41
1
10
47.486765343591
20
0.82417560036771
30
-1E-16
41
1
10
47.4081930075491
20
0.821889316919055
30
-1E-16
41
1
10
47.3689323003146
20
0.818860904575189
30
-1E-16
41
1
10
47.2905886220291
20
0.810076208316985
30
0
41
1
10
47.2515152361913
20
0.803613454120864
30
0
41
1
10
47.1348653174136
20
0.77771776703247
30
0
41
1
10
47.0578764133088
20
0.751885750957626
30
0
41
1
10
46.906527200191
20
0.687235278766252
30
0
41
1
10
46.8319167165678
20
0.647820752826391
30
0
41
1
10
46.7601958879717
20
0.599960740010658
30
0
0
SPLINE
5
EA
100
AcDbEntity
8
1
62
256
6
ByLayer
370
18
48
1
60
0
100
AcDbSpline
70
4
71
3
72
8
73
4
40
0
40
0
40
0
40
0
40
1
40
1
40
1
40
1
41
1
10
3.64789783291113
20
4.32239946496847
30
0
41
1
10
3.64768927353833
20
4.29756834620648
30
0
41
1
10
3.64747957044824
20
4.27273756235044
30
0
41
1
10
3.64726872328839
20
4.24790712145497
30
0
0
SPLINE
5
EB
100
AcDbEntity
8
1
62
256
6
ByLayer
370
18
48
1
60
0
100
AcDbSpline
70
4
71
3
72
8
73
4
40
0
40
0
40
0
40
0
40
1
40
1
40
1
40
1
41
1
10
48.6012206500505
20
-1.3988837849918
30
0
41
1
10
48.7364125176645
20
-1.01670892897249
30
0
41
1
10
48.8679739751217
20
-0.633234899606492
30
0
41
1
10
48.995850253039
20
-0.24844209720132
30
0
0
SPLINE
5
EC
100
AcDbEntity
8
1
62
256
6
ByLayer
370
18
48
1
60
0
100
AcDbSpline
70
4
71
3
72
16
73
12
40
0
40
0
40
0
40
0
40
0.096247577236208
40
0.096247577236208
40
0.209216630081683
40
0.209216630081683
40
0.322185682927158
40
0.322185682927158
40
0.548123788618105
40
0.548123788618105
40
1
40
1
40
1
40
1
41
1
10
13.5678566615055
20
3.30090597592579
30
-2E-16
41
1
10
13.7744153134925
20
3.37325939342182
30
-2E-16
41
1
10
13.9813255894333
20
3.44292201545133
30
-2E-16
41
1
10
14.4320960053158
20
3.5881182081136
30
-2E-16
41
1
10
14.676633089671
20
3.66267150576252
30
2E-16
41
1
10
15.1649271945011
20
3.80265390156589
30
2E-16
41
1
10
15.4083359449769
20
3.86797991458474
30
2E-16
41
1
10
16.1367822695451
20
4.0497303650383
30
0
41
1
10
16.6202545869903
20
4.15171396588923
30
0
41
1
10
18.0681652267978
20
4.39810922132969
30
0
41
1
10
19.0300250024417
20
4.48280771943175
30
0
41
1
10
20.0000000000075
20
4.48289521917613
30
0
0
SPLINE
5
ED
100
AcDbEntity
8
1
62
256
6
ByLayer
370
18
48
1
60
0
100
AcDbSpline
70
4
71
3
72
8
73
4
40
0
40
0
40
0
40
0
40
1
40
1
40
1
40
1
41
1
10
47.1414844116754
20
-4.44112624482543
30
0
41
1
10
47.2185777918272
20
-4.39698108991863
30
0
41
1
10
47.295857675645
20
-4.35197235611565
30
0
41
1
10
47.3733572182719
20
-4.30612559491905
30
0
0
SPLINE
5
EE
100
AcDbEntity
8
1
62
256
6
ByLayer
370
18
48
1
60
0
100
AcDbSpline
70
4
71
3
72
32
73
28
40
0
40
0
40
0
40
0
40
0.124999999999999
40
0.124999999999999
40
0.187499999999999
40
0.187499999999999
40
0.249999999999999
40
0.249999999999999
40
0.312499999999999
40
0.312499999999999
40
0.375
40
0.375
40
0.4375
40
0.4375
40
0.5
40
0.5
40
0.5625
40
0.5625
40
0.625
40
0.625
40
0.6875
40
0.6875
40
0.75
40
0.75
40
0.875
40
0.875
40
1
40
1
40
1
40
1
41
1
10
46.8833020624439
20
-0.10016115550971
30
0
41
1
10
46.8931690723918
20
-0.354024637513703
30
0
41
1
10
46.9132630275936
20
-0.602698868385318
30
0
41
1
10
46.9514585509693
20
-0.968960647652324
30
1E-16
41
1
10
46.9655607953013
20
-1.08991320761658
30
1E-16
41
1
10
46.9955493604636
20
-1.32961607058883
30
1E-16
41
1
10
47.0114921002358
20
-1.44875885282534
30
1E-16
41
1
10
47.0440383660018
20
-1.68284105048949
30
1E-16
41
1
10
47.0605962462058
20
-1.7975097311836
30
1E-16
41
1
10
47.0935277937571
20
-2.02221288596823
30
1E-16
41
1
10
47.1099387129422
20
-2.13249288429523
30
1E-16
41
1
10
47.1417226662225
20
-2.34672890872193
30
1E-16
41
1
10
47.1571083132338
20
-2.45077401839896
30
2E-16
41
1
10
47.1864434067639
20
-2.65274276386717
30
2E-16
41
1
10
47.2004104245302
20
-2.75080471048682
30
2E-16
41
1
10
47.2264016167389
20
-2.93893489876419
30
2E-16
41
1
10
47.2384584840523
20
-3.02922044659417
30
2E-16
41
1
10
47.2606508957032
20
-3.20218275584412
30
2E-16
41
1
10
47.2707784833649
20
-3.28482086402914
30
2E-16
41
1
10
47.2890713111655
20
-3.44078622964207
30
2E-16
41
1
10
47.2972655672259
20
-3.51433630651789
30
2E-16
41
1
10
47.3121091916973
20
-3.65248055987121
30
-2E-16
41
1
10
47.3187230951976
20
-3.71674199824204
30
-2E-16
41
1
10
47.3368358036105
20
-3.89355165566337
30
0
41
1
10
47.3466273057206
20
-3.99106312953242
30
0
41
1
10
47.3679725977045
20
-4.14536410333031
30
0
41
1
10
47.3796095835707
20
-4.20210131024425
30
0
41
1
10
47.3960991241394
20
-4.23619464570203
30
0
0
SPLINE
5
EF
100
AcDbEntity
8
1
62
256
6
ByLayer
370
18
48
1
60
0
100
AcDbSpline
70
4
71
3
72
8
73
4
40
0
40
0
40
0
40
0
40
1
40
1
40
1
40
1
41
1
10
47.4301373020148
20
-4.3184454221992
30
0
41
1
10
47.432367974282
20
-4.31694386736018
30
0
41
1
10
47.4345986787745
20
-4.3154421603858
30
0
41
1
10
47.4368294156891
20
-4.31394030133964
30
0
0
SPLINE
5
F0
100
AcDbEntity
8
1
62
256
6
ByLayer
370
18
48
1
60
0
100
AcDbSpline
70
4
71
3
72
20
73
16
40
0
40
0
40
0
40
0
40
0.499999999999998
40
0.499999999999998
40
0.562499999999998
40
0.562499999999998
40
0.624999999999998
40
0.624999999999998
40
0.749999999999999
40
0.749999999999999
40
0.875
40
0.875
40
0.9375
40
0.9375
40
1
40
1
40
1
40
1
41
1
10
47.436829415689
20
4.3139403013397
30
0
41
1
10
47.6141556886381
20
3.81450494775882
30
0
41
1
10
47.788592730801
20
3.30781160708068
30
0
41
1
10
47.9913871027857
20
2.74039664707752
30
0
41
1
10
48.0138674839898
20
2.6773290739668
30
0
41
1
10
48.0598033196882
20
2.55161888234218
30
0
41
1
10
48.0833380762166
20
2.48885586130774
30
0
41
1
10
48.1554983004016
20
2.3023165400723
30
0
41
1
10
48.2053474375109
20
2.18099313860898
30
0
41
1
10
48.3098200635381
20
1.94482870372232
30
0
41
1
10
48.3644517904792
20
1.83000224007085
30
0
41
1
10
48.4507699960758
20
1.66285236952845
30
0
41
1
10
48.4803110387622
20
1.60792206112424
30
0
41
1
10
48.5400854532006
20
1.50130042485122
30
0
41
1
10
48.570418679652
20
1.44940664461501
30
0
41
1
10
48.6012206500505
20
1.3988837849918
30
0
0
SPLINE
5
F1
100
AcDbEntity
8
1
62
256
6
ByLayer
370
18
48
1
60
0
100
AcDbSpline
70
4
71
3
72
63
73
59
40
0
40
0
40
0
40
0
40
0.0624999999999929
40
0.0624999999999929
40
0.124999999999986
40
0.124999999999986
40
0.187499999999979
40
0.187499999999979
40
0.218749999999976
40
0.218749999999976
40
0.249999999999973
40
0.249999999999973
40
0.28124999999997
40
0.28124999999997
40
0.312499999999967
40
0.312499999999967
40
0.328124999999965
40
0.328124999999965
40
0.343749999999964
40
0.343749999999964
40
0.37499999999996
40
0.37499999999996
40
0.390624999999959
40
0.390624999999959
40
0.406249999999957
40
0.421874999999955
40
0.421874999999955
40
0.437499999999953
40
0.437499999999953
40
0.46874999999995
40
0.46874999999995
40
0.499999999999946
40
0.499999999999946
40
0.531249999999943
40
0.531249999999943
40
0.562499999999939
40
0.562499999999939
40
0.624999999999932
40
0.624999999999932
40
0.687499999999925
40
0.687499999999925
40
0.695312499999924
40
0.695312499999924
40
0.699218749999924
40
0.699218749999924
40
0.703124999999924
40
0.703124999999924
40
0.707031249999923
40
0.707031249999923
40
0.710937499999923
40
0.710937499999923
40
0.718749999999925
40
0.718749999999925
40
0.749999999999932
40
0.749999999999932
40
0.874999999999966
40
0.874999999999966
40
1
40
1
40
1
40
1
41
1
10
5.74489758431821
20
-4.41464939322586
30
0
41
1
10
5.48885789648619
20
-4.39303486682471
30
0
41
1
10
5.23625355397564
20
-4.36493745200141
30
0
41
1
10
4.73922287932288
20
-4.29251694424275
30
0
41
1
10
4.49477728521654
20
-4.24823781996585
30
0
41
1
10
4.01617220684989
20
-4.13835820073771
30
0
41
1
10
3.78195986750652
20
-4.07287792445769
30
0
41
1
10
3.44126851018601
20
-3.95180259032583
30
-2E-16
41
1
10
3.32979867861945
20
-3.90766972722244
30
-2E-16
41
1
10
3.11366653391693
20
-3.81095889920022
30
-2E-16
41
1
10
3.00875680652715
20
-3.75831170102478
30
-2E-16
41
1
10
2.80674687930838
20
-3.64228253844627
30
-2E-16
41
1
10
2.70931611161802
20
-3.57861224544936
30
2E-16
41
1
10
2.5278825588228
20
-3.43995369913219
30
2E-16
41
1
10
2.44350309202883
20
-3.36483921351228
30
2E-16
41
1
10
2.32900418981967
20
-3.2410875709005
30
2E-16
41
1
10
2.2928611860155
20
-3.1979797693472
30
2E-16
41
1
10
2.22525557178085
20
-3.10746064396929
30
2E-16
41
1
10
2.19363978477608
20
-3.05976540917854
30
2E-16
41
1
10
2.10845069954286
20
-2.91155205467561
30
2E-16
41
1
10
2.06437079368402
20
-2.80614654425338
30
2E-16
41
1
10
2.0211639113914
20
-2.63615782927349
30
2E-16
41
1
10
2.0105976746957
20
-2.57710161240965
30
2E-16
41
1
10
1.99824618527049
20
-2.4578455162347
30
2E-16
41
1
10
1.9944431682909
20
-2.33698366140058
30
1E-16
41
1
10
2.00758636139577
20
-2.2129584417917
30
1E-16
41
1
10
2.0292023660559
20
-2.08736490048116
30
1E-16
41
1
10
2.04436451962627
20
-2.02356447660776
30
1E-16
41
1
10
2.10083852576989
20
-1.83490053214038
30
1E-16
41
1
10
2.15321680991002
20
-1.71114123599705
30
1E-16
41
1
10
2.2824283837316
20
-1.46707437841232
30
1E-16
41
1
10
2.35763054605664
20
-1.34982147378224
30
1E-16
41
1
10
2.52301419986577
20
-1.12393105648516
30
1E-16
41
1
10
2.61339823078134
20
-1.01503490448565
30
1E-16
41
1
10
2.80641290697997
20
-0.80375004331313
30
0
41
1
10
2.9084790596765
20
-0.702069840029424
30
0
41
1
10
3.22351754138634
20
-0.410401244165314
30
0
41
1
10
3.44699177957833
20
-0.23157001093125
30
0
41
1
10
3.91200140794689
20
0.105033274503711
30
0
41
1
10
4.1542044258297
20
0.262927826272886
30
0
41
1
10
4.4322581931311
20
0.430134570121368
30
0
41
1
10
4.46323330848247
20
0.448568535338637
30
0
41
1
10
4.50981240019019
20
0.476009922787313
30
0
41
1
10
4.5249427412478
20
0.486252783144266
30
0
41
1
10
4.5588134755971
20
0.497978508093126
30
0
41
1
10
4.57686456515904
20
0.49961155185386
30
0
41
1
10
4.61273297688842
20
0.498094774617869
30
0
41
1
10
4.63028796290274
20
0.494150070735628
30
0
41
1
10
4.664846285029
20
0.48448450045899
30
0
41
1
10
4.68211369065409
20
0.479608593568543
30
0
41
1
10
4.73389682871459
20
0.464913645101717
30
0
41
1
10
4.76838642918219
20
0.454999345087003
30
0
41
1
10
4.94066255848017
20
0.404846102890417
30
0
41
1
10
5.07796643934114
20
0.362850448069708
30
0
41
1
10
5.76134933051696
20
0.143968349158911
30
0
41
1
10
6.29904722215193
20
-0.0604816156155721
30
0
41
1
10
7.35247692321343
20
-0.511908574462012
30
0
41
1
10
7.86863866382262
20
-0.758751641827985
30
0
41
1
10
8.37864558725082
20
-1.01607472276405
30
1E-16
0
SPLINE
5
F2
100
AcDbEntity
8
1
62
256
6
ByLayer
370
18
48
1
60
0
100
AcDbSpline
70
4
71
3
72
26
73
22
40
0
40
0
40
0
40
0
40
0.0549450560800426
40
0.0549450560800426
40
0.109890112160086
40
0.109890112160086
40
0.219780224320172
40
0.219780224320172
40
0.439560448640343
40
0.439560448640343
40
0.494505504720387
40
0.494505504720387
40
0.549450560800431
40
0.549450560800431
40
0.659340672960515
40
0.659340672960515
40
0.879120897280684
40
0.879120897280684
40
0.989011009440768
40
0.989011009440768
40
1
40
1
40
1
40
1
41
1
10
47.3935101248954
20
-4.24741606816116
30
0
41
1
10
47.1637827188253
20
-4.23192718567171
30
0
41
1
10
46.9340788458481
20
-4.21276270090408
30
0
41
1
10
46.4744707282632
20
-4.16466654900825
30
0
41
1
10
46.244966567247
20
-4.13618766127928
30
0
41
1
10
45.5581409311608
20
-4.03801151262147
30
0
41
1
10
45.1020023894078
20
-3.95552206716852
30
0
41
1
10
43.7356388018819
20
-3.66063916819758
30
-2E-16
41
1
10
42.8274814407126
20
-3.40081282993765
30
2E-16
41
1
10
41.6845776174485
20
-3.00849517469803
30
2E-16
41
1
10
41.4556178038887
20
-2.92667984511667
30
2E-16
41
1
10
40.996654075397
20
-2.75673444955731
30
2E-16
41
1
10
40.7665914599706
20
-2.66857603444012
30
2E-16
41
1
10
40.0793755841989
20
-2.39711677490422
30
1E-16
41
1
10
39.6235554264158
20
-2.20621610288168
30
1E-16
41
1
10
38.2597120626754
20
-1.61031167259679
30
1E-16
41
1
10
37.3552611164894
20
-1.1821538908558
30
1E-16
41
1
10
35.9928827112627
20
-0.519023189837895
30
0
41
1
10
35.5377892880444
20
-0.29453676607784
30
0
41
1
10
35.0349610673095
20
-0.0461187350356624
30
0
41
1
10
34.9892290393369
20
-0.0235224664136524
30
0
41
1
10
34.9434754427457
20
-0.0009157393072314
30
0
0
SPLINE
5
F3
100
AcDbEntity
8
1
62
256
6
ByLayer
370
18
48
1
60
0
100
AcDbSpline
70
4
71
3
72
10
73
6
40
0
40
0
40
0
40
0
40
0.480815315979791
40
0.480815315979791
40
1
40
1
40
1
40
1
41
1
10
11.9708225670074
20
-2.65316103712382
30
0
41
1
10
10.9584969931896
20
-2.92448807908346
30
0
41
1
10
9.95256055104139
20
-3.2022416724287
30
0
41
1
10
7.87618359343361
20
-3.78952393906351
30
0
41
1
10
6.80654798726917
20
-4.09991879531444
30
0
41
1
10
5.74484282808629
20
-4.41462863112019
30
0
0
SPLINE
5
F4
100
AcDbEntity
8
1
62
256
6
ByLayer
370
18
48
1
60
0
100
AcDbSpline
70
4
71
3
72
66
73
62
40
0
40
0
40
0
40
0
40
0.0457603411447449
40
0.0457603411447449
40
0.0915206822894898
40
0.0915206822894898
40
0.137281023434235
40
0.137281023434235
40
0.160161194006607
40
0.160161194006607
40
0.183041364578979
40
0.183041364578979
40
0.228801705723724
40
0.228801705723724
40
0.274562046868468
40
0.274562046868468
40
0.320322388013213
40
0.320322388013213
40
0.343202558585585
40
0.343202558585585
40
0.366082729157957
40
0.366082729157957
40
0.411843070302701
40
0.411843070302701
40
0.434723240875072
40
0.434723240875072
40
0.457603411447444
40
0.457603411447444
40
0.503363752592187
40
0.503363752592187
40
0.526243923164559
40
0.526243923164559
40
0.549124093736931
40
0.549124093736931
40
0.572004264309302
40
0.572004264309302
40
0.594884434881674
40
0.594884434881674
40
0.640644776026417
40
0.640644776026417
40
0.68640511717116
40
0.68640511717116
40
0.732165458315904
40
0.732165458315904
40
0.755045628888276
40
0.755045628888276
40
0.777925799460648
40
0.777925799460648
40
0.823686140605392
40
0.823686140605392
40
0.846566311177764
40
0.846566311177764
40
0.869446481750137
40
0.869446481750137
40
0.915206822894881
40
0.915206822894881
40
0.960967164039625
40
0.960967164039625
40
0.983847334611998
40
0.983847334611998
40
1
40
1
40
1
40
1
41
1
10
3.64789783291116
20
4.32239946496873
30
0
41
1
10
4.09739071682242
20
4.3828127789134
30
0
41
1
10
4.54684344276461
20
4.42505006855865
30
0
41
1
10
5.44669706766246
20
4.47373370115596
30
0
41
1
10
5.89718409773013
20
4.48011987130772
30
0
41
1
10
6.79656972221912
20
4.45652361585744
30
0
41
1
10
7.24603134360854
20
4.42666158221192
30
0
41
1
10
7.92137210790423
20
4.35516639217346
30
0
41
1
10
8.14663063901548
20
4.32689471911698
30
0
41
1
10
8.59631731658064
20
4.26156726302148
30
0
41
1
10
8.82089935672582
20
4.22447966686326
30
0
41
1
10
9.49506859902584
20
4.10070791763818
30
0
41
1
10
9.94575502220567
20
4.00141737913009
30
2E-16
41
1
10
10.845624234512
20
3.77142832329921
30
2E-16
41
1
10
11.2939398925303
20
3.64040431340911
30
2E-16
41
1
10
12.1910606399821
20
3.35028330647097
30
-2E-16
41
1
10
12.6403928572765
20
3.19196625314066
30
-2E-16
41
1
10
13.3157304279726
20
2.93485470774871
30
-2E-16
41
1
10
13.5408515736438
20
2.84596432290653
30
-2E-16
41
1
10
13.9899643954496
20
2.6623987888438
30
-2E-16
41
1
10
14.2141041273615
20
2.5675893087022
30
-2E-16
41
1
10
14.8868986700075
20
2.2766831056278
30
-1E-16
41
1
10
15.3360102129581
20
2.07434374207011
30
-1E-16
41
1
10
16.0104344929153
20
1.75817504752874
30
-1E-16
41
1
10
16.2355551609466
20
1.65065303603529
30
-1E-16
41
1
10
16.685410042361
20
1.43169437075255
30
-1E-16
41
1
10
16.9097987769119
20
1.32037668517015
30
-1E-16
41
1
10
17.5831469891554
20
0.984277635873553
30
-1E-16
41
1
10
18.0316680306543
20
0.756206889511077
30
0
41
1
10
18.7051215069757
20
0.410495365718617
30
0
41
1
10
18.929789928634
20
0.294796181212917
30
0
41
1
10
19.3795479781318
20
0.0625710361030372
30
0
41
1
10
19.6047890893434
20
-0.0540994613167243
30
0
41
1
10
20.0543903707479
20
-0.28675429415452
30
0
41
1
10
20.2789400786258
20
-0.402753234710758
30
0
41
1
10
20.72753401611
20
-0.634099850135897
30
0
41
1
10
20.951493672324
20
-0.74960486614745
30
0
41
1
10
21.624396510837
20
-1.09172264061968
30
1E-16
41
1
10
22.0737693094024
20
-1.31511105343043
30
1E-16
41
1
10
22.973942710269
20
-1.75269206312535
30
1E-16
41
1
10
23.422713345531
20
-1.96636717588618
30
1E-16
41
1
10
24.3197204974891
20
-2.37398492999966
30
1E-16
41
1
10
24.7687100504805
20
-2.56766762509997
30
2E-16
41
1
10
25.4427709540302
20
-2.8433027095443
30
2E-16
41
1
10
25.6677390043235
20
-2.93272702454658
30
2E-16
41
1
10
26.1172198737759
20
-3.10595823386913
30
2E-16
41
1
10
26.341558915162
20
-3.18949626323007
30
2E-16
41
1
10
27.0148315013386
20
-3.42899950141901
30
2E-16
41
1
10
27.4637504448146
20
-3.57435849567162
30
2E-16
41
1
10
28.1371770906507
20
-3.77117729074203
30
-2E-16
41
1
10
28.3616317379191
20
-3.83325256879681
30
-2E-16
41
1
10
28.8109784113282
20
-3.94974068276886
30
-2E-16
41
1
10
29.0360840753273
20
-4.00412996871844
30
-2E-16
41
1
10
29.7100638351678
20
-4.15467965033975
30
0
41
1
10
30.1581065431485
20
-4.23851812290587
30
0
41
1
10
31.0555016215918
20
-4.37093111138847
30
0
41
1
10
31.5046447057325
20
-4.41977365354182
30
0
41
1
10
32.1795315741714
20
-4.46646383880716
30
0
41
1
10
32.4043647012642
20
-4.47755087747362
30
0
41
1
10
32.7869403046008
20
-4.48869579157935
30
0
41
1
10
32.9451557453185
20
-4.49102101981251
30
0
41
1
10
33.1034226161103
20
-4.4910848526477
30
0
0
SPLINE
5
F5
100
AcDbEntity
8
1
62
256
6
ByLayer
370
18
48
1
60
0
100
AcDbSpline
70
4
71
3
72
8
73
4
40
0
40
0
40
0
40
0
40
1
40
1
40
1
40
1
41
1
10
47.430137302563
20
4.31844542183018
30
0
41
1
10
47.4323679746475
20
4.31694386711416
30
0
41
1
10
47.4345986789572
20
4.31544216026276
30
0
41
1
10
47.436829415689
20
4.31394030133967
30
0
0
SPLINE
5
F6
100
AcDbEntity
8
1
62
256
6
ByLayer
370
18
48
1
60
0
100
AcDbSpline
70
4
71
3
72
34
73
30
40
0
40
0
40
0
40
0
40
0.497802392024141
40
0.497802392024141
40
0.668866402344168
40
0.668866402344168
40
0.781976833588328
40
0.781976833588328
40
0.856679025178825
40
0.856679025178825
40
0.906051267182808
40
0.906051267182808
40
0.938705351695928
40
0.938705351695928
40
0.960352206809222
40
0.960352206809222
40
0.974748039901445
40
0.974748039901445
40
0.984176971682205
40
0.984176971682205
40
0.990325416581104
40
0.990325416581104
40
0.994385061705463
40
0.994385061705463
40
0.997164214157736
40
0.997164214157736
40
0.999753371886734
40
0.999753371886734
40
1
40
1
40
1
40
1
41
1
10
47.1577438581377
20
-4.49902412886902
30
0
41
1
10
47.2028080671505
20
-4.4695958884966
30
0
41
1
10
47.2479369837219
20
-4.43989728533876
30
0
41
1
10
47.3086421331521
20
-4.39965356158001
30
0
41
1
10
47.3241765111386
20
-4.38932917462824
30
0
41
1
10
47.3500072167975
20
-4.3721187389132
30
0
41
1
10
47.3602952522601
20
-4.36525276032864
30
0
41
1
10
47.3773916782159
20
-4.35382456787934
30
0
41
1
10
47.3841954156927
20
-4.34927173045764
30
0
41
1
10
47.3955027370516
20
-4.34169730769779
30
0
41
1
10
47.4000044043195
20
-4.33867968818339
30
0
41
1
10
47.4074851856851
20
-4.33366166787133
30
0
41
1
10
47.4104643413193
20
-4.33166238838558
30
0
41
1
10
47.4154036503375
20
-4.32834638773491
30
0
41
1
10
47.4173663228946
20
-4.3270284436455
30
0
41
1
10
47.4206166515509
20
-4.32484531928995
30
0
41
1
10
47.4219146170153
20
-4.32397333192762
30
0
41
1
10
47.4240884685946
20
-4.3225123485492
30
0
41
1
10
47.4249554697049
20
-4.32192952080612
30
0
41
1
10
47.4264004280344
20
-4.32095793823947
30
0
41
1
10
47.4269754569862
20
-4.32057121938141
30
0
41
1
10
47.4279272824511
20
-4.31993108540414
30
0
41
1
10
47.4283050016462
20
-4.31967705609483
30
0
41
1
10
47.4289317578445
20
-4.31925560016813
30
0
41
1
10
47.4291842356336
20
-4.31908583995744
30
0
41
1
10
47.4296570108179
20
-4.31876804220536
30
0
41
1
10
47.4298814950289
20
-4.31861717868182
30
0
41
1
10
47.4300999474391
20
-4.31847049993391
30
0
41
1
10
47.430118780993
20
-4.31845785559432
30
0
41
1
10
47.430137302671
20
-4.31844542227213
30
0
0
SPLINE
5
F7
100
AcDbEntity
8
1
62
256
6
ByLayer
370
18
48
1
60
0
100
AcDbSpline
70
4
71
3
72
18
73
14
40
0
40
0
40
0
40
0
40
0.133280756999899
40
0.133280756999899
40
0.266561513999798
40
0.266561513999798
40
0.533123027999596
40
0.533123027999596
40
0.666403784999495
40
0.666403784999495
40
0.799684541999394
40
0.799684541999394
40
1
40
1
40
1
40
1
41
1
10
47.4301373027011
20
4.31844542183381
30
0
41
1
10
47.1443966411907
20
4.32063139687014
30
0
41
1
10
46.858087426495
20
4.31594318934972
30
0
41
1
10
46.2867122046987
20
4.29237743634158
30
0
41
1
10
46.0013815690852
20
4.27360769222113
30
0
41
1
10
45.1457272581808
20
4.19636854646313
30
0
41
1
10
44.5757982098132
20
4.1171335545263
30
0
41
1
10
43.7180115691583
20
3.95796305378818
30
0
41
1
10
43.4318786840357
20
3.89834379596837
30
0
41
1
10
42.8608545536663
20
3.76710661629869
30
2E-16
41
1
10
42.575625310907
20
3.69516546850315
30
2E-16
41
1
10
41.861749202246
20
3.50074810179615
30
-1E-16
41
1
10
41.4331712997911
20
3.37081772970851
30
-2E-16
41
1
10
41.00374598154
20
3.22852977719398
30
-2E-16
0
SPLINE
5
F8
100
AcDbEntity
8
1
62
256
6
ByLayer
370
18
48
1
60
0
100
AcDbSpline
70
4
71
3
72
8
73
4
40
0
40
0
40
0
40
0
40
1
40
1
40
1
40
1
41
1
10
21.5076448620117
20
-4.26179951127637
30
0
41
1
10
21.4704766978982
20
-4.2648125001507
30
0
41
1
10
21.4333087479512
20
-4.26770790574344
30
0
41
1
10
21.3961408439301
20
-4.27048545390289
30
0
0
SPLINE
5
F9
100
AcDbEntity
8
1
62
256
6
ByLayer
370
18
48
1
60
0
100
AcDbSpline
70
4
71
3
72
26
73
22
40
0
40
0
40
0
40
0
40
0.119870515621086
40
0.119870515621086
40
0.168897338450217
40
0.168897338450217
40
0.217924161279347
40
0.217924161279347
40
0.31597780693761
40
0.31597780693761
40
0.512085098254135
40
0.512085098254135
40
0.610138743912397
40
0.610138743912397
40
0.659165566741528
40
0.659165566741528
40
0.708192389570659
40
0.708192389570659
40
0.904299680887185
40
0.904299680887185
40
1
40
1
40
1
40
1
41
1
10
21.6954237786411
20
-4.26553475001029
30
0
41
1
10
21.1408563701333
20
-4.27631814652406
30
0
41
1
10
20.5857650453792
20
-4.26086487536497
30
0
41
1
10
19.8003014706586
20
-4.20185845060129
30
0
41
1
10
19.5718874338095
20
-4.18032969881804
30
0
41
1
10
19.1139135466998
20
-4.12838328089109
30
0
41
1
10
18.8840250139726
20
-4.097904177044
30
0
41
1
10
18.1945781194397
20
-3.99367966488572
30
0
41
1
10
17.7375537289071
20
-3.90752876390516
30
0
41
1
10
16.3707312437858
20
-3.6022937769948
30
2E-16
41
1
10
15.46555379204
20
-3.33695989230887
30
2E-16
41
1
10
14.1035167477108
20
-2.86296879478684
30
2E-16
41
1
10
13.648849553639
20
-2.69222152675275
30
2E-16
41
1
10
12.964208201405
20
-2.41936053996386
30
1E-16
41
1
10
12.7355481886496
20
-2.32562928931256
30
1E-16
41
1
10
12.2770437778389
20
-2.13304031742442
30
1E-16
41
1
10
12.0467528373442
20
-2.03398346217122
30
1E-16
41
1
10
10.89859430343
20
-1.53005849029464
30
1E-16
41
1
10
9.99010243261327
20
-1.09833273829261
30
1E-16
41
1
10
8.63936811616495
20
-0.4417072079398
30
0
41
1
10
8.19666523732224
20
-0.223880999777663
30
0
41
1
10
7.75322725991794
20
-0.005685955914231
30
0
0
SPLINE
5
FA
100
AcDbEntity
8
1
62
256
6
ByLayer
370
18
48
1
60
0
100
AcDbSpline
70
4
71
3
72
8
73
4
40
0
40
0
40
0
40
0
40
1
40
1
40
1
40
1
41
1
10
47.3935101248955
20
-4.24741606816127
30
0
41
1
10
47.3867635847323
20
-4.26698622321109
30
0
41
1
10
47.3800457574649
20
-4.28655601129987
30
0
41
1
10
47.373357218272
20
-4.30612559491911
30
0
0
SPLINE
5
FB
100
AcDbEntity
8
1
62
256
6
ByLayer
370
18
48
1
60
0
100
AcDbSpline
70
4
71
3
72
48
73
44
40
0
40
0
40
0
40
0
40
0.0625000000000016
40
0.0625000000000016
40
0.125000000000003
40
0.125000000000003
40
0.187500000000005
40
0.187500000000005
40
0.218750000000006
40
0.218750000000006
40
0.250000000000007
40
0.250000000000007
40
0.312500000000007
40
0.312500000000007
40
0.343750000000007
40
0.343750000000007
40
0.375000000000006
40
0.375000000000006
40
0.437500000000006
40
0.437500000000006
40
0.500000000000005
40
0.500000000000005
40
0.531250000000004
40
0.531250000000004
40
0.562500000000004
40
0.562500000000004
40
0.625000000000003
40
0.625000000000003
40
0.656250000000003
40
0.656250000000003
40
0.687500000000002
40
0.687500000000002
40
0.750000000000002
40
0.750000000000002
40
0.812500000000001
40
0.812500000000001
40
0.875
40
0.875
40
0.90625
40
0.90625
40
0.937499999999999
40
0.937499999999999
40
1
40
1
40
1
40
1
41
1
10
20
20
4.48244659246126
30
0
41
1
10
20.5670841041732
20
4.48696645240238
30
0
41
1
10
21.1340839525932
20
4.46253386542588
30
-1E-16
41
1
10
22.2672225201255
20
4.35688887376929
30
0
41
1
10
22.8346218474187
20
4.27546134084281
30
0
41
1
10
23.965759073409
20
4.05959988435907
30
0
41
1
10
24.5305084907276
20
3.92518690153605
30
2E-16
41
1
10
25.3797048146546
20
3.68669086156044
30
2E-16
41
1
10
25.6634547749147
20
3.60092169276442
30
-2E-16
41
1
10
26.229877215531
20
3.4183606002876
30
-2E-16
41
1
10
26.5126528529747
20
3.32155707514929
30
-2E-16
41
1
10
27.3605613863849
20
3.01579402005038
30
-2E-16
41
1
10
27.9252853278863
20
2.79148409709131
30
-2E-16
41
1
10
28.7750664074505
20
2.42935421674952
30
-1E-16
41
1
10
29.0587237554296
20
2.30437167316208
30
-1E-16
41
1
10
29.6246416083928
20
2.04796895853593
30
-1E-16
41
1
10
29.9072549985309
20
1.91640157428492
30
-1E-16
41
1
10
30.7549203411242
20
1.51312839061606
30
-1E-16
41
1
10
31.3197974302473
20
1.23284315869307
30
-1E-16
41
1
10
32.4538523645846
20
0.658003264230331
30
0
41
1
10
33.0188686143268
20
0.365636977063105
30
0
41
1
10
33.866544340344
20
-0.0738689821238836
30
0
41
1
10
34.1491317343465
20
-0.220541503243965
30
0
41
1
10
34.7149369545814
20
-0.513117627145448
30
0
41
1
10
34.9985054198253
20
-0.659198302303878
30
0
41
1
10
35.8481074779197
20
-1.09304408013404
30
1E-16
41
1
10
36.4127329968021
20
-1.37622605729786
30
1E-16
41
1
10
37.2604872763787
20
-1.78553449904959
30
1E-16
41
1
10
37.5432044945016
20
-1.91940118487653
30
1E-16
41
1
10
38.1094390571922
20
-2.18101735082809
30
1E-16
41
1
10
38.3930786034148
20
-2.30881159311997
30
1E-16
41
1
10
39.2418568051356
20
-2.67964682124767
30
2E-16
41
1
10
39.8062246203228
20
-2.91076509135769
30
2E-16
41
1
10
40.9367625790932
20
-3.33363959103758
30
2E-16
41
1
10
41.5041745072703
20
-3.52569213932688
30
2E-16
41
1
10
42.6350547865999
20
-3.86122663064299
30
-2E-16
41
1
10
43.1993539710121
20
-4.00512319237848
30
-2E-16
41
1
10
44.0476257951281
20
-4.18175548024763
30
0
41
1
10
44.3310001174003
20
-4.23414673748655
30
0
41
1
10
44.8974270516092
20
-4.32509942473806
30
0
41
1
10
45.1801653428455
20
-4.363627519267
30
0
41
1
10
46.0277944494171
20
-4.4581077179183
30
1E-16
41
1
10
46.5920628898617
20
-4.49296572865697
30
0
41
1
10
47.1577438581375
20
-4.49902412888051
30
0
0
SPLINE
5
FC
100
AcDbEntity
8
1
62
256
6
ByLayer
370
18
48
1
60
0
100
AcDbSpline
70
4
71
3
72
26
73
22
40
0
40
0
40
0
40
0
40
0.0464081264098319
40
0.0464081264098319
40
0.152362779030961
40
0.152362779030961
40
0.364272084273219
40
0.364272084273219
40
0.470226736894349
40
0.470226736894349
40
0.523204063204914
40
0.523204063204914
40
0.576181389515479
40
0.576181389515479
40
0.78809069475774
40
0.78809069475774
40
0.89404534737887
40
0.89404534737887
40
0.947022673689435
40
0.947022673689435
40
1
40
1
40
1
40
1
41
1
10
34.4980338360621
20
0.229665422208313
30
0
41
1
10
34.6991970799044
20
0.130657058523525
30
0
41
1
10
34.8998778620549
20
0.0316911921547955
30
0
41
1
10
35.5574595517088
20
-0.292421963811932
30
0
41
1
10
36.0127436843634
20
-0.516483322315366
30
0
41
1
10
37.3757329027789
20
-1.17840434544442
30
1E-16
41
1
10
38.2806539429874
20
-1.60582248493975
30
1E-16
41
1
10
39.6452588497201
20
-2.20071624725716
30
1E-16
41
1
10
40.1013432545121
20
-2.39129391676707
30
1E-16
41
1
10
40.7889696806049
20
-2.66228648800313
30
2E-16
41
1
10
41.0191931136251
20
-2.75030060809903
30
2E-16
41
1
10
41.4781699822874
20
-2.91985780366883
30
2E-16
41
1
10
41.7070484159254
20
-3.00145397288301
30
2E-16
41
1
10
42.849098906919
20
-3.39258248977049
30
2E-16
41
1
10
43.7551568119427
20
-3.65114475671675
30
-2E-16
41
1
10
45.1160625347947
20
-3.94463692337729
30
0
41
1
10
45.5699951449942
20
-4.02674620838667
30
0
41
1
10
46.2528857319637
20
-4.1246272922769
30
0
41
1
10
46.4808481132882
20
-4.15304128387902
30
0
41
1
10
46.9377066506166
20
-4.20118525543902
30
0
41
1
10
47.166634916149
20
-4.22053071342293
30
0
41
1
10
47.3960991241517
20
-4.23619464570194
30
0
0
SPLINE
5
FD
100
AcDbEntity
8
1
62
256
6
ByLayer
370
18
48
1
60
0
100
AcDbSpline
70
4
71
3
72
12
73
8
40
0
40
0
40
0
40
0
40
0.0997380926455462
40
0.242759793970447
40
0.444416354671068
40
0.705024907498473
40
1
40
1
40
1
40
1
41
1
10
47.612602747068
20
0.82530516363633
30
-1E-16
41
1
10
47.4249553795415
20
0.884325195192275
30
-1E-16
41
1
10
46.9688436672989
20
1.02980854811523
30
-1E-16
41
1
10
46.1365725997798
20
1.30437155945651
30
-1E-16
41
1
10
45.008427166435
20
1.69384882233101
30
-1E-16
41
1
10
43.6061354349317
20
2.2063646735545
30
-1E-16
41
1
10
42.5864920821166
20
2.60549367213235
30
-2E-16
41
1
10
42.0476217267504
20
2.82383973252067
30
-2E-16
0
SPLINE
5
FE
100
AcDbEntity
8
1
62
256
6
ByLayer
370
18
48
1
60
0
100
AcDbSpline
70
4
71
2
72
6
73
3
40
0
40
0
40
0
40
1
40
1
40
1
41
1
10
5.89522981506255
20
4.25028018654297
30
0
41
1
10
4.74866671592
20
4.25145144208361
30
0
41
1
10
3.60211210418257
20
4.24780971938625
30
0
0
SPLINE
5
FF
100
AcDbEntity
8
1
62
256
6
ByLayer
370
18
48
1
60
0
100
AcDbSpline
70
4
71
2
72
6
73
3
40
0
40
0
40
0
40
1
40
1
40
1
41
1
10
20.0002512323138
20
4.35922378355903
30
0
41
1
10
20.6102846966872
20
4.34446128942827
30
0
41
1
10
21.2208902471065
20
4.28234410930403
30
0
0
SPLINE
5
100
100
AcDbEntity
8
1
62
256
6
ByLayer
370
18
48
1
60
0
100
AcDbSpline
70
4
71
3
72
24
73
20
40
0
40
0
40
0
40
0
40
0.091339377680732
40
0.156497659379489
40
0.20013579731554
40
0.245640317254959
40
0.296295621502581
40
0.350241534727936
40
0.40118867828281
40
0.465500937014693
40
0.522042830263808
40
0.574600654051975
40
0.649845615998382
40
0.729773385694009
40
0.782632029170587
40
0.829790605906142
40
0.883198264358107
40
0.952439323149579
40
1
40
1
40
1
40
1
41
1
10
21.3410165025526
20
-4.25882126243397
30
0
41
1
10
21.6158359100147
20
-4.25903437715763
30
0
41
1
10
22.0867045869596
20
-4.25934068309138
30
0
41
1
10
22.6893031426962
20
-4.25924750007235
30
0
41
1
10
23.1533506401282
20
-4.25956482181354
30
0
41
1
10
23.5739932715436
20
-4.25997601507345
30
0
41
1
10
24.0258172358244
20
-4.26058444163235
30
0
41
1
10
24.4940251741106
20
-4.26068955012789
30
0
41
1
10
25.0033362825839
20
-4.26050788728617
30
0
41
1
10
25.5204639816935
20
-4.26028165285706
30
0
41
1
10
26.0424339543258
20
-4.26108249821633
30
0
41
1
10
26.5972898015601
20
-4.26251453705191
30
0
41
1
10
27.2225796402108
20
-4.26198087703582
30
0
41
1
10
27.8487490859835
20
-4.26114214520337
30
0
41
1
10
28.3903913716291
20
-4.26134279865218
30
0
41
1
10
28.8522060938809
20
-4.26216237939312
30
0
41
1
10
29.3633295427504
20
-4.26247946847511
30
0
41
1
10
29.8756611415994
20
-4.26361797581478
30
0
41
1
10
30.2272452210726
20
-4.26405064707447
30
0
41
1
10
30.3704027853113
20
-4.26410542528785
30
0
0
SPLINE
5
101
100
AcDbEntity
8
1
62
256
6
ByLayer
370
18
48
1
60
0
100
AcDbSpline
70
4
71
3
72
21
73
17
40
0
40
0
40
0
40
0
40
0.123899353129467
40
0.21022000884671
40
0.285446117604614
40
0.349505359970428
40
0.404978673246119
40
0.48094313156003
40
0.559415217403702
40
0.615992044239528
40
0.676732159337381
40
0.75665796996622
40
0.854048134335959
40
0.934172046459735
40
0.995151344851122
40
1
40
1
40
1
40
1
41
1
10
33.09930852255
20
4.26568065782169
30
0
41
1
10
32.7234033605422
20
4.26368639859169
30
0
41
1
10
32.0855595539319
20
4.26162042519829
30
0
41
1
10
31.2197463779198
20
4.26344627335178
30
0
41
1
10
30.5348070391319
20
4.26437340423266
30
0
41
1
10
29.9434020075353
20
4.26374306413462
30
0
41
1
10
29.3497815098508
20
4.26243453578115
30
0
41
1
10
28.7123873718447
20
4.26198746110288
30
0
41
1
10
28.0716456352895
20
4.26099260478705
30
0
41
1
10
27.4771337763233
20
4.2616460606875
30
0
41
1
10
26.8782034151045
20
4.26242276668043
30
0
41
1
10
26.1553569487777
20
4.2615667117783
30
0
41
1
10
25.3735936038503
20
4.26009581059074
30
0
41
1
10
24.649555273768
20
4.2607166509315
30
0
41
1
10
24.2060763611313
20
4.26065979216293
30
0
41
1
10
24.0064424042072
20
4.26046995331475
30
0
41
1
10
23.9917402072608
20
4.26045507188436
30
0
0
SPLINE
5
102
100
AcDbEntity
8
1
62
256
6
ByLayer
370
18
48
1
60
0
100
AcDbSpline
70
4
71
3
72
30
73
26
40
0
40
0
40
0
40
0
40
1.449363542E-05
40
2.74774387173E-05
40
4.85901446335E-05
40
8.19981064531E-05
40
0.0001071024188583
40
0.0001278682194022
40
0.0002303117577417
40
0.0003129846922909
40
0.000462349072669
40
0.0007346341976968
40
0.001238773681
40
0.0021970475576311
40
0.0042467662008343
40
0.0169227039782079
40
0.0583396859308262
40
0.123973608690845
40
0.192446051561853
40
0.292112263567714
40
0.379659423728354
40
0.482803055642985
40
0.624655233919105
40
0.805168769388415
40
1
40
1
40
1
40
1
41
1
10
22.9874974356367
20
0.0660281625579273
30
0
41
1
10
22.987515694604
20
0.0660235528701207
30
0
41
1
10
22.987547042501
20
0.0660157170157731
30
0
41
1
10
22.9875764533491
20
0.0660090126696105
30
0
41
1
10
22.9875353276282
20
0.0660218957022209
30
0
41
1
10
22.987480928014
20
0.0660383982043413
30
0
41
1
10
22.9873664612157
20
0.0660705733033353
30
0
41
1
10
22.9870357005797
20
0.0661603675733033
30
0
41
1
10
22.9864367576112
20
0.066318953812754
30
0
41
1
10
22.9856899984924
20
0.0665214871858097
30
0
41
1
10
22.9844765083462
20
0.0668482344218262
30
0
41
1
10
22.9822838965637
20
0.0674396570583724
30
0
41
1
10
22.9780879837798
20
0.0685698412550266
30
0
41
1
10
22.9694727108844
20
0.0708882016330961
30
0
41
1
10
22.9292849971591
20
0.0817208014619268
30
0
41
1
10
22.7764918444586
20
0.123429975123514
30
0
41
1
10
22.4509732960917
20
0.214000029523675
30
0
41
1
10
21.9707766939246
20
0.351485098797269
30
0
41
1
10
21.333544773372
20
0.539351799674336
30
0
41
1
10
20.6382915360208
20
0.751804148285345
30
0
41
1
10
19.8515346874129
20
1.00162044800922
30
-1E-16
41
1
10
18.9537221821766
20
1.29761508506857
30
-1E-16
41
1
10
17.810361001181
20
1.69266748901339
30
-1E-16
41
1
10
16.429196532409
20
2.19767950246606
30
-1E-16
41
1
10
15.4354358769536
20
2.58674940298869
30
-2E-16
41
1
10
14.9217979962873
20
2.79464715676858
30
-2E-16
0
SPLINE
5
103
100
AcDbEntity
8
1
62
256
6
ByLayer
370
18
48
1
60
0
100
AcDbSpline
70
4
71
2
72
6
73
3
40
0
40
0
40
0
40
1
40
1
40
1
41
1
10
34.9460424792247
20
-0.0021840909507489
30
0
41
1
10
34.9460402321671
20
-0.0021730674525884
30
0
41
1
10
34.9460379851148
20
-0.0021621337430417
30
0
0
LINE
5
84
100
AcDbEntity
8
SK1
62
256
6
ByLayer
370
18
48
1
60
0
100
AcDbLine
10
-38.66
20
-5
30
0
11
-38.66
21
5
31
0
39
0
210
0
220
0
230
1
0
LINE
5
86
100
AcDbEntity
8
SK1
62
256
6
ByLayer
370
18
48
1
60
0
100
AcDbLine
10
-39.35
20
0.915695
30
0
11
-39.35
21
1.083902
31
0
39
0
210
0
220
0
230
1
0
LINE
5
87
100
AcDbEntity
8
SK1
62
256
6
ByLayer
370
18
48
1
60
0
100
AcDbLine
10
-39.25
20
-0.813212
30
0
11
-39.25
21
0.986426
31
0
39
0
210
0
220
0
230
1
0
LINE
5
88
100
AcDbEntity
8
SK1
62
256
6
ByLayer
370
18
48
1
60
0
100
AcDbLine
10
0
20
5
30
0
11
0
21
-5
31
0
39
0
210
0
220
0
230
1
0
LINE
5
89
100
AcDbEntity
8
SK1
62
256
6
ByLayer
370
18
48
1
60
0
100
AcDbLine
10
-40
20
1.627343
30
0
11
-40
21
3.66
31
0
39
0
210
0
220
0
230
1
0
LINE
5
8A
100
AcDbEntity
8
SK1
62
256
6
ByLayer
370
18
48
1
60
0
100
AcDbLine
10
-40
20
1.494527
30
0
11
-40
21
1.627343
31
0
39
0
210
0
220
0
230
1
0
LINE
5
8B
100
AcDbEntity
8
SK1
62
256
6
ByLayer
370
18
48
1
60
0
100
AcDbLine
10
-40
20
-3.66
30
0
11
-40
21
-1.494527
31
0
39
0
210
0
220
0
230
1
0
LINE
5
8C
100
AcDbEntity
8
SK1
62
256
6
ByLayer
370
18
48
1
60
0
100
AcDbLine
10
-39.517949
20
0.919163
30
0
11
-39.517949
21
1.080435
31
0
39
0
210
0
220
0
230
1
0
LINE
5
8D
100
AcDbEntity
8
1
62
256
6
ByLayer
370
18
48
1
60
0
100
AcDbLine
10
20
20
-4.482898
30
0
11
20
21
-4.482447
31
0
39
0
210
0
220
0
230
1
0
LINE
5
8E
100
AcDbEntity
8
1
62
256
6
ByLayer
370
18
48
1
60
0
100
AcDbLine
10
0
20
5
30
0
11
0
21
0
31
0
39
0
210
0
220
0
230
1
0
LINE
5
8F
100
AcDbEntity
8
1
62
256
6
ByLayer
370
18
48
1
60
0
100
AcDbLine
10
0
20
0
30
0
11
0
21
-5
31
0
39
0
210
0
220
0
230
1
0
LINE
5
90
100
AcDbEntity
8
1
62
256
6
ByLayer
370
18
48
1
60
0
100
AcDbLine
10
0.594276
20
4.73557
30
0
11
0.594276
21
0
31
0
39
0
210
0
220
0
230
1
0
LINE
5
91
100
AcDbEntity
8
1
62
256
6
ByLayer
370
18
48
1
60
0
100
AcDbLine
10
0.594276
20
0
30
0
11
0.594276
21
-4.73557
31
0
39
0
210
0
220
0
230
1
0
LINE
5
92
100
AcDbEntity
8
1
62
256
6
ByLayer
370
18
48
1
60
0
100
AcDbLine
10
3.501725
20
4.472586
30
0
11
3.501725
21
2.157234
31
0
39
0
210
0
220
0
230
1
0
LINE
5
93
100
AcDbEntity
8
1
62
256
6
ByLayer
370
18
48
1
60
0
100
AcDbLine
10
3.501725
20
-4.344261
30
0
11
3.501725
21
-4.472586
31
0
39
0
210
0
220
0
230
1
0
LINE
5
94
100
AcDbEntity
8
1
62
256
6
ByLayer
370
18
48
1
60
0
100
AcDbLine
10
48.937247
20
0.054172
30
0
11
47.854572
21
1.249258
31
0
39
0
210
0
220
0
230
1
0
LINE
5
95
100
AcDbEntity
8
1
62
256
6
ByLayer
370
18
48
1
60
0
100
AcDbLine
10
1.189053
20
4.471141
30
0
11
1.189053
21
0
31
0
39
0
210
0
220
0
230
1
0
LINE
5
96
100
AcDbEntity
8
1
62
256
6
ByLayer
370
18
48
1
60
0
100
AcDbLine
10
1.189053
20
0
30
0
11
1.189053
21
-4.471141
31
0
39
0
210
0
220
0
230
1
0
LINE
5
97
100
AcDbEntity
8
SK1
62
256
6
ByLayer
370
18
48
1
60
0
100
AcDbLine
10
-40
20
-3.66
30
0
11
-38.66
21
-5
31
0
39
0
210
0
220
0
230
1
0
LINE
5
98
100
AcDbEntity
8
SK1
62
256
6
ByLayer
370
18
48
1
60
0
100
AcDbLine
10
-38.66
20
5
30
0
11
-40
21
3.66
31
0
39
0
210
0
220
0
230
1
0
LINE
5
99
100
AcDbEntity
8
SK1
62
256
6
ByLayer
370
18
48
1
60
0
100
AcDbLine
10
-38.66
20
-5
30
0
11
0
21
-5
31
0
39
0
210
0
220
0
230
1
0
LINE
5
9A
100
AcDbEntity
8
SK1
62
256
6
ByLayer
370
18
48
1
60
0
100
AcDbLine
10
0
20
5
30
0
11
-38.66
21
5
31
0
39
0
210
0
220
0
230
1
0
LINE
5
9B
100
AcDbEntity
8
1
62
256
6
ByLayer
370
18
48
1
60
0
100
AcDbLine
10
1.189053
20
-4.471141
30
0
11
3.501725
21
-4.472586
31
0
39
0
210
0
220
0
230
1
0
LINE
5
9C
100
AcDbEntity
8
1
62
256
6
ByLayer
370
18
48
1
60
0
100
AcDbLine
10
5.896611
20
-4.474083
30
0
11
7.156505
21
-4.47487
31
0
39
0
210
0
220
0
230
1
0
LINE
5
9D
100
AcDbEntity
8
1
62
256
6
ByLayer
370
18
48
1
60
0
100
AcDbLine
10
20.122767
20
-4.482974
30
0
11
21.341866
21
-4.483736
31
0
39
0
210
0
220
0
230
1
0
LINE
5
9E
100
AcDbEntity
8
1
62
256
6
ByLayer
370
18
48
1
60
0
100
AcDbLine
10
33.101233
20
-4.491086
30
0
11
34.329495
21
-4.491854
31
0
39
0
210
0
220
0
230
1
0
LINE
5
9F
100
AcDbEntity
8
1
62
256
6
ByLayer
370
18
48
1
60
0
100
AcDbLine
10
34.329495
20
4.491854
30
0
11
33.101233
21
4.491086
31
0
39
0
210
0
220
0
230
1
0
LINE
5
A0
100
AcDbEntity
8
1
62
256
6
ByLayer
370
18
48
1
60
0
100
AcDbLine
10
21.341866
20
4.483736
30
0
11
20.122767
21
4.482974
31
0
39
0
210
0
220
0
230
1
0
LINE
5
A1
100
AcDbEntity
8
1
62
256
6
ByLayer
370
18
48
1
60
0
100
AcDbLine
10
7.156505
20
4.47487
30
0
11
5.896611
21
4.474083
31
0
39
0
210
0
220
0
230
1
0
LINE
5
A2
100
AcDbEntity
8
1
62
256
6
ByLayer
370
18
48
1
60
0
100
AcDbLine
10
3.501725
20
4.472586
30
0
11
1.189053
21
4.471141
31
0
39
0
210
0
220
0
230
1
0
LINE
5
A3
100
AcDbEntity
8
SK4
62
256
6
ByLayer
370
18
48
0.05
60
0
100
AcDbLine
10
54
20
0
30
0
11
-45
21
0
31
0
39
0
210
0
220
0
230
1
0
LINE
5
A5
100
AcDbEntity
8
4
62
256
6
ByLayer
370
18
48
0.05
60
0
100
AcDbLine
10
-40
20
0
30
0
11
54
21
0
31
0
39
0
210
0
220
0
230
1
0
LINE
5
A7
100
AcDbEntity
8
80
62
256
6
ByLayer
370
18
48
1
60
0
100
AcDbLine
10
0
20
0
30
0
11
-6
21
0
31
0
39
0
210
0
220
0
230
1
0
LINE
5
A8
100
AcDbEntity
8
81
62
256
6
ByLayer
370
18
48
1
60
0
100
AcDbLine
10
49
20
0
30
0
11
55
21
0
31
0
39
0
210
0
220
0
230
1
0
LINE
5
A9
100
AcDbEntity
8
SK2
62
256
6
ByLayer
370
13
48
1
60
0
100
AcDbLine
10
49.542967
20
1.491758
30
0
11
56.926462
21
21.777324
31
0
39
0
210
0
220
0
230
1
0
LINE
5
AB
100
AcDbEntity
8
SK2
62
256
6
ByLayer
370
13
48
1
60
0
100
AcDbLine
10
49.542967
20
-1.491758
30
0
11
56.926462
21
-21.777324
31
0
39
0
210
0
220
0
230
1
0
LINE
5
AC
100
AcDbEntity
8
1
62
256
6
ByLayer
370
13
48
1
60
0
100
AcDbLine
10
55.840528
20
18.793807
30
0
11
58.937113
21
17.977414
31
0
39
0
210
0
220
0
230
1
0
LINE
5
AD
100
AcDbEntity
8
1
62
256
6
ByLayer
370
13
48
1
60
0
100
AcDbLine
10
55.840528
20
18.793807
30
0
11
58.620304
21
17.203775
31
0
39
0
210
0
220
0
230
1
0
LINE
5
AE
100
AcDbEntity
8
1
62
256
6
ByLayer
370
13
48
1
60
0
100
AcDbLine
10
58.937113
20
17.977414
30
0
11
58.620304
21
17.203775
31
0
39
0
210
0
220
0
230
1
0
LINE
5
AF
100
AcDbEntity
8
1
62
256
6
ByLayer
370
13
48
1
60
0
100
AcDbLine
10
55.840528
20
-18.793807
30
0
11
58.620301
21
-17.203777
31
0
39
0
210
0
220
0
230
1
0
LINE
5
B0
100
AcDbEntity
8
1
62
256
6
ByLayer
370
13
48
1
60
0
100
AcDbLine
10
55.840528
20
-18.793807
30
0
11
58.937116
21
-17.977413
31
0
39
0
210
0
220
0
230
1
0
LINE
5
B1
100
AcDbEntity
8
1
62
256
6
ByLayer
370
13
48
1
60
0
100
AcDbLine
10
58.620301
20
-17.203777
30
0
11
58.937116
21
-17.977413
31
0
39
0
210
0
220
0
230
1
0
MTEXT
5
104
100
AcDbEntity
8
SK2
62
256
6
ByLayer
370
18
48
1
60
0
100
AcDbMText
10
62.717388
20
-2.467451
30
0
210
0
220
0
230
1
1
\W0.7237;140.00
40
3.50012
41
0
44
1.084337
50
0
71
7
72
5
7
iso_b_vert
0
MTEXT
5
107
100
AcDbEntity
8
SK6
62
256
6
ByLayer
370
18
48
1
60
0
100
AcDbMText
10
-34.432246
20
-54.688338
30
0
210
0
220
0
230
1
1
\W0.7454;860.1-0900-028A1-GM X1BM
40
3.175
41
0
44
1.084337
50
0
71
7
72
5
7
iso_b_vert
0
DIMENSION
5
10A
100
AcDbEntity
8
SK2
62
256
6
ByLayer
370
18
48
1
60
0
100
AcDbDimension
2
_U0
10
49
20
-28.50012
30
0
11
24.5
21
-28.50012
31
0
70
32
71
2
72
1
41
1
210
0
220
0
230
1
3
Standard
100
AcDbAlignedDimension
13
0
23
-5
33
0
14
49
24
0
34
0
50
0
100
AcDbRotatedDimension
1001
ACAD
1000
DSTYLE
1002
{
1070
   371
1070
    13
1070
   372
1070
    13
1070
     3
1000

1070
   170
1070
     0
1070
   144
1040
1.0
1070
   277
1070
     2
1070
   284
1070
     8
1070
   278
1070
    46
1070
   146
1040
0.999966
1070
   345
1005
16
1070
   347
1005
16
1070
   346
1005
16
1070
   344
1005
10B
1070
   343
1005
10B
1070
   172
1070
     1
1070
    76
1070
     0
1070
    75
1070
     0
1070
   282
1070
     0
1070
   281
1070
     0
1070
    71
1070
     0
1070
    74
1070
     0
1070
   279
1070
     0
1070
   173
1070
     1
1070
   340
1005
105
1070
   271
1070
     1
1070
   272
1070
     2
1070
    77
1070
     1
1070
    73
1070
     1
1070
   171
1070
     3
1070
   274
1070
     4
1070
   177
1070
   150
1070
   176
1070
     9
1070
   178
1070
    43
1070
    78
1070
     8
1070
    48
1040
-0.1
1070
    41
1040
3.175
1070
   147
1040
1.75006
1070
    42
1040
1.5875
1070
    44
1040
3.175
1070
   140
1040
3.50012
1002
}
1001
ACAD_DSTYLE_DIM_LINETYPE
1070
   380
1005
16
1001
ACAD_DSTYLE_DIM_EXT1_LINETYPE
1070
   381
1005
16
1001
ACAD_DSTYLE_DIM_EXT2_LINETYPE
1070
   382
1005
16
0
DIMENSION
5
130
100
AcDbEntity
8
2
62
256
6
ByLayer
370
18
48
1
60
0
100
AcDbDimension
2
_U1
10
55.75006
20
4.5
30
0
11
55.75006
21
17.489811
31
0
70
32
71
1
72
1
41
1
210
0
220
0
230
1
3
Standard
100
AcDbAlignedDimension
13
47.3621
23
-4.5
33
0
14
47.3621
24
4.5
34
0
50
90
100
AcDbRotatedDimension
1001
ACAD
1000
DSTYLE
1002
{
1070
   371
1070
    13
1070
   372
1070
    13
1070
     3
1000

1070
   170
1070
     0
1070
   144
1040
1.0
1070
   277
1070
     2
1070
   284
1070
     8
1070
   278
1070
    46
1070
   146
1040
0.999966
1070
   345
1005
16
1070
   347
1005
16
1070
   346
1005
16
1070
   344
1005
10B
1070
   343
1005
10B
1070
   172
1070
     1
1070
    76
1070
     0
1070
    75
1070
     0
1070
   282
1070
     0
1070
   281
1070
     0
1070
    71
1070
     0
1070
    74
1070
     0
1070
   279
1070
     0
1070
   173
1070
     1
1070
   340
1005
105
1070
   271
1070
     1
1070
   272
1070
     2
1070
    77
1070
     1
1070
    73
1070
     0
1070
   171
1070
     3
1070
   274
1070
     4
1070
   177
1070
   150
1070
   176
1070
     9
1070
   178
1070
    43
1070
    78
1070
     8
1070
    48
1040
-0.1
1070
    41
1040
3.175
1070
   147
1040
1.75006
1070
    42
1040
1.5875
1070
    44
1040
3.175
1070
   140
1040
3.50012
1002
}
1001
ACAD_DSTYLE_DIM_LINETYPE
1070
   380
1005
16
1001
ACAD_DSTYLE_DIM_EXT1_LINETYPE
1070
   381
1005
16
1001
ACAD_DSTYLE_DIM_EXT2_LINETYPE
1070
   382
1005
16
0
DIMENSION
5
14F
100
AcDbEntity
8
SK2
62
256
6
ByLayer
370
18
48
1
60
0
100
AcDbDimension
2
_U2
10
-43.24994
20
-5
30
0
11
-43.24994
21
19.97767
31
0
70
32
71
1
72
1
41
1
210
0
220
0
230
1
3
Standard
100
AcDbAlignedDimension
13
-40
23
5
33
0
14
-40
24
-5
34
0
50
90
100
AcDbRotatedDimension
1001
ACAD
1000
DSTYLE
1002
{
1070
   371
1070
    13
1070
   372
1070
    13
1070
     3
1000

1070
   170
1070
     0
1070
   144
1040
1.0
1070
   277
1070
     2
1070
   284
1070
     8
1070
   278
1070
    46
1070
   146
1040
0.999966
1070
   345
1005
16
1070
   347
1005
16
1070
   346
1005
16
1070
   344
1005
10B
1070
   343
1005
10B
1070
   172
1070
     1
1070
    76
1070
     0
1070
    75
1070
     0
1070
   282
1070
     0
1070
   281
1070
     0
1070
    71
1070
     0
1070
    74
1070
     0
1070
   279
1070
     0
1070
   173
1070
     1
1070
   340
1005
105
1070
   271
1070
     1
1070
   272
1070
     2
1070
    77
1070
     1
1070
    73
1070
     0
1070
   171
1070
     3
1070
   274
1070
     4
1070
   177
1070
   150
1070
   176
1070
     9
1070
   178
1070
    43
1070
    78
1070
     8
1070
    48
1040
-0.1
1070
    41
1040
3.175
1070
   147
1040
1.75006
1070
    42
1040
1.5875
1070
    44
1040
3.175
1070
   140
1040
3.50012
1002
}
1001
ACAD_DSTYLE_DIM_LINETYPE
1070
   380
1005
16
1001
ACAD_DSTYLE_DIM_EXT1_LINETYPE
1070
   381
1005
16
1001
ACAD_DSTYLE_DIM_EXT2_LINETYPE
1070
   382
1005
16
0
DIMENSION
5
16D
100
AcDbEntity
8
SK2
62
256
6
ByLayer
370
18
48
1
60
0
100
AcDbDimension
2
_U3
10
0
20
-28.50012
30
0
11
-20
21
-28.50012
31
0
70
32
71
1
72
1
41
1
210
0
220
0
230
1
3
Standard
100
AcDbAlignedDimension
13
-40
23
-5
33
0
14
0
24
-5
34
0
50
0
100
AcDbRotatedDimension
1001
ACAD
1000
DSTYLE
1002
{
1070
   371
1070
    13
1070
   372
1070
    13
1070
     3
1000

1070
   170
1070
     0
1070
   144
1040
1.0
1070
   277
1070
     2
1070
   284
1070
     8
1070
   278
1070
    46
1070
   146
1040
0.999966
1070
   345
1005
16
1070
   347
1005
16
1070
   346
1005
16
1070
   344
1005
10B
1070
   343
1005
10B
1070
   172
1070
     1
1070
    76
1070
     0
1070
    75
1070
     0
1070
   282
1070
     0
1070
   281
1070
     0
1070
    71
1070
     0
1070
    74
1070
     0
1070
   279
1070
     0
1070
   173
1070
     1
1070
   340
1005
105
1070
   271
1070
     1
1070
   272
1070
     2
1070
    77
1070
     1
1070
    73
1070
     1
1070
   171
1070
     3
1070
   274
1070
     4
1070
   177
1070
   150
1070
   176
1070
     9
1070
   178
1070
    43
1070
    78
1070
     8
1070
    48
1040
-0.1
1070
    41
1040
3.175
1070
   147
1040
1.75006
1070
    42
1040
1.5875
1070
    44
1040
3.175
1070
   140
1040
3.50012
1002
}
1001
ACAD_DSTYLE_DIM_LINETYPE
1070
   380
1005
16
1001
ACAD_DSTYLE_DIM_EXT1_LINETYPE
1070
   381
1005
16
1001
ACAD_DSTYLE_DIM_EXT2_LINETYPE
1070
   382
1005
16
0
DIMENSION
5
189
100
AcDbEntity
8
SK2
62
256
6
ByLayer
370
18
48
1
60
0
100
AcDbDimension
2
_U4
10
49
20
-19.74982
30
0
11
25.5
21
-19.74982
31
0
70
32
71
1
72
1
41
1
210
0
220
0
230
1
3
Standard
100
AcDbAlignedDimension
13
2
23
5
33
0
14
49
24
0
34
0
50
0
100
AcDbRotatedDimension
1001
ACAD
1000
DSTYLE
1002
{
1070
   371
1070
    13
1070
   372
1070
    13
1070
     3
1000

1070
   170
1070
     0
1070
   144
1040
1.0
1070
   277
1070
     2
1070
   284
1070
     8
1070
   278
1070
    46
1070
   146
1040
0.999966
1070
   345
1005
16
1070
   347
1005
16
1070
   346
1005
16
1070
   344
1005
10B
1070
   343
1005
10B
1070
   172
1070
     1
1070
    76
1070
     0
1070
    75
1070
     0
1070
   282
1070
     0
1070
   281
1070
     0
1070
    71
1070
     0
1070
    74
1070
     0
1070
   279
1070
     0
1070
   173
1070
     1
1070
   340
1005
105
1070
   271
1070
     1
1070
   272
1070
     2
1070
    77
1070
     1
1070
    73
1070
     1
1070
   171
1070
     3
1070
   274
1070
     4
1070
   177
1070
   150
1070
   176
1070
     9
1070
   178
1070
    43
1070
    78
1070
     8
1070
    48
1040
-0.1
1070
    41
1040
3.175
1070
   147
1040
1.75006
1070
    42
1040
1.5875
1070
    44
1040
3.175
1070
   140
1040
3.50012
1002
}
1001
ACAD_DSTYLE_DIM_LINETYPE
1070
   380
1005
16
1001
ACAD_DSTYLE_DIM_EXT1_LINETYPE
1070
   381
1005
16
1001
ACAD_DSTYLE_DIM_EXT2_LINETYPE
1070
   382
1005
16
0
DIMENSION
5
1A5
100
AcDbEntity
8
SK2
62
256
6
ByLayer
370
18
48
1
60
0
100
AcDbDimension
2
_U5
10
49
20
-11.82
30
0
11
34.7
21
-11.82
31
0
70
32
71
1
72
1
41
1
210
0
220
0
230
1
3
Standard
100
AcDbAlignedDimension
13
20.4
23
-4.5
33
0
14
49
24
0
34
0
50
0
100
AcDbRotatedDimension
1001
ACAD
1000
DSTYLE
1002
{
1070
   371
1070
    13
1070
   372
1070
    13
1070
     3
1000

1070
   170
1070
     0
1070
   144
1040
1.0
1070
   277
1070
     2
1070
   284
1070
     8
1070
   278
1070
    46
1070
   146
1040
1.25
1070
   345
1005
16
1070
   347
1005
16
1070
   346
1005
16
1070
   344
1005
10B
1070
   343
1005
10B
1070
   172
1070
     1
1070
    76
1070
     0
1070
    75
1070
     0
1070
   282
1070
     0
1070
   281
1070
     0
1070
    71
1070
     0
1070
    74
1070
     0
1070
   279
1070
     0
1070
   173
1070
     1
1070
   340
1005
105
1070
   271
1070
     1
1070
   272
1070
     2
1070
    77
1070
     1
1070
    73
1070
     1
1070
   171
1070
     3
1070
   274
1070
     4
1070
   177
1070
   150
1070
   176
1070
     9
1070
   178
1070
    43
1070
    78
1070
     8
1070
    48
1040
-0.1
1070
    41
1040
3.175
1070
   147
1040
0.42
1070
    42
1040
1.5875
1070
    44
1040
0.5
1070
   140
1040
2.8
1002
}
1001
ACAD_DSTYLE_DIM_LINETYPE
1070
   380
1005
16
1001
ACAD_DSTYLE_DIM_EXT1_LINETYPE
1070
   381
1005
16
1001
ACAD_DSTYLE_DIM_EXT2_LINETYPE
1070
   382
1005
16
0
DIMENSION
5
1C1
100
AcDbEntity
8
SK2
62
256
6
ByLayer
370
18
48
1
60
0
100
AcDbDimension
2
_U6
10
49
20
-38.50012
30
0
11
4.5
21
-38.50012
31
0
70
32
71
1
72
1
41
1
210
0
220
0
230
1
3
Standard
100
AcDbAlignedDimension
13
-40
23
0
33
0
14
49
24
0
34
0
50
0
100
AcDbRotatedDimension
1001
ACAD
1000
DSTYLE
1002
{
1070
   371
1070
    13
1070
   372
1070
    13
1070
     3
1000

1070
   170
1070
     0
1070
   144
1040
1.0
1070
   277
1070
     2
1070
   284
1070
     8
1070
   278
1070
    46
1070
   146
1040
0.999966
1070
   345
1005
16
1070
   347
1005
16
1070
   346
1005
16
1070
   344
1005
10B
1070
   343
1005
10B
1070
   172
1070
     1
1070
    76
1070
     0
1070
    75
1070
     0
1070
   282
1070
     0
1070
   281
1070
     0
1070
    71
1070
     0
1070
    74
1070
     0
1070
   279
1070
     0
1070
   173
1070
     1
1070
   340
1005
105
1070
   271
1070
     1
1070
   272
1070
     2
1070
    77
1070
     1
1070
    73
1070
     1
1070
   171
1070
     3
1070
   274
1070
     4
1070
   177
1070
   150
1070
   176
1070
     9
1070
   178
1070
    43
1070
    78
1070
     8
1070
    48
1040
-0.1
1070
    41
1040
3.175
1070
   147
1040
1.75006
1070
    42
1040
1.5875
1070
    44
1040
3.175
1070
   140
1040
3.50012
1002
}
1001
ACAD_DSTYLE_DIM_LINETYPE
1070
   380
1005
16
1001
ACAD_DSTYLE_DIM_EXT1_LINETYPE
1070
   381
1005
16
1001
ACAD_DSTYLE_DIM_EXT2_LINETYPE
1070
   382
1005
16
0
ENDSEC
0
SECTION
2
OBJECTS
0
DICTIONARY
5
24d
330
0
100
AcDbDictionary
280
0
281
1
3
ACAD_GROUP
350
24e
3
ACAD_MLINESTYLE
350
24f
0
DICTIONARY
5
24e
330
0
100
AcDbDictionary
280
0
281
1
0
DICTIONARY
5
24f
330
0
100
AcDbDictionary
280
0
281
1
3
Standard
350
18
0
MLINESTYLE
5
18
330
24f
100
AcDbMlineStyle
2
Standard
70
0
3

62
256
51
90
52
90
71
2
49
-0.5
62
256
6
ByLayer
49
0.5
62
256
6
ByLayer
0
RASTERVARIABLES
5
23b
330

100
AcDbRasterVariables
90
0
70
1
71
1
72
1
0
ENDSEC
0
EOF
