0
SECTION
2
HEADER
9
$ACADVER
1
AC1015
9
$DWGCODEPAGE
3
ANSI_1252
9
$HANDSEED
5
256
9
$ANGBASE
50
0
9
$ANGDIR
70
0
9
$ATTMODE
70
1
9
$AUNITS
70
0
9
$AUPREC
70
0
9
$CECOLOR
62
256
9
$CELTSCALE
40
1
9
$CELTYPE
6
ByLayer
9
$CELWEIGHT
370
18
9
$CLAYER
8
0
9
$CMLJUST
70
0
9
$CMLSCALE
40
1
9
$CMLSTYLE
2
Standard
9
$DIMSTYLE
2
Standard
9
$TEXTSIZE
40
0.2
9
$TEXTSTYLE
7
Standard
9
$LUNITS
70
2
9
$LUPREC
70
4
9
$EXTNAMES
290
1
9
$INSUNITS
70
4
9
$LTSCALE
40
1
9
$LWDISPLAY
290
1
9
$PDMODE
70
0
9
$PDSIZE
40
0
9
$PLINEGEN
70
0
0
ENDSEC
0
SECTION
2
CLASSES
0
CLASS
1
RASTERVARIABLES
2
AcDbRasterVariables
3
ISM
90
0
280
0
281
0
0
ENDSEC
0
SECTION
2
TABLES
0
TABLE
2
VPORT
5
24c
100
AcDbSymbolTable
0
VPORT
5
1
100
AcDbSymbolTableRecord
100
AcDbViewportTableRecord
2
*Active
70
0
10
0
20
0
11
1
21
1
12
-1
22
1
13
0
23
0
14
0.5
24
0.5
15
10
25
10
16
0
26
0
36
1
17
0
27
0
37
0
0
ENDTAB
0
TABLE
2
LTYPE
5
24d
100
AcDbSymbolTable
0
LTYPE
5
14
100
AcDbSymbolTableRecord
100
AcDbLinetypeTableRecord
70
0
2
ByBlock
3

72
65
73
0
40
0
0
LTYPE
5
15
100
AcDbSymbolTableRecord
100
AcDbLinetypeTableRecord
70
0
2
ByLayer
3

72
65
73
0
40
0
0
LTYPE
5
16
100
AcDbSymbolTableRecord
100
AcDbLinetypeTableRecord
70
0
2
Continuous
3
Solid line
72
65
73
0
40
0
0
LTYPE
5
6E
100
AcDbSymbolTableRecord
100
AcDbLinetypeTableRecord
70
0
2
CENTER
3
____ _ ____ _ ____ _ ____
72
65
73
4
40
47.5
49
22
74
0
49
-8.5
74
0
49
8.5
74
0
49
-8.5
74
0
0
LTYPE
5
6F
100
AcDbSymbolTableRecord
100
AcDbLinetypeTableRecord
70
0
2
DASHED
3
__ __ __ __ __ __ __ __ __
72
65
73
2
40
25.72
49
12.86
74
0
49
-12.86
74
0
0
ENDTAB
0
TABLE
2
LAYER
5
24e
100
AcDbSymbolTable
0
LAYER
5
10
100
AcDbSymbolTableRecord
100
AcDbLayerTableRecord
2
0
70
0
62
7
6
Continuous
290
1
370
-3
390
0
0
LAYER
5
71
100
AcDbSymbolTableRecord
100
AcDbLayerTableRecord
2
80
70
0
62
-6
6
Continuous
290
1
370
-3
390
0
0
LAYER
5
73
100
AcDbSymbolTableRecord
100
AcDbLayerTableRecord
2
81
70
0
62
-3
6
Continuous
290
1
370
-3
390
0
0
LAYER
5
75
100
AcDbSymbolTableRecord
100
AcDbLayerTableRecord
2
1
70
0
62
4
6
Continuous
290
1
370
-3
390
0
0
LAYER
5
A5
100
AcDbSymbolTableRecord
100
AcDbLayerTableRecord
2
4
70
0
62
-2
6
CENTER
290
1
370
-3
390
0
0
LAYER
5
110
100
AcDbSymbolTableRecord
100
AcDbLayerTableRecord
2
Defpoints
70
0
62
7
6
Continuous
290
0
370
-3
390
0
0
LAYER
5
13D
100
AcDbSymbolTableRecord
100
AcDbLayerTableRecord
2
2
70
0
62
7
6
Continuous
290
1
370
-3
390
0
0
LAYER
5
238
100
AcDbSymbolTableRecord
100
AcDbLayerTableRecord
2
SK1
70
0
62
4
6
Continuous
290
1
370
-3
390
0
0
LAYER
5
239
100
AcDbSymbolTableRecord
100
AcDbLayerTableRecord
2
SK4
70
0
62
2
6
CENTER
290
1
370
-3
390
0
0
LAYER
5
23a
100
AcDbSymbolTableRecord
100
AcDbLayerTableRecord
2
SK2
70
0
62
7
6
Continuous
290
1
370
-3
390
0
0
LAYER
5
23b
100
AcDbSymbolTableRecord
100
AcDbLayerTableRecord
2
SK6
70
0
62
5
6
Continuous
290
1
370
-3
390
0
0
ENDTAB
0
TABLE
2
STYLE
5
24f
100
AcDbSymbolTable
0
STYLE
5
11
100
AcDbSymbolTableRecord
100
AcDbTextStyleTableRecord
2
Standard
3
txt
70
0
71
0
40
0
41
1
42
0
50
0
0
STYLE
5
101
100
AcDbSymbolTableRecord
100
AcDbTextStyleTableRecord
2
iso_b_vert
3
simplex.shx
70
0
71
0
40
0
41
1
42
0
50
0
0
STYLE
5
102
100
AcDbSymbolTableRecord
100
AcDbTextStyleTableRecord
2
DWGDirectTextStyle
3
simplex
70
0
71
0
40
0
41
1
42
0
50
0
0
ENDTAB
0
TABLE
2
DIMSTYLE
5
250
100
AcDbSymbolTable
100
AcDbDimStyleTable
0
DIMSTYLE
105
27
100
AcDbSymbolTableRecord
100
AcDbDimStyleTableRecord
2
Standard
70
0
3
<>
41
0.18
42
0.0625
44
0.18
140
0.18
147
0.09
73
0
74
0
77
1
271
2
275
0
278
52
280
0
340
11
0
ENDTAB
0
TABLE
2
VIEW
5
251
100
AcDbSymbolTable
0
ENDTAB
0
TABLE
2
UCS
5
252
100
AcDbSymbolTable
0
ENDTAB
0
TABLE
2
APPID
5
253
100
AcDbSymbolTable
0
APPID
5
12
100
AcDbSymbolTableRecord
100
AcDbRegAppTableRecord
2
ACAD
70
0
0
APPID
5
105
100
AcDbSymbolTableRecord
100
AcDbRegAppTableRecord
2
ACAD_DSTYLE_DIMBREAK
70
0
0
APPID
5
1F7
100
AcDbSymbolTableRecord
100
AcDbRegAppTableRecord
2
ACAD_DSTYLE_DIM_LINETYPE
70
0
0
APPID
5
1F8
100
AcDbSymbolTableRecord
100
AcDbRegAppTableRecord
2
ACAD_DSTYLE_DIM_EXT1_LINETYPE
70
0
0
APPID
5
1F9
100
AcDbSymbolTableRecord
100
AcDbRegAppTableRecord
2
ACAD_DSTYLE_DIM_EXT2_LINETYPE
70
0
0
APPID
5
234
100
AcDbSymbolTableRecord
100
AcDbRegAppTableRecord
2
ACAD_MLEADERVER
70
0
0
ENDTAB
0
TABLE
2
BLOCK_RECORD
5
254
100
AcDbSymbolTable
0
BLOCK_RECORD
5
1F
100
AcDbSymbolTableRecord
100
AcDbBlockTableRecord
2
*Model_Space
340
0
70
0
0
BLOCK_RECORD
5
1B
100
AcDbSymbolTableRecord
100
AcDbBlockTableRecord
2
*Paper_Space
340
0
70
0
0
BLOCK_RECORD
5
23
100
AcDbSymbolTableRecord
100
AcDbBlockTableRecord
2
*Paper_Space0
340
0
70
0
0
BLOCK_RECORD
5
107
100
AcDbSymbolTableRecord
100
AcDbBlockTableRecord
2
_Closed
340
0
70
0
0
BLOCK_RECORD
5
111
100
AcDbSymbolTableRecord
100
AcDbBlockTableRecord
2
*D2
340
0
70
0
0
BLOCK_RECORD
5
11D
100
AcDbSymbolTableRecord
100
AcDbBlockTableRecord
2
_U0
340
0
70
0
0
BLOCK_RECORD
5
12F
100
AcDbSymbolTableRecord
100
AcDbBlockTableRecord
2
*D4
340
0
70
0
0
BLOCK_RECORD
5
13E
100
AcDbSymbolTableRecord
100
AcDbBlockTableRecord
2
_U1
340
0
70
0
0
BLOCK_RECORD
5
14E
100
AcDbSymbolTableRecord
100
AcDbBlockTableRecord
2
*D6
340
0
70
0
0
BLOCK_RECORD
5
15C
100
AcDbSymbolTableRecord
100
AcDbBlockTableRecord
2
_U2
340
0
70
0
0
BLOCK_RECORD
5
16C
100
AcDbSymbolTableRecord
100
AcDbBlockTableRecord
2
*D8
340
0
70
0
0
BLOCK_RECORD
5
178
100
AcDbSymbolTableRecord
100
AcDbBlockTableRecord
2
_U3
340
0
70
0
0
BLOCK_RECORD
5
188
100
AcDbSymbolTableRecord
100
AcDbBlockTableRecord
2
*D10
340
0
70
0
0
BLOCK_RECORD
5
194
100
AcDbSymbolTableRecord
100
AcDbBlockTableRecord
2
_U4
340
0
70
0
0
BLOCK_RECORD
5
1A4
100
AcDbSymbolTableRecord
100
AcDbBlockTableRecord
2
*D12
340
0
70
0
0
BLOCK_RECORD
5
1B0
100
AcDbSymbolTableRecord
100
AcDbBlockTableRecord
2
_U5
340
0
70
0
0
BLOCK_RECORD
5
1C0
100
AcDbSymbolTableRecord
100
AcDbBlockTableRecord
2
*D14
340
0
70
0
0
BLOCK_RECORD
5
1CC
100
AcDbSymbolTableRecord
100
AcDbBlockTableRecord
2
_U6
340
0
70
0
0
ENDTAB
0
ENDSEC
0
SECTION
2
BLOCKS
0
BLOCK
5
20
100
AcDbEntity
8
0
100
AcDbBlockBegin
2
*Model_Space
70
0
10
0
20
0
30
0
3
*Model_Space
0
ENDBLK
5
21
100
AcDbEntity
8
0
100
AcDbBlockEnd
0
BLOCK
5
1C
100
AcDbEntity
8
0
100
AcDbBlockBegin
2
*Paper_Space
70
0
10
0
20
0
30
0
3
*Paper_Space
0
ENDBLK
5
1D
100
AcDbEntity
8
0
100
AcDbBlockEnd
0
BLOCK
5
24
100
AcDbEntity
8
0
100
AcDbBlockBegin
2
*Paper_Space0
70
0
10
0
20
0
30
0
3
*Paper_Space0
0
ENDBLK
5
25
100
AcDbEntity
8
0
100
AcDbBlockEnd
0
BLOCK
5
108
100
AcDbEntity
8
0
100
AcDbBlockBegin
2
_Closed
70
0
10
0
20
0
30
0
3
_Closed
0
LINE
5
10A
100
AcDbEntity
8
0
62
256
6
ByLayer
370
-2
48
1
60
0
100
AcDbLine
10
-1
20
0.166667
30
0
11
0
21
0
31
0
39
0
210
0
220
0
230
1
0
LINE
5
10B
100
AcDbEntity
8
0
62
256
6
ByLayer
370
-2
48
1
60
0
100
AcDbLine
10
0
20
0
30
0
11
-1
21
-0.166667
31
0
39
0
210
0
220
0
230
1
0
LINE
5
10C
100
AcDbEntity
8
0
62
256
6
ByLayer
370
-2
48
1
60
0
100
AcDbLine
10
-1
20
0.166667
30
0
11
-1
21
-0.166667
31
0
39
0
210
0
220
0
230
1
0
LINE
5
10D
100
AcDbEntity
8
0
62
256
6
ByLayer
370
-2
48
1
60
0
100
AcDbLine
10
0
20
0
30
0
11
-1
21
0
31
0
39
0
210
0
220
0
230
1
0
ENDBLK
5
109
100
AcDbEntity
8
0
100
AcDbBlockEnd
0
BLOCK
5
112
100
AcDbEntity
8
0
100
AcDbBlockBegin
2
*D2
70
1
10
0
20
0
30
0
3
*D2
0
LINE
5
114
100
AcDbEntity
8
0
62
256
6
ByLayer
370
-2
48
1
60
0
100
AcDbLine
10
0
20
-5.5875
30
0
11
0
21
-30.67512
31
0
39
0
210
0
220
0
230
1
0
LINE
5
115
100
AcDbEntity
8
0
62
256
6
ByLayer
370
-2
48
1
60
0
100
AcDbLine
10
43
20
-1.5875
30
0
11
43
21
-30.67512
31
0
39
0
210
0
220
0
230
1
0
LINE
5
116
100
AcDbEntity
8
0
62
256
6
ByLayer
370
-2
48
1
60
0
100
AcDbLine
10
3.175
20
-27.50012
30
0
11
39.825
21
-27.50012
31
0
39
0
210
0
220
0
230
1
0
SOLID
5
117
100
AcDbEntity
8
0
62
256
6
ByLayer
370
-1
48
1
60
0
100
AcDbTrace
10
3.175
20
-26.970953
30
0
11
3.175
21
-28.029287
31
0
12
0
22
-27.50012
32
0
13
0
23
-27.50012
33
0
39
0
210
0
220
0
230
1
0
SOLID
5
118
100
AcDbEntity
8
0
62
256
6
ByLayer
370
-1
48
1
60
0
100
AcDbTrace
10
39.825
20
-28.029287
30
0
11
39.825
21
-26.970953
31
0
12
43
22
-27.50012
32
0
13
43
23
-27.50012
33
0
39
0
210
0
220
0
230
1
0
MTEXT
5
119
100
AcDbEntity
8
0
62
256
6
ByLayer
370
18
48
1
60
0
100
AcDbMText
10
21.5
20
-20.193619
30
0
210
0
220
0
230
1
1
\A1;43
40
3.50012
41
0
44
1
50
0
71
5
72
5
7
iso_b_vert
0
POINT
5
11A
100
AcDbEntity
8
Defpoints
62
0
6
ByLayer
370
-1
48
1
60
0
100
AcDbPoint
10
0
20
-4
30
0
39
0
210
0
220
0
230
1
50
360
0
POINT
5
11B
100
AcDbEntity
8
Defpoints
62
0
6
ByLayer
370
-1
48
1
60
0
100
AcDbPoint
10
43
20
0
30
0
39
0
210
0
220
0
230
1
50
360
0
POINT
5
11C
100
AcDbEntity
8
Defpoints
62
0
6
ByLayer
370
-1
48
1
60
0
100
AcDbPoint
10
43
20
-27.50012
30
0
39
0
210
0
220
0
230
1
50
360
0
ENDBLK
5
113
100
AcDbEntity
8
0
100
AcDbBlockEnd
0
BLOCK
5
12A
100
AcDbEntity
8
0
100
AcDbBlockBegin
2
_U0
70
0
10
0
20
0
30
0
3
_U0
0
MTEXT
5
11E
100
AcDbEntity
8
SK2
62
256
6
ByLayer
370
18
48
1
60
0
100
AcDbMText
10
16.086116
20
-26.467451
30
0
210
0
220
0
230
1
1
\W0.7694;43.00
40
3.50012
41
0
44
1.084337
50
0
71
7
72
5
7
iso_b_vert
0
MTEXT
5
11F
100
AcDbEntity
8
SK2
62
256
6
ByLayer
370
18
48
1
60
0
100
AcDbMText
10
12.560056
20
-26.400814
30
0
210
0
220
0
230
1
1
\W0.1790;(
40
3.175
41
0
44
1.084337
50
0
71
7
72
5
7
iso_b_vert
0
MTEXT
5
120
100
AcDbEntity
8
SK2
62
256
6
ByLayer
370
18
48
1
60
0
100
AcDbMText
10
30.442666
20
-26.400814
30
0
210
0
220
0
230
1
1
\W0.1969;)
40
3.175
41
0
44
1.084337
50
0
71
7
72
5
7
iso_b_vert
0
LINE
5
121
100
AcDbEntity
8
SK2
62
256
6
ByLayer
370
13
48
1
60
0
100
AcDbLine
10
0
20
-5.5875
30
0
11
0
21
-30.67512
31
0
39
0
210
0
220
0
230
1
0
LINE
5
122
100
AcDbEntity
8
SK2
62
256
6
ByLayer
370
13
48
1
60
0
100
AcDbLine
10
43
20
-1.5875
30
0
11
43
21
-30.67512
31
0
39
0
210
0
220
0
230
1
0
LINE
5
123
100
AcDbEntity
8
SK2
62
256
6
ByLayer
370
13
48
1
60
0
100
AcDbLine
10
0
20
-27.50012
30
0
11
43
21
-27.50012
31
0
39
0
210
0
220
0
230
1
0
LINE
5
124
100
AcDbEntity
8
SK2
62
256
6
ByLayer
370
13
48
1
60
0
100
AcDbLine
10
0
20
-27.50012
30
0
11
3.174998
21
-27.082123
31
0
39
0
210
0
220
0
230
1
0
LINE
5
125
100
AcDbEntity
8
SK2
62
256
6
ByLayer
370
13
48
1
60
0
100
AcDbLine
10
0
20
-27.50012
30
0
11
3.175002
21
-27.918117
31
0
39
0
210
0
220
0
230
1
0
LINE
5
126
100
AcDbEntity
8
SK2
62
256
6
ByLayer
370
13
48
1
60
0
100
AcDbLine
10
3.174998
20
-27.082123
30
0
11
3.175002
21
-27.918117
31
0
39
0
210
0
220
0
230
1
0
LINE
5
127
100
AcDbEntity
8
SK2
62
256
6
ByLayer
370
13
48
1
60
0
100
AcDbLine
10
43
20
-27.50012
30
0
11
39.825002
21
-27.918117
31
0
39
0
210
0
220
0
230
1
0
LINE
5
128
100
AcDbEntity
8
SK2
62
256
6
ByLayer
370
13
48
1
60
0
100
AcDbLine
10
43
20
-27.50012
30
0
11
39.824998
21
-27.082123
31
0
39
0
210
0
220
0
230
1
0
LINE
5
129
100
AcDbEntity
8
SK2
62
256
6
ByLayer
370
13
48
1
60
0
100
AcDbLine
10
39.825002
20
-27.918117
30
0
11
39.824998
21
-27.082123
31
0
39
0
210
0
220
0
230
1
0
ENDBLK
5
12B
100
AcDbEntity
8
0
100
AcDbBlockEnd
0
BLOCK
5
130
100
AcDbEntity
8
0
100
AcDbBlockBegin
2
*D4
70
1
10
0
20
0
30
0
3
*D4
0
LINE
5
132
100
AcDbEntity
8
0
62
256
6
ByLayer
370
-2
48
1
60
0
100
AcDbLine
10
43.1425
20
-3.97
30
0
11
52.92506
21
-3.97
31
0
39
0
210
0
220
0
230
1
0
LINE
5
133
100
AcDbEntity
8
0
62
256
6
ByLayer
370
-2
48
1
60
0
100
AcDbLine
10
43.1425
20
3.97
30
0
11
52.92506
21
3.97
31
0
39
0
210
0
220
0
230
1
0
LINE
5
134
100
AcDbEntity
8
0
62
256
6
ByLayer
370
-2
48
1
60
0
100
AcDbLine
10
49.75006
20
3.97
30
0
11
49.75006
21
28.599793
31
0
39
0
210
0
220
0
230
1
0
LINE
5
135
100
AcDbEntity
8
0
62
256
6
ByLayer
370
-2
48
1
60
0
100
AcDbLine
10
49.75006
20
-7.145
30
0
11
49.75006
21
-10.32
31
0
39
0
210
0
220
0
230
1
0
LINE
5
136
100
AcDbEntity
8
0
62
256
6
ByLayer
370
-2
48
1
60
0
100
AcDbLine
10
49.75006
20
7.145
30
0
11
49.75006
21
10.32
31
0
39
0
210
0
220
0
230
1
0
SOLID
5
137
100
AcDbEntity
8
0
62
256
6
ByLayer
370
-1
48
1
60
0
100
AcDbTrace
10
50.279227
20
-7.145
30
0
11
49.220893
21
-7.145
31
0
12
49.75006
22
-3.97
32
0
13
49.75006
23
-3.97
33
0
39
0
210
0
220
0
230
1
0
SOLID
5
138
100
AcDbEntity
8
0
62
256
6
ByLayer
370
-1
48
1
60
0
100
AcDbTrace
10
49.220893
20
7.145
30
0
11
50.279227
21
7.145
31
0
12
49.75006
22
3.97
32
0
13
49.75006
23
3.97
33
0
39
0
210
0
220
0
230
1
0
MTEXT
5
139
100
AcDbEntity
8
0
62
256
6
ByLayer
370
18
48
1
60
0
100
AcDbMText
10
42.443559
20
19.459897
30
0
210
0
220
0
230
1
1
\A1;7.9
40
3.50012
41
0
44
1
50
90
71
5
72
5
7
iso_b_vert
0
POINT
5
13A
100
AcDbEntity
8
Defpoints
62
0
6
ByLayer
370
-1
48
1
60
0
100
AcDbPoint
10
41.555
20
-3.97
30
0
39
0
210
0
220
0
230
1
50
360
0
POINT
5
13B
100
AcDbEntity
8
Defpoints
62
0
6
ByLayer
370
-1
48
1
60
0
100
AcDbPoint
10
41.555
20
3.97
30
0
39
0
210
0
220
0
230
1
50
360
0
POINT
5
13C
100
AcDbEntity
8
Defpoints
62
0
6
ByLayer
370
-1
48
1
60
0
100
AcDbPoint
10
49.75006
20
3.97
30
0
39
0
210
0
220
0
230
1
50
360
0
ENDBLK
5
131
100
AcDbEntity
8
0
100
AcDbBlockEnd
0
BLOCK
5
149
100
AcDbEntity
8
0
100
AcDbBlockBegin
2
_U1
70
0
10
0
20
0
30
0
3
_U1
0
MTEXT
5
13F
100
AcDbEntity
8
2
62
256
6
ByLayer
370
18
48
1
60
0
100
AcDbMText
10
49.060403
20
8.127505
30
0
210
0
220
0
230
1
1
\W0.7528;7.94
40
3.50012
41
0
44
1.084337
50
90
71
7
72
5
7
iso_b_vert
0
LINE
5
140
100
AcDbEntity
8
2
62
256
6
ByLayer
370
13
48
1
60
0
100
AcDbLine
10
43.1425
20
-3.97
30
0
11
52.92506
21
-3.97
31
0
39
0
210
0
220
0
230
1
0
LINE
5
141
100
AcDbEntity
8
2
62
256
6
ByLayer
370
13
48
1
60
0
100
AcDbLine
10
43.1425
20
3.97
30
0
11
52.92506
21
3.97
31
0
39
0
210
0
220
0
230
1
0
LINE
5
142
100
AcDbEntity
8
2
62
256
6
ByLayer
370
13
48
1
60
0
100
AcDbLine
10
49.75006
20
-3.97
30
0
11
49.75006
21
16.553226
31
0
39
0
210
0
220
0
230
1
0
LINE
5
143
100
AcDbEntity
8
2
62
256
6
ByLayer
370
13
48
1
60
0
100
AcDbLine
10
49.75006
20
-3.97
30
0
11
49.332063
21
-0.795002
31
0
39
0
210
0
220
0
230
1
0
LINE
5
144
100
AcDbEntity
8
2
62
256
6
ByLayer
370
13
48
1
60
0
100
AcDbLine
10
49.75006
20
-3.97
30
0
11
50.168057
21
-0.794998
31
0
39
0
210
0
220
0
230
1
0
LINE
5
145
100
AcDbEntity
8
2
62
256
6
ByLayer
370
13
48
1
60
0
100
AcDbLine
10
49.332063
20
-0.795002
30
0
11
50.168057
21
-0.794998
31
0
39
0
210
0
220
0
230
1
0
LINE
5
146
100
AcDbEntity
8
2
62
256
6
ByLayer
370
13
48
1
60
0
100
AcDbLine
10
49.75006
20
3.97
30
0
11
50.168057
21
0.795002
31
0
39
0
210
0
220
0
230
1
0
LINE
5
147
100
AcDbEntity
8
2
62
256
6
ByLayer
370
13
48
1
60
0
100
AcDbLine
10
49.75006
20
3.97
30
0
11
49.332063
21
0.794998
31
0
39
0
210
0
220
0
230
1
0
LINE
5
148
100
AcDbEntity
8
2
62
256
6
ByLayer
370
13
48
1
60
0
100
AcDbLine
10
50.168057
20
0.795002
30
0
11
49.332063
21
0.794998
31
0
39
0
210
0
220
0
230
1
0
ENDBLK
5
14A
100
AcDbEntity
8
0
100
AcDbBlockEnd
0
BLOCK
5
14F
100
AcDbEntity
8
0
100
AcDbBlockBegin
2
*D6
70
1
10
0
20
0
30
0
3
*D6
0
LINE
5
151
100
AcDbEntity
8
0
62
256
6
ByLayer
370
-2
48
1
60
0
100
AcDbLine
10
-37.5875
20
4
30
0
11
-42.42494
21
4
31
0
39
0
210
0
220
0
230
1
0
LINE
5
152
100
AcDbEntity
8
0
62
256
6
ByLayer
370
-2
48
1
60
0
100
AcDbLine
10
-37.5875
20
-4
30
0
11
-42.42494
21
-4
31
0
39
0
210
0
220
0
230
1
0
LINE
5
153
100
AcDbEntity
8
0
62
256
6
ByLayer
370
-2
48
1
60
0
100
AcDbLine
10
-39.24994
20
4
30
0
11
-39.24994
21
24.830487
31
0
39
0
210
0
220
0
230
1
0
LINE
5
154
100
AcDbEntity
8
0
62
256
6
ByLayer
370
-2
48
1
60
0
100
AcDbLine
10
-39.24994
20
7.175
30
0
11
-39.24994
21
10.35
31
0
39
0
210
0
220
0
230
1
0
LINE
5
155
100
AcDbEntity
8
0
62
256
6
ByLayer
370
-2
48
1
60
0
100
AcDbLine
10
-39.24994
20
-7.175
30
0
11
-39.24994
21
-10.35
31
0
39
0
210
0
220
0
230
1
0
SOLID
5
156
100
AcDbEntity
8
0
62
256
6
ByLayer
370
-1
48
1
60
0
100
AcDbTrace
10
-39.779107
20
7.175
30
0
11
-38.720773
21
7.175
31
0
12
-39.24994
22
4
32
0
13
-39.24994
23
4
33
0
39
0
210
0
220
0
230
1
0
SOLID
5
157
100
AcDbEntity
8
0
62
256
6
ByLayer
370
-1
48
1
60
0
100
AcDbTrace
10
-38.720773
20
-7.175
30
0
11
-39.779107
21
-7.175
31
0
12
-39.24994
22
-4
32
0
13
-39.24994
23
-4
33
0
39
0
210
0
220
0
230
1
0
MTEXT
5
158
100
AcDbEntity
8
0
62
256
6
ByLayer
370
18
48
1
60
0
100
AcDbMText
10
-46.556441
20
18.10734
30
0
210
0
220
0
230
1
1
\A1;8
40
3.50012
41
0
44
1
50
90
71
5
72
5
7
iso_b_vert
0
POINT
5
159
100
AcDbEntity
8
Defpoints
62
0
6
ByLayer
370
-1
48
1
60
0
100
AcDbPoint
10
-36
20
4
30
0
39
0
210
0
220
0
230
1
50
360
0
POINT
5
15A
100
AcDbEntity
8
Defpoints
62
0
6
ByLayer
370
-1
48
1
60
0
100
AcDbPoint
10
-36
20
-4
30
0
39
0
210
0
220
0
230
1
50
360
0
POINT
5
15B
100
AcDbEntity
8
Defpoints
62
0
6
ByLayer
370
-1
48
1
60
0
100
AcDbPoint
10
-39.24994
20
-4
30
0
39
0
210
0
220
0
230
1
50
360
0
ENDBLK
5
150
100
AcDbEntity
8
0
100
AcDbBlockEnd
0
BLOCK
5
167
100
AcDbEntity
8
0
100
AcDbBlockBegin
2
_U2
70
0
10
0
20
0
30
0
3
_U2
0
MTEXT
5
15D
100
AcDbEntity
8
SK2
62
256
6
ByLayer
370
18
48
1
60
0
100
AcDbMText
10
-39.939597
20
14.157505
30
0
210
0
220
0
230
1
1
\W0.7346;8.00
40
3.50012
41
0
44
1.084337
50
90
71
7
72
5
7
iso_b_vert
0
LINE
5
15E
100
AcDbEntity
8
SK2
62
256
6
ByLayer
370
13
48
1
60
0
100
AcDbLine
10
-37.5875
20
4
30
0
11
-42.42494
21
4
31
0
39
0
210
0
220
0
230
1
0
LINE
5
15F
100
AcDbEntity
8
SK2
62
256
6
ByLayer
370
13
48
1
60
0
100
AcDbLine
10
-37.5875
20
-4
30
0
11
-42.42494
21
-4
31
0
39
0
210
0
220
0
230
1
0
LINE
5
160
100
AcDbEntity
8
SK2
62
256
6
ByLayer
370
13
48
1
60
0
100
AcDbLine
10
-39.24994
20
-4
30
0
11
-39.24994
21
22.21468
31
0
39
0
210
0
220
0
230
1
0
LINE
5
161
100
AcDbEntity
8
SK2
62
256
6
ByLayer
370
13
48
1
60
0
100
AcDbLine
10
-39.24994
20
4
30
0
11
-38.831943
21
0.825002
31
0
39
0
210
0
220
0
230
1
0
LINE
5
162
100
AcDbEntity
8
SK2
62
256
6
ByLayer
370
13
48
1
60
0
100
AcDbLine
10
-39.24994
20
4
30
0
11
-39.667937
21
0.824998
31
0
39
0
210
0
220
0
230
1
0
LINE
5
163
100
AcDbEntity
8
SK2
62
256
6
ByLayer
370
13
48
1
60
0
100
AcDbLine
10
-38.831943
20
0.825002
30
0
11
-39.667937
21
0.824998
31
0
39
0
210
0
220
0
230
1
0
LINE
5
164
100
AcDbEntity
8
SK2
62
256
6
ByLayer
370
13
48
1
60
0
100
AcDbLine
10
-39.24994
20
-4
30
0
11
-39.667937
21
-0.825002
31
0
39
0
210
0
220
0
230
1
0
LINE
5
165
100
AcDbEntity
8
SK2
62
256
6
ByLayer
370
13
48
1
60
0
100
AcDbLine
10
-39.24994
20
-4
30
0
11
-38.831943
21
-0.824998
31
0
39
0
210
0
220
0
230
1
0
LINE
5
166
100
AcDbEntity
8
SK2
62
256
6
ByLayer
370
13
48
1
60
0
100
AcDbLine
10
-39.667937
20
-0.825002
30
0
11
-38.831943
21
-0.824998
31
0
39
0
210
0
220
0
230
1
0
ENDBLK
5
168
100
AcDbEntity
8
0
100
AcDbBlockEnd
0
BLOCK
5
16D
100
AcDbEntity
8
0
100
AcDbBlockBegin
2
*D8
70
1
10
0
20
0
30
0
3
*D8
0
LINE
5
16F
100
AcDbEntity
8
0
62
256
6
ByLayer
370
-2
48
1
60
0
100
AcDbLine
10
-36
20
-5.5875
30
0
11
-36
21
-30.67512
31
0
39
0
210
0
220
0
230
1
0
LINE
5
170
100
AcDbEntity
8
0
62
256
6
ByLayer
370
-2
48
1
60
0
100
AcDbLine
10
0
20
-5.5875
30
0
11
0
21
-30.67512
31
0
39
0
210
0
220
0
230
1
0
LINE
5
171
100
AcDbEntity
8
0
62
256
6
ByLayer
370
-2
48
1
60
0
100
AcDbLine
10
-32.825
20
-27.50012
30
0
11
-3.175
21
-27.50012
31
0
39
0
210
0
220
0
230
1
0
SOLID
5
172
100
AcDbEntity
8
0
62
256
6
ByLayer
370
-1
48
1
60
0
100
AcDbTrace
10
-32.825
20
-26.970953
30
0
11
-32.825
21
-28.029287
31
0
12
-36
22
-27.50012
32
0
13
-36
23
-27.50012
33
0
39
0
210
0
220
0
230
1
0
SOLID
5
173
100
AcDbEntity
8
0
62
256
6
ByLayer
370
-1
48
1
60
0
100
AcDbTrace
10
-3.175
20
-28.029287
30
0
11
-3.175
21
-26.970953
31
0
12
0
22
-27.50012
32
0
13
0
23
-27.50012
33
0
39
0
210
0
220
0
230
1
0
MTEXT
5
174
100
AcDbEntity
8
0
62
256
6
ByLayer
370
18
48
1
60
0
100
AcDbMText
10
-18
20
-20.193619
30
0
210
0
220
0
230
1
1
\A1;36
40
3.50012
41
0
44
1
50
0
71
5
72
5
7
iso_b_vert
0
POINT
5
175
100
AcDbEntity
8
Defpoints
62
0
6
ByLayer
370
-1
48
1
60
0
100
AcDbPoint
10
-36
20
-4
30
0
39
0
210
0
220
0
230
1
50
360
0
POINT
5
176
100
AcDbEntity
8
Defpoints
62
0
6
ByLayer
370
-1
48
1
60
0
100
AcDbPoint
10
0
20
-4
30
0
39
0
210
0
220
0
230
1
50
360
0
POINT
5
177
100
AcDbEntity
8
Defpoints
62
0
6
ByLayer
370
-1
48
1
60
0
100
AcDbPoint
10
0
20
-27.50012
30
0
39
0
210
0
220
0
230
1
50
360
0
ENDBLK
5
16E
100
AcDbEntity
8
0
100
AcDbBlockEnd
0
BLOCK
5
183
100
AcDbEntity
8
0
100
AcDbBlockBegin
2
_U3
70
0
10
0
20
0
30
0
3
_U3
0
MTEXT
5
179
100
AcDbEntity
8
SK2
62
256
6
ByLayer
370
18
48
1
60
0
100
AcDbMText
10
-23.229611
20
-26.467451
30
0
210
0
220
0
230
1
1
\W0.7468;36.00
40
3.50012
41
0
44
1.084337
50
0
71
7
72
5
7
iso_b_vert
0
LINE
5
17A
100
AcDbEntity
8
SK2
62
256
6
ByLayer
370
13
48
1
60
0
100
AcDbLine
10
-36
20
-5.5875
30
0
11
-36
21
-30.67512
31
0
39
0
210
0
220
0
230
1
0
LINE
5
17B
100
AcDbEntity
8
SK2
62
256
6
ByLayer
370
13
48
1
60
0
100
AcDbLine
10
0
20
-5.5875
30
0
11
0
21
-30.67512
31
0
39
0
210
0
220
0
230
1
0
LINE
5
17C
100
AcDbEntity
8
SK2
62
256
6
ByLayer
370
13
48
1
60
0
100
AcDbLine
10
-36
20
-27.50012
30
0
11
0
21
-27.50012
31
0
39
0
210
0
220
0
230
1
0
LINE
5
17D
100
AcDbEntity
8
SK2
62
256
6
ByLayer
370
13
48
1
60
0
100
AcDbLine
10
-36
20
-27.50012
30
0
11
-32.825002
21
-27.082123
31
0
39
0
210
0
220
0
230
1
0
LINE
5
17E
100
AcDbEntity
8
SK2
62
256
6
ByLayer
370
13
48
1
60
0
100
AcDbLine
10
-36
20
-27.50012
30
0
11
-32.824998
21
-27.918117
31
0
39
0
210
0
220
0
230
1
0
LINE
5
17F
100
AcDbEntity
8
SK2
62
256
6
ByLayer
370
13
48
1
60
0
100
AcDbLine
10
-32.825002
20
-27.082123
30
0
11
-32.824998
21
-27.918117
31
0
39
0
210
0
220
0
230
1
0
LINE
5
180
100
AcDbEntity
8
SK2
62
256
6
ByLayer
370
13
48
1
60
0
100
AcDbLine
10
0
20
-27.50012
30
0
11
-3.174998
21
-27.918117
31
0
39
0
210
0
220
0
230
1
0
LINE
5
181
100
AcDbEntity
8
SK2
62
256
6
ByLayer
370
13
48
1
60
0
100
AcDbLine
10
0
20
-27.50012
30
0
11
-3.175002
21
-27.082123
31
0
39
0
210
0
220
0
230
1
0
LINE
5
182
100
AcDbEntity
8
SK2
62
256
6
ByLayer
370
13
48
1
60
0
100
AcDbLine
10
-3.174998
20
-27.918117
30
0
11
-3.175002
21
-27.082123
31
0
39
0
210
0
220
0
230
1
0
ENDBLK
5
184
100
AcDbEntity
8
0
100
AcDbBlockEnd
0
BLOCK
5
189
100
AcDbEntity
8
0
100
AcDbBlockBegin
2
*D10
70
1
10
0
20
0
30
0
3
*D10
0
LINE
5
18B
100
AcDbEntity
8
0
62
256
6
ByLayer
370
-2
48
1
60
0
100
AcDbLine
10
2
20
2.8825
30
0
11
2
21
-21.92482
31
0
39
0
210
0
220
0
230
1
0
LINE
5
18C
100
AcDbEntity
8
0
62
256
6
ByLayer
370
-2
48
1
60
0
100
AcDbLine
10
43
20
-1.5875
30
0
11
43
21
-21.92482
31
0
39
0
210
0
220
0
230
1
0
LINE
5
18D
100
AcDbEntity
8
0
62
256
6
ByLayer
370
-2
48
1
60
0
100
AcDbLine
10
5.175
20
-18.74982
30
0
11
39.825
21
-18.74982
31
0
39
0
210
0
220
0
230
1
0
SOLID
5
18E
100
AcDbEntity
8
0
62
256
6
ByLayer
370
-1
48
1
60
0
100
AcDbTrace
10
5.175
20
-18.220653
30
0
11
5.175
21
-19.278987
31
0
12
2
22
-18.74982
32
0
13
2
23
-18.74982
33
0
39
0
210
0
220
0
230
1
0
SOLID
5
18F
100
AcDbEntity
8
0
62
256
6
ByLayer
370
-1
48
1
60
0
100
AcDbTrace
10
39.825
20
-19.278987
30
0
11
39.825
21
-18.220653
31
0
12
43
22
-18.74982
32
0
13
43
23
-18.74982
33
0
39
0
210
0
220
0
230
1
0
MTEXT
5
190
100
AcDbEntity
8
0
62
256
6
ByLayer
370
18
48
1
60
0
100
AcDbMText
10
22.5
20
-11.443319
30
0
210
0
220
0
230
1
1
\A1;41
40
3.50012
41
0
44
1
50
0
71
5
72
5
7
iso_b_vert
0
POINT
5
191
100
AcDbEntity
8
Defpoints
62
0
6
ByLayer
370
-1
48
1
60
0
100
AcDbPoint
10
2
20
4.47
30
0
39
0
210
0
220
0
230
1
50
360
0
POINT
5
192
100
AcDbEntity
8
Defpoints
62
0
6
ByLayer
370
-1
48
1
60
0
100
AcDbPoint
10
43
20
0
30
0
39
0
210
0
220
0
230
1
50
360
0
POINT
5
193
100
AcDbEntity
8
Defpoints
62
0
6
ByLayer
370
-1
48
1
60
0
100
AcDbPoint
10
43
20
-18.74982
30
0
39
0
210
0
220
0
230
1
50
360
0
ENDBLK
5
18A
100
AcDbEntity
8
0
100
AcDbBlockEnd
0
BLOCK
5
19F
100
AcDbEntity
8
0
100
AcDbBlockBegin
2
_U4
70
0
10
0
20
0
30
0
3
_U4
0
MTEXT
5
195
100
AcDbEntity
8
SK2
62
256
6
ByLayer
370
18
48
1
60
0
100
AcDbMText
10
17.523564
20
-17.717151
30
0
210
0
220
0
230
1
1
\W0.7091;41.00
40
3.50012
41
0
44
1.084337
50
0
71
7
72
5
7
iso_b_vert
0
LINE
5
196
100
AcDbEntity
8
SK2
62
256
6
ByLayer
370
13
48
1
60
0
100
AcDbLine
10
2
20
2.8825
30
0
11
2
21
-21.92482
31
0
39
0
210
0
220
0
230
1
0
LINE
5
197
100
AcDbEntity
8
SK2
62
256
6
ByLayer
370
13
48
1
60
0
100
AcDbLine
10
43
20
-1.5875
30
0
11
43
21
-21.92482
31
0
39
0
210
0
220
0
230
1
0
LINE
5
198
100
AcDbEntity
8
SK2
62
256
6
ByLayer
370
13
48
1
60
0
100
AcDbLine
10
2
20
-18.74982
30
0
11
43
21
-18.74982
31
0
39
0
210
0
220
0
230
1
0
LINE
5
199
100
AcDbEntity
8
SK2
62
256
6
ByLayer
370
13
48
1
60
0
100
AcDbLine
10
2
20
-18.74982
30
0
11
5.174998
21
-18.331823
31
0
39
0
210
0
220
0
230
1
0
LINE
5
19A
100
AcDbEntity
8
SK2
62
256
6
ByLayer
370
13
48
1
60
0
100
AcDbLine
10
2
20
-18.74982
30
0
11
5.175002
21
-19.167817
31
0
39
0
210
0
220
0
230
1
0
LINE
5
19B
100
AcDbEntity
8
SK2
62
256
6
ByLayer
370
13
48
1
60
0
100
AcDbLine
10
5.174998
20
-18.331823
30
0
11
5.175002
21
-19.167817
31
0
39
0
210
0
220
0
230
1
0
LINE
5
19C
100
AcDbEntity
8
SK2
62
256
6
ByLayer
370
13
48
1
60
0
100
AcDbLine
10
43
20
-18.74982
30
0
11
39.825002
21
-19.167817
31
0
39
0
210
0
220
0
230
1
0
LINE
5
19D
100
AcDbEntity
8
SK2
62
256
6
ByLayer
370
13
48
1
60
0
100
AcDbLine
10
43
20
-18.74982
30
0
11
39.824998
21
-18.331823
31
0
39
0
210
0
220
0
230
1
0
LINE
5
19E
100
AcDbEntity
8
SK2
62
256
6
ByLayer
370
13
48
1
60
0
100
AcDbLine
10
39.825002
20
-19.167817
30
0
11
39.824998
21
-18.331823
31
0
39
0
210
0
220
0
230
1
0
ENDBLK
5
1A0
100
AcDbEntity
8
0
100
AcDbBlockEnd
0
BLOCK
5
1A5
100
AcDbEntity
8
0
100
AcDbBlockBegin
2
*D12
70
1
10
0
20
0
30
0
3
*D12
0
LINE
5
1A7
100
AcDbEntity
8
0
62
256
6
ByLayer
370
-2
48
1
60
0
100
AcDbLine
10
17.8
20
-5.5575
30
0
11
17.8
21
-11.32
31
0
39
0
210
0
220
0
230
1
0
LINE
5
1A8
100
AcDbEntity
8
0
62
256
6
ByLayer
370
-2
48
1
60
0
100
AcDbLine
10
43
20
-1.5875
30
0
11
43
21
-11.32
31
0
39
0
210
0
220
0
230
1
0
LINE
5
1A9
100
AcDbEntity
8
0
62
256
6
ByLayer
370
-2
48
1
60
0
100
AcDbLine
10
20.975
20
-10.82
30
0
11
39.825
21
-10.82
31
0
39
0
210
0
220
0
230
1
0
SOLID
5
1AA
100
AcDbEntity
8
0
62
256
6
ByLayer
370
-1
48
1
60
0
100
AcDbTrace
10
20.975
20
-10.290833
30
0
11
20.975
21
-11.349167
31
0
12
17.8
22
-10.82
32
0
13
17.8
23
-10.82
33
0
39
0
210
0
220
0
230
1
0
SOLID
5
1AB
100
AcDbEntity
8
0
62
256
6
ByLayer
370
-1
48
1
60
0
100
AcDbTrace
10
39.825
20
-11.349167
30
0
11
39.825
21
-10.290833
31
0
12
43
22
-10.82
32
0
13
43
23
-10.82
33
0
39
0
210
0
220
0
230
1
0
MTEXT
5
1AC
100
AcDbEntity
8
0
62
256
6
ByLayer
370
18
48
1
60
0
100
AcDbMText
10
30.4
20
-4.975
30
0
210
0
220
0
230
1
1
\A1;25.2
40
2.8
41
0
44
1
50
0
71
5
72
5
7
iso_b_vert
0
POINT
5
1AD
100
AcDbEntity
8
Defpoints
62
0
6
ByLayer
370
-1
48
1
60
0
100
AcDbPoint
10
17.8
20
-3.97
30
0
39
0
210
0
220
0
230
1
50
360
0
POINT
5
1AE
100
AcDbEntity
8
Defpoints
62
0
6
ByLayer
370
-1
48
1
60
0
100
AcDbPoint
10
43
20
0
30
0
39
0
210
0
220
0
230
1
50
360
0
POINT
5
1AF
100
AcDbEntity
8
Defpoints
62
0
6
ByLayer
370
-1
48
1
60
0
100
AcDbPoint
10
43
20
-10.82
30
0
39
0
210
0
220
0
230
1
50
360
0
ENDBLK
5
1A6
100
AcDbEntity
8
0
100
AcDbBlockEnd
0
BLOCK
5
1BB
100
AcDbEntity
8
0
100
AcDbBlockBegin
2
_U5
70
0
10
0
20
0
30
0
3
_U5
0
MTEXT
5
1B1
100
AcDbEntity
8
SK2
62
256
6
ByLayer
370
18
48
1
60
0
100
AcDbMText
10
26.216454
20
-10.973893
30
0
210
0
220
0
230
1
1
\W0.7468;25.20
40
2.8
41
0
44
1.084337
50
0
71
7
72
5
7
iso_b_vert
0
LINE
5
1B2
100
AcDbEntity
8
SK2
62
256
6
ByLayer
370
13
48
1
60
0
100
AcDbLine
10
17.8
20
-5.5575
30
0
11
17.8
21
-11.32
31
0
39
0
210
0
220
0
230
1
0
LINE
5
1B3
100
AcDbEntity
8
SK2
62
256
6
ByLayer
370
13
48
1
60
0
100
AcDbLine
10
43
20
-1.5875
30
0
11
43
21
-11.32
31
0
39
0
210
0
220
0
230
1
0
LINE
5
1B4
100
AcDbEntity
8
SK2
62
256
6
ByLayer
370
13
48
1
60
0
100
AcDbLine
10
17.8
20
-10.82
30
0
11
43
21
-10.82
31
0
39
0
210
0
220
0
230
1
0
LINE
5
1B5
100
AcDbEntity
8
SK2
62
256
6
ByLayer
370
13
48
1
60
0
100
AcDbLine
10
17.8
20
-10.82
30
0
11
20.974998
21
-10.402003
31
0
39
0
210
0
220
0
230
1
0
LINE
5
1B6
100
AcDbEntity
8
SK2
62
256
6
ByLayer
370
13
48
1
60
0
100
AcDbLine
10
17.8
20
-10.82
30
0
11
20.975002
21
-11.237997
31
0
39
0
210
0
220
0
230
1
0
LINE
5
1B7
100
AcDbEntity
8
SK2
62
256
6
ByLayer
370
13
48
1
60
0
100
AcDbLine
10
20.974998
20
-10.402003
30
0
11
20.975002
21
-11.237997
31
0
39
0
210
0
220
0
230
1
0
LINE
5
1B8
100
AcDbEntity
8
SK2
62
256
6
ByLayer
370
13
48
1
60
0
100
AcDbLine
10
43
20
-10.82
30
0
11
39.825002
21
-11.237997
31
0
39
0
210
0
220
0
230
1
0
LINE
5
1B9
100
AcDbEntity
8
SK2
62
256
6
ByLayer
370
13
48
1
60
0
100
AcDbLine
10
43
20
-10.82
30
0
11
39.824998
21
-10.402003
31
0
39
0
210
0
220
0
230
1
0
LINE
5
1BA
100
AcDbEntity
8
SK2
62
256
6
ByLayer
370
13
48
1
60
0
100
AcDbLine
10
39.825002
20
-11.237997
30
0
11
39.824998
21
-10.402003
31
0
39
0
210
0
220
0
230
1
0
ENDBLK
5
1BC
100
AcDbEntity
8
0
100
AcDbBlockEnd
0
BLOCK
5
1C1
100
AcDbEntity
8
0
100
AcDbBlockBegin
2
*D14
70
1
10
0
20
0
30
0
3
*D14
0
LINE
5
1C3
100
AcDbEntity
8
0
62
256
6
ByLayer
370
-2
48
1
60
0
100
AcDbLine
10
-36
20
-1.5875
30
0
11
-36
21
-40.67512
31
0
39
0
210
0
220
0
230
1
0
LINE
5
1C4
100
AcDbEntity
8
0
62
256
6
ByLayer
370
-2
48
1
60
0
100
AcDbLine
10
43
20
-1.5875
30
0
11
43
21
-40.67512
31
0
39
0
210
0
220
0
230
1
0
LINE
5
1C5
100
AcDbEntity
8
0
62
256
6
ByLayer
370
-2
48
1
60
0
100
AcDbLine
10
-32.825
20
-37.50012
30
0
11
39.825
21
-37.50012
31
0
39
0
210
0
220
0
230
1
0
SOLID
5
1C6
100
AcDbEntity
8
0
62
256
6
ByLayer
370
-1
48
1
60
0
100
AcDbTrace
10
-32.825
20
-36.970953
30
0
11
-32.825
21
-38.029287
31
0
12
-36
22
-37.50012
32
0
13
-36
23
-37.50012
33
0
39
0
210
0
220
0
230
1
0
SOLID
5
1C7
100
AcDbEntity
8
0
62
256
6
ByLayer
370
-1
48
1
60
0
100
AcDbTrace
10
39.825
20
-38.029287
30
0
11
39.825
21
-36.970953
31
0
12
43
22
-37.50012
32
0
13
43
23
-37.50012
33
0
39
0
210
0
220
0
230
1
0
MTEXT
5
1C8
100
AcDbEntity
8
0
62
256
6
ByLayer
370
18
48
1
60
0
100
AcDbMText
10
3.5
20
-30.193619
30
0
210
0
220
0
230
1
1
\A1;79
40
3.50012
41
0
44
1
50
0
71
5
72
5
7
iso_b_vert
0
POINT
5
1C9
100
AcDbEntity
8
Defpoints
62
0
6
ByLayer
370
-1
48
1
60
0
100
AcDbPoint
10
-36
20
0
30
0
39
0
210
0
220
0
230
1
50
360
0
POINT
5
1CA
100
AcDbEntity
8
Defpoints
62
0
6
ByLayer
370
-1
48
1
60
0
100
AcDbPoint
10
43
20
0
30
0
39
0
210
0
220
0
230
1
50
360
0
POINT
5
1CB
100
AcDbEntity
8
Defpoints
62
0
6
ByLayer
370
-1
48
1
60
0
100
AcDbPoint
10
43
20
-37.50012
30
0
39
0
210
0
220
0
230
1
50
360
0
ENDBLK
5
1C2
100
AcDbEntity
8
0
100
AcDbBlockEnd
0
BLOCK
5
1D7
100
AcDbEntity
8
0
100
AcDbBlockBegin
2
_U6
70
0
10
0
20
0
30
0
3
_U6
0
MTEXT
5
1CD
100
AcDbEntity
8
SK2
62
256
6
ByLayer
370
18
48
1
60
0
100
AcDbMText
10
-1.729611
20
-36.467451
30
0
210
0
220
0
230
1
1
\W0.7468;79.00
40
3.50012
41
0
44
1.084337
50
0
71
7
72
5
7
iso_b_vert
0
LINE
5
1CE
100
AcDbEntity
8
SK2
62
256
6
ByLayer
370
13
48
1
60
0
100
AcDbLine
10
-36
20
-1.5875
30
0
11
-36
21
-40.67512
31
0
39
0
210
0
220
0
230
1
0
LINE
5
1CF
100
AcDbEntity
8
SK2
62
256
6
ByLayer
370
13
48
1
60
0
100
AcDbLine
10
43
20
-1.5875
30
0
11
43
21
-40.67512
31
0
39
0
210
0
220
0
230
1
0
LINE
5
1D0
100
AcDbEntity
8
SK2
62
256
6
ByLayer
370
13
48
1
60
0
100
AcDbLine
10
-36
20
-37.50012
30
0
11
43
21
-37.50012
31
0
39
0
210
0
220
0
230
1
0
LINE
5
1D1
100
AcDbEntity
8
SK2
62
256
6
ByLayer
370
13
48
1
60
0
100
AcDbLine
10
-36
20
-37.50012
30
0
11
-32.825002
21
-37.082123
31
0
39
0
210
0
220
0
230
1
0
LINE
5
1D2
100
AcDbEntity
8
SK2
62
256
6
ByLayer
370
13
48
1
60
0
100
AcDbLine
10
-36
20
-37.50012
30
0
11
-32.824998
21
-37.918117
31
0
39
0
210
0
220
0
230
1
0
LINE
5
1D3
100
AcDbEntity
8
SK2
62
256
6
ByLayer
370
13
48
1
60
0
100
AcDbLine
10
-32.825002
20
-37.082123
30
0
11
-32.824998
21
-37.918117
31
0
39
0
210
0
220
0
230
1
0
LINE
5
1D4
100
AcDbEntity
8
SK2
62
256
6
ByLayer
370
13
48
1
60
0
100
AcDbLine
10
43
20
-37.50012
30
0
11
39.825002
21
-37.918117
31
0
39
0
210
0
220
0
230
1
0
LINE
5
1D5
100
AcDbEntity
8
SK2
62
256
6
ByLayer
370
13
48
1
60
0
100
AcDbLine
10
43
20
-37.50012
30
0
11
39.824998
21
-37.082123
31
0
39
0
210
0
220
0
230
1
0
LINE
5
1D6
100
AcDbEntity
8
SK2
62
256
6
ByLayer
370
13
48
1
60
0
100
AcDbLine
10
39.825002
20
-37.918117
30
0
11
39.824998
21
-37.082123
31
0
39
0
210
0
220
0
230
1
0
ENDBLK
5
1D8
100
AcDbEntity
8
0
100
AcDbBlockEnd
0
ENDSEC
0
SECTION
2
ENTITIES
0
ARC
5
B1
100
AcDbEntity
8
1
62
256
6
ByLayer
370
18
48
1
60
0
100
AcDbCircle
39
0
10
0.203857
20
4.144154
30
0
40
0.2
210
0
220
0
230
1
100
AcDbArc
50
239.359977
51
270.03581
0
ARC
5
B2
100
AcDbEntity
8
1
62
256
6
ByLayer
370
18
48
1
60
0
100
AcDbCircle
39
0
10
0.203857
20
-4.144154
30
0
40
0.2
210
0
220
0
230
1
100
AcDbArc
50
89.96419
51
120.640023
0
ARC
5
B3
100
AcDbEntity
8
1
62
256
6
ByLayer
370
18
48
1
60
0
100
AcDbCircle
39
0
10
0
20
3.8
30
0
40
0.2
210
0
220
0
230
1
100
AcDbArc
50
59.359977
51
90
0
ARC
5
B4
100
AcDbEntity
8
1
62
256
6
ByLayer
370
18
48
1
60
0
100
AcDbCircle
39
0
10
0
20
-3.8
30
0
40
0.2
210
0
220
0
230
1
100
AcDbArc
50
270
51
300.640023
0
ARC
5
B5
100
AcDbEntity
8
SK2
62
256
6
ByLayer
370
13
48
1
60
0
100
AcDbCircle
39
0
10
43
20
0
30
0
40
20
210
0
220
0
230
1
100
AcDbArc
50
9.606349
51
69.999514
0
ARC
5
B6
100
AcDbEntity
8
SK2
62
256
6
ByLayer
370
13
48
1
60
0
100
AcDbCircle
39
0
10
43
20
0
30
0
40
20
210
0
220
0
230
1
100
AcDbArc
50
290.000486
51
350.393651
0
ELLIPSE
5
B7
100
AcDbEntity
8
1
62
256
6
ByLayer
370
18
48
1
60
0
100
AcDbEllipse
10
3.601731
20
3.848036
30
0
11
-0.1
21
1.22460635382238E-17
31
0
210
0
220
0
230
1
40
1
41
8.61373997639783E-05
42
1.58749836090121
0
ELLIPSE
5
B8
100
AcDbEntity
8
1
62
256
6
ByLayer
370
18
48
1
60
0
100
AcDbEllipse
10
3.601731
20
-3.848036
30
0
11
-0.1
21
1.22460635382238E-17
31
0
210
0
220
0
230
1
40
1
41
-1.56012448513337
42
-8.61373979742988E-05
0
POINT
5
70
100
AcDbEntity
8
80
62
256
6
ByLayer
370
18
48
1
60
0
100
AcDbPoint
10
0
20
0
30
0
39
0
210
0
220
0
230
1
50
360
0
POINT
5
72
100
AcDbEntity
8
81
62
256
6
ByLayer
370
18
48
1
60
0
100
AcDbPoint
10
43
20
0
30
0
39
0
210
0
220
0
230
1
50
360
0
POINT
5
74
100
AcDbEntity
8
1
62
256
6
ByLayer
370
18
48
1
60
0
100
AcDbPoint
10
-36
20
0
30
0
39
0
210
0
220
0
230
1
50
360
0
POINT
5
76
100
AcDbEntity
8
1
62
256
6
ByLayer
370
18
48
1
60
1
100
AcDbPoint
10
0
20
-4
30
0
39
0
210
0
220
0
230
1
50
360
0
POINT
5
77
100
AcDbEntity
8
1
62
256
6
ByLayer
370
18
48
1
60
1
100
AcDbPoint
10
43
20
0
30
0
39
0
210
0
220
0
230
1
50
360
0
POINT
5
78
100
AcDbEntity
8
1
62
256
6
ByLayer
370
18
48
1
60
1
100
AcDbPoint
10
41.555
20
-3.97
30
0
39
0
210
0
220
0
230
1
50
360
0
POINT
5
79
100
AcDbEntity
8
1
62
256
6
ByLayer
370
18
48
1
60
1
100
AcDbPoint
10
41.555
20
3.97
30
0
39
0
210
0
220
0
230
1
50
360
0
POINT
5
7A
100
AcDbEntity
8
1
62
256
6
ByLayer
370
18
48
1
60
1
100
AcDbPoint
10
-36
20
4
30
0
39
0
210
0
220
0
230
1
50
360
0
POINT
5
7B
100
AcDbEntity
8
1
62
256
6
ByLayer
370
18
48
1
60
1
100
AcDbPoint
10
-36
20
-4
30
0
39
0
210
0
220
0
230
1
50
360
0
POINT
5
7C
100
AcDbEntity
8
1
62
256
6
ByLayer
370
18
48
1
60
1
100
AcDbPoint
10
-36
20
-4
30
0
39
0
210
0
220
0
230
1
50
360
0
POINT
5
7D
100
AcDbEntity
8
1
62
256
6
ByLayer
370
18
48
1
60
1
100
AcDbPoint
10
0
20
-4
30
0
39
0
210
0
220
0
230
1
50
360
0
POINT
5
7E
100
AcDbEntity
8
1
62
256
6
ByLayer
370
18
48
1
60
1
100
AcDbPoint
10
2
20
4.47
30
0
39
0
210
0
220
0
230
1
50
360
0
POINT
5
7F
100
AcDbEntity
8
1
62
256
6
ByLayer
370
18
48
1
60
1
100
AcDbPoint
10
43
20
0
30
0
39
0
210
0
220
0
230
1
50
360
0
POINT
5
80
100
AcDbEntity
8
1
62
256
6
ByLayer
370
18
48
1
60
1
100
AcDbPoint
10
17.8
20
-3.97
30
0
39
0
210
0
220
0
230
1
50
360
0
POINT
5
81
100
AcDbEntity
8
1
62
256
6
ByLayer
370
18
48
1
60
1
100
AcDbPoint
10
43
20
0
30
0
39
0
210
0
220
0
230
1
50
360
0
POINT
5
82
100
AcDbEntity
8
1
62
256
6
ByLayer
370
18
48
1
60
1
100
AcDbPoint
10
-36
20
0
30
0
39
0
210
0
220
0
230
1
50
360
0
POINT
5
83
100
AcDbEntity
8
1
62
256
6
ByLayer
370
18
48
1
60
1
100
AcDbPoint
10
43
20
0
30
0
39
0
210
0
220
0
230
1
50
360
0
SPLINE
5
B9
100
AcDbEntity
8
1
62
256
6
ByLayer
370
18
48
1
60
0
100
AcDbSpline
70
4
71
3
72
32
73
28
40
0
40
0
40
0
40
0
40
0.497852027996245
40
0.497852027996245
40
0.669426108682222
40
0.669426108682222
40
0.782672582660105
40
0.782672582660105
40
0.857426220230981
40
0.857426220230981
40
0.906803096335449
40
0.906803096335449
40
0.939432664785965
40
0.939432664785965
40
0.961002104091047
40
0.961002104091047
40
0.975263551172104
40
0.975263551172104
40
0.98469448195538
40
0.98469448195538
40
0.990931688521186
40
0.990931688521186
40
0.995057186305493
40
0.995057186305493
40
0.998866153621265
40
0.998866153621265
40
1
40
1
40
1
40
1
41
1
10
41.3747384970539
20
3.96899209675624
30
0
41
1
10
41.4143944871437
20
3.94320894444615
30
0
41
1
10
41.4541240160288
20
3.91713549165641
30
0
41
1
10
41.5076382899286
20
3.88170358564909
30
0
41
1
10
41.5213628398122
20
3.87258903265169
30
0
41
1
10
41.5441598803018
20
3.85740444314493
30
0
41
1
10
41.5532277848979
20
3.85135273041436
30
0
41
1
10
41.5682873900089
20
3.84128292753715
30
0
41
1
10
41.5742770311528
20
3.83727279493127
30
0
41
1
10
41.5842258012406
20
3.83060359962053
30
0
41
1
10
41.588183999929
20
3.8279480045752
30
0
41
1
10
41.5947592735171
20
3.82353294858166
30
0
41
1
10
41.5973758783736
20
3.82177503735653
30
0
41
1
10
41.6017228109027
20
3.81885305834226
30
0
41
1
10
41.6034529194155
20
3.81768967448832
30
0
41
1
10
41.6063272492662
20
3.81575618720584
30
0
41
1
10
41.607471370826
20
3.81498638467127
30
0
41
1
10
41.609372219138
20
3.81370713042486
30
0
41
1
10
41.6101289011115
20
3.81319781083383
30
0
41
1
10
41.6113860784139
20
3.81235147833604
30
0
41
1
10
41.611886553826
20
3.81201452337194
30
0
41
1
10
41.6127180785683
20
3.81145462542668
30
0
41
1
10
41.6130515195493
20
3.81123008756711
30
0
41
1
10
41.6136762227764
20
3.81080941304052
30
0
41
1
10
41.6139719210854
20
3.81061028959036
30
0
41
1
10
41.614316035546
20
3.81037857387116
30
0
41
1
10
41.6143921742265
20
3.81032730489096
30
0
41
1
10
41.6144630164958
20
3.81027960471383
30
0
0
SPLINE
5
BA
100
AcDbEntity
8
1
62
256
6
ByLayer
370
18
48
1
60
0
100
AcDbSpline
70
4
71
3
72
8
73
4
40
0
40
0
40
0
40
0
40
1
40
1
40
1
40
1
41
1
10
42.9963390009981
20
0.219181139089926
30
0
41
1
10
42.9791907224561
20
0.162024598522862
30
0
41
1
10
42.9619569775896
20
0.104894978390405
30
0
41
1
10
42.9446380877645
20
0.0477921774676702
30
0
0
SPLINE
5
BB
100
AcDbEntity
8
1
62
256
6
ByLayer
370
18
48
1
60
0
100
AcDbSpline
70
4
71
3
72
26
73
22
40
0
40
0
40
0
40
0
40
0.114823879392011
40
0.114823879392011
40
0.229647758784022
40
0.229647758784022
40
0.344471638176032
40
0.344471638176032
40
0.401883577872036
40
0.401883577872036
40
0.45929551756804
40
0.45929551756804
40
0.688943276352058
40
0.688943276352058
40
0.803767155744066
40
0.803767155744066
40
0.86117909544007
40
0.86117909544007
40
0.918591035136074
40
0.918591035136074
40
1
40
1
40
1
40
1
41
1
10
41.0257768568441
20
0.581881978486223
30
0
41
1
10
40.648628546389
20
0.796118142782149
30
0
41
1
10
40.2730185494607
20
1.00659138875821
30
-1E-16
41
1
10
39.522566224175
20
1.41623415289172
30
-1E-16
41
1
10
39.148012524002
20
1.61587345119449
30
-1E-16
41
1
10
38.3968621395829
20
1.99917904808194
30
-1E-16
41
1
10
38.0204998444789
20
2.18323735787925
30
-1E-16
41
1
10
37.4530084496307
20
2.44498310683483
30
-1E-16
41
1
10
37.2630269689183
20
2.52990866229751
30
-2E-16
41
1
10
36.8829662900505
20
2.69373877994809
30
-2E-16
41
1
10
36.6935090353197
20
2.77236349365168
30
-2E-16
41
1
10
35.7490300812367
20
3.14925354372301
30
-2E-16
41
1
10
35.0006439008125
20
3.39646919155817
30
-2E-16
41
1
10
33.8745412867486
20
3.6732209385456
30
0
41
1
10
33.4984011060577
20
3.7496782657619
30
0
41
1
10
32.9317715743409
20
3.8394038768206
30
0
41
1
10
32.7424309492028
20
3.86511165475576
30
0
41
1
10
32.3624567006402
20
3.90784269113459
30
0
41
1
10
32.1723053812605
20
3.92479145912313
30
0
41
1
10
31.7145758328196
20
3.95491399650905
30
0
41
1
10
31.4473164598929
20
3.96363407428569
30
0
41
1
10
31.180618148255
20
3.96350891174541
30
0
0
SPLINE
5
BC
100
AcDbEntity
8
1
62
256
6
ByLayer
370
18
48
1
60
0
100
AcDbSpline
70
4
71
3
72
24
73
20
40
0
40
0
40
0
40
0
40
0.0696591175610553
40
0.0696591175610553
40
0.12780542271349
40
0.12780542271349
40
0.185951727865925
40
0.185951727865925
40
0.302244338170792
40
0.302244338170792
40
0.534829558780527
40
0.534829558780527
40
0.651122169085396
40
0.651122169085396
40
0.767414779390264
40
0.767414779390264
40
0.883707389695132
40
0.883707389695132
40
1
40
1
40
1
40
1
41
1
10
14.5735437360155
20
-2.91728082799011
30
2E-16
41
1
10
14.3477677914558
20
-3.00421020793172
30
2E-16
41
1
10
14.1214895238918
20
-3.08665581311928
30
2E-16
41
1
10
13.7050659326715
20
-3.22917360942267
30
2E-16
41
1
10
13.5146488345739
20
-3.29073964165744
30
2E-16
41
1
10
13.1346181532216
20
-3.40591533372148
30
2E-16
41
1
10
12.9451635922563
20
-3.45948390296718
30
0
41
1
10
12.3781453571617
20
-3.60807457871664
30
0
41
1
10
12.0021894594601
20
-3.69114307716248
30
0
41
1
10
10.8752714493378
20
-3.88964537825302
30
0
41
1
10
10.1261681905573
20
-3.95509897585873
30
0
41
1
10
8.99149880412108
20
-3.94687727492069
30
0
41
1
10
8.61004509959508
20
-3.92613583570153
30
0
41
1
10
7.85161039240265
20
-3.84977834690724
30
0
41
1
10
7.47412314743244
20
-3.79419291342592
30
0
41
1
10
6.71968384030563
20
-3.64998977827622
30
0
41
1
10
6.34267870204087
20
-3.56145191266273
30
0
41
1
10
5.58726665890467
20
-3.35265035759338
30
2E-16
41
1
10
5.20859661992245
20
-3.23256900245747
30
2E-16
41
1
10
4.8275416534203
20
-3.09796481087457
30
2E-16
0
SPLINE
5
BD
100
AcDbEntity
8
1
62
256
6
ByLayer
370
18
48
1
60
0
100
AcDbSpline
70
4
71
3
72
22
73
18
40
0
40
0
40
0
40
0
40
0.250000000000002
40
0.250000000000002
40
0.375000000000004
40
0.375000000000004
40
0.437500000000003
40
0.437500000000003
40
0.500000000000003
40
0.500000000000003
40
0.750000000000002
40
0.750000000000002
40
0.875000000000002
40
0.875000000000002
40
0.937500000000001
40
0.937500000000001
40
1
40
1
40
1
40
1
41
1
10
8.11306052270737
20
0.383874732569097
30
0
41
1
10
8.93459918763978
20
-0.0828594096402639
30
0
41
1
10
9.74429368939948
20
-0.550570859700571
30
0
41
1
10
10.9593864084674
20
-1.22182120303148
30
1E-16
41
1
10
11.3644465898734
20
-1.44062369647378
30
1E-16
41
1
10
11.9745185052291
20
-1.75718862796759
30
1E-16
41
1
10
12.1782832758308
20
-1.86078144748899
30
1E-16
41
1
10
12.5869987492861
20
-2.06346597904292
30
1E-16
41
1
10
12.792407419642
20
-2.16279196858091
30
1E-16
41
1
10
13.8173869905783
20
-2.64357909437987
30
2E-16
41
1
10
14.6261908470794
20
-2.97520200709556
30
2E-16
41
1
10
15.8410179540599
20
-3.37334426572065
30
2E-16
41
1
10
16.2461539878733
20
-3.48958143364732
30
0
41
1
10
16.8566120991075
20
-3.63662806728945
30
0
41
1
10
17.0605462230776
20
-3.68110328711779
30
0
41
1
10
17.4696932144533
20
-3.76056570132317
30
0
41
1
10
17.6753251352146
20
-3.79561192635165
30
0
41
1
10
17.8799999999894
20
-3.82545609357629
30
0
0
SPLINE
5
BE
100
AcDbEntity
8
1
62
256
6
ByLayer
370
18
48
1
60
0
100
AcDbSpline
70
4
71
3
72
10
73
6
40
0
40
0
40
0
40
0
40
0.5
40
0.5
40
1
40
1
40
1
40
1
41
1
10
41.6217001056592
20
-3.80540346699604
30
0
41
1
10
41.6088216626408
20
-3.81410161526665
30
0
41
1
10
41.5978903531419
20
-3.8178559692698
30
0
41
1
10
41.5792688693086
20
-3.81558846013542
30
0
41
1
10
41.5716387992854
20
-3.80961309031937
30
0
41
1
10
41.5651350027343
20
-3.79921383415521
30
0
0
SPLINE
5
BF
100
AcDbEntity
8
1
62
256
6
ByLayer
370
18
48
1
60
0
100
AcDbSpline
70
4
71
3
72
44
73
40
40
0
40
0
40
0
40
0
40
0.0625000000000004
40
0.0625000000000004
40
0.125000000000001
40
0.125000000000001
40
0.156250000000001
40
0.156250000000001
40
0.187500000000002
40
0.187500000000002
40
0.250000000000002
40
0.250000000000002
40
0.312500000000003
40
0.312500000000003
40
0.343750000000003
40
0.343750000000003
40
0.375000000000003
40
0.375000000000003
40
0.437500000000003
40
0.437500000000003
40
0.500000000000004
40
0.500000000000004
40
0.562500000000004
40
0.562500000000004
40
0.625000000000004
40
0.625000000000004
40
0.687500000000005
40
0.687500000000005
40
0.718750000000004
40
0.718750000000004
40
0.750000000000004
40
0.750000000000004
40
0.812500000000003
40
0.812500000000003
40
0.875000000000002
40
0.875000000000002
40
0.937500000000001
40
0.937500000000001
40
1
40
1
40
1
40
1
41
1
10
17.88
20
3.80874391402497
30
0
41
1
10
18.3701351567613
20
3.88455248045108
30
0
41
1
10
18.859224882883
20
3.93150981734996
30
0
41
1
10
19.8376409801629
20
3.96610043083703
30
0
41
1
10
20.328012586691
20
3.95366357754801
30
0
41
1
10
21.0616055567727
20
3.89090645075211
30
0
41
1
10
21.3060748912808
20
3.86266700561637
30
0
41
1
10
21.7955924854759
20
3.79176129741947
30
0
41
1
10
22.0408226775107
20
3.74904578365005
30
0
41
1
10
22.7750497232866
20
3.60036740865903
30
0
41
1
10
23.2635120349515
20
3.47373858337596
30
0
41
1
10
24.2436145276051
20
3.16927873647867
30
-2E-16
41
1
10
24.7320643590562
20
2.99244960596136
30
-2E-16
41
1
10
25.4659739491618
20
2.69534730624207
30
-2E-16
41
1
10
25.7111351376809
20
2.59086552494611
30
-2E-16
41
1
10
26.2007034885932
20
2.37292493432611
30
-1E-16
41
1
10
26.4451826433745
20
2.25943749727594
30
-1E-16
41
1
10
27.1786613599884
20
1.90681978579767
30
-1E-16
41
1
10
27.6688080691986
20
1.6548808468165
30
-1E-16
41
1
10
28.6469150058414
20
1.1310379260805
30
-1E-16
41
1
10
29.135824312077
20
0.858764160410374
30
-1E-16
41
1
10
30.1156025119319
20
0.304314740043054
30
0
41
1
10
30.6053597888398
20
0.0226481361229673
30
0
41
1
10
31.5848400006033
20
-0.537068754237794
30
0
41
1
10
32.0747405748409
20
-0.815130163865291
30
0
41
1
10
33.0543111938958
20
-1.35455406326093
30
1E-16
41
1
10
33.5443343076491
20
-1.61606564464998
30
1E-16
41
1
10
34.2776468090368
20
-1.98690375163287
30
1E-16
41
1
10
34.5219857559554
20
-2.1070524000254
30
1E-16
41
1
10
35.011162531358
20
-2.33934580305234
30
1E-16
41
1
10
35.2561613277489
20
-2.45155233463203
30
2E-16
41
1
10
35.9905191970709
20
-2.77345211663257
30
2E-16
41
1
10
36.48012244105
20
-2.96873851733923
30
2E-16
41
1
10
37.4598484717658
20
-3.31213833741063
30
2E-16
41
1
10
37.9481849968807
20
-3.45975973538231
30
0
41
1
10
38.9262219109918
20
-3.70182521298963
30
0
41
1
10
39.4161394747568
20
-3.79619007976248
30
0
41
1
10
40.3956524632771
20
-3.92662729843224
30
0
41
1
10
40.8852290503696
20
-3.96273081378703
30
0
41
1
10
41.3747384970588
20
-3.9689920967634
30
0
0
SPLINE
5
C0
100
AcDbEntity
8
1
62
256
6
ByLayer
370
18
48
1
60
0
100
AcDbSpline
70
4
71
3
72
10
73
6
40
0
40
0
40
0
40
0
40
0.5
40
0.5
40
1
40
1
40
1
40
1
41
1
10
3.501731494041
20
-3.09218455217035
30
2E-16
41
1
10
3.501731494041
20
-3.0703162412411
30
2E-16
41
1
10
3.5213305356435
20
-3.04887681530988
30
2E-16
41
1
10
3.58193948592776
20
-3.02651184295414
30
2E-16
41
1
10
3.62103998031373
20
-3.02643276625426
30
2E-16
41
1
10
3.65155788648514
20
-3.03764296339296
30
2E-16
0
SPLINE
5
C1
100
AcDbEntity
8
1
62
256
6
ByLayer
370
18
48
1
60
0
100
AcDbSpline
70
4
71
3
72
30
73
26
40
0
40
0
40
0
40
0
40
0.0408185921996306
40
0.0408185921996306
40
0.0941064481885407
40
0.0941064481885407
40
0.147394304177451
40
0.147394304177451
40
0.253970016155271
40
0.253970016155271
40
0.360545728133091
40
0.360545728133091
40
0.467121440110911
40
0.467121440110911
40
0.520409296099821
40
0.520409296099821
40
0.573697152088731
40
0.573697152088731
40
0.680272864066548
40
0.680272864066548
40
0.786848576044365
40
0.786848576044365
40
0.893424288022183
40
0.893424288022183
40
1
40
1
40
1
40
1
41
1
10
30.1778958144653
20
3.77291241620611
30
0
41
1
10
30.3274370135477
20
3.77277017235574
30
0
41
1
10
30.4771930166472
20
3.77005166891524
30
0
41
1
10
30.8229258740637
20
3.75821920032573
30
0
41
1
10
31.0191514160746
20
3.74753228974373
30
0
41
1
10
31.4118776668037
20
3.71776039215337
30
0
41
1
10
31.6076505086841
20
3.69798962164765
30
0
41
1
10
32.1936696484843
20
3.62456699930465
30
0
41
1
10
32.5824974643076
20
3.55789118161212
30
0
41
1
10
33.3582918954183
20
3.39297370372805
30
0
41
1
10
33.7448022488024
20
3.29549319406689
30
0
41
1
10
34.5199113108378
20
3.06817043173695
30
-2E-16
41
1
10
34.9082137730398
20
2.93917034504838
30
-2E-16
41
1
10
35.4925631766494
20
2.72530286559837
30
-2E-16
41
1
10
35.6875975375501
20
2.65065833356263
30
-2E-16
41
1
10
36.0788909924408
20
2.49470062421707
30
-2E-16
41
1
10
36.2757476243618
20
2.41307522771405
30
-1E-16
41
1
10
36.8638925719929
20
2.16068509252153
30
-1E-16
41
1
10
37.2534076164494
20
1.9824938767612
30
-1E-16
41
1
10
38.029034450386
20
1.61043609917212
30
-1E-16
41
1
10
38.4149969612589
20
1.41645437773772
30
-1E-16
41
1
10
39.1875184275365
20
1.01772181427663
30
-1E-16
41
1
10
39.5737889065886
20
0.812960790721775
30
0
41
1
10
40.3479271962375
20
0.396407664126031
30
0
41
1
10
40.7357293849971
20
0.184520689821085
30
0
41
1
10
41.1254626521182
20
-0.0288220891452795
30
0
0
SPLINE
5
C2
100
AcDbEntity
8
1
62
256
6
ByLayer
370
18
48
1
60
0
100
AcDbSpline
70
4
71
3
72
66
73
62
40
0
40
0
40
0
40
0
40
0.0624999999999982
40
0.0624999999999982
40
0.124999999999996
40
0.124999999999996
40
0.156249999999995
40
0.156249999999995
40
0.187499999999995
40
0.187499999999995
40
0.218749999999994
40
0.218749999999994
40
0.249999999999993
40
0.249999999999993
40
0.281249999999992
40
0.281249999999992
40
0.296874999999992
40
0.296874999999992
40
0.312499999999992
40
0.312499999999992
40
0.343749999999992
40
0.343749999999992
40
0.359374999999992
40
0.359374999999992
40
0.374999999999992
40
0.390624999999991
40
0.390624999999991
40
0.406249999999991
40
0.406249999999991
40
0.437499999999991
40
0.437499999999991
40
0.46874999999999
40
0.46874999999999
40
0.499999999999989
40
0.499999999999989
40
0.531249999999988
40
0.531249999999988
40
0.562499999999987
40
0.562499999999987
40
0.624999999999986
40
0.624999999999986
40
0.640624999999985
40
0.640624999999985
40
0.642578124999985
40
0.642578124999985
40
0.644531249999984
40
0.644531249999984
40
0.648437499999983
40
0.648437499999983
40
0.652343749999982
40
0.652343749999982
40
0.656249999999981
40
0.687499999999982
40
0.687499999999982
40
0.749999999999986
40
0.749999999999986
40
0.812499999999989
40
0.812499999999989
40
0.874999999999993
40
0.874999999999993
40
1
40
1
40
1
40
1
41
1
10
4.82753228824453
20
-3.097970863509
30
2E-16
41
1
10
4.60691779251428
20
-3.01992601522287
30
2E-16
41
1
10
4.39008173233341
20
-2.93441747227712
30
2E-16
41
1
10
3.96562064762634
20
-2.74475384193966
30
2E-16
41
1
10
3.75796295251314
20
-2.64066749051995
30
2E-16
41
1
10
3.45552925785989
20
-2.4658593963405
30
2E-16
41
1
10
3.35623861418924
20
-2.40445211451203
30
1E-16
41
1
10
3.16130726023559
20
-2.27405073583182
30
1E-16
41
1
10
3.06545178793061
20
-2.20490195199716
30
1E-16
41
1
10
2.87923981973967
20
-2.05782364176741
30
1E-16
41
1
10
2.78939112730456
20
-1.98032736833659
30
1E-16
41
1
10
2.61774485481922
20
-1.81552734318987
30
1E-16
41
1
10
2.53563180583996
20
-1.72787947409913
30
1E-16
41
1
10
2.38325776629088
20
-1.54147142654602
30
1E-16
41
1
10
2.31354806294587
20
-1.44348216130604
30
1E-16
41
1
10
2.22125948403033
20
-1.28743353864044
30
1E-16
41
1
10
2.19255423621763
20
-1.2338980914889
30
1E-16
41
1
10
2.13989127758003
20
-1.12332471596835
30
1E-16
41
1
10
2.11581381499411
20
-1.06593337013103
30
1E-16
41
1
10
2.05297041878842
20
-0.890518723363243
30
1E-16
41
1
10
2.02353830357453
20
-0.769775980566521
30
0
41
1
10
2.00131022381709
20
-0.582008651245502
30
0
41
1
10
1.99762268429558
20
-0.517987393428655
30
0
41
1
10
1.99812782264195
20
-0.391324319458136
30
0
41
1
10
2.00634279163128
20
-0.265237899221518
30
0
41
1
10
2.02954620684059
20
-0.140277944004907
30
0
41
1
10
2.06009882632961
20
-0.0158732973297049
30
0
41
1
10
2.07902010122939
20
0.0457481686796086
30
0
41
1
10
2.1446072792055
20
0.225431738117152
30
0
41
1
10
2.2006062755668
20
0.340230663538563
30
0
41
1
10
2.33122341624485
20
0.559437369852276
30
0
41
1
10
2.40447115872436
20
0.661795763059445
30
0
41
1
10
2.56276834054969
20
0.855791409984988
30
-1E-16
41
1
10
2.64785730126255
20
0.947392213107207
30
-1E-16
41
1
10
2.82747936248097
20
1.12205593582354
30
-1E-16
41
1
10
2.9217343556744
20
1.20477493721262
30
-1E-16
41
1
10
3.11522626335346
20
1.361176167633
30
-1E-16
41
1
10
3.21480307627155
20
1.43516923877525
30
-1E-16
41
1
10
3.52046731375316
20
1.64692649908739
30
-1E-16
41
1
10
3.73349065854717
20
1.77455862905393
30
-1E-16
41
1
10
4.00569061286478
20
1.92082414108356
30
-1E-16
41
1
10
4.06045428929912
20
1.94941768032496
30
-1E-16
41
1
10
4.12238389506453
20
1.98089029956316
30
-1E-16
41
1
10
4.12935429371137
20
1.98428500403557
30
-1E-16
41
1
10
4.14407230766707
20
1.98938473286032
30
-1E-16
41
1
10
4.15181253028396
20
1.99123290256071
30
-1E-16
41
1
10
4.17512343183142
20
1.99481891868251
30
-1E-16
41
1
10
4.19110605266457
20
1.99496466871713
30
-1E-16
41
1
10
4.22251325711176
20
1.99180066349865
30
-1E-16
41
1
10
4.23789549964383
20
1.9882121816261
30
-1E-16
41
1
10
4.26841203230464
20
1.98071055469754
30
-1E-16
41
1
10
4.40566593789887
20
1.9467101322023
30
-1E-16
41
1
10
4.5422954302793
20
1.91051420509857
30
-1E-16
41
1
10
4.90495549318894
20
1.80876308009715
30
-1E-16
41
1
10
5.14430364449598
20
1.73399849752229
30
-1E-16
41
1
10
5.61856387574127
20
1.57056579306635
30
-1E-16
41
1
10
5.85358599270128
20
1.48182047244382
30
-1E-16
41
1
10
6.31749700421196
20
1.29193710581015
30
-1E-16
41
1
10
6.54667998775577
20
1.19071042917949
30
-1E-16
41
1
10
7.22749944278362
20
0.870371664452392
30
-1E-16
41
1
10
7.67228824436759
20
0.634301431655587
30
0
41
1
10
8.11306050362091
20
0.383874742067889
30
0
0
SPLINE
5
C3
100
AcDbEntity
8
1
62
256
6
ByLayer
370
18
48
1
60
0
100
AcDbSpline
70
4
71
3
72
12
73
8
40
0
40
0
40
0
40
0
40
0.180501855969803
40
0.180501855969803
40
0.590250927984902
40
0.590250927984902
40
1
40
1
40
1
40
1
41
1
10
41.5868596771286
20
0.944638215478932
30
0
41
1
10
41.6083264014084
20
0.955825648305762
30
0
41
1
10
41.630566719473
20
0.966928672872626
30
0
41
1
10
41.7054592612161
20
1.00236294194451
30
0
41
1
10
41.7623333080805
20
1.02572546584295
30
0
41
1
10
41.8793613268798
20
1.0634175572213
30
0
41
1
10
41.9399116782037
20
1.07804624364715
30
0
41
1
10
42.0025221528418
20
1.08772469487741
30
0
0
SPLINE
5
C4
100
AcDbEntity
8
1
62
256
6
ByLayer
370
18
48
1
60
0
100
AcDbSpline
70
4
71
3
72
18
73
14
40
0
40
0
40
0
40
0
40
0.244021408173412
40
0.244021408173412
40
0.366032112260119
40
0.366032112260119
40
0.488042816346825
40
0.488042816346825
40
0.732064224520234
40
0.732064224520234
40
0.976085632693643
40
0.976085632693643
40
1
40
1
40
1
40
1
41
1
10
3.65155788648514
20
-3.03764296339296
30
2E-16
41
1
10
4.04299798354637
20
-3.18143135540785
30
2E-16
41
1
10
4.43421980528788
20
-3.30913080930435
30
2E-16
41
1
10
5.02177223352462
20
-3.476198416817
30
0
41
1
10
5.21772185096307
20
-3.52781870389151
30
0
41
1
10
5.60982103926258
20
-3.62282666292219
30
0
41
1
10
5.8059852431889
20
-3.66613803281774
30
0
41
1
10
6.39234838364229
20
-3.78203227992452
30
0
41
1
10
6.78143080054841
20
-3.8410902378283
30
0
41
1
10
7.55830106179954
20
-3.92255526458658
30
0
41
1
10
7.94570805222909
20
-3.94501784466726
30
0
41
1
10
8.37197197330815
20
-3.94911319430989
30
0
41
1
10
8.41002987911051
20
-3.94929991944019
30
0
41
1
10
8.44810042553942
20
-3.94930768478798
30
0
0
SPLINE
5
C5
100
AcDbEntity
8
1
62
256
6
ByLayer
370
18
48
1
60
0
100
AcDbSpline
70
4
71
3
72
32
73
28
40
0
40
0
40
0
40
0
40
0.0097226868888067
40
0.0097226868888067
40
0.0547352920302247
40
0.0547352920302247
40
0.0997478971716424
40
0.0997478971716424
40
0.189773107454478
40
0.189773107454478
40
0.279798317737314
40
0.279798317737314
40
0.369823528020149
40
0.369823528020149
40
0.459848738302985
40
0.459848738302985
40
0.549873948585821
40
0.549873948585821
40
0.639899158868657
40
0.639899158868657
40
0.729924369151493
40
0.729924369151493
40
0.819949579434329
40
0.819949579434329
40
0.909974789717164
40
0.909974789717164
40
1
40
1
40
1
40
1
41
1
10
28.0619910734499
20
3.77444662372909
30
0
41
1
10
28.1040666256686
20
3.78176889344039
30
0
41
1
10
28.1461592640838
20
3.78889012001
30
0
41
1
10
28.3832250699037
20
3.82784344644023
30
0
41
1
10
28.5787026795809
20
3.85553853881586
30
0
41
1
10
28.9700272793348
20
3.90180879528487
30
0
41
1
10
29.1650424520282
20
3.92011578056892
30
0
41
1
10
29.7495602265698
20
3.96067076194708
30
0
41
1
10
30.137923218486
20
3.96888255284321
30
0
41
1
10
30.9121043309898
20
3.94851713899098
30
0
41
1
10
31.2973876161567
20
3.91955774220671
30
0
41
1
10
32.0711538733669
20
3.82553513838093
30
0
41
1
10
32.4589541864085
20
3.7604587964573
30
0
41
1
10
33.2382342053836
20
3.59452991657056
30
0
41
1
10
33.6303160696615
20
3.49263634846258
30
0
41
1
10
34.4126312723639
20
3.25801251625376
30
-2E-16
41
1
10
34.8033643746242
20
3.12512759939764
30
-2E-16
41
1
10
35.5853370209708
20
2.82962395535884
30
-2E-16
41
1
10
35.9775664351275
20
2.666057955529
30
-2E-16
41
1
10
36.7574340437345
20
2.31926785921186
30
-1E-16
41
1
10
37.1455141202451
20
2.13531609038861
30
-1E-16
41
1
10
37.9194307466352
20
1.74876438605048
30
-1E-16
41
1
10
38.3050595524032
20
1.54576496409953
30
-1E-16
41
1
10
39.0787978352279
20
1.12868332895417
30
-1E-16
41
1
10
39.4665331583905
20
0.914044032560042
30
-1E-16
41
1
10
40.2453834307534
20
0.475159855412471
30
0
41
1
10
40.6375284393388
20
0.250236767124221
30
0
41
1
10
41.0289307111614
20
0.0252289209551009
30
0
0
SPLINE
5
C6
100
AcDbEntity
8
1
62
256
6
ByLayer
370
18
48
1
60
0
100
AcDbSpline
70
4
71
3
72
8
73
4
40
0
40
0
40
0
40
0
40
1
40
1
40
1
40
1
41
1
10
42.6503014886607
20
-1.22815064503504
30
0
41
1
10
42.7688286490515
20
-0.892965551294054
30
0
41
1
10
42.8841903041227
20
-0.556648041190755
30
0
41
1
10
42.9963390010034
20
-0.219181139107548
30
0
0
SPLINE
5
C7
100
AcDbEntity
8
1
62
256
6
ByLayer
370
18
48
1
60
0
100
AcDbSpline
70
4
71
3
72
28
73
24
40
0
40
0
40
0
40
0
40
0.125
40
0.125
40
0.1875
40
0.1875
40
0.25
40
0.25
40
0.3125
40
0.3125
40
0.375
40
0.375
40
0.4375
40
0.4375
40
0.5
40
0.5
40
0.625
40
0.625
40
0.75
40
0.75
40
0.875
40
0.875
40
1
40
1
40
1
40
1
41
1
10
41.130828079449
20
-0.0430206678542788
30
0
41
1
10
41.1383324490993
20
-0.26889745619593
30
0
41
1
10
41.1553266200436
20
-0.490378345900382
30
0
41
1
10
41.188412929206
20
-0.816898562366333
30
1E-16
41
1
10
41.2007329649953
20
-0.924780098791814
30
1E-16
41
1
10
41.2270823341517
20
-1.13868503094648
30
1E-16
41
1
10
41.2411656082473
20
-1.24508457127931
30
1E-16
41
1
10
41.2699837969196
20
-1.45397272786377
30
1E-16
41
1
10
41.2846947053127
20
-1.55634574670668
30
1E-16
41
1
10
41.314025787172
20
-1.75704704090612
30
1E-16
41
1
10
41.3286759632087
20
-1.85557205212351
30
1E-16
41
1
10
41.3570830727211
20
-2.04693267932788
30
1E-16
41
1
10
41.3708612832733
20
-2.13991566620521
30
1E-16
41
1
10
41.3971690875035
20
-2.32050246581187
30
1E-16
41
1
10
41.4097030187001
20
-2.40815107611465
30
1E-16
41
1
10
41.4447163309977
20
-2.66043021576741
30
2E-16
41
1
10
41.4647323689286
20
-2.81599621220249
30
2E-16
41
1
10
41.4976328887753
20
-3.09505448988529
30
2E-16
41
1
10
41.5106165831942
20
-3.21930968321144
30
0
41
1
10
41.5323669988299
20
-3.43152699315641
30
0
41
1
10
41.541240845967
20
-3.52012840047828
30
0
41
1
10
41.560255650577
20
-3.65765214833607
30
0
41
1
10
41.5704515586074
20
-3.70735374440562
30
0
41
1
10
41.5851411012667
20
-3.73755026335331
30
0
0
SPLINE
5
C8
100
AcDbEntity
8
1
62
256
6
ByLayer
370
18
48
1
60
0
100
AcDbSpline
70
4
71
3
72
8
73
4
40
0
40
0
40
0
40
0
40
1
40
1
40
1
40
1
41
1
10
41.6144630164968
20
-3.81027960471309
30
0
41
1
10
41.6168753463443
20
-3.80865447257924
30
0
41
1
10
41.6192877091703
20
-3.80702909341014
30
0
41
1
10
41.6217001056592
20
-3.80540346699607
30
0
0
SPLINE
5
C9
100
AcDbEntity
8
1
62
256
6
ByLayer
370
18
48
1
60
0
100
AcDbSpline
70
4
71
3
72
8
73
4
40
0
40
0
40
0
40
0
40
1
40
1
40
1
40
1
41
1
10
42.334240921808
20
-0.417425795586467
30
0
41
1
10
42.1918648011077
20
-0.0373689905305241
30
0
41
1
10
42.0097897286403
20
0.368825318108378
30
0
41
1
10
41.7889050626837
20
0.800571583253344
30
0
0
SPLINE
5
CA
100
AcDbEntity
8
1
62
256
6
ByLayer
370
18
48
1
60
0
100
AcDbSpline
70
4
71
3
72
8
73
4
40
0
40
0
40
0
40
0
40
1
40
1
40
1
40
1
41
1
10
41.5825578857219
20
-3.7487805667925
30
0
41
1
10
41.5767244890566
20
-3.76559251712914
30
0
41
1
10
41.5709166940916
20
-3.78240355186816
30
0
41
1
10
41.5651350027343
20
-3.79921383415535
30
0
0
SPLINE
5
CB
100
AcDbEntity
8
1
62
256
6
ByLayer
370
18
48
1
60
0
100
AcDbSpline
70
4
71
3
72
38
73
34
40
0
40
0
40
0
40
0
40
0.10172122630767
40
0.10172122630767
40
0.155343400779684
40
0.155343400779684
40
0.208965575251699
40
0.208965575251699
40
0.262587749723713
40
0.262587749723713
40
0.316209924195728
40
0.316209924195728
40
0.369832098667742
40
0.369832098667742
40
0.423454273139756
40
0.423454273139756
40
0.530698622083784
40
0.530698622083784
40
0.584320796555796
40
0.584320796555796
40
0.637942971027809
40
0.637942971027809
40
0.691565145499822
40
0.691565145499822
40
0.745187319971835
40
0.745187319971835
40
0.85243166891586
40
0.85243166891586
40
0.906053843387871
40
0.906053843387871
40
0.959676017859883
40
0.959676017859883
40
1
40
1
40
1
40
1
41
1
10
8.41009324342517
20
3.76239154190373
30
0
41
1
10
8.77842595930505
20
3.76386237014455
30
0
41
1
10
9.14690489165807
20
3.74815805052896
30
0
41
1
10
9.71064122925088
20
3.70052795189238
30
0
41
1
10
9.90542378879948
20
3.67978243944191
30
0
41
1
10
10.295351743217
20
3.63012555128586
30
0
41
1
10
10.4904620337311
20
3.60127786446455
30
0
41
1
10
10.882155837515
20
3.53420637375425
30
0
41
1
10
11.0791524480281
20
3.49581745343269
30
0
41
1
10
11.4729256284413
20
3.41046889300552
30
0
41
1
10
11.6691939849021
20
3.3636469087289
30
0
41
1
10
12.0606914246209
20
3.2626260369729
30
0
41
1
10
12.2559225511685
20
3.20843943814182
30
0
41
1
10
12.6454597157574
20
3.09311899639468
30
-2E-16
41
1
10
12.839740767027
20
3.03202234208314
30
-2E-16
41
1
10
13.4226368713887
20
2.83761853965612
30
-2E-16
41
1
10
13.8113974978566
20
2.69310878867617
30
-2E-16
41
1
10
14.3949975348114
20
2.45878653934503
30
-2E-16
41
1
10
14.5896299557291
20
2.37769432787164
30
-1E-16
41
1
10
14.9789804026999
20
2.20994546163408
30
-1E-16
41
1
10
15.1736979788183
20
2.12329100386472
30
-1E-16
41
1
10
15.5646294982388
20
1.94443006020424
30
-1E-16
41
1
10
15.7606821725266
20
1.85230479708827
30
-1E-16
41
1
10
16.1540526445932
20
1.66317107591982
30
-1E-16
41
1
10
16.351209667403
20
1.56621768280891
30
-1E-16
41
1
10
16.9401873934221
20
1.27151627109859
30
-1E-16
41
1
10
17.3310932317477
20
1.06908260440127
30
-1E-16
41
1
10
17.9162274034606
20
0.759297504851816
30
0
41
1
10
18.111136068174
20
0.655094818042926
30
0
41
1
10
18.5006398222036
20
0.444877488485304
30
0
41
1
10
18.6951849352333
20
0.338793070597831
30
0
41
1
10
19.0369440919929
20
0.153186731097463
30
0
41
1
10
19.183832443116
20
0.0734668582364009
30
0
41
1
10
19.3309204918368
20
-0.006279318615583
30
0
0
SPLINE
5
CC
100
AcDbEntity
8
1
62
256
6
ByLayer
370
18
48
1
60
0
100
AcDbSpline
70
4
71
3
72
28
73
24
40
0
40
0
40
0
40
0
40
0.0858682141163531
40
0.0858682141163531
40
0.314401160587262
40
0.314401160587262
40
0.371534397204988
40
0.371534397204988
40
0.428667633822715
40
0.428667633822715
40
0.542934107058167
40
0.542934107058167
40
0.600067343675895
40
0.600067343675895
40
0.657200580293623
40
0.657200580293623
40
0.771467053529082
40
0.771467053529082
40
0.885733526764541
40
0.885733526764541
40
0.942866763382271
40
0.942866763382271
40
1
40
1
40
1
40
1
41
1
10
31.208551511907
20
0.234895697687762
30
0
41
1
10
31.5044824489525
20
0.0742174562545017
30
0
41
1
10
31.7998167110206
20
-0.0867983970987893
30
0
41
1
10
32.8810308689435
20
-0.673582023575221
30
0
41
1
10
33.6664919760249
20
-1.09539767386087
30
1E-16
41
1
10
34.6607857247987
20
-1.59240946694788
30
1E-16
41
1
10
34.860137506903
20
-1.69021555240403
30
1E-16
41
1
10
35.2577256606136
20
-1.88087349995797
30
1E-16
41
1
10
35.4562917337769
20
-1.97389014884692
30
1E-16
41
1
10
36.0518092769239
20
-2.24521722333509
30
1E-16
41
1
10
36.4486012908427
20
-2.41589187093774
30
1E-16
41
1
10
37.0454792371918
20
-2.65351290957247
30
2E-16
41
1
10
37.2448037983058
20
-2.72966591361274
30
2E-16
41
1
10
37.6416832863449
20
-2.87438031773047
30
2E-16
41
1
10
37.8395649696605
20
-2.94307334009096
30
2E-16
41
1
10
38.4320167595939
20
-3.13771020778373
30
2E-16
41
1
10
38.8254167142349
20
-3.25235728905295
30
0
41
1
10
39.6118777363118
20
-3.44925638088174
30
0
41
1
10
40.0049244145541
20
-3.53146728622411
30
0
41
1
10
40.5959353924717
20
-3.62869983194352
30
0
41
1
10
40.7931809004281
20
-3.65676490413261
30
0
41
1
10
41.1884776092061
20
-3.70393457981845
30
0
41
1
10
41.3865497633228
20
-3.72263706191569
30
0
41
1
10
41.5851411012669
20
-3.73755026335331
30
0
0
SPLINE
5
CD
100
AcDbEntity
8
1
62
256
6
ByLayer
370
18
48
1
60
0
100
AcDbSpline
70
4
71
3
72
42
73
38
40
0
40
0
40
0
40
0
40
0.0572966181975851
40
0.0572966181975851
40
0.11459323639517
40
0.11459323639517
40
0.229186472790342
40
0.229186472790342
40
0.286483090987928
40
0.286483090987928
40
0.315131400086721
40
0.315131400086721
40
0.343779709185514
40
0.343779709185514
40
0.458372945580681
40
0.458372945580681
40
0.515669563778264
40
0.515669563778264
40
0.544317872877055
40
0.544317872877055
40
0.572966181975847
40
0.572966181975847
40
0.630262800173428
40
0.630262800173428
40
0.658911109272219
40
0.658911109272219
40
0.687559418371011
40
0.687559418371011
40
0.802152654766172
40
0.802152654766172
40
0.859449272963753
40
0.859449272963753
40
0.888097582062543
40
0.888097582062543
40
0.916745891161334
40
0.916745891161334
40
1
40
1
40
1
40
1
41
1
10
41.3599362031197
20
-3.91666016062942
30
0
41
1
10
40.9642092376344
20
-3.87930389275587
30
0
41
1
10
40.5692411956193
20
-3.82282692006763
30
0
41
1
10
39.7781493311039
20
-3.67316641929816
30
0
41
1
10
39.3809529044857
20
-3.57959554356319
30
0
41
1
10
38.1975455102913
20
-3.24972054150379
30
2E-16
41
1
10
37.416074409484
20
-2.96438668556425
30
2E-16
41
1
10
36.2382773136697
20
-2.45825395836263
30
2E-16
41
1
10
35.8448093625587
20
-2.27643677796752
30
1E-16
41
1
10
35.2510508932471
20
-1.98678849650034
30
1E-16
41
1
10
35.0526883952882
20
-1.8874814522986
30
1E-16
41
1
10
34.6579763102834
20
-1.68554047606011
30
1E-16
41
1
10
34.4611908929452
20
-1.58269639113675
30
1E-16
41
1
10
33.4792499453874
20
-1.0606235320729
30
1E-16
41
1
10
32.6999772959371
20
-0.617959646085041
30
0
41
1
10
31.5239530525255
20
0.0545893272113176
30
0
41
1
10
31.1308362009623
20
0.280335842312837
30
0
41
1
10
30.5373089493484
20
0.61746696977886
30
0
41
1
10
30.3388329406502
20
0.729534436809701
30
0
41
1
10
29.9430102010206
20
0.950878574287145
30
-1E-16
41
1
10
29.7453105709454
20
1.06035466141609
30
-1E-16
41
1
10
29.1523288537757
20
1.38433971437277
30
-1E-16
41
1
10
28.7573065114133
20
1.59464148757556
30
-1E-16
41
1
10
28.1629507962822
20
1.89776766822197
30
-1E-16
41
1
10
27.9646837996159
20
1.99663705106431
30
-1E-16
41
1
10
27.5699147187072
20
2.18830688569088
30
-1E-16
41
1
10
27.3730758800819
20
2.2812788064941
30
-1E-16
41
1
10
26.3907278671529
20
2.73078783785846
30
-2E-16
41
1
10
25.6111837985806
20
3.04186329055341
30
-2E-16
41
1
10
24.4347509989314
20
3.41556337331844
30
-2E-16
41
1
10
24.0413220763246
20
3.52455481621595
30
0
41
1
10
23.4471720364619
20
3.66229139505757
30
0
41
1
10
23.248748411537
20
3.70387885594468
30
0
41
1
10
22.8539695093568
20
3.77751025835855
30
0
41
1
10
22.6571457882859
20
3.80964868264775
30
0
41
1
10
21.8898245120083
20
3.91683280052899
30
0
41
1
10
21.3221730711914
20
3.95693422533569
30
0
41
1
10
20.7536652071288
20
3.95699931940376
30
0
0
SPLINE
5
CE
100
AcDbEntity
8
1
62
256
6
ByLayer
370
18
48
1
60
0
100
AcDbSpline
70
4
71
3
72
28
73
24
40
0
40
0
40
0
40
0
40
0.0255253296727577
40
0.0255253296727577
40
0.0783739178750942
40
0.0783739178750942
40
0.289768270684441
40
0.289768270684441
40
0.395465447089115
40
0.395465447089115
40
0.448314035291452
40
0.448314035291452
40
0.501162623493789
40
0.501162623493789
40
0.712556976303136
40
0.712556976303136
40
0.818254152707811
40
0.818254152707811
40
0.871102740910148
40
0.871102740910148
40
0.923951329112486
40
0.923951329112486
40
1
40
1
40
1
40
1
41
1
10
21.0979309751565
20
-3.76385407775302
30
0
41
1
10
21.0018774863988
20
-3.76645145818856
30
0
41
1
10
20.9058024588234
20
-3.76797150394682
30
0
41
1
10
20.6106990610045
20
-3.76935730285572
30
0
41
1
10
20.4112256493746
20
-3.76556997528547
30
0
41
1
10
19.416717844499
20
-3.7233550814943
30
0
41
1
10
18.6293128689167
20
-3.61553925325734
30
0
41
1
10
17.4457559129281
20
-3.35248345136856
30
0
41
1
10
17.0506914616676
20
-3.24793877440572
30
0
41
1
10
16.4553921689228
20
-3.06722714258154
30
2E-16
41
1
10
16.2562973380756
20
-3.00295865139788
30
2E-16
41
1
10
15.8578670839571
20
-2.867025604909
30
2E-16
41
1
10
15.6593144337961
20
-2.79563448480428
30
2E-16
41
1
10
14.6689807005136
20
-2.42288706175262
30
1E-16
41
1
10
13.884685052959
20
-2.0743343118063
30
1E-16
41
1
10
12.7044003839737
20
-1.50093455081969
30
1E-16
41
1
10
12.3103947529237
20
-1.30124669210502
30
1E-16
41
1
10
11.7165306349189
20
-0.992169875185425
30
1E-16
41
1
10
11.5180897858169
20
-0.887572049936637
30
1E-16
41
1
10
11.119882016084
20
-0.675816024650231
30
0
41
1
10
10.920508016101
20
-0.568864871353128
30
0
41
1
10
10.4365002601202
20
-0.307973655132287
30
0
41
1
10
10.1521155593159
20
-0.153417471931988
30
0
41
1
10
9.86838947361792
20
0.000799299710792
30
0
0
SPLINE
5
CF
100
AcDbEntity
8
1
62
256
6
ByLayer
370
18
48
1
60
0
100
AcDbSpline
70
4
71
3
72
30
73
26
40
0
40
0
40
0
40
0
40
0.197833456953205
40
0.197833456953205
40
0.258582915657662
40
0.258582915657662
40
0.266176597995719
40
0.269973439164748
40
0.271871859749262
40
0.271871859749262
40
0.27282107004152
40
0.27282107004152
40
0.273770280333777
40
0.273770280333777
40
0.281363962671835
40
0.281363962671835
40
0.288957645009893
40
0.288957645009893
40
0.319332374362125
40
0.319332374362125
40
0.440831291771053
40
0.440831291771053
40
0.683829126588908
40
0.683829126588908
40
1
40
1
40
1
40
1
41
1
10
7.54403657055525
20
0.725921695534453
30
0
41
1
10
7.47692046551046
20
0.73501127108463
30
0
41
1
10
7.40663614563147
20
0.736200587613439
30
0
41
1
10
7.30887293429785
20
0.728490497229416
30
0
41
1
10
7.2855647073134
20
0.725979344959825
30
0
41
1
10
7.2590248142325
20
0.722352508074721
30
0
41
1
10
7.25459484726241
20
0.721731332627513
30
0
41
1
10
7.24941510316634
20
0.72097732253232
30
0
41
1
10
7.24719280184075
20
0.72064789056455
30
0
41
1
10
7.24608125109631
20
0.720482126483603
30
0
41
1
10
7.2457152393601
20
0.720395653747715
30
0
41
1
10
7.24634538594836
20
0.719857541972601
30
0
41
1
10
7.24686730672124
20
0.719562294959843
30
0
41
1
10
7.25149484074146
20
0.71698541751482
30
0
41
1
10
7.2565092891266
20
0.714722425839852
30
0
41
1
10
7.26611579638339
20
0.710216588845555
30
0
41
1
10
7.27097273281757
20
0.707972362891411
30
0
41
1
10
7.29534328810468
20
0.696763472218663
30
0
41
1
10
7.315093145844
20
0.687831783712141
30
0
41
1
10
7.41386467164128
20
0.643146703793377
30
0
41
1
10
7.49340877467455
20
0.607365467923984
30
0
41
1
10
7.73192539364743
20
0.499584476093844
30
0
41
1
10
7.89111941768749
20
0.427202823566063
30
0
41
1
10
8.25750231487706
20
0.259346932893379
30
0
41
1
10
8.46476731992763
20
0.163540306392576
30
0
41
1
10
8.67199673582485
20
0.0667715088973182
30
0
0
SPLINE
5
D0
100
AcDbEntity
8
1
62
256
6
ByLayer
370
18
48
1
60
0
100
AcDbSpline
70
4
71
3
72
12
73
8
40
0
40
0
40
0
40
0
40
0.260333743920616
40
0.260333743920616
40
0.538467664522142
40
0.538467664522142
40
1
40
1
40
1
40
1
41
1
10
12.459478424445
20
-1.99791847986404
30
0
41
1
10
11.7841775520374
20
-2.11081045762592
30
0
41
1
10
11.1117931542727
20
-2.22035285418266
30
0
41
1
10
9.72867440344777
20
-2.43784302585206
30
0
41
1
10
9.01847421478419
20
-2.54515044505467
30
0
41
1
10
7.13997665921045
20
-2.81443251426239
30
0
41
1
10
5.97768068374671
20
-2.96583567019354
30
0
41
1
10
4.8275416532839
20
-3.09796481089023
30
2E-16
0
SPLINE
5
D1
100
AcDbEntity
8
1
62
256
6
ByLayer
370
18
48
1
60
0
100
AcDbSpline
70
4
71
3
72
16
73
12
40
0
40
0
40
0
40
0
40
0.500000000000003
40
0.500000000000003
40
0.625000000000002
40
0.625000000000002
40
0.750000000000001
40
0.750000000000001
40
0.875000000000001
40
0.875000000000001
40
1
40
1
40
1
40
1
41
1
10
41.621700105659
20
3.80540346699632
30
0
41
1
10
41.7781080678165
20
3.36541175951393
30
0
41
1
10
41.9332404185577
20
2.91866120802635
30
0
41
1
10
42.1362676756514
20
2.36425955461254
30
0
41
1
10
42.1771374359924
20
2.25351732077434
30
0
41
1
10
42.2602940563529
20
2.03273255878668
30
0
41
1
10
42.3039373402856
20
1.92362575324574
30
0
41
1
10
42.394949765702
20
1.7131011969459
30
0
41
1
10
42.4425451161406
20
1.61106389606925
30
0
41
1
10
42.5428913037711
20
1.4136404497325
30
0
41
1
10
42.5959468274479
20
1.3178286431797
30
0
41
1
10
42.6503014886607
20
1.22815064503504
30
0
0
SPLINE
5
D2
100
AcDbEntity
8
1
62
256
6
ByLayer
370
18
48
1
60
0
100
AcDbSpline
70
4
71
3
72
16
73
12
40
0
40
0
40
0
40
0
40
0.268693490944302
40
0.268693490944302
40
0.562339528459146
40
0.562339528459146
40
0.709162547216568
40
0.709162547216568
40
0.85598556597399
40
0.85598556597399
40
1
40
1
40
1
40
1
41
1
10
3.60203545585353
20
3.74803075245649
30
0
41
1
10
3.60202255927925
20
3.74838890327169
30
0
41
1
10
3.60201016070462
20
3.73366946831399
30
0
41
1
10
3.60198478934012
20
3.67152127397026
30
0
41
1
10
3.60197193824632
20
3.62134271654568
30
0
41
1
10
3.60195245891413
20
3.52022585410589
30
0
41
1
10
3.60194595259853
20
3.48234201821629
30
0
41
1
10
3.60193271403574
20
3.39825701052203
30
0
41
1
10
3.60192596409121
20
3.35192212908805
30
0
41
1
10
3.60191224863126
20
3.25250144984011
30
0
41
1
10
3.60190529575536
20
3.19963002710964
30
0
41
1
10
3.60189807225834
20
3.14310563398058
30
-1E-16
0
SPLINE
5
D3
100
AcDbEntity
8
1
62
256
6
ByLayer
370
18
48
1
60
0
100
AcDbSpline
70
4
71
3
72
8
73
4
40
0
40
0
40
0
40
0
40
1
40
1
40
1
40
1
41
1
10
3.55222061350912
20
3.12149515314636
30
-2E-16
41
1
10
3.52144604617899
20
3.13220933114567
30
-2E-16
41
1
10
3.501731494041
20
3.15282106846382
30
-2E-16
41
1
10
3.501731494041
20
3.17386970268453
30
-2E-16
0
SPLINE
5
D4
100
AcDbEntity
8
1
62
256
6
ByLayer
370
18
48
1
60
0
100
AcDbSpline
70
4
71
3
72
14
73
10
40
0
40
0
40
0
40
0
40
0.264603572740625
40
0.264603572740625
40
0.632301786370311
40
0.632301786370311
40
0.816150893185155
40
0.816150893185155
40
1
40
1
40
1
40
1
41
1
10
14.5617084442521
20
2.92902327279816
30
-2E-16
41
1
10
14.8534049780952
20
3.04105251319331
30
-2E-16
41
1
10
15.1446703140643
20
3.14512625792102
30
-2E-16
41
1
10
15.8410179540599
20
3.37334426572062
30
-2E-16
41
1
10
16.2461539878733
20
3.48958143364732
30
0
41
1
10
16.8566120991075
20
3.63662806728945
30
0
41
1
10
17.0605462230776
20
3.68110328711779
30
0
41
1
10
17.4696932144533
20
3.76056570132315
30
0
41
1
10
17.6753251352146
20
3.79561192635165
30
0
41
1
10
17.8799999999894
20
3.82545609357629
30
0
0
SPLINE
5
D5
100
AcDbEntity
8
1
62
256
6
ByLayer
370
18
48
1
60
0
100
AcDbSpline
70
4
71
3
72
30
73
26
40
0
40
0
40
0
40
0
40
0.106843308872592
40
0.106843308872592
40
0.213686617745185
40
0.213686617745185
40
0.320529926617777
40
0.320529926617777
40
0.427373235490369
40
0.427373235490369
40
0.480794889926665
40
0.480794889926665
40
0.534216544362961
40
0.534216544362961
40
0.641059853235551
40
0.641059853235551
40
0.74790316210814
40
0.74790316210814
40
0.854746470980729
40
0.854746470980729
40
0.908168125417025
40
0.908168125417025
40
0.961589779853321
40
0.961589779853321
40
1
40
1
40
1
40
1
41
1
10
41.130828079449
20
-0.0430206678542788
30
0
41
1
10
40.7409672529364
20
0.169821807457026
30
0
41
1
10
40.3530394960007
20
0.381276225135963
30
0
41
1
10
39.5786606557633
20
0.797103573953564
30
0
41
1
10
39.1922734600261
20
1.0015669031568
30
-1E-16
41
1
10
38.4195351358987
20
1.39986292067169
30
-1E-16
41
1
10
38.0334696409727
20
1.59369762007486
30
-1E-16
41
1
10
37.2576673980469
20
1.96557381711386
30
-1E-16
41
1
10
36.8680776279305
20
2.14374041730068
30
-1E-16
41
1
10
36.2798499355791
20
2.39621618393846
30
-1E-16
41
1
10
36.0829342835054
20
2.47791229878226
30
-2E-16
41
1
10
35.6915026091402
20
2.63403704635968
30
-2E-16
41
1
10
35.4964023701893
20
2.70877193953407
30
-2E-16
41
1
10
34.9118581049044
20
2.92296968131887
30
-2E-16
41
1
10
34.5234278066598
20
3.05226188756802
30
-2E-16
41
1
10
33.7480714283062
20
3.28031299158414
30
0
41
1
10
33.3614417082263
20
3.37821736762936
30
0
41
1
10
32.5854412982301
20
3.54405626621769
30
0
41
1
10
32.1965202278907
20
3.61126566645427
30
0
41
1
10
31.6103868002666
20
3.68558420807278
30
0
41
1
10
31.4145815834052
20
3.70569099324229
30
0
41
1
10
31.0217911292663
20
3.73610628757237
30
0
41
1
10
30.8254785431179
20
3.74710441485559
30
0
41
1
10
30.4888401067307
20
3.75919356090671
30
0
41
1
10
30.3482165791614
20
3.76213051648207
30
0
41
1
10
30.2077818485792
20
3.76281332441641
30
0
0
SPLINE
5
D6
100
AcDbEntity
8
1
62
256
6
ByLayer
370
18
48
1
60
0
100
AcDbSpline
70
4
71
3
72
8
73
4
40
0
40
0
40
0
40
0
40
1
40
1
40
1
40
1
41
1
10
41.3599362031185
20
-3.91666016062726
30
0
41
1
10
41.4281322434013
20
-3.87840643241637
30
0
41
1
10
41.4965209094152
20
-3.83925078830484
30
0
41
1
10
41.5651350027342
20
-3.79921383415527
30
0
0
SPLINE
5
D7
100
AcDbEntity
8
1
62
256
6
ByLayer
370
18
48
1
60
0
100
AcDbSpline
70
4
71
3
72
10
73
6
40
0
40
0
40
0
40
0
40
0.5
40
0.5
40
1
40
1
40
1
40
1
41
1
10
42.0025221528418
20
1.08772469487747
30
0
41
1
10
42.1117726801101
20
1.10461285785908
30
0
41
1
10
42.2206604364807
20
1.12391582974314
30
0
41
1
10
42.4373633675187
20
1.16966148582838
30
0
41
1
10
42.5448323659704
20
1.19600312849164
30
0
41
1
10
42.6503014886607
20
1.22815064503504
30
0
0
SPLINE
5
D8
100
AcDbEntity
8
1
62
256
6
ByLayer
370
18
48
1
60
0
100
AcDbSpline
70
4
71
3
72
16
73
12
40
0
40
0
40
0
40
0
40
0.500000000000002
40
0.500000000000002
40
0.625000000000002
40
0.625000000000002
40
0.750000000000001
40
0.750000000000001
40
0.875000000000001
40
0.875000000000001
40
1
40
1
40
1
40
1
41
1
10
41.6217001056591
20
-3.80540346699632
30
0
41
1
10
41.7781080678165
20
-3.36541175951388
30
0
41
1
10
41.9332404185577
20
-2.91866120802629
30
0
41
1
10
42.1362676756515
20
-2.36425955461249
30
0
41
1
10
42.1771374359924
20
-2.25351732077431
30
0
41
1
10
42.260294056353
20
-2.03273255878662
30
0
41
1
10
42.3039373402856
20
-1.92362575324569
30
0
41
1
10
42.394949765702
20
-1.7131011969459
30
0
41
1
10
42.4425451161406
20
-1.61106389606925
30
0
41
1
10
42.5428913037711
20
-1.41364044973247
30
0
41
1
10
42.5959468274479
20
-1.31782864317967
30
0
41
1
10
42.6503014886607
20
-1.22815064503502
30
0
0
SPLINE
5
D9
100
AcDbEntity
8
1
62
256
6
ByLayer
370
18
48
1
60
0
100
AcDbSpline
70
4
71
3
72
8
73
4
40
0
40
0
40
0
40
0
40
1
40
1
40
1
40
1
41
1
10
42.6503014886607
20
1.22815064503504
30
0
41
1
10
42.7688286490541
20
0.892965551286949
30
0
41
1
10
42.8841903041275
20
0.55664804117643
30
0
41
1
10
42.9963390010105
20
0.219181139086004
30
0
0
SPLINE
5
DA
100
AcDbEntity
8
1
62
256
6
ByLayer
370
18
48
1
60
0
100
AcDbSpline
70
4
71
3
72
44
73
40
40
0
40
0
40
0
40
0
40
0.0211972364390665
40
0.0211972364390665
40
0.143547581884179
40
0.143547581884179
40
0.204722754606736
40
0.204722754606736
40
0.235310340968014
40
0.235310340968014
40
0.265897927329293
40
0.265897927329293
40
0.32707310005185
40
0.32707310005185
40
0.357660686413129
40
0.357660686413129
40
0.388248272774407
40
0.388248272774407
40
0.449423445496964
40
0.449423445496964
40
0.480011031858243
40
0.480011031858243
40
0.510598618219522
40
0.510598618219522
40
0.632948963664641
40
0.632948963664641
40
0.6941241363872
40
0.6941241363872
40
0.72471172274848
40
0.72471172274848
40
0.75529930910976
40
0.75529930910976
40
0.87764965455488
40
0.87764965455488
40
0.93882482727744
40
0.93882482727744
40
0.96941241363872
40
0.96941241363872
40
1
40
1
40
1
40
1
41
1
10
22.8697186341568
20
-3.77327860062917
30
0
41
1
10
22.7331561212081
20
-3.796800385484
30
0
41
1
10
22.5968380097682
20
-3.81807284113469
30
0
41
1
10
21.6749303229702
20
-3.94685053208673
30
0
41
1
10
20.8952711832122
20
-3.98150755382633
30
0
41
1
10
19.7189807311926
20
-3.91929521131971
30
0
41
1
10
19.325620988986
20
-3.87953509103224
30
0
41
1
10
18.7315847123025
20
-3.79132645368688
30
0
41
1
10
18.5330278959343
20
-3.75709678507735
30
0
41
1
10
18.1371095523168
20
-3.67966947811306
30
0
41
1
10
17.9393757392094
20
-3.63643909454899
30
0
41
1
10
17.346292070448
20
-3.49363964676849
30
0
41
1
10
16.9510070203056
20
-3.38101298618668
30
2E-16
41
1
10
16.3562774708574
20
-3.18749897539115
30
2E-16
41
1
10
16.1578379588316
20
-3.11891584345673
30
2E-16
41
1
10
15.7618410895498
20
-2.97459080209444
30
2E-16
41
1
10
15.5640580644666
20
-2.89877810401805
30
2E-16
41
1
10
14.9708294391991
20
-2.66105153267907
30
2E-16
41
1
10
14.5755840076255
20
-2.48873716957175
30
2E-16
41
1
10
13.9806627178735
20
-2.21259352662059
30
1E-16
41
1
10
13.782409187576
20
-2.11774751183418
30
1E-16
41
1
10
13.3875714776323
20
-1.9239380138429
30
1E-16
41
1
10
13.1907061138781
20
-1.82484353277857
30
1E-16
41
1
10
12.2083277267926
20
-1.31983113828912
30
1E-16
41
1
10
11.4284772200604
20
-0.885565811939841
30
1E-16
41
1
10
10.2508159992071
20
-0.218098750473388
30
0
41
1
10
9.85715580957296
20
0.0074399454573211
30
0
41
1
10
9.26262780931691
20
0.346199917488661
30
0
41
1
10
9.06425089652078
20
0.45887985683413
30
0
41
1
10
8.66934184866582
20
0.681707913888346
30
0
41
1
10
8.4724269217225
20
0.792073349385703
30
0
41
1
10
7.48973149746416
20
1.33733333499413
30
-1E-16
41
1
10
6.7098170638958
20
1.75289724944938
30
-1E-16
41
1
10
5.53253060899584
20
2.31780543226518
30
-1E-16
41
1
10
5.13891317223823
20
2.49644501067857
30
-2E-16
41
1
10
4.54448703043528
20
2.746330587823
30
-2E-16
41
1
10
4.34581556733252
20
2.82653221502247
30
-2E-16
41
1
10
3.94906459924636
20
2.97950337282606
30
-2E-16
41
1
10
3.75071041506496
20
3.05239084886469
30
-2E-16
41
1
10
3.55222061350909
20
3.12149515314636
30
-2E-16
0
SPLINE
5
DB
100
AcDbEntity
8
1
62
256
6
ByLayer
370
18
48
1
60
0
100
AcDbSpline
70
4
71
3
72
8
73
4
40
0
40
0
40
0
40
0
40
1
40
1
40
1
40
1
41
1
10
41.0289307111614
20
0.0252289209551009
30
0
41
1
10
41.0204385902502
20
0.212758447787024
30
0
41
1
10
41.0187174370448
20
0.398313500533362
30
0
41
1
10
41.0257768568446
20
0.581881978497876
30
0
0
SPLINE
5
DC
100
AcDbEntity
8
1
62
256
6
ByLayer
370
18
48
1
60
0
100
AcDbSpline
70
4
71
3
72
30
73
26
40
0
40
0
40
0
40
0
40
0.125000000000004
40
0.125000000000004
40
0.187500000000006
40
0.187500000000006
40
0.250000000000008
40
0.250000000000008
40
0.31250000000001
40
0.31250000000001
40
0.375000000000012
40
0.375000000000012
40
0.437500000000014
40
0.437500000000014
40
0.500000000000016
40
0.500000000000016
40
0.562500000000018
40
0.562500000000018
40
0.62500000000002
40
0.62500000000002
40
0.750000000000014
40
0.750000000000014
40
0.875000000000007
40
0.875000000000007
40
1
40
1
40
1
40
1
41
1
10
42.9446380877645
20
0.0477921774676702
30
0
41
1
10
42.9254207558868
20
-0.0155700523029623
30
0
41
1
10
42.9033265008592
20
-0.07748368121824
30
0
41
1
10
42.8657072662025
20
-0.16802503623245
30
0
41
1
10
42.8522955294002
20
-0.198047881370314
30
0
41
1
10
42.8245794648683
20
-0.255695544378
30
0
41
1
10
42.8102683447017
20
-0.283381138886455
30
0
41
1
10
42.7807608791396
20
-0.336405140488409
30
0
41
1
10
42.7655651414784
20
-0.361745088593892
30
0
41
1
10
42.7342430209062
20
-0.409869964179023
30
0
41
1
10
42.7181535043875
20
-0.432545770422451
30
0
41
1
10
42.6863402728714
20
-0.473350502124106
30
0
41
1
10
42.6704556058168
20
-0.491737192482702
30
0
41
1
10
42.6387090285579
20
-0.524395589040125
30
0
41
1
10
42.6227024408797
20
-0.538756761207111
30
0
41
1
10
42.5917184303877
20
-0.562305474879508
30
0
41
1
10
42.5766665257626
20
-0.571610418761509
30
0
41
1
10
42.547327468511
20
-0.585474871375254
30
0
41
1
10
42.5329335135005
20
-0.590035681583231
30
0
41
1
10
42.4917818291772
20
-0.596435786666092
30
0
41
1
10
42.466717352657
20
-0.591200913378685
30
0
41
1
10
42.4211519516455
20
-0.564611887402521
30
0
41
1
10
42.4010894769512
20
-0.543685813192042
30
0
41
1
10
42.364769884772
20
-0.489280697128436
30
0
41
1
10
42.3485676232708
20
-0.455669290058921
30
0
41
1
10
42.3342409218079
20
-0.417425795586581
30
0
0
SPLINE
5
DD
100
AcDbEntity
8
1
62
256
6
ByLayer
370
18
48
1
60
0
100
AcDbSpline
70
4
71
3
72
10
73
6
40
0
40
0
40
0
40
0
40
0.777013104377245
40
0.777013104377245
40
1
40
1
40
1
40
1
41
1
10
17.88
20
-3.80874391402497
30
0
41
1
10
18.3701351567613
20
-3.88455248045108
30
0
41
1
10
18.859224882883
20
-3.93150981734996
30
0
41
1
10
19.4888256526564
20
-3.95376852398709
30
0
41
1
10
19.6293142012529
20
-3.95628326404361
30
0
41
1
10
19.7698401239518
20
-3.95635716571795
30
0
0
SPLINE
5
DE
100
AcDbEntity
8
1
62
256
6
ByLayer
370
18
48
1
60
0
100
AcDbSpline
70
4
71
3
72
8
73
4
40
0
40
0
40
0
40
0
40
1
40
1
40
1
40
1
41
1
10
40.3700280632838
20
3.91448084661525
30
0
41
1
10
40.7049870255144
20
3.94646091816193
30
0
41
1
10
41.039878470643
20
3.96470892429949
30
0
41
1
10
41.3747384970577
20
3.96899209676337
30
0
0
SPLINE
5
DF
100
AcDbEntity
8
1
62
256
6
ByLayer
370
18
48
1
60
0
100
AcDbSpline
70
4
71
3
72
18
73
14
40
0
40
0
40
0
40
0
40
0.237393907365541
40
0.237393907365541
40
0.433280560953218
40
0.433280560953218
40
0.630993710761039
40
0.630993710761039
40
0.802238877186884
40
0.802238877186884
40
0.966545738815105
40
0.966545738815105
40
1
40
1
40
1
40
1
41
1
10
41.5851411012667
20
-3.73755026335329
30
0
41
1
10
41.5852259814925
20
-3.73772474716168
30
0
41
1
10
41.5852524644038
20
-3.73808616324828
30
0
41
1
10
41.5851655165711
20
-3.73910832356751
30
0
41
1
10
41.5850739265319
20
-3.73971925087665
30
0
41
1
10
41.5847802907436
20
-3.74119515948544
30
0
41
1
10
41.5845716219393
20
-3.74208783810028
30
0
41
1
10
41.5840990261951
20
-3.7438816783617
30
0
41
1
10
41.5838398384241
20
-3.74478981414845
30
0
41
1
10
41.5833014039168
20
-3.74655559615883
30
0
41
1
10
41.5830170224529
20
-3.74743523099878
30
0
41
1
10
41.5826749643681
20
-3.74844143168957
30
0
41
1
10
41.5826164236083
20
-3.74861185958912
30
0
41
1
10
41.5825578857219
20
-3.7487805667925
30
0
0
SPLINE
5
E0
100
AcDbEntity
8
1
62
256
6
ByLayer
370
18
48
1
60
0
100
AcDbSpline
70
4
71
3
72
14
73
10
40
0
40
0
40
0
40
0
40
0.288416536491421
40
0.288416536491421
40
0.576833072982842
40
0.576833072982842
40
0.865249609474263
40
0.865249609474263
40
1
40
1
40
1
40
1
41
1
10
41.6144630164957
20
3.8102796047136
30
0
41
1
10
41.1203449623472
20
3.81515546848698
30
0
41
1
10
40.6261228234965
20
3.79067950404507
30
0
41
1
10
39.6362811965955
20
3.6841052237956
30
0
41
1
10
39.1408352168616
20
3.60190607990023
30
0
41
1
10
38.1521860772852
20
3.38411884718857
30
0
41
1
10
37.6586904741694
20
3.248702728843
30
-2E-16
41
1
10
36.9324365723827
20
3.01444147011745
30
-2E-16
41
1
10
36.7011569795657
20
2.93457186893579
30
-2E-16
41
1
10
36.469891923111
20
2.84992201243631
30
-2E-16
0
SPLINE
5
E1
100
AcDbEntity
8
1
62
256
6
ByLayer
370
18
48
1
60
0
100
AcDbSpline
70
4
71
3
72
8
73
4
40
0
40
0
40
0
40
0
40
1
40
1
40
1
40
1
41
1
10
41.6144630164957
20
3.81027960471383
30
0
41
1
10
41.6168753463436
20
3.80865447257972
30
0
41
1
10
41.61928770917
20
3.80702909341039
30
0
41
1
10
41.6217001056592
20
3.80540346699607
30
0
0
SPLINE
5
E2
100
AcDbEntity
8
1
62
256
6
ByLayer
370
18
48
1
60
0
100
AcDbSpline
70
4
71
3
72
54
73
50
40
0
40
0
40
0
40
0
40
0.0181654149602373
40
0.0181654149602373
40
0.100268927730948
40
0.100268927730948
40
0.141320684116303
40
0.141320684116303
40
0.161846562308981
40
0.161846562308981
40
0.182372440501658
40
0.182372440501658
40
0.223424196887014
40
0.223424196887014
40
0.264475953272371
40
0.264475953272371
40
0.305527709657727
40
0.305527709657727
40
0.326053587850405
40
0.326053587850405
40
0.346579466043083
40
0.346579466043083
40
0.387631222428439
40
0.387631222428439
40
0.428682978813793
40
0.428682978813793
40
0.469734735199148
40
0.469734735199148
40
0.510786491584502
40
0.510786491584502
40
0.67499351712592
40
0.67499351712592
40
0.695519395318597
40
0.695519395318597
40
0.716045273511274
40
0.716045273511274
40
0.757097029896628
40
0.757097029896628
40
0.798148786281982
40
0.798148786281982
40
0.839200542667336
40
0.839200542667336
40
0.859726420860013
40
0.859726420860013
40
0.88025229905269
40
0.88025229905269
40
0.921304055438044
40
0.921304055438044
40
1
40
1
40
1
40
1
41
1
10
37.0074592359877
20
-2.63995378699306
30
2E-16
41
1
10
36.839398782291
20
-2.7117794291552
30
2E-16
41
1
10
36.6717861368011
20
-2.78103191794529
30
2E-16
41
1
10
35.7490300812367
20
-3.14925354372292
30
2E-16
41
1
10
35.0006439008125
20
-3.39646919155814
30
2E-16
41
1
10
33.8745412867487
20
-3.6732209385456
30
0
41
1
10
33.4984011060577
20
-3.7496782657619
30
0
41
1
10
32.9317715743409
20
-3.83940387682057
30
0
41
1
10
32.7424309492029
20
-3.86511165475576
30
0
41
1
10
32.3624567006402
20
-3.90784269113459
30
0
41
1
10
32.1723053812605
20
-3.9247914591231
30
0
41
1
10
31.6043979472439
20
-3.96216464809723
30
0
41
1
10
31.2281159971697
20
-3.96928554963833
30
0
41
1
10
30.4767937269262
20
-3.94849656307679
30
0
41
1
10
30.10190212604
20
-3.92063675600875
30
0
41
1
10
29.3515972859335
20
-3.83052733897156
30
0
41
1
10
28.9758729272975
20
-3.76840590602831
30
0
41
1
10
28.4100617007869
20
-3.64996218508762
30
0
41
1
10
28.2211178539819
20
-3.60623747870554
30
0
41
1
10
27.8420255913851
20
-3.5105416456677
30
0
41
1
10
27.6515068974464
20
-3.45843376389803
30
0
41
1
10
27.0822771970601
20
-3.29134320604851
30
2E-16
41
1
10
26.7051957296182
20
-3.16520335020223
30
2E-16
41
1
10
25.9531241050739
20
-2.88691195466123
30
2E-16
41
1
10
25.5779315717341
20
-2.73503277644161
30
2E-16
41
1
10
24.8277328377477
20
-2.4078513031186
30
1E-16
41
1
10
24.4524362563441
20
-2.23290771319148
30
1E-16
41
1
10
23.6988672209684
20
-1.86388112466534
30
1E-16
41
1
10
23.3206774019212
20
-1.66910019795645
30
1E-16
41
1
10
21.418504334017
20
-0.657525527111147
30
0
41
1
10
19.9370736558852
20
0.234695468298554
30
0
41
1
10
18.2281738010979
20
1.17567721841769
30
-1E-16
41
1
10
18.0376690368404
20
1.27929336085771
30
-1E-16
41
1
10
17.6585432368401
20
1.48222371789598
30
-1E-16
41
1
10
17.4694835010441
20
1.58177577251178
30
-1E-16
41
1
10
16.9037645663816
20
1.87470435221988
30
-1E-16
41
1
10
16.5281483517873
20
2.06163889939921
30
-1E-16
41
1
10
15.7772504934499
20
2.41495387503559
30
-1E-16
41
1
10
15.4023029738873
20
2.58181778473505
30
-2E-16
41
1
10
14.6504240698617
20
2.89168661835166
30
-2E-16
41
1
10
14.2734336754562
20
3.03465408675532
30
-2E-16
41
1
10
13.7050659326715
20
3.22917360942265
30
-2E-16
41
1
10
13.514648834574
20
3.29073964165744
30
-2E-16
41
1
10
13.1346181532216
20
3.40591533372145
30
-2E-16
41
1
10
12.9451635922564
20
3.45948390296715
30
0
41
1
10
12.3781453571617
20
3.60807457871664
30
0
41
1
10
12.0021894594601
20
3.69114307716248
30
0
41
1
10
10.9064520071123
20
3.88415304215411
30
0
41
1
10
10.1883524794623
20
3.94955068820559
30
0
41
1
10
9.46386975690078
20
3.94993402678941
30
0
0
SPLINE
5
E3
100
AcDbEntity
8
1
62
256
6
ByLayer
370
18
48
1
60
0
100
AcDbSpline
70
4
71
3
72
26
73
22
40
0
40
0
40
0
40
0
40
0.10820486491442
40
0.10820486491442
40
0.16093633335248
40
0.16093633335248
40
0.21366780179054
40
0.21366780179054
40
0.319130738666662
40
0.319130738666662
40
0.530056612418905
40
0.530056612418905
40
0.582788080856966
40
0.582788080856966
40
0.635519549295027
40
0.635519549295027
40
0.740982486171149
40
0.740982486171149
40
0.951908359923396
40
0.951908359923396
40
1
40
1
40
1
40
1
41
1
10
9.51047518907558
20
0.206081249137327
30
0
41
1
10
9.91438514946839
20
-0.0125487344138833
30
0
41
1
10
10.3191808415282
20
-0.232749747493585
30
0
41
1
10
10.9247895461538
20
-0.558416952356993
30
0
41
1
10
11.1241426099586
20
-0.665117271899931
30
0
41
1
10
11.5223169915086
20
-0.876403990311985
30
1E-16
41
1
10
11.7207437759382
20
-0.980782845415689
30
1E-16
41
1
10
12.3145728649573
20
-1.2892478754656
30
1E-16
41
1
10
12.7085666522923
20
-1.48858704309788
30
1E-16
41
1
10
13.8888118928453
20
-2.06114230698088
30
1E-16
41
1
10
14.6730890665138
20
-2.4093763392535
30
1E-16
41
1
10
15.6633498113797
20
-2.78206314284628
30
2E-16
41
1
10
15.8618855361297
20
-2.85345783696181
30
2E-16
41
1
10
16.2602764258423
20
-2.98942966559821
30
2E-16
41
1
10
16.4593580306375
20
-3.05373592335354
30
2E-16
41
1
10
17.0546172784062
20
-3.23461345328477
30
0
41
1
10
17.4496609520854
20
-3.33933925075186
30
0
41
1
10
18.6331639688975
20
-3.60312974646413
30
0
41
1
10
19.4205345454269
20
-3.71169134881103
30
0
41
1
10
20.3974509323457
20
-3.75435955056966
30
0
41
1
10
20.5793104195618
20
-3.75842315217898
30
0
41
1
10
20.7608491873041
20
-3.75857485251413
30
0
0
SPLINE
5
E4
100
AcDbEntity
8
1
62
256
6
ByLayer
370
18
48
1
60
0
100
AcDbSpline
70
4
71
3
72
56
73
52
40
0
40
0
40
0
40
0
40
0.0278041279922789
40
0.0278041279922789
40
0.0771041048677864
40
0.0771041048677864
40
0.126404081743294
40
0.126404081743294
40
0.151054070181047
40
0.151054070181047
40
0.175704058618801
40
0.175704058618801
40
0.225004035494308
40
0.225004035494308
40
0.249654023932061
40
0.249654023932061
40
0.274304012369814
40
0.274304012369814
40
0.323603989245321
40
0.323603989245321
40
0.348253977683073
40
0.348253977683073
40
0.372903966120827
40
0.372903966120827
40
0.471503919871838
40
0.471503919871838
40
0.496153908309591
40
0.496153908309591
40
0.520803896747343
40
0.520803896747343
40
0.570103873622848
40
0.570103873622848
40
0.594753862060601
40
0.594753862060601
40
0.619403850498353
40
0.619403850498353
40
0.668703827373858
40
0.668703827373858
40
0.718003804249362
40
0.718003804249362
40
0.767303781124867
40
0.767303781124867
40
0.865903734875875
40
0.865903734875875
40
0.915203711751379
40
0.915203711751379
40
0.939853700189131
40
0.939853700189131
40
0.964503688626883
40
0.964503688626883
40
1
40
1
40
1
40
1
41
1
10
6.51182956455887
20
3.79544117230751
30
0
41
1
10
6.73152190753956
20
3.83004941939396
30
0
41
1
10
6.95079686110358
20
3.85885048859762
30
0
41
1
10
7.55830106179954
20
3.92255526458658
30
0
41
1
10
7.94570805222909
20
3.94501784466726
30
0
41
1
10
8.72214428653922
20
3.95247749043472
30
0
41
1
10
9.11162246260378
20
3.93759032023888
30
0
41
1
10
9.69858840183491
20
3.88708203011359
30
0
41
1
10
9.89512585777632
20
3.86547508601453
30
0
41
1
10
10.2862641846186
20
3.81305148228753
30
0
41
1
10
10.4810291249141
20
3.78220626720289
30
0
41
1
10
11.0645376907258
20
3.6768046604179
30
0
41
1
10
11.4525670119706
20
3.58959847324505
30
0
41
1
10
12.0333594738151
20
3.43416446521664
30
0
41
1
10
12.226761770235
20
3.37823827231389
30
-2E-16
41
1
10
12.6133341390737
20
3.25820640350958
30
-2E-16
41
1
10
12.8064646281605
20
3.19403999463262
30
-2E-16
41
1
10
13.3871857020291
20
2.99090385139451
30
-2E-16
41
1
10
13.7762089222949
20
2.8416052525327
30
-2E-16
41
1
10
14.3624789953557
20
2.59651964040381
30
-2E-16
41
1
10
14.5588431312682
20
2.51113263777896
30
-2E-16
41
1
10
14.9502511457577
20
2.33423603537702
30
-1E-16
41
1
10
15.1450688289082
20
2.24279078876992
30
-1E-16
41
1
10
16.1181080943059
20
1.77584934828732
30
-1E-16
41
1
10
16.8902774103485
20
1.36702217558627
30
-1E-16
41
1
10
17.8582225077175
20
0.829861857360271
30
-1E-16
41
1
10
18.0520250666777
20
0.721251787687294
30
0
41
1
10
18.4400619390223
20
0.501637217774402
30
0
41
1
10
18.6341801737812
20
0.390410590421084
30
0
41
1
10
19.2192308600844
20
0.0567919599576783
30
0
41
1
10
19.6129153769803
20
-0.167292960216827
30
0
41
1
10
20.1999902333064
20
-0.500396664605631
30
0
41
1
10
20.3954269714986
20
-0.611061891864608
30
0
41
1
10
20.7858669418391
20
-0.831498452848336
30
1E-16
41
1
10
20.980963040535
20
-0.941104386978282
30
1E-16
41
1
10
21.5676843587867
20
-1.26499747086575
30
1E-16
41
1
10
21.9609316308262
20
-1.47520637418052
30
1E-16
41
1
10
22.7435640327319
20
-1.87984481047778
30
1E-16
41
1
10
23.1331074682891
20
-2.07562643480009
30
1E-16
41
1
10
23.9154948829508
20
-2.4435401687553
30
1E-16
41
1
10
24.3089197137333
20
-2.61616826716025
30
2E-16
41
1
10
25.4783098043703
20
-3.09240892920636
30
2E-16
41
1
10
26.2480395888134
20
-3.35635326992659
30
2E-16
41
1
10
27.4099568315463
20
-3.65036304493825
30
0
41
1
10
27.7983583898823
20
-3.73174142689237
30
0
41
1
10
28.3832250699037
20
-3.82784344644023
30
0
41
1
10
28.5787026795809
20
-3.85553853881586
30
0
41
1
10
28.9700272793348
20
-3.90180879528487
30
0
41
1
10
29.1650424520283
20
-3.92011578056892
30
0
41
1
10
29.6404528347571
20
-3.95310067864779
30
0
41
1
10
29.9203419788288
20
-3.96280826007134
30
0
41
1
10
30.199565225671
20
-3.96291748949372
30
0
0
SPLINE
5
E5
100
AcDbEntity
8
1
62
256
6
ByLayer
370
18
48
1
60
0
100
AcDbSpline
70
2053
71
3
72
52
73
48
40
0
40
0
40
0
40
0
40
0.0624999999999986
40
0.0624999999999986
40
0.124999999999997
40
0.124999999999997
40
0.187499999999996
40
0.187499999999996
40
0.249999999999994
40
0.249999999999994
40
0.281249999999993
40
0.281249999999993
40
0.312499999999992
40
0.312499999999992
40
0.343749999999991
40
0.343749999999991
40
0.37499999999999
40
0.37499999999999
40
0.406249999999988
40
0.406249999999988
40
0.437499999999987
40
0.437499999999987
40
0.49999999999999
40
0.49999999999999
40
0.562499999999992
40
0.562499999999992
40
0.593749999999993
40
0.593749999999993
40
0.624999999999994
40
0.624999999999994
40
0.656249999999996
40
0.656249999999996
40
0.687499999999997
40
0.687499999999997
40
0.718749999999998
40
0.718749999999998
40
0.749999999999999
40
0.749999999999999
40
0.812500000000001
40
0.812500000000001
40
0.843750000000001
40
0.843750000000001
40
0.875000000000001
40
0.875000000000001
40
0.9375
40
0.9375
40
1
40
1
40
1
40
1
41
1
10
42.1050997610198
20
-1.37758909842303
30
1E-16
41
1
10
42.077610266455
20
-1.40827131888247
30
1E-16
41
1
10
42.0518518630142
20
-1.4280980825703
30
1E-16
41
1
10
42.0028129793082
20
-1.44664479484174
30
1E-16
41
1
10
41.9807950311177
20
-1.44483810919851
30
1E-16
41
1
10
41.9409076688095
20
-1.41827155117937
30
1E-16
41
1
10
41.9240221478016
20
-1.39416652754159
30
1E-16
41
1
10
41.8962473647506
20
-1.32289177321016
30
1E-16
41
1
10
41.8860482644483
20
-1.27755167542074
30
1E-16
41
1
10
41.8773391896122
20
-1.19418112038309
30
1E-16
41
1
10
41.8756687856938
20
-1.16472262176922
30
1E-16
41
1
10
41.8749654095455
20
-1.10268044687771
30
1E-16
41
1
10
41.8759656716576
20
-1.0695727795418
30
1E-16
41
1
10
41.8810017748526
20
-1.00216308833123
30
1E-16
41
1
10
41.884969472177
20
-0.968205012563857
30
1E-16
41
1
10
41.8961041153423
20
-0.899801872677614
30
1E-16
41
1
10
41.9033041506858
20
-0.865520059724616
30
1E-16
41
1
10
41.9203462216791
20
-0.800412477500288
30
0
41
1
10
41.9304156320168
20
-0.768710011064854
30
0
41
1
10
41.9527019205294
20
-0.710020111003615
30
0
41
1
10
41.9648717214669
20
-0.68298840282435
30
0
41
1
10
42.0043577304455
20
-0.608359731857888
30
0
41
1
10
42.0336339009924
20
-0.569347784830256
30
0
41
1
10
42.0934203086434
20
-0.512958908796918
30
0
41
1
10
42.1240811094568
20
-0.495433949804152
30
0
41
1
10
42.1678737571662
20
-0.484631310812972
30
0
41
1
10
42.1821191770601
20
-0.483572055561893
30
0
41
1
10
42.2097829658221
20
-0.486532786389546
30
0
41
1
10
42.2232022030178
20
-0.490611939414606
30
0
41
1
10
42.24817269966
20
-0.503737402990197
30
0
41
1
10
42.259845573636
20
-0.512779322230074
30
0
41
1
10
42.2813431594717
20
-0.536151271943396
30
0
41
1
10
42.2912458088644
20
-0.550671909020025
30
0
41
1
10
42.3081794443261
20
-0.58469343651069
30
0
41
1
10
42.3152792301593
20
-0.604180797746551
30
0
41
1
10
42.3263618891747
20
-0.648729074861677
30
0
41
1
10
42.3302749677455
20
-0.673821278158698
30
0
41
1
10
42.3361865222324
20
-0.754495985348711
30
0
41
1
10
42.3322779210379
20
-0.818414408527076
30
1E-16
41
1
10
42.314918496834
20
-0.917792150923361
30
-1E-16
41
1
10
42.3071464953735
20
-0.952146499315631
30
-1E-16
41
1
10
42.2889033474066
20
-1.01898793822525
30
0
41
1
10
42.2782813163916
20
-1.05217322734072
30
0
41
1
10
42.2433844043993
20
-1.14812192508529
30
0
41
1
10
42.2163684479563
20
-1.20664827304202
30
0
41
1
10
42.1611753288853
20
-1.30566862301902
30
1E-16
41
1
10
42.1325892555846
20
-1.34690687796359
30
1E-16
41
1
10
42.1050997610198
20
-1.37758909842303
30
1E-16
0
SPLINE
5
E6
100
AcDbEntity
8
1
62
256
6
ByLayer
370
18
48
1
60
0
100
AcDbSpline
70
4
71
3
72
8
73
4
40
0
40
0
40
0
40
0
40
1
40
1
40
1
40
1
41
1
10
42.9963390010039
20
0.219181139092427
30
0
41
1
10
43.0012184945761
20
0.0731154120386464
30
0
41
1
10
43.0012221727993
20
-0.0730053058773024
30
0
41
1
10
42.9963390010034
20
-0.219181139107548
30
0
0
SPLINE
5
E7
100
AcDbEntity
8
1
62
256
6
ByLayer
370
18
48
1
60
0
100
AcDbSpline
70
4
71
3
72
8
73
4
40
0
40
0
40
0
40
0
40
1
40
1
40
1
40
1
41
1
10
41.3599362031155
20
-3.91666016063061
30
0
41
1
10
41.3652245500769
20
-3.94734036347162
30
0
41
1
10
41.370132610815
20
-3.96499842806702
30
0
41
1
10
41.3747384970435
20
-3.96899209676343
30
0
0
SPLINE
5
E8
100
AcDbEntity
8
1
62
256
6
ByLayer
370
18
48
1
60
0
100
AcDbSpline
70
4
71
3
72
18
73
14
40
0
40
0
40
0
40
0
40
0.149948424113028
40
0.149948424113028
40
0.287532899967593
40
0.287532899967593
40
0.425117375822158
40
0.425117375822158
40
0.700286327531288
40
0.700286327531288
40
0.975455279240419
40
0.975455279240419
40
1
40
1
40
1
40
1
41
1
10
3.60219979029517
20
-3.05877280414632
30
2E-16
41
1
10
3.60219219564436
20
-3.12506896272271
30
2E-16
41
1
10
3.60218427589217
20
-3.18680554637982
30
1E-16
41
1
10
3.60216870037431
20
-3.29662198226842
30
0
41
1
10
3.60216107136227
20
-3.34538736270059
30
0
41
1
10
3.60214559454835
20
-3.43525229240157
30
0
41
1
10
3.60213772184164
20
-3.47646467043765
30
0
41
1
10
3.60211411563466
20
-3.58733929653437
30
0
41
1
10
3.60209845272931
20
-3.64417179917717
30
0
41
1
10
3.60206797805165
20
-3.72265470246185
30
0
41
1
10
3.60205325929289
20
-3.74408796846524
30
0
41
1
10
3.60203779549315
20
-3.74784878524181
30
0
41
1
10
3.60203653403079
20
-3.74801340418077
30
0
41
1
10
3.60203527729109
20
-3.748034748387
30
0
0
SPLINE
5
E9
100
AcDbEntity
8
1
62
256
6
ByLayer
370
18
48
1
60
0
100
AcDbSpline
70
4
71
3
72
8
73
4
40
0
40
0
40
0
40
0
40
1
40
1
40
1
40
1
41
1
10
41.0289307111613
20
0.0252289209551009
30
0
41
1
10
41.0613169046226
20
0.0062083581074432
30
0
41
1
10
41.0934808810427
20
-0.0118000539440004
30
0
41
1
10
41.1254626521181
20
-0.0288220891452511
30
0
0
SPLINE
5
EA
100
AcDbEntity
8
1
62
256
6
ByLayer
370
18
48
1
60
0
100
AcDbSpline
70
4
71
3
72
30
73
26
40
0
40
0
40
0
40
0
40
0.0554243900357122
40
0.0554243900357122
40
0.110987661210082
40
0.110987661210082
40
0.222114203558822
40
0.222114203558822
40
0.277677474733193
40
0.277677474733193
40
0.333240745907564
40
0.333240745907564
40
0.444367288256304
40
0.444367288256304
40
0.555493830605044
40
0.555493830605044
40
0.666620372953784
40
0.666620372953784
40
0.777746915302524
40
0.777746915302524
40
0.833310186476893
40
0.833310186476893
40
0.888873457651262
40
0.888873457651262
40
1
40
1
40
1
40
1
41
1
10
31.2243381462344
20
-0.331187856503021
30
0
41
1
10
30.9774630835924
20
-0.195825631263546
30
0
41
1
10
30.7306761254754
20
-0.0599115521907549
30
0
41
1
10
30.2366283330669
20
0.212012811818795
30
0
41
1
10
29.9889827252445
20
0.348105363688546
30
0
41
1
10
29.2473272022894
20
0.752978667860617
30
0
41
1
10
28.7545470581376
20
1.0185559391968
30
-1E-16
41
1
10
28.013533462739
20
1.40287554263665
30
-1E-16
41
1
10
27.7659893423817
20
1.52878324576312
30
-1E-16
41
1
10
27.271249903264
20
1.77424485308575
30
-1E-16
41
1
10
27.0240142868181
20
1.89380294120019
30
-1E-16
41
1
10
26.2815987865284
20
2.24103724327705
30
-1E-16
41
1
10
25.7881308477424
20
2.45664313706286
30
-2E-16
41
1
10
24.8009404332391
20
2.84663378177996
30
-2E-16
41
1
10
24.3056981117329
20
3.02188347685535
30
-2E-16
41
1
10
23.3180317483628
20
3.32299954759915
30
0
41
1
10
22.8249399165337
20
3.44929572378663
30
0
41
1
10
21.8354146567422
20
3.64841353715417
30
0
41
1
10
21.3398224266221
20
3.71996511710208
30
0
41
1
10
20.5985085081045
20
3.78446582399053
30
0
41
1
10
20.3515546876614
20
3.79864567836998
30
0
41
1
10
19.8573372909958
20
3.81264764340136
30
0
41
1
10
19.6098256694085
20
3.81244242403523
30
0
41
1
10
18.8678233241502
20
3.79006424505607
30
0
41
1
10
18.3745049968226
20
3.74562914043406
30
0
41
1
10
17.8799999999843
20
3.67306480750239
30
0
0
SPLINE
5
EB
100
AcDbEntity
8
1
62
256
6
ByLayer
370
18
48
1
60
0
100
AcDbSpline
70
4
71
3
72
32
73
28
40
0
40
0
40
0
40
0
40
0.497852027984163
40
0.497852027984163
40
0.669426108672708
40
0.669426108672708
40
0.782672582651843
40
0.782672582651843
40
0.85742622022463
40
0.85742622022463
40
0.906803096329785
40
0.906803096329785
40
0.939432664780425
40
0.939432664780425
40
0.961002104085747
40
0.961002104085747
40
0.975263551167106
40
0.975263551167106
40
0.984694481950452
40
0.984694481950452
40
0.990931688516369
40
0.990931688516369
40
0.995057186300729
40
0.995057186300729
40
0.998866153617113
40
0.998866153617113
40
1
40
1
40
1
40
1
41
1
10
41.3747384970585
20
-3.96899209675325
30
0
41
1
10
41.4143944871468
20
-3.94320894444414
30
0
41
1
10
41.4541240160303
20
-3.91713549165539
30
0
41
1
10
41.5076382899286
20
-3.88170358564909
30
0
41
1
10
41.5213628398122
20
-3.87258903265169
30
0
41
1
10
41.5441598803018
20
-3.85740444314493
30
0
41
1
10
41.5532277848979
20
-3.85135273041442
30
0
41
1
10
41.5682873900089
20
-3.84128292753721
30
0
41
1
10
41.5742770311529
20
-3.83727279493121
30
0
41
1
10
41.5842258012407
20
-3.83060359962045
30
0
41
1
10
41.5881839999291
20
-3.82794800457512
30
0
41
1
10
41.5947592735172
20
-3.8235329485816
30
0
41
1
10
41.5973758783736
20
-3.8217750373565
30
0
41
1
10
41.6017228109027
20
-3.81885305834223
30
0
41
1
10
41.6034529194155
20
-3.81768967448832
30
0
41
1
10
41.6063272492662
20
-3.81575618720581
30
0
41
1
10
41.607471370826
20
-3.81498638467127
30
0
41
1
10
41.609372219138
20
-3.81370713042486
30
0
41
1
10
41.6101289011115
20
-3.8131978108338
30
0
41
1
10
41.6113860784139
20
-3.81235147833604
30
0
41
1
10
41.611886553826
20
-3.81201452337194
30
0
41
1
10
41.6127180785683
20
-3.81145462542668
30
0
41
1
10
41.6130515195493
20
-3.81123008756711
30
0
41
1
10
41.6136762227765
20
-3.81080941304049
30
0
41
1
10
41.6139719210855
20
-3.81061028959027
30
0
41
1
10
41.6143160355464
20
-3.81037857387091
30
0
41
1
10
41.6143921742271
20
-3.81032730489051
30
0
41
1
10
41.6144630164967
20
-3.8102796047132
30
0
0
SPLINE
5
EC
100
AcDbEntity
8
1
62
256
6
ByLayer
370
18
48
1
60
0
100
AcDbSpline
70
4
71
3
72
28
73
24
40
0
40
0
40
0
40
0
40
0.0595522182202376
40
0.0595522182202376
40
0.119104436440475
40
0.119104436440475
40
0.23820887288095
40
0.23820887288095
40
0.357313309321425
40
0.357313309321425
40
0.416865527541663
40
0.416865527541663
40
0.4764177457619
40
0.4764177457619
40
0.595522182202376
40
0.595522182202376
40
0.655074400422613
40
0.655074400422613
40
0.714626618642851
40
0.714626618642851
40
0.952835491523796
40
0.952835491523796
40
1
40
1
40
1
40
1
41
1
10
41.582557885722
20
-3.7487805667925
30
0
41
1
10
41.383996975196
20
-3.73407010790459
30
0
41
1
10
41.1858864298633
20
-3.71563546704675
30
0
41
1
10
40.7905808171724
20
-3.66889587558572
30
0
41
1
10
40.5933321140852
20
-3.64103030449419
30
0
41
1
10
40.0023127025398
20
-3.5443502695615
30
0
41
1
10
39.6092616823359
20
-3.46244639333034
30
0
41
1
10
38.8227912272489
20
-3.2660331316155
30
0
41
1
10
38.4293885086695
20
-3.15156273321546
30
2E-16
41
1
10
37.8369237499069
20
-2.95708344606137
30
2E-16
41
1
10
37.6390352687182
20
-2.88842582447154
30
2E-16
41
1
10
37.2421366462375
20
-2.74374546574447
30
2E-16
41
1
10
37.0427972171335
20
-2.66759031871931
30
2E-16
41
1
10
36.4458624709885
20
-2.42990486571878
30
1E-16
41
1
10
36.0490415926014
20
-2.25911656773494
30
1E-16
41
1
10
35.4534839804461
20
-1.98751400602774
30
1E-16
41
1
10
35.2549041348097
20
-1.89438929372338
30
1E-16
41
1
10
34.8572871409513
20
-1.70348136469491
30
1E-16
41
1
10
34.6579201034237
20
-1.60553321538416
30
1E-16
41
1
10
33.663524156182
20
-1.10771845924398
30
1E-16
41
1
10
32.8780365215505
20
-0.685025977224853
30
0
41
1
10
31.9364822689948
20
-0.172773500729676
30
0
41
1
10
31.7808603300709
20
-0.0878946322627314
30
0
41
1
10
31.6251467981658
20
-0.0029583974338721
30
0
0
SPLINE
5
ED
100
AcDbEntity
8
1
62
256
6
ByLayer
370
18
48
1
60
0
100
AcDbSpline
70
4
71
3
72
38
73
34
40
0
40
0
40
0
40
0
40
0.0715735377265726
40
0.0715735377265726
40
0.123589140974006
40
0.123589140974006
40
0.17560474422144
40
0.17560474422144
40
0.279635950716308
40
0.279635950716308
40
0.331651553963743
40
0.331651553963743
40
0.383667157211178
40
0.383667157211178
40
0.435682760458612
40
0.435682760458612
40
0.487698363706047
40
0.487698363706047
40
0.591729570200918
40
0.591729570200918
40
0.643745173448354
40
0.643745173448354
40
0.695760776695789
40
0.695760776695789
40
0.747776379943225
40
0.747776379943225
40
0.79979198319066
40
0.79979198319066
40
0.851807586438096
40
0.851807586438096
40
0.903823189685531
40
0.903823189685531
40
1
40
1
40
1
40
1
41
1
10
19.6971037510184
20
-0.215419419999876
30
0
41
1
10
19.4272782195715
20
-0.069824889230631
30
0
41
1
10
19.15812911646
20
0.0757831414012742
30
0
41
1
10
18.6945151564301
20
0.326950348076991
30
0
41
1
10
18.4999138447051
20
0.43282154793198
30
0
41
1
10
18.1102964353088
20
0.642624611815563
30
0
41
1
10
17.9153339501914
20
0.746636380756797
30
0
41
1
10
17.3300433246133
20
1.05589164629996
30
-1E-16
41
1
10
16.9390379531598
20
1.25802014323494
30
-1E-16
41
1
10
16.3499316022146
20
1.55236103739895
30
-1E-16
41
1
10
16.1527378098791
20
1.64920547685668
30
-1E-16
41
1
10
15.759257903792
20
1.83817169401937
30
-1E-16
41
1
10
15.5631491092724
20
1.93023091809948
30
-1E-16
41
1
10
15.1721033667154
20
2.10899709018943
30
-1E-16
41
1
10
14.9773272754675
20
2.19562350204615
30
-1E-16
41
1
10
14.5878546988733
20
2.36331809907352
30
-1E-16
41
1
10
14.3931631169454
20
2.44440160117185
30
-1E-16
41
1
10
13.8093893961868
20
2.67874950205982
30
-2E-16
41
1
10
13.420519963386
20
2.82334637959525
30
-2E-16
41
1
10
12.8374646978992
20
3.01798370247968
30
-2E-16
41
1
10
12.6431263096055
20
3.07916337853712
30
-2E-16
41
1
10
12.2534780663046
20
3.19467124194807
30
0
41
1
10
12.0581948516017
20
3.24896676145821
30
0
41
1
10
11.6665998447262
20
3.35023489957459
30
0
41
1
10
11.4702869026289
20
3.39719665826686
30
0
41
1
10
11.0764319878927
20
3.4828562836978
30
0
41
1
10
10.8793823964768
20
3.52142038609762
30
0
41
1
10
10.4875826742248
20
3.58886503865568
30
0
41
1
10
10.2924142703435
20
3.61790646662104
30
0
41
1
10
9.90236874175886
20
3.66797034652075
30
0
41
1
10
9.70752826044267
20
3.68893233763916
30
0
41
1
10
9.15296890206596
20
3.73642210760559
30
0
41
1
10
8.79369400676893
20
3.75257084067758
30
0
41
1
10
8.43457111924997
20
3.75247659061722
30
0
0
SPLINE
5
EE
100
AcDbEntity
8
1
62
256
6
ByLayer
370
18
48
1
60
0
100
AcDbSpline
70
4
71
3
72
10
73
6
40
0
40
0
40
0
40
0
40
0.599289505717542
40
0.599289505717542
40
1
40
1
40
1
40
1
41
1
10
41.7889050626836
20
0.800571583253486
30
0
41
1
10
41.7507372093971
20
0.821055677801581
30
-1E-16
41
1
10
41.7133411910108
20
0.839591414755688
30
-1E-16
41
1
10
41.6549402052943
20
0.864714289025216
30
-1E-16
41
1
10
41.6325747473508
20
0.87320477991608
30
-1E-16
41
1
10
41.6108005394993
20
0.880795923178425
30
-1E-16
0
SPLINE
5
EF
100
AcDbEntity
8
1
62
256
6
ByLayer
370
18
48
1
60
0
100
AcDbSpline
70
4
71
3
72
16
73
12
40
0
40
0
40
0
40
0
40
0.124999999999995
40
0.124999999999995
40
0.249999999999991
40
0.249999999999991
40
0.499999999999994
40
0.499999999999994
40
0.749999999999997
40
0.749999999999997
40
1
40
1
40
1
40
1
41
1
10
41.7889050626838
20
0.800571583253401
30
0
41
1
10
41.7566124225496
20
0.803474999778899
30
0
41
1
10
41.7240787963411
20
0.804317199314795
30
0
41
1
10
41.6588490091863
20
0.803986963495447
30
0
41
1
10
41.6261493135245
20
0.802878431849024
30
0
41
1
10
41.5277212555974
20
0.793664926198431
30
0
41
1
10
41.461925490408
20
0.780415306513703
30
0
41
1
10
41.3329484405241
20
0.742821346638351
30
0
41
1
10
41.269374176747
20
0.719178200436346
30
0
41
1
10
41.1451475637722
20
0.659647139570211
30
0
41
1
10
41.0844983003349
20
0.623818927434058
30
0
41
1
10
41.0257768568562
20
0.581881978494806
30
0
0
SPLINE
5
F0
100
AcDbEntity
8
1
62
256
6
ByLayer
370
18
48
1
60
0
100
AcDbSpline
70
4
71
3
72
8
73
4
40
0
40
0
40
0
40
0
40
1
40
1
40
1
40
1
41
1
10
17.88
20
3.8254560935786
30
0
41
1
10
17.88
20
3.77475337438264
30
0
41
1
10
17.88
20
3.72395570869105
30
0
41
1
10
17.88
20
3.67306480733248
30
0
0
SPLINE
5
F1
100
AcDbEntity
8
1
62
256
6
ByLayer
370
18
48
1
60
0
100
AcDbSpline
70
4
71
3
72
14
73
10
40
0
40
0
40
0
40
0
40
0.263925227316428
40
0.263925227316428
40
0.497447373829989
40
0.497447373829989
40
0.778405330049829
40
0.778405330049829
40
1
40
1
40
1
40
1
41
1
10
41.1254626521181
20
-0.0288220891452511
30
0
41
1
10
41.1262030504354
20
-0.0292161600736449
30
0
41
1
10
41.1269225177792
20
-0.0299769281381543
30
0
41
1
10
41.1281277394702
20
-0.0318201725719121
30
0
41
1
10
41.1286472277206
20
-0.0328800573458921
30
0
41
1
10
41.1296279646397
20
-0.0354683898623875
30
0
41
1
10
41.1300717766891
20
-0.0370878402718233
30
0
41
1
10
41.1306194348584
20
-0.040146969161782
30
0
41
1
10
41.130780458801
20
-0.0415873164164964
30
0
41
1
10
41.130828079449
20
-0.0430206678542788
30
0
0
SPLINE
5
F2
100
AcDbEntity
8
SK1
62
256
6
ByLayer
370
18
48
1
60
0
100
AcDbSpline
70
4
71
3
72
12
73
8
40
0
40
0
40
0
40
0
40
0.250000000000001
40
0.250000000000001
40
0.500000000000001
40
0.500000000000001
40
1
40
1
40
1
40
1
41
1
10
-35.4
20
3.28580926534119
30
0
41
1
10
-35.4
20
3.28936036262016
30
0
41
1
10
-35.4042405317345
20
3.28855725695223
30
0
41
1
10
-35.4170629445097
20
3.28159529358769
30
0
41
1
10
-35.4255309618335
20
3.27559184655627
30
0
41
1
10
-35.4538111153162
20
3.25352670581321
30
0
41
1
10
-35.4764597265186
20
3.23352641868084
30
0
41
1
10
-35.5
20
3.21129618075244
30
0
0
SPLINE
5
F3
100
AcDbEntity
8
SK1
62
256
6
ByLayer
370
18
48
1
60
0
100
AcDbSpline
70
4
71
3
72
8
73
4
40
0
40
0
40
0
40
0
40
1
40
1
40
1
40
1
41
1
10
-36.0000000000001
20
-2.75725751643356
30
0
41
1
10
-35.9712450809612
20
-2.78766992905221
30
0
41
1
10
-35.9428534936876
20
-2.81699793754217
30
0
41
1
10
-35.9148820056534
20
-2.84511534180962
30
0
0
SPLINE
5
F4
100
AcDbEntity
8
SK1
62
256
6
ByLayer
370
18
48
1
60
0
100
AcDbSpline
70
4
71
3
72
10
73
6
40
0
40
0
40
0
40
0
40
0.5
40
0.5
40
1
40
1
40
1
40
1
41
1
10
-35.6009618943233
20
2.524544512197
30
1E-16
41
1
10
-35.657625994603
20
2.41020179551376
30
1E-16
41
1
10
-35.7212304684705
20
2.2916440754025
30
1E-16
41
1
10
-35.8564778377541
20
2.05131387260354
30
-1E-16
41
1
10
-35.9271669955654
20
1.93123966613248
30
-1E-16
41
1
10
-36.0000000000001
20
1.81114057826028
30
-1E-16
0
SPLINE
5
F5
100
AcDbEntity
8
SK1
62
256
6
ByLayer
370
18
48
1
60
0
100
AcDbSpline
70
4
71
3
72
12
73
8
40
0
40
0
40
0
40
0
40
0.5
40
0.5
40
0.75
40
0.75
40
1
40
1
40
1
40
1
41
1
10
-35.5
20
2.61997309439408
30
1E-16
41
1
10
-35.4764535706457
20
2.64220914561602
30
1E-16
41
1
10
-35.453758325367
20
2.66852484949081
30
1E-16
41
1
10
-35.4256589034923
20
2.70939452589477
30
1E-16
41
1
10
-35.4170915256394
20
2.7236033767164
30
1E-16
41
1
10
-35.4042768359918
20
2.75063571453668
30
1E-16
41
1
10
-35.4
20
2.7637488870605
30
1E-16
41
1
10
-35.4
20
2.77332925716402
30
1E-16
0
SPLINE
5
F6
100
AcDbEntity
8
SK1
62
256
6
ByLayer
370
18
48
1
60
0
100
AcDbSpline
70
4
71
3
72
8
73
4
40
0
40
0
40
0
40
0
40
1
40
1
40
1
40
1
41
1
10
-35.5
20
3.21129618075239
30
0
41
1
10
-35.5336694874054
20
3.17950042797398
30
0
41
1
10
-35.5673239623858
20
3.14769135332639
30
0
41
1
10
-35.6009618943233
20
3.11586759855527
30
0
0
SPLINE
5
F7
100
AcDbEntity
8
SK1
62
256
6
ByLayer
370
18
48
1
60
0
100
AcDbSpline
70
4
71
3
72
10
73
6
40
0
40
0
40
0
40
0
40
0.5
40
0.5
40
1
40
1
40
1
40
1
41
1
10
-36.0000000000001
20
2.75725751643356
30
0
41
1
10
-35.9272396278271
20
2.83421194839775
30
0
41
1
10
-35.8568055726535
20
2.90422322812495
30
0
41
1
10
-35.7224295033876
20
3.02627028678501
30
0
41
1
10
-35.6578574543336
20
3.07875451869427
30
0
41
1
10
-35.6009618943233
20
3.11586759855524
30
0
0
SPLINE
5
F8
100
AcDbEntity
8
SK1
62
256
6
ByLayer
370
18
48
1
60
0
100
AcDbSpline
70
4
71
3
72
8
73
4
40
0
40
0
40
0
40
0
40
1
40
1
40
1
40
1
41
1
10
-35.6009618943233
20
2.524544512197
30
1E-16
41
1
10
-35.5673238563977
20
2.55636836724008
30
1E-16
41
1
10
-35.5336693846944
20
2.58817743861073
30
1E-16
41
1
10
-35.5
20
2.61997309439414
30
1E-16
0
SPLINE
5
F9
100
AcDbEntity
8
1
62
256
6
ByLayer
370
18
48
1
60
0
100
AcDbSpline
70
4
71
3
72
15
73
11
40
0
40
0
40
0
40
0
40
0.212856362504968
40
0.381728329496179
40
0.504105384944296
40
0.553473233508673
40
0.595767981268155
40
0.652222094326084
40
0.798614524161487
40
1
40
1
40
1
40
1
41
1
10
8.44056990137165
20
3.75249410457053
30
0
41
1
10
8.09723523034276
20
3.75163133181491
30
0
41
1
10
7.48151149801413
20
3.75051041564416
30
0
41
1
10
6.66839884777391
20
3.75073550017802
30
0
41
1
10
6.1189828320405
20
3.75059747104368
30
0
41
1
10
5.77375047711337
20
3.7500402666625
30
0
41
1
10
5.5351058694024
20
3.74956330115197
30
0
41
1
10
5.13970492117457
20
3.74909169015399
30
0
41
1
10
4.48767654091512
20
3.74994951825502
30
0
41
1
10
3.9267965533864
20
3.74877411147799
30
0
41
1
10
3.60202892325145
20
3.7478815775977
30
0
0
SPLINE
5
FA
100
AcDbEntity
8
1
62
256
6
ByLayer
370
18
48
1
60
0
100
AcDbSpline
70
4
71
3
72
12
73
8
40
0
40
0
40
0
40
0
40
0.109979221487692
40
0.272019730069359
40
0.449370992034907
40
0.699085832220508
40
1
40
1
40
1
40
1
41
1
10
41.6170970175037
20
0.880094181143647
30
-1E-16
41
1
10
41.4454072086989
20
0.937259679156568
30
-1E-16
41
1
10
41.0215078003326
20
1.08091954852822
30
-1E-16
41
1
10
40.3246798307247
20
1.32888222017152
30
-1E-16
41
1
10
39.4152004439561
20
1.66534362416115
30
-1E-16
41
1
10
38.2981630889088
20
2.10017050060597
30
-1E-16
41
1
10
37.4604657657761
20
2.44729079826948
30
-1E-16
41
1
10
37.0047733318943
20
2.64246522152948
30
-2E-16
0
SPLINE
5
FB
100
AcDbEntity
8
1
62
256
6
ByLayer
370
18
48
1
60
0
100
AcDbSpline
70
4
71
2
72
6
73
3
40
0
40
0
40
0
40
1
40
1
40
1
41
1
10
31.620914447364
20
-0.0007281485095234
30
0
41
1
10
31.6203617647269
20
-0.0004423478334843
30
0
41
1
10
31.6198090913
20
-0.0001263854621811
30
0
0
SPLINE
5
FC
100
AcDbEntity
8
1
62
256
6
ByLayer
370
18
48
1
60
0
100
AcDbSpline
70
4
71
3
72
26
73
22
40
0
40
0
40
0
40
0
40
1.45119461534E-05
40
2.59975502597E-05
40
3.12010006038E-05
40
3.63045652633E-05
40
5.7149594057E-05
40
0.0002873201670254
40
0.0004704379897681
40
0.0008027004680159
40
0.0014128389438847
40
0.0025560839996592
40
0.039310286049625
40
0.102184005735247
40
0.202216130672967
40
0.301024660470731
40
0.389797932465433
40
0.484654276244734
40
0.620977285263697
40
0.800076942971552
40
1
40
1
40
1
40
1
41
1
10
22.3473223977152
20
0.10422491751379
30
0
41
1
10
22.3473299671834
20
0.104223690341769
30
0
41
1
10
22.347337466725
20
0.104223256885888
30
0
41
1
10
22.3473264156203
20
0.104228524341494
30
0
41
1
10
22.3473026145147
20
0.104236674052601
30
0
41
1
10
22.3472523068444
20
0.104252708231968
30
0
41
1
10
22.3466868112476
20
0.104423272528265
30
0
41
1
10
22.3456466456065
20
0.104729206844439
30
0
41
1
10
22.3439195336708
20
0.105242108040187
30
0
41
1
10
22.3412877244452
20
0.106021073090318
30
0
41
1
10
22.3364160107662
20
0.107462265387767
30
0
41
1
10
22.2460890018946
20
0.134106291958886
30
0
41
1
10
22.0032612653161
20
0.204495890978507
30
0
41
1
10
21.5260280718609
20
0.346919010820102
30
0
41
1
10
20.9014752747227
20
0.540268570921256
30
0
41
1
10
20.2182988563324
20
0.761391086976033
30
0
41
1
10
19.5498489367574
20
0.986461586988952
30
-1E-16
41
1
10
18.7953622526751
20
1.25009408318334
30
-1E-16
41
1
10
17.8325069348005
20
1.60200485770781
30
-1E-16
41
1
10
16.6311154801619
20
2.06653136840353
30
-1E-16
41
1
10
15.7557475708569
20
2.42876190665689
30
-1E-16
41
1
10
15.2962052133267
20
2.62549184697059
30
-2E-16
0
SPLINE
5
FD
100
AcDbEntity
8
1
62
256
6
ByLayer
370
18
48
1
60
0
100
AcDbSpline
70
4
71
3
72
20
73
16
40
0
40
0
40
0
40
0
40
0.0971018973239624
40
0.159179670000891
40
0.22977068645884
40
0.338223646179037
40
0.416417185034158
40
0.478063090594546
40
0.55419337033697
40
0.649545034273884
40
0.728358319384249
40
0.78983923836648
40
0.843724330081184
40
0.921151733801176
40
1
40
1
40
1
40
1
41
1
10
20.7471727744006
20
-3.75857329563152
30
0
41
1
10
20.9839501422363
20
-3.75880057426923
30
0
41
1
10
21.3721000523855
20
-3.75906677380456
30
0
41
1
10
21.9323801184833
20
-3.75933217374274
30
0
41
1
10
22.5203390099786
20
-3.75909252157317
30
0
41
1
10
23.1475998961218
20
-3.75996981586363
30
0
41
1
10
23.7530464046916
20
-3.76082656486892
30
0
41
1
10
24.2796770942042
20
-3.76037553942092
30
0
41
1
10
24.8481471910152
20
-3.7596140850346
30
0
41
1
10
25.458478799182
20
-3.76069772640378
30
0
41
1
10
26.0330885275242
20
-3.76117327877341
30
0
41
1
10
26.5065833363538
20
-3.762286576386
30
0
41
1
10
26.976698286178
20
-3.76256442660383
30
0
41
1
10
27.4891635840296
20
-3.76162707515113
30
0
41
1
10
27.8702335040317
20
-3.76100193141741
30
0
41
1
10
28.0625005811368
20
-3.76085272332011
30
0
0
SPLINE
5
FE
100
AcDbEntity
8
1
62
256
6
ByLayer
370
18
48
1
60
0
100
AcDbSpline
70
4
71
3
72
21
73
17
40
0
40
0
40
0
40
0
40
0.101488927838207
40
0.173585913581067
40
0.260001094012052
40
0.318351826300678
40
0.375740913595971
40
0.449585768321877
40
0.542023607889392
40
0.619233442609946
40
0.672898942033969
40
0.733787165387438
40
0.813447684736888
40
0.909880234867569
40
0.975469939697557
40
1
40
1
40
1
40
1
41
1
10
30.195426676499
20
3.76287778580752
30
0
41
1
10
29.9476881367221
20
3.76395609955142
30
0
41
1
10
29.5239577594588
20
3.76478726102465
30
0
41
1
10
28.8892835909902
20
3.7628919411367
30
0
41
1
10
28.3599117071449
20
3.76033285377153
30
0
41
1
10
27.8664422132456
20
3.76104951854933
30
0
41
1
10
27.4036552883615
20
3.76175460646468
30
0
41
1
10
26.8576612559917
20
3.76283431249084
30
0
41
1
10
26.263281970359
20
3.76151637200633
30
0
41
1
10
25.7181625090703
20
3.76112786396342
30
0
41
1
10
25.2500590849058
20
3.76007584010327
30
0
41
1
10
24.7759704397255
20
3.75978476604075
30
0
41
1
10
24.1974863938389
20
3.76046054766061
30
0
41
1
10
23.6075247280596
20
3.76092056461033
30
0
41
1
10
23.1521404231137
20
3.75988783284925
30
0
41
1
10
22.9321536193269
20
3.75955813840639
30
0
41
1
10
22.872274469627
20
3.75948486523418
30
0
0
SPLINE
5
FF
100
AcDbEntity
8
1
62
256
6
ByLayer
370
18
48
1
60
0
100
AcDbSpline
70
4
71
3
72
13
73
9
40
0
40
0
40
0
40
0
40
0.246831672702035
40
0.443961071622129
40
0.572007133773224
40
0.719064560815326
40
0.877281721877539
40
1
40
1
40
1
40
1
41
1
10
3.60200956997025
20
-3.74792017443815
30
0
41
1
10
3.8403702943113
20
-3.74866012651239
30
0
41
1
10
4.26909757342108
20
-3.74957466937582
30
0
41
1
10
4.82164916598086
20
-3.74951027613054
30
0
41
1
10
5.27759682828744
20
-3.74925201799101
30
0
41
1
10
5.69596852733179
20
-3.74987901477624
30
0
41
1
10
6.10925617288217
20
-3.75054631976406
30
0
41
1
10
6.38062670969748
20
-3.75058394068969
30
0
41
1
10
6.49914912527257
20
-3.75061332264897
30
0
0
LINE
5
84
100
AcDbEntity
8
1
62
256
6
ByLayer
370
18
48
1
60
0
100
AcDbLine
10
3.501731
20
-3.946216
30
0
11
3.501731
21
-3.092185
31
0
39
0
210
0
220
0
230
1
0
LINE
5
85
100
AcDbEntity
8
1
62
256
6
ByLayer
370
18
48
1
60
0
100
AcDbLine
10
0.203982
20
3.944155
30
0
11
0.203982
21
0
31
0
39
0
210
0
220
0
230
1
0
LINE
5
86
100
AcDbEntity
8
1
62
256
6
ByLayer
370
18
48
1
60
0
100
AcDbLine
10
0.203982
20
0
30
0
11
0.203982
21
-3.944155
31
0
39
0
210
0
220
0
230
1
0
LINE
5
87
100
AcDbEntity
8
1
62
256
6
ByLayer
370
18
48
1
60
0
100
AcDbLine
10
0
20
4
30
0
11
0
21
0
31
0
39
0
210
0
220
0
230
1
0
LINE
5
88
100
AcDbEntity
8
1
62
256
6
ByLayer
370
18
48
1
60
0
100
AcDbLine
10
0
20
0
30
0
11
0
21
-4
31
0
39
0
210
0
220
0
230
1
0
LINE
5
89
100
AcDbEntity
8
1
62
256
6
ByLayer
370
18
48
1
60
0
100
AcDbLine
10
17.88
20
-3.808744
30
0
11
17.88
21
-3.825456
31
0
39
0
210
0
220
0
230
1
0
LINE
5
8A
100
AcDbEntity
8
1
62
256
6
ByLayer
370
18
48
1
60
0
100
AcDbLine
10
0.101929
20
3.972077
30
0
11
0.101929
21
0
31
0
39
0
210
0
220
0
230
1
0
LINE
5
8B
100
AcDbEntity
8
1
62
256
6
ByLayer
370
18
48
1
60
0
100
AcDbLine
10
0.101929
20
0
30
0
11
0.101929
21
-3.972077
31
0
39
0
210
0
220
0
230
1
0
LINE
5
8C
100
AcDbEntity
8
1
62
256
6
ByLayer
370
18
48
1
60
0
100
AcDbLine
10
3.501731
20
3.946216
30
0
11
3.501731
21
3.17387
31
0
39
0
210
0
220
0
230
1
0
LINE
5
8D
100
AcDbEntity
8
1
62
256
6
ByLayer
370
18
48
1
60
0
100
AcDbLine
10
42.944638
20
0.047792
30
0
11
42.002522
21
1.087725
31
0
39
0
210
0
220
0
230
1
0
LINE
5
8E
100
AcDbEntity
8
SK1
62
256
6
ByLayer
370
18
48
1
60
0
100
AcDbLine
10
-36
20
1.811099
30
0
11
-36
21
2.757258
31
0
39
0
210
0
220
0
230
1
0
LINE
5
90
100
AcDbEntity
8
SK1
62
256
6
ByLayer
370
18
48
1
60
0
100
AcDbLine
10
-34.76
20
-4
30
0
11
-34.76
21
4
31
0
39
0
210
0
220
0
230
1
0
LINE
5
91
100
AcDbEntity
8
SK1
62
256
6
ByLayer
370
18
48
1
60
0
100
AcDbLine
10
-35.4
20
2.773329
30
0
11
-35.4
21
3.285809
31
0
39
0
210
0
220
0
230
1
0
LINE
5
92
100
AcDbEntity
8
SK1
62
256
6
ByLayer
370
18
48
1
60
0
100
AcDbLine
10
-36
20
1.811141
30
0
11
-36
21
-2.757258
31
0
39
0
210
0
220
0
230
1
0
LINE
5
93
100
AcDbEntity
8
SK1
62
256
6
ByLayer
370
18
48
1
60
0
100
AcDbLine
10
-35.600962
20
2.524506
30
0
11
-35.600962
21
3.115868
31
0
39
0
210
0
220
0
230
1
0
LINE
5
94
100
AcDbEntity
8
SK1
62
256
6
ByLayer
370
18
48
1
60
0
100
AcDbLine
10
0
20
4
30
0
11
0
21
-4
31
0
39
0
210
0
220
0
230
1
0
LINE
5
95
100
AcDbEntity
8
SK1
62
256
6
ByLayer
370
18
48
1
60
0
100
AcDbLine
10
-35.5
20
2.619969
30
0
11
-35.5
21
3.211296
31
0
39
0
210
0
220
0
230
1
0
LINE
5
96
100
AcDbEntity
8
SK1
62
256
6
ByLayer
370
18
48
1
60
0
100
AcDbLine
10
-34.76
20
-4
30
0
11
0
21
-4
31
0
39
0
210
0
220
0
230
1
0
LINE
5
97
100
AcDbEntity
8
SK1
62
256
6
ByLayer
370
18
48
1
60
0
100
AcDbLine
10
0
20
4
30
0
11
-34.76
21
4
31
0
39
0
210
0
220
0
230
1
0
LINE
5
98
100
AcDbEntity
8
SK1
62
256
6
ByLayer
370
18
48
1
60
0
100
AcDbLine
10
-35.922316
20
-2.837684
30
0
11
-34.76
21
-4
31
0
39
0
210
0
220
0
230
1
0
LINE
5
99
100
AcDbEntity
8
SK1
62
256
6
ByLayer
370
18
48
1
60
0
100
AcDbLine
10
-34.76
20
4
30
0
11
-35.922316
21
2.837684
31
0
39
0
210
0
220
0
230
1
0
LINE
5
9A
100
AcDbEntity
8
1
62
256
6
ByLayer
370
18
48
1
60
0
100
AcDbLine
10
0.203982
20
-3.944155
30
0
11
3.501731
21
-3.946216
31
0
39
0
210
0
220
0
230
1
0
LINE
5
9B
100
AcDbEntity
8
1
62
256
6
ByLayer
370
18
48
1
60
0
100
AcDbLine
10
8.443299
20
-3.949304
30
0
11
9.450364
21
-3.949934
31
0
39
0
210
0
220
0
230
1
0
LINE
5
9C
100
AcDbEntity
8
1
62
256
6
ByLayer
370
18
48
1
60
0
100
AcDbLine
10
19.770475
20
-3.956384
30
0
11
20.744671
21
-3.956992
31
0
39
0
210
0
220
0
230
1
0
LINE
5
9D
100
AcDbEntity
8
1
62
256
6
ByLayer
370
18
48
1
60
0
100
AcDbLine
10
30.196225
20
-3.9629
30
0
11
31.179134
21
-3.963514
31
0
39
0
210
0
220
0
230
1
0
LINE
5
9E
100
AcDbEntity
8
1
62
256
6
ByLayer
370
18
48
1
60
0
100
AcDbLine
10
31.179134
20
3.963514
30
0
11
30.196225
21
3.9629
31
0
39
0
210
0
220
0
230
1
0
LINE
5
9F
100
AcDbEntity
8
1
62
256
6
ByLayer
370
18
48
1
60
0
100
AcDbLine
10
20.744671
20
3.956992
30
0
11
19.770475
21
3.956384
31
0
39
0
210
0
220
0
230
1
0
LINE
5
A0
100
AcDbEntity
8
1
62
256
6
ByLayer
370
18
48
1
60
0
100
AcDbLine
10
9.450364
20
3.949934
30
0
11
8.443299
21
3.949304
31
0
39
0
210
0
220
0
230
1
0
LINE
5
A1
100
AcDbEntity
8
1
62
256
6
ByLayer
370
18
48
1
60
0
100
AcDbLine
10
3.501731
20
3.946216
30
0
11
0.203982
21
3.944155
31
0
39
0
210
0
220
0
230
1
0
LINE
5
A2
100
AcDbEntity
8
SK4
62
256
6
ByLayer
370
18
48
0.05
60
0
100
AcDbLine
10
48
20
0
30
0
11
-41
21
0
31
0
39
0
210
0
220
0
230
1
0
LINE
5
A4
100
AcDbEntity
8
4
62
256
6
ByLayer
370
18
48
0.05
60
0
100
AcDbLine
10
-36
20
0
30
0
11
48
21
0
31
0
39
0
210
0
220
0
230
1
0
LINE
5
A6
100
AcDbEntity
8
80
62
256
6
ByLayer
370
18
48
1
60
0
100
AcDbLine
10
0
20
0
30
0
11
-6
21
0
31
0
39
0
210
0
220
0
230
1
0
LINE
5
A7
100
AcDbEntity
8
81
62
256
6
ByLayer
370
18
48
1
60
0
100
AcDbLine
10
43
20
0
30
0
11
49
21
0
31
0
39
0
210
0
220
0
230
1
0
LINE
5
A8
100
AcDbEntity
8
SK2
62
256
6
ByLayer
370
13
48
1
60
0
100
AcDbLine
10
43.54297
20
1.491757
30
0
11
50.926502
21
21.777309
31
0
39
0
210
0
220
0
230
1
0
LINE
5
AA
100
AcDbEntity
8
SK2
62
256
6
ByLayer
370
13
48
1
60
0
100
AcDbLine
10
43.54297
20
-1.491757
30
0
11
50.926502
21
-21.777309
31
0
39
0
210
0
220
0
230
1
0
LINE
5
AB
100
AcDbEntity
8
1
62
256
6
ByLayer
370
13
48
1
60
0
100
AcDbLine
10
49.840562
20
18.793794
30
0
11
52.937146
21
17.977396
31
0
39
0
210
0
220
0
230
1
0
LINE
5
AC
100
AcDbEntity
8
1
62
256
6
ByLayer
370
13
48
1
60
0
100
AcDbLine
10
49.840562
20
18.793794
30
0
11
52.620336
21
17.203758
31
0
39
0
210
0
220
0
230
1
0
LINE
5
AD
100
AcDbEntity
8
1
62
256
6
ByLayer
370
13
48
1
60
0
100
AcDbLine
10
52.937146
20
17.977396
30
0
11
52.620336
21
17.203758
31
0
39
0
210
0
220
0
230
1
0
LINE
5
AE
100
AcDbEntity
8
1
62
256
6
ByLayer
370
13
48
1
60
0
100
AcDbLine
10
49.840562
20
-18.793794
30
0
11
52.620333
21
-17.203759
31
0
39
0
210
0
220
0
230
1
0
LINE
5
AF
100
AcDbEntity
8
1
62
256
6
ByLayer
370
13
48
1
60
0
100
AcDbLine
10
49.840562
20
-18.793794
30
0
11
52.937149
21
-17.977395
31
0
39
0
210
0
220
0
230
1
0
LINE
5
B0
100
AcDbEntity
8
1
62
256
6
ByLayer
370
13
48
1
60
0
100
AcDbLine
10
52.620333
20
-17.203759
30
0
11
52.937149
21
-17.977395
31
0
39
0
210
0
220
0
230
1
0
MTEXT
5
100
100
AcDbEntity
8
SK2
62
256
6
ByLayer
370
18
48
1
60
0
100
AcDbMText
10
56.717388
20
-2.467451
30
0
210
0
220
0
230
1
1
\W0.7237;140.00
40
3.50012
41
0
44
1.084337
50
0
71
7
72
5
7
iso_b_vert
0
MTEXT
5
103
100
AcDbEntity
8
SK6
62
256
6
ByLayer
370
18
48
1
60
0
100
AcDbMText
10
-35.733597
20
-64.834958
30
0
210
0
220
0
230
1
1
\W0.7494;860.1-0794-025A1-GM X1BM
40
3.175
41
0
44
1.084337
50
0
71
7
72
5
7
iso_b_vert
0
DIMENSION
5
106
100
AcDbEntity
8
SK2
62
256
6
ByLayer
370
18
48
1
60
0
100
AcDbDimension
2
_U0
10
43
20
-27.50012
30
0
11
21.5
21
-27.50012
31
0
70
32
71
2
72
1
41
1
210
0
220
0
230
1
3
Standard
100
AcDbAlignedDimension
13
0
23
-4
33
0
14
43
24
0
34
0
50
0
100
AcDbRotatedDimension
1001
ACAD
1000
DSTYLE
1002
{
1070
   371
1070
    13
1070
   372
1070
    13
1070
     3
1000

1070
   170
1070
     0
1070
   144
1040
1.0
1070
   277
1070
     2
1070
   284
1070
     8
1070
   278
1070
    46
1070
   146
1040
0.999966
1070
   345
1005
16
1070
   347
1005
16
1070
   346
1005
16
1070
   344
1005
107
1070
   343
1005
107
1070
   172
1070
     1
1070
    76
1070
     0
1070
    75
1070
     0
1070
   282
1070
     0
1070
   281
1070
     0
1070
    71
1070
     0
1070
    74
1070
     0
1070
   279
1070
     0
1070
   173
1070
     1
1070
   340
1005
101
1070
   271
1070
     1
1070
   272
1070
     2
1070
    77
1070
     1
1070
    73
1070
     1
1070
   171
1070
     3
1070
   274
1070
     4
1070
   177
1070
   150
1070
   176
1070
     9
1070
   178
1070
    43
1070
    78
1070
     8
1070
    48
1040
-0.1
1070
    41
1040
3.175
1070
   147
1040
1.75006
1070
    42
1040
1.5875
1070
    44
1040
3.175
1070
   140
1040
3.50012
1002
}
1001
ACAD_DSTYLE_DIM_LINETYPE
1070
   380
1005
16
1001
ACAD_DSTYLE_DIM_EXT1_LINETYPE
1070
   381
1005
16
1001
ACAD_DSTYLE_DIM_EXT2_LINETYPE
1070
   382
1005
16
0
DIMENSION
5
12C
100
AcDbEntity
8
2
62
256
6
ByLayer
370
18
48
1
60
0
100
AcDbDimension
2
_U1
10
49.75006
20
3.97
30
0
11
49.75006
21
19.459897
31
0
70
32
71
1
72
1
41
1
210
0
220
0
230
1
3
Standard
100
AcDbAlignedDimension
13
41.555
23
-3.97
33
0
14
41.555
24
3.97
34
0
50
90
100
AcDbRotatedDimension
1001
ACAD
1000
DSTYLE
1002
{
1070
   371
1070
    13
1070
   372
1070
    13
1070
     3
1000

1070
   170
1070
     0
1070
   144
1040
1.0
1070
   277
1070
     2
1070
   284
1070
     8
1070
   278
1070
    46
1070
   146
1040
0.999966
1070
   345
1005
16
1070
   347
1005
16
1070
   346
1005
16
1070
   344
1005
107
1070
   343
1005
107
1070
   172
1070
     1
1070
    76
1070
     0
1070
    75
1070
     0
1070
   282
1070
     0
1070
   281
1070
     0
1070
    71
1070
     0
1070
    74
1070
     0
1070
   279
1070
     0
1070
   173
1070
     1
1070
   340
1005
101
1070
   271
1070
     1
1070
   272
1070
     2
1070
    77
1070
     1
1070
    73
1070
     0
1070
   171
1070
     3
1070
   274
1070
     4
1070
   177
1070
   150
1070
   176
1070
     9
1070
   178
1070
    43
1070
    78
1070
     8
1070
    48
1040
-0.1
1070
    41
1040
3.175
1070
   147
1040
1.75006
1070
    42
1040
1.5875
1070
    44
1040
3.175
1070
   140
1040
3.50012
1002
}
1001
ACAD_DSTYLE_DIM_LINETYPE
1070
   380
1005
16
1001
ACAD_DSTYLE_DIM_EXT1_LINETYPE
1070
   381
1005
16
1001
ACAD_DSTYLE_DIM_EXT2_LINETYPE
1070
   382
1005
16
0
DIMENSION
5
14B
100
AcDbEntity
8
SK2
62
256
6
ByLayer
370
18
48
1
60
0
100
AcDbDimension
2
_U2
10
-39.24994
20
-4
30
0
11
-39.24994
21
18.10734
31
0
70
32
71
1
72
1
41
1
210
0
220
0
230
1
3
Standard
100
AcDbAlignedDimension
13
-36
23
4
33
0
14
-36
24
-4
34
0
50
90
100
AcDbRotatedDimension
1001
ACAD
1000
DSTYLE
1002
{
1070
   371
1070
    13
1070
   372
1070
    13
1070
     3
1000

1070
   170
1070
     0
1070
   144
1040
1.0
1070
   277
1070
     2
1070
   284
1070
     8
1070
   278
1070
    46
1070
   146
1040
0.999966
1070
   345
1005
16
1070
   347
1005
16
1070
   346
1005
16
1070
   344
1005
107
1070
   343
1005
107
1070
   172
1070
     1
1070
    76
1070
     0
1070
    75
1070
     0
1070
   282
1070
     0
1070
   281
1070
     0
1070
    71
1070
     0
1070
    74
1070
     0
1070
   279
1070
     0
1070
   173
1070
     1
1070
   340
1005
101
1070
   271
1070
     1
1070
   272
1070
     2
1070
    77
1070
     1
1070
    73
1070
     0
1070
   171
1070
     3
1070
   274
1070
     4
1070
   177
1070
   150
1070
   176
1070
     9
1070
   178
1070
    43
1070
    78
1070
     8
1070
    48
1040
-0.1
1070
    41
1040
3.175
1070
   147
1040
1.75006
1070
    42
1040
1.5875
1070
    44
1040
3.175
1070
   140
1040
3.50012
1002
}
1001
ACAD_DSTYLE_DIM_LINETYPE
1070
   380
1005
16
1001
ACAD_DSTYLE_DIM_EXT1_LINETYPE
1070
   381
1005
16
1001
ACAD_DSTYLE_DIM_EXT2_LINETYPE
1070
   382
1005
16
0
DIMENSION
5
169
100
AcDbEntity
8
SK2
62
256
6
ByLayer
370
18
48
1
60
0
100
AcDbDimension
2
_U3
10
0
20
-27.50012
30
0
11
-18
21
-27.50012
31
0
70
32
71
1
72
1
41
1
210
0
220
0
230
1
3
Standard
100
AcDbAlignedDimension
13
-36
23
-4
33
0
14
0
24
-4
34
0
50
0
100
AcDbRotatedDimension
1001
ACAD
1000
DSTYLE
1002
{
1070
   371
1070
    13
1070
   372
1070
    13
1070
     3
1000

1070
   170
1070
     0
1070
   144
1040
1.0
1070
   277
1070
     2
1070
   284
1070
     8
1070
   278
1070
    46
1070
   146
1040
0.999966
1070
   345
1005
16
1070
   347
1005
16
1070
   346
1005
16
1070
   344
1005
107
1070
   343
1005
107
1070
   172
1070
     1
1070
    76
1070
     0
1070
    75
1070
     0
1070
   282
1070
     0
1070
   281
1070
     0
1070
    71
1070
     0
1070
    74
1070
     0
1070
   279
1070
     0
1070
   173
1070
     1
1070
   340
1005
101
1070
   271
1070
     1
1070
   272
1070
     2
1070
    77
1070
     1
1070
    73
1070
     1
1070
   171
1070
     3
1070
   274
1070
     4
1070
   177
1070
   150
1070
   176
1070
     9
1070
   178
1070
    43
1070
    78
1070
     8
1070
    48
1040
-0.1
1070
    41
1040
3.175
1070
   147
1040
1.75006
1070
    42
1040
1.5875
1070
    44
1040
3.175
1070
   140
1040
3.50012
1002
}
1001
ACAD_DSTYLE_DIM_LINETYPE
1070
   380
1005
16
1001
ACAD_DSTYLE_DIM_EXT1_LINETYPE
1070
   381
1005
16
1001
ACAD_DSTYLE_DIM_EXT2_LINETYPE
1070
   382
1005
16
0
DIMENSION
5
185
100
AcDbEntity
8
SK2
62
256
6
ByLayer
370
18
48
1
60
0
100
AcDbDimension
2
_U4
10
43
20
-18.74982
30
0
11
22.5
21
-18.74982
31
0
70
32
71
1
72
1
41
1
210
0
220
0
230
1
3
Standard
100
AcDbAlignedDimension
13
2
23
4.47
33
0
14
43
24
0
34
0
50
0
100
AcDbRotatedDimension
1001
ACAD
1000
DSTYLE
1002
{
1070
   371
1070
    13
1070
   372
1070
    13
1070
     3
1000

1070
   170
1070
     0
1070
   144
1040
1.0
1070
   277
1070
     2
1070
   284
1070
     8
1070
   278
1070
    46
1070
   146
1040
0.999966
1070
   345
1005
16
1070
   347
1005
16
1070
   346
1005
16
1070
   344
1005
107
1070
   343
1005
107
1070
   172
1070
     1
1070
    76
1070
     0
1070
    75
1070
     0
1070
   282
1070
     0
1070
   281
1070
     0
1070
    71
1070
     0
1070
    74
1070
     0
1070
   279
1070
     0
1070
   173
1070
     1
1070
   340
1005
101
1070
   271
1070
     1
1070
   272
1070
     2
1070
    77
1070
     1
1070
    73
1070
     1
1070
   171
1070
     3
1070
   274
1070
     4
1070
   177
1070
   150
1070
   176
1070
     9
1070
   178
1070
    43
1070
    78
1070
     8
1070
    48
1040
-0.1
1070
    41
1040
3.175
1070
   147
1040
1.75006
1070
    42
1040
1.5875
1070
    44
1040
3.175
1070
   140
1040
3.50012
1002
}
1001
ACAD_DSTYLE_DIM_LINETYPE
1070
   380
1005
16
1001
ACAD_DSTYLE_DIM_EXT1_LINETYPE
1070
   381
1005
16
1001
ACAD_DSTYLE_DIM_EXT2_LINETYPE
1070
   382
1005
16
0
DIMENSION
5
1A1
100
AcDbEntity
8
SK2
62
256
6
ByLayer
370
18
48
1
60
0
100
AcDbDimension
2
_U5
10
43
20
-10.82
30
0
11
30.4
21
-10.82
31
0
70
32
71
1
72
1
41
1
210
0
220
0
230
1
3
Standard
100
AcDbAlignedDimension
13
17.8
23
-3.97
33
0
14
43
24
0
34
0
50
0
100
AcDbRotatedDimension
1001
ACAD
1000
DSTYLE
1002
{
1070
   371
1070
    13
1070
   372
1070
    13
1070
     3
1000

1070
   170
1070
     0
1070
   144
1040
1.0
1070
   277
1070
     2
1070
   284
1070
     8
1070
   278
1070
    46
1070
   146
1040
1.25
1070
   345
1005
16
1070
   347
1005
16
1070
   346
1005
16
1070
   344
1005
107
1070
   343
1005
107
1070
   172
1070
     1
1070
    76
1070
     0
1070
    75
1070
     0
1070
   282
1070
     0
1070
   281
1070
     0
1070
    71
1070
     0
1070
    74
1070
     0
1070
   279
1070
     0
1070
   173
1070
     1
1070
   340
1005
101
1070
   271
1070
     1
1070
   272
1070
     2
1070
    77
1070
     1
1070
    73
1070
     1
1070
   171
1070
     3
1070
   274
1070
     4
1070
   177
1070
   150
1070
   176
1070
     9
1070
   178
1070
    43
1070
    78
1070
     8
1070
    48
1040
-0.1
1070
    41
1040
3.175
1070
   147
1040
0.42
1070
    42
1040
1.5875
1070
    44
1040
0.5
1070
   140
1040
2.8
1002
}
1001
ACAD_DSTYLE_DIM_LINETYPE
1070
   380
1005
16
1001
ACAD_DSTYLE_DIM_EXT1_LINETYPE
1070
   381
1005
16
1001
ACAD_DSTYLE_DIM_EXT2_LINETYPE
1070
   382
1005
16
0
DIMENSION
5
1BD
100
AcDbEntity
8
SK2
62
256
6
ByLayer
370
18
48
1
60
0
100
AcDbDimension
2
_U6
10
43
20
-37.50012
30
0
11
3.5
21
-37.50012
31
0
70
32
71
1
72
1
41
1
210
0
220
0
230
1
3
Standard
100
AcDbAlignedDimension
13
-36
23
0
33
0
14
43
24
0
34
0
50
0
100
AcDbRotatedDimension
1001
ACAD
1000
DSTYLE
1002
{
1070
   371
1070
    13
1070
   372
1070
    13
1070
     3
1000

1070
   170
1070
     0
1070
   144
1040
1.0
1070
   277
1070
     2
1070
   284
1070
     8
1070
   278
1070
    46
1070
   146
1040
0.999966
1070
   345
1005
16
1070
   347
1005
16
1070
   346
1005
16
1070
   344
1005
107
1070
   343
1005
107
1070
   172
1070
     1
1070
    76
1070
     0
1070
    75
1070
     0
1070
   282
1070
     0
1070
   281
1070
     0
1070
    71
1070
     0
1070
    74
1070
     0
1070
   279
1070
     0
1070
   173
1070
     1
1070
   340
1005
101
1070
   271
1070
     1
1070
   272
1070
     2
1070
    77
1070
     1
1070
    73
1070
     1
1070
   171
1070
     3
1070
   274
1070
     4
1070
   177
1070
   150
1070
   176
1070
     9
1070
   178
1070
    43
1070
    78
1070
     8
1070
    48
1040
-0.1
1070
    41
1040
3.175
1070
   147
1040
1.75006
1070
    42
1040
1.5875
1070
    44
1040
3.175
1070
   140
1040
3.50012
1002
}
1001
ACAD_DSTYLE_DIM_LINETYPE
1070
   380
1005
16
1001
ACAD_DSTYLE_DIM_EXT1_LINETYPE
1070
   381
1005
16
1001
ACAD_DSTYLE_DIM_EXT2_LINETYPE
1070
   382
1005
16
0
ENDSEC
0
SECTION
2
OBJECTS
0
DICTIONARY
5
249
330
0
100
AcDbDictionary
280
0
281
1
3
ACAD_GROUP
350
24a
3
ACAD_MLINESTYLE
350
24b
0
DICTIONARY
5
24a
330
0
100
AcDbDictionary
280
0
281
1
0
DICTIONARY
5
24b
330
0
100
AcDbDictionary
280
0
281
1
3
Standard
350
18
0
MLINESTYLE
5
18
330
24b
100
AcDbMlineStyle
2
Standard
70
0
3

62
256
51
90
52
90
71
2
49
-0.5
62
256
6
ByLayer
49
0.5
62
256
6
ByLayer
0
RASTERVARIABLES
5
237
330

100
AcDbRasterVariables
90
0
70
1
71
1
72
1
0
ENDSEC
0
EOF
