0
SECTION
2
HEADER
9
$ACADVER
1
AC1015
9
$DWGCODEPAGE
3
ANSI_1252
9
$HANDSEED
5
25b
9
$ANGBASE
50
0
9
$ANGDIR
70
0
9
$ATTMODE
70
1
9
$AUNITS
70
0
9
$AUPREC
70
0
9
$CECOLOR
62
256
9
$CELTSCALE
40
1
9
$CELTYPE
6
ByLayer
9
$CELWEIGHT
370
18
9
$CLAYER
8
0
9
$CMLJUST
70
0
9
$CMLSCALE
40
1
9
$CMLSTYLE
2
Standard
9
$DIMSTYLE
2
Standard
9
$TEXTSIZE
40
0.2
9
$TEXTSTYLE
7
Standard
9
$LUNITS
70
2
9
$LUPREC
70
4
9
$EXTNAMES
290
1
9
$INSUNITS
70
4
9
$LTSCALE
40
1
9
$LWDISPLAY
290
1
9
$PDMODE
70
0
9
$PDSIZE
40
0
9
$PLINEGEN
70
0
0
ENDSEC
0
SECTION
2
CLASSES
0
CLASS
1
RASTERVARIABLES
2
AcDbRasterVariables
3
ISM
90
0
280
0
281
0
0
ENDSEC
0
SECTION
2
TABLES
0
TABLE
2
VPORT
5
251
100
AcDbSymbolTable
0
VPORT
5
1
100
AcDbSymbolTableRecord
100
AcDbViewportTableRecord
2
*Active
70
0
10
0
20
0
11
1
21
1
12
-1
22
1
13
0
23
0
14
0.5
24
0.5
15
10
25
10
16
0
26
0
36
1
17
0
27
0
37
0
0
ENDTAB
0
TABLE
2
LTYPE
5
252
100
AcDbSymbolTable
0
LTYPE
5
14
100
AcDbSymbolTableRecord
100
AcDbLinetypeTableRecord
70
0
2
ByBlock
3

72
65
73
0
40
0
0
LTYPE
5
15
100
AcDbSymbolTableRecord
100
AcDbLinetypeTableRecord
70
0
2
ByLayer
3

72
65
73
0
40
0
0
LTYPE
5
16
100
AcDbSymbolTableRecord
100
AcDbLinetypeTableRecord
70
0
2
Continuous
3
Solid line
72
65
73
0
40
0
0
LTYPE
5
6E
100
AcDbSymbolTableRecord
100
AcDbLinetypeTableRecord
70
0
2
CENTER
3
____ _ ____ _ ____ _ ____
72
65
73
4
40
47.5
49
22
74
0
49
-8.5
74
0
49
8.5
74
0
49
-8.5
74
0
0
LTYPE
5
6F
100
AcDbSymbolTableRecord
100
AcDbLinetypeTableRecord
70
0
2
DASHED
3
__ __ __ __ __ __ __ __ __
72
65
73
2
40
25.72
49
12.86
74
0
49
-12.86
74
0
0
ENDTAB
0
TABLE
2
LAYER
5
253
100
AcDbSymbolTable
0
LAYER
5
10
100
AcDbSymbolTableRecord
100
AcDbLayerTableRecord
2
0
70
0
62
7
6
Continuous
290
1
370
-3
390
0
0
LAYER
5
71
100
AcDbSymbolTableRecord
100
AcDbLayerTableRecord
2
80
70
0
62
-6
6
Continuous
290
1
370
-3
390
0
0
LAYER
5
73
100
AcDbSymbolTableRecord
100
AcDbLayerTableRecord
2
81
70
0
62
-3
6
Continuous
290
1
370
-3
390
0
0
LAYER
5
75
100
AcDbSymbolTableRecord
100
AcDbLayerTableRecord
2
1
70
0
62
4
6
Continuous
290
1
370
-3
390
0
0
LAYER
5
A6
100
AcDbSymbolTableRecord
100
AcDbLayerTableRecord
2
4
70
0
62
-2
6
CENTER
290
1
370
-3
390
0
0
LAYER
5
115
100
AcDbSymbolTableRecord
100
AcDbLayerTableRecord
2
Defpoints
70
0
62
7
6
Continuous
290
0
370
-3
390
0
0
LAYER
5
142
100
AcDbSymbolTableRecord
100
AcDbLayerTableRecord
2
2
70
0
62
7
6
Continuous
290
1
370
-3
390
0
0
LAYER
5
23d
100
AcDbSymbolTableRecord
100
AcDbLayerTableRecord
2
SK1
70
0
62
4
6
Continuous
290
1
370
-3
390
0
0
LAYER
5
23e
100
AcDbSymbolTableRecord
100
AcDbLayerTableRecord
2
SK4
70
0
62
2
6
CENTER
290
1
370
-3
390
0
0
LAYER
5
23f
100
AcDbSymbolTableRecord
100
AcDbLayerTableRecord
2
SK2
70
0
62
7
6
Continuous
290
1
370
-3
390
0
0
LAYER
5
240
100
AcDbSymbolTableRecord
100
AcDbLayerTableRecord
2
SK6
70
0
62
5
6
Continuous
290
1
370
-3
390
0
0
ENDTAB
0
TABLE
2
STYLE
5
254
100
AcDbSymbolTable
0
STYLE
5
11
100
AcDbSymbolTableRecord
100
AcDbTextStyleTableRecord
2
Standard
3
txt
70
0
71
0
40
0
41
1
42
0
50
0
0
STYLE
5
106
100
AcDbSymbolTableRecord
100
AcDbTextStyleTableRecord
2
iso_b_vert
3
simplex.shx
70
0
71
0
40
0
41
1
42
0
50
0
0
STYLE
5
107
100
AcDbSymbolTableRecord
100
AcDbTextStyleTableRecord
2
DWGDirectTextStyle
3
simplex
70
0
71
0
40
0
41
1
42
0
50
0
0
ENDTAB
0
TABLE
2
DIMSTYLE
5
255
100
AcDbSymbolTable
100
AcDbDimStyleTable
0
DIMSTYLE
105
27
100
AcDbSymbolTableRecord
100
AcDbDimStyleTableRecord
2
Standard
70
0
3
<>
41
0.18
42
0.0625
44
0.18
140
0.18
147
0.09
73
0
74
0
77
1
271
2
275
0
278
52
280
0
340
11
0
ENDTAB
0
TABLE
2
VIEW
5
256
100
AcDbSymbolTable
0
ENDTAB
0
TABLE
2
UCS
5
257
100
AcDbSymbolTable
0
ENDTAB
0
TABLE
2
APPID
5
258
100
AcDbSymbolTable
0
APPID
5
12
100
AcDbSymbolTableRecord
100
AcDbRegAppTableRecord
2
ACAD
70
0
0
APPID
5
10A
100
AcDbSymbolTableRecord
100
AcDbRegAppTableRecord
2
ACAD_DSTYLE_DIMBREAK
70
0
0
APPID
5
1FC
100
AcDbSymbolTableRecord
100
AcDbRegAppTableRecord
2
ACAD_DSTYLE_DIM_LINETYPE
70
0
0
APPID
5
1FD
100
AcDbSymbolTableRecord
100
AcDbRegAppTableRecord
2
ACAD_DSTYLE_DIM_EXT1_LINETYPE
70
0
0
APPID
5
1FE
100
AcDbSymbolTableRecord
100
AcDbRegAppTableRecord
2
ACAD_DSTYLE_DIM_EXT2_LINETYPE
70
0
0
APPID
5
239
100
AcDbSymbolTableRecord
100
AcDbRegAppTableRecord
2
ACAD_MLEADERVER
70
0
0
ENDTAB
0
TABLE
2
BLOCK_RECORD
5
259
100
AcDbSymbolTable
0
BLOCK_RECORD
5
1F
100
AcDbSymbolTableRecord
100
AcDbBlockTableRecord
2
*Model_Space
340
0
70
0
0
BLOCK_RECORD
5
1B
100
AcDbSymbolTableRecord
100
AcDbBlockTableRecord
2
*Paper_Space
340
0
70
0
0
BLOCK_RECORD
5
23
100
AcDbSymbolTableRecord
100
AcDbBlockTableRecord
2
*Paper_Space0
340
0
70
0
0
BLOCK_RECORD
5
10C
100
AcDbSymbolTableRecord
100
AcDbBlockTableRecord
2
_Closed
340
0
70
0
0
BLOCK_RECORD
5
116
100
AcDbSymbolTableRecord
100
AcDbBlockTableRecord
2
*D2
340
0
70
0
0
BLOCK_RECORD
5
122
100
AcDbSymbolTableRecord
100
AcDbBlockTableRecord
2
_U0
340
0
70
0
0
BLOCK_RECORD
5
134
100
AcDbSymbolTableRecord
100
AcDbBlockTableRecord
2
*D4
340
0
70
0
0
BLOCK_RECORD
5
143
100
AcDbSymbolTableRecord
100
AcDbBlockTableRecord
2
_U1
340
0
70
0
0
BLOCK_RECORD
5
153
100
AcDbSymbolTableRecord
100
AcDbBlockTableRecord
2
*D6
340
0
70
0
0
BLOCK_RECORD
5
161
100
AcDbSymbolTableRecord
100
AcDbBlockTableRecord
2
_U2
340
0
70
0
0
BLOCK_RECORD
5
171
100
AcDbSymbolTableRecord
100
AcDbBlockTableRecord
2
*D8
340
0
70
0
0
BLOCK_RECORD
5
17D
100
AcDbSymbolTableRecord
100
AcDbBlockTableRecord
2
_U3
340
0
70
0
0
BLOCK_RECORD
5
18D
100
AcDbSymbolTableRecord
100
AcDbBlockTableRecord
2
*D10
340
0
70
0
0
BLOCK_RECORD
5
199
100
AcDbSymbolTableRecord
100
AcDbBlockTableRecord
2
_U4
340
0
70
0
0
BLOCK_RECORD
5
1A9
100
AcDbSymbolTableRecord
100
AcDbBlockTableRecord
2
*D12
340
0
70
0
0
BLOCK_RECORD
5
1B5
100
AcDbSymbolTableRecord
100
AcDbBlockTableRecord
2
_U5
340
0
70
0
0
BLOCK_RECORD
5
1C5
100
AcDbSymbolTableRecord
100
AcDbBlockTableRecord
2
*D14
340
0
70
0
0
BLOCK_RECORD
5
1D1
100
AcDbSymbolTableRecord
100
AcDbBlockTableRecord
2
_U6
340
0
70
0
0
ENDTAB
0
ENDSEC
0
SECTION
2
BLOCKS
0
BLOCK
5
20
100
AcDbEntity
8
0
100
AcDbBlockBegin
2
*Model_Space
70
0
10
0
20
0
30
0
3
*Model_Space
0
ENDBLK
5
21
100
AcDbEntity
8
0
100
AcDbBlockEnd
0
BLOCK
5
1C
100
AcDbEntity
8
0
100
AcDbBlockBegin
2
*Paper_Space
70
0
10
0
20
0
30
0
3
*Paper_Space
0
ENDBLK
5
1D
100
AcDbEntity
8
0
100
AcDbBlockEnd
0
BLOCK
5
24
100
AcDbEntity
8
0
100
AcDbBlockBegin
2
*Paper_Space0
70
0
10
0
20
0
30
0
3
*Paper_Space0
0
ENDBLK
5
25
100
AcDbEntity
8
0
100
AcDbBlockEnd
0
BLOCK
5
10D
100
AcDbEntity
8
0
100
AcDbBlockBegin
2
_Closed
70
0
10
0
20
0
30
0
3
_Closed
0
LINE
5
10F
100
AcDbEntity
8
0
62
256
6
ByLayer
370
-2
48
1
60
0
100
AcDbLine
10
-1
20
0.166667
30
0
11
0
21
0
31
0
39
0
210
0
220
0
230
1
0
LINE
5
110
100
AcDbEntity
8
0
62
256
6
ByLayer
370
-2
48
1
60
0
100
AcDbLine
10
0
20
0
30
0
11
-1
21
-0.166667
31
0
39
0
210
0
220
0
230
1
0
LINE
5
111
100
AcDbEntity
8
0
62
256
6
ByLayer
370
-2
48
1
60
0
100
AcDbLine
10
-1
20
0.166667
30
0
11
-1
21
-0.166667
31
0
39
0
210
0
220
0
230
1
0
LINE
5
112
100
AcDbEntity
8
0
62
256
6
ByLayer
370
-2
48
1
60
0
100
AcDbLine
10
0
20
0
30
0
11
-1
21
0
31
0
39
0
210
0
220
0
230
1
0
ENDBLK
5
10E
100
AcDbEntity
8
0
100
AcDbBlockEnd
0
BLOCK
5
117
100
AcDbEntity
8
0
100
AcDbBlockBegin
2
*D2
70
1
10
0
20
0
30
0
3
*D2
0
LINE
5
119
100
AcDbEntity
8
0
62
256
6
ByLayer
370
-2
48
1
60
0
100
AcDbLine
10
0
20
-6.5875
30
0
11
0
21
-31.67512
31
0
39
0
210
0
220
0
230
1
0
LINE
5
11A
100
AcDbEntity
8
0
62
256
6
ByLayer
370
-2
48
1
60
0
100
AcDbLine
10
49
20
-1.5875
30
0
11
49
21
-31.67512
31
0
39
0
210
0
220
0
230
1
0
LINE
5
11B
100
AcDbEntity
8
0
62
256
6
ByLayer
370
-2
48
1
60
0
100
AcDbLine
10
3.175
20
-28.50012
30
0
11
45.825
21
-28.50012
31
0
39
0
210
0
220
0
230
1
0
SOLID
5
11C
100
AcDbEntity
8
0
62
256
6
ByLayer
370
-1
48
1
60
0
100
AcDbTrace
10
3.175
20
-27.970953
30
0
11
3.175
21
-29.029287
31
0
12
0
22
-28.50012
32
0
13
0
23
-28.50012
33
0
39
0
210
0
220
0
230
1
0
SOLID
5
11D
100
AcDbEntity
8
0
62
256
6
ByLayer
370
-1
48
1
60
0
100
AcDbTrace
10
45.825
20
-29.029287
30
0
11
45.825
21
-27.970953
31
0
12
49
22
-28.50012
32
0
13
49
23
-28.50012
33
0
39
0
210
0
220
0
230
1
0
MTEXT
5
11E
100
AcDbEntity
8
0
62
256
6
ByLayer
370
18
48
1
60
0
100
AcDbMText
10
24.5
20
-21.193619
30
0
210
0
220
0
230
1
1
\A1;49
40
3.50012
41
0
44
1
50
0
71
5
72
5
7
iso_b_vert
0
POINT
5
11F
100
AcDbEntity
8
Defpoints
62
0
6
ByLayer
370
-1
48
1
60
0
100
AcDbPoint
10
0
20
-5
30
0
39
0
210
0
220
0
230
1
50
360
0
POINT
5
120
100
AcDbEntity
8
Defpoints
62
0
6
ByLayer
370
-1
48
1
60
0
100
AcDbPoint
10
49
20
0
30
0
39
0
210
0
220
0
230
1
50
360
0
POINT
5
121
100
AcDbEntity
8
Defpoints
62
0
6
ByLayer
370
-1
48
1
60
0
100
AcDbPoint
10
49
20
-28.50012
30
0
39
0
210
0
220
0
230
1
50
360
0
ENDBLK
5
118
100
AcDbEntity
8
0
100
AcDbBlockEnd
0
BLOCK
5
12F
100
AcDbEntity
8
0
100
AcDbBlockBegin
2
_U0
70
0
10
0
20
0
30
0
3
_U0
0
MTEXT
5
123
100
AcDbEntity
8
SK2
62
256
6
ByLayer
370
18
48
1
60
0
100
AcDbMText
10
19.086116
20
-27.467451
30
0
210
0
220
0
230
1
1
\W0.7694;49.00
40
3.50012
41
0
44
1.084337
50
0
71
7
72
5
7
iso_b_vert
0
MTEXT
5
124
100
AcDbEntity
8
SK2
62
256
6
ByLayer
370
18
48
1
60
0
100
AcDbMText
10
15.560056
20
-27.400814
30
0
210
0
220
0
230
1
1
\W0.1790;(
40
3.175
41
0
44
1.084337
50
0
71
7
72
5
7
iso_b_vert
0
MTEXT
5
125
100
AcDbEntity
8
SK2
62
256
6
ByLayer
370
18
48
1
60
0
100
AcDbMText
10
33.442666
20
-27.400814
30
0
210
0
220
0
230
1
1
\W0.1969;)
40
3.175
41
0
44
1.084337
50
0
71
7
72
5
7
iso_b_vert
0
LINE
5
126
100
AcDbEntity
8
SK2
62
256
6
ByLayer
370
13
48
1
60
0
100
AcDbLine
10
0
20
-6.5875
30
0
11
0
21
-31.67512
31
0
39
0
210
0
220
0
230
1
0
LINE
5
127
100
AcDbEntity
8
SK2
62
256
6
ByLayer
370
13
48
1
60
0
100
AcDbLine
10
49
20
-1.5875
30
0
11
49
21
-31.67512
31
0
39
0
210
0
220
0
230
1
0
LINE
5
128
100
AcDbEntity
8
SK2
62
256
6
ByLayer
370
13
48
1
60
0
100
AcDbLine
10
0
20
-28.50012
30
0
11
49
21
-28.50012
31
0
39
0
210
0
220
0
230
1
0
LINE
5
129
100
AcDbEntity
8
SK2
62
256
6
ByLayer
370
13
48
1
60
0
100
AcDbLine
10
0
20
-28.50012
30
0
11
3.174998
21
-28.082123
31
0
39
0
210
0
220
0
230
1
0
LINE
5
12A
100
AcDbEntity
8
SK2
62
256
6
ByLayer
370
13
48
1
60
0
100
AcDbLine
10
0
20
-28.50012
30
0
11
3.175002
21
-28.918117
31
0
39
0
210
0
220
0
230
1
0
LINE
5
12B
100
AcDbEntity
8
SK2
62
256
6
ByLayer
370
13
48
1
60
0
100
AcDbLine
10
3.174998
20
-28.082123
30
0
11
3.175002
21
-28.918117
31
0
39
0
210
0
220
0
230
1
0
LINE
5
12C
100
AcDbEntity
8
SK2
62
256
6
ByLayer
370
13
48
1
60
0
100
AcDbLine
10
49
20
-28.50012
30
0
11
45.825002
21
-28.918117
31
0
39
0
210
0
220
0
230
1
0
LINE
5
12D
100
AcDbEntity
8
SK2
62
256
6
ByLayer
370
13
48
1
60
0
100
AcDbLine
10
49
20
-28.50012
30
0
11
45.824998
21
-28.082123
31
0
39
0
210
0
220
0
230
1
0
LINE
5
12E
100
AcDbEntity
8
SK2
62
256
6
ByLayer
370
13
48
1
60
0
100
AcDbLine
10
45.825002
20
-28.918117
30
0
11
45.824998
21
-28.082123
31
0
39
0
210
0
220
0
230
1
0
ENDBLK
5
130
100
AcDbEntity
8
0
100
AcDbBlockEnd
0
BLOCK
5
135
100
AcDbEntity
8
0
100
AcDbBlockBegin
2
*D4
70
1
10
0
20
0
30
0
3
*D4
0
LINE
5
137
100
AcDbEntity
8
0
62
256
6
ByLayer
370
-2
48
1
60
0
100
AcDbLine
10
48.9678
20
-4.45
30
0
11
58.92506
21
-4.45
31
0
39
0
210
0
220
0
230
1
0
LINE
5
138
100
AcDbEntity
8
0
62
256
6
ByLayer
370
-2
48
1
60
0
100
AcDbLine
10
48.9678
20
4.45
30
0
11
58.92506
21
4.45
31
0
39
0
210
0
220
0
230
1
0
LINE
5
139
100
AcDbEntity
8
0
62
256
6
ByLayer
370
-2
48
1
60
0
100
AcDbLine
10
55.75006
20
4.45
30
0
11
55.75006
21
29.079793
31
0
39
0
210
0
220
0
230
1
0
LINE
5
13A
100
AcDbEntity
8
0
62
256
6
ByLayer
370
-2
48
1
60
0
100
AcDbLine
10
55.75006
20
-7.625
30
0
11
55.75006
21
-10.8
31
0
39
0
210
0
220
0
230
1
0
LINE
5
13B
100
AcDbEntity
8
0
62
256
6
ByLayer
370
-2
48
1
60
0
100
AcDbLine
10
55.75006
20
7.625
30
0
11
55.75006
21
10.8
31
0
39
0
210
0
220
0
230
1
0
SOLID
5
13C
100
AcDbEntity
8
0
62
256
6
ByLayer
370
-1
48
1
60
0
100
AcDbTrace
10
56.279227
20
-7.625
30
0
11
55.220893
21
-7.625
31
0
12
55.75006
22
-4.45
32
0
13
55.75006
23
-4.45
33
0
39
0
210
0
220
0
230
1
0
SOLID
5
13D
100
AcDbEntity
8
0
62
256
6
ByLayer
370
-1
48
1
60
0
100
AcDbTrace
10
55.220893
20
7.625
30
0
11
56.279227
21
7.625
31
0
12
55.75006
22
4.45
32
0
13
55.75006
23
4.45
33
0
39
0
210
0
220
0
230
1
0
MTEXT
5
13E
100
AcDbEntity
8
0
62
256
6
ByLayer
370
18
48
1
60
0
100
AcDbMText
10
48.443559
20
19.939897
30
0
210
0
220
0
230
1
1
\A1;8.9
40
3.50012
41
0
44
1
50
90
71
5
72
5
7
iso_b_vert
0
POINT
5
13F
100
AcDbEntity
8
Defpoints
62
0
6
ByLayer
370
-1
48
1
60
0
100
AcDbPoint
10
47.3803
20
-4.45
30
0
39
0
210
0
220
0
230
1
50
360
0
POINT
5
140
100
AcDbEntity
8
Defpoints
62
0
6
ByLayer
370
-1
48
1
60
0
100
AcDbPoint
10
47.3803
20
4.45
30
0
39
0
210
0
220
0
230
1
50
360
0
POINT
5
141
100
AcDbEntity
8
Defpoints
62
0
6
ByLayer
370
-1
48
1
60
0
100
AcDbPoint
10
55.75006
20
4.45
30
0
39
0
210
0
220
0
230
1
50
360
0
ENDBLK
5
136
100
AcDbEntity
8
0
100
AcDbBlockEnd
0
BLOCK
5
14E
100
AcDbEntity
8
0
100
AcDbBlockBegin
2
_U1
70
0
10
0
20
0
30
0
3
_U1
0
MTEXT
5
144
100
AcDbEntity
8
2
62
256
6
ByLayer
370
18
48
1
60
0
100
AcDbMText
10
55.060403
20
8.607505
30
0
210
0
220
0
230
1
1
\W0.7346;8.90
40
3.50012
41
0
44
1.084337
50
90
71
7
72
5
7
iso_b_vert
0
LINE
5
145
100
AcDbEntity
8
2
62
256
6
ByLayer
370
13
48
1
60
0
100
AcDbLine
10
48.9678
20
-4.45
30
0
11
58.92506
21
-4.45
31
0
39
0
210
0
220
0
230
1
0
LINE
5
146
100
AcDbEntity
8
2
62
256
6
ByLayer
370
13
48
1
60
0
100
AcDbLine
10
48.9678
20
4.45
30
0
11
58.92506
21
4.45
31
0
39
0
210
0
220
0
230
1
0
LINE
5
147
100
AcDbEntity
8
2
62
256
6
ByLayer
370
13
48
1
60
0
100
AcDbLine
10
55.75006
20
-4.45
30
0
11
55.75006
21
16.66468
31
0
39
0
210
0
220
0
230
1
0
LINE
5
148
100
AcDbEntity
8
2
62
256
6
ByLayer
370
13
48
1
60
0
100
AcDbLine
10
55.75006
20
-4.45
30
0
11
55.332063
21
-1.275002
31
0
39
0
210
0
220
0
230
1
0
LINE
5
149
100
AcDbEntity
8
2
62
256
6
ByLayer
370
13
48
1
60
0
100
AcDbLine
10
55.75006
20
-4.45
30
0
11
56.168057
21
-1.274998
31
0
39
0
210
0
220
0
230
1
0
LINE
5
14A
100
AcDbEntity
8
2
62
256
6
ByLayer
370
13
48
1
60
0
100
AcDbLine
10
55.332063
20
-1.275002
30
0
11
56.168057
21
-1.274998
31
0
39
0
210
0
220
0
230
1
0
LINE
5
14B
100
AcDbEntity
8
2
62
256
6
ByLayer
370
13
48
1
60
0
100
AcDbLine
10
55.75006
20
4.45
30
0
11
56.168057
21
1.275002
31
0
39
0
210
0
220
0
230
1
0
LINE
5
14C
100
AcDbEntity
8
2
62
256
6
ByLayer
370
13
48
1
60
0
100
AcDbLine
10
55.75006
20
4.45
30
0
11
55.332063
21
1.274998
31
0
39
0
210
0
220
0
230
1
0
LINE
5
14D
100
AcDbEntity
8
2
62
256
6
ByLayer
370
13
48
1
60
0
100
AcDbLine
10
56.168057
20
1.275002
30
0
11
55.332063
21
1.274998
31
0
39
0
210
0
220
0
230
1
0
ENDBLK
5
14F
100
AcDbEntity
8
0
100
AcDbBlockEnd
0
BLOCK
5
154
100
AcDbEntity
8
0
100
AcDbBlockBegin
2
*D6
70
1
10
0
20
0
30
0
3
*D6
0
LINE
5
156
100
AcDbEntity
8
0
62
256
6
ByLayer
370
-2
48
1
60
0
100
AcDbLine
10
-41.5875
20
5
30
0
11
-46.42494
21
5
31
0
39
0
210
0
220
0
230
1
0
LINE
5
157
100
AcDbEntity
8
0
62
256
6
ByLayer
370
-2
48
1
60
0
100
AcDbLine
10
-41.5875
20
-5
30
0
11
-46.42494
21
-5
31
0
39
0
210
0
220
0
230
1
0
LINE
5
158
100
AcDbEntity
8
0
62
256
6
ByLayer
370
-2
48
1
60
0
100
AcDbLine
10
-43.24994
20
5
30
0
11
-43.24994
21
28.117532
31
0
39
0
210
0
220
0
230
1
0
LINE
5
159
100
AcDbEntity
8
0
62
256
6
ByLayer
370
-2
48
1
60
0
100
AcDbLine
10
-43.24994
20
8.175
30
0
11
-43.24994
21
11.35
31
0
39
0
210
0
220
0
230
1
0
LINE
5
15A
100
AcDbEntity
8
0
62
256
6
ByLayer
370
-2
48
1
60
0
100
AcDbLine
10
-43.24994
20
-8.175
30
0
11
-43.24994
21
-11.35
31
0
39
0
210
0
220
0
230
1
0
SOLID
5
15B
100
AcDbEntity
8
0
62
256
6
ByLayer
370
-1
48
1
60
0
100
AcDbTrace
10
-43.779107
20
8.175
30
0
11
-42.720773
21
8.175
31
0
12
-43.24994
22
5
32
0
13
-43.24994
23
5
33
0
39
0
210
0
220
0
230
1
0
SOLID
5
15C
100
AcDbEntity
8
0
62
256
6
ByLayer
370
-1
48
1
60
0
100
AcDbTrace
10
-42.720773
20
-8.175
30
0
11
-43.779107
21
-8.175
31
0
12
-43.24994
22
-5
32
0
13
-43.24994
23
-5
33
0
39
0
210
0
220
0
230
1
0
MTEXT
5
15D
100
AcDbEntity
8
0
62
256
6
ByLayer
370
18
48
1
60
0
100
AcDbMText
10
-50.556441
20
19.97767
30
0
210
0
220
0
230
1
1
\A1;10
40
3.50012
41
0
44
1
50
90
71
5
72
5
7
iso_b_vert
0
POINT
5
15E
100
AcDbEntity
8
Defpoints
62
0
6
ByLayer
370
-1
48
1
60
0
100
AcDbPoint
10
-40
20
5
30
0
39
0
210
0
220
0
230
1
50
360
0
POINT
5
15F
100
AcDbEntity
8
Defpoints
62
0
6
ByLayer
370
-1
48
1
60
0
100
AcDbPoint
10
-40
20
-5
30
0
39
0
210
0
220
0
230
1
50
360
0
POINT
5
160
100
AcDbEntity
8
Defpoints
62
0
6
ByLayer
370
-1
48
1
60
0
100
AcDbPoint
10
-43.24994
20
-5
30
0
39
0
210
0
220
0
230
1
50
360
0
ENDBLK
5
155
100
AcDbEntity
8
0
100
AcDbBlockEnd
0
BLOCK
5
16C
100
AcDbEntity
8
0
100
AcDbBlockBegin
2
_U2
70
0
10
0
20
0
30
0
3
_U2
0
MTEXT
5
162
100
AcDbEntity
8
SK2
62
256
6
ByLayer
370
18
48
1
60
0
100
AcDbMText
10
-43.939597
20
15.157505
30
0
210
0
220
0
230
1
1
\W0.6864;10.00
40
3.50012
41
0
44
1.084337
50
90
71
7
72
5
7
iso_b_vert
0
LINE
5
163
100
AcDbEntity
8
SK2
62
256
6
ByLayer
370
13
48
1
60
0
100
AcDbLine
10
-41.5875
20
5
30
0
11
-46.42494
21
5
31
0
39
0
210
0
220
0
230
1
0
LINE
5
164
100
AcDbEntity
8
SK2
62
256
6
ByLayer
370
13
48
1
60
0
100
AcDbLine
10
-41.5875
20
-5
30
0
11
-46.42494
21
-5
31
0
39
0
210
0
220
0
230
1
0
LINE
5
165
100
AcDbEntity
8
SK2
62
256
6
ByLayer
370
13
48
1
60
0
100
AcDbLine
10
-43.24994
20
-5
30
0
11
-43.24994
21
24.955339
31
0
39
0
210
0
220
0
230
1
0
LINE
5
166
100
AcDbEntity
8
SK2
62
256
6
ByLayer
370
13
48
1
60
0
100
AcDbLine
10
-43.24994
20
5
30
0
11
-42.831943
21
1.825002
31
0
39
0
210
0
220
0
230
1
0
LINE
5
167
100
AcDbEntity
8
SK2
62
256
6
ByLayer
370
13
48
1
60
0
100
AcDbLine
10
-43.24994
20
5
30
0
11
-43.667937
21
1.824998
31
0
39
0
210
0
220
0
230
1
0
LINE
5
168
100
AcDbEntity
8
SK2
62
256
6
ByLayer
370
13
48
1
60
0
100
AcDbLine
10
-42.831943
20
1.825002
30
0
11
-43.667937
21
1.824998
31
0
39
0
210
0
220
0
230
1
0
LINE
5
169
100
AcDbEntity
8
SK2
62
256
6
ByLayer
370
13
48
1
60
0
100
AcDbLine
10
-43.24994
20
-5
30
0
11
-43.667937
21
-1.825002
31
0
39
0
210
0
220
0
230
1
0
LINE
5
16A
100
AcDbEntity
8
SK2
62
256
6
ByLayer
370
13
48
1
60
0
100
AcDbLine
10
-43.24994
20
-5
30
0
11
-42.831943
21
-1.824998
31
0
39
0
210
0
220
0
230
1
0
LINE
5
16B
100
AcDbEntity
8
SK2
62
256
6
ByLayer
370
13
48
1
60
0
100
AcDbLine
10
-43.667937
20
-1.825002
30
0
11
-42.831943
21
-1.824998
31
0
39
0
210
0
220
0
230
1
0
ENDBLK
5
16D
100
AcDbEntity
8
0
100
AcDbBlockEnd
0
BLOCK
5
172
100
AcDbEntity
8
0
100
AcDbBlockBegin
2
*D8
70
1
10
0
20
0
30
0
3
*D8
0
LINE
5
174
100
AcDbEntity
8
0
62
256
6
ByLayer
370
-2
48
1
60
0
100
AcDbLine
10
-40
20
-6.5875
30
0
11
-40
21
-31.67512
31
0
39
0
210
0
220
0
230
1
0
LINE
5
175
100
AcDbEntity
8
0
62
256
6
ByLayer
370
-2
48
1
60
0
100
AcDbLine
10
0
20
-6.5875
30
0
11
0
21
-31.67512
31
0
39
0
210
0
220
0
230
1
0
LINE
5
176
100
AcDbEntity
8
0
62
256
6
ByLayer
370
-2
48
1
60
0
100
AcDbLine
10
-36.825
20
-28.50012
30
0
11
-3.175
21
-28.50012
31
0
39
0
210
0
220
0
230
1
0
SOLID
5
177
100
AcDbEntity
8
0
62
256
6
ByLayer
370
-1
48
1
60
0
100
AcDbTrace
10
-36.825
20
-27.970953
30
0
11
-36.825
21
-29.029287
31
0
12
-40
22
-28.50012
32
0
13
-40
23
-28.50012
33
0
39
0
210
0
220
0
230
1
0
SOLID
5
178
100
AcDbEntity
8
0
62
256
6
ByLayer
370
-1
48
1
60
0
100
AcDbTrace
10
-3.175
20
-29.029287
30
0
11
-3.175
21
-27.970953
31
0
12
0
22
-28.50012
32
0
13
0
23
-28.50012
33
0
39
0
210
0
220
0
230
1
0
MTEXT
5
179
100
AcDbEntity
8
0
62
256
6
ByLayer
370
18
48
1
60
0
100
AcDbMText
10
-20
20
-21.193619
30
0
210
0
220
0
230
1
1
\A1;40
40
3.50012
41
0
44
1
50
0
71
5
72
5
7
iso_b_vert
0
POINT
5
17A
100
AcDbEntity
8
Defpoints
62
0
6
ByLayer
370
-1
48
1
60
0
100
AcDbPoint
10
-40
20
-5
30
0
39
0
210
0
220
0
230
1
50
360
0
POINT
5
17B
100
AcDbEntity
8
Defpoints
62
0
6
ByLayer
370
-1
48
1
60
0
100
AcDbPoint
10
0
20
-5
30
0
39
0
210
0
220
0
230
1
50
360
0
POINT
5
17C
100
AcDbEntity
8
Defpoints
62
0
6
ByLayer
370
-1
48
1
60
0
100
AcDbPoint
10
0
20
-28.50012
30
0
39
0
210
0
220
0
230
1
50
360
0
ENDBLK
5
173
100
AcDbEntity
8
0
100
AcDbBlockEnd
0
BLOCK
5
188
100
AcDbEntity
8
0
100
AcDbBlockBegin
2
_U3
70
0
10
0
20
0
30
0
3
_U3
0
MTEXT
5
17E
100
AcDbEntity
8
SK2
62
256
6
ByLayer
370
18
48
1
60
0
100
AcDbMText
10
-25.413884
20
-27.467451
30
0
210
0
220
0
230
1
1
\W0.7694;40.00
40
3.50012
41
0
44
1.084337
50
0
71
7
72
5
7
iso_b_vert
0
LINE
5
17F
100
AcDbEntity
8
SK2
62
256
6
ByLayer
370
13
48
1
60
0
100
AcDbLine
10
-40
20
-6.5875
30
0
11
-40
21
-31.67512
31
0
39
0
210
0
220
0
230
1
0
LINE
5
180
100
AcDbEntity
8
SK2
62
256
6
ByLayer
370
13
48
1
60
0
100
AcDbLine
10
0
20
-6.5875
30
0
11
0
21
-31.67512
31
0
39
0
210
0
220
0
230
1
0
LINE
5
181
100
AcDbEntity
8
SK2
62
256
6
ByLayer
370
13
48
1
60
0
100
AcDbLine
10
-40
20
-28.50012
30
0
11
0
21
-28.50012
31
0
39
0
210
0
220
0
230
1
0
LINE
5
182
100
AcDbEntity
8
SK2
62
256
6
ByLayer
370
13
48
1
60
0
100
AcDbLine
10
-40
20
-28.50012
30
0
11
-36.825002
21
-28.082123
31
0
39
0
210
0
220
0
230
1
0
LINE
5
183
100
AcDbEntity
8
SK2
62
256
6
ByLayer
370
13
48
1
60
0
100
AcDbLine
10
-40
20
-28.50012
30
0
11
-36.824998
21
-28.918117
31
0
39
0
210
0
220
0
230
1
0
LINE
5
184
100
AcDbEntity
8
SK2
62
256
6
ByLayer
370
13
48
1
60
0
100
AcDbLine
10
-36.825002
20
-28.082123
30
0
11
-36.824998
21
-28.918117
31
0
39
0
210
0
220
0
230
1
0
LINE
5
185
100
AcDbEntity
8
SK2
62
256
6
ByLayer
370
13
48
1
60
0
100
AcDbLine
10
0
20
-28.50012
30
0
11
-3.174998
21
-28.918117
31
0
39
0
210
0
220
0
230
1
0
LINE
5
186
100
AcDbEntity
8
SK2
62
256
6
ByLayer
370
13
48
1
60
0
100
AcDbLine
10
0
20
-28.50012
30
0
11
-3.175002
21
-28.082123
31
0
39
0
210
0
220
0
230
1
0
LINE
5
187
100
AcDbEntity
8
SK2
62
256
6
ByLayer
370
13
48
1
60
0
100
AcDbLine
10
-3.174998
20
-28.918117
30
0
11
-3.175002
21
-28.082123
31
0
39
0
210
0
220
0
230
1
0
ENDBLK
5
189
100
AcDbEntity
8
0
100
AcDbBlockEnd
0
BLOCK
5
18E
100
AcDbEntity
8
0
100
AcDbBlockBegin
2
*D10
70
1
10
0
20
0
30
0
3
*D10
0
LINE
5
190
100
AcDbEntity
8
0
62
256
6
ByLayer
370
-2
48
1
60
0
100
AcDbLine
10
2
20
3.3625
30
0
11
2
21
-22.92482
31
0
39
0
210
0
220
0
230
1
0
LINE
5
191
100
AcDbEntity
8
0
62
256
6
ByLayer
370
-2
48
1
60
0
100
AcDbLine
10
49
20
-1.5875
30
0
11
49
21
-22.92482
31
0
39
0
210
0
220
0
230
1
0
LINE
5
192
100
AcDbEntity
8
0
62
256
6
ByLayer
370
-2
48
1
60
0
100
AcDbLine
10
5.175
20
-19.74982
30
0
11
45.825
21
-19.74982
31
0
39
0
210
0
220
0
230
1
0
SOLID
5
193
100
AcDbEntity
8
0
62
256
6
ByLayer
370
-1
48
1
60
0
100
AcDbTrace
10
5.175
20
-19.220653
30
0
11
5.175
21
-20.278987
31
0
12
2
22
-19.74982
32
0
13
2
23
-19.74982
33
0
39
0
210
0
220
0
230
1
0
SOLID
5
194
100
AcDbEntity
8
0
62
256
6
ByLayer
370
-1
48
1
60
0
100
AcDbTrace
10
45.825
20
-20.278987
30
0
11
45.825
21
-19.220653
31
0
12
49
22
-19.74982
32
0
13
49
23
-19.74982
33
0
39
0
210
0
220
0
230
1
0
MTEXT
5
195
100
AcDbEntity
8
0
62
256
6
ByLayer
370
18
48
1
60
0
100
AcDbMText
10
25.5
20
-12.443319
30
0
210
0
220
0
230
1
1
\A1;47
40
3.50012
41
0
44
1
50
0
71
5
72
5
7
iso_b_vert
0
POINT
5
196
100
AcDbEntity
8
Defpoints
62
0
6
ByLayer
370
-1
48
1
60
0
100
AcDbPoint
10
2
20
4.95
30
0
39
0
210
0
220
0
230
1
50
360
0
POINT
5
197
100
AcDbEntity
8
Defpoints
62
0
6
ByLayer
370
-1
48
1
60
0
100
AcDbPoint
10
49
20
0
30
0
39
0
210
0
220
0
230
1
50
360
0
POINT
5
198
100
AcDbEntity
8
Defpoints
62
0
6
ByLayer
370
-1
48
1
60
0
100
AcDbPoint
10
49
20
-19.74982
30
0
39
0
210
0
220
0
230
1
50
360
0
ENDBLK
5
18F
100
AcDbEntity
8
0
100
AcDbBlockEnd
0
BLOCK
5
1A4
100
AcDbEntity
8
0
100
AcDbBlockBegin
2
_U4
70
0
10
0
20
0
30
0
3
_U4
0
MTEXT
5
19A
100
AcDbEntity
8
SK2
62
256
6
ByLayer
370
18
48
1
60
0
100
AcDbMText
10
20.086116
20
-18.717151
30
0
210
0
220
0
230
1
1
\W0.7694;47.00
40
3.50012
41
0
44
1.084337
50
0
71
7
72
5
7
iso_b_vert
0
LINE
5
19B
100
AcDbEntity
8
SK2
62
256
6
ByLayer
370
13
48
1
60
0
100
AcDbLine
10
2
20
3.3625
30
0
11
2
21
-22.92482
31
0
39
0
210
0
220
0
230
1
0
LINE
5
19C
100
AcDbEntity
8
SK2
62
256
6
ByLayer
370
13
48
1
60
0
100
AcDbLine
10
49
20
-1.5875
30
0
11
49
21
-22.92482
31
0
39
0
210
0
220
0
230
1
0
LINE
5
19D
100
AcDbEntity
8
SK2
62
256
6
ByLayer
370
13
48
1
60
0
100
AcDbLine
10
2
20
-19.74982
30
0
11
49
21
-19.74982
31
0
39
0
210
0
220
0
230
1
0
LINE
5
19E
100
AcDbEntity
8
SK2
62
256
6
ByLayer
370
13
48
1
60
0
100
AcDbLine
10
2
20
-19.74982
30
0
11
5.174998
21
-19.331823
31
0
39
0
210
0
220
0
230
1
0
LINE
5
19F
100
AcDbEntity
8
SK2
62
256
6
ByLayer
370
13
48
1
60
0
100
AcDbLine
10
2
20
-19.74982
30
0
11
5.175002
21
-20.167817
31
0
39
0
210
0
220
0
230
1
0
LINE
5
1A0
100
AcDbEntity
8
SK2
62
256
6
ByLayer
370
13
48
1
60
0
100
AcDbLine
10
5.174998
20
-19.331823
30
0
11
5.175002
21
-20.167817
31
0
39
0
210
0
220
0
230
1
0
LINE
5
1A1
100
AcDbEntity
8
SK2
62
256
6
ByLayer
370
13
48
1
60
0
100
AcDbLine
10
49
20
-19.74982
30
0
11
45.825002
21
-20.167817
31
0
39
0
210
0
220
0
230
1
0
LINE
5
1A2
100
AcDbEntity
8
SK2
62
256
6
ByLayer
370
13
48
1
60
0
100
AcDbLine
10
49
20
-19.74982
30
0
11
45.824998
21
-19.331823
31
0
39
0
210
0
220
0
230
1
0
LINE
5
1A3
100
AcDbEntity
8
SK2
62
256
6
ByLayer
370
13
48
1
60
0
100
AcDbLine
10
45.825002
20
-20.167817
30
0
11
45.824998
21
-19.331823
31
0
39
0
210
0
220
0
230
1
0
ENDBLK
5
1A5
100
AcDbEntity
8
0
100
AcDbBlockEnd
0
BLOCK
5
1AA
100
AcDbEntity
8
0
100
AcDbBlockBegin
2
*D12
70
1
10
0
20
0
30
0
3
*D12
0
LINE
5
1AC
100
AcDbEntity
8
0
62
256
6
ByLayer
370
-2
48
1
60
0
100
AcDbLine
10
20.7
20
-6.0375
30
0
11
20.7
21
-12.32
31
0
39
0
210
0
220
0
230
1
0
LINE
5
1AD
100
AcDbEntity
8
0
62
256
6
ByLayer
370
-2
48
1
60
0
100
AcDbLine
10
49
20
-1.5875
30
0
11
49
21
-12.32
31
0
39
0
210
0
220
0
230
1
0
LINE
5
1AE
100
AcDbEntity
8
0
62
256
6
ByLayer
370
-2
48
1
60
0
100
AcDbLine
10
23.875
20
-11.82
30
0
11
45.825
21
-11.82
31
0
39
0
210
0
220
0
230
1
0
SOLID
5
1AF
100
AcDbEntity
8
0
62
256
6
ByLayer
370
-1
48
1
60
0
100
AcDbTrace
10
23.875
20
-11.290833
30
0
11
23.875
21
-12.349167
31
0
12
20.7
22
-11.82
32
0
13
20.7
23
-11.82
33
0
39
0
210
0
220
0
230
1
0
SOLID
5
1B0
100
AcDbEntity
8
0
62
256
6
ByLayer
370
-1
48
1
60
0
100
AcDbTrace
10
45.825
20
-12.349167
30
0
11
45.825
21
-11.290833
31
0
12
49
22
-11.82
32
0
13
49
23
-11.82
33
0
39
0
210
0
220
0
230
1
0
MTEXT
5
1B1
100
AcDbEntity
8
0
62
256
6
ByLayer
370
18
48
1
60
0
100
AcDbMText
10
34.85
20
-5.975
30
0
210
0
220
0
230
1
1
\A1;28.3
40
2.8
41
0
44
1
50
0
71
5
72
5
7
iso_b_vert
0
POINT
5
1B2
100
AcDbEntity
8
Defpoints
62
0
6
ByLayer
370
-1
48
1
60
0
100
AcDbPoint
10
20.7
20
-4.45
30
0
39
0
210
0
220
0
230
1
50
360
0
POINT
5
1B3
100
AcDbEntity
8
Defpoints
62
0
6
ByLayer
370
-1
48
1
60
0
100
AcDbPoint
10
49
20
0
30
0
39
0
210
0
220
0
230
1
50
360
0
POINT
5
1B4
100
AcDbEntity
8
Defpoints
62
0
6
ByLayer
370
-1
48
1
60
0
100
AcDbPoint
10
49
20
-11.82
30
0
39
0
210
0
220
0
230
1
50
360
0
ENDBLK
5
1AB
100
AcDbEntity
8
0
100
AcDbBlockEnd
0
BLOCK
5
1C0
100
AcDbEntity
8
0
100
AcDbBlockBegin
2
_U5
70
0
10
0
20
0
30
0
3
_U5
0
MTEXT
5
1B6
100
AcDbEntity
8
SK2
62
256
6
ByLayer
370
18
48
1
60
0
100
AcDbMText
10
30.666454
20
-11.973893
30
0
210
0
220
0
230
1
1
\W0.7468;28.30
40
2.8
41
0
44
1.084337
50
0
71
7
72
5
7
iso_b_vert
0
LINE
5
1B7
100
AcDbEntity
8
SK2
62
256
6
ByLayer
370
13
48
1
60
0
100
AcDbLine
10
20.7
20
-6.0375
30
0
11
20.7
21
-12.32
31
0
39
0
210
0
220
0
230
1
0
LINE
5
1B8
100
AcDbEntity
8
SK2
62
256
6
ByLayer
370
13
48
1
60
0
100
AcDbLine
10
49
20
-1.5875
30
0
11
49
21
-12.32
31
0
39
0
210
0
220
0
230
1
0
LINE
5
1B9
100
AcDbEntity
8
SK2
62
256
6
ByLayer
370
13
48
1
60
0
100
AcDbLine
10
20.7
20
-11.82
30
0
11
49
21
-11.82
31
0
39
0
210
0
220
0
230
1
0
LINE
5
1BA
100
AcDbEntity
8
SK2
62
256
6
ByLayer
370
13
48
1
60
0
100
AcDbLine
10
20.7
20
-11.82
30
0
11
23.874998
21
-11.402003
31
0
39
0
210
0
220
0
230
1
0
LINE
5
1BB
100
AcDbEntity
8
SK2
62
256
6
ByLayer
370
13
48
1
60
0
100
AcDbLine
10
20.7
20
-11.82
30
0
11
23.875002
21
-12.237997
31
0
39
0
210
0
220
0
230
1
0
LINE
5
1BC
100
AcDbEntity
8
SK2
62
256
6
ByLayer
370
13
48
1
60
0
100
AcDbLine
10
23.874998
20
-11.402003
30
0
11
23.875002
21
-12.237997
31
0
39
0
210
0
220
0
230
1
0
LINE
5
1BD
100
AcDbEntity
8
SK2
62
256
6
ByLayer
370
13
48
1
60
0
100
AcDbLine
10
49
20
-11.82
30
0
11
45.825002
21
-12.237997
31
0
39
0
210
0
220
0
230
1
0
LINE
5
1BE
100
AcDbEntity
8
SK2
62
256
6
ByLayer
370
13
48
1
60
0
100
AcDbLine
10
49
20
-11.82
30
0
11
45.824998
21
-11.402003
31
0
39
0
210
0
220
0
230
1
0
LINE
5
1BF
100
AcDbEntity
8
SK2
62
256
6
ByLayer
370
13
48
1
60
0
100
AcDbLine
10
45.825002
20
-12.237997
30
0
11
45.824998
21
-11.402003
31
0
39
0
210
0
220
0
230
1
0
ENDBLK
5
1C1
100
AcDbEntity
8
0
100
AcDbBlockEnd
0
BLOCK
5
1C6
100
AcDbEntity
8
0
100
AcDbBlockBegin
2
*D14
70
1
10
0
20
0
30
0
3
*D14
0
LINE
5
1C8
100
AcDbEntity
8
0
62
256
6
ByLayer
370
-2
48
1
60
0
100
AcDbLine
10
-40
20
-1.5875
30
0
11
-40
21
-41.67512
31
0
39
0
210
0
220
0
230
1
0
LINE
5
1C9
100
AcDbEntity
8
0
62
256
6
ByLayer
370
-2
48
1
60
0
100
AcDbLine
10
49
20
-1.5875
30
0
11
49
21
-41.67512
31
0
39
0
210
0
220
0
230
1
0
LINE
5
1CA
100
AcDbEntity
8
0
62
256
6
ByLayer
370
-2
48
1
60
0
100
AcDbLine
10
-36.825
20
-38.50012
30
0
11
45.825
21
-38.50012
31
0
39
0
210
0
220
0
230
1
0
SOLID
5
1CB
100
AcDbEntity
8
0
62
256
6
ByLayer
370
-1
48
1
60
0
100
AcDbTrace
10
-36.825
20
-37.970953
30
0
11
-36.825
21
-39.029287
31
0
12
-40
22
-38.50012
32
0
13
-40
23
-38.50012
33
0
39
0
210
0
220
0
230
1
0
SOLID
5
1CC
100
AcDbEntity
8
0
62
256
6
ByLayer
370
-1
48
1
60
0
100
AcDbTrace
10
45.825
20
-39.029287
30
0
11
45.825
21
-37.970953
31
0
12
49
22
-38.50012
32
0
13
49
23
-38.50012
33
0
39
0
210
0
220
0
230
1
0
MTEXT
5
1CD
100
AcDbEntity
8
0
62
256
6
ByLayer
370
18
48
1
60
0
100
AcDbMText
10
4.5
20
-31.19362
30
0
210
0
220
0
230
1
1
\A1;89
40
3.50012
41
0
44
1
50
0
71
5
72
5
7
iso_b_vert
0
POINT
5
1CE
100
AcDbEntity
8
Defpoints
62
0
6
ByLayer
370
-1
48
1
60
0
100
AcDbPoint
10
-40
20
0
30
0
39
0
210
0
220
0
230
1
50
360
0
POINT
5
1CF
100
AcDbEntity
8
Defpoints
62
0
6
ByLayer
370
-1
48
1
60
0
100
AcDbPoint
10
49
20
0
30
0
39
0
210
0
220
0
230
1
50
360
0
POINT
5
1D0
100
AcDbEntity
8
Defpoints
62
0
6
ByLayer
370
-1
48
1
60
0
100
AcDbPoint
10
49
20
-38.50012
30
0
39
0
210
0
220
0
230
1
50
360
0
ENDBLK
5
1C7
100
AcDbEntity
8
0
100
AcDbBlockEnd
0
BLOCK
5
1DC
100
AcDbEntity
8
0
100
AcDbBlockBegin
2
_U6
70
0
10
0
20
0
30
0
3
_U6
0
MTEXT
5
1D2
100
AcDbEntity
8
SK2
62
256
6
ByLayer
370
18
48
1
60
0
100
AcDbMText
10
-0.729611
20
-37.467451
30
0
210
0
220
0
230
1
1
\W0.7468;89.00
40
3.50012
41
0
44
1.084337
50
0
71
7
72
5
7
iso_b_vert
0
LINE
5
1D3
100
AcDbEntity
8
SK2
62
256
6
ByLayer
370
13
48
1
60
0
100
AcDbLine
10
-40
20
-1.5875
30
0
11
-40
21
-41.67512
31
0
39
0
210
0
220
0
230
1
0
LINE
5
1D4
100
AcDbEntity
8
SK2
62
256
6
ByLayer
370
13
48
1
60
0
100
AcDbLine
10
49
20
-1.5875
30
0
11
49
21
-41.67512
31
0
39
0
210
0
220
0
230
1
0
LINE
5
1D5
100
AcDbEntity
8
SK2
62
256
6
ByLayer
370
13
48
1
60
0
100
AcDbLine
10
-40
20
-38.50012
30
0
11
49
21
-38.50012
31
0
39
0
210
0
220
0
230
1
0
LINE
5
1D6
100
AcDbEntity
8
SK2
62
256
6
ByLayer
370
13
48
1
60
0
100
AcDbLine
10
-40
20
-38.50012
30
0
11
-36.825002
21
-38.082123
31
0
39
0
210
0
220
0
230
1
0
LINE
5
1D7
100
AcDbEntity
8
SK2
62
256
6
ByLayer
370
13
48
1
60
0
100
AcDbLine
10
-40
20
-38.50012
30
0
11
-36.824998
21
-38.918117
31
0
39
0
210
0
220
0
230
1
0
LINE
5
1D8
100
AcDbEntity
8
SK2
62
256
6
ByLayer
370
13
48
1
60
0
100
AcDbLine
10
-36.825002
20
-38.082123
30
0
11
-36.824998
21
-38.918117
31
0
39
0
210
0
220
0
230
1
0
LINE
5
1D9
100
AcDbEntity
8
SK2
62
256
6
ByLayer
370
13
48
1
60
0
100
AcDbLine
10
49
20
-38.50012
30
0
11
45.825002
21
-38.918117
31
0
39
0
210
0
220
0
230
1
0
LINE
5
1DA
100
AcDbEntity
8
SK2
62
256
6
ByLayer
370
13
48
1
60
0
100
AcDbLine
10
49
20
-38.50012
30
0
11
45.824998
21
-38.082123
31
0
39
0
210
0
220
0
230
1
0
LINE
5
1DB
100
AcDbEntity
8
SK2
62
256
6
ByLayer
370
13
48
1
60
0
100
AcDbLine
10
45.825002
20
-38.918117
30
0
11
45.824998
21
-38.082123
31
0
39
0
210
0
220
0
230
1
0
ENDBLK
5
1DD
100
AcDbEntity
8
0
100
AcDbBlockEnd
0
ENDSEC
0
SECTION
2
ENTITIES
0
ARC
5
B2
100
AcDbEntity
8
1
62
256
6
ByLayer
370
18
48
1
60
0
100
AcDbCircle
39
0
10
1.231763
20
5.221156
30
0
40
0.800000000000001
210
0
220
0
230
1
100
AcDbArc
50
219.659414
51
270.03581
0
ARC
5
B3
100
AcDbEntity
8
1
62
256
6
ByLayer
370
18
48
1
60
0
100
AcDbCircle
39
0
10
1.231763
20
-5.221156
30
0
40
0.800000000000001
210
0
220
0
230
1
100
AcDbArc
50
89.96419
51
140.340586
0
ARC
5
B4
100
AcDbEntity
8
1
62
256
6
ByLayer
370
18
48
1
60
0
100
AcDbCircle
39
0
10
0
20
4.2
30
0
40
0.800000000000001
210
0
220
0
230
1
100
AcDbArc
50
39.659414
51
90
0
ARC
5
B5
100
AcDbEntity
8
1
62
256
6
ByLayer
370
18
48
1
60
0
100
AcDbCircle
39
0
10
0
20
-4.2
30
0
40
0.800000000000001
210
0
220
0
230
1
100
AcDbArc
50
270
51
320.340586
0
ARC
5
B6
100
AcDbEntity
8
SK2
62
256
6
ByLayer
370
13
48
1
60
0
100
AcDbCircle
39
0
10
49
20
0
30
0
40
20
210
0
220
0
230
1
100
AcDbArc
50
9.606349
51
69.999631
0
ARC
5
B7
100
AcDbEntity
8
SK2
62
256
6
ByLayer
370
13
48
1
60
0
100
AcDbCircle
39
0
10
49
20
0
30
0
40
20
210
0
220
0
230
1
100
AcDbArc
50
290.000369
51
350.393651
0
ELLIPSE
5
B8
100
AcDbEntity
8
1
62
256
6
ByLayer
370
18
48
1
60
0
100
AcDbEllipse
10
3.601724
20
4.300501
30
0
11
0.1
21
0
31
0
210
0
220
0
230
1
40
1
41
-3.14153059550467
42
-1.55445382378729
0
ELLIPSE
5
B9
100
AcDbEntity
8
1
62
256
6
ByLayer
370
18
48
1
60
0
100
AcDbEllipse
10
3.601724
20
-4.300501
30
0
11
0.1
21
0
31
0
210
0
220
0
230
1
40
1
41
3.03853059498511
42
3.14153059550466
0
POINT
5
70
100
AcDbEntity
8
80
62
256
6
ByLayer
370
18
48
1
60
0
100
AcDbPoint
10
0
20
0
30
0
39
0
210
0
220
0
230
1
50
360
0
POINT
5
72
100
AcDbEntity
8
81
62
256
6
ByLayer
370
18
48
1
60
0
100
AcDbPoint
10
49
20
0
30
0
39
0
210
0
220
0
230
1
50
360
0
POINT
5
74
100
AcDbEntity
8
1
62
256
6
ByLayer
370
18
48
1
60
0
100
AcDbPoint
10
-40
20
0
30
0
39
0
210
0
220
0
230
1
50
360
0
POINT
5
76
100
AcDbEntity
8
1
62
256
6
ByLayer
370
18
48
1
60
1
100
AcDbPoint
10
0
20
-5
30
0
39
0
210
0
220
0
230
1
50
360
0
POINT
5
77
100
AcDbEntity
8
1
62
256
6
ByLayer
370
18
48
1
60
1
100
AcDbPoint
10
49
20
0
30
0
39
0
210
0
220
0
230
1
50
360
0
POINT
5
78
100
AcDbEntity
8
1
62
256
6
ByLayer
370
18
48
1
60
1
100
AcDbPoint
10
47.3803
20
-4.45
30
0
39
0
210
0
220
0
230
1
50
360
0
POINT
5
79
100
AcDbEntity
8
1
62
256
6
ByLayer
370
18
48
1
60
1
100
AcDbPoint
10
47.3803
20
4.45
30
0
39
0
210
0
220
0
230
1
50
360
0
POINT
5
7A
100
AcDbEntity
8
1
62
256
6
ByLayer
370
18
48
1
60
1
100
AcDbPoint
10
-40
20
5
30
0
39
0
210
0
220
0
230
1
50
360
0
POINT
5
7B
100
AcDbEntity
8
1
62
256
6
ByLayer
370
18
48
1
60
1
100
AcDbPoint
10
-40
20
-5
30
0
39
0
210
0
220
0
230
1
50
360
0
POINT
5
7C
100
AcDbEntity
8
1
62
256
6
ByLayer
370
18
48
1
60
1
100
AcDbPoint
10
-40
20
-5
30
0
39
0
210
0
220
0
230
1
50
360
0
POINT
5
7D
100
AcDbEntity
8
1
62
256
6
ByLayer
370
18
48
1
60
1
100
AcDbPoint
10
0
20
-5
30
0
39
0
210
0
220
0
230
1
50
360
0
POINT
5
7E
100
AcDbEntity
8
1
62
256
6
ByLayer
370
18
48
1
60
1
100
AcDbPoint
10
2
20
4.95
30
0
39
0
210
0
220
0
230
1
50
360
0
POINT
5
7F
100
AcDbEntity
8
1
62
256
6
ByLayer
370
18
48
1
60
1
100
AcDbPoint
10
49
20
0
30
0
39
0
210
0
220
0
230
1
50
360
0
POINT
5
80
100
AcDbEntity
8
1
62
256
6
ByLayer
370
18
48
1
60
1
100
AcDbPoint
10
20.7
20
-4.45
30
0
39
0
210
0
220
0
230
1
50
360
0
POINT
5
81
100
AcDbEntity
8
1
62
256
6
ByLayer
370
18
48
1
60
1
100
AcDbPoint
10
49
20
0
30
0
39
0
210
0
220
0
230
1
50
360
0
POINT
5
82
100
AcDbEntity
8
1
62
256
6
ByLayer
370
18
48
1
60
1
100
AcDbPoint
10
-40
20
0
30
0
39
0
210
0
220
0
230
1
50
360
0
POINT
5
83
100
AcDbEntity
8
1
62
256
6
ByLayer
370
18
48
1
60
1
100
AcDbPoint
10
49
20
0
30
0
39
0
210
0
220
0
230
1
50
360
0
SPLINE
5
BA
100
AcDbEntity
8
SK1
62
256
6
ByLayer
370
18
48
1
60
0
100
AcDbSpline
70
4
71
3
72
12
73
8
40
0
40
0
40
0
40
0
40
0.25
40
0.25
40
0.5
40
0.5
40
1
40
1
40
1
40
1
41
1
10
-39.25
20
0.974907600960904
30
-1E-16
41
1
10
-39.25
20
0.991508353009607
30
-1E-16
41
1
10
-39.2542356595512
20
1.00683731651583
30
-1E-16
41
1
10
-39.2670201478927
20
1.03197708691187
30
-1E-16
41
1
10
-39.2754787240944
20
1.04201570763243
30
-1E-16
41
1
10
-39.3037388541837
20
1.06564895227245
30
-1E-16
41
1
10
-39.3264173879165
20
1.07314456821203
30
-1E-16
41
1
10
-39.35
20
1.07272314287465
30
-1E-16
0
SPLINE
5
BB
100
AcDbEntity
8
SK1
62
256
6
ByLayer
370
18
48
1
60
0
100
AcDbSpline
70
4
71
3
72
10
73
6
40
0
40
0
40
0
40
0
40
0.5
40
0.5
40
1
40
1
40
1
40
1
41
1
10
-39.5179491924311
20
-0.929979433303799
30
1E-16
41
1
10
-39.5876699751126
20
-1.05249222009641
30
1E-16
41
1
10
-39.6641388303331
20
-1.15847463796399
30
1E-16
41
1
10
-39.8261141227368
20
-1.34762115680792
30
1E-16
41
1
10
-39.9120448679354
20
-1.4307946876506
30
1E-16
41
1
10
-40
20
-1.50347222391545
30
1E-16
0
SPLINE
5
BC
100
AcDbEntity
8
SK1
62
256
6
ByLayer
370
18
48
1
60
0
100
AcDbSpline
70
4
71
3
72
8
73
4
40
0
40
0
40
0
40
0
40
1
40
1
40
1
40
1
41
1
10
-39.5179491924311
20
-0.929979433303799
30
1E-16
41
1
10
-39.4620006271951
20
-0.928977261186901
30
1E-16
41
1
10
-39.4060161805658
20
-0.927975701105851
30
1E-16
41
1
10
-39.35
20
-0.926974682316683
30
1E-16
0
SPLINE
5
BD
100
AcDbEntity
8
SK1
62
256
6
ByLayer
370
18
48
1
60
0
100
AcDbSpline
70
4
71
3
72
8
73
4
40
0
40
0
40
0
40
0
40
1
40
1
40
1
40
1
41
1
10
-39.35
20
1.07272314287462
30
-1E-16
41
1
10
-39.4060167603144
20
1.07172211372523
30
-1E-16
41
1
10
-39.4620012304042
20
1.07072055319947
30
-1E-16
41
1
10
-39.5179491924311
20
1.06971839188748
30
-1E-16
0
SPLINE
5
BE
100
AcDbEntity
8
SK1
62
256
6
ByLayer
370
18
48
1
60
0
100
AcDbSpline
70
4
71
3
72
12
73
8
40
0
40
0
40
0
40
0
40
0.5
40
0.5
40
0.75
40
0.75
40
1
40
1
40
1
40
1
41
1
10
-40.0000000000001
20
1.6185550050152
30
-1E-16
41
1
10
-39.912301819033
20
1.55061196099496
30
-1E-16
41
1
10
-39.8274381477608
20
1.47293337419808
30
-1E-16
41
1
10
-39.7059808874661
20
1.33759372036675
30
-1E-16
41
1
10
-39.6664759928798
20
1.2893166473132
30
-1E-16
41
1
10
-39.589878508053
20
1.18513700838611
30
-1E-16
41
1
10
-39.5527406338607
20
1.12908603593974
30
-1E-16
41
1
10
-39.5179491924311
20
1.06971839188748
30
-1E-16
0
SPLINE
5
BF
100
AcDbEntity
8
SK1
62
256
6
ByLayer
370
18
48
1
60
0
100
AcDbSpline
70
4
71
3
72
12
73
8
40
0
40
0
40
0
40
0
40
0.500000000000004
40
0.500000000000004
40
0.750000000000002
40
0.750000000000002
40
1
40
1
40
1
40
1
41
1
10
-39.35
20
0.926974682316711
30
-1E-16
41
1
10
-39.3264104701644
20
0.926553133357913
30
-1E-16
41
1
10
-39.3036887129937
20
0.918109613767683
30
-1E-16
41
1
10
-39.2755991955322
20
0.893466580502036
30
-1E-16
41
1
10
-39.2670477710575
20
0.88296150385969
30
-1E-16
41
1
10
-39.2542669630692
20
0.857221148239489
30
-1E-16
41
1
10
-39.25
20
0.841524280216362
30
-1E-16
41
1
10
-39.25
20
0.824820441711267
30
-1E-16
0
SPLINE
5
C0
100
AcDbEntity
8
SK1
62
256
6
ByLayer
370
18
48
1
60
0
100
AcDbSpline
70
4
71
3
72
10
73
6
40
0
40
0
40
0
40
0
40
0.5
40
0.5
40
1
40
1
40
1
40
1
41
1
10
-39.5179491924311
20
0.929979433303828
30
-1E-16
41
1
10
-39.5876699751126
20
1.05249222009641
30
-1E-16
41
1
10
-39.6641388303331
20
1.15847463796399
30
-1E-16
41
1
10
-39.8261141227368
20
1.34762115680792
30
-1E-16
41
1
10
-39.9120448679354
20
1.4307946876506
30
-1E-16
41
1
10
-40
20
1.50347222391545
30
-1E-16
0
SPLINE
5
C1
100
AcDbEntity
8
SK1
62
256
6
ByLayer
370
18
48
1
60
0
100
AcDbSpline
70
4
71
3
72
8
73
4
40
0
40
0
40
0
40
0
40
1
40
1
40
1
40
1
41
1
10
-39.5179491924311
20
0.929979433303828
30
-1E-16
41
1
10
-39.4620006271951
20
0.92897726118693
30
-1E-16
41
1
10
-39.4060161805658
20
0.927975701105879
30
-1E-16
41
1
10
-39.35
20
0.926974682316683
30
-1E-16
0
SPLINE
5
C2
100
AcDbEntity
8
SK1
62
256
6
ByLayer
370
18
48
1
60
0
100
AcDbSpline
70
4
71
3
72
12
73
8
40
0
40
0
40
0
40
0
40
0.499999999999997
40
0.499999999999997
40
0.749999999999998
40
0.749999999999998
40
1
40
1
40
1
40
1
41
1
10
-39.35
20
-0.926974682316711
30
1E-16
41
1
10
-39.3264104701644
20
-0.926553133357913
30
1E-16
41
1
10
-39.3036887129937
20
-0.918109613767683
30
1E-16
41
1
10
-39.2755991955322
20
-0.893466580502007
30
1E-16
41
1
10
-39.2670477710575
20
-0.88296150385969
30
1E-16
41
1
10
-39.2542669630692
20
-0.857221148239461
30
1E-16
41
1
10
-39.25
20
-0.841524280216333
30
1E-16
41
1
10
-39.25
20
-0.824820441711267
30
1E-16
0
SPLINE
5
C3
100
AcDbEntity
8
1
62
256
6
ByLayer
370
18
48
1
60
0
100
AcDbSpline
70
2053
71
3
72
58
73
54
40
0
40
0
40
0
40
0
40
0.0625000000000001
40
0.0625000000000001
40
0.125
40
0.125
40
0.1875
40
0.1875
40
0.25
40
0.25
40
0.28125
40
0.28125
40
0.312500000000001
40
0.312500000000001
40
0.343750000000001
40
0.343750000000001
40
0.375000000000001
40
0.375000000000001
40
0.406250000000001
40
0.406250000000001
40
0.437500000000001
40
0.437500000000001
40
0.500000000000001
40
0.500000000000001
40
0.531250000000001
40
0.531250000000001
40
0.562500000000001
40
0.562500000000001
40
0.593750000000002
40
0.593750000000002
40
0.625000000000002
40
0.625000000000002
40
0.656250000000002
40
0.656250000000002
40
0.687500000000002
40
0.687500000000002
40
0.718750000000002
40
0.718750000000002
40
0.750000000000002
40
0.750000000000002
40
0.781250000000002
40
0.781250000000002
40
0.812500000000003
40
0.812500000000003
40
0.843750000000003
40
0.843750000000003
40
0.875000000000003
40
0.875000000000003
40
0.937500000000003
40
0.937500000000003
40
0.968750000000002
40
0.968750000000002
40
1
40
1
40
1
40
1
41
1
10
47.7967390926984
20
-1.91037536170636
30
-1E-16
41
1
10
47.7643521216288
20
-1.95117439219265
30
-1E-16
41
1
10
47.7341151074824
20
-1.9775441901449
30
-1E-16
41
1
10
47.6765162493023
20
-2.0023112248889
30
-1E-16
41
1
10
47.650656126192
20
-2.00000268523468
30
-1E-16
41
1
10
47.603240253744
20
-1.965399835021
30
1E-16
41
1
10
47.5829138755066
20
-1.93407457872064
30
1E-16
41
1
10
47.5480512268828
20
-1.84158767710898
30
1E-16
41
1
10
47.5345000361461
20
-1.78306542706591
30
1E-16
41
1
10
47.5208184148583
20
-1.67602221770019
30
1E-16
41
1
10
47.5175546000444
20
-1.63824442708528
30
1E-16
41
1
10
47.5138416831165
20
-1.55840832728123
30
1E-16
41
1
10
47.5134120121236
20
-1.51573082114186
30
1E-16
41
1
10
47.5160069954773
20
-1.42865515524625
30
1E-16
41
1
10
47.5189715109368
20
-1.38463843044937
30
1E-16
41
1
10
47.5287196606321
20
-1.29563977822116
30
1E-16
41
1
10
47.5355904105149
20
-1.25061094209681
30
1E-16
41
1
10
47.5528480026223
20
-1.16493693847281
30
1E-16
41
1
10
47.5634506905244
20
-1.12311770092424
30
1E-16
41
1
10
47.5879078381289
20
-1.04506545670384
30
1E-16
41
1
10
47.6015976700976
20
-1.00913700750371
30
1E-16
41
1
10
47.6469338578224
20
-0.910008703963541
30
1E-16
41
1
10
47.6819058881573
20
-0.858037290533815
30
1E-16
41
1
10
47.73626331758
20
-0.802332867956125
30
0
41
1
10
47.7546197272
20
-0.78745811055316
30
0
41
1
10
47.7916379898091
20
-0.764478000277279
30
0
41
1
10
47.8102225660996
20
-0.756481104432567
30
0
41
1
10
47.846428439206
20
-0.747331144540169
30
0
41
1
10
47.8641897875595
20
-0.746087030331211
30
0
41
1
10
47.8988459328532
20
-0.750201131383278
30
0
41
1
10
47.9156235900785
20
-0.755600678520068
30
0
41
1
10
47.9470846289584
20
-0.772739636459704
30
0
41
1
10
47.9618952071921
20
-0.784484842860934
30
0
41
1
10
47.9893808851824
20
-0.814749859132689
30
0
41
1
10
48.0020997529384
20
-0.833447053237023
30
1E-16
41
1
10
48.0240804198745
20
-0.876991753471629
30
1E-16
41
1
10
48.0334751548898
20
-0.901921205166786
30
1E-16
41
1
10
48.048581942624
20
-0.958944911442245
30
1E-16
41
1
10
48.0541897089551
20
-0.990924393733138
30
1E-16
41
1
10
48.0607417967145
20
-1.06004864271984
30
1E-16
41
1
10
48.0617452279705
20
-1.09803651228634
30
1E-16
41
1
10
48.058776380668
20
-1.17783675102163
30
1E-16
41
1
10
48.054891868968
20
-1.21928144083756
30
1E-16
41
1
10
48.0423870651439
20
-1.30544146637956
30
1E-16
41
1
10
48.0337418872851
20
-1.3498568810343
30
1E-16
41
1
10
48.0129726936117
20
-1.43692358800163
30
1E-16
41
1
10
48.0005760161536
20
-1.48073176586669
30
1E-16
41
1
10
47.9600161707272
20
-1.60621489424747
30
1E-16
41
1
10
47.9280572177946
20
-1.68374570844154
30
1E-16
41
1
10
47.8790565516018
20
-1.78226393274568
30
1E-16
41
1
10
47.8622941471748
20
-1.81262386779167
30
1E-16
41
1
10
47.8293177310659
20
-1.8663081504113
30
-1E-16
41
1
10
47.8129325782332
20
-1.88997584646322
30
-1E-16
41
1
10
47.7967390926984
20
-1.91037536170636
30
-1E-16
0
SPLINE
5
C4
100
AcDbEntity
8
1
62
256
6
ByLayer
370
18
48
1
60
0
100
AcDbSpline
70
4
71
3
72
80
73
76
40
0
40
0
40
0
40
0
40
0.0006684304983067
40
0.0006684304983067
40
0.0192361163157189
40
0.0192361163157189
40
0.037803802133131
40
0.037803802133131
40
0.0749391737679553
40
0.0749391737679553
40
0.0935068595853679
40
0.0935068595853679
40
0.112074545402781
40
0.112074545402781
40
0.149209917037606
40
0.149209917037606
40
0.186345288672431
40
0.186345288672431
40
0.204912974489844
40
0.204912974489844
40
0.223480660307257
40
0.223480660307257
40
0.260616031942084
40
0.260616031942084
40
0.297751403576911
40
0.297751403576911
40
0.334886775211738
40
0.334886775211738
40
0.372022146846565
40
0.372022146846565
40
0.390589832663979
40
0.390589832663979
40
0.409157518481393
40
0.409157518481393
40
0.44629289011622
40
0.44629289011622
40
0.464860575933633
40
0.464860575933633
40
0.483428261751046
40
0.483428261751046
40
0.520563633385873
40
0.520563633385873
40
0.5576990050207
40
0.5576990050207
40
0.576266690838113
40
0.576266690838113
40
0.594834376655527
40
0.594834376655527
40
0.631969748290354
40
0.631969748290354
40
0.66910511992518
40
0.66910511992518
40
0.706240491560007
40
0.706240491560007
40
0.743375863194833
40
0.743375863194833
40
0.761943549012247
40
0.761943549012247
40
0.78051123482966
40
0.78051123482966
40
0.817646606464487
40
0.817646606464487
40
0.836214292281901
40
0.836214292281901
40
0.854781978099315
40
0.854781978099315
40
0.891917349734142
40
0.891917349734142
40
0.92905272136897
40
0.92905272136897
40
0.947620407186383
40
0.947620407186383
40
0.966188093003797
40
0.966188093003797
40
1
40
1
40
1
40
1
41
1
10
41.6956556684245
20
-2.9387997887938
30
2E-16
41
1
10
41.6879308879633
20
-2.94178167011953
30
2E-16
41
1
10
41.6802053278705
20
-2.94476012128158
30
2E-16
41
1
10
41.4578558732813
20
-3.03037440560499
30
2E-16
41
1
10
41.2422742775281
20
-3.11056086550124
30
2E-16
41
1
10
40.8123157597419
20
-3.26428030927144
30
2E-16
41
1
10
40.5977730244436
20
-3.33782834586364
30
2E-16
41
1
10
39.9558802774412
20
-3.54927602296741
30
2E-16
41
1
10
39.5300551906847
20
-3.67756347191553
30
-2E-16
41
1
10
38.8917192301158
20
-3.84818287170506
30
-2E-16
41
1
10
38.6790153562304
20
-3.90146476555128
30
-2E-16
41
1
10
38.2541951934656
20
-4.00126018012267
30
0
41
1
10
38.0419345744658
20
-4.0476198385129
30
0
41
1
10
37.404774301243
20
-4.17539088027493
30
0
41
1
10
36.9792850814354
20
-4.24545395232406
30
0
41
1
10
36.1272053581624
20
-4.35524401787191
30
0
41
1
10
35.699996503085
20
-4.39452711511734
30
0
41
1
10
35.0555606674606
20
-4.42904414162041
30
0
41
1
10
34.8398407353306
20
-4.43651649149115
30
0
41
1
10
34.4100572669633
20
-4.44317630170829
30
0
41
1
10
34.1957190570815
20
-4.44236696792473
30
0
41
1
10
33.5538294399643
20
-4.42775033448365
30
0
41
1
10
33.1272813607013
20
-4.40185701321323
30
0
41
1
10
32.2767357190856
20
-4.31827687059408
30
0
41
1
10
31.8520649987803
20
-4.26076475073049
30
0
41
1
10
31.0020266171784
20
-4.11573829829908
30
0
41
1
10
30.5774465984264
20
-4.02760471765481
30
0
41
1
10
29.7251567244266
20
-3.82291907623926
30
-2E-16
41
1
10
29.2977582622655
20
-3.70621810331218
30
-2E-16
41
1
10
28.6540036870245
20
-3.50983350330864
30
2E-16
41
1
10
28.438464213889
20
-3.44080802486357
30
2E-16
41
1
10
28.0081314509692
20
-3.29700723088089
30
2E-16
41
1
10
27.793421505273
20
-3.22234807693445
30
2E-16
41
1
10
27.151004014989
20
-2.98969273458329
30
2E-16
41
1
10
26.7249640455412
20
-2.82300884332807
30
2E-16
41
1
10
26.0863779943269
20
-2.56030529809587
30
2E-16
41
1
10
25.8736020069363
20
-2.4706334334193
30
2E-16
41
1
10
25.4486534800701
20
-2.2863662421444
30
1E-16
41
1
10
25.2363693466643
20
-2.19194679158451
30
1E-16
41
1
10
24.5991724632962
20
-1.9034087951506
30
1E-16
41
1
10
24.1737199990728
20
-1.70442347149407
30
1E-16
41
1
10
23.3218434212565
20
-1.29244000931988
30
1E-16
41
1
10
22.894851724176
20
-1.08045076513289
30
1E-16
41
1
10
22.2508304516874
20
-0.757184803971882
30
0
41
1
10
22.0353175459164
20
-0.648237608658661
30
0
41
1
10
21.6049171213131
20
-0.428761526512346
30
0
41
1
10
21.3902970278286
20
-0.318844715693615
30
0
41
1
10
20.747637066634
20
0.0103656649484662
30
0
41
1
10
20.3206433521624
20
0.22882298221856
30
0
41
1
10
19.4694444633506
20
0.663618915010886
30
0
41
1
10
19.0445577407664
20
0.878567179126264
30
-1E-16
41
1
10
18.1942502028205
20
1.29982457923307
30
-1E-16
41
1
10
17.769623504736
20
1.5076482832599
30
-1E-16
41
1
10
16.9174771729671
20
1.91009178194204
30
-1E-16
41
1
10
16.490216879104
20
2.10523254663775
30
-1E-16
41
1
10
15.8468732373028
20
2.3874414287653
30
-1E-16
41
1
10
15.6317351511051
20
2.47961137346118
30
-2E-16
41
1
10
15.2007583529337
20
2.6591151825107
30
-2E-16
41
1
10
14.9857554365117
20
2.74603704037537
30
-2E-16
41
1
10
14.3424760171562
20
2.99893922035889
30
-2E-16
41
1
10
13.9160122127013
20
3.15705730517928
30
-2E-16
41
1
10
13.2769134657802
20
3.37453947859277
30
-2E-16
41
1
10
13.0639877033015
20
3.44379767100648
30
-2E-16
41
1
10
12.6387670986271
20
3.57638324974542
30
-2E-16
41
1
10
12.4263925998285
20
3.63959096526529
30
2E-16
41
1
10
11.7889859188426
20
3.81880884759531
30
2E-16
41
1
10
11.3634934933955
20
3.92434140652813
30
2E-16
41
1
10
10.5117193253573
20
4.10763486638567
30
0
41
1
10
10.0849181885104
20
4.18482658649634
30
0
41
1
10
9.44131084199688
20
4.2772252276429
30
0
41
1
10
9.22626872856856
20
4.30418291083194
30
0
41
1
10
8.79535989898935
20
4.3503341788583
30
0
41
1
10
8.58009033859315
20
4.36933850780281
30
0
41
1
10
7.97328492109375
20
4.41133694899079
30
0
41
1
10
7.58198652017094
20
4.4249016986233
30
0
41
1
10
7.19087351263155
20
4.42487888602184
30
0
0
SPLINE
5
C5
100
AcDbEntity
8
1
62
256
6
ByLayer
370
18
48
1
60
0
100
AcDbSpline
70
4
71
3
72
64
73
60
40
0
40
0
40
0
40
0
40
0.0624999999999984
40
0.0624999999999984
40
0.124999999999997
40
0.124999999999997
40
0.187499999999995
40
0.187499999999995
40
0.218749999999994
40
0.218749999999994
40
0.249999999999994
40
0.249999999999994
40
0.281249999999993
40
0.281249999999993
40
0.312499999999992
40
0.312499999999992
40
0.343749999999991
40
0.343749999999991
40
0.37499999999999
40
0.37499999999999
40
0.39062499999999
40
0.39062499999999
40
0.406249999999989
40
0.421874999999988
40
0.421874999999988
40
0.437499999999988
40
0.437499999999988
40
0.468749999999987
40
0.468749999999987
40
0.484374999999986
40
0.484374999999986
40
0.499999999999986
40
0.499999999999986
40
0.531249999999984
40
0.531249999999984
40
0.562499999999983
40
0.562499999999983
40
0.62499999999998
40
0.62499999999998
40
0.687499999999976
40
0.687499999999976
40
0.703124999999976
40
0.703124999999976
40
0.705078124999976
40
0.705078124999976
40
0.707031249999976
40
0.707031249999976
40
0.710937499999977
40
0.710937499999977
40
0.714843749999978
40
0.714843749999978
40
0.718749999999979
40
0.749999999999981
40
0.749999999999981
40
0.87499999999999
40
0.87499999999999
40
0.937499999999995
40
0.937499999999995
40
1
40
1
40
1
40
1
41
1
10
5.78426956376313
20
-4.36656737380588
30
0
41
1
10
5.53013990156475
20
-4.34557418938772
30
0
41
1
10
5.27929574429527
20
-4.31827362499229
30
0
41
1
10
4.7854027169704
20
-4.24793393930602
30
0
41
1
10
4.54233640586239
20
-4.20493551299879
30
0
41
1
10
4.0659597336124
20
-4.09835065369705
30
0
41
1
10
3.83260233436488
20
-4.03487358456144
30
0
41
1
10
3.49256209013811
20
-3.91775761716033
30
-2E-16
41
1
10
3.38110875652453
20
-3.87507200560049
30
-2E-16
41
1
10
3.16465041834391
20
-3.78161896621967
30
-2E-16
41
1
10
3.05938883037601
20
-3.73078066068501
30
-2E-16
41
1
10
2.85616491504913
20
-3.61887644069151
30
2E-16
41
1
10
2.75777910064289
20
-3.55749388326564
30
2E-16
41
1
10
2.57336628259446
20
-3.42369450632202
30
2E-16
41
1
10
2.48713440423518
20
-3.35126533105742
30
2E-16
41
1
10
2.32972999292124
20
-3.19238567432981
30
2E-16
41
1
10
2.25849582421688
20
-3.10597485875607
30
2E-16
41
1
10
2.13632517381672
20
-2.91426335787844
30
2E-16
41
1
10
2.08743792662961
20
-2.81201068555507
30
2E-16
41
1
10
2.03597897226666
20
-2.64716119959723
30
2E-16
41
1
10
2.02244531010132
20
-2.59000497949751
30
2E-16
41
1
10
2.00375484423006
20
-2.47270168392319
30
2E-16
41
1
10
1.99357846140657
20
-2.35376370697298
30
1E-16
41
1
10
2.00026925240874
20
-2.23160415208611
30
1E-16
41
1
10
2.01538852995569
20
-2.1078465888404
30
1E-16
41
1
10
2.02727574756093
20
-2.04475892674321
30
1E-16
41
1
10
2.07482240662165
20
-1.8562862906318
30
1E-16
41
1
10
2.12176062137633
20
-1.73268190025666
30
1E-16
41
1
10
2.21101034687774
20
-1.54987671432275
30
1E-16
41
1
10
2.2439993785593
20
-1.48930455542333
30
1E-16
41
1
10
2.31436074450861
20
-1.37121695315528
30
1E-16
41
1
10
2.35187357799214
20
-1.31338839509743
30
1E-16
41
1
10
2.47047150080041
20
-1.1430730074967
30
1E-16
41
1
10
2.55757093044045
20
-1.03373342465531
30
1E-16
41
1
10
2.74444278911613
20
-0.821745932398244
30
1E-16
41
1
10
2.84420875751277
20
-0.719257109164289
30
0
41
1
10
3.15247203128277
20
-0.426040211139224
30
0
41
1
10
3.37197358906005
20
-0.246713218703604
30
0
41
1
10
3.8295081512446
20
0.0904642646337948
30
0
41
1
10
4.06824405637428
20
0.24843958928102
30
0
41
1
10
4.37317867598591
20
0.434250147268926
30
0
41
1
10
4.43449628254436
20
0.470825937388781
30
0
41
1
10
4.50381639967497
20
0.51135236905813
30
0
41
1
10
4.51152237594732
20
0.515978917543208
30
0
41
1
10
4.52787398416893
20
0.522897518043237
30
0
41
1
10
4.53633846270523
20
0.52534625325373
30
0
41
1
10
4.56250795514103
20
0.529977251903375
30
0
41
1
10
4.58034502227702
20
0.529853297413297
30
0
41
1
10
4.61530362648887
20
0.524766142984078
30
0
41
1
10
4.63243725457281
20
0.519520490842183
30
0
41
1
10
4.66663726412469
20
0.509875509535135
30
0
41
1
10
4.82046663577182
20
0.466212872006253
30
0
41
1
10
4.97362676105593
20
0.420221894559603
30
0
41
1
10
5.65160483967912
20
0.206909081427057
30
0
41
1
10
6.18380310414028
20
0.0078055620110717
30
0
41
1
10
6.96888584397914
20
-0.324148190129335
30
0
41
1
10
7.22846083177973
20
-0.440333036352172
30
0
41
1
10
7.74264307674355
20
-0.68052745669678
30
0
41
1
10
7.9974663887611
20
-0.804637999054677
30
0
41
1
10
8.25060067437474
20
-0.931410566617132
30
1E-16
0
SPLINE
5
C6
100
AcDbEntity
8
1
62
256
6
ByLayer
370
18
48
1
60
0
100
AcDbSpline
70
4
71
3
72
66
73
62
40
0
40
0
40
0
40
0
40
0.0457477783022975
40
0.0457477783022975
40
0.0914955566045949
40
0.0914955566045949
40
0.137243334906892
40
0.137243334906892
40
0.160117224058041
40
0.160117224058041
40
0.18299111320919
40
0.18299111320919
40
0.228738891511487
40
0.228738891511487
40
0.274486669813784
40
0.274486669813784
40
0.32023444811608
40
0.32023444811608
40
0.343108337267229
40
0.343108337267229
40
0.365982226418377
40
0.365982226418377
40
0.411730004720673
40
0.411730004720673
40
0.434603893871821
40
0.434603893871821
40
0.457477783022969
40
0.457477783022969
40
0.503225561325265
40
0.503225561325265
40
0.526099450476413
40
0.526099450476413
40
0.548973339627562
40
0.548973339627562
40
0.57184722877871
40
0.57184722877871
40
0.594721117929858
40
0.594721117929858
40
0.640468896232154
40
0.640468896232154
40
0.663342785383303
40
0.663342785383303
40
0.686216674534452
40
0.686216674534452
40
0.73196445283675
40
0.73196445283675
40
0.777712231139048
40
0.777712231139048
40
0.823460009441346
40
0.823460009441346
40
0.846333898592495
40
0.846333898592495
40
0.869207787743643
40
0.869207787743643
40
0.914955566045939
40
0.914955566045939
40
0.960703344348235
40
0.960703344348235
40
0.983577233499383
40
0.983577233499383
40
1
40
1
40
1
40
1
41
1
10
3.64749028555818
20
4.27069674626995
30
0
41
1
10
4.09724352213064
20
4.33113388126696
30
0
41
1
10
4.54696055924214
20
4.3735827006189
30
0
41
1
10
5.44732721246226
20
4.42305978135144
30
0
41
1
10
5.89806011513372
20
4.43003180028532
30
0
41
1
10
6.79796472681113
20
4.40796515940269
30
0
41
1
10
7.24769036125838
20
4.37904506256433
30
0
41
1
10
7.92341014857925
20
4.30922090139831
30
0
41
1
10
8.14879092664432
20
4.28154903371004
30
0
41
1
10
8.59873371692856
20
4.2174996153181
30
0
41
1
10
8.82344793033022
20
4.18109133969386
30
0
41
1
10
9.49801195485287
20
4.05947246191434
30
0
41
1
10
9.94894928846753
20
3.96177249923008
30
0
41
1
10
10.8493164641156
20
3.73523823219685
30
2E-16
41
1
10
11.2978922519819
20
3.60607102608631
30
-2E-16
41
1
10
12.1955118313902
20
3.31990450479162
30
-2E-16
41
1
10
12.645071589599
20
3.16367693870987
30
-2E-16
41
1
10
13.3207148381633
20
2.90987373496245
30
-2E-16
41
1
10
13.5460010914428
20
2.82208758528625
30
-2E-16
41
1
10
13.9954047216494
20
2.64078041395561
30
-2E-16
41
1
10
14.2196882577378
20
2.5471215993218
30
-2E-16
41
1
10
14.8928881857903
20
2.25972477847367
30
-1E-16
41
1
10
15.3422280866973
20
2.05979021993153
30
-1E-16
41
1
10
16.0169349720183
20
1.74733491098758
30
-1E-16
41
1
10
16.2420697693987
20
1.64110233438365
30
-1E-16
41
1
10
16.6922723470589
20
1.42458761753025
30
-1E-16
41
1
10
16.9168314976486
20
1.31450464607383
30
-1E-16
41
1
10
17.5906470849453
20
0.982124036377712
30
-1E-16
41
1
10
18.0394317163487
20
0.756557002540063
30
0
41
1
10
18.7131917088597
20
0.41463373820244
30
0
41
1
10
18.9379460632974
20
0.300201490266374
30
0
41
1
10
19.3878410720782
20
0.0705158016516805
30
0
41
1
10
19.6131747952614
20
-0.0449010783221979
30
0
41
1
10
20.0631526401291
20
-0.27516926013692
30
0
41
1
10
20.287875970879
20
-0.389979070612725
30
0
41
1
10
20.7367861357612
20
-0.618959779945214
30
0
41
1
10
20.9608921051108
20
-0.733282509012867
30
0
41
1
10
21.6341633191756
20
-1.07187907685253
30
1E-16
41
1
10
22.0836923526291
20
-1.29295980394809
30
1E-16
41
1
10
22.7589251819599
20
-1.61774541223224
30
1E-16
41
1
10
22.9841461373819
20
-1.72486833950975
30
1E-16
41
1
10
23.4335032542392
20
-1.93527313788056
30
1E-16
41
1
10
23.657831580916
20
-2.03870674730854
30
1E-16
41
1
10
24.3310519687358
20
-2.34148911571256
30
1E-16
41
1
10
24.7802485143912
20
-2.53329457448902
30
2E-16
41
1
10
25.6792011483632
20
-2.897241132998
30
2E-16
41
1
10
26.1291842838267
20
-3.07015067881778
30
2E-16
41
1
10
27.0276705069325
20
-3.38669492244961
30
2E-16
41
1
10
27.476865277367
20
-3.53076893796296
30
2E-16
41
1
10
28.1505274595202
20
-3.72586000317153
30
-2E-16
41
1
10
28.3750311587711
20
-3.78739259263747
30
-2E-16
41
1
10
28.8244120714812
20
-3.90286697360395
30
-2E-16
41
1
10
29.0495637597501
20
-3.95680377294016
30
-2E-16
41
1
10
29.7242976957884
20
-4.10626209470567
30
0
41
1
10
30.1727255058384
20
-4.18950314652739
30
0
41
1
10
31.0705990104117
20
-4.3210402837019
30
0
41
1
10
31.5198375676511
20
-4.36960530822043
30
0
41
1
10
32.1946365813926
20
-4.41617380543062
30
0
41
1
10
32.4198219045139
20
-4.42729245608038
30
0
41
1
10
32.8055203235656
20
-4.43862407338881
30
0
41
1
10
32.9665878572549
20
-4.44101484013655
30
0
41
1
10
33.1276897584303
20
-4.44108898531724
30
0
0
SPLINE
5
C7
100
AcDbEntity
8
1
62
256
6
ByLayer
370
18
48
1
60
0
100
AcDbSpline
70
4
71
3
72
10
73
6
40
0
40
0
40
0
40
0
40
0.593095835583874
40
0.593095835583874
40
1
40
1
40
1
40
1
41
1
10
3.64749028555815
20
-4.27069674626995
30
0
41
1
10
4.09724352213056
20
-4.33113388126696
30
0
41
1
10
4.546960559242
20
-4.3735827006189
30
0
41
1
10
5.30600032920898
20
-4.41529356567986
30
0
41
1
10
5.61511545225332
20
-4.42390337509943
30
0
41
1
10
5.92405970879264
20
-4.42407354893993
30
0
0
SPLINE
5
C8
100
AcDbEntity
8
1
62
256
6
ByLayer
370
18
48
1
60
0
100
AcDbSpline
70
4
71
3
72
36
73
32
40
0
40
0
40
0
40
0
40
0.0120209988081862
40
0.0120209988081862
40
0.0943525822408367
40
0.0943525822408367
40
0.135518373957162
40
0.135518373957162
40
0.176684165673487
40
0.176684165673487
40
0.259015749106138
40
0.259015749106138
40
0.341347332538788
40
0.341347332538788
40
0.423678915971439
40
0.423678915971439
40
0.506010499404089
40
0.506010499404089
40
0.58834208283674
40
0.58834208283674
40
0.67067366626939
40
0.67067366626939
40
0.711839457985717
40
0.711839457985717
40
0.753005249702043
40
0.753005249702043
40
0.835336833134695
40
0.835336833134695
40
0.917668416567348
40
0.917668416567348
40
1
40
1
40
1
40
1
41
1
10
30.4250449714036
20
4.22534957919419
30
0
41
1
10
30.490577167714
20
4.23569387439562
30
0
41
1
10
30.5561142880806
20
4.24566903468875
30
0
41
1
10
31.0705990104071
20
4.32104028370134
30
0
41
1
10
31.5198375676465
20
4.36960530821997
30
0
41
1
10
32.1946365813878
20
4.41617380543033
30
0
41
1
10
32.419821904509
20
4.42729245608018
30
0
41
1
10
32.8688383786509
20
4.44048432464609
30
0
41
1
10
33.0931086858935
20
4.44253127157543
30
0
41
1
10
33.7664785755393
20
4.43525450497688
30
0
41
1
10
34.2155767987204
20
4.41265106490533
30
0
41
1
10
35.1141984975297
20
4.33197606375498
30
0
41
1
10
35.5640453662358
20
4.27329614362554
30
0
41
1
10
36.4626144160662
20
4.12294372342757
30
0
41
1
10
36.911343364693
20
4.03114045072076
30
0
41
1
10
37.8091522161325
20
3.81561052022354
30
2E-16
41
1
10
38.2581898604611
20
3.69106252894718
30
2E-16
41
1
10
39.1581107660133
20
3.41407956077333
30
-2E-16
41
1
10
39.6071786996741
20
3.26196656905967
30
-2E-16
41
1
10
40.5044983365283
20
2.93193353006606
30
-2E-16
41
1
10
40.9525350911542
20
2.75358202631327
30
-2E-16
41
1
10
41.6271415729133
20
2.47123215331476
30
-2E-16
41
1
10
41.8524859219307
20
2.37449551808672
30
-1E-16
41
1
10
42.3023215172171
20
2.17669773219146
30
-1E-16
41
1
10
42.5269928480797
20
2.07555728853526
30
-1E-16
41
1
10
43.2004183150608
20
1.76565334331298
30
-1E-16
41
1
10
43.6483944258284
20
1.55000752654985
30
-1E-16
41
1
10
44.5474804993414
20
1.10984779181942
30
-1E-16
41
1
10
44.9981356428547
20
0.884527604389632
30
-1E-16
41
1
10
45.8964537927676
20
0.428963484343569
30
0
41
1
10
46.3448892823255
20
0.198261085446035
30
0
41
1
10
46.7936210901502
20
-0.0334005566864164
30
0
0
SPLINE
5
C9
100
AcDbEntity
8
1
62
256
6
ByLayer
370
18
48
1
60
0
100
AcDbSpline
70
4
71
3
72
8
73
4
40
0
40
0
40
0
40
0
40
1
40
1
40
1
40
1
41
1
10
48.9958963613338
20
0.2456816294943
30
0
41
1
10
48.9766748013799
20
0.18161468139877
30
0
41
1
10
48.9573573800878
20
0.117577701187798
30
0
41
1
10
48.9379444560605
20
0.0535705767560444
30
0
0
SPLINE
5
CA
100
AcDbEntity
8
1
62
256
6
ByLayer
370
18
48
1
60
0
100
AcDbSpline
70
4
71
3
72
14
73
10
40
0
40
0
40
0
40
0
40
0.26894965273519
40
0.26894965273519
40
0.53789930547038
40
0.53789930547038
40
0.80684895820557
40
0.80684895820557
40
1
40
1
40
1
40
1
41
1
10
47.4470298689168
20
4.27084178452066
30
0
41
1
10
46.8715916402914
20
4.27507908043518
30
0
41
1
10
46.2941989050421
20
4.25128646118688
30
0
41
1
10
45.1410968288596
20
4.14713585678166
30
0
41
1
10
44.565727656831
20
4.06703557676255
30
0
41
1
10
43.4124031438836
20
3.85363839141937
30
0
41
1
10
42.8371467124363
20
3.72105672683188
30
2E-16
41
1
10
41.8494063051045
20
3.45295657992546
30
-1E-16
41
1
10
41.4364516973159
20
3.32864072500286
30
-2E-16
41
1
10
41.0228698365078
20
3.19308493166497
30
-2E-16
0
SPLINE
5
CB
100
AcDbEntity
8
1
62
256
6
ByLayer
370
18
48
1
60
0
100
AcDbSpline
70
4
71
3
72
10
73
6
40
0
40
0
40
0
40
0
40
0.352938359545209
40
0.352938359545209
40
1
40
1
40
1
40
1
41
1
10
21.5901078368514
20
-4.20947616621947
30
0
41
1
10
21.5702166522802
20
-4.21114607793754
30
0
41
1
10
21.5503260671173
20
-4.21278231251358
30
0
41
1
10
21.4939708835663
20
-4.21732266954115
30
0
41
1
10
21.4575035450898
20
-4.22014755599258
30
0
41
1
10
21.4210343317495
20
-4.2228593474718
30
0
0
SPLINE
5
CC
100
AcDbEntity
8
1
62
256
6
ByLayer
370
18
48
1
60
0
100
AcDbSpline
70
4
71
3
72
16
73
12
40
0
40
0
40
0
40
0
40
0.229025873462411
40
0.229025873462411
40
0.460520110850834
40
0.460520110850834
40
0.658014544835925
40
0.658014544835925
40
0.830506319801794
40
0.830506319801794
40
1
40
1
40
1
40
1
41
1
10
47.4139155139544
20
-4.18911522475076
30
0
41
1
10
47.4139965413895
20
-4.1892827816593
30
0
41
1
10
47.4140210146618
20
-4.18963125881919
30
0
41
1
10
47.4139299152929
20
-4.19070555683265
30
0
41
1
10
47.4138100251007
20
-4.19145671470307
30
0
41
1
10
47.4134508563244
20
-4.19314746528576
30
0
41
1
10
47.4132254587399
20
-4.19407036636036
30
0
41
1
10
47.412730200369
20
-4.19589714440053
30
0
41
1
10
47.4124631920115
20
-4.19681237516915
30
0
41
1
10
47.411909295319
20
-4.19859879023045
30
0
41
1
10
47.4116164530806
20
-4.19949154605808
30
0
41
1
10
47.4113258809418
20
-4.20033496515694
30
0
0
SPLINE
5
CD
100
AcDbEntity
8
1
62
256
6
ByLayer
370
18
48
1
60
0
100
AcDbSpline
70
4
71
3
72
8
73
4
40
0
40
0
40
0
40
0
40
1
40
1
40
1
40
1
41
1
10
19.8
20
-4.4293351789257
30
0
41
1
10
19.9136423754864
20
-4.43169328764367
30
0
41
1
10
20.0272834569323
20
-4.43290216568212
30
0
41
1
10
20.1409188814553
20
-4.43296534259113
30
0
0
SPLINE
5
CE
100
AcDbEntity
8
1
62
256
6
ByLayer
370
18
48
1
60
0
100
AcDbSpline
70
4
71
3
72
8
73
4
40
0
40
0
40
0
40
0
40
1
40
1
40
1
40
1
41
1
10
46.1102416015294
20
4.4041642061942
30
0
41
1
10
46.4662267047605
20
4.43034260262669
30
0
41
1
10
46.8220474328153
20
4.44535304989552
30
0
41
1
10
47.1782653255272
20
4.44906466024281
30
0
0
SPLINE
5
CF
100
AcDbEntity
8
1
62
256
6
ByLayer
370
18
48
1
60
0
100
AcDbSpline
70
4
71
3
72
8
73
4
40
0
40
0
40
0
40
0
40
1
40
1
40
1
40
1
41
1
10
48.2537461214249
20
-0.467895413192139
30
0
41
1
10
48.1076430960436
20
-0.0778900614347435
30
0
41
1
10
47.9242923387699
20
0.336597089650041
30
0
41
1
10
47.7044130250999
20
0.775093347920262
30
0
0
SPLINE
5
D0
100
AcDbEntity
8
1
62
256
6
ByLayer
370
18
48
1
60
0
100
AcDbSpline
70
4
71
3
72
26
73
22
40
0
40
0
40
0
40
0
40
0.0549693677571823
40
0.0549693677571823
40
0.109938735514365
40
0.109938735514365
40
0.21987747102873
40
0.21987747102873
40
0.439754942057461
40
0.439754942057461
40
0.494724309814643
40
0.494724309814643
40
0.549693677571825
40
0.549693677571825
40
0.659632413086191
40
0.659632413086191
40
0.879509884114925
40
0.879509884114925
40
0.989448619629293
40
0.989448619629293
40
1
40
1
40
1
40
1
41
1
10
47.4113258809417
20
-4.20033496515697
30
0
41
1
10
47.181782065966
20
-4.18503512529836
30
0
41
1
10
46.9527101060452
20
-4.16612324260115
30
0
41
1
10
46.4955707483547
20
-4.11886511028987
30
0
41
1
10
46.2674505234898
20
-4.09092154608814
30
0
41
1
10
45.5840387368416
20
-3.99452797054497
30
0
41
1
10
45.1296952365044
20
-3.91351196531804
30
0
41
1
10
43.7674089028305
20
-3.62354458223791
30
2E-16
41
1
10
42.860235777604
20
-3.36763624346287
30
2E-16
41
1
10
41.716643190897
20
-2.98010149985456
30
2E-16
41
1
10
41.4874496630811
20
-2.89923840876611
30
2E-16
41
1
10
41.0278316370083
20
-2.73117180597112
30
2E-16
41
1
10
40.7977858797661
20
-2.64410451503468
30
2E-16
41
1
10
40.1104412505833
20
-2.37591900607109
30
1E-16
41
1
10
39.6544391034934
20
-2.18724533493275
30
1E-16
41
1
10
38.2898256443128
20
-1.59808026244153
30
1E-16
41
1
10
37.3845613711224
20
-1.17449181529378
30
1E-16
41
1
10
36.0207203963453
20
-0.518153840457558
30
0
41
1
10
35.5650985502034
20
-0.295924286857257
30
0
41
1
10
35.0635019662832
20
-0.0508717938609493
30
0
41
1
10
35.0195440330528
20
-0.0293936710387186
30
0
41
1
10
34.9755592076025
20
-0.0079023002520842
30
0
0
SPLINE
5
D1
100
AcDbEntity
8
1
62
256
6
ByLayer
370
18
48
1
60
0
100
AcDbSpline
70
4
71
3
72
26
73
22
40
0
40
0
40
0
40
0
40
0.0463935918519449
40
0.0463935918519449
40
0.152349859423952
40
0.152349859423952
40
0.364262394567967
40
0.364262394567967
40
0.470218662139974
40
0.470218662139974
40
0.523196795925978
40
0.523196795925978
40
0.576174929711981
40
0.576174929711981
40
0.788087464855991
40
0.788087464855991
40
0.894043732427997
40
0.894043732427997
40
0.947021866213998
40
0.947021866213998
40
1
40
1
40
1
40
1
41
1
10
34.5077268744446
20
0.231135524186442
30
0
41
1
10
34.7089084283066
20
0.133225804786349
30
0
41
1
10
34.9099747142406
20
0.0351760361607489
30
0
41
1
10
35.5680132458242
20
-0.285555385096416
30
0
41
1
10
36.0236233727875
20
-0.507301204854258
30
0
41
1
10
37.3874328226284
20
-1.16234099670513
30
1E-16
41
1
10
38.2926892974932
20
-1.58525573601435
30
1E-16
41
1
10
39.6572527716736
20
-2.17373321490385
30
1E-16
41
1
10
40.1132325914531
20
-2.36222971496341
30
1E-16
41
1
10
40.8005310785692
20
-2.63022858183811
30
2E-16
41
1
10
41.0305553236749
20
-2.71724537155561
30
2E-16
41
1
10
41.4901480288626
20
-2.88525072021966
30
2E-16
41
1
10
41.7193308432238
20
-2.96610007878348
30
2E-16
41
1
10
42.8628790099168
20
-3.35364307179901
30
2E-16
41
1
10
43.7700547197511
20
-3.60980103903845
30
2E-16
41
1
10
45.1323297431549
20
-3.90047660902008
30
0
41
1
10
45.5866684732778
20
-3.98178237495813
30
0
41
1
10
46.2700688446699
20
-4.07868942654653
30
0
41
1
10
46.4981845588333
20
-4.1068172858092
30
0
41
1
10
46.9553122627685
20
-4.15447106988265
30
0
41
1
10
47.1843544459206
20
-4.17362058484571
30
0
41
1
10
47.4139155139674
20
-4.18911522475165
30
0
0
SPLINE
5
D2
100
AcDbEntity
8
1
62
256
6
ByLayer
370
18
48
1
60
0
100
AcDbSpline
70
4
71
3
72
34
73
30
40
0
40
0
40
0
40
0
40
0.0473755539898025
40
0.0473755539898025
40
0.143863398440917
40
0.143863398440917
40
0.240351242892032
40
0.240351242892032
40
0.336839087343147
40
0.336839087343147
40
0.433326931794262
40
0.433326931794262
40
0.481570854019819
40
0.481570854019819
40
0.529814776245376
40
0.529814776245376
40
0.626302620696494
40
0.626302620696494
40
0.722790465147611
40
0.722790465147611
40
0.771034387373169
40
0.771034387373169
40
0.819278309598726
40
0.819278309598726
40
0.915766154049841
40
0.915766154049841
40
0.964010076275398
40
0.964010076275398
40
1
40
1
40
1
40
1
41
1
10
32.7507093120629
20
4.22281741840754
30
0
41
1
10
32.9725644306218
20
4.22854482248471
30
0
41
1
10
33.1939284882494
20
4.22967499543407
30
0
41
1
10
33.8651977410971
20
4.21873390359059
30
0
41
1
10
34.3140559800676
20
4.19291396140582
30
0
41
1
10
35.2095987265046
20
4.11074294420692
30
0
41
1
10
35.6559414617535
20
4.05513507749205
30
0
41
1
10
36.5505882784391
20
3.90813512028538
30
0
41
1
10
36.9984506900105
20
3.81822044068483
30
0
41
1
10
37.8964482329374
20
3.60847709465921
30
-2E-16
41
1
10
38.3459811803387
20
3.48930796027821
30
-2E-16
41
1
10
39.024957561808
20
3.28743967850087
30
-2E-16
41
1
10
39.2521644853795
20
3.21638504181442
30
-2E-16
41
1
10
39.7046114474201
20
3.06850201860752
30
-2E-16
41
1
10
39.9302632038072
20
2.99154130094823
30
-2E-16
41
1
10
40.6057534075923
20
2.75234780450131
30
-2E-16
41
1
10
41.0540031207835
20
2.58185061214061
30
-2E-16
41
1
10
41.9499978659413
20
2.22169145712326
30
-1E-16
41
1
10
42.3975568507951
20
2.03237063769291
30
-1E-16
41
1
10
43.0686632843297
20
1.73688224781864
30
-1E-16
41
1
10
43.292235327677
20
1.6364161377418
30
-1E-16
41
1
10
43.739884254002
20
1.43222221164405
30
-1E-16
41
1
10
43.9640734333262
20
1.328535818565
30
-1E-16
41
1
10
44.6378889287166
20
1.01348601230765
30
-1E-16
41
1
10
45.0887724982875
20
0.798176726839614
30
0
41
1
10
45.7682805121938
20
0.469587992532041
30
0
41
1
10
45.9953256368213
20
0.359103155934861
30
0
41
1
10
46.391006881053
20
0.165747919132798
30
0
41
1
10
46.5599769157792
20
0.0829249652796307
30
0
41
1
10
46.7288990236847
20
-2.27251531157E-05
30
0
0
SPLINE
5
D3
100
AcDbEntity
8
1
62
256
6
ByLayer
370
18
48
1
60
0
100
AcDbSpline
70
4
71
3
72
8
73
4
40
0
40
0
40
0
40
0
40
1
40
1
40
1
40
1
41
1
10
46.7936210901502
20
-0.0334005566864164
30
0
41
1
10
46.7826074393182
20
0.177785540118663
30
0
41
1
10
46.7790358460057
20
0.387210063861943
30
0
41
1
10
46.7850796743499
20
0.593194587490586
30
0
0
SPLINE
5
D4
100
AcDbEntity
8
1
62
256
6
ByLayer
370
18
48
1
60
0
100
AcDbSpline
70
4
71
3
72
24
73
20
40
0
40
0
40
0
40
0
40
0.119449936376272
40
0.119449936376272
40
0.217681766641654
40
0.217681766641654
40
0.315913596907036
40
0.315913596907036
40
0.512377257437799
40
0.512377257437799
40
0.610609087703181
40
0.610609087703181
40
0.659725002835872
40
0.659725002835872
40
0.708840917968564
40
0.708840917968564
40
0.905304578499328
40
0.905304578499328
40
1
40
1
40
1
40
1
41
1
10
21.7012991962779
20
-4.21829197742616
30
0
41
1
10
21.1492064287803
20
-4.22853502501482
30
0
41
1
10
20.5966370635661
20
-4.21306487899332
30
0
41
1
10
19.5855234304455
20
-4.13770347589269
30
0
41
1
10
19.1272766761982
20
-4.08611908578615
30
0
41
1
10
18.2066932645975
20
-3.94824804605884
30
0
41
1
10
17.7490423869165
20
-3.86279244829311
30
0
41
1
10
16.3804990087771
20
-3.56009985478363
30
2E-16
41
1
10
15.4743695115461
20
-3.29705499646795
30
2E-16
41
1
10
14.1114093076492
20
-2.82750222947126
30
2E-16
41
1
10
13.6565170907613
20
-2.6584025937056
30
2E-16
41
1
10
12.9716932896698
20
-2.38827637859686
30
1E-16
41
1
10
12.7429984545423
20
-2.29550054618244
30
1E-16
41
1
10
12.2844821557262
20
-2.10491212623094
30
1E-16
41
1
10
12.054315060856
20
-2.00694855339751
30
1E-16
41
1
10
10.903996923171
20
-1.50738728640081
30
1E-16
41
1
10
9.99409521273824
20
-1.07957989401166
30
1E-16
41
1
10
8.64739047226752
20
-0.432040915171854
30
0
41
1
10
8.20976850054063
20
-0.219119214515729
30
0
41
1
10
7.77156091930684
20
-0.0059030926043135
30
0
0
SPLINE
5
D5
100
AcDbEntity
8
1
62
256
6
ByLayer
370
18
48
1
60
0
100
AcDbSpline
70
4
71
3
72
8
73
4
40
0
40
0
40
0
40
0
40
1
40
1
40
1
40
1
41
1
10
46.7936210901502
20
-0.0334005566864164
30
0
41
1
10
46.8297755765062
20
-0.051537963043927
30
0
41
1
10
46.8656976144805
20
-0.0686591542890653
30
0
41
1
10
46.9014298974342
20
-0.0847898782166112
30
0
0
SPLINE
5
D6
100
AcDbEntity
8
1
62
256
6
ByLayer
370
18
48
1
60
0
100
AcDbSpline
70
4
71
3
72
20
73
16
40
0
40
0
40
0
40
0
40
0.500000000000007
40
0.500000000000007
40
0.562500000000007
40
0.562500000000007
40
0.625000000000007
40
0.625000000000007
40
0.750000000000007
40
0.750000000000007
40
0.875000000000006
40
0.875000000000006
40
0.937500000000003
40
0.937500000000003
40
1
40
1
40
1
40
1
41
1
10
47.4541557341277
20
4.26604475617478
30
0
41
1
10
47.6293427771731
20
3.77263812433176
30
0
41
1
10
47.8015458311607
20
3.27216483011713
30
0
41
1
10
48.0014455174084
20
2.71150075545017
30
0
41
1
10
48.0236238344562
20
2.64919203359557
30
0
41
1
10
48.0691132832601
20
2.52509196626642
30
0
41
1
10
48.0923947218797
20
2.46317479963918
30
0
41
1
10
48.163883444361
20
2.27887636766073
30
0
41
1
10
48.2132484182267
20
2.15908054175921
30
0
41
1
10
48.3165903194737
20
1.92591808366973
30
0
41
1
10
48.3705802790029
20
1.81257819862762
30
0
41
1
10
48.4558005418601
20
1.64763684089604
30
0
41
1
10
48.4849894126164
20
1.59336857098583
30
0
41
1
10
48.5440796218371
20
1.48793289807045
30
0
41
1
10
48.5740575561792
20
1.43660668917516
30
0
41
1
10
48.6044899994069
20
1.38662388814927
30
0
0
SPLINE
5
D7
100
AcDbEntity
8
1
62
256
6
ByLayer
370
18
48
1
60
0
100
AcDbSpline
70
4
71
3
72
30
73
26
40
0
40
0
40
0
40
0
40
0.498226019194139
40
0.498226019194139
40
0.676055664863026
40
0.676055664863026
40
0.791225826136238
40
0.791225826136238
40
0.865674264258519
40
0.865674264258519
40
0.913999093320697
40
0.913999093320697
40
0.945590003323977
40
0.945590003323977
40
0.965997625294087
40
0.965997625294087
40
0.97895955988342
40
0.97895955988342
40
0.987267608863322
40
0.987267608863322
40
0.992665805696749
40
0.992665805696749
40
0.996316729940728
40
0.996316729940728
40
1
40
1
40
1
40
1
41
1
10
47.1782653255272
20
4.44906466024284
30
0
41
1
10
47.222763838999
20
4.41998826031099
30
0
41
1
10
47.2672981659844
20
4.39067001806973
30
0
41
1
10
47.3278441357153
20
4.35051912048635
30
0
41
1
10
47.3437858324951
20
4.33991988873015
30
0
41
1
10
47.3700910363143
20
4.32238566548793
30
0
41
1
10
47.3804409490018
20
4.31547542422939
30
0
41
1
10
47.3975011357949
20
4.30406680711917
30
0
41
1
10
47.4042061609245
20
4.29957835796591
30
0
41
1
10
47.4152413347061
20
4.2921844132826
30
0
41
1
10
47.4195785624468
20
4.28927661962825
30
0
41
1
10
47.426694308263
20
4.28450364622518
30
0
41
1
10
47.4294820967278
20
4.28263318616393
30
0
41
1
10
47.4341142207906
20
4.27952314984466
30
0
41
1
10
47.4359452688335
20
4.278293232614
30
0
41
1
10
47.4389726512744
20
4.27625881970459
30
0
41
1
10
47.4401569379998
20
4.27546275492861
30
0
41
1
10
47.4421132711461
20
4.27414740685271
30
0
41
1
10
47.4428820800171
20
4.27363040105729
30
0
41
1
10
47.4441496935233
20
4.27277790427323
30
0
41
1
10
47.4446483618959
20
4.27244253211066
30
0
41
1
10
47.4454723241658
20
4.27188846708464
30
0
41
1
10
47.4458021384577
20
4.27166670713706
30
0
41
1
10
47.4464432590972
20
4.27123575719597
30
0
41
1
10
47.4467635430395
20
4.27102051461063
30
0
41
1
10
47.4470298689247
20
4.27084178452162
30
0
0
SPLINE
5
D8
100
AcDbEntity
8
1
62
256
6
ByLayer
370
18
48
1
60
0
100
AcDbSpline
70
4
71
3
72
8
73
4
40
0
40
0
40
0
40
0
40
1
40
1
40
1
40
1
41
1
10
48.6044899994069
20
-1.3866238881493
30
0
41
1
10
48.7385877530048
20
-1.00760840317
30
0
41
1
10
48.869074749721
20
-0.627300833061327
30
0
41
1
10
48.9958963613286
20
-0.245681629478753
30
0
0
SPLINE
5
D9
100
AcDbEntity
8
1
62
256
6
ByLayer
370
18
48
1
60
0
100
AcDbSpline
70
4
71
3
72
38
73
34
40
0
40
0
40
0
40
0
40
0.0069223384280799
40
0.0069223384280799
40
0.191518187588128
40
0.191518187588128
40
0.237667149878139
40
0.237667149878139
40
0.283816112168151
40
0.283816112168151
40
0.376114036748175
40
0.376114036748175
40
0.422262999038186
40
0.422262999038186
40
0.468411961328197
40
0.468411961328197
40
0.56070988590822
40
0.56070988590822
40
0.606858848198231
40
0.606858848198231
40
0.653007810488242
40
0.653007810488242
40
0.699156772778253
40
0.699156772778253
40
0.745305735068264
40
0.745305735068264
40
0.791454697358275
40
0.791454697358275
40
0.837603659648287
40
0.837603659648287
40
0.929901584228309
40
0.929901584228309
40
1
40
1
40
1
40
1
41
1
10
19.953780159463
20
-0.21923579701874
30
0
41
1
10
19.9201978017798
20
-0.202927357027306
30
0
41
1
10
19.8866157022123
20
-0.186614770433465
30
0
41
1
10
18.9575188432061
20
0.264819711023336
30
0
41
1
10
18.0615282961375
20
0.701393969330667
30
0
41
1
10
16.9322257769573
20
1.23082318989964
30
-1E-16
41
1
10
16.705945427337
20
1.3360124655301
30
-1E-16
41
1
10
16.2518915968103
20
1.54349736846265
30
-1E-16
41
1
10
16.0250500864616
20
1.64540301086328
30
-1E-16
41
1
10
15.3462448697429
20
1.94499290066824
30
-1E-16
41
1
10
14.8954967075961
20
2.13678679566274
30
-1E-16
41
1
10
14.2223481204468
20
2.40962882864727
30
-1E-16
41
1
10
13.9984113808843
20
2.49809627253833
30
-2E-16
41
1
10
13.5503860207616
20
2.669752560295
30
-2E-16
41
1
10
13.3263400857009
20
2.75294121470918
30
-2E-16
41
1
10
12.6540815464953
20
2.99417655191732
30
-2E-16
41
1
10
12.2057439630856
20
3.14384985493066
30
-2E-16
41
1
10
11.5325190036597
20
3.34797498962217
30
-2E-16
41
1
10
11.307970969746
20
3.41264657124393
30
-2E-16
41
1
10
10.8578836750008
20
3.53547855735599
30
-2E-16
41
1
10
10.632359877993
20
3.59361939843413
30
-2E-16
41
1
10
10.1803022259354
20
3.70282988160682
30
0
41
1
10
9.95376569509142
20
3.75389901474665
30
0
41
1
10
9.49945898853321
20
3.84831032836078
30
0
41
1
10
9.27248177982224
20
3.89147656418504
30
0
41
1
10
8.82020074081362
20
3.96901704646896
30
0
41
1
10
8.59466060638096
20
4.00346471861417
30
0
41
1
10
8.14394853325325
20
4.06459945132121
30
0
41
1
10
7.91878719202313
20
4.09126616388511
30
0
41
1
10
7.24400836855372
20
4.15860275568858
30
0
41
1
10
6.79502312020142
20
4.18679886165984
30
0
41
1
10
6.00494074619672
20
4.20591011360992
30
0
41
1
10
5.66380006428329
20
4.20440727697738
30
0
41
1
10
5.32203630902367
20
4.19335004434876
30
0
0
SPLINE
5
DA
100
AcDbEntity
8
1
62
256
6
ByLayer
370
18
48
1
60
0
100
AcDbSpline
70
4
71
3
72
48
73
44
40
0
40
0
40
0
40
0
40
0.0527995493188293
40
0.0527995493188293
40
0.105599098637659
40
0.105599098637659
40
0.158398647956488
40
0.158398647956488
40
0.211198197275317
40
0.211198197275317
40
0.263997746594146
40
0.263997746594146
40
0.316797295912976
40
0.316797295912976
40
0.369596845231805
40
0.369596845231805
40
0.422396394550634
40
0.422396394550634
40
0.475195943869464
40
0.475195943869464
40
0.527995493188293
40
0.527995493188293
40
0.580795042507122
40
0.580795042507122
40
0.633594591825952
40
0.633594591825952
40
0.686394141144781
40
0.686394141144781
40
0.712793915804195
40
0.712793915804195
40
0.739193690463609
40
0.739193690463609
40
0.791993239782437
40
0.791993239782437
40
0.844792789101265
40
0.844792789101265
40
0.897592338420093
40
0.897592338420093
40
0.923992113079507
40
0.923992113079507
40
0.950391887738921
40
0.950391887738921
40
1
40
1
40
1
40
1
41
1
10
47.1621878341381
20
-4.39202360510569
30
0
41
1
10
46.7077929808394
20
-4.35414900446466
30
0
41
1
10
46.2539354507801
20
-4.29818236109887
30
0
41
1
10
45.3451526651129
20
-4.15128866625173
30
0
41
1
10
44.8900396642661
20
-4.06025174446347
30
0
41
1
10
43.9815514241633
20
-3.84577287324305
30
-2E-16
41
1
10
43.5275090476241
20
-3.72228756565545
30
-2E-16
41
1
10
42.6176860817267
20
-3.44495751957746
30
2E-16
41
1
10
42.1636256259788
20
-3.29184757241296
30
2E-16
41
1
10
41.255103913309
20
-2.95958120394627
30
2E-16
41
1
10
40.8000108902307
20
-2.78018201028536
30
2E-16
41
1
10
39.8911345652162
20
-2.40061901883567
30
1E-16
41
1
10
39.4371486525593
20
-2.2003831175945
30
1E-16
41
1
10
38.5278111515551
20
-1.78277111412743
30
1E-16
41
1
10
38.0731086954652
20
-1.56577064593728
30
1E-16
41
1
10
37.1658670386058
20
-1.12178788170763
30
1E-16
41
1
10
36.7126712269903
20
-0.894505680734
30
1E-16
41
1
10
35.8047728863947
20
-0.433846689062534
30
0
41
1
10
35.3493580582575
20
-0.199971777839721
30
0
41
1
10
34.4412648658916
20
0.265990363198199
30
0
41
1
10
33.9879859918181
20
0.49831316638398
30
0
41
1
10
33.0806993441824
20
0.957236646727949
30
-1E-16
41
1
10
32.6261554078376
20
1.18427457718428
30
-1E-16
41
1
10
31.716744517245
20
1.62668484137353
30
-1E-16
41
1
10
31.2631876100508
20
1.84139451620484
30
-1E-16
41
1
10
30.3559753648588
20
2.25366314369623
30
-1E-16
41
1
10
29.9024654861037
20
2.45147180612568
30
-2E-16
41
1
10
29.2204425993008
20
2.73241216465706
30
-2E-16
41
1
10
28.9927720382869
20
2.82342959300698
30
-2E-16
41
1
10
28.5384038852424
20
2.99911382634576
30
-2E-16
41
1
10
28.3114726102005
20
3.08385976666813
30
-2E-16
41
1
10
27.6309115816535
20
3.32810758181191
30
-2E-16
41
1
10
27.1775232850421
20
3.47763559678282
30
-2E-16
41
1
10
26.2691496587487
20
3.74726961008685
30
2E-16
41
1
10
25.8136751822086
20
3.86767895751996
30
2E-16
41
1
10
24.9054554291366
20
4.07464564877569
30
0
41
1
10
24.4520422362612
20
4.16148732405276
30
0
41
1
10
23.7713404587615
20
4.26569816777501
30
0
41
1
10
23.5443692241944
20
4.29610706232003
30
0
41
1
10
23.0899531737589
20
4.34804263156917
30
0
41
1
10
22.8622781161157
20
4.36958007906506
30
0
41
1
10
22.2076237434746
20
4.41838859091894
30
0
41
1
10
21.7813043334327
20
4.43411468665545
30
0
41
1
10
21.3550206675973
20
4.43372983200561
30
0
0
SPLINE
5
DB
100
AcDbEntity
8
1
62
256
6
ByLayer
370
18
48
1
60
0
100
AcDbSpline
70
4
71
3
72
8
73
4
40
0
40
0
40
0
40
0
40
1
40
1
40
1
40
1
41
1
10
47.1621878341354
20
-4.39202360510654
30
0
41
1
10
47.1678095368683
20
-4.42581872803331
30
0
41
1
10
47.1730138817884
20
-4.44505592747456
30
0
41
1
10
47.1782653255272
20
-4.44906466024281
30
0
0
SPLINE
5
DC
100
AcDbEntity
8
1
62
256
6
ByLayer
370
18
48
1
60
0
100
AcDbSpline
70
4
71
3
72
34
73
30
40
0
40
0
40
0
40
0
40
0.103023751010079
40
0.103023751010079
40
0.206047502020157
40
0.206047502020157
40
0.309071253030236
40
0.309071253030236
40
0.360583128535275
40
0.360583128535275
40
0.412095004040314
40
0.412095004040314
40
0.463606879545354
40
0.463606879545354
40
0.515118755050393
40
0.515118755050393
40
0.618142506060474
40
0.618142506060474
40
0.669654381565514
40
0.669654381565514
40
0.721166257070555
40
0.721166257070555
40
0.824190008080633
40
0.824190008080633
40
0.927213759090712
40
0.927213759090712
40
0.97872563459575
40
0.97872563459575
40
1
40
1
40
1
40
1
41
1
10
46.7850796743495
20
0.593194587479758
30
0
41
1
10
46.3572926115282
20
0.811310891222973
30
0
41
1
10
45.9308900418325
20
1.02567358723923
30
-1E-16
41
1
10
45.0805369289052
20
1.44644483646982
30
-1E-16
41
1
10
44.6559227012141
20
1.65154613442556
30
-1E-16
41
1
10
43.8060002125692
20
2.04795968438347
30
-1E-16
41
1
10
43.3814578582835
20
2.24061515299664
30
-1E-16
41
1
10
42.7422160796505
20
2.51579480257604
30
-2E-16
41
1
10
42.5287484668287
20
2.60526469461658
30
-2E-16
41
1
10
42.1011080511701
20
2.77978361081455
30
-2E-16
41
1
10
41.887102062764
20
2.86509581124545
30
-2E-16
41
1
10
41.4578558732813
20
3.03037440560499
30
-2E-16
41
1
10
41.2422742775281
20
3.11056086550124
30
-2E-16
41
1
10
40.8123157597419
20
3.26428030927144
30
-2E-16
41
1
10
40.5977730244436
20
3.33782834586367
30
-2E-16
41
1
10
39.9558802774411
20
3.54927602296741
30
-2E-16
41
1
10
39.5300551906846
20
3.67756347191553
30
2E-16
41
1
10
38.8917192301158
20
3.84818287170509
30
2E-16
41
1
10
38.6790153562305
20
3.90146476555131
30
2E-16
41
1
10
38.2541951934655
20
4.00126018012267
30
0
41
1
10
38.0419345744658
20
4.04761983851293
30
0
41
1
10
37.404774301243
20
4.17539088027493
30
0
41
1
10
36.9792850814354
20
4.24545395232406
30
0
41
1
10
36.1272053581624
20
4.35524401787194
30
0
41
1
10
35.699996503085
20
4.39452711511734
30
0
41
1
10
35.0555606674606
20
4.42904414162041
30
0
41
1
10
34.8398407353306
20
4.43651649149115
30
0
41
1
10
34.5361988783732
20
4.44122164487689
30
0
41
1
10
34.4475431693384
20
4.44189086991588
30
0
41
1
10
34.3589692982622
20
4.4418594509747
30
0
0
SPLINE
5
DD
100
AcDbEntity
8
1
62
256
6
ByLayer
370
18
48
1
60
0
100
AcDbSpline
70
4
71
3
72
24
73
20
40
0
40
0
40
0
40
0
40
0.0160711551541006
40
0.0160711551541006
40
0.0980652255579262
40
0.0980652255579262
40
0.180059295961752
40
0.180059295961752
40
0.344047436769402
40
0.344047436769402
40
0.508035577577054
40
0.508035577577054
40
0.590029647980877
40
0.590029647980877
40
0.672023718384702
40
0.672023718384702
40
0.836011859192351
40
0.836011859192351
40
1
40
1
40
1
40
1
41
1
10
13.6152255504636
20
-3.25904224853579
30
2E-16
41
1
10
13.5734607557086
20
-3.27350108375325
30
2E-16
41
1
10
13.5317016574219
20
-3.28783630487308
30
2E-16
41
1
10
13.2769134657802
20
-3.37453947859277
30
2E-16
41
1
10
13.0639877033015
20
-3.44379767100648
30
2E-16
41
1
10
12.6387670986271
20
-3.57638324974542
30
2E-16
41
1
10
12.4263925998285
20
-3.63959096526529
30
-2E-16
41
1
10
11.7889859188426
20
-3.81880884759531
30
-2E-16
41
1
10
11.3634934933955
20
-3.92434140652813
30
-2E-16
41
1
10
10.5117193253573
20
-4.10763486638567
30
0
41
1
10
10.0849181885104
20
-4.18482658649634
30
0
41
1
10
9.44131084199688
20
-4.2772252276429
30
0
41
1
10
9.22626872856858
20
-4.30418291083194
30
0
41
1
10
8.79535989898937
20
-4.3503341788583
30
0
41
1
10
8.58009033859321
20
-4.36933850780281
30
0
41
1
10
7.93478335513541
20
-4.41400173362672
30
0
41
1
10
7.50506685406413
20
-4.42743745750406
30
0
41
1
10
6.64602911067257
20
-4.42151912743353
30
0
41
1
10
6.21604534588047
20
-4.40207748814598
30
0
41
1
10
5.78426811501203
20
-4.36656751812362
30
0
0
SPLINE
5
DE
100
AcDbEntity
8
1
62
256
6
ByLayer
370
18
48
1
60
0
100
AcDbSpline
70
4
71
3
72
10
73
6
40
0
40
0
40
0
40
0
40
0.5
40
0.5
40
1
40
1
40
1
40
1
41
1
10
3.50172360867586
20
-4.29285296516065
30
0
41
1
10
3.50172360867586
20
-4.28457310274607
30
0
41
1
10
3.52032458544642
20
-4.27617061140865
30
0
41
1
10
3.57902706097684
20
-4.2669342457051
30
0
41
1
10
3.61686992808626
20
-4.26658203062655
30
0
41
1
10
3.64749028555818
20
-4.27069674626995
30
0
0
SPLINE
5
DF
100
AcDbEntity
8
1
62
256
6
ByLayer
370
18
48
1
60
0
100
AcDbSpline
70
4
71
3
72
14
73
10
40
0
40
0
40
0
40
0
40
0.269663881024684
40
0.269663881024684
40
0.504791937769799
40
0.504791937769799
40
0.780818154121727
40
0.780818154121727
40
1
40
1
40
1
40
1
41
1
10
46.9014298974343
20
-0.0847898782166396
30
0
41
1
10
46.902169189463
20
-0.0851236188744338
30
0
41
1
10
46.902894293052
20
-0.0858280741536248
30
0
41
1
10
46.904104928501
20
-0.0875786830508787
30
0
41
1
10
46.9046258935768
20
-0.0885931129159019
30
0
41
1
10
46.9055978642379
20
-0.0910634011129616
30
0
41
1
10
46.9060365503232
20
-0.0926034932101061
30
0
41
1
10
46.9065850291342
20
-0.0955362781316751
30
0
41
1
10
46.9067492759609
20
-0.096928578944727
30
0
41
1
10
46.9068031103051
20
-0.098316735366609
30
0
0
SPLINE
5
E0
100
AcDbEntity
8
1
62
256
6
ByLayer
370
18
48
1
60
0
100
AcDbSpline
70
4
71
3
72
30
73
26
40
0
40
0
40
0
40
0
40
0.0038965422616853
40
0.0038965422616853
40
0.0624908633051155
40
0.0624908633051155
40
0.179679505391976
40
0.179679505391976
40
0.238273826435406
40
0.238273826435406
40
0.296868147478837
40
0.296868147478837
40
0.414056789565697
40
0.414056789565697
40
0.531245431652558
40
0.531245431652558
40
0.589839752695988
40
0.589839752695988
40
0.648434073739418
40
0.648434073739418
40
0.765622715826279
40
0.765622715826279
40
0.882811357913139
40
0.882811357913139
40
1
40
1
40
1
40
1
41
1
10
34.5451739364343
20
-0.410270940512106
30
0
41
1
10
34.5260106793553
20
-0.400862125208874
30
0
41
1
10
34.5068491673904
20
-0.391451155945873
30
0
41
1
10
34.1995780730777
20
-0.240493342209845
30
0
41
1
10
33.911945896897
20
-0.0984171992103882
30
0
41
1
10
33.0493997354943
20
0.327149412863236
30
0
41
1
10
32.4749712382683
20
0.610250186593333
30
0
41
1
10
31.6109862049453
20
1.02742129352134
30
-1E-16
41
1
10
31.3223637756344
20
1.16515793047336
30
-1E-16
41
1
10
30.7464959364354
20
1.43568163081343
30
-1E-16
41
1
10
30.4589208024072
20
1.5686429206836
30
-1E-16
41
1
10
29.596499708743
20
1.95922969361169
30
-1E-16
41
1
10
29.0217447883286
20
2.20788151375677
30
-1E-16
41
1
10
27.8688255949257
20
2.67484183123855
30
-2E-16
41
1
10
27.2914447172256
20
2.89185188281087
30
-2E-16
41
1
10
26.427097098396
20
3.18662014694829
30
-2E-16
41
1
10
26.1390200042513
20
3.27973923406196
30
-2E-16
41
1
10
25.56237521488
20
3.45483508484534
30
-2E-16
41
1
10
25.273894222689
20
3.53676429149957
30
-2E-16
41
1
10
24.4102402669461
20
3.76415411522748
30
2E-16
41
1
10
23.8355741511408
20
3.89116453654853
30
0
41
1
10
22.6840908421332
20
4.09311135712878
30
0
41
1
10
22.1069781906253
20
4.16793462998243
30
0
41
1
10
20.9538941315404
20
4.2608349273668
30
0
41
1
10
20.376836906048
20
4.27903638619446
30
0
41
1
10
19.800000000005
20
4.26863124245315
30
0
0
SPLINE
5
E1
100
AcDbEntity
8
1
62
256
6
ByLayer
370
18
48
1
60
0
100
AcDbSpline
70
4
71
3
72
14
73
10
40
0
40
0
40
0
40
0
40
0.232095343758743
40
0.232095343758743
40
0.488063562505829
40
0.488063562505829
40
0.744031781252914
40
0.744031781252914
40
1
40
1
40
1
40
1
41
1
10
47.2101132255883
20
0.931678891228756
30
1E-16
41
1
10
47.2411833258585
20
0.958811851322253
30
1E-16
41
1
10
47.2774603980059
20
0.987358439698994
30
0
41
1
10
47.365702253174
20
1.04871252881813
30
0
41
1
10
47.4177320753938
20
1.08118852276436
30
0
41
1
10
47.5317511898765
20
1.14076986330693
30
0
41
1
10
47.5948793967498
20
1.16818362459315
30
0
41
1
10
47.7254913090494
20
1.21153738959887
30
0
41
1
10
47.794305949446
20
1.22806834876135
30
0
41
1
10
47.8644610592168
20
1.2385099774136
30
0
0
SPLINE
5
E2
100
AcDbEntity
8
1
62
256
6
ByLayer
370
18
48
1
60
0
100
AcDbSpline
70
4
71
3
72
8
73
4
40
0
40
0
40
0
40
0
40
1
40
1
40
1
40
1
41
1
10
19.8
20
4.43145780004375
30
0
41
1
10
19.8
20
4.37748997085703
30
0
41
1
10
19.8
20
4.32321324638471
30
0
41
1
10
19.8
20
4.26863124247936
30
0
0
SPLINE
5
E3
100
AcDbEntity
8
1
62
256
6
ByLayer
370
18
48
1
60
0
100
AcDbSpline
70
4
71
3
72
32
73
28
40
0
40
0
40
0
40
0
40
0.125000000000001
40
0.125000000000001
40
0.187500000000001
40
0.187500000000001
40
0.250000000000001
40
0.250000000000001
40
0.312500000000001
40
0.312500000000001
40
0.375000000000001
40
0.375000000000001
40
0.437500000000001
40
0.437500000000001
40
0.500000000000001
40
0.500000000000001
40
0.562500000000001
40
0.562500000000001
40
0.625000000000001
40
0.625000000000001
40
0.687500000000001
40
0.687500000000001
40
0.750000000000001
40
0.750000000000001
40
0.875
40
0.875
40
1
40
1
40
1
40
1
41
1
10
46.906803110305
20
-0.0983167353645911
30
0
41
1
10
46.9165399286844
20
-0.349387444525121
30
0
41
1
10
46.9363973155427
20
-0.595330313602119
30
0
41
1
10
46.9741565923294
20
-0.957574996404844
30
1E-16
41
1
10
46.9880995492866
20
-1.07720196486218
30
1E-16
41
1
10
47.0177519988069
20
-1.31427974540802
30
1E-16
41
1
10
47.0335173856973
20
-1.43211941561972
30
1E-16
41
1
10
47.0657026154818
20
-1.66363752664898
30
1E-16
41
1
10
47.082077691481
20
-1.77705101563347
30
1E-16
41
1
10
47.1146469619462
20
-1.99929622608224
30
1E-16
41
1
10
47.1308779597043
20
-2.10837050781797
30
1E-16
41
1
10
47.1623139689047
20
-2.32026301198323
30
1E-16
41
1
10
47.1775316781829
20
-2.42317085305939
30
1E-16
41
1
10
47.206547263535
20
-2.62293365762082
30
2E-16
41
1
10
47.2203623394961
20
-2.71992417965606
30
2E-16
41
1
10
47.2460710575647
20
-2.90599897964256
30
2E-16
41
1
10
47.2579971477239
20
-2.9952990003693
30
2E-16
41
1
10
47.2799491131558
20
-3.1663748779784
30
2E-16
41
1
10
47.2899668397473
20
-3.2481102700321
30
2E-16
41
1
10
47.3080613650743
20
-3.40237362756605
30
2E-16
41
1
10
47.3161668408549
20
-3.47512185804629
30
2E-16
41
1
10
47.3308495315093
20
-3.6117613295898
30
2E-16
41
1
10
47.3373912303025
20
-3.67531924541831
30
-2E-16
41
1
10
47.3553062753589
20
-3.85019919996719
30
0
41
1
10
47.3649903205553
20
-3.94664918689026
30
0
41
1
10
47.3861002303348
20
-4.09927306761659
30
0
41
1
10
47.397608222687
20
-4.15539332168578
30
0
41
1
10
47.4139155139549
20
-4.18911522475173
30
0
0
SPLINE
5
E4
100
AcDbEntity
8
1
62
256
6
ByLayer
370
18
48
1
60
0
100
AcDbSpline
70
4
71
3
72
34
73
30
40
0
40
0
40
0
40
0
40
0.0489643703757215
40
0.0489643703757215
40
0.0979287407514436
40
0.0979287407514436
40
0.195857481502885
40
0.195857481502885
40
0.244821851878607
40
0.244821851878607
40
0.293786222254329
40
0.293786222254329
40
0.39171496300577
40
0.39171496300577
40
0.489643703757211
40
0.489643703757211
40
0.538608074132933
40
0.538608074132933
40
0.587572444508655
40
0.587572444508655
40
0.685501185260096
40
0.685501185260096
40
0.783429926011537
40
0.783429926011537
40
0.881358666762978
40
0.881358666762978
40
0.979287407514419
40
0.979287407514419
40
1
40
1
40
1
40
1
41
1
10
46.9068031103016
20
-0.0983167353649037
30
0
41
1
10
46.680357380322
20
0.0127294859910876
30
0
41
1
10
46.453852827272
20
0.123616177976516
30
0
41
1
10
46.0005262088636
20
0.344661821859802
30
0
41
1
10
45.7734422724226
20
0.454939796291143
30
0
41
1
10
45.0937525183082
20
0.782985973404891
30
0
41
1
10
44.6427452949114
20
0.997993427411473
30
-1E-16
41
1
10
43.9687433184166
20
1.31268662808517
30
-1E-16
41
1
10
43.744491356409
20
1.41626984192195
30
-1E-16
41
1
10
43.2967189723441
20
1.62029431357288
30
-1E-16
41
1
10
43.0730897816899
20
1.72068190496603
30
-1E-16
41
1
10
42.4018149163139
20
2.01598619569359
30
-1E-16
41
1
10
41.9541483860907
20
2.20524127319777
30
-1E-16
41
1
10
41.05795353369
20
2.56540499865193
30
-2E-16
41
1
10
40.6096102105693
20
2.73596464275604
30
-2E-16
41
1
10
39.934001480612
20
2.97532121367595
30
-2E-16
41
1
10
39.7083136632118
20
3.05235175877775
30
-2E-16
41
1
10
39.2558014082753
20
3.20040507301766
30
-2E-16
41
1
10
39.0285588456521
20
3.27156185203754
30
-2E-16
41
1
10
38.3494004700451
20
3.47381283065221
30
-2E-16
41
1
10
37.8997428397454
20
3.59328910806278
30
-2E-16
41
1
10
37.0015106173745
20
3.80372566708851
30
0
41
1
10
36.553529552097
20
3.89404717771129
30
0
41
1
10
35.6586540124837
20
4.04196763973269
30
0
41
1
10
35.2121962855497
20
4.09807952705157
30
0
41
1
10
34.3164506143297
20
4.18129354600396
30
0
41
1
10
33.8675007377239
20
4.2076909040799
30
0
41
1
10
33.3219638450288
20
4.21734669296251
30
0
41
1
10
33.2266665445591
20
4.21815896745295
30
0
41
1
10
33.1312977543338
20
4.21810542597527
30
0
0
SPLINE
5
E5
100
AcDbEntity
8
1
62
256
6
ByLayer
370
18
48
1
60
0
100
AcDbSpline
70
4
71
3
72
8
73
4
40
0
40
0
40
0
40
0
40
1
40
1
40
1
40
1
41
1
10
48.9958963613284
20
0.245681629491628
30
0
41
1
10
49.0013752801615
20
0.0816723422805978
30
0
41
1
10
49.0013604989165
20
-0.0821148130456208
30
0
41
1
10
48.9958963613289
20
-0.245681629478526
30
0
0
SPLINE
5
E6
100
AcDbEntity
8
1
62
256
6
ByLayer
370
18
48
1
60
0
100
AcDbSpline
70
4
71
3
72
20
73
16
40
0
40
0
40
0
40
0
40
0.499999999999999
40
0.499999999999999
40
0.562499999999999
40
0.562499999999999
40
0.624999999999998
40
0.624999999999998
40
0.749999999999997
40
0.749999999999997
40
0.874999999999996
40
0.874999999999996
40
0.937499999999998
40
0.937499999999998
40
1
40
1
40
1
40
1
41
1
10
47.4541557341277
20
-4.26604475617472
30
0
41
1
10
47.6293427771731
20
-3.77263812433171
30
0
41
1
10
47.8015458311607
20
-3.27216483011711
30
0
41
1
10
48.0014455174085
20
-2.71150075545012
30
0
41
1
10
48.0236238344563
20
-2.64919203359548
30
0
41
1
10
48.0691132832601
20
-2.52509196626633
30
0
41
1
10
48.0923947218797
20
-2.46317479963909
30
0
41
1
10
48.163883444361
20
-2.27887636766067
30
0
41
1
10
48.2132484182267
20
-2.15908054175915
30
0
41
1
10
48.3165903194737
20
-1.92591808366967
30
0
41
1
10
48.3705802790029
20
-1.81257819862759
30
0
41
1
10
48.4558005418601
20
-1.64763684089601
30
0
41
1
10
48.4849894126164
20
-1.59336857098577
30
0
41
1
10
48.5440796218371
20
-1.48793289807043
30
0
41
1
10
48.5740575561792
20
-1.43660668917514
30
0
41
1
10
48.6044899994069
20
-1.38662388814924
30
0
0
SPLINE
5
E7
100
AcDbEntity
8
1
62
256
6
ByLayer
370
18
48
1
60
0
100
AcDbSpline
70
4
71
3
72
10
73
6
40
0
40
0
40
0
40
0
40
0.5
40
0.5
40
1
40
1
40
1
40
1
41
1
10
47.4541557341277
20
-4.26604475617478
30
0
41
1
10
47.4399328047182
20
-4.27541495589895
30
0
41
1
10
47.4278358059566
20
-4.27934616330478
30
0
41
1
10
47.4071980115377
20
-4.27652785027777
30
0
41
1
10
47.3987012993645
20
-4.26984631719552
30
0
41
1
10
47.3914379544167
20
-4.258307649361
30
0
0
SPLINE
5
E8
100
AcDbEntity
8
1
62
256
6
ByLayer
370
18
48
1
60
0
100
AcDbSpline
70
4
71
3
72
8
73
4
40
0
40
0
40
0
40
0
40
1
40
1
40
1
40
1
41
1
10
47.1621878341372
20
-4.39202360510433
30
0
41
1
10
47.2384126826843
20
-4.34828089420947
30
0
41
1
10
47.3148187154599
20
-4.3037006257866
30
0
41
1
10
47.3914379544167
20
-4.25830764936103
30
0
0
SPLINE
5
E9
100
AcDbEntity
8
1
62
256
6
ByLayer
370
18
48
1
60
0
100
AcDbSpline
70
4
71
3
72
30
73
26
40
0
40
0
40
0
40
0
40
0.498226019194734
40
0.498226019194734
40
0.676055664863955
40
0.676055664863955
40
0.791225826136529
40
0.791225826136529
40
0.865674264259215
40
0.865674264259215
40
0.913999093322056
40
0.913999093322056
40
0.945590003325041
40
0.945590003325041
40
0.965997625295201
40
0.965997625295201
40
0.978959559884443
40
0.978959559884443
40
0.987267608864498
40
0.987267608864498
40
0.992665805697931
40
0.992665805697931
40
0.996316729941935
40
0.996316729941935
40
1
40
1
40
1
40
1
41
1
10
47.1782653255272
20
-4.44906466024281
30
0
41
1
10
47.222763838999
20
-4.41998826031096
30
0
41
1
10
47.2672981659843
20
-4.3906700180697
30
0
41
1
10
47.3278441357153
20
-4.35051912048635
30
0
41
1
10
47.3437858324951
20
-4.33991988873015
30
0
41
1
10
47.3700910363143
20
-4.32238566548796
30
0
41
1
10
47.3804409490017
20
-4.3154754242295
30
0
41
1
10
47.3975011357948
20
-4.30406680711931
30
0
41
1
10
47.4042061609243
20
-4.299578357966
30
0
41
1
10
47.415241334706
20
-4.29218441328263
30
0
41
1
10
47.4195785624468
20
-4.28927661962823
30
0
41
1
10
47.4266943082631
20
-4.28450364622515
30
0
41
1
10
47.4294820967278
20
-4.28263318616391
30
0
41
1
10
47.4341142207905
20
-4.27952314984469
30
0
41
1
10
47.4359452688334
20
-4.278293232614
30
0
41
1
10
47.4389726512744
20
-4.27625881970459
30
0
41
1
10
47.4401569379998
20
-4.27546275492861
30
0
41
1
10
47.442113271146
20
-4.27414740685271
30
0
41
1
10
47.4428820800171
20
-4.27363040105732
30
0
41
1
10
47.4441496935233
20
-4.27277790427326
30
0
41
1
10
47.4446483618958
20
-4.27244253211069
30
0
41
1
10
47.4454723241658
20
-4.27188846708464
30
0
41
1
10
47.4458021384577
20
-4.27166670713706
30
0
41
1
10
47.4464432590971
20
-4.27123575719602
30
0
41
1
10
47.4467635430393
20
-4.27102051461077
30
0
41
1
10
47.4470298689245
20
-4.27084178452179
30
0
0
SPLINE
5
EA
100
AcDbEntity
8
1
62
256
6
ByLayer
370
18
48
1
60
0
100
AcDbSpline
70
4
71
3
72
8
73
4
40
0
40
0
40
0
40
0
40
1
40
1
40
1
40
1
41
1
10
47.8644610592168
20
1.23850997741368
30
0
41
1
10
48.1131880932655
20
1.27552959485561
30
0
41
1
10
48.3613768039462
20
1.32135110951083
30
0
41
1
10
48.6044899994075
20
1.38662388814873
30
0
0
SPLINE
5
EB
100
AcDbEntity
8
1
62
256
6
ByLayer
370
18
48
1
60
0
100
AcDbSpline
70
4
71
3
72
8
73
4
40
0
40
0
40
0
40
0
40
1
40
1
40
1
40
1
41
1
10
3.64749028555818
20
4.27069674626995
30
0
41
1
10
3.64729188573139
20
4.24726161924346
30
0
41
1
10
3.64709246476886
20
4.22382679876347
30
0
41
1
10
3.646892022678
20
4.20039229173551
30
0
0
SPLINE
5
EC
100
AcDbEntity
8
1
62
256
6
ByLayer
370
18
48
1
60
0
100
AcDbSpline
70
4
71
3
72
18
73
14
40
0
40
0
40
0
40
0
40
0.124999999999997
40
0.124999999999997
40
0.249999999999994
40
0.249999999999994
40
0.374999999999992
40
0.374999999999992
40
0.499999999999989
40
0.499999999999989
40
0.749999999999995
40
0.749999999999995
40
1
40
1
40
1
40
1
41
1
10
47.7044130250999
20
0.775093347920262
30
0
41
1
10
47.66637376712
20
0.784330572342583
30
0
41
1
10
47.6281294345366
20
0.792925674847993
30
0
41
1
10
47.5509240908075
20
0.802753242528468
30
0
41
1
10
47.5120346245456
20
0.804704424106859
30
0
41
1
10
47.4340064892706
20
0.804193206948582
30
0
41
1
10
47.3948679721756
20
0.801704409896757
30
0
41
1
10
47.3166045082121
20
0.794514839518229
30
0
41
1
10
47.2774304987986
20
0.788880854737016
30
0
41
1
10
47.16003291773
20
0.765080946496568
30
0
41
1
10
47.0823180052683
20
0.74023575229117
30
0
41
1
10
46.9307926317726
20
0.677675545125908
30
0
41
1
10
46.8566674373269
20
0.639774429023817
30
0
41
1
10
46.7850796743605
20
0.593194587486863
30
0
0
SPLINE
5
ED
100
AcDbEntity
8
1
62
256
6
ByLayer
370
18
48
1
60
0
100
AcDbSpline
70
4
71
3
72
18
73
14
40
0
40
0
40
0
40
0
40
0.250000000000002
40
0.250000000000002
40
0.500000000000004
40
0.500000000000004
40
0.562500000000004
40
0.562500000000004
40
0.625000000000004
40
0.625000000000004
40
0.750000000000002
40
0.750000000000002
40
1
40
1
40
1
40
1
41
1
10
8.25059695929954
20
-0.931409281229804
30
1E-16
41
1
10
9.2226185884183
20
-1.41737856025034
30
1E-16
41
1
10
10.1824285918643
20
-1.87969088594269
30
1E-16
41
1
10
12.099849040107
20
-2.71852883497908
30
2E-16
41
1
10
13.0573349812912
20
-3.09528225622151
30
2E-16
41
1
10
14.2662781532071
20
-3.49051901706429
30
2E-16
41
1
10
14.5090638016752
20
-3.56584978666706
30
2E-16
41
1
10
14.994523263018
20
-3.70791941037686
30
-2E-16
41
1
10
15.236524090098
20
-3.77444754843097
30
-2E-16
41
1
10
15.960737842928
20
-3.96029224935248
30
-2E-16
41
1
10
16.4413795006977
20
-4.06563818761407
30
0
41
1
10
17.8806648432419
20
-4.32389716882594
30
0
41
1
10
18.8365874702626
20
-4.41889223526042
30
0
41
1
10
19.8000000000069
20
-4.43145780002936
30
0
0
SPLINE
5
EE
100
AcDbEntity
8
1
62
256
6
ByLayer
370
18
48
1
60
0
100
AcDbSpline
70
4
71
3
72
8
73
4
40
0
40
0
40
0
40
0
40
1
40
1
40
1
40
1
41
1
10
3.55623361587396
20
2.06359734843133
30
-1E-16
41
1
10
3.52333225011029
20
2.07845248372738
30
-1E-16
41
1
10
3.50172360867583
20
2.10960555241127
30
-1E-16
41
1
10
3.50172360867583
20
2.14192870741496
30
-1E-16
0
SPLINE
5
EF
100
AcDbEntity
8
1
62
256
6
ByLayer
370
18
48
1
60
0
100
AcDbSpline
70
4
71
3
72
38
73
34
40
0
40
0
40
0
40
0
40
0.0009657193060788
40
0.0009657193060788
40
0.0342668619958775
40
0.0342668619958775
40
0.0675680046856761
40
0.0675680046856761
40
0.200772575444865
40
0.200772575444865
40
0.26737486082446
40
0.26737486082446
40
0.333977146204055
40
0.333977146204055
40
0.40057943158365
40
0.40057943158365
40
0.467181716963245
40
0.467181716963245
40
0.500482859653042
40
0.500482859653042
40
0.53378400234284
40
0.53378400234284
40
0.600386287722434
40
0.600386287722434
40
0.666988573102028
40
0.666988573102028
40
0.733590858481622
40
0.733590858481622
40
0.800193143861217
40
0.800193143861217
40
0.866795429240811
40
0.866795429240811
40
1
40
1
40
1
40
1
41
1
10
24.017980878661
20
-4.22792819648501
30
0
41
1
10
24.011401015563
20
-4.22894285427455
30
0
41
1
10
24.0048210741987
20
-4.22995386280658
30
0
41
1
10
23.7713404587615
20
-4.26569816777501
30
0
41
1
10
23.5443692241944
20
-4.29610706232003
30
0
41
1
10
23.0899531737589
20
-4.34804263156917
30
0
41
1
10
22.8622781161157
20
-4.36958007906506
30
0
41
1
10
21.725374525071
20
-4.45434323764042
30
0
41
1
10
20.8201755422226
20
-4.44906618443414
30
0
41
1
10
19.4555738804297
20
-4.33179172838646
30
0
41
1
10
19.0007538623909
20
-4.27458612180575
30
0
41
1
10
18.0930753606814
20
-4.1257774326271
30
0
41
1
10
17.6396046543688
20
-4.03411037895222
30
0
41
1
10
16.7309446171001
20
-3.81807599027485
30
-2E-16
41
1
10
16.2753383328728
20
-3.69332423303084
30
-2E-16
41
1
10
15.366931826531
20
-3.41538219019449
30
2E-16
41
1
10
14.9133847064153
20
-3.26206195478466
30
2E-16
41
1
10
14.2325062853282
20
-3.01259594440805
30
2E-16
41
1
10
14.0054512193063
20
-2.92619438366265
30
2E-16
41
1
10
13.5508204420325
20
-2.74734690170419
30
2E-16
41
1
10
13.3230377004078
20
-2.65480917040941
30
2E-16
41
1
10
12.6408099932092
20
-2.36975883294733
30
1E-16
41
1
10
12.1870533662758
20
-2.16966900184832
30
1E-16
41
1
10
11.2793395613098
20
-1.75345776087323
30
1E-16
41
1
10
10.8255097206568
20
-1.53710710289738
30
1E-16
41
1
10
9.91536847619972
20
-1.09239434316322
30
1E-16
41
1
10
9.46064424474932
20
-0.86496703948967
30
1E-16
41
1
10
8.552908744132
20
-0.405881568961547
30
0
41
1
10
8.09946882878629
20
-0.173825429749399
30
0
41
1
10
7.19098750642758
20
0.290497763269997
30
0
41
1
10
6.73510950642378
20
0.523115749263042
30
0
41
1
10
5.37209210067584
20
1.20942467118849
30
-1E-16
41
1
10
4.46696631934719
20
1.65239686436027
30
-1E-16
41
1
10
3.55623361587388
20
2.06359734843136
30
-1E-16
0
SPLINE
5
F0
100
AcDbEntity
8
1
62
256
6
ByLayer
370
18
48
1
60
0
100
AcDbSpline
70
4
71
3
72
30
73
26
40
0
40
0
40
0
40
0
40
0.125000000000004
40
0.125000000000004
40
0.187500000000005
40
0.187500000000005
40
0.250000000000007
40
0.250000000000007
40
0.312500000000009
40
0.312500000000009
40
0.375000000000011
40
0.375000000000011
40
0.437500000000013
40
0.437500000000013
40
0.500000000000015
40
0.500000000000015
40
0.562500000000016
40
0.562500000000016
40
0.625000000000018
40
0.625000000000018
40
0.750000000000012
40
0.750000000000012
40
0.875000000000006
40
0.875000000000006
40
1
40
1
40
1
40
1
41
1
10
48.9379444560605
20
0.0535705767560728
30
0
41
1
10
48.9164036180617
20
-0.0174525775208565
30
0
41
1
10
48.8916380173379
20
-0.0868519852470229
30
0
41
1
10
48.8494703613627
20
-0.188340405854888
30
0
41
1
10
48.8344370543676
20
-0.221993217155529
30
0
41
1
10
48.8033699291367
20
-0.286610874683021
30
0
41
1
10
48.7873284972119
20
-0.317643845857503
30
0
41
1
10
48.7542533783829
20
-0.377078809869772
30
0
41
1
10
48.7372203726922
20
-0.40548253003837
30
0
41
1
10
48.7021111947209
20
-0.459426030379404
30
0
41
1
10
48.6840763462302
20
-0.484843495815994
30
0
41
1
10
48.6484166786617
20
-0.530581797093703
30
0
41
1
10
48.6306114473285
20
-0.551191563364682
30
0
41
1
10
48.5950264929702
20
-0.587798582175935
30
0
41
1
10
48.5770845999809
20
-0.603896117728425
30
0
41
1
10
48.542354411898
20
-0.630292031038834
30
0
41
1
10
48.5254826296357
20
-0.640722005919116
30
0
41
1
10
48.4925962808272
20
-0.656262765146181
30
0
41
1
10
48.4764619987625
20
-0.661375008326502
30
0
41
1
10
48.4303347959318
20
-0.668548929641133
30
0
41
1
10
48.4022398537367
20
-0.662681124570923
30
0
41
1
10
48.3511652858522
20
-0.632877304522196
30
0
41
1
10
48.3286771215224
20
-0.609421125621367
30
0
41
1
10
48.2879662436391
20
-0.548438061016157
30
0
41
1
10
48.2698050185307
20
-0.510762806240535
30
0
41
1
10
48.2537461214249
20
-0.467895413192252
30
0
0
SPLINE
5
F1
100
AcDbEntity
8
1
62
256
6
ByLayer
370
18
48
1
60
0
100
AcDbSpline
70
4
71
3
72
8
73
4
40
0
40
0
40
0
40
0
40
1
40
1
40
1
40
1
41
1
10
48.6044899994069
20
1.3866238881493
30
0
41
1
10
48.7385877530025
20
1.00760840317633
30
0
41
1
10
48.8690747497167
20
0.627300833074088
30
0
41
1
10
48.9958963613223
20
0.245681629497966
30
0
0
SPLINE
5
F2
100
AcDbEntity
8
1
62
256
6
ByLayer
370
18
48
1
60
0
100
AcDbSpline
70
4
71
3
72
8
73
4
40
0
40
0
40
0
40
0
40
1
40
1
40
1
40
1
41
1
10
47.4470298689165
20
-4.2708417845206
30
0
41
1
10
47.4494051205422
20
-4.26924294490763
30
0
41
1
10
47.4517804088661
20
-4.26764393543255
30
0
41
1
10
47.4541557341278
20
-4.26604475617472
30
0
0
SPLINE
5
F3
100
AcDbEntity
8
1
62
256
6
ByLayer
370
18
48
1
60
0
100
AcDbSpline
70
4
71
3
72
16
73
12
40
0
40
0
40
0
40
0
40
0.0682762705539133
40
0.0682762705539133
40
0.184741736734676
40
0.184741736734676
40
0.301207202915438
40
0.301207202915438
40
0.534138135276959
40
0.534138135276959
40
1
40
1
40
1
40
1
41
1
10
13.599842519562
20
3.2686040912574
30
-2E-16
41
1
10
13.7412067028679
20
3.31748994060962
30
-2E-16
41
1
10
13.8827442722774
20
3.36513124674269
30
-2E-16
41
1
10
14.2662781532078
20
3.49051901706457
30
-2E-16
41
1
10
14.5090638016765
20
3.56584978666749
30
-2E-16
41
1
10
14.9945232630186
20
3.707919410377
30
2E-16
41
1
10
15.2365240900981
20
3.77444754843103
30
2E-16
41
1
10
15.9607378429272
20
3.96029224935231
30
2E-16
41
1
10
16.4413795006965
20
4.06563818761381
30
0
41
1
10
17.8806648432401
20
4.32389716882571
30
0
41
1
10
18.8365874702612
20
4.41889223526039
30
0
41
1
10
19.8000000000069
20
4.43145780002936
30
0
0
SPLINE
5
F4
100
AcDbEntity
8
1
62
256
6
ByLayer
370
18
48
1
60
0
100
AcDbSpline
70
4
71
3
72
36
73
32
40
0
40
0
40
0
40
0
40
0.0730182232937857
40
0.0730182232937857
40
0.168845161746458
40
0.168845161746458
40
0.216758630972795
40
0.216758630972795
40
0.264672100199131
40
0.264672100199131
40
0.312585569425468
40
0.312585569425468
40
0.360499038651804
40
0.360499038651804
40
0.40841250787814
40
0.40841250787814
40
0.456325977104477
40
0.456325977104477
40
0.552152915557151
40
0.552152915557151
40
0.600066384783488
40
0.600066384783488
40
0.647979854009825
40
0.647979854009825
40
0.743806792462498
40
0.743806792462498
40
0.791720261688834
40
0.791720261688834
40
0.839633730915171
40
0.839633730915171
40
1
40
1
40
1
40
1
41
1
10
5.32261527070327
20
4.20258212186644
30
0
41
1
10
5.66542129480578
20
4.2141249163889
30
0
41
1
10
6.00759570652386
20
4.21603408977415
30
0
41
1
10
6.79860160085514
20
4.19770628929999
30
0
41
1
10
7.24747282935121
20
4.16993417506546
30
0
41
1
10
7.92208785603222
20
4.1031771540332
30
0
41
1
10
8.14719484659406
20
4.07669307223907
30
0
41
1
10
8.59779783391619
20
4.01590034466855
30
0
41
1
10
8.82328495284585
20
3.98161467946841
30
0
41
1
10
9.27546796852752
20
3.90438085950254
30
0
41
1
10
9.50239564514558
20
3.86135711086851
30
0
41
1
10
9.95662238599687
20
3.76720065742597
30
0
41
1
10
10.1831161377237
20
3.71624619278003
30
0
41
1
10
10.6350826033412
20
3.60723922144007
30
-2E-16
41
1
10
10.8605580768857
20
3.54918725225085
30
-2E-16
41
1
10
11.3105424619791
20
3.42650587399945
30
-2E-16
41
1
10
11.5350374653704
20
3.36189960584466
30
-2E-16
41
1
10
12.2081089016532
20
3.1579483216741
30
-2E-16
41
1
10
12.6563423837281
20
3.00833958209125
30
-2E-16
41
1
10
13.3284349561585
20
2.76711225519546
30
-2E-16
41
1
10
13.5524245088267
20
2.68391272521166
30
-2E-16
41
1
10
14.0003345158303
20
2.51220639921405
30
-2E-16
41
1
10
14.2242128409738
20
2.42370283794492
30
-1E-16
41
1
10
14.8971971357261
20
2.15073519530654
30
-1E-16
41
1
10
15.347841633439
20
1.95879973689148
30
-1E-16
41
1
10
16.0264927524601
20
1.65890040077389
30
-1E-16
41
1
10
16.2532752366077
20
1.55687954064604
30
-1E-16
41
1
10
16.7072475614923
20
1.34911633314451
30
-1E-16
41
1
10
16.9334869752617
20
1.24378406158468
30
-1E-16
41
1
10
17.9151164506109
20
0.782825018560658
30
0
41
1
10
18.6656836348479
20
0.418649387580928
30
0
41
1
10
19.4151089736156
20
0.0537240413354994
30
0
0
SPLINE
5
F5
100
AcDbEntity
8
1
62
256
6
ByLayer
370
18
48
1
60
0
100
AcDbSpline
70
4
71
3
72
8
73
4
40
0
40
0
40
0
40
0
40
1
40
1
40
1
40
1
41
1
10
47.4113258809418
20
-4.20033496515694
30
0
41
1
10
47.4046682776976
20
-4.2196594253478
30
0
41
1
10
47.3980387816387
20
-4.23898360131332
30
0
41
1
10
47.3914379544167
20
-4.25830764936106
30
0
0
SPLINE
5
F6
100
AcDbEntity
8
1
62
256
6
ByLayer
370
18
48
1
60
0
100
AcDbSpline
70
4
71
3
72
14
73
10
40
0
40
0
40
0
40
0
40
0.0757110166027634
40
0.0757110166027634
40
0.502800972740194
40
0.502800972740194
40
0.929890928877623
40
0.929890928877623
40
1
40
1
40
1
40
1
41
1
10
11.971343097847
20
-2.62956196197018
30
0
41
1
10
11.8130813142881
20
-2.67169037192991
30
0
41
1
10
11.6549807792177
20
-2.71397237160008
30
0
41
1
10
10.6061364012394
20
-2.99574392675058
30
0
41
1
10
9.72035125978002
20
-3.23978767171238
30
0
41
1
10
7.95850615668343
20
-3.73532804065843
30
0
41
1
10
7.08232252334972
20
-3.98691959520727
30
0
41
1
10
6.0694501836758
20
-4.28288266101347
30
0
41
1
10
5.92678215464298
20
-4.32468949328003
30
0
41
1
10
5.78426811501461
20
-4.36656751812282
30
0
0
SPLINE
5
F7
100
AcDbEntity
8
1
62
256
6
ByLayer
370
18
48
1
60
0
100
AcDbSpline
70
4
71
3
72
8
73
4
40
0
40
0
40
0
40
0
40
1
40
1
40
1
40
1
41
1
10
47.4470298689168
20
4.27084178452037
30
0
41
1
10
47.4494051205425
20
4.26924294490749
30
0
41
1
10
47.4517804088662
20
4.26764393543252
30
0
41
1
10
47.4541557341277
20
4.26604475617478
30
0
0
SPLINE
5
F8
100
AcDbEntity
8
1
62
256
6
ByLayer
370
18
48
1
60
0
100
AcDbSpline
70
4
71
3
72
24
73
20
40
0
40
0
40
0
40
0
40
0.124787005632727
40
0.124787005632727
40
0.31969071921914
40
0.31969071921914
40
0.368416647615743
40
0.368416647615743
40
0.417142576012346
40
0.417142576012346
40
0.514594432805552
40
0.514594432805552
40
0.709498146391963
40
0.709498146391963
40
0.806950003185169
40
0.806950003185169
40
0.904401859978376
40
0.904401859978376
40
1
40
1
40
1
40
1
41
1
10
7.34386633486383
20
0.21272422965697
30
0
41
1
10
7.92657631444024
20
-0.0697515033346008
30
0
41
1
10
8.50770202458023
20
-0.352944434501438
30
0
41
1
10
9.9981709543556
20
-1.06814946824946
30
1E-16
41
1
10
10.9080439087463
20
-1.49522354187661
30
1E-16
41
1
10
12.0582722309103
20
-1.99411387889674
30
1E-16
41
1
10
12.2884228544221
20
-2.09195819992513
30
1E-16
41
1
10
12.7469115034725
20
-2.28233879982278
30
1E-16
41
1
10
12.9755945955559
20
-2.37502562877648
30
1E-16
41
1
10
13.6603888545928
20
-2.64492806997754
30
2E-16
41
1
10
14.115270561738
20
-2.81393701582593
30
2E-16
41
1
10
15.4781979374787
20
-3.28339481370114
30
2E-16
41
1
10
16.3843128997015
20
-3.54659935274617
30
2E-16
41
1
10
17.7527930065419
20
-3.84987523551703
30
0
41
1
10
18.2104170469485
20
-3.93557755419752
30
0
41
1
10
19.1309241136294
20
-4.07405268232367
30
0
41
1
10
19.5891501322283
20
-4.12599546371044
30
0
41
1
10
20.4929935774477
20
-4.19416793546341
30
0
41
1
10
20.939106150309
20
-4.21112698816034
30
0
41
1
10
21.3846849188136
20
-4.21137011604358
30
0
0
SPLINE
5
F9
100
AcDbEntity
8
1
62
256
6
ByLayer
370
18
48
1
60
0
100
AcDbSpline
70
4
71
3
72
44
73
40
40
0
40
0
40
0
40
0
40
0.0624999999999992
40
0.0624999999999992
40
0.124999999999998
40
0.124999999999998
40
0.187499999999999
40
0.187499999999999
40
0.249999999999999
40
0.249999999999999
40
0.3125
40
0.3125
40
0.375
40
0.375
40
0.4375
40
0.4375
40
0.500000000000001
40
0.500000000000001
40
0.562500000000001
40
0.562500000000001
40
0.593750000000001
40
0.593750000000001
40
0.625
40
0.625
40
0.6875
40
0.6875
40
0.749999999999999
40
0.749999999999999
40
0.812499999999998
40
0.812499999999998
40
0.843749999999998
40
0.843749999999998
40
0.874999999999998
40
0.874999999999998
40
0.906249999999998
40
0.906249999999998
40
0.937499999999998
40
0.937499999999998
40
1
40
1
40
1
40
1
41
1
10
19.8
20
4.4293351789257
30
0
41
1
10
20.3710827980076
20
4.44118529486093
30
0
41
1
10
20.9421329172685
20
4.4240135829196
30
0
41
1
10
22.0830604612184
20
4.33252233343237
30
0
41
1
10
22.6543426863931
20
4.25805505495464
30
0
41
1
10
23.7952682632233
20
4.05492291598097
30
0
41
1
10
24.3660619700829
20
3.92612219146076
30
2E-16
41
1
10
25.5080852317503
20
3.61905213083443
30
-2E-16
41
1
10
26.0792481635999
20
3.44077346887212
30
-2E-16
41
1
10
27.2212099116954
20
3.04160802270081
30
-2E-16
41
1
10
27.7920275835926
20
2.8207657444938
30
-2E-16
41
1
10
28.9342059686829
20
2.34509057662413
30
-1E-16
41
1
10
29.5051137765261
20
2.0904828214031
30
-1E-16
41
1
10
30.6469556489673
20
1.55704081843314
30
-1E-16
41
1
10
31.2179576318642
20
1.27818781263389
30
-1E-16
41
1
10
32.3596424160341
20
0.707629660093431
30
0
41
1
10
32.9303698191329
20
0.415977257758755
30
0
41
1
10
34.0709529457231
20
-0.168782619360371
30
0
41
1
10
34.6419960355221
20
-0.462535998130221
30
0
41
1
10
35.4973323167135
20
-0.895156735453668
30
1E-16
41
1
10
35.7824304634753
20
-1.03812856727868
30
1E-16
41
1
10
36.3531599869251
20
-1.32052506129816
30
1E-16
41
1
10
36.63856478527
20
-1.45983024879783
30
1E-16
41
1
10
37.4930810300026
20
-1.869175194983
30
1E-16
41
1
10
38.0615383247464
20
-2.13112251806052
30
1E-16
41
1
10
39.2004634164202
20
-2.62532891586506
30
2E-16
41
1
10
39.7718235112014
20
-2.85785153642675
30
2E-16
41
1
10
40.9103560774159
20
-3.28125157091071
30
2E-16
41
1
10
41.4787618976291
20
-3.47268103844775
30
2E-16
41
1
10
42.3334478818002
20
-3.72504351820936
30
-2E-16
41
1
10
42.6190009217094
20
-3.80344820340596
30
-2E-16
41
1
10
43.1893069109365
20
-3.94744071532458
30
-2E-16
41
1
10
43.4741300464503
20
-4.01306401841978
30
0
41
1
10
44.0437097170861
20
-4.13108819472063
30
0
41
1
10
44.3284667256665
20
-4.1834887808983
30
0
41
1
10
44.8985049212703
20
-4.27462477876344
30
0
41
1
10
45.1840558746028
20
-4.31338296152998
30
0
41
1
10
46.039381324999
20
-4.4082622710319
30
0
41
1
10
46.6083149513878
20
-4.44312606549681
30
0
41
1
10
47.1782653255272
20
-4.44906466024281
30
0
0
SPLINE
5
FA
100
AcDbEntity
8
1
62
256
6
ByLayer
370
18
48
1
60
0
100
AcDbSpline
70
4
71
3
72
10
73
6
40
0
40
0
40
0
40
0
40
0.5
40
0.5
40
1
40
1
40
1
40
1
41
1
10
3.50172360867586
20
4.29285296516065
30
0
41
1
10
3.50172360867586
20
4.28457310274607
30
0
41
1
10
3.52032458544642
20
4.27617061140865
30
0
41
1
10
3.57902706097684
20
4.2669342457051
30
0
41
1
10
3.61686992808626
20
4.26658203062655
30
0
41
1
10
3.64749028555818
20
4.27069674626995
30
0
0
SPLINE
5
FB
100
AcDbEntity
8
1
62
256
6
ByLayer
370
18
48
1
60
0
100
AcDbSpline
70
4
71
3
72
24
73
20
40
0
40
0
40
0
40
0
40
0.0706237189287633
40
0.0706237189287633
40
0.150697349546009
40
0.150697349546009
40
0.230770980163255
40
0.230770980163255
40
0.390918241397746
40
0.390918241397746
40
0.551065502632237
40
0.551065502632237
40
0.711212763866728
40
0.711212763866728
40
0.791286394483973
40
0.791286394483973
40
0.871360025101219
40
0.871360025101219
40
1
40
1
40
1
40
1
41
1
10
3.60212689165925
20
4.20050104835673
30
0
41
1
10
3.60212099732883
20
4.20046257448689
30
0
41
1
10
3.60211496139772
20
4.19652614855784
30
0
41
1
10
3.60210193906519
20
4.1798950230355
30
0
41
1
10
3.60209491790687
20
4.1661130900433
30
0
41
1
10
3.60208072007157
20
4.12865738635787
30
0
41
1
10
3.6020735252751
20
4.10489899941282
30
0
41
1
10
3.60205193637282
20
4.01932874984877
30
0
41
1
10
3.60203748876626
20
3.94314318441798
30
0
41
1
10
3.60200854251428
20
3.75326202375931
30
0
41
1
10
3.60199416641669
20
3.64037004097423
30
2E-16
41
1
10
3.60196529042318
20
3.38028614428907
30
-2E-16
41
1
10
3.60195088484232
20
3.23395515768189
30
-2E-16
41
1
10
3.60192885809215
20
2.99180921201969
30
-2E-16
41
1
10
3.60192147488726
20
2.90766194999125
30
-2E-16
41
1
10
3.60190649643249
20
2.73254292171299
30
-2E-16
41
1
10
3.60189888301693
20
2.64134733805273
30
-2E-16
41
1
10
3.6018786937905
20
2.39611442565419
30
-1E-16
41
1
10
3.60186594354718
20
2.23795148778709
30
-1E-16
41
1
10
3.60185257062699
20
2.07274410600277
30
-1E-16
0
SPLINE
5
FC
100
AcDbEntity
8
1
62
256
6
ByLayer
370
18
48
1
60
0
100
AcDbSpline
70
4
71
2
72
6
73
3
40
0
40
0
40
0
40
1
40
1
40
1
41
1
10
5.92042966669419
20
4.20279352627946
30
0
41
1
10
4.76126694729442
20
4.20394085595706
30
0
41
1
10
3.60210969533966
20
4.20029702084344
30
0
0
SPLINE
5
FD
100
AcDbEntity
8
1
62
256
6
ByLayer
370
18
48
1
60
0
100
AcDbSpline
70
4
71
2
72
6
73
3
40
0
40
0
40
0
40
1
40
1
40
1
41
1
10
19.8002205539489
20
4.30581159637171
30
0
41
1
10
20.2044720760061
20
4.29512833213781
30
0
41
1
10
20.6087094133722
20
4.26423097080351
30
0
0
SPLINE
5
FE
100
AcDbEntity
8
1
62
256
6
ByLayer
370
18
48
1
60
0
100
AcDbSpline
70
4
71
2
72
6
73
3
40
0
40
0
40
0
40
1
40
1
40
1
41
1
10
34.9638818683459
20
0.002177221111026
30
0
41
1
10
34.9638841440687
20
0.0021880102327145
30
0
41
1
10
34.9638864197959
20
0.0021988831918804
30
0
0
SPLINE
5
FF
100
AcDbEntity
8
1
62
256
6
ByLayer
370
18
48
1
60
0
100
AcDbSpline
70
4
71
1
72
4
73
2
40
0
40
0
40
1
40
1
41
1
10
7.75614686988553
20
0.0016393772075389
30
0
41
1
10
7.75613609445929
20
0.0016448281989483
30
0
0
SPLINE
5
100
100
AcDbEntity
8
1
62
256
6
ByLayer
370
18
48
1
60
0
100
AcDbSpline
70
4
71
3
72
13
73
9
40
0
40
0
40
0
40
0
40
0.115191629720805
40
0.275794103220262
40
0.399280434284257
40
0.561886931954223
40
0.770362459989711
40
1
40
1
40
1
40
1
41
1
10
47.6584939602704
20
0.793170596021696
30
0
41
1
10
47.443548676961
20
0.859782591298256
30
-1E-16
41
1
10
46.9298517583093
20
1.02198529537424
30
-1E-16
41
1
10
46.1897105109494
20
1.26753203432349
30
-1E-16
41
1
10
45.3647141675177
20
1.55053835009539
30
-1E-16
41
1
10
44.4549351572845
20
1.87440866196749
30
-1E-16
41
1
10
43.3555385824461
20
2.28323014156277
30
-1E-16
41
1
10
42.5594213218416
20
2.59571788012494
30
-2E-16
41
1
10
42.1436253189106
20
2.76335352895941
30
-2E-16
0
SPLINE
5
101
100
AcDbEntity
8
1
62
256
6
ByLayer
370
18
48
1
60
0
100
AcDbSpline
70
4
71
3
72
28
73
24
40
0
40
0
40
0
40
0
40
2.0498245448E-06
40
1.31572751194E-05
40
3.93342064808E-05
40
6.70720485561E-05
40
8.94960545492E-05
40
0.0001093401025928
40
0.0002700456311318
40
0.0004011575785138
40
0.0006391340518684
40
0.0010764515495714
40
0.0019318276487182
40
0.012951151147044
40
0.0519586593114072
40
0.116324355148609
40
0.18555910583035
40
0.286384850670934
40
0.374973546326619
40
0.478025878521411
40
0.620535954693947
40
0.802551974065629
40
1
40
1
40
1
40
1
41
1
10
22.9593992238162
20
0.0554310104711249
30
0
41
1
10
22.9594004248006
20
0.0554307403252494
30
0
41
1
10
22.9594074809585
20
0.0554291841494319
30
0
41
1
10
22.9594153218554
20
0.0554281419387621
30
0
41
1
10
22.9593425269775
20
0.0554493698744807
30
0
41
1
10
22.9592540285088
20
0.0554747014635382
30
0
41
1
10
22.9591243031914
20
0.0555103977936255
30
0
41
1
10
22.9586438688944
20
0.0556395077432796
30
0
41
1
10
22.9578660413096
20
0.0558473269939839
30
0
41
1
10
22.9566719750328
20
0.0561696290191662
30
0
41
1
10
22.9547933618614
20
0.056675051027355
30
0
41
1
10
22.9512327503156
20
0.0576327861488153
30
0
41
1
10
22.9215852427313
20
0.065603956992959
30
0
41
1
10
22.78436081186
20
0.102936052771554
30
0
41
1
10
22.4796075606436
20
0.187542145306054
30
0
41
1
10
22.0135541896381
20
0.320480395239997
30
0
41
1
10
21.3840350700665
20
0.505351493560539
30
0
41
1
10
20.6907922407886
20
0.716356069237435
30
0
41
1
10
19.909796853953
20
0.963409893450915
30
-1E-16
41
1
10
19.0206393244018
20
1.25540658513449
30
-1E-16
41
1
10
17.8881785784386
20
1.64497343804862
30
-1E-16
41
1
10
16.5141089686563
20
2.1450460103998
30
-1E-16
41
1
10
15.523653072155
20
2.53095477166806
30
-2E-16
41
1
10
15.010460741967
20
2.73767684284471
30
-2E-16
0
SPLINE
5
102
100
AcDbEntity
8
1
62
256
6
ByLayer
370
18
48
1
60
0
100
AcDbSpline
70
4
71
3
72
22
73
18
40
0
40
0
40
0
40
0
40
0.0921267532336819
40
0.157555502497989
40
0.202021803687789
40
0.248971535470502
40
0.300976308393639
40
0.355453839259355
40
0.406640263854932
40
0.490429592158776
40
0.555393539449604
40
0.637194930083027
40
0.726616423972852
40
0.79011166296334
40
0.855951345062166
40
0.941510399935263
40
1
40
1
40
1
40
1
41
1
10
21.3587890174865
20
-4.21132250627477
30
0
41
1
10
21.6370580538994
20
-4.2115263048608
30
0
41
1
10
22.1129576782074
20
-4.21182569403447
30
0
41
1
10
22.7236812271667
20
-4.21173742924179
30
0
41
1
10
23.1971755003434
20
-4.21208568872703
30
0
41
1
10
23.6304549456564
20
-4.21253512205485
30
0
41
1
10
24.09412060418
20
-4.21312623338684
30
0
41
1
10
24.570587786245
20
-4.21315892704999
30
0
41
1
10
25.1431008397449
20
-4.2129595979072
30
0
41
1
10
25.7473148130338
20
-4.21270713160641
30
0
41
1
10
26.4440016095583
20
-4.21484978035053
30
0
41
1
10
27.157761387954
20
-4.21465677765059
30
0
41
1
10
27.8670540164741
20
-4.21352593800367
30
0
41
1
10
28.528126810671
20
-4.21405796919336
30
0
41
1
10
29.1775226928822
20
-4.21489546925358
30
0
41
1
10
29.8117906338585
20
-4.21588601709485
30
0
41
1
10
30.2470980953901
20
-4.21655942335266
30
0
41
1
10
30.4238504346325
20
-4.2166062366731
30
0
0
SPLINE
5
103
100
AcDbEntity
8
1
62
256
6
ByLayer
370
18
48
1
60
0
100
AcDbSpline
70
4
71
3
72
20
73
16
40
0
40
0
40
0
40
0
40
0.122471267726994
40
0.207098064191196
40
0.281230442446725
40
0.347732690306334
40
0.409071822867157
40
0.499218590364276
40
0.578982766691912
40
0.632495442748103
40
0.691747821362633
40
0.77065548532405
40
0.865418644327215
40
0.942054901361129
40
1
40
1
40
1
40
1
41
1
10
33.1245142957808
20
4.21817830491341
30
0
41
1
10
32.7531444225797
20
4.21621688837493
30
0
41
1
10
32.1251131320578
20
4.21418991335287
30
0
41
1
10
31.2723848934008
20
4.21585367669545
30
0
41
1
10
30.5889637814288
20
4.21681910631824
30
0
41
1
10
29.9759802383775
20
4.21629084680629
30
0
41
1
10
29.3144489858756
20
4.2148609525955
30
0
41
1
10
28.6126537509058
20
4.21420617679931
30
0
41
1
10
27.9346180758471
20
4.21358911891213
30
0
41
1
10
27.3503368392057
20
4.21431075335337
30
0
41
1
10
26.7686516640591
20
4.21499321025112
30
0
41
1
10
26.0617997298172
20
4.21361693303754
30
0
41
1
10
25.302117571798
20
4.2127052837541
30
0
41
1
10
24.6062858264966
20
4.21320949806221
30
0
41
1
10
24.1975271458731
20
4.21313569788745
30
0
41
1
10
24.0219167505022
20
4.21296660161576
30
0
0
SPLINE
5
104
100
AcDbEntity
8
1
62
256
6
ByLayer
370
18
48
1
60
0
100
AcDbSpline
70
4
71
2
72
6
73
3
40
0
40
0
40
0
40
1
40
1
40
1
41
1
10
34.9638864197959
20
-0.0021988831918804
30
0
41
1
10
34.9638841440686
20
-0.0021880102327145
30
0
41
1
10
34.9638818683459
20
-0.0021772211109976
30
0
0
LINE
5
84
100
AcDbEntity
8
SK1
62
256
6
ByLayer
370
18
48
1
60
0
100
AcDbLine
10
-40
20
1.618555
30
0
11
-40
21
3.66
31
0
39
0
210
0
220
0
230
1
0
LINE
5
86
100
AcDbEntity
8
SK1
62
256
6
ByLayer
370
18
48
1
60
0
100
AcDbLine
10
-39.35
20
0.926975
30
0
11
-39.35
21
1.072723
31
0
39
0
210
0
220
0
230
1
0
LINE
5
87
100
AcDbEntity
8
SK1
62
256
6
ByLayer
370
18
48
1
60
0
100
AcDbLine
10
0
20
5
30
0
11
0
21
-5
31
0
39
0
210
0
220
0
230
1
0
LINE
5
88
100
AcDbEntity
8
SK1
62
256
6
ByLayer
370
18
48
1
60
0
100
AcDbLine
10
-40
20
1.503472
30
0
11
-40
21
1.618555
31
0
39
0
210
0
220
0
230
1
0
LINE
5
89
100
AcDbEntity
8
SK1
62
256
6
ByLayer
370
18
48
1
60
0
100
AcDbLine
10
-40
20
-3.66
30
0
11
-40
21
-1.503472
31
0
39
0
210
0
220
0
230
1
0
LINE
5
8A
100
AcDbEntity
8
SK1
62
256
6
ByLayer
370
18
48
1
60
0
100
AcDbLine
10
-38.66
20
-5
30
0
11
-38.66
21
5
31
0
39
0
210
0
220
0
230
1
0
LINE
5
8B
100
AcDbEntity
8
SK1
62
256
6
ByLayer
370
18
48
1
60
0
100
AcDbLine
10
-39.517949
20
0.929979
30
0
11
-39.517949
21
1.069718
31
0
39
0
210
0
220
0
230
1
0
LINE
5
8C
100
AcDbEntity
8
SK1
62
256
6
ByLayer
370
18
48
1
60
0
100
AcDbLine
10
-39.25
20
-0.82482
30
0
11
-39.25
21
0.974908
31
0
39
0
210
0
220
0
230
1
0
LINE
5
8D
100
AcDbEntity
8
1
62
256
6
ByLayer
370
18
48
1
60
0
100
AcDbLine
10
48.937944
20
0.053571
30
0
11
47.864461
21
1.23851
31
0
39
0
210
0
220
0
230
1
0
LINE
5
8E
100
AcDbEntity
8
1
62
256
6
ByLayer
370
18
48
1
60
0
100
AcDbLine
10
1.232263
20
4.421156
30
0
11
1.232263
21
0
31
0
39
0
210
0
220
0
230
1
0
LINE
5
8F
100
AcDbEntity
8
1
62
256
6
ByLayer
370
18
48
1
60
0
100
AcDbLine
10
1.232263
20
0
30
0
11
1.232263
21
-4.421156
31
0
39
0
210
0
220
0
230
1
0
LINE
5
90
100
AcDbEntity
8
1
62
256
6
ByLayer
370
18
48
1
60
0
100
AcDbLine
10
0
20
5
30
0
11
0
21
0
31
0
39
0
210
0
220
0
230
1
0
LINE
5
91
100
AcDbEntity
8
1
62
256
6
ByLayer
370
18
48
1
60
0
100
AcDbLine
10
0
20
0
30
0
11
0
21
-5
31
0
39
0
210
0
220
0
230
1
0
LINE
5
92
100
AcDbEntity
8
1
62
256
6
ByLayer
370
18
48
1
60
0
100
AcDbLine
10
19.8
20
-4.429335
30
0
11
19.8
21
-4.431458
31
0
39
0
210
0
220
0
230
1
0
LINE
5
93
100
AcDbEntity
8
1
62
256
6
ByLayer
370
18
48
1
60
0
100
AcDbLine
10
3.501724
20
4.422575
30
0
11
3.501724
21
2.141929
31
0
39
0
210
0
220
0
230
1
0
LINE
5
94
100
AcDbEntity
8
1
62
256
6
ByLayer
370
18
48
1
60
0
100
AcDbLine
10
0.615881
20
4.710578
30
0
11
0.615881
21
0
31
0
39
0
210
0
220
0
230
1
0
LINE
5
95
100
AcDbEntity
8
1
62
256
6
ByLayer
370
18
48
1
60
0
100
AcDbLine
10
0.615881
20
0
30
0
11
0.615881
21
-4.710578
31
0
39
0
210
0
220
0
230
1
0
LINE
5
96
100
AcDbEntity
8
1
62
256
6
ByLayer
370
18
48
1
60
0
100
AcDbLine
10
3.501724
20
-4.292853
30
0
11
3.501724
21
-4.422575
31
0
39
0
210
0
220
0
230
1
0
LINE
5
97
100
AcDbEntity
8
SK1
62
256
6
ByLayer
370
18
48
1
60
0
100
AcDbLine
10
-40
20
-3.66
30
0
11
-38.66
21
-5
31
0
39
0
210
0
220
0
230
1
0
LINE
5
98
100
AcDbEntity
8
SK1
62
256
6
ByLayer
370
18
48
1
60
0
100
AcDbLine
10
-38.66
20
5
30
0
11
-40
21
3.66
31
0
39
0
210
0
220
0
230
1
0
LINE
5
99
100
AcDbEntity
8
SK1
62
256
6
ByLayer
370
18
48
1
60
0
100
AcDbLine
10
-38.66
20
-5
30
0
11
0
21
-5
31
0
39
0
210
0
220
0
230
1
0
LINE
5
9A
100
AcDbEntity
8
SK1
62
256
6
ByLayer
370
18
48
1
60
0
100
AcDbLine
10
0
20
5
30
0
11
-38.66
21
5
31
0
39
0
210
0
220
0
230
1
0
LINE
5
9B
100
AcDbEntity
8
1
62
256
6
ByLayer
370
18
48
1
60
0
100
AcDbLine
10
1.232263
20
-4.421156
30
0
11
3.501724
21
-4.422575
31
0
39
0
210
0
220
0
230
1
0
LINE
5
9C
100
AcDbEntity
8
1
62
256
6
ByLayer
370
18
48
1
60
0
100
AcDbLine
10
5.921673
20
-4.424087
30
0
11
7.180878
21
-4.424874
31
0
39
0
210
0
220
0
230
1
0
LINE
5
9D
100
AcDbEntity
8
1
62
256
6
ByLayer
370
18
48
1
60
0
100
AcDbLine
10
20.140395
20
-4.432974
30
0
11
21.359149
21
-4.433736
31
0
39
0
210
0
220
0
230
1
0
LINE
5
9E
100
AcDbEntity
8
1
62
256
6
ByLayer
370
18
48
1
60
0
100
AcDbLine
10
33.126949
20
-4.441091
30
0
11
34.353958
21
-4.441857
31
0
39
0
210
0
220
0
230
1
0
LINE
5
9F
100
AcDbEntity
8
1
62
256
6
ByLayer
370
18
48
1
60
0
100
AcDbLine
10
34.353958
20
4.441857
30
0
11
33.126949
21
4.441091
31
0
39
0
210
0
220
0
230
1
0
LINE
5
A0
100
AcDbEntity
8
1
62
256
6
ByLayer
370
18
48
1
60
0
100
AcDbLine
10
21.359149
20
4.433736
30
0
11
20.140395
21
4.432974
31
0
39
0
210
0
220
0
230
1
0
LINE
5
A1
100
AcDbEntity
8
1
62
256
6
ByLayer
370
18
48
1
60
0
100
AcDbLine
10
7.180878
20
4.424874
30
0
11
5.921673
21
4.424087
31
0
39
0
210
0
220
0
230
1
0
LINE
5
A2
100
AcDbEntity
8
1
62
256
6
ByLayer
370
18
48
1
60
0
100
AcDbLine
10
3.501724
20
4.422575
30
0
11
1.232263
21
4.421156
31
0
39
0
210
0
220
0
230
1
0
LINE
5
A3
100
AcDbEntity
8
SK4
62
256
6
ByLayer
370
18
48
0.05
60
0
100
AcDbLine
10
54
20
0
30
0
11
-45
21
0
31
0
39
0
210
0
220
0
230
1
0
LINE
5
A5
100
AcDbEntity
8
4
62
256
6
ByLayer
370
18
48
0.05
60
0
100
AcDbLine
10
-40
20
0
30
0
11
54
21
0
31
0
39
0
210
0
220
0
230
1
0
LINE
5
A7
100
AcDbEntity
8
80
62
256
6
ByLayer
370
18
48
1
60
0
100
AcDbLine
10
0
20
0
30
0
11
-6
21
0
31
0
39
0
210
0
220
0
230
1
0
LINE
5
A8
100
AcDbEntity
8
81
62
256
6
ByLayer
370
18
48
1
60
0
100
AcDbLine
10
49
20
0
30
0
11
55
21
0
31
0
39
0
210
0
220
0
230
1
0
LINE
5
A9
100
AcDbEntity
8
SK2
62
256
6
ByLayer
370
13
48
1
60
0
100
AcDbLine
10
49.542967
20
1.491759
30
0
11
56.926457
21
21.777325
31
0
39
0
210
0
220
0
230
1
0
LINE
5
AB
100
AcDbEntity
8
SK2
62
256
6
ByLayer
370
13
48
1
60
0
100
AcDbLine
10
49.542967
20
-1.491759
30
0
11
56.926457
21
-21.777325
31
0
39
0
210
0
220
0
230
1
0
LINE
5
AC
100
AcDbEntity
8
1
62
256
6
ByLayer
370
13
48
1
60
0
100
AcDbLine
10
55.840524
20
18.793808
30
0
11
58.937109
21
17.977416
31
0
39
0
210
0
220
0
230
1
0
LINE
5
AD
100
AcDbEntity
8
1
62
256
6
ByLayer
370
13
48
1
60
0
100
AcDbLine
10
55.840524
20
18.793808
30
0
11
58.620301
21
17.203778
31
0
39
0
210
0
220
0
230
1
0
LINE
5
AE
100
AcDbEntity
8
1
62
256
6
ByLayer
370
13
48
1
60
0
100
AcDbLine
10
58.937109
20
17.977416
30
0
11
58.620301
21
17.203778
31
0
39
0
210
0
220
0
230
1
0
LINE
5
AF
100
AcDbEntity
8
1
62
256
6
ByLayer
370
13
48
1
60
0
100
AcDbLine
10
55.840524
20
-18.793808
30
0
11
58.620298
21
-17.203779
31
0
39
0
210
0
220
0
230
1
0
LINE
5
B0
100
AcDbEntity
8
1
62
256
6
ByLayer
370
13
48
1
60
0
100
AcDbLine
10
55.840524
20
-18.793808
30
0
11
58.937112
21
-17.977415
31
0
39
0
210
0
220
0
230
1
0
LINE
5
B1
100
AcDbEntity
8
1
62
256
6
ByLayer
370
13
48
1
60
0
100
AcDbLine
10
58.620298
20
-17.203779
30
0
11
58.937112
21
-17.977415
31
0
39
0
210
0
220
0
230
1
0
MTEXT
5
105
100
AcDbEntity
8
SK2
62
256
6
ByLayer
370
18
48
1
60
0
100
AcDbMText
10
62.717388
20
-2.467451
30
0
210
0
220
0
230
1
1
\W0.7237;140.00
40
3.50012
41
0
44
1.084337
50
0
71
7
72
5
7
iso_b_vert
0
MTEXT
5
108
100
AcDbEntity
8
SK6
62
256
6
ByLayer
370
18
48
1
60
0
100
AcDbMText
10
-34.47887
20
-54.814734
30
0
210
0
220
0
230
1
1
\W0.7454;860.1-0890-028A1-GM X1BM
40
3.175
41
0
44
1.084337
50
0
71
7
72
5
7
iso_b_vert
0
DIMENSION
5
10B
100
AcDbEntity
8
SK2
62
256
6
ByLayer
370
18
48
1
60
0
100
AcDbDimension
2
_U0
10
49
20
-28.50012
30
0
11
24.5
21
-28.50012
31
0
70
32
71
2
72
1
41
1
210
0
220
0
230
1
3
Standard
100
AcDbAlignedDimension
13
0
23
-5
33
0
14
49
24
0
34
0
50
0
100
AcDbRotatedDimension
1001
ACAD
1000
DSTYLE
1002
{
1070
   371
1070
    13
1070
   372
1070
    13
1070
     3
1000

1070
   170
1070
     0
1070
   144
1040
1.0
1070
   277
1070
     2
1070
   284
1070
     8
1070
   278
1070
    46
1070
   146
1040
0.999966
1070
   345
1005
16
1070
   347
1005
16
1070
   346
1005
16
1070
   344
1005
10C
1070
   343
1005
10C
1070
   172
1070
     1
1070
    76
1070
     0
1070
    75
1070
     0
1070
   282
1070
     0
1070
   281
1070
     0
1070
    71
1070
     0
1070
    74
1070
     0
1070
   279
1070
     0
1070
   173
1070
     1
1070
   340
1005
106
1070
   271
1070
     1
1070
   272
1070
     2
1070
    77
1070
     1
1070
    73
1070
     1
1070
   171
1070
     3
1070
   274
1070
     4
1070
   177
1070
   150
1070
   176
1070
     9
1070
   178
1070
    43
1070
    78
1070
     8
1070
    48
1040
-0.1
1070
    41
1040
3.175
1070
   147
1040
1.75006
1070
    42
1040
1.5875
1070
    44
1040
3.175
1070
   140
1040
3.50012
1002
}
1001
ACAD_DSTYLE_DIM_LINETYPE
1070
   380
1005
16
1001
ACAD_DSTYLE_DIM_EXT1_LINETYPE
1070
   381
1005
16
1001
ACAD_DSTYLE_DIM_EXT2_LINETYPE
1070
   382
1005
16
0
DIMENSION
5
131
100
AcDbEntity
8
2
62
256
6
ByLayer
370
18
48
1
60
0
100
AcDbDimension
2
_U1
10
55.75006
20
4.45
30
0
11
55.75006
21
19.939897
31
0
70
32
71
1
72
1
41
1
210
0
220
0
230
1
3
Standard
100
AcDbAlignedDimension
13
47.3803
23
-4.45
33
0
14
47.3803
24
4.45
34
0
50
90
100
AcDbRotatedDimension
1001
ACAD
1000
DSTYLE
1002
{
1070
   371
1070
    13
1070
   372
1070
    13
1070
     3
1000

1070
   170
1070
     0
1070
   144
1040
1.0
1070
   277
1070
     2
1070
   284
1070
     8
1070
   278
1070
    46
1070
   146
1040
0.999966
1070
   345
1005
16
1070
   347
1005
16
1070
   346
1005
16
1070
   344
1005
10C
1070
   343
1005
10C
1070
   172
1070
     1
1070
    76
1070
     0
1070
    75
1070
     0
1070
   282
1070
     0
1070
   281
1070
     0
1070
    71
1070
     0
1070
    74
1070
     0
1070
   279
1070
     0
1070
   173
1070
     1
1070
   340
1005
106
1070
   271
1070
     1
1070
   272
1070
     2
1070
    77
1070
     1
1070
    73
1070
     0
1070
   171
1070
     3
1070
   274
1070
     4
1070
   177
1070
   150
1070
   176
1070
     9
1070
   178
1070
    43
1070
    78
1070
     8
1070
    48
1040
-0.1
1070
    41
1040
3.175
1070
   147
1040
1.75006
1070
    42
1040
1.5875
1070
    44
1040
3.175
1070
   140
1040
3.50012
1002
}
1001
ACAD_DSTYLE_DIM_LINETYPE
1070
   380
1005
16
1001
ACAD_DSTYLE_DIM_EXT1_LINETYPE
1070
   381
1005
16
1001
ACAD_DSTYLE_DIM_EXT2_LINETYPE
1070
   382
1005
16
0
DIMENSION
5
150
100
AcDbEntity
8
SK2
62
256
6
ByLayer
370
18
48
1
60
0
100
AcDbDimension
2
_U2
10
-43.24994
20
-5
30
0
11
-43.24994
21
19.97767
31
0
70
32
71
1
72
1
41
1
210
0
220
0
230
1
3
Standard
100
AcDbAlignedDimension
13
-40
23
5
33
0
14
-40
24
-5
34
0
50
90
100
AcDbRotatedDimension
1001
ACAD
1000
DSTYLE
1002
{
1070
   371
1070
    13
1070
   372
1070
    13
1070
     3
1000

1070
   170
1070
     0
1070
   144
1040
1.0
1070
   277
1070
     2
1070
   284
1070
     8
1070
   278
1070
    46
1070
   146
1040
0.999966
1070
   345
1005
16
1070
   347
1005
16
1070
   346
1005
16
1070
   344
1005
10C
1070
   343
1005
10C
1070
   172
1070
     1
1070
    76
1070
     0
1070
    75
1070
     0
1070
   282
1070
     0
1070
   281
1070
     0
1070
    71
1070
     0
1070
    74
1070
     0
1070
   279
1070
     0
1070
   173
1070
     1
1070
   340
1005
106
1070
   271
1070
     1
1070
   272
1070
     2
1070
    77
1070
     1
1070
    73
1070
     0
1070
   171
1070
     3
1070
   274
1070
     4
1070
   177
1070
   150
1070
   176
1070
     9
1070
   178
1070
    43
1070
    78
1070
     8
1070
    48
1040
-0.1
1070
    41
1040
3.175
1070
   147
1040
1.75006
1070
    42
1040
1.5875
1070
    44
1040
3.175
1070
   140
1040
3.50012
1002
}
1001
ACAD_DSTYLE_DIM_LINETYPE
1070
   380
1005
16
1001
ACAD_DSTYLE_DIM_EXT1_LINETYPE
1070
   381
1005
16
1001
ACAD_DSTYLE_DIM_EXT2_LINETYPE
1070
   382
1005
16
0
DIMENSION
5
16E
100
AcDbEntity
8
SK2
62
256
6
ByLayer
370
18
48
1
60
0
100
AcDbDimension
2
_U3
10
0
20
-28.50012
30
0
11
-20
21
-28.50012
31
0
70
32
71
1
72
1
41
1
210
0
220
0
230
1
3
Standard
100
AcDbAlignedDimension
13
-40
23
-5
33
0
14
0
24
-5
34
0
50
0
100
AcDbRotatedDimension
1001
ACAD
1000
DSTYLE
1002
{
1070
   371
1070
    13
1070
   372
1070
    13
1070
     3
1000

1070
   170
1070
     0
1070
   144
1040
1.0
1070
   277
1070
     2
1070
   284
1070
     8
1070
   278
1070
    46
1070
   146
1040
0.999966
1070
   345
1005
16
1070
   347
1005
16
1070
   346
1005
16
1070
   344
1005
10C
1070
   343
1005
10C
1070
   172
1070
     1
1070
    76
1070
     0
1070
    75
1070
     0
1070
   282
1070
     0
1070
   281
1070
     0
1070
    71
1070
     0
1070
    74
1070
     0
1070
   279
1070
     0
1070
   173
1070
     1
1070
   340
1005
106
1070
   271
1070
     1
1070
   272
1070
     2
1070
    77
1070
     1
1070
    73
1070
     1
1070
   171
1070
     3
1070
   274
1070
     4
1070
   177
1070
   150
1070
   176
1070
     9
1070
   178
1070
    43
1070
    78
1070
     8
1070
    48
1040
-0.1
1070
    41
1040
3.175
1070
   147
1040
1.75006
1070
    42
1040
1.5875
1070
    44
1040
3.175
1070
   140
1040
3.50012
1002
}
1001
ACAD_DSTYLE_DIM_LINETYPE
1070
   380
1005
16
1001
ACAD_DSTYLE_DIM_EXT1_LINETYPE
1070
   381
1005
16
1001
ACAD_DSTYLE_DIM_EXT2_LINETYPE
1070
   382
1005
16
0
DIMENSION
5
18A
100
AcDbEntity
8
SK2
62
256
6
ByLayer
370
18
48
1
60
0
100
AcDbDimension
2
_U4
10
49
20
-19.74982
30
0
11
25.5
21
-19.74982
31
0
70
32
71
1
72
1
41
1
210
0
220
0
230
1
3
Standard
100
AcDbAlignedDimension
13
2
23
4.95
33
0
14
49
24
0
34
0
50
0
100
AcDbRotatedDimension
1001
ACAD
1000
DSTYLE
1002
{
1070
   371
1070
    13
1070
   372
1070
    13
1070
     3
1000

1070
   170
1070
     0
1070
   144
1040
1.0
1070
   277
1070
     2
1070
   284
1070
     8
1070
   278
1070
    46
1070
   146
1040
0.999966
1070
   345
1005
16
1070
   347
1005
16
1070
   346
1005
16
1070
   344
1005
10C
1070
   343
1005
10C
1070
   172
1070
     1
1070
    76
1070
     0
1070
    75
1070
     0
1070
   282
1070
     0
1070
   281
1070
     0
1070
    71
1070
     0
1070
    74
1070
     0
1070
   279
1070
     0
1070
   173
1070
     1
1070
   340
1005
106
1070
   271
1070
     1
1070
   272
1070
     2
1070
    77
1070
     1
1070
    73
1070
     1
1070
   171
1070
     3
1070
   274
1070
     4
1070
   177
1070
   150
1070
   176
1070
     9
1070
   178
1070
    43
1070
    78
1070
     8
1070
    48
1040
-0.1
1070
    41
1040
3.175
1070
   147
1040
1.75006
1070
    42
1040
1.5875
1070
    44
1040
3.175
1070
   140
1040
3.50012
1002
}
1001
ACAD_DSTYLE_DIM_LINETYPE
1070
   380
1005
16
1001
ACAD_DSTYLE_DIM_EXT1_LINETYPE
1070
   381
1005
16
1001
ACAD_DSTYLE_DIM_EXT2_LINETYPE
1070
   382
1005
16
0
DIMENSION
5
1A6
100
AcDbEntity
8
SK2
62
256
6
ByLayer
370
18
48
1
60
0
100
AcDbDimension
2
_U5
10
49
20
-11.82
30
0
11
34.85
21
-11.82
31
0
70
32
71
1
72
1
41
1
210
0
220
0
230
1
3
Standard
100
AcDbAlignedDimension
13
20.7
23
-4.45
33
0
14
49
24
0
34
0
50
0
100
AcDbRotatedDimension
1001
ACAD
1000
DSTYLE
1002
{
1070
   371
1070
    13
1070
   372
1070
    13
1070
     3
1000

1070
   170
1070
     0
1070
   144
1040
1.0
1070
   277
1070
     2
1070
   284
1070
     8
1070
   278
1070
    46
1070
   146
1040
1.25
1070
   345
1005
16
1070
   347
1005
16
1070
   346
1005
16
1070
   344
1005
10C
1070
   343
1005
10C
1070
   172
1070
     1
1070
    76
1070
     0
1070
    75
1070
     0
1070
   282
1070
     0
1070
   281
1070
     0
1070
    71
1070
     0
1070
    74
1070
     0
1070
   279
1070
     0
1070
   173
1070
     1
1070
   340
1005
106
1070
   271
1070
     1
1070
   272
1070
     2
1070
    77
1070
     1
1070
    73
1070
     1
1070
   171
1070
     3
1070
   274
1070
     4
1070
   177
1070
   150
1070
   176
1070
     9
1070
   178
1070
    43
1070
    78
1070
     8
1070
    48
1040
-0.1
1070
    41
1040
3.175
1070
   147
1040
0.42
1070
    42
1040
1.5875
1070
    44
1040
0.5
1070
   140
1040
2.8
1002
}
1001
ACAD_DSTYLE_DIM_LINETYPE
1070
   380
1005
16
1001
ACAD_DSTYLE_DIM_EXT1_LINETYPE
1070
   381
1005
16
1001
ACAD_DSTYLE_DIM_EXT2_LINETYPE
1070
   382
1005
16
0
DIMENSION
5
1C2
100
AcDbEntity
8
SK2
62
256
6
ByLayer
370
18
48
1
60
0
100
AcDbDimension
2
_U6
10
49
20
-38.50012
30
0
11
4.5
21
-38.50012
31
0
70
32
71
1
72
1
41
1
210
0
220
0
230
1
3
Standard
100
AcDbAlignedDimension
13
-40
23
0
33
0
14
49
24
0
34
0
50
0
100
AcDbRotatedDimension
1001
ACAD
1000
DSTYLE
1002
{
1070
   371
1070
    13
1070
   372
1070
    13
1070
     3
1000

1070
   170
1070
     0
1070
   144
1040
1.0
1070
   277
1070
     2
1070
   284
1070
     8
1070
   278
1070
    46
1070
   146
1040
0.999966
1070
   345
1005
16
1070
   347
1005
16
1070
   346
1005
16
1070
   344
1005
10C
1070
   343
1005
10C
1070
   172
1070
     1
1070
    76
1070
     0
1070
    75
1070
     0
1070
   282
1070
     0
1070
   281
1070
     0
1070
    71
1070
     0
1070
    74
1070
     0
1070
   279
1070
     0
1070
   173
1070
     1
1070
   340
1005
106
1070
   271
1070
     1
1070
   272
1070
     2
1070
    77
1070
     1
1070
    73
1070
     1
1070
   171
1070
     3
1070
   274
1070
     4
1070
   177
1070
   150
1070
   176
1070
     9
1070
   178
1070
    43
1070
    78
1070
     8
1070
    48
1040
-0.1
1070
    41
1040
3.175
1070
   147
1040
1.75006
1070
    42
1040
1.5875
1070
    44
1040
3.175
1070
   140
1040
3.50012
1002
}
1001
ACAD_DSTYLE_DIM_LINETYPE
1070
   380
1005
16
1001
ACAD_DSTYLE_DIM_EXT1_LINETYPE
1070
   381
1005
16
1001
ACAD_DSTYLE_DIM_EXT2_LINETYPE
1070
   382
1005
16
0
ENDSEC
0
SECTION
2
OBJECTS
0
DICTIONARY
5
24e
330
0
100
AcDbDictionary
280
0
281
1
3
ACAD_GROUP
350
24f
3
ACAD_MLINESTYLE
350
250
0
DICTIONARY
5
24f
330
0
100
AcDbDictionary
280
0
281
1
0
DICTIONARY
5
250
330
0
100
AcDbDictionary
280
0
281
1
3
Standard
350
18
0
MLINESTYLE
5
18
330
250
100
AcDbMlineStyle
2
Standard
70
0
3

62
256
51
90
52
90
71
2
49
-0.5
62
256
6
ByLayer
49
0.5
62
256
6
ByLayer
0
RASTERVARIABLES
5
23c
330

100
AcDbRasterVariables
90
0
70
1
71
1
72
1
0
ENDSEC
0
EOF
